  0
SECTION
  2
HEADER
  9
$ACADVER
  1
AC1015
  9
$ACADMAINTVER
 70
     6
  9
$DWGCODEPAGE
  3
ANSI_1252
  9
$INSBASE
 10
0.0
 20
0.0
 30
0.0
  9
$EXTMIN
 10
0.0
 20
0.0
 30
0.0
  9
$EXTMAX
 10
594.0
 20
841.0
 30
0.0
  9
$LIMMIN
 10
0.0
 20
0.0
  9
$LIMMAX
 10
594.0
 20
841.0
  9
$ORTHOMODE
 70
     0
  9
$REGENMODE
 70
     1
  9
$FILLMODE
 70
     1
  9
$QTEXTMODE
 70
     0
  9
$MIRRTEXT
 70
     1
  9
$LTSCALE
 40
1.0
  9
$ATTMODE
 70
     1
  9
$TEXTSIZE
 40
10.0
  9
$TRACEWID
 40
1.0
  9
$TEXTSTYLE
  7
Standard
  9
$CLAYER
  8
0
  9
$CELTYPE
  6
ByLayer
  9
$CECOLOR
 62
   256
  9
$CELTSCALE
 40
1.0
  9
$DISPSILH
 70
     0
  9
$DIMSCALE
 40
1.0
  9
$DIMASZ
 40
2.5
  9
$DIMEXO
 40
0.0
  9
$DIMDLI
 40
3.75
  9
$DIMRND
 40
0.0
  9
$DIMDLE
 40
0.0
  9
$DIMEXE
 40
1.0
  9
$DIMTP
 40
0.0
  9
$DIMTM
 40
0.0
  9
$DIMTXT
 40
3.5
  9
$DIMCEN
 40
2.5
  9
$DIMTSZ
 40
0.0
  9
$DIMTOL
 70
     0
  9
$DIMLIM
 70
     0
  9
$DIMTIH
 70
     1
  9
$DIMTOH
 70
     1
  9
$DIMSE1
 70
     0
  9
$DIMSE2
 70
     0
  9
$DIMTAD
 70
     1
  9
$DIMZIN
 70
     0
  9
$DIMBLK
  1

  9
$DIMASO
 70
     1
  9
$DIMSHO
 70
     1
  9
$DIMPOST
  1

  9
$DIMAPOST
  1

  9
$DIMALT
 70
     0
  9
$DIMALTD
 70
     3
  9
$DIMALTF
 40
0.0393700787
  9
$DIMLFAC
 40
1.0
  9
$DIMTOFL
 70
     1
  9
$DIMTVP
 40
0.0
  9
$DIMTIX
 70
     0
  9
$DIMSOXD
 70
     0
  9
$DIMSAH
 70
     0
  9
$DIMBLK1
  1

  9
$DIMBLK2
  1

  9
$DIMSTYLE
  2
ISO-25
  9
$DIMCLRD
 70
     0
  9
$DIMCLRE
 70
     0
  9
$DIMCLRT
 70
     0
  9
$DIMTFAC
 40
1.0
  9
$DIMGAP
 40
1.5
  9
$DIMJUST
 70
     0
  9
$DIMSD1
 70
     0
  9
$DIMSD2
 70
     0
  9
$DIMTOLJ
 70
     0
  9
$DIMTZIN
 70
     0
  9
$DIMALTZ
 70
     0
  9
$DIMALTTZ
 70
     0
  9
$DIMUPT
 70
     0
  9
$DIMDEC
 70
     2
  9
$DIMTDEC
 70
     2
  9
$DIMALTU
 70
     2
  9
$DIMALTTD
 70
     3
  9
$DIMTXSTY
  7
Standard
  9
$DIMAUNIT
 70
     0
  9
$DIMADEC
 70
     2
  9
$DIMALTRND
 40
0.0
  9
$DIMAZIN
 70
     0
  9
$DIMDSEP
 70
    44
  9
$DIMATFIT
 70
     3
  9
$DIMFRAC
 70
     0
  9
$DIMLDRBLK
  1

  9
$DIMLUNIT
 70
     2
  9
$DIMLWD
 70
    -2
  9
$DIMLWE
 70
    -2
  9
$DIMTMOVE
 70
     0
  9
$LUNITS
 70
     2
  9
$LUPREC
 70
     2
  9
$SKETCHINC
 40
1.0
  9
$FILLETRAD
 40
10.0
  9
$AUNITS
 70
     0
  9
$AUPREC
 70
     2
  9
$MENU
  1
.
  9
$ELEVATION
 40
0.0
  9
$PELEVATION
 40
0.0
  9
$THICKNESS
 40
0.0
  9
$LIMCHECK
 70
     0
  9
$CHAMFERA
 40
0.0
  9
$CHAMFERB
 40
0.0
  9
$CHAMFERC
 40
0.0
  9
$CHAMFERD
 40
0.0
  9
$SKPOLY
 70
     0
  9
$TDCREATE
 40
2459986.479029641
  9
$TDUCREATE
 40
2459986.437362975
  9
$TDUPDATE
 40
2459986.479030359
  9
$TDUUPDATE
 40
2459986.437363692
  9
$TDINDWG
 40
0.0000000116
  9
$TDUSRTIMER
 40
0.0000000116
  9
$USRTIMER
 70
     1
  9
$ANGBASE
 50
0.0
  9
$ANGDIR
 70
     0
  9
$PDMODE
 70
     0
  9
$PDSIZE
 40
-1.0
  9
$PLINEWID
 40
0.0
  9
$SPLFRAME
 70
     0
  9
$SPLINETYPE
 70
     6
  9
$SPLINESEGS
 70
     8
  9
$HANDSEED
  5
116
  9
$SURFTAB1
 70
     6
  9
$SURFTAB2
 70
     6
  9
$SURFTYPE
 70
     6
  9
$SURFU
 70
     6
  9
$SURFV
 70
     6
  9
$UCSBASE
  2

  9
$UCSNAME
  2

  9
$UCSORG
 10
0.0
 20
0.0
 30
0.0
  9
$UCSXDIR
 10
1.0
 20
0.0
 30
0.0
  9
$UCSYDIR
 10
0.0
 20
1.0
 30
0.0
  9
$UCSORTHOREF
  2

  9
$UCSORTHOVIEW
 70
     0
  9
$UCSORGTOP
 10
0.0
 20
0.0
 30
0.0
  9
$UCSORGBOTTOM
 10
0.0
 20
0.0
 30
0.0
  9
$UCSORGLEFT
 10
0.0
 20
0.0
 30
0.0
  9
$UCSORGRIGHT
 10
0.0
 20
0.0
 30
0.0
  9
$UCSORGFRONT
 10
0.0
 20
0.0
 30
0.0
  9
$UCSORGBACK
 10
0.0
 20
0.0
 30
0.0
  9
$PUCSBASE
  2

  9
$PUCSNAME
  2

  9
$PUCSORG
 10
0.0
 20
0.0
 30
0.0
  9
$PUCSXDIR
 10
1.0
 20
0.0
 30
0.0
  9
$PUCSYDIR
 10
0.0
 20
1.0
 30
0.0
  9
$PUCSORTHOREF
  2

  9
$PUCSORTHOVIEW
 70
     0
  9
$PUCSORGTOP
 10
0.0
 20
0.0
 30
0.0
  9
$PUCSORGBOTTOM
 10
0.0
 20
0.0
 30
0.0
  9
$PUCSORGLEFT
 10
0.0
 20
0.0
 30
0.0
  9
$PUCSORGRIGHT
 10
0.0
 20
0.0
 30
0.0
  9
$PUCSORGFRONT
 10
0.0
 20
0.0
 30
0.0
  9
$PUCSORGBACK
 10
0.0
 20
0.0
 30
0.0
  9
$USERI1
 70
     0
  9
$USERI2
 70
     0
  9
$USERI3
 70
     0
  9
$USERI4
 70
     0
  9
$USERI5
 70
     0
  9
$USERR1
 40
0.0
  9
$USERR2
 40
0.0
  9
$USERR3
 40
0.0
  9
$USERR4
 40
0.0
  9
$USERR5
 40
0.0
  9
$WORLDVIEW
 70
     1
  9
$SHADEDGE
 70
     3
  9
$SHADEDIF
 70
    70
  9
$TILEMODE
 70
     1
  9
$MAXACTVP
 70
    64
  9
$PINSBASE
 10
0.0
 20
0.0
 30
0.0
  9
$PLIMCHECK
 70
     0
  9
$PEXTMIN
 10
1.0000000000E+20
 20
1.0000000000E+20
 30
1.0000000000E+20
  9
$PEXTMAX
 10
-1.0000000000E+20
 20
-1.0000000000E+20
 30
-1.0000000000E+20
  9
$PLIMMIN
 10
0.0
 20
0.0
  9
$PLIMMAX
 10
420.0
 20
297.0
  9
$UNITMODE
 70
     0
  9
$VISRETAIN
 70
     1
  9
$PLINEGEN
 70
     0
  9
$PSLTSCALE
 70
     1
  9
$TREEDEPTH
 70
  3020
  9
$CMLSTYLE
  2
Standard
  9
$CMLJUST
 70
     0
  9
$CMLSCALE
 40
20.0
  9
$PROXYGRAPHICS
 70
     1
  9
$MEASUREMENT
 70
     1
  9
$CELWEIGHT
370
    -1
  9
$ENDCAPS
280
     0
  9
$JOINSTYLE
280
     0
  9
$LWDISPLAY
290
     1
  9
$INSUNITS
 70
     4
  9
$HYPERLINKBASE
  1

  9
$STYLESHEET
  1

  9
$XEDIT
290
     1
  9
$CEPSNTYPE
380
     0
  9
$PSTYLEMODE
290
     1
  9
$FINGERPRINTGUID
  2
{f59d983f-b9ba-429c-88c8-48dff7fc5d92}
  9
$VERSIONGUID
  2
{FAEB1C32-E019-11D5-929B-00C0DF256EC4}
  9
$EXTNAMES
290
     1
  9
$PSVPSCALE
 40
0.0
  9
$OLESTARTUP
290
     0
  0
ENDSEC
  0
SECTION
  2
CLASSES
  0
CLASS
  1
ACDBDICTIONARYWDFLT
  2
AcDbDictionaryWithDefault
  3
ObjectDBX Classes
 90
        0
280
     0
281
     0
  0
CLASS
  1
VISUALSTYLE
  2
AcDbVisualStyle
  3
ObjectDBX Classes
 90
     4095
280
     0
281
     0
  0
CLASS
  1
MATERIAL
  2
AcDbMaterial
  3
ObjectDBX Classes
 90
     1153
280
     0
281
     0
  0
CLASS
  1
SCALE
  2
AcDbScale
  3
ObjectDBX Classes
 90
     1153
280
     0
281
     0
  0
CLASS
  1
TABLESTYLE
  2
AcDbTableStyle
  3
ObjectDBX Classes
 90
     4095
280
     0
281
     0
  0
CLASS
  1
MLEADERSTYLE
  2
AcDbMLeaderStyle
  3
ACDB_MLEADERSTYLE_CLASS
 90
     4095
280
     0
281
     0
  0
CLASS
  1
SUN
  2
AcDbSun
  3
SCENEOE
 90
     1153
280
     0
281
     0
  0
CLASS
  1
ACDBPLACEHOLDER
  2
AcDbPlaceHolder
  3
ObjectDBX Classes
 90
        0
280
     0
281
     0
  0
CLASS
  1
LAYOUT
  2
AcDbLayout
  3
ObjectDBX Classes
 90
        0
280
     0
281
     0
  0
ENDSEC
  0
SECTION
  2
TABLES
  0
TABLE
  2
VPORT
  5
8
330
0
100
AcDbSymbolTable
 70
     1
  0
VPORT
  5
29
330
8
100
AcDbSymbolTableRecord
100
AcDbViewportTableRecord
  2
*Active
 70
     0
 10
0.0
 20
0.0
 11
1.0
 21
1.0
 12
297.0
 22
420.5
 13
0.0
 23
0.0
 14
10.0
 24
10.0
 15
10.0
 25
10.0
 16
0.0
 26
0.0
 36
1.0
 17
0.0
 27
0.0
 37
0.0
 40
841.0
 41
0.7063020214
 42
50.0
 43
0.0
 44
0.0
 50
0.0
 51
0.0
 71
     0
 72
  2000
 73
     1
 74
     3
 75
     0
 76
     0
 77
     0
 78
     0
281
     0
 65
     1
110
0.0
120
0.0
130
0.0
111
1.0
121
0.0
131
0.0
112
0.0
122
1.0
132
0.0
 79
     0
146
0.0
  0
ENDTAB
  0
TABLE
  2
LTYPE
  5
5
330
0
100
AcDbSymbolTable
 70
     6
  0
LTYPE
  5
14
330
5
100
AcDbSymbolTableRecord
100
AcDbLinetypeTableRecord
  2
ByBlock
 70
     0
  3

 72
    65
 73
     0
 40
0.0
  0
LTYPE
  5
15
330
5
100
AcDbSymbolTableRecord
100
AcDbLinetypeTableRecord
  2
ByLayer
 70
     0
  3

 72
    65
 73
     0
 40
0.0
  0
LTYPE
  5
16
330
5
100
AcDbSymbolTableRecord
100
AcDbLinetypeTableRecord
  2
Continuous
 70
     0
  3
Solid line
 72
    65
 73
     0
 40
0.0
  0
LTYPE
  5
6E
330
5
100
AcDbSymbolTableRecord
100
AcDbLinetypeTableRecord
  2
HIDDEN
 70
     0
  3
Hidden __ __ __ __ __ __ __ __ __ __ __ __ __ __
 72
    65
 73
     2
 40
1.905
 49
1.27
 74
     0
 49
-0.635
 74
     0
  0
LTYPE
  5
6F
330
5
100
AcDbSymbolTableRecord
100
AcDbLinetypeTableRecord
  2
PHANTOM
 70
     0
  3
Phantom ______  __  __  ______  __  __  ______
 72
    65
 73
     6
 40
12.7
 49
6.35
 74
     0
 49
-1.27
 74
     0
 49
1.27
 74
     0
 49
-1.27
 74
     0
 49
1.27
 74
     0
 49
-1.27
 74
     0
  0
LTYPE
  5
70
330
5
100
AcDbSymbolTableRecord
100
AcDbLinetypeTableRecord
  2
CENTER
 70
     0
  3
Center ____ _ ____ _ ____ _ ____ _ ____ _ ____
 72
    65
 73
     4
 40
10.16
 49
6.35
 74
     0
 49
-1.27
 74
     0
 49
1.27
 74
     0
 49
-1.27
 74
     0
  0
LTYPE
  5
71
330
5
100
AcDbSymbolTableRecord
100
AcDbLinetypeTableRecord
  2
CENTERX2
 70
     0
  3
Center (2x) ________  __  ________  __  _____
 72
    65
 73
     4
 40
20.32
 49
12.7
 74
     0
 49
-2.54
 74
     0
 49
2.54
 74
     0
 49
-2.54
 74
     0
  0
LTYPE
  5
72
330
5
100
AcDbSymbolTableRecord
100
AcDbLinetypeTableRecord
  2
DOT2
 70
     0
  3
Dot (.5x) ........................................
 72
    65
 73
     2
 40
0.635
 49
0.0
 74
     0
 49
-0.635
 74
     0
  0
ENDTAB
  0
TABLE
  2
LAYER
  5
2
330
0
100
AcDbSymbolTable
 70
     1
  0
LAYER
  5
10
330
2
100
AcDbSymbolTableRecord
100
AcDbLayerTableRecord
  2
0
 70
     0
 62
     7
  6
Continuous
370
    -3
390
F
  0
ENDTAB
  0
TABLE
  2
STYLE
  5
3
330
0
100
AcDbSymbolTable
 70
     3
  0
STYLE
  5
11
330
3
100
AcDbSymbolTableRecord
100
AcDbTextStyleTableRecord
  2
Standard
 70
     0
 40
0.0
 41
1.0
 50
0.0
 71
     0
 42
10.0
  3
txt
  4

  0
STYLE
  5
76
330
3
100
AcDbSymbolTableRecord
100
AcDbTextStyleTableRecord
  2
SLDTEXTSTYLE0
 70
     0
 40
0.0
 41
0.96
 50
0.0
 71
     0
 42
10.0
  3
ISOCP3
  4

  0
STYLE
  5
8D
330
3
100
AcDbSymbolTableRecord
100
AcDbTextStyleTableRecord
  2
SLDTEXTSTYLE1
 70
     0
 40
0.0
 41
0.605
 50
0.0
 71
     0
 42
10.0
  3
TXT
  4

  0
ENDTAB
  0
TABLE
  2
VIEW
  5
6
330
0
100
AcDbSymbolTable
 70
     0
  0
ENDTAB
  0
TABLE
  2
UCS
  5
7
330
0
100
AcDbSymbolTable
 70
     0
  0
ENDTAB
  0
TABLE
  2
APPID
  5
9
330
0
100
AcDbSymbolTable
 70
     1
  0
APPID
  5
12
330
9
100
AcDbSymbolTableRecord
100
AcDbRegAppTableRecord
  2
ACAD
 70
     0
  0
ENDTAB
  0
TABLE
  2
DIMSTYLE
  5
A
330
0
100
AcDbSymbolTable
 70
     2
100
AcDbDimStyleTable
  0
DIMSTYLE
105
27
330
A
100
AcDbSymbolTableRecord
100
AcDbDimStyleTableRecord
  2
ISO-25
 70
     0
 41
2.5
 42
0.625
 43
3.75
 44
1.25
 73
     0
 74
     0
 77
     1
 78
     8
140
2.5
141
2.5
143
0.0393700787
147
0.625
171
     3
172
     1
178
     0
271
     2
272
     2
274
     3
278
    44
283
     0
284
     8
340
11
  0
DIMSTYLE
105
77
102
{ACAD_REACTORS
330
75
330
82
102
}
330
A
100
AcDbSymbolTableRecord
100
AcDbDimStyleTableRecord
  2
SLDDIMSTYLE0
 70
     0
 41
2.5
 44
0.0
 45
0.000000001
 73
     0
 74
     0
 77
     1
 78
    12
 79
     3
140
6.0
147
1.5
173
     1
178
     0
271
     2
272
     2
276
     2
284
    12
340
76
  0
ENDTAB
  0
TABLE
  2
BLOCK_RECORD
  5
1
330
0
100
AcDbSymbolTable
 70
     3
  0
BLOCK_RECORD
  5
1F
330
1
100
AcDbSymbolTableRecord
100
AcDbBlockTableRecord
  2
*Model_Space
340
22
  0
BLOCK_RECORD
  5
1B
330
1
100
AcDbSymbolTableRecord
100
AcDbBlockTableRecord
  2
*Paper_Space
340
1E
  0
BLOCK_RECORD
  5
23
330
1
100
AcDbSymbolTableRecord
100
AcDbBlockTableRecord
  2
*Paper_Space0
340
26
  0
BLOCK_RECORD
  5
78
330
1
100
AcDbSymbolTableRecord
100
AcDbBlockTableRecord
  2
_D
340
0
  0
BLOCK_RECORD
  5
83
330
1
100
AcDbSymbolTableRecord
100
AcDbBlockTableRecord
  2
_D_1
340
0
  0
ENDTAB
  0
ENDSEC
  0
SECTION
  2
BLOCKS
  0
BLOCK
  5
20
330
1F
100
AcDbEntity
  8
0
100
AcDbBlockBegin
  2
*Model_Space
 70
     0
 10
0.0
 20
0.0
 30
0.0
  3
*Model_Space
  1

  0
ENDBLK
  5
21
330
1F
100
AcDbEntity
  8
0
100
AcDbBlockEnd
  0
BLOCK
  5
1C
330
1B
100
AcDbEntity
 67
     1
  8
0
100
AcDbBlockBegin
  2
*Paper_Space
 70
     0
 10
0.0
 20
0.0
 30
0.0
  3
*Paper_Space
  1

  0
ENDBLK
  5
1D
330
1B
100
AcDbEntity
 67
     1
  8
0
100
AcDbBlockEnd
  0
BLOCK
  5
24
330
23
100
AcDbEntity
  8
0
100
AcDbBlockBegin
  2
*Paper_Space0
 70
     0
 10
0.0
 20
0.0
 30
0.0
  3
*Paper_Space0
  1

  0
ENDBLK
  5
25
330
23
100
AcDbEntity
  8
0
100
AcDbBlockEnd
  0
BLOCK
  5
79
330
78
100
AcDbEntity
  8
0
100
AcDbBlockBegin
  2
_D
 70
     0
 10
0.0
 20
0.0
 30
0.0
  3
_D
  1

  0
SOLID
  5
7B
330
78
100
AcDbEntity
  8
0
  6
Continuous
 62
     7
370
    18
100
AcDbTrace
 10
42.7614395004
 20
152.0299240879
 30
0.0
 11
42.4614395004
 21
149.5299240879
 31
0.0
 12
43.0614395004
 22
149.5299240879
 32
0.0
 13
43.0614395004
 23
149.5299240879
 33
0.0
  0
SOLID
  5
7C
330
78
100
AcDbEntity
  8
0
  6
Continuous
 62
     7
370
    18
100
AcDbTrace
 10
42.7614395004
 20
52.0299240879
 30
0.0
 11
43.0614395004
 21
54.5299240879
 31
0.0
 12
42.4614395004
 22
54.5299240879
 32
0.0
 13
42.4614395004
 23
54.5299240879
 33
0.0
  0
LINE
  5
7D
330
78
100
AcDbEntity
  8
0
  6
Continuous
 62
     7
370
     0
100
AcDbLine
 10
56.6850079902
 20
152.0299240879
 30
0.0
 11
41.7614395004
 21
152.0299240879
 31
0.0
  0
LINE
  5
7E
330
78
100
AcDbEntity
  8
0
  6
Continuous
 62
     7
370
     0
100
AcDbLine
 10
56.6850079902
 20
52.0299240879
 30
0.0
 11
41.7614395004
 21
52.0299240879
 31
0.0
  0
LINE
  5
7F
330
78
100
AcDbEntity
  8
0
  6
Continuous
 62
     7
370
     0
100
AcDbLine
 10
42.7614395004
 20
152.0299240879
 30
0.0
 11
42.7614395004
 21
52.0299240879
 31
0.0
  0
MTEXT
  5
80
330
78
100
AcDbEntity
  8
0
  6
Continuous
 62
     7
370
    18
100
AcDbMText
 10
35.0270332946
 20
94.3680541463
 30
0.0
 40
6.0
 41
0.0
 71
     1
 72
     1
  1
100
  7
SLDTEXTSTYLE0
 11
-7.044195017643634E-15
 21
1.0
 31
0.0
 73
     1
 44
1.0
  0
MTEXT
  5
81
330
78
100
AcDbEntity
  8
0
  6
Continuous
 62
     7
370
    18
100
AcDbMText
 10
35.0270332946
 20
105.7430548466
 30
0.0
 40
6.0
 41
0.0
 71
     1
 72
     1
  1
mm
  7
SLDTEXTSTYLE0
 11
-7.044195017643634E-15
 21
1.0
 31
0.0
 73
     1
 44
1.0
  0
ENDBLK
  5
7A
330
78
100
AcDbEntity
  8
0
100
AcDbBlockEnd
  0
BLOCK
  5
84
330
83
100
AcDbEntity
  8
0
100
AcDbBlockBegin
  2
_D_1
 70
     0
 10
0.0
 20
0.0
 30
0.0
  3
_D_1
  1

  0
SOLID
  5
86
330
83
100
AcDbEntity
  8
0
  6
Continuous
 62
     7
370
    18
100
AcDbTrace
 10
56.6850079902
 20
38.4602342313
 30
0.0
 11
59.1850079902
 21
38.1602342313
 31
0.0
 12
59.1850079902
 22
38.7602342313
 32
0.0
 13
59.1850079902
 23
38.7602342313
 33
0.0
  0
SOLID
  5
87
330
83
100
AcDbEntity
  8
0
  6
Continuous
 62
     7
370
    18
100
AcDbTrace
 10
156.6850079902
 20
38.4602342313
 30
0.0
 11
154.1850079902
 21
38.7602342313
 31
0.0
 12
154.1850079902
 22
38.1602342313
 32
0.0
 13
154.1850079902
 23
38.1602342313
 33
0.0
  0
LINE
  5
88
330
83
100
AcDbEntity
  8
0
  6
Continuous
 62
     7
370
     0
100
AcDbLine
 10
56.6850079902
 20
52.0299240879
 30
0.0
 11
56.6850079902
 21
37.4602342313
 31
0.0
  0
LINE
  5
89
330
83
100
AcDbEntity
  8
0
  6
Continuous
 62
     7
370
     0
100
AcDbLine
 10
156.6850079902
 20
52.0299240879
 30
0.0
 11
156.6850079902
 21
37.4602342313
 31
0.0
  0
LINE
  5
8A
330
83
100
AcDbEntity
  8
0
  6
Continuous
 62
     7
370
     0
100
AcDbLine
 10
56.6850079902
 20
38.4602342313
 30
0.0
 11
156.6850079902
 21
38.4602342313
 31
0.0
  0
MTEXT
  5
8B
330
83
100
AcDbEntity
  8
0
  6
Continuous
 62
     7
370
    18
100
AcDbMText
 10
93.9626484861
 20
46.1946404371
 30
0.0
 40
6.0
 41
0.0
 71
     1
 72
     1
  1
100
  7
SLDTEXTSTYLE0
 73
     1
 44
1.0
  0
MTEXT
  5
8C
330
83
100
AcDbEntity
  8
0
  6
Continuous
 62
     7
370
    18
100
AcDbMText
 10
105.3376491864
 20
46.1946404371
 30
0.0
 40
6.0
 41
0.0
 71
     1
 72
     1
  1
mm
  7
SLDTEXTSTYLE0
 73
     1
 44
1.0
  0
ENDBLK
  5
85
330
83
100
AcDbEntity
  8
0
100
AcDbBlockEnd
  0
ENDSEC
  0
SECTION
  2
ENTITIES
  0
LINE
  5
73
330
1F
100
AcDbEntity
  8
0
  6
Continuous
 62
     7
370
    18
100
AcDbLine
 10
56.6850079902
 20
152.0299240879
 30
0.0
 11
56.6850079902
 21
52.0299240879
 31
0.0
  0
LINE
  5
74
330
1F
100
AcDbEntity
  8
0
  6
Continuous
 62
     7
370
    18
100
AcDbLine
 10
56.6850079902
 20
52.0299240879
 30
0.0
 11
156.6850079902
 21
52.0299240879
 31
0.0
  0
DIMENSION
  5
75
330
1F
100
AcDbEntity
  8
0
  6
Continuous
 62
     7
370
    18
100
AcDbDimension
  2
_D
 10
42.7614395004
 20
52.0299240879
 30
0.0
 11
42.7614395004
 21
105.4472211621
 31
0.0
 70
   160
  1
<>mm
 71
     2
 42
-1.0
  3
SLDDIMSTYLE0
100
AcDbAlignedDimension
 13
56.6850079902
 23
152.0299240879
 33
0.0
 14
56.6850079902
 24
52.0299240879
 34
0.0
 50
90.0
100
AcDbRotatedDimension
  0
DIMENSION
  5
82
330
1F
100
AcDbEntity
  8
0
  6
Continuous
 62
     7
370
    18
100
AcDbDimension
  2
_D_1
 10
156.6850079902
 20
38.4602342313
 30
0.0
 11
105.0418155019
 21
38.4602342313
 31
0.0
 70
   160
  1
<>mm
 71
     2
 42
-1.0
  3
SLDDIMSTYLE0
100
AcDbAlignedDimension
 13
56.6850079902
 23
52.0299240879
 33
0.0
 14
156.6850079902
 24
52.0299240879
 34
0.0
100
AcDbRotatedDimension
  0
MTEXT
  5
8E
330
1F
100
AcDbEntity
  8
0
  6
Continuous
 62
     7
370
     0
100
AcDbMText
 10
412.8252631579
 20
48.4342449499
 30
0.0
 40
10.0
 41
0.0
 71
     1
 72
     1
  1
KLUDI GmbH & Co KG
  7
SLDTEXTSTYLE1
 73
     1
 44
1.0
  0
MTEXT
  5
8F
330
1F
100
AcDbEntity
  8
0
  6
Continuous
 62
     7
370
     0
100
AcDbMText
 10
210.0873490389
 20
48.4342449499
 30
0.0
 40
10.0
 41
0.0
 71
     1
 72
     1
  1
20 755 .. 15
  7
SLDTEXTSTYLE1
 73
     1
 44
1.0
  0
SPLINE
  5
90
330
1F
100
AcDbEntity
  8
0
  6
Continuous
 62
     7
370
    25
100
AcDbSpline
210
0.0
220
0.0
230
1.0
 70
     8
 71
     3
 72
    20
 73
    16
 74
     0
 42
0.00000001
 43
0.00000001
 40
0.0
 40
0.0
 40
0.0
 40
0.0
 40
0.1250000000000001
 40
0.1250000000000001
 40
0.2500000000000001
 40
0.2500000000000001
 40
0.3750000000000002
 40
0.3750000000000002
 40
0.5000000000000002
 40
0.5000000000000002
 40
0.7500000000000003
 40
0.7500000000000003
 40
0.8750000000000002
 40
0.8750000000000002
 40
1.0
 40
1.0
 40
1.0
 40
1.0
 10
216.0634717000725
 20
359.484599689647
 30
0.0
 10
215.9385282267611
 20
359.4465356265267
 30
0.0
 10
215.8111478880073
 20
359.4084714581595
 30
0.0
 10
215.552310924423
 20
359.3155787043883
 30
0.0
 10
215.4211841306472
 20
359.2608994714773
 30
0.0
 10
215.1680898332561
 20
359.1288856266075
 30
0.0
 10
215.0464521606955
 20
359.0517003671418
 30
0.0
 10
214.8274552196476
 20
358.8748774719073
 30
0.0
 10
214.730425782215
 20
358.7753891886316
 30
0.0
 10
214.4864166559452
 20
358.4459703634144
 30
0.0
 10
214.3860235874127
 20
358.1807562840355
 30
0.0
 10
214.3074072990848
 20
357.7654528357129
 30
0.0
 10
214.2928538920972
 20
357.6248828319393
 30
0.0
 10
214.2780399225915
 20
357.3471389441527
 30
0.0
 10
214.2778118161916
 20
357.2102158726216
 30
0.0
 10
214.2778118161916
 20
357.0739112445967
 30
0.0
  0
SPLINE
  5
91
330
1F
100
AcDbEntity
  8
0
  6
Continuous
 62
     7
370
    25
100
AcDbSpline
210
0.0
220
0.0
230
1.0
 70
     8
 71
     3
 72
    20
 73
    16
 74
     0
 42
0.00000001
 43
0.00000001
 40
0.0
 40
0.0
 40
0.0
 40
0.0
 40
0.1249999999999999
 40
0.1249999999999999
 40
0.25
 40
0.25
 40
0.5000000000000003
 40
0.5000000000000003
 40
0.6250000000000002
 40
0.6250000000000002
 40
0.7500000000000001
 40
0.7500000000000001
 40
0.8750000000000001
 40
0.8750000000000001
 40
1.0
 40
1.0
 40
1.0
 40
1.0
 10
203.2778118161916
 20
357.0739112445967
 30
0.0
 10
203.2778118161916
 20
357.2102158726216
 30
0.0
 10
203.2775837097918
 20
357.3471389441527
 30
0.0
 10
203.2627697402861
 20
357.6248828319393
 30
0.0
 10
203.2482163332985
 20
357.7654528357129
 30
0.0
 10
203.1696000449706
 20
358.1807562840355
 30
0.0
 10
203.0692069764381
 20
358.4459703634144
 30
0.0
 10
202.8251978501683
 20
358.7753891886316
 30
0.0
 10
202.7281684127357
 20
358.8748774719073
 30
0.0
 10
202.5091714716878
 20
359.0517003671418
 30
0.0
 10
202.3875337991272
 20
359.1288856266075
 30
0.0
 10
202.134439501736
 20
359.2608994714773
 30
0.0
 10
202.0033127079603
 20
359.3155787043883
 30
0.0
 10
201.744475744376
 20
359.4084714581595
 30
0.0
 10
201.6170954056221
 20
359.4465356265267
 30
0.0
 10
201.4921519323108
 20
359.484599689647
 30
0.0
  0
ARC
  5
92
330
1F
100
AcDbEntity
  8
0
  6
Continuous
 62
     7
370
    25
100
AcDbCircle
 10
208.7778118162
 20
383.3994310722
 30
0.0
 40
24.99999999999999
100
AcDbArc
 50
286.9433715416
 51
253.0566284584
  0
LINE
  5
93
330
1F
100
AcDbEntity
  8
0
  6
Continuous
 62
     7
370
    25
100
AcDbLine
 10
203.2778118162
 20
284.3994310722
 30
0.0
 11
203.2778118162
 21
357.0739112446
 31
0.0
  0
LINE
  5
94
330
1F
100
AcDbEntity
  8
0
  6
Continuous
 62
     7
370
    25
100
AcDbLine
 10
214.2778118162
 20
357.0739112446
 30
0.0
 11
214.2778118162
 21
284.3994310722
 31
0.0
  0
ARC
  5
95
330
1F
100
AcDbEntity
  8
0
  6
Continuous
 62
     7
370
    25
100
AcDbCircle
 10
204.2778118162
 20
284.3994310722
 30
0.0
 40
1.0
100
AcDbArc
 50
180.0
 51
270.0
  0
LINE
  5
96
330
1F
100
AcDbEntity
  8
0
  6
Continuous
 62
     7
370
    25
100
AcDbLine
 10
213.2778118162
 20
283.3994310722
 30
0.0
 11
204.2778118162
 21
283.3994310722
 31
0.0
  0
ARC
  5
97
330
1F
100
AcDbEntity
  8
0
  6
Continuous
 62
     7
370
    25
100
AcDbCircle
 10
213.2778118162
 20
284.3994310722
 30
0.0
 40
1.0
100
AcDbArc
 50
270.0
 51
0.0
  0
ARC
  5
98
330
1F
100
AcDbEntity
  8
0
  6
Continuous
 62
     7
370
    25
100
AcDbCircle
 10
208.7778118162
 20
368.5994310722
 30
0.0
 40
74.50000000000003
100
AcDbArc
 50
274.2337415113
 51
265.7662584887
  0
LINE
  5
99
330
1F
100
AcDbEntity
  8
0
  6
Continuous
 62
     8
370
    18
100
AcDbLine
 10
214.2778118162
 20
357.0739112446
 30
0.0
 11
213.2778118162
 21
357.0739112446
 31
0.0
  0
SPLINE
  5
9A
330
1F
100
AcDbEntity
  8
0
  6
Continuous
 62
     8
370
    18
100
AcDbSpline
210
0.0
220
0.0
230
1.0
 70
     8
 71
     3
 72
    22
 73
    18
 74
     0
 42
0.00000001
 43
0.00000001
 40
0.0
 40
0.0
 40
0.0
 40
0.0
 40
0.125
 40
0.125
 40
0.25
 40
0.25
 40
0.375
 40
0.375
 40
0.5
 40
0.5
 40
0.625
 40
0.625
 40
0.75
 40
0.75
 40
0.875
 40
0.875
 40
1.0
 40
1.0
 40
1.0
 40
1.0
 10
213.2778118161916
 20
357.0739112445967
 30
0.0
 10
213.2778118161916
 20
357.2658143188816
 30
0.0
 10
213.2794674350434
 20
357.4575200559562
 30
0.0
 10
213.3081912253546
 20
357.8379025465763
 30
0.0
 10
213.3342841236928
 20
358.0266955452807
 30
0.0
 10
213.4193246427228
 20
358.4003655089717
 30
0.0
 10
213.4790191230783
 20
358.5864073881214
 30
0.0
 10
213.6337574759019
 20
358.936933836257
 30
0.0
 10
213.7290164848021
 20
359.1032840931552
 30
0.0
 10
213.9599513425037
 20
359.4155043300846
 30
0.0
 10
214.09109888745
 20
359.5552189197066
 30
0.0
 10
214.3809081193153
 20
359.8058786111779
 30
0.0
 10
214.541145689473
 20
359.9175312906073
 30
0.0
 10
214.873677299889
 20
360.1088234850712
 30
0.0
 10
215.0468554500955
 20
360.1894594807084
 30
0.0
 10
215.4035444536021
 20
360.3282940902809
 30
0.0
 10
215.587766110195
 20
360.385052238227
 30
0.0
 10
215.7720453047173
 20
360.4411929449495
 30
0.0
  0
LINE
  5
9B
330
1F
100
AcDbEntity
  8
0
  6
Continuous
 62
     8
370
    18
100
AcDbLine
 10
216.0634717001
 20
359.4845996896
 30
0.0
 11
215.7720453047
 21
360.4411929449
 31
0.0
  0
LINE
  5
9C
330
1F
100
AcDbEntity
  8
0
  6
Continuous
 62
     8
370
    18
100
AcDbLine
 10
213.2778118162
 20
284.3994310722
 30
0.0
 11
213.2778118162
 21
357.0739112446
 31
0.0
  0
LINE
  5
9D
330
1F
100
AcDbEntity
  8
0
  6
Continuous
 62
     8
370
    18
100
AcDbLine
 10
204.2778118162
 20
284.3994310722
 30
0.0
 11
213.2778118162
 21
284.3994310722
 31
0.0
  0
LINE
  5
9E
330
1F
100
AcDbEntity
  8
0
  6
Continuous
 62
     8
370
    18
100
AcDbLine
 10
204.2778118162
 20
357.0739112446
 30
0.0
 11
204.2778118162
 21
284.3994310722
 31
0.0
  0
SPLINE
  5
9F
330
1F
100
AcDbEntity
  8
0
  6
Continuous
 62
     8
370
    18
100
AcDbSpline
210
0.0
220
0.0
230
1.0
 70
     8
 71
     3
 72
    22
 73
    18
 74
     0
 42
0.00000001
 43
0.00000001
 40
0.0
 40
0.0
 40
0.0
 40
0.0
 40
0.125
 40
0.125
 40
0.25
 40
0.25
 40
0.375
 40
0.375
 40
0.5
 40
0.5
 40
0.625
 40
0.625
 40
0.75
 40
0.75
 40
0.875
 40
0.875
 40
1.0
 40
1.0
 40
1.0
 40
1.0
 10
201.783578327666
 20
360.4411929449495
 30
0.0
 10
201.9671074534539
 20
360.3852807468709
 30
0.0
 10
202.150402224122
 20
360.3288351692209
 30
0.0
 10
202.505894873091
 20
360.1906880874084
 30
0.0
 10
202.6787245336532
 20
360.1104244854837
 30
0.0
 10
203.0111203291337
 20
359.9197102150285
 30
0.0
 10
203.1715750255308
 20
359.8082336997912
 30
0.0
 10
203.4617564766746
 20
359.5579671035761
 30
0.0
 10
203.5931670132178
 20
359.4183968483714
 30
0.0
 10
203.8245955196992
 20
359.1064887884797
 30
0.0
 10
203.9200692102413
 20
358.9403356213695
 30
0.0
 10
204.0752950059971
 20
358.5900293256899
 30
0.0
 10
204.1352281768642
 20
358.4041167257052
 30
0.0
 10
204.2207822357277
 20
358.0300801534131
 30
0.0
 10
204.2471154421477
 20
357.8408402640674
 30
0.0
 10
204.2761260135116
 20
357.4591645197494
 30
0.0
 10
204.2778118161916
 20
357.2665006422952
 30
0.0
 10
204.2778118161916
 20
357.0739112445967
 30
0.0
  0
ARC
  5
A0
330
1F
100
AcDbEntity
  8
0
  6
Continuous
 62
     8
370
    18
100
AcDbCircle
 10
208.7778118162
 20
383.3994310722
 30
0.0
 40
24.0
100
AcDbArc
 50
286.9433715416
 51
253.0566284584
  0
LINE
  5
A1
330
1F
100
AcDbEntity
  8
0
  6
Continuous
 62
     8
370
    18
100
AcDbLine
 10
201.4921519323
 20
359.4845996896
 30
0.0
 11
201.7835783277
 21
360.4411929449
 31
0.0
  0
LINE
  5
A2
330
1F
100
AcDbEntity
  8
0
  6
Continuous
 62
     8
370
    18
100
AcDbLine
 10
203.2778118162
 20
357.0739112446
 30
0.0
 11
204.2778118162
 21
357.0739112446
 31
0.0
  0
LINE
  5
A3
330
1F
100
AcDbEntity
  8
0
  6
Continuous
 62
     8
370
    18
100
AcDbLine
 10
204.2778118162
 20
284.3994310722
 30
0.0
 11
203.2778118162
 21
284.3994310722
 31
0.0
  0
LINE
  5
A4
330
1F
100
AcDbEntity
  8
0
  6
Continuous
 62
     8
370
    18
100
AcDbLine
 10
213.2778118162
 20
284.3994310722
 30
0.0
 11
214.2778118162
 21
284.3994310722
 31
0.0
  0
LINE
  5
A5
330
1F
100
AcDbEntity
  8
0
  6
Continuous
 62
     8
370
    18
100
AcDbLine
 10
204.2778118162
 20
284.3994310722
 30
0.0
 11
204.2778118162
 21
283.3994310722
 31
0.0
  0
LINE
  5
A6
330
1F
100
AcDbEntity
  8
0
  6
Continuous
 62
     8
370
    18
100
AcDbLine
 10
213.2778118162
 20
284.3994310722
 30
0.0
 11
213.2778118162
 21
283.3994310722
 31
0.0
  0
ARC
  5
A7
330
1F
100
AcDbEntity
  8
0
  6
Continuous
 62
     8
370
    18
100
AcDbCircle
 10
208.7778118162
 20
368.5994310722
 30
0.0
 40
73.3527529442751
100
AcDbArc
 50
274.3000814441
 51
265.6999185559
  0
ARC
  5
A8
330
1F
100
AcDbEntity
  8
0
  6
Continuous
 62
     8
370
    18
100
AcDbCircle
 10
208.7778118162
 20
368.5994310722
 30
0.0
 40
74.34193130454271
100
AcDbArc
 50
274.242759929
 51
265.757240071
  0
LINE
  5
A9
330
1F
100
AcDbEntity
  8
0
  6
Continuous
 62
     7
370
    25
100
AcDbLine
 10
134.2778118162
 20
193.4407658643
 30
0.0
 11
134.4358805116
 21
187.4043659217
 31
0.0
  0
LINE
  5
AA
330
1F
100
AcDbEntity
  8
0
  6
Continuous
 62
     7
370
    25
100
AcDbLine
 10
283.1197431207
 20
187.4043659217
 30
0.0
 11
283.2778118162
 21
193.4407658643
 31
0.0
  0
ARC
  5
AB
330
1F
100
AcDbEntity
  8
0
  6
Continuous
 62
     7
370
    25
100
AcDbCircle
 10
282.1200857958
 20
187.43054287
 30
0.0
 40
0.9999999999996073
100
AcDbArc
 50
270.6004114401
 51
358.5
  0
ARC
  5
AC
330
1F
100
AcDbEntity
  8
0
  6
Continuous
 62
     7
370
    25
100
AcDbCircle
 10
135.4355378366
 20
187.43054287
 30
0.0
 40
0.9999999999996076
100
AcDbArc
 50
181.5
 51
269.3995885599
  0
ARC
  5
AD
330
1F
100
AcDbEntity
  8
0
  6
Continuous
 62
     7
370
    25
100
AcDbCircle
 10
208.7778118162
 20
7186.04625677
 30
0.0
 40
7000.0
100
AcDbArc
 50
269.3995885599
 51
269.841058375
  0
ARC
  5
AE
330
1F
100
AcDbEntity
  8
0
  6
Continuous
 62
     7
370
    25
100
AcDbCircle
 10
208.7778118162
 20
7186.04625677
 30
0.0
 40
7000.000000000001
100
AcDbArc
 50
270.1589077268
 51
270.6004114401
  0
LINE
  5
AF
330
1F
100
AcDbEntity
  8
0
  6
Continuous
 62
     7
370
    25
100
AcDbLine
 10
183.7778118162
 20
143.4639768956
 30
0.0
 11
183.7778118162
 21
109.8407658643
 31
0.0
  0
LINE
  5
B0
330
1F
100
AcDbEntity
  8
0
  6
Continuous
 62
     7
370
    25
100
AcDbLine
 10
233.7778118162
 20
109.8407658643
 30
0.0
 11
233.7778118162
 21
143.4593492781
 31
0.0
  0
ARC
  5
B1
330
1F
100
AcDbEntity
  8
0
  6
Continuous
 62
     7
370
    25
100
AcDbCircle
 10
232.7778118162
 20
109.8407658643
 30
0.0
 40
1.0
100
AcDbArc
 50
270.0
 51
0.0
  0
ARC
  5
B2
330
1F
100
AcDbEntity
  8
0
  6
Continuous
 62
     7
370
    25
100
AcDbCircle
 10
184.7778118162
 20
109.8407658643
 30
0.0
 40
1.0
100
AcDbArc
 50
180.0
 51
270.0
  0
LINE
  5
B3
330
1F
100
AcDbEntity
  8
0
  6
Continuous
 62
     7
370
    25
100
AcDbLine
 10
233.2778118162
 20
149.3407658643
 30
0.0
 11
233.2778118162
 21
186.10477213
 31
0.0
  0
LINE
  5
B4
330
1F
100
AcDbEntity
  8
0
  6
Continuous
 62
     7
370
    25
100
AcDbLine
 10
184.2778118162
 20
186.1047733457
 30
0.0
 11
184.2778118162
 21
149.3407658643
 31
0.0
  0
ARC
  5
B5
330
1F
100
AcDbEntity
  8
0
  6
Continuous
 62
     7
370
    25
100
AcDbCircle
 10
208.7778118162
 20
149.3407658643
 30
0.0
 40
24.50000000000003
100
AcDbArc
 50
180.0
 51
193.3933307022
  0
ARC
  5
B6
330
1F
100
AcDbEntity
  8
0
  6
Continuous
 62
     7
370
    25
100
AcDbCircle
 10
208.7778118162
 20
149.3407658643
 30
0.0
 40
24.5
100
AcDbArc
 50
346.5980544664
 51
0.0
  0
SPLINE
  5
B7
330
1F
100
AcDbEntity
  8
0
  6
Continuous
 62
     7
370
    25
100
AcDbSpline
210
0.0
220
0.0
230
1.0
 70
     8
 71
     3
 72
    10
 73
     6
 74
     0
 42
0.00000001
 43
0.00000001
 40
0.0
 40
0.0
 40
0.0
 40
0.0
 40
0.2028127213577169
 40
0.6552964044144629
 40
1.0
 40
1.0
 40
1.0
 40
1.0
 10
233.7628833464777
 20
143.4834061946516
 30
0.0
 10
233.7658613386854
 20
143.5162838154645
 30
0.0
 10
233.7754833563432
 20
143.6225127865079
 30
0.0
 10
233.6506665126575
 20
143.8166379268098
 30
0.0
 10
233.5034841637481
 20
143.8236222254318
 30
0.0
 10
233.4398425499955
 20
143.8266422345465
 30
0.0
  0
SPLINE
  5
B8
330
1F
100
AcDbEntity
  8
0
  6
Continuous
 62
     7
370
    25
100
AcDbSpline
210
0.0
220
0.0
230
1.0
 70
     8
 71
     3
 72
    10
 73
     6
 74
     0
 42
0.00000001
 43
0.00000001
 40
0.0
 40
0.0
 40
0.0
 40
0.0
 40
0.3672054693829169
 40
0.8201056169651018
 40
0.9999999999999999
 40
0.9999999999999999
 40
0.9999999999999999
 40
0.9999999999999999
 10
184.1165997775339
 20
143.8291211090659
 30
0.0
 10
184.0461190068376
 20
143.82270859204
 30
0.0
 10
183.8887093799242
 20
143.808387069976
 30
0.0
 10
183.7786428870803
 20
143.607151359362
 30
0.0
 10
183.7863796595486
 20
143.5028444084628
 30
0.0
 10
183.7885791126768
 20
143.4731914426573
 30
0.0
  0
LINE
  5
B9
330
1F
100
AcDbEntity
  8
0
  6
Continuous
 62
     7
370
    25
100
AcDbLine
 10
283.2778118162
 20
193.4407658643
 30
0.0
 11
134.2778118162
 21
193.4407658643
 31
0.0
  0
SPLINE
  5
BA
330
1F
100
AcDbEntity
  8
0
  6
Continuous
 62
     7
370
    25
100
AcDbSpline
210
0.0
220
0.0
230
1.0
 70
     8
 71
     3
 72
    12
 73
     8
 74
     0
 42
0.00000001
 43
0.00000001
 40
0.0
 40
0.0
 40
0.0
 40
0.0
 40
0.2116960003592331
 40
0.4295312076212127
 40
0.6412272050289114
 40
0.8590623859781326
 40
1.0
 40
1.0
 40
1.0
 40
1.0
 10
191.4537981154845
 20
186.1414064788148
 30
0.0
 10
190.5403034932239
 20
186.1392786513935
 30
0.0
 10
188.6868228058737
 20
186.1349612893254
 30
0.0
 10
186.6093118688695
 20
186.1273867046427
 30
0.0
 10
185.1361905948228
 20
186.1191727609219
 30
0.0
 10
184.3508733711913
 20
186.111553735102
 30
0.0
 10
184.3524813198894
 20
186.1066856771182
 30
0.0
 10
184.3531129743966
 20
186.1047733457298
 30
0.0
  0
SPLINE
  5
BB
330
1F
100
AcDbEntity
  8
0
  6
Continuous
 62
     7
370
    25
100
AcDbSpline
210
0.0
220
0.0
230
1.0
 70
     8
 71
     3
 72
    22
 73
    18
 74
     0
 42
0.00000001
 43
0.00000001
 40
0.0
 40
0.0
 40
0.0
 40
0.0
 40
0.0515473942022224
 40
0.1221109738851563
 40
0.1947209039068907
 40
0.2652844475627064
 40
0.3378943454642981
 40
0.4084577676022647
 40
0.4810675424776538
 40
0.5516308108634698
 40
0.6242404257240104
 40
0.6948035755077073
 40
0.7674130634938258
 40
0.8379761818046669
 40
0.9105856316615235
 40
0.9550446433042403
 40
1.0
 40
1.0
 40
1.0
 40
1.0
 10
233.2040275823482
 20
186.1047721299872
 30
0.0
 10
233.1986648717698
 20
186.1068710832662
 30
0.0
 10
233.1859611100854
 20
186.111843308012
 30
0.0
 10
232.3554719536447
 20
186.1196250227439
 30
0.0
 10
230.8700544436485
 20
186.1277536218144
 30
0.0
 10
228.7157151453819
 20
186.1353003731884
 30
0.0
 10
226.0240645391654
 20
186.1419166918427
 30
0.0
 10
222.8142922320998
 20
186.1475341550999
 30
0.0
 10
219.2373137710047
 20
186.1518927047443
 30
0.0
 10
215.3293706775706
 20
186.154947434908
 30
0.0
 10
211.271619525133
 20
186.1565567915141
 30
0.0
 10
207.105689540266
 20
186.1567046173634
 30
0.0
 10
203.0250343728121
 20
186.1553824774777
 30
0.0
 10
199.0696670603762
 20
186.1526099604425
 30
0.0
 10
195.8748127998517
 20
186.1489960318953
 30
0.0
 10
193.3369986483868
 20
186.1451512607373
 30
0.0
 10
192.0838503959718
 20
186.1426593503752
 30
0.0
 10
191.4537981154845
 20
186.1414064788148
 30
0.0
  0
LINE
  5
BC
330
1F
100
AcDbEntity
  8
0
  6
Continuous
 62
     7
370
    25
100
AcDbLine
 10
232.7778118162
 20
108.8407658643
 30
0.0
 11
184.7778118162
 21
108.8407658643
 31
0.0
  0
LWPOLYLINE
  5
BD
330
1F
100
AcDbEntity
  8
0
  6
Continuous
 62
     7
370
    25
100
AcDbPolyline
 90
       29
 70
   128
 43
0.0
 10
185.2072638859
 20
143.1592823901
 10
185.730163955
 20
142.5553383803
 10
186.483467921
 20
141.9679277383
 10
187.4596451167
 20
141.4029227208
 10
188.6489368443
 20
140.8659715987
 10
190.0394539318
 20
140.3624421921
 10
191.6172955873
 20
139.8973682094
 10
193.3666883632
 20
139.4753989259
 10
195.270143841
 20
139.1007527055
 10
197.3086334602
 20
138.7771748306
 10
199.4617787442
 20
138.5079000609
 10
201.708055021
 20
138.2956202961
 10
204.0250066016
 20
138.1424576654
 10
206.3894712668
 20
138.0499433127
 10
208.7778118162
 20
138.0190020902
 10
211.1661523656
 20
138.0499433127
 10
213.5306170308
 20
138.1424576654
 10
215.8475686114
 20
138.2956202961
 10
218.0938448881
 20
138.5079000609
 10
220.2469901722
 20
138.7771748306
 10
222.2854797914
 20
139.1007527055
 10
224.1889352692
 20
139.4753989259
 10
225.9383280451
 20
139.8973682094
 10
227.5161697006
 20
140.3624421921
 10
228.9066867881
 20
140.8659715987
 10
230.0959785157
 20
141.4029227208
 10
231.0721557114
 20
141.9679277383
 10
231.8254596774
 20
142.5553383803
 10
232.3483597465
 20
143.1592823901
  0
SPLINE
  5
BE
330
1F
100
AcDbEntity
  8
0
  6
Continuous
 62
     7
370
    25
100
AcDbSpline
210
0.0
220
0.0
230
1.0
 70
     8
 71
     3
 72
     9
 73
     5
 74
     0
 42
0.00000001
 43
0.00000001
 40
0.0
 40
0.0
 40
0.0
 40
0.0
 40
0.9859876252463806
 40
1.0
 40
1.0
 40
1.0
 40
1.0
 10
185.207263885881
 20
143.1592823901088
 30
0.0
 10
185.0602622496629
 20
143.3814862140061
 30
0.0
 10
184.9111714979596
 20
143.6068478901647
 30
0.0
 10
184.9458642707243
 20
143.664141191038
 30
0.0
 10
184.9463503988575
 20
143.6649440062406
 30
0.0
  0
LINE
  5
BF
330
1F
100
AcDbEntity
  8
0
  6
Continuous
 62
     7
370
    25
100
AcDbLine
 10
232.6067613007
 20
143.6618464961
 30
0.0
 11
232.3483597465
 21
143.1592823901
 31
0.0
  0
LINE
  5
C0
330
1F
100
AcDbEntity
  8
0
  6
Continuous
 62
     7
370
    25
100
AcDbLine
 10
184.117985216
 20
143.8407658643
 30
0.0
 11
184.9031390436
 21
143.8407658643
 31
0.0
  0
LINE
  5
C1
330
1F
100
AcDbEntity
  8
0
  6
Continuous
 62
     7
370
    25
100
AcDbLine
 10
232.6524845888
 20
143.8407658643
 30
0.0
 11
233.4376384164
 21
143.8407658643
 31
0.0
  0
LINE
  5
C2
330
1F
100
AcDbEntity
  8
0
  6
Continuous
 62
     8
370
    18
100
AcDbLine
 10
283.1197431207
 20
187.4043659217
 30
0.0
 11
134.4358805116
 21
187.4043659217
 31
0.0
  0
LINE
  5
C3
330
1F
100
AcDbEntity
  8
0
  6
Continuous
 62
     8
370
    18
100
AcDbLine
 10
282.1305647605
 20
186.4305977759
 30
0.0
 11
135.4250588719
 21
186.4305977759
 31
0.0
  0
LINE
  5
C4
330
1F
100
AcDbEntity
  8
0
  6
Continuous
 62
     8
370
    18
100
AcDbLine
 10
183.7778118162
 20
109.8407658643
 30
0.0
 11
233.7778118162
 21
109.8407658643
 31
0.0
  0
LINE
  5
C5
330
1F
100
AcDbEntity
  8
0
  6
Continuous
 62
     8
370
    18
100
AcDbLine
 10
233.7735118337
 20
143.4593492781
 30
0.0
 11
233.6513230663
 21
142.9660972249
 31
0.0
  0
LINE
  5
C6
330
1F
100
AcDbEntity
  8
0
  6
Continuous
 62
     8
370
    18
100
AcDbLine
 10
183.904300566
 20
142.9660972249
 30
0.0
 11
183.7785333312
 21
143.4639768956
 31
0.0
  0
ELLIPSE
  5
C7
330
1F
100
AcDbEntity
  8
0
  6
Continuous
 62
     8
370
    18
100
AcDbEllipse
 10
208.7778118162
 20
143.6337106282
 30
0.0
 11
25.0
 21
0.0
 31
0.0
210
0.0
220
0.0
230
1.0
 40
0.2658055989
 41
3.242228852521351
 42
6.182549108248133
  0
ARC
  5
C8
330
1F
100
AcDbEntity
  8
0
  6
Continuous
 62
     8
370
    18
100
AcDbCircle
 10
184.1064344042
 20
142.9569669049
 30
0.0
 40
0.2023399399244411
100
AcDbArc
 50
90.8908046374
 51
177.4137261789
  0
ELLIPSE
  5
C9
330
1F
100
AcDbEntity
  8
0
  6
Continuous
 62
     8
370
    18
100
AcDbEllipse
 10
208.7778118162
 20
143.8268957935
 30
0.0
 11
24.80000000000001
 21
0.0
 31
0.0
210
0.0
220
0.0
230
1.0
 40
0.2679491924
 41
3.242228852521347
 42
6.182549108248135
  0
ARC
  5
CA
330
1F
100
AcDbEntity
  8
0
  6
Continuous
 62
     8
370
    18
100
AcDbCircle
 10
233.4491892281
 20
142.9569669049
 30
0.0
 40
0.2023399399244411
100
AcDbArc
 50
2.5862738211
 51
89.1091953626
  0
LINE
  5
CB
330
1F
100
AcDbEntity
  8
0
  6
Continuous
 62
     8
370
    18
100
AcDbLine
 10
233.4523349763
 20
143.1592823901
 30
0.0
 11
232.3483597465
 21
143.1592823901
 31
0.0
  0
LINE
  5
CC
330
1F
100
AcDbEntity
  8
0
  6
Continuous
 62
     8
370
    18
100
AcDbLine
 10
185.2072638859
 20
143.1592823901
 30
0.0
 11
184.103288656
 21
143.1592823901
 31
0.0
  0
LINE
  5
CD
330
1F
100
AcDbEntity
  8
0
  6
Continuous
 62
     8
370
    18
100
AcDbLine
 10
233.2778118162
 20
149.3407658643
 30
0.0
 11
184.2778118162
 21
149.3407658643
 31
0.0
  0
SPLINE
  5
CE
330
1F
100
AcDbEntity
  8
0
  6
Continuous
 62
     8
370
    18
100
AcDbSpline
210
0.0
220
0.0
230
1.0
 70
     8
 71
     3
 72
     8
 73
     4
 74
     0
 42
0.00000001
 43
0.00000001
 40
0.0
 40
0.0
 40
0.0
 40
0.0
 40
1.0
 40
1.0
 40
1.0
 40
1.0
 10
233.4523349763357
 20
143.1592823901088
 30
0.0
 10
233.621883166547
 20
143.6137328948263
 30
0.0
 10
233.6231389802496
 20
143.8407658643275
 30
0.0
 10
233.4376384163849
 20
143.8407658643275
 30
0.0
  0
SPLINE
  5
CF
330
1F
100
AcDbEntity
  8
0
  6
Continuous
 62
     8
370
    18
100
AcDbSpline
210
0.0
220
0.0
230
1.0
 70
     8
 71
     3
 72
     8
 73
     4
 74
     0
 42
0.00000001
 43
0.00000001
 40
0.0
 40
0.0
 40
0.0
 40
0.0
 40
1.0
 40
1.0
 40
1.0
 40
1.0
 10
184.1179852159983
 20
143.8407658643275
 30
0.0
 10
183.9324846521337
 20
143.8407658643275
 30
0.0
 10
183.9337404658363
 20
143.6137328948263
 30
0.0
 10
184.1032886560476
 20
143.1592823901088
 30
0.0
  0
LINE
  5
D0
330
1F
100
AcDbEntity
  8
0
  6
Continuous
 62
     7
370
    25
100
AcDbLine
 10
364.5084682713
 20
294.0994310722
 30
0.0
 11
370.5448682139
 21
294.2574997677
 31
0.0
  0
LINE
  5
D1
330
1F
100
AcDbEntity
  8
0
  6
Continuous
 62
     7
370
    25
100
AcDbLine
 10
370.5448682139
 20
442.9413623768
 30
0.0
 11
364.5084682713
 21
443.0994310722
 31
0.0
  0
ARC
  5
D2
330
1F
100
AcDbEntity
  8
0
  6
Continuous
 62
     7
370
    25
100
AcDbCircle
 10
370.5186912656
 20
441.9417050518
 30
0.0
 40
0.9999999999996357
100
AcDbArc
 50
0.6004114401
 51
88.5
  0
ARC
  5
D3
330
1F
100
AcDbEntity
  8
0
  6
Continuous
 62
     7
370
    25
100
AcDbCircle
 10
370.5186912656
 20
295.2571570926
 30
0.0
 40
0.999999999999589
100
AcDbArc
 50
271.5
 51
359.3995885599
  0
ARC
  5
D4
330
1F
100
AcDbEntity
  8
0
  6
Continuous
 62
     7
370
    25
100
AcDbCircle
 10
-6628.0970226343
 20
368.5994310722
 30
0.0
 40
7000.000000000001
100
AcDbArc
 50
359.3995885599
 51
359.9206942079
  0
ARC
  5
D5
330
1F
100
AcDbEntity
  8
0
  6
Continuous
 62
     7
370
    25
100
AcDbCircle
 10
-6628.0970226343
 20
368.5994310722
 30
0.0
 40
7000.000000000001
100
AcDbArc
 50
0.3210119802
 51
0.6004114401
  0
LINE
  5
D6
330
1F
100
AcDbEntity
  8
0
  6
Continuous
 62
     7
370
    25
100
AcDbLine
 10
428.5746920503
 20
358.3994310722
 30
0.0
 11
435.9871479278
 21
358.3994310722
 31
0.0
  0
LINE
  5
D7
330
1F
100
AcDbEntity
  8
0
  6
Continuous
 62
     7
370
    25
100
AcDbLine
 10
414.3084682713
 20
358.3994310722
 30
0.0
 11
420.6422444923
 21
358.3994310722
 31
0.0
  0
LINE
  5
D8
330
1F
100
AcDbEntity
  8
0
  6
Continuous
 62
     7
370
    25
100
AcDbLine
 10
448.1084682713
 20
408.3994310722
 30
0.0
 11
420.9606634797
 21
408.3994310722
 31
0.0
  0
ARC
  5
D9
330
1F
100
AcDbEntity
  8
0
  6
Continuous
 62
     7
370
    25
100
AcDbCircle
 10
448.1084682713
 20
407.3994310722
 30
0.0
 40
1.0
100
AcDbArc
 50
0.0
 51
90.0
  0
ARC
  5
DA
330
1F
100
AcDbEntity
  8
0
  6
Continuous
 62
     7
370
    25
100
AcDbCircle
 10
420.9606634797
 20
408.1994310722
 30
0.0
 40
0.2000000000000345
100
AcDbArc
 50
104.7141239001
 51
165.0
  0
ARC
  5
DB
330
1F
100
AcDbEntity
  8
0
  6
Continuous
 62
     7
370
    25
100
AcDbCircle
 10
414.3084682713
 20
358.5994310722
 30
0.0
 40
0.2000000000000455
100
AcDbArc
 50
180.0
 51
270.0
  0
LINE
  5
DC
330
1F
100
AcDbEntity
  8
0
  6
Continuous
 62
     7
370
    25
100
AcDbLine
 10
408.6084682713
 20
407.8994310722
 30
0.0
 11
371.7928273905
 21
407.8994310722
 31
0.0
  0
LINE
  5
DD
330
1F
100
AcDbEntity
  8
0
  6
Continuous
 62
     7
370
    25
100
AcDbLine
 10
371.8962336328
 20
358.8994310722
 30
0.0
 11
408.6084682713
 21
358.8994310722
 31
0.0
  0
ARC
  5
DE
330
1F
100
AcDbEntity
  8
0
  6
Continuous
 62
     7
370
    25
100
AcDbCircle
 10
408.6084682713
 20
383.3994310722
 30
0.0
 40
24.5
100
AcDbArc
 50
270.0
 51
282.9728781508
  0
ARC
  5
DF
330
1F
100
AcDbEntity
  8
0
  6
Continuous
 62
     7
370
    25
100
AcDbCircle
 10
408.6084682713
 20
383.3994310722
 30
0.0
 40
24.50000000000006
100
AcDbArc
 50
62.4764726629
 51
90.0
  0
SPLINE
  5
E0
330
1F
100
AcDbEntity
  8
0
  6
Continuous
 62
     7
370
    25
100
AcDbSpline
210
0.0
220
0.0
230
1.0
 70
     8
 71
     3
 72
    10
 73
     6
 74
     0
 42
0.00000001
 43
0.00000001
 40
0.0
 40
0.0
 40
0.0
 40
0.0
 40
0.2434843217153357
 40
0.498542501552076
 40
1.0
 40
1.0
 40
1.0
 40
1.0
 10
437.7336684061336
 20
358.1859524091768
 30
0.0
 10
437.8035005677892
 20
358.0816327856801
 30
0.0
 10
437.946484314403
 20
357.8680347778385
 30
0.0
 10
438.0891609261345
 20
357.3650431643605
 30
0.0
 10
438.1119418744857
 20
356.9790034670572
 30
0.0
 10
438.1270422586554
 20
356.7231165020307
 30
0.0
  0
SPLINE
  5
E1
330
1F
100
AcDbEntity
  8
0
  6
Continuous
 62
     7
370
    25
100
AcDbSpline
210
0.0
220
0.0
230
1.0
 70
     8
 71
     3
 72
    22
 73
    18
 74
     0
 42
0.00000001
 43
0.00000001
 40
0.0
 40
0.0
 40
0.0
 40
0.0
 40
0.2127485439906646
 40
0.312878574143451
 40
0.3617929380331729
 40
0.3886239256754914
 40
0.419665904137334
 40
0.5842409497545411
 40
0.6236477217617934
 40
0.6578359913749977
 40
0.6731719193625545
 40
0.6879945934868273
 40
0.7033419834780689
 40
0.7205225528593081
 40
0.7652197469857939
 40
0.8305032633743119
 40
1.0
 40
1.0
 40
1.0
 40
1.0
 10
435.9871479277803
 20
358.4002338277504
 30
0.0
 10
436.3353180472608
 20
358.392615036656
 30
0.0
 10
436.8473543155194
 20
358.3814104641141
 30
0.0
 10
437.3633837382504
 20
358.1635185483947
 30
0.0
 10
437.591217099656
 20
357.9891178839142
 30
0.0
 10
437.7062733878155
 20
357.8690270630681
 30
0.0
 10
437.8972080130806
 20
357.6207975759567
 30
0.0
 10
437.9880729861949
 20
357.3862883082759
 30
0.0
 10
438.0565043329067
 20
357.0858966423798
 30
0.0
 10
438.0767098194898
 20
356.9570684913593
 30
0.0
 10
438.0883287487893
 20
356.8552790773288
 30
0.0
 10
438.0948715563678
 20
356.7823040861851
 30
0.0
 10
438.0997139791775
 20
356.7115630168174
 30
0.0
 10
438.1046149374328
 20
356.6141199983309
 30
0.0
 10
438.1072912206617
 20
356.5073509232096
 30
0.0
 10
438.108638955869
 20
356.371298770589
 30
0.0
 10
438.1084872907153
 20
356.3497064150021
 30
0.0
 10
438.1083777979097
 20
356.3341180775629
 30
0.0
  0
LINE
  5
E2
330
1F
100
AcDbEntity
  8
0
  6
Continuous
 62
     7
370
    25
100
AcDbLine
 10
420.6276422612
 20
358.3967509681
 30
0.0
 11
420.8270496383
 21
357.8488837023
 31
0.0
  0
LINE
  5
E3
330
1F
100
AcDbEntity
  8
0
  6
Continuous
 62
     7
370
    25
100
AcDbLine
 10
428.3898869044
 20
357.8488837023
 30
0.0
 11
428.5892942815
 21
358.3967509681
 31
0.0
  0
ARC
  5
E4
330
1F
100
AcDbEntity
  8
0
  6
Continuous
 62
     7
370
    25
100
AcDbCircle
 10
428.2019483803
 20
357.917287731
 30
0.0
 40
0.2000000000000553
100
AcDbArc
 50
270.0
 51
340.0
  0
ARC
  5
E5
330
1F
100
AcDbEntity
  8
0
  6
Continuous
 62
     7
370
    25
100
AcDbCircle
 10
421.0149881624
 20
357.917287731
 30
0.0
 40
0.2000000000000019
100
AcDbArc
 50
200.0
 51
270.0
  0
LINE
  5
E6
330
1F
100
AcDbEntity
  8
0
  6
Continuous
 62
     7
370
    25
100
AcDbLine
 10
421.0149881624
 20
357.717287731
 30
0.0
 11
428.2019483803
 21
357.717287731
 31
0.0
  0
LINE
  5
E7
330
1F
100
AcDbEntity
  8
0
  6
Continuous
 62
     7
370
    25
100
AcDbLine
 10
364.5084682713
 20
443.0994310722
 30
0.0
 11
364.5084682713
 21
294.0994310722
 31
0.0
  0
SPLINE
  5
E8
330
1F
100
AcDbEntity
  8
0
  6
Continuous
 62
     7
370
    25
100
AcDbSpline
210
0.0
220
0.0
230
1.0
 70
     8
 71
     3
 72
    21
 73
    17
 74
     0
 42
0.00000001
 43
0.00000001
 40
0.0
 40
0.0
 40
0.0
 40
0.0
 40
0.0705693219737051
 40
0.1431851619158552
 40
0.2137544829056599
 40
0.2863703140763948
 40
0.3569397210828127
 40
0.4295556434126765
 40
0.5001250851296701
 40
0.5727410489314725
 40
0.6433104241660694
 40
0.7159263237807896
 40
0.7864955604774347
 40
0.8591113183775668
 40
0.929680405196506
 40
1.0
 40
1.0
 40
1.0
 40
1.0
 10
371.8078276568527
 20
400.723649649038
 30
0.0
 10
371.8099554763101
 20
399.7172619915725
 30
0.0
 10
371.8142728222193
 20
397.6753013257467
 30
0.0
 10
371.8218475296147
 20
394.0927129287719
 30
0.0
 10
371.8300610126136
 20
390.208000317651
 30
0.0
 10
371.8386268139781
 20
386.1566475582138
 30
0.0
 10
371.8474314572766
 20
381.9923249123809
 30
0.0
 10
371.8560739846777
 20
377.9046729052488
 30
0.0
 10
371.8644635626831
 20
373.9366533803632
 30
0.0
 10
371.8722120088475
 20
370.2718657751122
 30
0.0
 10
371.8792400837571
 20
366.9477890932459
 30
0.0
 10
371.8852196013877
 20
364.1196470967211
 30
0.0
 10
371.8900993881111
 20
361.8116447787114
 30
0.0
 10
371.8936145373847
 20
360.1490767124005
 30
0.0
 10
371.8958504841302
 20
359.0915355023066
 30
0.0
 10
371.8961059676014
 20
358.970698834431
 30
0.0
 10
371.8962334831261
 20
358.9103874919969
 30
0.0
  0
SPLINE
  5
E9
330
1F
100
AcDbEntity
  8
0
  6
Continuous
 62
     7
370
    25
100
AcDbSpline
210
0.0
220
0.0
230
1.0
 70
     8
 71
     3
 72
    13
 73
     9
 74
     0
 42
0.00000001
 43
0.00000001
 40
0.0
 40
0.0
 40
0.0
 40
0.0
 40
0.08455137384306
 40
0.3023463763023027
 40
0.5140032127887356
 40
0.7317981008777646
 40
0.8651546472276326
 40
1.0
 40
1.0
 40
1.0
 40
1.0
 10
371.792827438892
 20
407.8182432945064
 30
0.0
 10
371.7927847043447
 20
407.8384552622188
 30
0.0
 10
371.7926318903226
 20
407.9107310268579
 30
0.0
 10
371.7939076492565
 20
407.3073410340049
 30
0.0
 10
371.7966086402044
 20
406.0298650617809
 30
0.0
 10
371.8002405292526
 20
404.3121053790214
 30
0.0
 10
371.8040823887734
 20
402.4950358553934
 30
0.0
 10
371.8065746226414
 20
401.3162928112709
 30
0.0
 10
371.8078276568527
 20
400.723649649038
 30
0.0
  0
SPLINE
  5
EA
330
1F
100
AcDbEntity
  8
0
  6
Continuous
 62
     7
370
    25
100
AcDbSpline
210
0.0
220
0.0
230
1.0
 70
     8
 71
     3
 72
     8
 73
     4
 74
     0
 42
0.00000001
 43
0.00000001
 40
0.0
 40
0.0
 40
0.0
 40
0.0
 40
1.0
 40
1.0
 40
1.0
 40
1.0
 10
414.10846827134
 20
380.7663811204619
 30
0.0
 10
414.10846827134
 20
382.5212349982843
 30
0.0
 10
414.3355012408412
 20
384.2467296493816
 30
0.0
 10
414.7899517455587
 20
385.9427620225124
 30
0.0
  0
LINE
  5
EB
330
1F
100
AcDbEntity
  8
0
  6
Continuous
 62
     7
370
    25
100
AcDbLine
 10
420.9606634797
 20
408.3994310722
 30
0.0
 11
415.8107495844
 21
389.0246928546
 31
0.0
  0
SPLINE
  5
EC
330
1F
100
AcDbEntity
  8
0
  6
Continuous
 62
     7
370
    25
100
AcDbSpline
210
0.0
220
0.0
230
1.0
 70
     8
 71
     3
 72
    30
 73
    26
 74
     0
 42
0.00000001
 43
0.00000001
 40
0.0
 40
0.0
 40
0.0
 40
0.0
 40
0.1249999999999969
 40
0.1249999999999969
 40
0.1874999999999953
 40
0.1874999999999953
 40
0.2499999999999937
 40
0.2499999999999937
 40
0.3124999999999921
 40
0.3124999999999921
 40
0.3749999999999906
 40
0.3749999999999906
 40
0.4999999999999917
 40
0.4999999999999917
 40
0.5624999999999922
 40
0.5624999999999922
 40
0.6249999999999928
 40
0.6249999999999928
 40
0.6874999999999933
 40
0.6874999999999933
 40
0.7499999999999939
 40
0.7499999999999939
 40
0.874999999999997
 40
0.874999999999997
 40
1.0
 40
1.0
 40
1.0
 40
1.0
 10
428.2830430766746
 20
358.4494310722098
 30
0.0
 10
428.1281783632002
 20
358.4722391673749
 30
0.0
 10
427.9254878791514
 20
358.5008098492024
 30
0.0
 10
427.5513073435748
 20
358.5469667731284
 30
0.0
 10
427.4145270036244
 20
358.5628981557752
 30
0.0
 10
427.1258200523458
 20
358.5938578740464
 30
0.0
 10
426.9728990269539
 20
358.6090166973951
 30
0.0
 10
426.6498249934966
 20
358.6377419265958
 30
0.0
 10
426.4781439898936
 20
358.6514050003666
 30
0.0
 10
426.1257900640509
 20
358.6755282131804
 30
0.0
 10
425.9450833670409
 20
358.6860273229731
 30
0.0
 10
425.3895604077837
 20
358.7119191530117
 30
0.0
 10
424.996464782934
 20
358.721491393675
 30
0.0
 10
424.4158378281901
 20
358.721512848447
 30
0.0
 10
424.2225473993868
 20
358.7192427867673
 30
0.0
 10
423.8364820596857
 20
358.7101880381176
 30
0.0
 10
423.6443907353852
 20
358.7033770480611
 30
0.0
 10
423.2732535417256
 20
358.6861059773846
 30
0.0
 10
423.0926088476172
 20
358.6756147123094
 30
0.0
 10
422.7411615352972
 20
358.6515806594556
 30
0.0
 10
422.5692141446464
 20
358.6379184070979
 30
0.0
 10
422.0831105810295
 20
358.5947291036503
 30
0.0
 10
421.7929204510139
 20
358.5626545214034
 30
0.0
 10
421.2917429354479
 20
358.5008602927475
 30
0.0
 10
421.0887569219615
 20
358.4722389821707
 30
0.0
 10
420.9338934660053
 20
358.4494310722098
 30
0.0
  0
SPLINE
  5
ED
330
1F
100
AcDbEntity
  8
0
  6
Continuous
 62
     7
370
    25
100
AcDbSpline
210
0.0
220
0.0
230
1.0
 70
     8
 71
     3
 72
     9
 73
     5
 74
     0
 42
0.00000001
 43
0.00000001
 40
0.0
 40
0.0
 40
0.0
 40
0.0
 40
0.9372674937730149
 40
0.9999999999999999
 40
0.9999999999999999
 40
0.9999999999999999
 40
0.9999999999999999
 10
420.9338934660054
 20
358.4494310722098
 30
0.0
 10
420.7504906622308
 20
358.4195132091305
 30
0.0
 10
420.5548124753814
 20
358.3875929053985
 30
0.0
 10
420.6370834292081
 20
358.401154476567
 30
0.0
 10
420.6422444923314
 20
358.4020052279147
 30
0.0
  0
SPLINE
  5
EE
330
1F
100
AcDbEntity
  8
0
  6
Continuous
 62
     7
370
    25
100
AcDbSpline
210
0.0
220
0.0
230
1.0
 70
     8
 71
     3
 72
     9
 73
     5
 74
     0
 42
0.00000001
 43
0.00000001
 40
0.0
 40
0.0
 40
0.0
 40
0.0
 40
0.8044675653515676
 40
1.0
 40
1.0
 40
1.0
 40
1.0
 10
428.5746920503485
 20
358.4020052279147
 30
0.0
 10
428.5475668205064
 20
358.4068521791239
 30
0.0
 10
428.5138485812505
 20
358.4128772215468
 30
0.0
 10
428.3207919163815
 20
358.4434525949985
 30
0.0
 10
428.2830430766746
 20
358.4494310722098
 30
0.0
  0
LINE
  5
EF
330
1F
100
AcDbEntity
  8
0
  6
Continuous
 62
     7
370
    25
100
AcDbLine
 10
449.1084682713
 20
407.3994310722
 30
0.0
 11
449.1084682713
 21
360.4411929449
 31
0.0
  0
LINE
  5
F0
330
1F
100
AcDbEntity
  8
0
  6
Continuous
 62
     7
370
    25
100
AcDbLine
 10
414.7899517456
 20
385.9427620225
 30
0.0
 11
420.7674783145
 21
408.2511948812
 31
0.0
  0
LINE
  5
F1
330
1F
100
AcDbEntity
  8
0
  6
Continuous
 62
     7
370
    25
100
AcDbLine
 10
414.1084682713
 20
358.5994310722
 30
0.0
 11
414.1084682713
 21
380.7663811205
 31
0.0
  0
SPLINE
  5
F2
330
1F
100
AcDbEntity
  8
0
  6
Continuous
 62
     7
370
    25
100
AcDbSpline
210
0.0
220
0.0
230
1.0
 70
    24
 71
     3
 72
    22
 73
    18
 74
     0
 42
0.00000001
 43
0.00000001
 40
0.0
 40
0.0
 40
0.0
 40
0.0
 40
0.125
 40
0.125
 40
0.25
 40
0.25
 40
0.375
 40
0.375
 40
0.5
 40
0.5
 40
0.625
 40
0.625
 40
0.75
 40
0.75
 40
0.875
 40
0.875
 40
1.0
 40
1.0
 40
1.0
 40
1.0
 10
449.1084682713399
 20
360.4411929449495
 30
0.0
 10
449.1084682713399
 20
360.3852807468709
 30
0.0
 10
449.1084682713399
 20
360.3288351692209
 30
0.0
 10
449.1084682713399
 20
360.1906880874084
 30
0.0
 10
449.1084682713399
 20
360.1104244854837
 30
0.0
 10
449.1084682713399
 20
359.9197102150285
 30
0.0
 10
449.1084682713399
 20
359.8082336997912
 30
0.0
 10
449.1084682713399
 20
359.5579671035761
 30
0.0
 10
449.1084682713399
 20
359.4183968483714
 30
0.0
 10
449.1084682713399
 20
359.1064887884797
 30
0.0
 10
449.1084682713399
 20
358.9403356213695
 30
0.0
 10
449.1084682713399
 20
358.5900293256899
 30
0.0
 10
449.1084682713399
 20
358.4041167257052
 30
0.0
 10
449.1084682713399
 20
358.0300801534131
 30
0.0
 10
449.1084682713399
 20
357.8408402640674
 30
0.0
 10
449.1084682713399
 20
357.4591645197494
 30
0.0
 10
449.1084682713399
 20
357.2665006422952
 30
0.0
 10
449.1084682713399
 20
357.0739112445967
 30
0.0
  0
LINE
  5
F3
330
1F
100
AcDbEntity
  8
0
  6
Continuous
 62
     7
370
    25
100
AcDbLine
 10
438.1460245858
 20
356.7242069624
 30
0.0
 11
438.1084682713
 21
356.6540386246
 31
0.0
  0
SPLINE
  5
F4
330
1F
100
AcDbEntity
  8
0
  6
Continuous
 62
     7
370
    25
100
AcDbSpline
210
0.0
220
0.0
230
1.0
 70
     8
 71
     3
 72
    22
 73
    18
 74
     0
 42
0.00000001
 43
0.00000001
 40
0.0
 40
0.0
 40
0.0
 40
0.0
 40
0.125
 40
0.125
 40
0.25
 40
0.25
 40
0.375
 40
0.375
 40
0.5
 40
0.5
 40
0.625
 40
0.625
 40
0.75
 40
0.75
 40
0.875
 40
0.875
 40
1.0
 40
1.0
 40
1.0
 40
1.0
 10
438.1084682713398
 20
356.6541273082228
 30
0.0
 10
438.1084682708702
 20
356.8007304606566
 30
0.0
 10
438.1080373405559
 20
356.9481390457087
 30
0.0
 10
438.0878335383675
 20
357.2456102323482
 30
0.0
 10
438.068151206867
 20
357.3953290544835
 30
0.0
 10
437.9998015014876
 20
357.6846607082983
 30
0.0
 10
437.9512246679826
 20
357.8239297605257
 30
0.0
 10
437.8213825468728
 20
358.0767996517123
 30
0.0
 10
437.7402077996418
 20
358.1900567112194
 30
0.0
 10
437.5446899172484
 20
358.3828515618949
 30
0.0
 10
437.4298344520818
 20
358.4628946449022
 30
0.0
 10
437.1734000240638
 20
358.5909243442987
 30
0.0
 10
437.032169672776
 20
358.638821675296
 30
0.0
 10
436.7387669100622
 20
358.7062128477037
 30
0.0
 10
436.5869431101999
 20
358.7256174037225
 30
0.0
 10
436.28529120514
 20
358.7455338947301
 30
0.0
 10
436.1358117115061
 20
358.7459565443272
 30
0.0
 10
435.9871479277803
 20
358.7459565443272
 30
0.0
  0
LINE
  5
F5
330
1F
100
AcDbEntity
  8
0
  6
Continuous
 62
     7
370
    25
100
AcDbLine
 10
438.1084682713
 20
284.3994310722
 30
0.0
 11
438.1084682713
 21
356.6540386246
 31
0.0
  0
ARC
  5
F6
330
1F
100
AcDbEntity
  8
0
  6
Continuous
 62
     7
370
    25
100
AcDbCircle
 10
439.1084682713
 20
284.3994310722
 30
0.0
 40
1.0
100
AcDbArc
 50
180.0
 51
270.0
  0
LINE
  5
F7
330
1F
100
AcDbEntity
  8
0
  6
Continuous
 62
     7
370
    25
100
AcDbLine
 10
448.1084682713
 20
283.3994310722
 30
0.0
 11
439.1084682713
 21
283.3994310722
 31
0.0
  0
ARC
  5
F8
330
1F
100
AcDbEntity
  8
0
  6
Continuous
 62
     7
370
    25
100
AcDbCircle
 10
448.1084682713
 20
284.3994310722
 30
0.0
 40
1.0
100
AcDbArc
 50
270.0
 51
0.0
  0
LINE
  5
F9
330
1F
100
AcDbEntity
  8
0
  6
Continuous
 62
     7
370
    25
100
AcDbLine
 10
449.1084682713
 20
357.0739112446
 30
0.0
 11
449.1084682713
 21
284.3994310722
 31
0.0
  0
LINE
  5
FA
330
1F
100
AcDbEntity
  8
0
  6
Continuous
 62
     7
370
    25
100
AcDbLine
 10
420.933893466
 20
358.4494310722
 30
0.0
 11
428.2830430767
 21
358.4494310722
 31
0.0
  0
LINE
  5
FB
330
1F
100
AcDbEntity
  8
0
  6
Continuous
 62
     8
370
    18
100
AcDbLine
 10
370.5448682139
 20
442.9413623768
 30
0.0
 11
370.5448682139
 21
294.2574997677
 31
0.0
  0
LINE
  5
FC
330
1F
100
AcDbEntity
  8
0
  6
Continuous
 62
     8
370
    18
100
AcDbLine
 10
371.5186363598
 20
441.9521840165
 30
0.0
 11
371.5186363598
 21
295.2466781279
 31
0.0
  0
SPLINE
  5
FD
330
1F
100
AcDbEntity
  8
0
  6
Continuous
 62
     8
370
    18
100
AcDbSpline
210
0.0
220
0.0
230
1.0
 70
     8
 71
     3
 72
     8
 73
     4
 74
     0
 42
0.00000001
 43
0.00000001
 40
0.0
 40
0.0
 40
0.0
 40
0.0
 40
1.0
 40
1.0
 40
1.0
 40
1.0
 10
414.9831369108165
 20
385.9110914968893
 30
0.0
 10
414.5331060464057
 20
384.2180087842328
 30
0.0
 10
414.3084682713401
 20
382.4959768448867
 30
0.0
 10
414.3084682713401
 20
380.7451468466575
 30
0.0
  0
ARC
  5
FE
330
1F
100
AcDbEntity
  8
0
  6
Continuous
 62
     8
370
    18
100
AcDbCircle
 10
414.2590318893
 20
381.232009307
 30
0.0
 40
0.4893659276637383
100
AcDbArc
 50
252.0810805701
 51
275.7979844749
  0
ARC
  5
FF
330
1F
100
AcDbEntity
  8
0
  6
Continuous
 62
     8
370
    18
100
AcDbCircle
 10
414.804907723
 20
385.428956462
 30
0.0
 40
0.5140231855002397
100
AcDbArc
 50
69.7123335695
 51
91.6673087142
  0
SPLINE
  5
100
330
1F
100
AcDbEntity
  8
0
  6
Continuous
 62
     8
370
    18
100
AcDbSpline
210
0.0
220
0.0
230
1.0
 70
     8
 71
     3
 72
    23
 73
    19
 74
     0
 42
0.00000001
 43
0.00000001
 40
0.0
 40
0.0
 40
0.0
 40
0.0
 40
0.0331867439762036
 40
0.0661401785636321
 40
0.098964030715672
 40
0.1317632568154773
 40
0.1646430490757127
 40
0.1977078307795263
 40
0.2310602877041214
 40
0.290409213919759
 40
0.3502512812894726
 40
0.4728582961787943
 40
0.6011590110453151
 40
0.7300542628984317
 40
0.797103031376103
 40
0.8642696152263665
 40
0.9320556753949598
 40
1.0
 40
1.0
 40
1.0
 40
1.0
 10
435.9871479277775
 20
358.7459554035876
 30
0.0
 10
435.9846464454194
 20
358.7552725506315
 30
0.0
 10
435.97966106662
 20
358.7738413433286
 30
0.0
 10
435.9838782148677
 20
358.8030362174705
 30
0.0
 10
435.9967456075937
 20
358.8330202334815
 30
0.0
 10
436.0190832655111
 20
358.8638760493398
 30
0.0
 10
436.0506646564526
 20
358.8955513228879
 30
0.0
 10
436.0915742262416
 20
358.9280294791655
 30
0.0
 10
436.1545010589824
 20
358.9697893007632
 30
0.0
 10
436.2495993685149
 20
359.0212007655965
 30
0.0
 10
436.4370625486482
 20
359.1028125915308
 30
0.0
 10
436.7458715584623
 20
359.2057113684012
 30
0.0
 10
437.2200723924272
 20
359.3183588236976
 30
0.0
 10
437.6934759350313
 20
359.394165235919
 30
0.0
 10
438.1043409751061
 20
359.4397676886755
 30
0.0
 10
438.4313272210948
 20
359.4651956529553
 30
0.0
 10
438.7673007690644
 20
359.4815493131217
 30
0.0
 10
438.9946574030686
 20
359.4835821073785
 30
0.0
 10
439.1084682713399
 20
359.484599689647
 30
0.0
  0
SPLINE
  5
101
330
1F
100
AcDbEntity
  8
0
  6
Continuous
 62
     8
370
    18
100
AcDbSpline
210
0.0
220
0.0
230
1.0
 70
    24
 71
     3
 72
     8
 73
     4
 74
     0
 42
0.00000001
 43
0.00000001
 40
0.0
 40
0.0
 40
0.0
 40
0.0
 40
1.0
 40
1.0
 40
1.0
 40
1.0
 10
435.9871479277803
 20
358.3994310722098
 30
0.0
 10
435.9871479277803
 20
358.3994310722098
 30
0.0
 10
435.9871479277803
 20
358.5154743529776
 30
0.0
 10
435.9871479277803
 20
358.7459554035886
 30
0.0
  0
LINE
  5
102
330
1F
100
AcDbEntity
  8
0
  6
Continuous
 62
     8
370
    18
100
AcDbLine
 10
448.1084682713
 20
359.4845996896
 30
0.0
 11
448.1084682713
 21
408.3994310722
 31
0.0
  0
LINE
  5
103
330
1F
100
AcDbEntity
  8
0
  6
Continuous
 62
     8
370
    18
100
AcDbLine
 10
439.1084682713
 20
359.4845996896
 30
0.0
 11
448.1084682713
 21
359.4845996896
 31
0.0
  0
LINE
  5
104
330
1F
100
AcDbEntity
  8
0
  6
Continuous
 62
     8
370
    18
100
AcDbLine
 10
414.3084682713
 20
380.7451468467
 30
0.0
 11
414.3084682713
 21
358.3994310722
 31
0.0
  0
LINE
  5
105
330
1F
100
AcDbEntity
  8
0
  6
Continuous
 62
     8
370
    18
100
AcDbLine
 10
415.8107495844
 20
389.0246928546
 30
0.0
 11
414.9831369108
 21
385.9110914969
 31
0.0
  0
ARC
  5
106
330
1F
100
AcDbEntity
  8
0
  6
Continuous
 62
     8
370
    18
100
AcDbCircle
 10
448.1297006073
 20
360.4633887276
 30
0.0
 40
0.9790193015990816
100
AcDbArc
 50
268.7573088473
 51
358.7009105591
  0
LINE
  5
107
330
1F
100
AcDbEntity
  8
0
  6
Continuous
 62
     8
370
    18
100
AcDbLine
 10
408.6084682713
 20
407.8994310722
 30
0.0
 11
408.6084682713
 21
358.8994310722
 31
0.0
  0
SPLINE
  5
108
330
1F
100
AcDbEntity
  8
0
  6
Continuous
 62
     8
370
    18
100
AcDbSpline
210
0.0
220
0.0
230
1.0
 70
    24
 71
     3
 72
    20
 73
    16
 74
     0
 42
0.00000001
 43
0.00000001
 40
0.0
 40
0.0
 40
0.0
 40
0.0
 40
0.1250000000000001
 40
0.1250000000000001
 40
0.2500000000000002
 40
0.2500000000000002
 40
0.5000000000000006
 40
0.5000000000000006
 40
0.6250000000000004
 40
0.6250000000000004
 40
0.7500000000000002
 40
0.7500000000000002
 40
0.8750000000000001
 40
0.8750000000000001
 40
1.0
 40
1.0
 40
1.0
 40
1.0
 10
439.1084682713399
 20
357.0739112445968
 30
0.0
 10
439.1084682713399
 20
357.2102158726216
 30
0.0
 10
439.1084682713399
 20
357.3471389441527
 30
0.0
 10
439.1084682713399
 20
357.6248828319393
 30
0.0
 10
439.1084682713399
 20
357.7654528357129
 30
0.0
 10
439.1084682713399
 20
358.1807562840356
 30
0.0
 10
439.1084682713399
 20
358.4459703634145
 30
0.0
 10
439.1084682713399
 20
358.7753891886316
 30
0.0
 10
439.1084682713399
 20
358.8748774719074
 30
0.0
 10
439.1084682713399
 20
359.0517003671418
 30
0.0
 10
439.1084682713399
 20
359.1288856266076
 30
0.0
 10
439.1084682713399
 20
359.2608994714773
 30
0.0
 10
439.1084682713399
 20
359.3155787043883
 30
0.0
 10
439.10846827134
 20
359.4084714581595
 30
0.0
 10
439.1084682713399
 20
359.4465356265267
 30
0.0
 10
439.1084682713399
 20
359.484599689647
 30
0.0
  0
SPLINE
  5
109
330
1F
100
AcDbEntity
  8
0
  6
Continuous
 62
     8
370
    18
100
AcDbSpline
210
0.0
220
0.0
230
1.0
 70
    24
 71
     3
 72
    20
 73
    16
 74
     0
 42
0.00000001
 43
0.00000001
 40
0.0
 40
0.0
 40
0.0
 40
0.0
 40
0.1249999999999999
 40
0.1249999999999999
 40
0.25
 40
0.25
 40
0.5000000000000003
 40
0.5000000000000003
 40
0.6250000000000002
 40
0.6250000000000002
 40
0.7500000000000001
 40
0.7500000000000001
 40
0.8750000000000001
 40
0.8750000000000001
 40
1.0
 40
1.0
 40
1.0
 40
1.0
 10
448.1084682713399
 20
357.0739112445967
 30
0.0
 10
448.1084682713399
 20
357.2102158726216
 30
0.0
 10
448.1084682713399
 20
357.3471389441527
 30
0.0
 10
448.1084682713399
 20
357.6248828319393
 30
0.0
 10
448.1084682713399
 20
357.7654528357129
 30
0.0
 10
448.1084682713399
 20
358.1807562840355
 30
0.0
 10
448.1084682713399
 20
358.4459703634144
 30
0.0
 10
448.1084682713399
 20
358.7753891886316
 30
0.0
 10
448.1084682713399
 20
358.8748774719073
 30
0.0
 10
448.1084682713399
 20
359.0517003671418
 30
0.0
 10
448.1084682713399
 20
359.1288856266075
 30
0.0
 10
448.1084682713399
 20
359.2608994714773
 30
0.0
 10
448.1084682713399
 20
359.3155787043883
 30
0.0
 10
448.1084682713399
 20
359.4084714581595
 30
0.0
 10
448.1084682713399
 20
359.4465356265267
 30
0.0
 10
448.1084682713399
 20
359.484599689647
 30
0.0
  0
LINE
  5
10A
330
1F
100
AcDbEntity
  8
0
  6
Continuous
 62
     8
370
    18
100
AcDbLine
 10
448.1084682713
 20
357.0739112446
 30
0.0
 11
439.1084682713
 21
357.0739112446
 31
0.0
  0
LINE
  5
10B
330
1F
100
AcDbEntity
  8
0
  6
Continuous
 62
     8
370
    18
100
AcDbLine
 10
448.1084682713
 20
357.0739112446
 30
0.0
 11
449.1084682713
 21
357.0739112446
 31
0.0
  0
SPLINE
  5
10C
330
1F
100
AcDbEntity
  8
0
  6
Continuous
 62
     8
370
    18
100
AcDbSpline
210
0.0
220
0.0
230
1.0
 70
     8
 71
     3
 72
    13
 73
     9
 74
     0
 42
0.00000001
 43
0.00000001
 40
0.0
 40
0.0
 40
0.0
 40
0.0
 40
0.1350233127628702
 40
0.2744378409956092
 40
0.4088169855429491
 40
0.5581858358441882
 40
0.8496706339053063
 40
1.0
 40
1.0
 40
1.0
 40
1.0
 10
439.1084682713399
 20
357.0739112445968
 30
0.0
 10
439.0442052107559
 20
357.0720923364135
 30
0.0
 10
438.9135891323797
 20
357.0683953656862
 30
0.0
 10
438.7281314680353
 20
357.0401375521136
 30
0.0
 10
438.5529850242513
 20
356.9960290084691
 30
0.0
 10
438.3505662306837
 20
356.9193047945967
 30
0.0
 10
438.1830122365218
 20
356.820804142743
 30
0.0
 10
438.1554147586588
 20
356.7487303965648
 30
0.0
 10
438.1460245858451
 20
356.7242069623836
 30
0.0
  0
LINE
  5
10D
330
1F
100
AcDbEntity
  8
0
  6
Continuous
 62
     8
370
    18
100
AcDbLine
 10
439.1084682713
 20
357.0739112446
 30
0.0
 11
439.1084682713
 21
284.3994310722
 31
0.0
  0
LINE
  5
10E
330
1F
100
AcDbEntity
  8
0
  6
Continuous
 62
     8
370
    18
100
AcDbLine
 10
438.1084682713
 20
284.3994310722
 30
0.0
 11
439.1084682713
 21
284.3994310722
 31
0.0
  0
LINE
  5
10F
330
1F
100
AcDbEntity
  8
0
  6
Continuous
 62
     8
370
    18
100
AcDbLine
 10
448.1084682713
 20
284.3994310722
 30
0.0
 11
448.1084682713
 21
357.0739112446
 31
0.0
  0
LINE
  5
110
330
1F
100
AcDbEntity
  8
0
  6
Continuous
 62
     8
370
    18
100
AcDbLine
 10
439.1084682713
 20
284.3994310722
 30
0.0
 11
448.1084682713
 21
284.3994310722
 31
0.0
  0
LINE
  5
111
330
1F
100
AcDbEntity
  8
0
  6
Continuous
 62
     8
370
    18
100
AcDbLine
 10
439.1084682713
 20
284.3994310722
 30
0.0
 11
439.1084682713
 21
283.3994310722
 31
0.0
  0
LINE
  5
112
330
1F
100
AcDbEntity
  8
0
  6
Continuous
 62
     8
370
    18
100
AcDbLine
 10
448.1084682713
 20
284.3994310722
 30
0.0
 11
448.1084682713
 21
283.3994310722
 31
0.0
  0
LINE
  5
113
330
1F
100
AcDbEntity
  8
0
  6
Continuous
 62
     8
370
    18
100
AcDbLine
 10
449.1084682713
 20
284.3994310722
 30
0.0
 11
448.1084682713
 21
284.3994310722
 31
0.0
  0
LINE
  5
114
330
1F
100
AcDbEntity
  8
0
  6
Continuous
 62
     8
370
    18
100
AcDbLine
 10
420.8270496383
 20
357.8488837023
 30
0.0
 11
428.3898869044
 21
357.8488837023
 31
0.0
  0
ENDSEC
  0
SECTION
  2
OBJECTS
  0
DICTIONARY
  5
C
330
0
100
AcDbDictionary
281
     1
  3
ACAD_GROUP
350
D
  3
ACAD_LAYOUT
350
1A
  3
ACAD_MLINESTYLE
350
17
  3
ACAD_PLOTSETTINGS
350
19
  3
ACAD_PLOTSTYLENAME
350
E
  3
ACAD_SCALELIST
350
47
  3
DWGPROPS
350
115
  0
DICTIONARY
  5
D
102
{ACAD_REACTORS
330
C
102
}
330
C
100
AcDbDictionary
281
     1
  0
DICTIONARY
  5
1A
102
{ACAD_REACTORS
330
C
102
}
330
C
100
AcDbDictionary
281
     1
  3
Layout1
350
1E
  3
Layout2
350
26
  3
Model
350
22
  0
DICTIONARY
  5
17
102
{ACAD_REACTORS
330
C
102
}
330
C
100
AcDbDictionary
281
     1
  3
Standard
350
18
  0
DICTIONARY
  5
19
102
{ACAD_REACTORS
330
C
102
}
330
C
100
AcDbDictionary
281
     1
  0
ACDBDICTIONARYWDFLT
  5
E
102
{ACAD_REACTORS
330
C
102
}
330
C
100
AcDbDictionary
281
     1
  3
Normal
350
F
100
AcDbDictionaryWithDefault
340
F
  0
DICTIONARY
  5
47
102
{ACAD_REACTORS
330
C
102
}
330
C
100
AcDbDictionary
281
     1
  3
A0
350
48
  3
A1
350
49
  3
A2
350
4A
  3
A3
350
4B
  3
A4
350
4C
  3
A5
350
4D
  3
A6
350
4E
  3
A7
350
4F
  3
A8
350
50
  3
A9
350
51
  3
B0
350
52
  3
B1
350
53
  3
B2
350
54
  3
B3
350
55
  3
B4
350
56
  3
B5
350
57
  3
B6
350
58
  3
B7
350
59
  3
B8
350
5A
  3
B9
350
5B
  3
C0
350
5C
  3
C1
350
5D
  3
C2
350
5E
  3
C3
350
5F
  3
C4
350
60
  3
C5
350
61
  3
C6
350
62
  3
C7
350
63
  3
C8
350
64
  3
C9
350
65
  3
D0
350
66
  3
D1
350
67
  3
D2
350
68
  0
XRECORD
  5
115
102
{ACAD_REACTORS
330
C
102
}
330
C
100
AcDbXrecord
280
     1
  1
DWGPROPS COOKIE
  2

  3

  4

  6

  7

  8
fue-task
  9

300
=
301
=
302
=
303
=
304
=
305
=
306
=
307
=
308
=
309
=
 40
0.0
 41
2459986.437362975
 42
2459986.437363692
  1

 90
        0
  0
LAYOUT
  5
1E
102
{ACAD_REACTORS
330
1A
102
}
330
1A
100
AcDbPlotSettings
  1

  2
none_device
  4

  6

 40
0.0
 41
0.0
 42
0.0
 43
0.0
 44
0.0
 45
0.0
 46
0.0
 47
0.0
 48
0.0
 49
0.0
140
0.0
141
0.0
142
1.0
143
1.0
 70
   688
 72
     1
 73
     0
 74
     5
  7

 75
    16
147
1.0
148
0.0
149
0.0
100
AcDbLayout
  1
Layout1
 70
     1
 71
     1
 10
0.0
 20
0.0
 11
420.0
 21
297.0
 12
0.0
 22
0.0
 32
0.0
 14
1.0000000000E+20
 24
1.0000000000E+20
 34
1.0000000000E+20
 15
-1.0000000000E+20
 25
-1.0000000000E+20
 35
-1.0000000000E+20
146
0.0
 13
0.0
 23
0.0
 33
0.0
 16
1.0
 26
0.0
 36
0.0
 17
0.0
 27
1.0
 37
0.0
 76
     0
330
1B
  0
LAYOUT
  5
26
102
{ACAD_REACTORS
330
1A
102
}
330
1A
100
AcDbPlotSettings
  1

  2
none_device
  4

  6

 40
0.0
 41
0.0
 42
0.0
 43
0.0
 44
0.0
 45
0.0
 46
0.0
 47
0.0
 48
0.0
 49
0.0
140
0.0
141
0.0
142
1.0
143
1.0
 70
   688
 72
     1
 73
     0
 74
     5
  7

 75
    16
147
1.0
148
0.0
149
0.0
100
AcDbLayout
  1
Layout2
 70
     1
 71
     2
 10
0.0
 20
0.0
 11
0.0
 21
0.0
 12
0.0
 22
0.0
 32
0.0
 14
0.0
 24
0.0
 34
0.0
 15
0.0
 25
0.0
 35
0.0
146
0.0
 13
0.0
 23
0.0
 33
0.0
 16
1.0
 26
0.0
 36
0.0
 17
0.0
 27
1.0
 37
0.0
 76
     0
330
23
  0
LAYOUT
  5
22
102
{ACAD_REACTORS
330
1A
102
}
330
1A
100
AcDbPlotSettings
  1

  2
none_device
  4
Letter_(8.50_x_11.00_Inches)
  6

 40
6.35
 41
6.35
 42
6.35000508
 43
6.35000508
 44
215.9
 45
279.4
 46
0.0
 47
0.0
 48
0.0
 49
0.0
140
0.0
141
0.0
142
1.0
143
1.0
 70
  1712
 72
     1
 73
     0
 74
     0
  7

 75
     0
147
1.0
148
0.0
149
0.0
100
AcDbLayout
  1
Model
 70
     1
 71
     0
 10
0.0
 20
0.0
 11
594.0
 21
841.0
 12
0.0
 22
0.0
 32
0.0
 14
0.0
 24
0.0
 34
0.0
 15
594.0
 25
841.0
 35
0.0
146
0.0
 13
0.0
 23
0.0
 33
0.0
 16
1.0
 26
0.0
 36
0.0
 17
0.0
 27
1.0
 37
0.0
 76
     0
330
1F
331
29
  0
MLINESTYLE
  5
18
102
{ACAD_REACTORS
330
17
102
}
330
17
100
AcDbMlineStyle
  2
Standard
 70
     0
  3

 62
   256
 51
90.0
 52
90.0
 71
     2
 49
0.5
 62
   256
  6
BYLAYER
 49
-0.5
 62
   256
  6
BYLAYER
  0
ACDBPLACEHOLDER
  5
F
102
{ACAD_REACTORS
330
E
102
}
330
E
  0
SCALE
  5
48
102
{ACAD_REACTORS
330
47
102
}
330
47
100
AcDbScale
 70
     0
300
1:1
140
1.0
141
1.0
290
     1
  0
SCALE
  5
49
102
{ACAD_REACTORS
330
47
102
}
330
47
100
AcDbScale
 70
     0
300
1:2
140
1.0
141
2.0
290
     0
  0
SCALE
  5
4A
102
{ACAD_REACTORS
330
47
102
}
330
47
100
AcDbScale
 70
     0
300
1:4
140
1.0
141
4.0
290
     0
  0
SCALE
  5
4B
102
{ACAD_REACTORS
330
47
102
}
330
47
100
AcDbScale
 70
     0
300
1:5
140
1.0
141
5.0
290
     0
  0
SCALE
  5
4C
102
{ACAD_REACTORS
330
47
102
}
330
47
100
AcDbScale
 70
     0
300
1:8
140
1.0
141
8.0
290
     0
  0
SCALE
  5
4D
102
{ACAD_REACTORS
330
47
102
}
330
47
100
AcDbScale
 70
     0
300
1:10
140
1.0
141
10.0
290
     0
  0
SCALE
  5
4E
102
{ACAD_REACTORS
330
47
102
}
330
47
100
AcDbScale
 70
     0
300
1:16
140
1.0
141
16.0
290
     0
  0
SCALE
  5
4F
102
{ACAD_REACTORS
330
47
102
}
330
47
100
AcDbScale
 70
     0
300
1:20
140
1.0
141
20.0
290
     0
  0
SCALE
  5
50
102
{ACAD_REACTORS
330
47
102
}
330
47
100
AcDbScale
 70
     0
300
1:30
140
1.0
141
30.0
290
     0
  0
SCALE
  5
51
102
{ACAD_REACTORS
330
47
102
}
330
47
100
AcDbScale
 70
     0
300
1:40
140
1.0
141
40.0
290
     0
  0
SCALE
  5
52
102
{ACAD_REACTORS
330
47
102
}
330
47
100
AcDbScale
 70
     0
300
1:50
140
1.0
141
50.0
290
     0
  0
SCALE
  5
53
102
{ACAD_REACTORS
330
47
102
}
330
47
100
AcDbScale
 70
     0
300
1:100
140
1.0
141
100.0
290
     0
  0
SCALE
  5
54
102
{ACAD_REACTORS
330
47
102
}
330
47
100
AcDbScale
 70
     0
300
2:1
140
2.0
141
1.0
290
     0
  0
SCALE
  5
55
102
{ACAD_REACTORS
330
47
102
}
330
47
100
AcDbScale
 70
     0
300
4:1
140
4.0
141
1.0
290
     0
  0
SCALE
  5
56
102
{ACAD_REACTORS
330
47
102
}
330
47
100
AcDbScale
 70
     0
300
8:1
140
8.0
141
1.0
290
     0
  0
SCALE
  5
57
102
{ACAD_REACTORS
330
47
102
}
330
47
100
AcDbScale
 70
     0
300
10:1
140
10.0
141
1.0
290
     0
  0
SCALE
  5
58
102
{ACAD_REACTORS
330
47
102
}
330
47
100
AcDbScale
 70
     0
300
100:1
140
100.0
141
1.0
290
     0
  0
SCALE
  5
59
102
{ACAD_REACTORS
330
47
102
}
330
47
100
AcDbScale
 70
     0
300
1/128" = 1'-0"
140
0.0078125
141
12.0
290
     0
  0
SCALE
  5
5A
102
{ACAD_REACTORS
330
47
102
}
330
47
100
AcDbScale
 70
     0
300
1/64" = 1'-0"
140
0.015625
141
12.0
290
     0
  0
SCALE
  5
5B
102
{ACAD_REACTORS
330
47
102
}
330
47
100
AcDbScale
 70
     0
300
1/32" = 1'-0"
140
0.03125
141
12.0
290
     0
  0
SCALE
  5
5C
102
{ACAD_REACTORS
330
47
102
}
330
47
100
AcDbScale
 70
     0
300
1/16" = 1'-0"
140
0.0625
141
12.0
290
     0
  0
SCALE
  5
5D
102
{ACAD_REACTORS
330
47
102
}
330
47
100
AcDbScale
 70
     0
300
3/32" = 1'-0"
140
0.09375
141
12.0
290
     0
  0
SCALE
  5
5E
102
{ACAD_REACTORS
330
47
102
}
330
47
100
AcDbScale
 70
     0
300
1/8" = 1'-0"
140
0.125
141
12.0
290
     0
  0
SCALE
  5
5F
102
{ACAD_REACTORS
330
47
102
}
330
47
100
AcDbScale
 70
     0
300
3/16" = 1'-0"
140
0.1875
141
12.0
290
     0
  0
SCALE
  5
60
102
{ACAD_REACTORS
330
47
102
}
330
47
100
AcDbScale
 70
     0
300
1/4" = 1'-0"
140
0.25
141
12.0
290
     0
  0
SCALE
  5
61
102
{ACAD_REACTORS
330
47
102
}
330
47
100
AcDbScale
 70
     0
300
3/8" = 1'-0"
140
0.375
141
12.0
290
     0
  0
SCALE
  5
62
102
{ACAD_REACTORS
330
47
102
}
330
47
100
AcDbScale
 70
     0
300
1/2" = 1'-0"
140
0.5
141
12.0
290
     0
  0
SCALE
  5
63
102
{ACAD_REACTORS
330
47
102
}
330
47
100
AcDbScale
 70
     0
300
3/4" = 1'-0"
140
0.75
141
12.0
290
     0
  0
SCALE
  5
64
102
{ACAD_REACTORS
330
47
102
}
330
47
100
AcDbScale
 70
     0
300
1" = 1'-0"
140
1.0
141
12.0
290
     0
  0
SCALE
  5
65
102
{ACAD_REACTORS
330
47
102
}
330
47
100
AcDbScale
 70
     0
300
1-1/2" = 1'-0"
140
1.5
141
12.0
290
     0
  0
SCALE
  5
66
102
{ACAD_REACTORS
330
47
102
}
330
47
100
AcDbScale
 70
     0
300
3" = 1'-0"
140
3.0
141
12.0
290
     0
  0
SCALE
  5
67
102
{ACAD_REACTORS
330
47
102
}
330
47
100
AcDbScale
 70
     0
300
6" = 1'-0"
140
6.0
141
12.0
290
     0
  0
SCALE
  5
68
102
{ACAD_REACTORS
330
47
102
}
330
47
100
AcDbScale
 70
     0
300
1'-0" = 1'-0"
140
12.0
141
12.0
290
     0
  0
ENDSEC
  0
EOF
