  0
SECTION
  2
HEADER
  9
$ACADVER
  1
AC1015
  9
$ACADMAINTVER
 70
     6
  9
$DWGCODEPAGE
  3
ANSI_1252
  9
$INSBASE
 10
0.0
 20
0.0
 30
0.0
  9
$EXTMIN
 10
0.0
 20
0.0
 30
0.0
  9
$EXTMAX
 10
594.0
 20
841.0
 30
0.0
  9
$LIMMIN
 10
0.0
 20
0.0
  9
$LIMMAX
 10
594.0
 20
841.0
  9
$ORTHOMODE
 70
     0
  9
$REGENMODE
 70
     1
  9
$FILLMODE
 70
     1
  9
$QTEXTMODE
 70
     0
  9
$MIRRTEXT
 70
     1
  9
$LTSCALE
 40
1.0
  9
$ATTMODE
 70
     1
  9
$TEXTSIZE
 40
10.0
  9
$TRACEWID
 40
1.0
  9
$TEXTSTYLE
  7
Standard
  9
$CLAYER
  8
0
  9
$CELTYPE
  6
ByLayer
  9
$CECOLOR
 62
   256
  9
$CELTSCALE
 40
1.0
  9
$DISPSILH
 70
     0
  9
$DIMSCALE
 40
1.0
  9
$DIMASZ
 40
2.5
  9
$DIMEXO
 40
0.0
  9
$DIMDLI
 40
3.75
  9
$DIMRND
 40
0.0
  9
$DIMDLE
 40
0.0
  9
$DIMEXE
 40
1.0
  9
$DIMTP
 40
0.0
  9
$DIMTM
 40
0.0
  9
$DIMTXT
 40
3.5
  9
$DIMCEN
 40
2.5
  9
$DIMTSZ
 40
0.0
  9
$DIMTOL
 70
     0
  9
$DIMLIM
 70
     0
  9
$DIMTIH
 70
     1
  9
$DIMTOH
 70
     1
  9
$DIMSE1
 70
     0
  9
$DIMSE2
 70
     0
  9
$DIMTAD
 70
     1
  9
$DIMZIN
 70
     0
  9
$DIMBLK
  1

  9
$DIMASO
 70
     1
  9
$DIMSHO
 70
     1
  9
$DIMPOST
  1

  9
$DIMAPOST
  1

  9
$DIMALT
 70
     0
  9
$DIMALTD
 70
     3
  9
$DIMALTF
 40
0.0393700787
  9
$DIMLFAC
 40
1.0
  9
$DIMTOFL
 70
     1
  9
$DIMTVP
 40
0.0
  9
$DIMTIX
 70
     0
  9
$DIMSOXD
 70
     0
  9
$DIMSAH
 70
     0
  9
$DIMBLK1
  1

  9
$DIMBLK2
  1

  9
$DIMSTYLE
  2
ISO-25
  9
$DIMCLRD
 70
     0
  9
$DIMCLRE
 70
     0
  9
$DIMCLRT
 70
     0
  9
$DIMTFAC
 40
1.0
  9
$DIMGAP
 40
1.5
  9
$DIMJUST
 70
     0
  9
$DIMSD1
 70
     0
  9
$DIMSD2
 70
     0
  9
$DIMTOLJ
 70
     0
  9
$DIMTZIN
 70
     0
  9
$DIMALTZ
 70
     0
  9
$DIMALTTZ
 70
     0
  9
$DIMUPT
 70
     0
  9
$DIMDEC
 70
     2
  9
$DIMTDEC
 70
     2
  9
$DIMALTU
 70
     2
  9
$DIMALTTD
 70
     3
  9
$DIMTXSTY
  7
Standard
  9
$DIMAUNIT
 70
     0
  9
$DIMADEC
 70
     2
  9
$DIMALTRND
 40
0.0
  9
$DIMAZIN
 70
     0
  9
$DIMDSEP
 70
    44
  9
$DIMATFIT
 70
     3
  9
$DIMFRAC
 70
     0
  9
$DIMLDRBLK
  1

  9
$DIMLUNIT
 70
     2
  9
$DIMLWD
 70
    -2
  9
$DIMLWE
 70
    -2
  9
$DIMTMOVE
 70
     0
  9
$LUNITS
 70
     2
  9
$LUPREC
 70
     2
  9
$SKETCHINC
 40
1.0
  9
$FILLETRAD
 40
10.0
  9
$AUNITS
 70
     0
  9
$AUPREC
 70
     2
  9
$MENU
  1
.
  9
$ELEVATION
 40
0.0
  9
$PELEVATION
 40
0.0
  9
$THICKNESS
 40
0.0
  9
$LIMCHECK
 70
     0
  9
$CHAMFERA
 40
0.0
  9
$CHAMFERB
 40
0.0
  9
$CHAMFERC
 40
0.0
  9
$CHAMFERD
 40
0.0
  9
$SKPOLY
 70
     0
  9
$TDCREATE
 40
2457886.454779861
  9
$TDUCREATE
 40
2457886.371446528
  9
$TDUPDATE
 40
2457886.454780868
  9
$TDUUPDATE
 40
2457886.371447535
  9
$TDINDWG
 40
0.0000000116
  9
$TDUSRTIMER
 40
0.0000000116
  9
$USRTIMER
 70
     1
  9
$ANGBASE
 50
0.0
  9
$ANGDIR
 70
     0
  9
$PDMODE
 70
     0
  9
$PDSIZE
 40
-1.0
  9
$PLINEWID
 40
0.0
  9
$SPLFRAME
 70
     0
  9
$SPLINETYPE
 70
     6
  9
$SPLINESEGS
 70
     8
  9
$HANDSEED
  5
198
  9
$SURFTAB1
 70
     6
  9
$SURFTAB2
 70
     6
  9
$SURFTYPE
 70
     6
  9
$SURFU
 70
     6
  9
$SURFV
 70
     6
  9
$UCSBASE
  2

  9
$UCSNAME
  2

  9
$UCSORG
 10
0.0
 20
0.0
 30
0.0
  9
$UCSXDIR
 10
1.0
 20
0.0
 30
0.0
  9
$UCSYDIR
 10
0.0
 20
1.0
 30
0.0
  9
$UCSORTHOREF
  2

  9
$UCSORTHOVIEW
 70
     0
  9
$UCSORGTOP
 10
0.0
 20
0.0
 30
0.0
  9
$UCSORGBOTTOM
 10
0.0
 20
0.0
 30
0.0
  9
$UCSORGLEFT
 10
0.0
 20
0.0
 30
0.0
  9
$UCSORGRIGHT
 10
0.0
 20
0.0
 30
0.0
  9
$UCSORGFRONT
 10
0.0
 20
0.0
 30
0.0
  9
$UCSORGBACK
 10
0.0
 20
0.0
 30
0.0
  9
$PUCSBASE
  2

  9
$PUCSNAME
  2

  9
$PUCSORG
 10
0.0
 20
0.0
 30
0.0
  9
$PUCSXDIR
 10
1.0
 20
0.0
 30
0.0
  9
$PUCSYDIR
 10
0.0
 20
1.0
 30
0.0
  9
$PUCSORTHOREF
  2

  9
$PUCSORTHOVIEW
 70
     0
  9
$PUCSORGTOP
 10
0.0
 20
0.0
 30
0.0
  9
$PUCSORGBOTTOM
 10
0.0
 20
0.0
 30
0.0
  9
$PUCSORGLEFT
 10
0.0
 20
0.0
 30
0.0
  9
$PUCSORGRIGHT
 10
0.0
 20
0.0
 30
0.0
  9
$PUCSORGFRONT
 10
0.0
 20
0.0
 30
0.0
  9
$PUCSORGBACK
 10
0.0
 20
0.0
 30
0.0
  9
$USERI1
 70
     0
  9
$USERI2
 70
     0
  9
$USERI3
 70
     0
  9
$USERI4
 70
     0
  9
$USERI5
 70
     0
  9
$USERR1
 40
0.0
  9
$USERR2
 40
0.0
  9
$USERR3
 40
0.0
  9
$USERR4
 40
0.0
  9
$USERR5
 40
0.0
  9
$WORLDVIEW
 70
     1
  9
$SHADEDGE
 70
     3
  9
$SHADEDIF
 70
    70
  9
$TILEMODE
 70
     1
  9
$MAXACTVP
 70
    64
  9
$PINSBASE
 10
0.0
 20
0.0
 30
0.0
  9
$PLIMCHECK
 70
     0
  9
$PEXTMIN
 10
1.0000000000E+20
 20
1.0000000000E+20
 30
1.0000000000E+20
  9
$PEXTMAX
 10
-1.0000000000E+20
 20
-1.0000000000E+20
 30
-1.0000000000E+20
  9
$PLIMMIN
 10
0.0
 20
0.0
  9
$PLIMMAX
 10
420.0
 20
297.0
  9
$UNITMODE
 70
     0
  9
$VISRETAIN
 70
     1
  9
$PLINEGEN
 70
     0
  9
$PSLTSCALE
 70
     1
  9
$TREEDEPTH
 70
  3020
  9
$CMLSTYLE
  2
Standard
  9
$CMLJUST
 70
     0
  9
$CMLSCALE
 40
20.0
  9
$PROXYGRAPHICS
 70
     1
  9
$MEASUREMENT
 70
     1
  9
$CELWEIGHT
370
    -1
  9
$ENDCAPS
280
     0
  9
$JOINSTYLE
280
     0
  9
$LWDISPLAY
290
     1
  9
$INSUNITS
 70
     4
  9
$HYPERLINKBASE
  1

  9
$STYLESHEET
  1

  9
$XEDIT
290
     1
  9
$CEPSNTYPE
380
     0
  9
$PSTYLEMODE
290
     1
  9
$FINGERPRINTGUID
  2
{3C13E207-77D5-4F45-B00F-8C0326EED453}
  9
$VERSIONGUID
  2
{FAEB1C32-E019-11D5-929B-00C0DF256EC4}
  9
$EXTNAMES
290
     1
  9
$PSVPSCALE
 40
0.0
  9
$OLESTARTUP
290
     0
  0
ENDSEC
  0
SECTION
  2
CLASSES
  0
CLASS
  1
ACDBDICTIONARYWDFLT
  2
AcDbDictionaryWithDefault
  3
ObjectDBX Classes
 90
        0
280
     0
281
     0
  0
CLASS
  1
VISUALSTYLE
  2
AcDbVisualStyle
  3
ObjectDBX Classes
 90
     4095
280
     0
281
     0
  0
CLASS
  1
MATERIAL
  2
AcDbMaterial
  3
ObjectDBX Classes
 90
     1153
280
     0
281
     0
  0
CLASS
  1
SCALE
  2
AcDbScale
  3
ObjectDBX Classes
 90
     1153
280
     0
281
     0
  0
CLASS
  1
TABLESTYLE
  2
AcDbTableStyle
  3
ObjectDBX Classes
 90
     4095
280
     0
281
     0
  0
CLASS
  1
MLEADERSTYLE
  2
AcDbMLeaderStyle
  3
ACDB_MLEADERSTYLE_CLASS
 90
     4095
280
     0
281
     0
  0
CLASS
  1
SUN
  2
AcDbSun
  3
SCENEOE
 90
     1153
280
     0
281
     0
  0
CLASS
  1
ACDBPLACEHOLDER
  2
AcDbPlaceHolder
  3
ObjectDBX Classes
 90
        0
280
     0
281
     0
  0
CLASS
  1
LAYOUT
  2
AcDbLayout
  3
ObjectDBX Classes
 90
        0
280
     0
281
     0
  0
ENDSEC
  0
SECTION
  2
TABLES
  0
TABLE
  2
VPORT
  5
8
330
0
100
AcDbSymbolTable
 70
     1
  0
VPORT
  5
29
330
8
100
AcDbSymbolTableRecord
100
AcDbViewportTableRecord
  2
*Active
 70
     0
 10
0.0
 20
0.0
 11
1.0
 21
1.0
 12
297.0
 22
420.5
 13
0.0
 23
0.0
 14
10.0
 24
10.0
 15
10.0
 25
10.0
 16
0.0
 26
0.0
 36
1.0
 17
0.0
 27
0.0
 37
0.0
 40
841.0
 41
0.7063020214
 42
50.0
 43
0.0
 44
0.0
 50
0.0
 51
0.0
 71
     0
 72
  2000
 73
     1
 74
     3
 75
     0
 76
     0
 77
     0
 78
     0
281
     0
 65
     1
110
0.0
120
0.0
130
0.0
111
1.0
121
0.0
131
0.0
112
0.0
122
1.0
132
0.0
 79
     0
146
0.0
  0
ENDTAB
  0
TABLE
  2
LTYPE
  5
5
330
0
100
AcDbSymbolTable
 70
     6
  0
LTYPE
  5
14
330
5
100
AcDbSymbolTableRecord
100
AcDbLinetypeTableRecord
  2
ByBlock
 70
     0
  3

 72
    65
 73
     0
 40
0.0
  0
LTYPE
  5
15
330
5
100
AcDbSymbolTableRecord
100
AcDbLinetypeTableRecord
  2
ByLayer
 70
     0
  3

 72
    65
 73
     0
 40
0.0
  0
LTYPE
  5
16
330
5
100
AcDbSymbolTableRecord
100
AcDbLinetypeTableRecord
  2
Continuous
 70
     0
  3
Solid line
 72
    65
 73
     0
 40
0.0
  0
LTYPE
  5
6E
330
5
100
AcDbSymbolTableRecord
100
AcDbLinetypeTableRecord
  2
HIDDEN
 70
     0
  3
Hidden __ __ __ __ __ __ __ __ __ __ __ __ __ __
 72
    65
 73
     2
 40
1.905
 49
1.27
 74
     0
 49
-0.635
 74
     0
  0
LTYPE
  5
6F
330
5
100
AcDbSymbolTableRecord
100
AcDbLinetypeTableRecord
  2
PHANTOM
 70
     0
  3
Phantom ______  __  __  ______  __  __  ______
 72
    65
 73
     6
 40
12.7
 49
6.35
 74
     0
 49
-1.27
 74
     0
 49
1.27
 74
     0
 49
-1.27
 74
     0
 49
1.27
 74
     0
 49
-1.27
 74
     0
  0
LTYPE
  5
70
330
5
100
AcDbSymbolTableRecord
100
AcDbLinetypeTableRecord
  2
CENTER
 70
     0
  3
Center ____ _ ____ _ ____ _ ____ _ ____ _ ____
 72
    65
 73
     4
 40
10.16
 49
6.35
 74
     0
 49
-1.27
 74
     0
 49
1.27
 74
     0
 49
-1.27
 74
     0
  0
LTYPE
  5
71
330
5
100
AcDbSymbolTableRecord
100
AcDbLinetypeTableRecord
  2
CENTERX2
 70
     0
  3
Center (2x) ________  __  ________  __  _____
 72
    65
 73
     4
 40
20.32
 49
12.7
 74
     0
 49
-2.54
 74
     0
 49
2.54
 74
     0
 49
-2.54
 74
     0
  0
LTYPE
  5
72
330
5
100
AcDbSymbolTableRecord
100
AcDbLinetypeTableRecord
  2
DOT2
 70
     0
  3
Dot (.5x) ........................................
 72
    65
 73
     2
 40
0.635
 49
0.0
 74
     0
 49
-0.635
 74
     0
  0
ENDTAB
  0
TABLE
  2
LAYER
  5
2
330
0
100
AcDbSymbolTable
 70
     1
  0
LAYER
  5
10
330
2
100
AcDbSymbolTableRecord
100
AcDbLayerTableRecord
  2
0
 70
     0
 62
     7
  6
Continuous
370
    -3
390
F
  0
ENDTAB
  0
TABLE
  2
STYLE
  5
3
330
0
100
AcDbSymbolTable
 70
     3
  0
STYLE
  5
11
330
3
100
AcDbSymbolTableRecord
100
AcDbTextStyleTableRecord
  2
Standard
 70
     0
 40
0.0
 41
1.0
 50
0.0
 71
     0
 42
10.0
  3
txt
  4

  0
STYLE
  5
76
330
3
100
AcDbSymbolTableRecord
100
AcDbTextStyleTableRecord
  2
SLDTEXTSTYLE0
 70
     0
 40
0.0
 41
0.96
 50
0.0
 71
     0
 42
10.0
  3
ISOCP3
  4

  0
STYLE
  5
8D
330
3
100
AcDbSymbolTableRecord
100
AcDbTextStyleTableRecord
  2
SLDTEXTSTYLE1
 70
     0
 40
0.0
 41
0.605
 50
0.0
 71
     0
 42
10.0
  3
TXT
  4

  0
ENDTAB
  0
TABLE
  2
VIEW
  5
6
330
0
100
AcDbSymbolTable
 70
     0
  0
ENDTAB
  0
TABLE
  2
UCS
  5
7
330
0
100
AcDbSymbolTable
 70
     0
  0
ENDTAB
  0
TABLE
  2
APPID
  5
9
330
0
100
AcDbSymbolTable
 70
     1
  0
APPID
  5
12
330
9
100
AcDbSymbolTableRecord
100
AcDbRegAppTableRecord
  2
ACAD
 70
     0
  0
ENDTAB
  0
TABLE
  2
DIMSTYLE
  5
A
330
0
100
AcDbSymbolTable
 70
     2
100
AcDbDimStyleTable
  0
DIMSTYLE
105
27
330
A
100
AcDbSymbolTableRecord
100
AcDbDimStyleTableRecord
  2
ISO-25
 70
     0
 41
2.5
 42
0.625
 43
3.75
 44
1.25
 73
     0
 74
     0
 77
     1
 78
     8
140
2.5
141
2.5
143
0.0393700787
147
0.625
171
     3
172
     1
178
     0
271
     2
272
     2
274
     3
278
    44
283
     0
284
     8
340
11
  0
DIMSTYLE
105
77
102
{ACAD_REACTORS
330
75
330
82
102
}
330
A
100
AcDbSymbolTableRecord
100
AcDbDimStyleTableRecord
  2
SLDDIMSTYLE0
 70
     0
 41
2.5
 44
0.0
 45
0.000000001
 73
     0
 74
     0
 77
     1
 78
    12
 79
     3
140
6.0
147
1.5
173
     1
178
     0
271
     2
272
     2
276
     2
284
    12
340
76
  0
ENDTAB
  0
TABLE
  2
BLOCK_RECORD
  5
1
330
0
100
AcDbSymbolTable
 70
     3
  0
BLOCK_RECORD
  5
1F
330
1
100
AcDbSymbolTableRecord
100
AcDbBlockTableRecord
  2
*Model_Space
340
22
  0
BLOCK_RECORD
  5
1B
330
1
100
AcDbSymbolTableRecord
100
AcDbBlockTableRecord
  2
*Paper_Space
340
1E
  0
BLOCK_RECORD
  5
23
330
1
100
AcDbSymbolTableRecord
100
AcDbBlockTableRecord
  2
*Paper_Space0
340
26
  0
BLOCK_RECORD
  5
78
330
1
100
AcDbSymbolTableRecord
100
AcDbBlockTableRecord
  2
_D
340
0
  0
BLOCK_RECORD
  5
83
330
1
100
AcDbSymbolTableRecord
100
AcDbBlockTableRecord
  2
_D_1
340
0
  0
ENDTAB
  0
ENDSEC
  0
SECTION
  2
BLOCKS
  0
BLOCK
  5
20
330
1F
100
AcDbEntity
  8
0
100
AcDbBlockBegin
  2
*Model_Space
 70
     0
 10
0.0
 20
0.0
 30
0.0
  3
*Model_Space
  1

  0
ENDBLK
  5
21
330
1F
100
AcDbEntity
  8
0
100
AcDbBlockEnd
  0
BLOCK
  5
1C
330
1B
100
AcDbEntity
 67
     1
  8
0
100
AcDbBlockBegin
  2
*Paper_Space
 70
     0
 10
0.0
 20
0.0
 30
0.0
  3
*Paper_Space
  1

  0
ENDBLK
  5
1D
330
1B
100
AcDbEntity
 67
     1
  8
0
100
AcDbBlockEnd
  0
BLOCK
  5
24
330
23
100
AcDbEntity
  8
0
100
AcDbBlockBegin
  2
*Paper_Space0
 70
     0
 10
0.0
 20
0.0
 30
0.0
  3
*Paper_Space0
  1

  0
ENDBLK
  5
25
330
23
100
AcDbEntity
  8
0
100
AcDbBlockEnd
  0
BLOCK
  5
79
330
78
100
AcDbEntity
  8
0
100
AcDbBlockBegin
  2
_D
 70
     0
 10
0.0
 20
0.0
 30
0.0
  3
_D
  1

  0
SOLID
  5
7B
330
78
100
AcDbEntity
  8
0
  6
Continuous
 62
     7
370
    18
100
AcDbTrace
 10
42.7614395004
 20
152.0299240879
 30
0.0
 11
42.4614395004
 21
149.5299240879
 31
0.0
 12
43.0614395004
 22
149.5299240879
 32
0.0
 13
43.0614395004
 23
149.5299240879
 33
0.0
  0
SOLID
  5
7C
330
78
100
AcDbEntity
  8
0
  6
Continuous
 62
     7
370
    18
100
AcDbTrace
 10
42.7614395004
 20
52.0299240879
 30
0.0
 11
43.0614395004
 21
54.5299240879
 31
0.0
 12
42.4614395004
 22
54.5299240879
 32
0.0
 13
42.4614395004
 23
54.5299240879
 33
0.0
  0
LINE
  5
7D
330
78
100
AcDbEntity
  8
0
  6
Continuous
 62
     7
370
    18
100
AcDbLine
 10
56.6850079902
 20
152.0299240879
 30
0.0
 11
41.7614395004
 21
152.0299240879
 31
0.0
  0
LINE
  5
7E
330
78
100
AcDbEntity
  8
0
  6
Continuous
 62
     7
370
    18
100
AcDbLine
 10
56.6850079902
 20
52.0299240879
 30
0.0
 11
41.7614395004
 21
52.0299240879
 31
0.0
  0
LINE
  5
7F
330
78
100
AcDbEntity
  8
0
  6
Continuous
 62
     7
370
    18
100
AcDbLine
 10
42.7614395004
 20
152.0299240879
 30
0.0
 11
42.7614395004
 21
52.0299240879
 31
0.0
  0
MTEXT
  5
80
330
78
100
AcDbEntity
  8
0
  6
Continuous
 62
     7
370
    18
100
AcDbMText
 10
35.0270332946
 20
94.3680541463
 30
0.0
 40
6.0
 41
0.0
 71
     1
 72
     1
  1
100
  7
SLDTEXTSTYLE0
 11
-7.044195017643634E-15
 21
1.0
 31
0.0
 73
     1
 44
1.0
  0
MTEXT
  5
81
330
78
100
AcDbEntity
  8
0
  6
Continuous
 62
     7
370
    18
100
AcDbMText
 10
35.0270332946
 20
105.7430548466
 30
0.0
 40
6.0
 41
0.0
 71
     1
 72
     1
  1
mm
  7
SLDTEXTSTYLE0
 11
-7.044195017643634E-15
 21
1.0
 31
0.0
 73
     1
 44
1.0
  0
ENDBLK
  5
7A
330
78
100
AcDbEntity
  8
0
100
AcDbBlockEnd
  0
BLOCK
  5
84
330
83
100
AcDbEntity
  8
0
100
AcDbBlockBegin
  2
_D_1
 70
     0
 10
0.0
 20
0.0
 30
0.0
  3
_D_1
  1

  0
SOLID
  5
86
330
83
100
AcDbEntity
  8
0
  6
Continuous
 62
     7
370
    18
100
AcDbTrace
 10
56.6850079902
 20
38.4602342313
 30
0.0
 11
59.1850079902
 21
38.1602342313
 31
0.0
 12
59.1850079902
 22
38.7602342313
 32
0.0
 13
59.1850079902
 23
38.7602342313
 33
0.0
  0
SOLID
  5
87
330
83
100
AcDbEntity
  8
0
  6
Continuous
 62
     7
370
    18
100
AcDbTrace
 10
156.6850079902
 20
38.4602342313
 30
0.0
 11
154.1850079902
 21
38.7602342313
 31
0.0
 12
154.1850079902
 22
38.1602342313
 32
0.0
 13
154.1850079902
 23
38.1602342313
 33
0.0
  0
LINE
  5
88
330
83
100
AcDbEntity
  8
0
  6
Continuous
 62
     7
370
    18
100
AcDbLine
 10
56.6850079902
 20
52.0299240879
 30
0.0
 11
56.6850079902
 21
37.4602342313
 31
0.0
  0
LINE
  5
89
330
83
100
AcDbEntity
  8
0
  6
Continuous
 62
     7
370
    18
100
AcDbLine
 10
156.6850079902
 20
52.0299240879
 30
0.0
 11
156.6850079902
 21
37.4602342313
 31
0.0
  0
LINE
  5
8A
330
83
100
AcDbEntity
  8
0
  6
Continuous
 62
     7
370
    18
100
AcDbLine
 10
56.6850079902
 20
38.4602342313
 30
0.0
 11
156.6850079902
 21
38.4602342313
 31
0.0
  0
MTEXT
  5
8B
330
83
100
AcDbEntity
  8
0
  6
Continuous
 62
     7
370
    18
100
AcDbMText
 10
93.9626484861
 20
46.1946404371
 30
0.0
 40
6.0
 41
0.0
 71
     1
 72
     1
  1
100
  7
SLDTEXTSTYLE0
 73
     1
 44
1.0
  0
MTEXT
  5
8C
330
83
100
AcDbEntity
  8
0
  6
Continuous
 62
     7
370
    18
100
AcDbMText
 10
105.3376491864
 20
46.1946404371
 30
0.0
 40
6.0
 41
0.0
 71
     1
 72
     1
  1
mm
  7
SLDTEXTSTYLE0
 73
     1
 44
1.0
  0
ENDBLK
  5
85
330
83
100
AcDbEntity
  8
0
100
AcDbBlockEnd
  0
ENDSEC
  0
SECTION
  2
ENTITIES
  0
LINE
  5
73
330
1F
100
AcDbEntity
  8
0
  6
Continuous
 62
     7
370
    18
100
AcDbLine
 10
56.6850079902
 20
152.0299240879
 30
0.0
 11
56.6850079902
 21
52.0299240879
 31
0.0
  0
LINE
  5
74
330
1F
100
AcDbEntity
  8
0
  6
Continuous
 62
     7
370
    18
100
AcDbLine
 10
56.6850079902
 20
52.0299240879
 30
0.0
 11
156.6850079902
 21
52.0299240879
 31
0.0
  0
DIMENSION
  5
75
330
1F
100
AcDbEntity
  8
0
  6
Continuous
 62
     7
370
    18
100
AcDbDimension
  2
_D
 10
42.7614395004
 20
52.0299240879
 30
0.0
 11
42.7614395004
 21
105.4472211621
 31
0.0
 70
   160
  1
<>mm
 71
     2
 42
-1.0
  3
SLDDIMSTYLE0
100
AcDbAlignedDimension
 13
56.6850079902
 23
152.0299240879
 33
0.0
 14
56.6850079902
 24
52.0299240879
 34
0.0
 50
90.0
100
AcDbRotatedDimension
  0
DIMENSION
  5
82
330
1F
100
AcDbEntity
  8
0
  6
Continuous
 62
     7
370
    18
100
AcDbDimension
  2
_D_1
 10
156.6850079902
 20
38.4602342313
 30
0.0
 11
105.0418155019
 21
38.4602342313
 31
0.0
 70
   160
  1
<>mm
 71
     2
 42
-1.0
  3
SLDDIMSTYLE0
100
AcDbAlignedDimension
 13
56.6850079902
 23
52.0299240879
 33
0.0
 14
156.6850079902
 24
52.0299240879
 34
0.0
100
AcDbRotatedDimension
  0
MTEXT
  5
8E
330
1F
100
AcDbEntity
  8
0
  6
Continuous
 62
     7
370
     0
100
AcDbMText
 10
412.8252631579
 20
48.4342449499
 30
0.0
 40
10.0
 41
0.0
 71
     1
 72
     1
  1
KLUDI GmbH & Co KG
  7
SLDTEXTSTYLE1
 73
     1
 44
1.0
  0
MTEXT
  5
8F
330
1F
100
AcDbEntity
  8
0
  6
Continuous
 62
     7
370
     0
100
AcDbMText
 10
210.0873490389
 20
48.4342449499
 30
0.0
 40
10.0
 41
0.0
 71
     1
 72
     1
  1
38 264 05 75
  7
SLDTEXTSTYLE1
 73
     1
 44
1.0
  0
LINE
  5
90
330
1F
100
AcDbEntity
  8
0
  6
Continuous
 62
     7
370
    25
100
AcDbLine
 10
255.9533513301
 20
526.4658555133
 30
0.0
 11
255.9533513301
 21
497.0213760696
 31
0.0
  0
LINE
  5
91
330
1F
100
AcDbEntity
  8
0
  6
Continuous
 62
     7
370
    25
100
AcDbLine
 10
301.9533513301
 20
524.9658555133
 30
0.0
 11
301.9533513301
 21
526.4658555133
 31
0.0
  0
LINE
  5
92
330
1F
100
AcDbEntity
  8
0
  6
Continuous
 62
     7
370
    25
100
AcDbLine
 10
301.9533513301
 20
508.4575004936
 30
0.0
 11
301.9533513301
 21
514.9658555133
 31
0.0
  0
LINE
  5
93
330
1F
100
AcDbEntity
  8
0
  6
Continuous
 62
     7
370
    25
100
AcDbLine
 10
301.9533513301
 20
492.9658555133
 30
0.0
 11
301.9533513301
 21
500.5153020431
 31
0.0
  0
ARC
  5
94
330
1F
100
AcDbEntity
  8
0
  6
Continuous
 62
     7
370
    25
100
AcDbCircle
 10
257.4533513301
 20
526.4658555133
 30
0.0
 40
1.5
100
AcDbArc
 50
90.0
 51
180.0
  0
ARC
  5
95
330
1F
100
AcDbEntity
  8
0
  6
Continuous
 62
     7
370
    25
100
AcDbCircle
 10
300.4533513301
 20
526.4658555133
 30
0.0
 40
1.5
100
AcDbArc
 50
0.0
 51
90.0
  0
LINE
  5
96
330
1F
100
AcDbEntity
  8
0
  6
Continuous
 62
     7
370
    25
100
AcDbLine
 10
256.4011752439
 20
362.225358891
 30
0.0
 11
256.4011752439
 21
335.8658555133
 31
0.0
  0
LINE
  5
97
330
1F
100
AcDbEntity
  8
0
  6
Continuous
 62
     7
370
    25
100
AcDbLine
 10
256.4011752439
 20
485.3758555133
 30
0.0
 11
256.4011752439
 21
372.3360091489
 31
0.0
  0
LINE
  5
98
330
1F
100
AcDbEntity
  8
0
  6
Continuous
 62
     7
370
    25
100
AcDbLine
 10
301.5055274163
 20
483.8839781723
 30
0.0
 11
301.5055274163
 21
485.3758555133
 31
0.0
  0
LINE
  5
99
330
1F
100
AcDbEntity
  8
0
  6
Continuous
 62
     7
370
    25
100
AcDbLine
 10
301.5055274163
 20
335.8658555133
 30
0.0
 11
301.5055274163
 21
452.5433896679
 31
0.0
  0
LINE
  5
9A
330
1F
100
AcDbEntity
  8
0
  6
Continuous
 62
     7
370
    25
100
AcDbLine
 10
256.9533513301
 20
487.3658555133
 30
0.0
 11
256.9533513301
 21
485.3758555133
 31
0.0
  0
LINE
  5
9B
330
1F
100
AcDbEntity
  8
0
  6
Continuous
 62
     7
370
    25
100
AcDbLine
 10
300.9533513301
 20
485.3758555133
 30
0.0
 11
300.9533513301
 21
487.3658555133
 31
0.0
  0
ARC
  5
9C
330
1F
100
AcDbEntity
  8
0
  6
Continuous
 62
     7
370
    25
100
AcDbCircle
 10
278.9533513301
 20
487.4393214184
 30
0.0
 40
22.0
100
AcDbArc
 50
155.6768977265
 51
180.1889253854
  0
ARC
  5
9D
330
1F
100
AcDbEntity
  8
0
  6
Continuous
 62
     7
370
    25
100
AcDbCircle
 10
278.9533513301
 20
487.4393214184
 30
0.0
 40
22.0
100
AcDbArc
 50
0.0
 51
14.5488941612
  0
SPLINE
  5
9E
330
1F
100
AcDbEntity
  8
0
  6
Continuous
 62
     7
370
    25
100
AcDbSpline
210
0.0
220
0.0
230
1.0
 70
     8
 71
     3
 72
    14
 73
    10
 74
     0
 42
0.000000001
 43
0.00000001
 40
0.0
 40
0.0
 40
0.0
 40
0.0
 40
0.2188501982530034
 40
0.3888866368228634
 40
0.500735889541346
 40
0.6411595712756999
 40
0.8012174653762906
 40
0.8933093183562238
 40
1.0
 40
1.0
 40
1.0
 40
1.0
 10
301.5075506165878
 20
452.5385126523115
 30
0.0
 10
301.5910974485797
 20
453.2505856444758
 30
0.0
 10
301.7395562883243
 20
454.5159062761484
 30
0.0
 10
302.129614864454
 20
456.1124831544076
 30
0.0
 10
302.5844892440191
 20
457.4189016163305
 30
0.0
 10
303.200351553796
 20
458.6310287721528
 30
0.0
 10
304.1149634306917
 20
459.5753558875882
 30
0.0
 10
305.1545689314341
 20
460.1460321969901
 30
0.0
 10
305.7867023036073
 20
460.3095959609989
 30
0.0
 10
306.1259813076435
 20
460.3973840028778
 30
0.0
  0
SPLINE
  5
9F
330
1F
100
AcDbEntity
  8
0
  6
Continuous
 62
     7
370
    25
100
AcDbSpline
210
0.0
220
0.0
230
1.0
 70
     8
 71
     3
 72
     9
 73
     5
 74
     0
 42
0.000000001
 43
0.00000001
 40
0.0
 40
0.0
 40
0.0
 40
0.0
 40
0.3706373116656441
 40
0.9999999999999999
 40
0.9999999999999999
 40
0.9999999999999999
 40
0.9999999999999999
 10
304.1982931338585
 20
479.6914815455204
 30
0.0
 10
304.1881483564903
 20
479.7288636858556
 30
0.0
 10
304.160777185135
 20
479.829722771432
 30
0.0
 10
304.1490007900733
 20
479.9048049683621
 30
0.0
 10
304.1415891664184
 20
479.952058901668
 30
0.0
  0
SPLINE
  5
A0
330
1F
100
AcDbEntity
  8
0
  6
Continuous
 62
     7
370
    25
100
AcDbSpline
210
0.0
220
0.0
230
1.0
 70
     8
 71
     3
 72
     9
 73
     5
 74
     0
 42
0.000000001
 43
0.00000001
 40
0.0
 40
0.0
 40
0.0
 40
0.0
 40
0.3845728834651727
 40
1.0
 40
1.0
 40
1.0
 40
1.0
 10
304.136275851311
 20
479.685183873354
 30
0.0
 10
304.1231068835773
 20
479.7297033547935
 30
0.0
 10
304.088863783505
 20
479.8454667987428
 30
0.0
 10
304.066311058741
 20
479.9286470515524
 30
0.0
 10
304.0524315003695
 20
479.9798384346918
 30
0.0
  0
SPLINE
  5
A1
330
1F
100
AcDbEntity
  8
0
  6
Continuous
 62
     7
370
    25
100
AcDbSpline
210
0.0
220
0.0
230
1.0
 70
     8
 71
     3
 72
    12
 73
     8
 74
     0
 42
0.000000001
 43
0.00000001
 40
0.0
 40
0.0
 40
0.0
 40
0.0
 40
0.168132477105663
 40
0.3487291079377818
 40
0.5577254296982287
 40
0.7966746620148498
 40
1.0
 40
1.0
 40
1.0
 40
1.0
 10
304.0972792449114
 20
479.9658588095814
 30
0.0
 10
303.8361096561799
 20
480.0672860617428
 30
0.0
 10
303.2944092109912
 20
480.2776596657941
 30
0.0
 10
302.5937312894396
 20
480.9135679660251
 30
0.0
 10
302.0518377813258
 20
481.8127686526735
 30
0.0
 10
301.6701259882686
 20
482.8346765507683
 30
0.0
 10
301.5712550003767
 20
483.5638436506772
 30
0.0
 10
301.5258013876665
 20
483.8990610857096
 30
0.0
  0
LWPOLYLINE
  5
A2
330
1F
100
AcDbEntity
  8
0
  6
Continuous
 62
     7
370
    25
100
AcDbPolyline
 90
        7
 70
   128
 43
0.0
 10
409.4694622026
 20
478.9894853717
 10
408.576148593
 20
478.9962991531
 10
405.3797526737
 20
479.0202933763
 10
402.1833614969
 20
479.0443593613
 10
387.1146729475
 20
479.1580320501
 10
360.2063026963
 20
479.3612060598
 10
305.453100278
 20
479.7753953134
  0
SPLINE
  5
A3
330
1F
100
AcDbEntity
  8
0
  6
Continuous
 62
     7
370
    25
100
AcDbSpline
210
0.0
220
0.0
230
1.0
 70
     8
 71
     3
 72
     9
 73
     5
 74
     0
 42
0.000000001
 43
0.00000001
 40
0.0
 40
0.0
 40
0.0
 40
0.0
 40
0.5037382422747892
 40
1.0
 40
1.0
 40
1.0
 40
1.0
 10
421.5521181831358
 20
478.1389201700692
 30
0.0
 10
421.4279558979428
 20
478.2454828395238
 30
0.0
 10
421.1814741445774
 20
478.4570265749636
 30
0.0
 10
420.8858343600037
 20
478.5217831759721
 30
0.0
 10
420.7391196408577
 20
478.5539194006129
 30
0.0
  0
LINE
  5
A4
330
1F
100
AcDbEntity
  8
0
  6
Continuous
 62
     7
370
    25
100
AcDbLine
 10
420.1583609868
 20
458.3601176078
 30
0.0
 11
419.7383380488
 21
461.3487361037
 31
0.0
  0
LINE
  5
A5
330
1F
100
AcDbEntity
  8
0
  6
Continuous
 62
     7
370
    25
100
AcDbLine
 10
395.5262326466
 20
461.1797009743
 30
0.0
 11
396.391927337
 21
455.0199631848
 31
0.0
  0
SPLINE
  5
A6
330
1F
100
AcDbEntity
  8
0
  6
Continuous
 62
     7
370
    25
100
AcDbSpline
210
0.0
220
0.0
230
1.0
 70
     8
 71
     3
 72
     9
 73
     5
 74
     0
 42
0.000000001
 43
0.00000001
 40
0.0
 40
0.0
 40
0.0
 40
0.0
 40
0.4997502397814562
 40
1.0
 40
1.0
 40
1.0
 40
1.0
 10
420.8118632597778
 20
478.5436014306165
 30
0.0
 10
418.9118807214052
 20
478.7043300608321
 30
0.0
 10
415.1100165358004
 20
479.0259479759848
 30
0.0
 10
411.2946447893929
 20
479.0021124834989
 30
0.0
 10
409.3860059881079
 20
478.9901887840982
 30
0.0
  0
LINE
  5
A7
330
1F
100
AcDbEntity
  8
0
  6
Continuous
 62
     7
370
    25
100
AcDbLine
 10
396.391927337
 20
455.0199631848
 30
0.0
 11
397.4625470331
 21
454.5874047497
 31
0.0
  0
LINE
  5
A8
330
1F
100
AcDbEntity
  8
0
  6
Continuous
 62
     7
370
    25
100
AcDbLine
 10
419.2484445454
 20
457.6492129708
 30
0.0
 11
420.1583609868
 21
458.3601176078
 31
0.0
  0
ARC
  5
A9
330
1F
100
AcDbEntity
  8
0
  6
Continuous
 62
     7
370
    25
100
AcDbCircle
 10
303.9533513301
 20
524.9658555133
 30
0.0
 40
2.0
100
AcDbArc
 50
180.0
 51
270.0
  0
ARC
  5
AA
330
1F
100
AcDbEntity
  8
0
  6
Continuous
 62
     7
370
    25
100
AcDbCircle
 10
303.9533513301
 20
514.9658555133
 30
0.0
 40
2.000000000000114
100
AcDbArc
 50
90.0
 51
180.0
  0
LINE
  5
AB
330
1F
100
AcDbEntity
  8
0
  6
Continuous
 62
     7
370
    25
100
AcDbLine
 10
250.1017150943
 20
378.0976135756
 30
0.0
 11
231.6017150943
 21
378.0976135756
 31
0.0
  0
LINE
  5
AC
330
1F
100
AcDbEntity
  8
0
  6
Continuous
 62
     7
370
    25
100
AcDbLine
 10
231.6017150943
 20
370.0976135756
 30
0.0
 11
250.1017150943
 21
370.0976135756
 31
0.0
  0
ARC
  5
AD
330
1F
100
AcDbEntity
  8
0
  6
Continuous
 62
     7
370
    25
100
AcDbCircle
 10
231.6017150943
 20
377.0976135756
 30
0.0
 40
0.9999999999999716
100
AcDbArc
 50
90.0
 51
180.0
  0
ARC
  5
AE
330
1F
100
AcDbEntity
  8
0
  6
Continuous
 62
     7
370
    25
100
AcDbCircle
 10
231.6017150943
 20
371.0976135756
 30
0.0
 40
0.9999999999999716
100
AcDbArc
 50
180.0
 51
270.0
  0
ARC
  5
AF
330
1F
100
AcDbEntity
  8
0
  6
Continuous
 62
     7
370
    25
100
AcDbCircle
 10
250.1017150943
 20
370.5976135756
 30
0.0
 40
0.5000000000000568
100
AcDbArc
 50
270.0
 51
0.0
  0
ARC
  5
B0
330
1F
100
AcDbEntity
  8
0
  6
Continuous
 62
     7
370
    25
100
AcDbCircle
 10
250.1017150943
 20
377.5976135756
 30
0.0
 40
0.5
100
AcDbArc
 50
360.0
 51
90.0
  0
LINE
  5
B1
330
1F
100
AcDbEntity
  8
0
  6
Continuous
 62
     7
370
    25
100
AcDbLine
 10
302.3033513301
 20
500.4658555133
 30
0.0
 11
302.9038987
 21
500.6844368802
 31
0.0
  0
LINE
  5
B2
330
1F
100
AcDbEntity
  8
0
  6
Continuous
 62
     7
370
    25
100
AcDbLine
 10
302.9038987
 20
508.2472741464
 30
0.0
 11
302.3033513301
 21
508.4658555133
 31
0.0
  0
LINE
  5
B3
330
1F
100
AcDbEntity
  8
0
  6
Continuous
 62
     7
370
    25
100
AcDbLine
 10
301.944861633
 20
500.4658555133
 30
0.0
 11
302.3033513301
 21
500.4658555133
 31
0.0
  0
LINE
  5
B4
330
1F
100
AcDbEntity
  8
0
  6
Continuous
 62
     7
370
    25
100
AcDbLine
 10
302.3033513301
 20
508.4658555133
 30
0.0
 11
301.9519651064
 21
508.4658555133
 31
0.0
  0
ARC
  5
B5
330
1F
100
AcDbEntity
  8
0
  6
Continuous
 62
     7
370
    25
100
AcDbCircle
 10
302.8354946714
 20
508.0593356222
 30
0.0
 40
0.1999999999999886
100
AcDbArc
 50
0.0
 51
70.0
  0
ARC
  5
B6
330
1F
100
AcDbEntity
  8
0
  6
Continuous
 62
     7
370
    25
100
AcDbCircle
 10
302.8354946714
 20
500.8723754044
 30
0.0
 40
0.1999999999999886
100
AcDbArc
 50
290.0
 51
0.0
  0
LINE
  5
B7
330
1F
100
AcDbEntity
  8
0
  6
Continuous
 62
     7
370
    25
100
AcDbLine
 10
303.0354946714
 20
500.8723754044
 30
0.0
 11
303.0354946714
 21
508.0593356222
 31
0.0
  0
LINE
  5
B8
330
1F
100
AcDbEntity
  8
0
  6
Continuous
 62
     7
370
    25
100
AcDbLine
 10
254.2398708191
 20
368.1497344355
 30
0.0
 11
256.3968062029
 21
362.2236031732
 31
0.0
  0
ARC
  5
B9
330
1F
100
AcDbEntity
  8
0
  6
Continuous
 62
     7
370
    25
100
AcDbCircle
 10
248.6017150943
 20
366.0976135756
 30
0.0
 40
6.000000000000025
100
AcDbArc
 50
20.0
 51
70.5058365282
  0
ARC
  5
BA
330
1F
100
AcDbEntity
  8
0
  6
Continuous
 62
     7
370
    25
100
AcDbCircle
 10
248.6017150943
 20
366.0976135756
 30
0.0
 40
10.00000000000004
100
AcDbArc
 50
38.6563549128
 51
78.4378780914
  0
LINE
  5
BB
330
1F
100
AcDbEntity
  8
0
  6
Continuous
 62
     7
370
    25
100
AcDbLine
 10
255.9533513301
 20
497.0213760696
 30
0.0
 11
274.6453756231
 21
493.7254678627
 31
0.0
  0
LINE
  5
BC
330
1F
100
AcDbEntity
  8
0
  6
Continuous
 62
     7
370
    25
100
AcDbLine
 10
283.3277845064
 20
492.9658555133
 30
0.0
 11
301.9533513301
 21
492.9658555133
 31
0.0
  0
SPLINE
  5
BD
330
1F
100
AcDbEntity
  8
0
  6
Continuous
 62
     7
370
    25
100
AcDbSpline
210
0.0
220
0.0
230
1.0
 70
     8
 71
     3
 72
    18
 73
    14
 74
     0
 42
0.000000001
 43
0.00000001
 40
0.0
 40
0.0
 40
0.0
 40
0.0
 40
0.03470340671327
 40
0.1403855837983287
 40
0.2466024188200922
 40
0.3542176865818111
 40
0.4619567690655239
 40
0.5682938221848922
 40
0.6739050264949364
 40
0.7805813385888832
 40
0.8884613008602886
 40
0.9958206564261283
 40
0.9999999999999999
 40
0.9999999999999999
 40
0.9999999999999999
 40
0.9999999999999999
 10
301.9448327078735
 20
500.515302043136
 30
0.0
 10
301.9472220161149
 20
500.5014158810186
 30
0.0
 10
301.956887477351
 20
500.4452422323716
 30
0.0
 10
301.8948381421564
 20
500.8023058401141
 30
0.0
 10
301.7834503112674
 20
501.5511945728147
 30
0.0
 10
301.6633862243429
 20
502.6618115093746
 30
0.0
 10
301.5945761334605
 20
503.9715158569196
 30
0.0
 10
301.6065673958084
 20
505.3328636347225
 30
0.0
 10
301.6920207130193
 20
506.586058214175
 30
0.0
 10
301.8167331707135
 20
507.6223996637457
 30
0.0
 10
301.9171689198547
 20
508.2612465811741
 30
0.0
 10
301.9649642902636
 20
508.5342755900248
 30
0.0
 10
301.9524034771666
 20
508.4602733498941
 30
0.0
 10
301.9519328247929
 20
508.4575004935749
 30
0.0
  0
SPLINE
  5
BE
330
1F
100
AcDbEntity
  8
0
  6
Continuous
 62
     7
370
    25
100
AcDbSpline
210
0.0
220
0.0
230
1.0
 70
     8
 71
     3
 72
    12
 73
     8
 74
     0
 42
0.000000001
 43
0.00000001
 40
0.0
 40
0.0
 40
0.0
 40
0.0
 40
0.5
 40
0.5
 40
0.75
 40
0.75
 40
1.0
 40
1.0
 40
1.0
 40
1.0
 10
274.6453756230719
 20
493.7254678626974
 30
0.0
 10
276.0723087231125
 20
493.4738610574942
 30
0.0
 10
277.5103489732382
 20
493.2841309469184
 30
0.0
 10
279.6841378102716
 20
493.0934892492936
 30
0.0
 10
280.4115319435902
 20
493.0456214199307
 30
0.0
 10
281.8720519487472
 20
492.9817065891909
 30
0.0
 10
282.603822775059
 20
492.9658555133078
 30
0.0
 10
283.3277845064183
 20
492.9658555133078
 30
0.0
  0
LINE
  5
BF
330
1F
100
AcDbEntity
  8
0
  6
Continuous
 62
     7
370
    25
100
AcDbLine
 10
278.9533513301
 20
527.9658555133
 30
0.0
 11
300.4533513301
 21
527.9658555133
 31
0.0
  0
LINE
  5
C0
330
1F
100
AcDbEntity
  8
0
  6
Continuous
 62
     7
370
    25
100
AcDbLine
 10
257.4533513301
 20
527.9658555133
 30
0.0
 11
278.9533513301
 21
527.9658555133
 31
0.0
  0
SPLINE
  5
C1
330
1F
100
AcDbEntity
  8
0
  6
Continuous
 62
     7
370
    25
100
AcDbSpline
210
0.0
220
0.0
230
1.0
 70
     8
 71
     3
 72
    19
 73
    15
 74
     0
 42
0.000000001
 43
0.00000001
 40
0.0
 40
0.0
 40
0.0
 40
0.0
 40
0.045618271353484
 40
0.1473579400834324
 40
0.2505178884044174
 40
0.3956255999602616
 40
0.5449404223115789
 40
0.6673243842220098
 40
0.7170572780865742
 40
0.8173740463877186
 40
0.8899383942550619
 40
0.9629135848805025
 40
0.995514328792853
 40
1.0
 40
1.0
 40
1.0
 40
1.0
 10
301.4360562503939
 20
483.8839781723203
 30
0.0
 10
301.4568853079776
 20
483.8845224402079
 30
0.0
 10
301.5241681516356
 20
483.8862805558139
 30
0.0
 10
301.2161821158994
 20
483.8665942040225
 30
0.0
 10
300.5611157612765
 20
483.7937070762073
 30
0.0
 10
299.3114061608172
 20
483.7293774805083
 30
0.0
 10
297.4675859546304
 20
483.6562953956485
 30
0.0
 10
295.7023100542225
 20
483.2998070920127
 30
0.0
 10
294.0783635413733
 20
482.7908872106369
 30
0.0
 10
292.6794486917076
 20
482.1026403973848
 30
0.0
 10
291.3130693423337
 20
480.7314421268757
 30
0.0
 10
290.665597267417
 20
479.3621242969901
 30
0.0
 10
290.4502016716858
 20
478.4424188580455
 30
0.0
 10
290.4234999251892
 20
478.1250303304751
 30
0.0
 10
290.4202702990564
 20
478.0866415950038
 30
0.0
  0
SPLINE
  5
C2
330
1F
100
AcDbEntity
  8
0
  6
Continuous
 62
     7
370
    25
100
AcDbSpline
210
0.0
220
0.0
230
1.0
 70
     8
 71
     3
 72
    10
 73
     6
 74
     0
 42
0.000000001
 43
0.00000001
 40
0.0
 40
0.0
 40
0.0
 40
0.0
 40
0.5
 40
0.5
 40
1.0
 40
1.0
 40
1.0
 40
1.0
 10
290.41975449578
 20
478.0867120087957
 30
0.0
 10
290.2298808150871
 20
475.3727000602605
 30
0.0
 10
290.1333432480978
 20
472.6507648758536
 30
0.0
 10
290.1309927666519
 20
467.2060298240207
 30
0.0
 10
290.225130034858
 20
464.4852641191357
 30
0.0
 10
290.4126723766387
 20
461.7710410680743
 30
0.0
  0
SPLINE
  5
C3
330
1F
100
AcDbEntity
  8
0
  6
Continuous
 62
     7
370
    25
100
AcDbSpline
210
0.0
220
0.0
230
1.0
 70
     8
 71
     3
 72
    20
 73
    16
 74
     0
 42
0.000000001
 43
0.00000001
 40
0.0
 40
0.0
 40
0.0
 40
0.0
 40
0.0258248659203288
 40
0.0905861423261935
 40
0.1570412928158704
 40
0.2217269850997185
 40
0.2879777628162569
 40
0.3589863949818163
 40
0.4316021173101997
 40
0.5108908616987096
 40
0.5928695737499802
 40
0.720374848443641
 40
0.8512740800908937
 40
0.9836096065839902
 40
0.9999999999999999
 40
0.9999999999999999
 40
0.9999999999999999
 40
0.9999999999999999
 10
290.4135335121798
 20
461.7711177847705
 30
0.0
 10
290.4552231227892
 20
461.5395010208053
 30
0.0
 10
290.6014581898693
 20
460.7270565647368
 30
0.0
 10
291.1565118946249
 20
459.4275208490793
 30
0.0
 10
291.9470925503815
 20
457.9091450079777
 30
0.0
 10
292.9111481025313
 20
456.5473759394569
 30
0.0
 10
293.9995690480297
 20
455.3520211306731
 30
0.0
 10
295.1832268523764
 20
454.3386231974183
 30
0.0
 10
296.4207696503411
 20
453.4708314157876
 30
0.0
 10
297.6710184645036
 20
452.9207834323853
 30
0.0
 10
299.0370220765969
 20
452.6419104567607
 30
0.0
 10
300.3185545664988
 20
452.5826352640066
 30
0.0
 10
301.1969412125806
 20
452.5709956689701
 30
0.0
 10
301.5797877284041
 20
452.5332812280856
 30
0.0
 10
301.4834247052457
 20
452.5423862460773
 30
0.0
 10
301.4728049836714
 20
452.543389667855
 30
0.0
  0
LINE
  5
C4
330
1F
100
AcDbEntity
  8
0
  6
Continuous
 62
     7
370
    25
100
AcDbLine
 10
278.9533513301
 20
485.3758555133
 30
0.0
 11
301.5055274163
 21
485.3758555133
 31
0.0
  0
LINE
  5
C5
330
1F
100
AcDbEntity
  8
0
  6
Continuous
 62
     7
370
    25
100
AcDbLine
 10
256.4011752439
 20
485.3758555133
 30
0.0
 11
278.9533513301
 21
485.3758555133
 31
0.0
  0
LINE
  5
C6
330
1F
100
AcDbEntity
  8
0
  6
Continuous
 62
     7
370
    25
100
AcDbLine
 10
278.9533513301
 20
335.8658555133
 30
0.0
 11
301.5055274163
 21
335.8658555133
 31
0.0
  0
LINE
  5
C7
330
1F
100
AcDbEntity
  8
0
  6
Continuous
 62
     7
370
    25
100
AcDbLine
 10
256.4011752439
 20
335.8658555133
 30
0.0
 11
278.9533513301
 21
335.8658555133
 31
0.0
  0
SPLINE
  5
C8
330
1F
100
AcDbEntity
  8
0
  6
Continuous
 62
     7
370
    25
100
AcDbSpline
210
0.0
220
0.0
230
1.0
 70
     8
 71
     3
 72
    13
 73
     9
 74
     0
 42
0.000000001
 43
0.00000001
 40
0.0
 40
0.0
 40
0.0
 40
0.0
 40
0.019649284642025
 40
0.053666584386713
 40
0.1087538962001082
 40
0.2106023842559177
 40
0.5040429974159252
 40
1.0
 40
1.0
 40
1.0
 40
1.0
 10
256.4016298992286
 20
362.2253588909611
 30
0.0
 10
256.4015466095163
 20
362.2228304778374
 30
0.0
 10
256.4013191267121
 20
362.2159248169579
 30
0.0
 10
256.4049546317787
 20
362.326271009127
 30
0.0
 10
256.4144640532469
 20
362.6241287536708
 30
0.0
 10
256.4423911398748
 20
363.5858600916795
 30
0.0
 10
256.4891437038881
 20
365.7630734159221
 30
0.0
 10
256.4876009687974
 20
367.7310576668839
 30
0.0
 10
256.4866317103957
 20
368.9674885234932
 30
0.0
  0
SPLINE
  5
C9
330
1F
100
AcDbEntity
  8
0
  6
Continuous
 62
     7
370
    25
100
AcDbSpline
210
0.0
220
0.0
230
1.0
 70
     8
 71
     3
 72
    13
 73
     9
 74
     0
 42
0.000000001
 43
0.00000001
 40
0.0
 40
0.0
 40
0.0
 40
0.0
 40
0.2767294872666464
 40
0.5386804630472635
 40
0.7221610607434633
 40
0.8472318916193882
 40
0.9484191553579281
 40
1.0
 40
1.0
 40
1.0
 40
1.0
 10
256.4866317103957
 20
368.9674885234932
 30
0.0
 10
256.4834350821187
 20
369.3592729882382
 30
0.0
 10
256.4772125388784
 20
370.1219189894582
 30
0.0
 10
256.4536010805301
 20
371.1119249195415
 30
0.0
 10
256.4272978774792
 20
371.8126721696179
 30
0.0
 10
256.4100084068742
 20
372.1842405331778
 30
0.0
 10
256.4014639492436
 20
372.3506016993042
 30
0.0
 10
256.4020241443156
 20
372.3396925348834
 30
0.0
 10
256.4022132893884
 20
372.3360091488605
 30
0.0
  0
SPLINE
  5
CA
330
1F
100
AcDbEntity
  8
0
  6
Continuous
 62
     7
370
    25
100
AcDbSpline
210
0.0
220
0.0
230
1.0
 70
     8
 71
     3
 72
     9
 73
     5
 74
     0
 42
0.000000001
 43
0.00000001
 40
0.0
 40
0.0
 40
0.0
 40
0.0
 40
0.4632898949736499
 40
1.0
 40
1.0
 40
1.0
 40
1.0
 10
304.1346027460654
 20
479.6620414202847
 30
0.0
 10
304.4990743158119
 20
479.6929984496115
 30
0.0
 10
305.2857773579044
 20
479.7598184464702
 30
0.0
 10
305.3948244707841
 20
479.7699182348182
 30
0.0
 10
305.4533511581906
 20
479.7753388932833
 30
0.0
  0
LINE
  5
CB
330
1F
100
AcDbEntity
  8
0
  6
Continuous
 62
     7
370
    25
100
AcDbLine
 10
304.2904240239
 20
479.6753059269
 30
0.0
 11
304.1968851184
 21
479.6673420635
 31
0.0
  0
SPLINE
  5
CC
330
1F
100
AcDbEntity
  8
0
  6
Continuous
 62
     7
370
    25
100
AcDbSpline
210
0.0
220
0.0
230
1.0
 70
     8
 71
     3
 72
     9
 73
     5
 74
     0
 42
0.000000001
 43
0.00000001
 40
0.0
 40
0.0
 40
0.0
 40
0.0
 40
0.016212958807339
 40
1.0
 40
1.0
 40
1.0
 40
1.0
 10
421.9472909077868
 20
477.1807875896255
 30
0.0
 10
421.9478791570982
 20
477.1809115752915
 30
0.0
 10
421.9841618195245
 20
477.188558894168
 30
0.0
 10
421.9661865686721
 20
477.1911418807624
 30
0.0
 10
421.9485027498213
 20
477.1936829895016
 30
0.0
  0
SPLINE
  5
CD
330
1F
100
AcDbEntity
  8
0
  6
Continuous
 62
     7
370
    25
100
AcDbSpline
210
0.0
220
0.0
230
1.0
 70
     8
 71
     3
 72
     8
 73
     4
 74
     0
 42
0.000000001
 43
0.00000001
 40
0.0680684427671583
 40
0.0680684427671583
 40
0.0680684427671583
 40
0.0680684427671583
 40
0.9217772812587461
 40
0.9217772812587461
 40
0.9217772812587461
 40
0.9217772812587461
 10
421.848250016977
 20
462.6937314569973
 30
0.0
 10
422.0558896378876
 20
467.5339500369658
 30
0.0
 10
422.0875338857421
 20
472.366332263045
 30
0.0
 10
421.9433108533311
 20
477.2092257778937
 30
0.0
  0
SPLINE
  5
CE
330
1F
100
AcDbEntity
  8
0
  6
Continuous
 62
     7
370
    25
100
AcDbSpline
210
0.0
220
0.0
230
1.0
 70
     8
 71
     3
 72
    14
 73
    10
 74
     0
 42
0.000000001
 43
0.00000001
 40
0.0
 40
0.0
 40
0.0
 40
0.0
 40
0.5000000000000001
 40
0.5000000000000001
 40
0.7500000000000002
 40
0.7500000000000002
 40
0.8750000000000001
 40
0.8750000000000001
 40
1.0
 40
1.0
 40
1.0
 40
1.0
 10
421.8482500514169
 20
462.6937322598143
 30
0.0
 10
421.8482455751227
 20
462.6937367234933
 30
0.0
 10
421.8533314385076
 20
462.6937489150712
 30
0.0
 10
421.8536351764791
 20
462.6937976260963
 30
0.0
 10
421.8526048224017
 20
462.6937302936445
 30
0.0
 10
421.8474244500123
 20
462.6935596647673
 30
0.0
 10
421.8446841929371
 20
462.6935001451303
 30
0.0
 10
421.8491051987605
 20
462.6934840112777
 30
0.0
 10
421.8587022547337
 20
462.6935937836416
 30
0.0
 10
421.8482478333952
 20
462.693691950939
 30
0.0
  0
ARC
  5
CF
330
1F
100
AcDbEntity
  8
0
  6
Continuous
 62
     7
370
    25
100
AcDbCircle
 10
420.4497892968
 20
462.7534728467
 30
0.0
 40
1.399735701497472
100
AcDbArc
 50
270.409029452
 51
357.5522270743
  0
SPLINE
  5
D0
330
1F
100
AcDbEntity
  8
0
  6
Continuous
 62
     7
370
    25
100
AcDbSpline
210
0.0
220
0.0
230
1.0
 70
    24
 71
     3
 72
    42
 73
    38
 74
     0
 42
0.000000001
 43
0.00000001
 40
0.0
 40
0.0
 40
0.0
 40
0.0
 40
0.0078124999999988
 40
0.0078124999999988
 40
0.0156249999999977
 40
0.0156249999999977
 40
0.0312499999999953
 40
0.0312499999999953
 40
0.0468749999999931
 40
0.0468749999999931
 40
0.0624999999999908
 40
0.0624999999999908
 40
0.0781249999999885
 40
0.0781249999999885
 40
0.0820312499999879
 40
0.0820312499999879
 40
0.0859374999999872
 40
0.0859374999999872
 40
0.0937499999999868
 40
0.0937499999999868
 40
0.0976562499999867
 40
0.0976562499999867
 40
0.1015624999999865
 40
0.1015624999999865
 40
0.1093749999999868
 40
0.1093749999999868
 40
0.1249999999999867
 40
0.1249999999999867
 40
0.156249999999987
 40
0.156249999999987
 40
0.1874999999999875
 40
0.1874999999999875
 40
0.2499999999999882
 40
0.2499999999999882
 40
0.4999999999999921
 40
0.4999999999999921
 40
1.0
 40
1.0
 40
1.0
 40
1.0
 10
420.4597818000721
 20
461.3537728131017
 30
0.0
 10
420.4524178307214
 20
461.353721402062
 30
0.0
 10
420.4331052521447
 20
461.3535865726383
 30
0.0
 10
420.3634192353746
 20
461.3531000645602
 30
0.0
 10
420.3123546111864
 20
461.3527435604389
 30
0.0
 10
420.1034110365524
 20
461.3512848354087
 30
0.0
 10
419.8897437041093
 20
461.349793131792
 30
0.0
 10
419.3403805754003
 20
461.3459577913279
 30
0.0
 10
419.004410795543
 20
461.3436122416831
 30
0.0
 10
418.2334670389902
 20
461.3382299514809
 30
0.0
 10
417.796964284491
 20
461.3351825378676
 30
0.0
 10
416.8661074894902
 20
461.3286838259125
 30
0.0
 10
416.3717362318083
 20
461.3252324073702
 30
0.0
 10
415.7452224665334
 20
461.3208584451042
 30
0.0
 10
415.6197126454205
 20
461.3199822070197
 30
0.0
 10
415.3593435943242
 20
461.3181644586032
 30
0.0
 10
415.2254362808297
 20
461.31722959401
 30
0.0
 10
414.8108707065678
 20
461.3143353332944
 30
0.0
 10
414.5163815126881
 20
461.3122793774747
 30
0.0
 10
414.052966654352
 20
461.3090440788808
 30
0.0
 10
413.8950726401195
 20
461.307941752805
 30
0.0
 10
413.5717563268865
 20
461.3056845424572
 30
0.0
 10
413.406100707491
 20
461.304528029275
 30
0.0
 10
412.9118486375594
 20
461.3010774428336
 30
0.0
 10
412.5847307058349
 20
461.2987936917507
 30
0.0
 10
411.6113084782577
 20
461.2919978121894
 30
0.0
 10
410.9721837369122
 20
461.2875358072712
 30
0.0
 10
409.0525562321739
 20
461.2741340613944
 30
0.0
 10
407.7674500370661
 20
461.2651621818974
 30
0.0
 10
405.1920227400161
 20
461.2471820153943
 30
0.0
 10
403.9030562987134
 20
461.2381831858571
 30
0.0
 10
400.0402118968353
 20
461.2112150064016
 30
0.0
 10
397.4658975995031
 20
461.1932426102285
 30
0.0
 10
384.592548247154
 20
461.1033682173176
 30
0.0
 10
374.2937610083345
 20
461.0314679506913
 30
0.0
 10
343.3980491344296
 20
460.815771687643
 30
0.0
 10
322.8009156013691
 20
460.6719742328143
 30
0.0
 10
302.2037945945322
 20
460.5281768654365
 30
0.0
  0
LINE
  5
D1
330
1F
100
AcDbEntity
  8
0
  6
Continuous
 62
     7
370
    25
100
AcDbLine
 10
420.7381212139
 20
478.554017253
 30
0.0
 11
420.7364652387
 21
478.5527889677
 31
0.0
  0
SPLINE
  5
D2
330
1F
100
AcDbEntity
  8
0
  6
Continuous
 62
     7
370
    25
100
AcDbSpline
210
0.0
220
0.0
230
1.0
 70
     8
 71
     3
 72
    10
 73
     6
 74
     0
 42
0.000000001
 43
0.00000001
 40
0.0
 40
0.0
 40
0.0
 40
0.0
 40
0.4607585943996349
 40
0.9513383040768472
 40
1.0
 40
1.0
 40
1.0
 40
1.0
 10
421.9433108978535
 20
477.2092243705561
 30
0.0
 10
421.9208455930361
 20
477.3645096517334
 30
0.0
 10
421.8744609889389
 20
477.685130553522
 30
0.0
 10
421.7078944645763
 20
478.011432337565
 30
0.0
 10
421.5603584510247
 20
478.1224738521095
 30
0.0
 10
421.5470446502768
 20
478.1324943519441
 30
0.0
  0
LINE
  5
D3
330
1F
100
AcDbEntity
  8
0
  6
Continuous
 62
     7
370
    25
100
AcDbLine
 10
420.1583609868
 20
458.3601176078
 30
0.0
 11
413.0243029825
 21
457.3574911411
 31
0.0
  0
LINE
  5
D4
330
1F
100
AcDbEntity
  8
0
  6
Continuous
 62
     7
370
    25
100
AcDbLine
 10
413.0243029825
 20
457.3574911411
 30
0.0
 11
412.547962206
 21
460.74683188
 31
0.0
  0
LINE
  5
D5
330
1F
100
AcDbEntity
  8
0
  6
Continuous
 62
     7
370
    25
100
AcDbLine
 10
403.0496445648
 20
459.4119303904
 30
0.0
 11
403.5259853413
 21
456.0225896515
 31
0.0
  0
LINE
  5
D6
330
1F
100
AcDbEntity
  8
0
  6
Continuous
 62
     7
370
    25
100
AcDbLine
 10
403.5259853413
 20
456.0225896515
 30
0.0
 11
396.391927337
 21
455.0199631848
 31
0.0
  0
LINE
  5
D7
330
1F
100
AcDbEntity
  8
0
  6
Continuous
 62
     7
370
    25
100
AcDbLine
 10
403.0496445648
 20
459.4119303904
 30
0.0
 11
412.547962206
 21
460.74683188
 31
0.0
  0
SPLINE
  5
D8
330
1F
100
AcDbEntity
  8
0
  6
Continuous
 62
     7
370
    25
100
AcDbSpline
210
0.0
220
0.0
230
1.0
 70
     8
 71
     3
 72
    10
 73
     6
 74
     0
 42
0.000000001
 43
0.00000001
 40
0.0
 40
0.0
 40
0.0
 40
0.0
 40
0.5
 40
0.5
 40
1.0
 40
1.0
 40
1.0
 40
1.0
 10
408.3554957892426
 20
456.1183088602601
 30
0.0
 10
409.155013323966
 20
456.2306737219494
 30
0.0
 10
409.9565289546939
 20
456.3968035342292
 30
0.0
 10
411.5147107029356
 20
456.816798207508
 30
0.0
 10
412.2762322394422
 20
457.0704385092667
 30
0.0
 10
413.0243029825402
 20
457.3574911410993
 30
0.0
  0
SPLINE
  5
D9
330
1F
100
AcDbEntity
  8
0
  6
Continuous
 62
     7
370
    25
100
AcDbSpline
210
0.0
220
0.0
230
1.0
 70
     8
 71
     3
 72
     8
 73
     4
 74
     0
 42
0.000000001
 43
0.00000001
 40
0.0
 40
0.0
 40
0.0
 40
0.0
 40
1.0
 40
1.0
 40
1.0
 40
1.0
 10
403.5259853413385
 20
456.0225896515365
 30
0.0
 10
405.1421510529166
 20
455.8813923697554
 30
0.0
 10
406.7527280243051
 20
455.8930545407417
 30
0.0
 10
408.3554957892426
 20
456.1183088602601
 30
0.0
  0
LINE
  5
DA
330
1F
100
AcDbEntity
  8
0
  6
Continuous
 62
     7
370
    25
100
AcDbLine
 10
408.3554957892
 20
456.1183088603
 30
0.0
 11
397.4625470331
 21
454.5874047497
 31
0.0
  0
LINE
  5
DB
330
1F
100
AcDbEntity
  8
0
  6
Continuous
 62
     7
370
    25
100
AcDbLine
 10
419.2484445454
 20
457.6492129708
 30
0.0
 11
408.3554957892
 21
456.1183088603
 31
0.0
  0
LINE
  5
DC
330
1F
100
AcDbEntity
  8
0
  6
Continuous
 62
     7
370
    25
100
AcDbLine
 10
350.9533513301
 20
516.9658555133
 30
0.0
 11
302.2771589095
 21
516.9658555133
 31
0.0
  0
LINE
  5
DD
330
1F
100
AcDbEntity
  8
0
  6
Continuous
 62
     7
370
    25
100
AcDbLine
 10
302.2771589095
 20
522.9658555133
 30
0.0
 11
350.9533513301
 21
522.9658555133
 31
0.0
  0
LINE
  5
DE
330
1F
100
AcDbEntity
  8
0
  6
Continuous
 62
     7
370
    25
100
AcDbLine
 10
350.9533513301
 20
522.9658555133
 30
0.0
 11
354.9533513301
 21
522.9658555133
 31
0.0
  0
ARC
  5
DF
330
1F
100
AcDbEntity
  8
0
  6
Continuous
 62
     7
370
    25
100
AcDbCircle
 10
354.9533513301
 20
521.9658555133
 30
0.0
 40
1.0
100
AcDbArc
 50
0.0
 51
90.0
  0
LINE
  5
E0
330
1F
100
AcDbEntity
  8
0
  6
Continuous
 62
     7
370
    25
100
AcDbLine
 10
355.9533513301
 20
521.9658555133
 30
0.0
 11
355.9533513301
 21
517.9658555133
 31
0.0
  0
ARC
  5
E1
330
1F
100
AcDbEntity
  8
0
  6
Continuous
 62
     7
370
    25
100
AcDbCircle
 10
354.9533513301
 20
517.9658555133
 30
0.0
 40
1.0
100
AcDbArc
 50
270.0
 51
0.0
  0
LINE
  5
E2
330
1F
100
AcDbEntity
  8
0
  6
Continuous
 62
     7
370
    25
100
AcDbLine
 10
354.9533513301
 20
516.9658555133
 30
0.0
 11
350.9533513301
 21
516.9658555133
 31
0.0
  0
LINE
  5
E3
330
1F
100
AcDbEntity
  8
0
  6
Continuous
 62
     7
370
    25
100
AcDbLine
 10
230.6017150943
 20
371.0976135756
 30
0.0
 11
230.6017150943
 21
377.0976135756
 31
0.0
  0
LINE
  5
E4
330
1F
100
AcDbEntity
  8
0
  6
Continuous
 62
     7
370
    25
100
AcDbLine
 10
250.6017150943
 20
377.5976135756
 30
0.0
 11
250.6017150943
 21
370.5976135756
 31
0.0
  0
LINE
  5
E5
330
1F
100
AcDbEntity
  8
0
  6
Continuous
 62
     7
370
    25
100
AcDbLine
 10
302.3033513301
 20
500.4658555133
 30
0.0
 11
302.3033513301
 21
508.4658555133
 31
0.0
  0
ARC
  5
E6
330
1F
100
AcDbEntity
  8
0
  6
Continuous
 62
     7
370
    25
100
AcDbCircle
 10
420.4498059046
 20
462.7534741225
 30
0.0
 40
1.399736861267383
100
AcDbArc
 50
270.4089897997
 51
357.5521700077
  0
SPLINE
  5
E7
330
1F
100
AcDbEntity
  8
0
  6
Continuous
 62
     8
370
    18
100
AcDbSpline
210
0.0
220
0.0
230
1.0
 70
     8
 71
     3
 72
    22
 73
    18
 74
     0
 42
0.000000001
 43
0.00000001
 40
0.0
 40
0.0
 40
0.0
 40
0.0
 40
0.125
 40
0.125
 40
0.25
 40
0.25
 40
0.375
 40
0.375
 40
0.5
 40
0.5
 40
0.625
 40
0.625
 40
0.75
 40
0.75
 40
0.875
 40
0.875
 40
1.0
 40
1.0
 40
1.0
 40
1.0
 10
300.4112543031528
 20
514.9658555133077
 30
0.0
 10
300.3394457736376
 20
514.9658555133077
 30
0.0
 10
300.2665858376635
 20
514.9860914448288
 30
0.0
 10
300.1190574451754
 20
515.0638645740249
 30
0.0
 10
300.043725135038
 20
515.1221233283413
 30
0.0
 10
299.8949241556966
 20
515.274259860262
 30
0.0
 10
299.8225242863318
 20
515.366687335197
 30
0.0
 10
299.6825804916702
 20
515.5829487509375
 30
0.0
 10
299.6143184990974
 20
515.7084694548556
 30
0.0
 10
299.4884697625571
 20
515.9842894060671
 30
0.0
 10
299.4309109700044
 20
516.133882145811
 30
0.0
 10
299.3278926280477
 20
516.4565561200689
 30
0.0
 10
299.2820571513043
 20
516.6319155220674
 30
0.0
 10
299.2081149935071
 20
516.993689226974
 30
0.0
 10
299.1795959400285
 20
517.180566200167
 30
0.0
 10
299.1407102894509
 20
517.5666183658967
 30
0.0
 10
299.1305265536265
 20
517.7663671981198
 30
0.0
 10
299.1305265536265
 20
517.9658555133078
 30
0.0
  0
LINE
  5
E8
330
1F
100
AcDbEntity
  8
0
  6
Continuous
 62
     8
370
    18
100
AcDbLine
 10
301.9533513301
 20
514.9658555133
 30
0.0
 11
300.4112543032
 21
514.9658555133
 31
0.0
  0
LINE
  5
E9
330
1F
100
AcDbEntity
  8
0
  6
Continuous
 62
     8
370
    18
100
AcDbLine
 10
300.4112543032
 20
524.9658555133
 30
0.0
 11
301.9533513301
 21
524.9658555133
 31
0.0
  0
SPLINE
  5
EA
330
1F
100
AcDbEntity
  8
0
  6
Continuous
 62
     8
370
    18
100
AcDbSpline
210
0.0
220
0.0
230
1.0
 70
     8
 71
     3
 72
    20
 73
    16
 74
     0
 42
0.000000001
 43
0.00000001
 40
0.0
 40
0.0
 40
0.0
 40
0.0
 40
0.1249999999999987
 40
0.1249999999999987
 40
0.2499999999999973
 40
0.2499999999999973
 40
0.4999999999999987
 40
0.4999999999999987
 40
0.624999999999999
 40
0.624999999999999
 40
0.7499999999999993
 40
0.7499999999999993
 40
0.8749999999999997
 40
0.8749999999999997
 40
1.0
 40
1.0
 40
1.0
 40
1.0
 10
299.1305265536265
 20
521.9658555133078
 30
0.0
 10
299.1305265536265
 20
522.1649436518028
 30
0.0
 10
299.1404328755487
 20
522.360686298764
 30
0.0
 10
299.1788933643214
 20
522.7457805668523
 30
0.0
 10
299.2079153007653
 20
522.9368310375695
 30
0.0
 10
299.3186850369229
 20
523.4794285561152
 30
0.0
 10
299.426001982463
 20
523.810484153612
 30
0.0
 10
299.6140056317467
 20
524.2225699505304
 30
0.0
 10
299.6821245986398
 20
524.3480345020181
 30
0.0
 10
299.8227334521515
 20
524.5653701456853
 30
0.0
 10
299.8951015817917
 20
524.6575834362824
 30
0.0
 10
300.0429560445007
 20
524.8088503048153
 30
0.0
 10
300.1187623332937
 20
524.867675348616
 30
0.0
 10
300.2666946825797
 20
524.9456924711242
 30
0.0
 10
300.339585018694
 20
524.9658555133078
 30
0.0
 10
300.4112543031528
 20
524.9658555133078
 30
0.0
  0
LINE
  5
EB
330
1F
100
AcDbEntity
  8
0
  6
Continuous
 62
     8
370
    18
100
AcDbLine
 10
299.1305265536
 20
517.9658555133
 30
0.0
 11
299.1305265536
 21
521.9658555133
 31
0.0
  0
SPLINE
  5
EC
330
1F
100
AcDbEntity
  8
0
  6
Continuous
 62
     8
370
    18
100
AcDbSpline
210
0.0
220
0.0
230
1.0
 70
     8
 71
     3
 72
    15
 73
    11
 74
     0
 42
0.000000001
 43
0.00000001
 40
0.0
 40
0.0
 40
0.0
 40
0.0
 40
0.0832177778743716
 40
0.1665780837892969
 40
0.2505230588079055
 40
0.3762795086886982
 40
0.5007342991424426
 40
0.6707477746431708
 40
0.8359781373461529
 40
1.0
 40
1.0
 40
1.0
 40
1.0
 10
298.5770164886176
 20
461.5373290464668
 30
0.0
 10
298.5535317325023
 20
461.5525015455756
 30
0.0
 10
298.5065219976612
 20
461.5828725299062
 30
0.0
 10
298.4413245521418
 20
461.6356122742893
 30
0.0
 10
298.3702609176909
 20
461.7029799520163
 30
0.0
 10
298.2974766623022
 20
461.7881819957931
 30
0.0
 10
298.2197283662267
 20
461.9067508372157
 30
0.0
 10
298.1540037501833
 20
462.0494933202619
 30
0.0
 10
298.1079541161281
 20
462.2170605856505
 30
0.0
 10
298.1023059778461
 20
462.3322971074276
 30
0.0
 10
298.0994922742773
 20
462.3897038840323
 30
0.0
  0
SPLINE
  5
ED
330
1F
100
AcDbEntity
  8
0
  6
Continuous
 62
     8
370
    18
100
AcDbSpline
210
0.0
220
0.0
230
1.0
 70
     8
 71
     3
 72
    19
 73
    15
 74
     0
 42
0.000000001
 43
0.00000001
 40
0.0
 40
0.0
 40
0.0
 40
0.0
 40
0.0548494447398305
 40
0.1148075243975592
 40
0.179920179266976
 40
0.2502279606962119
 40
0.3052319739709123
 40
0.3751411978622238
 40
0.5005313571396667
 40
0.6379184985673192
 40
0.7501586558102886
 40
0.840234168306087
 40
0.923536808307797
 40
0.9999999999999999
 40
0.9999999999999999
 40
0.9999999999999999
 40
0.9999999999999999
 10
302.2037969862305
 20
460.528176882134
 30
0.0
 10
302.1360895595567
 20
460.5282871366143
 30
0.0
 10
301.9943684887853
 20
460.528517914592
 30
0.0
 10
301.7723191679559
 20
460.5375251880253
 30
0.0
 10
301.5314298934501
 20
460.5549518160644
 30
0.0
 10
301.2969493531833
 20
460.58075982614
 30
0.0
 10
301.056883269441
 20
460.6153976761937
 30
0.0
 10
300.7497908729608
 20
460.6704991464679
 30
0.0
 10
300.3430971165249
 20
460.7659493850964
 30
0.0
 10
299.888514905316
 20
460.9084859883514
 30
0.0
 10
299.4807206371128
 20
461.0677502324795
 30
0.0
 10
299.1421555605558
 20
461.2238108565176
 30
0.0
 10
298.8491435196438
 20
461.3755568902141
 30
0.0
 10
298.6650992357743
 20
461.4849662367803
 30
0.0
 10
298.5770164886176
 20
461.5373290464668
 30
0.0
  0
SPLINE
  5
EE
330
1F
100
AcDbEntity
  8
0
  6
Continuous
 62
     8
370
    18
100
AcDbSpline
210
0.0
220
0.0
230
1.0
 70
     8
 71
     3
 72
    18
 73
    14
 74
     0
 42
0.000000001
 43
0.00000001
 40
0.0
 40
0.0
 40
0.0
 40
0.0
 40
0.0457082291482463
 40
0.0977889186986562
 40
0.1567715450620606
 40
0.2217378192369478
 40
0.3751383854666596
 40
0.5284957892698963
 40
0.6769272337450397
 40
0.7903383981109687
 40
0.9001523912260473
 40
0.9505508402527967
 40
1.0
 40
1.0
 40
1.0
 40
1.0
 10
298.0994959716179
 20
462.3896997277214
 30
0.0
 10
297.9785735189129
 20
462.3809461158641
 30
0.0
 10
297.7198700837379
 20
462.3622184982297
 30
0.0
 10
297.3054343106472
 20
462.3317565074445
 30
0.0
 10
296.8405633374762
 20
462.2972422497375
 30
0.0
 10
296.1097019610157
 20
462.242166509981
 30
0.0
 10
295.1344835059757
 20
462.1670258495477
 30
0.0
 10
293.9536501057963
 20
462.0729101402633
 30
0.0
 10
292.8926709694651
 20
461.9856827760817
 30
0.0
 10
291.9589924202535
 20
461.906732582897
 30
0.0
 10
291.2835275171681
 20
461.8481674713358
 30
0.0
 10
290.7725739593454
 20
461.8031769685836
 30
0.0
 10
290.5321507590961
 20
461.7817091897078
 30
0.0
 10
290.4130820564798
 20
461.7710773514488
 30
0.0
  0
SPLINE
  5
EF
330
1F
100
AcDbEntity
  8
0
  6
Continuous
 62
     8
370
    18
100
AcDbSpline
210
0.0
220
0.0
230
1.0
 70
     8
 71
     3
 72
    10
 73
     6
 74
     0
 42
0.000000001
 43
0.00000001
 40
0.0
 40
0.0
 40
0.0
 40
0.0
 40
0.4999999999999997
 40
0.4999999999999997
 40
1.0
 40
1.0
 40
1.0
 40
1.0
 10
290.4200258694855
 20
478.0866874071338
 30
0.0
 10
291.6139843754643
 20
477.9784483219362
 30
0.0
 10
292.8788314322198
 20
477.8697817773241
 30
0.0
 10
295.4679036480839
 20
477.6589567661039
 30
0.0
 10
296.7914684245401
 20
477.5568506058137
 30
0.0
 10
298.0994922352704
 20
477.4612597224021
 30
0.0
  0
SPLINE
  5
F0
330
1F
100
AcDbEntity
  8
0
  6
Continuous
 62
     8
370
    18
100
AcDbSpline
210
0.0
220
0.0
230
1.0
 70
     8
 71
     3
 72
    10
 73
     6
 74
     0
 42
0.000000001
 43
0.00000001
 40
0.0
 40
0.0
 40
0.0
 40
0.0
 40
0.4679811206264906
 40
0.9381154942058502
 40
1.0
 40
1.0
 40
1.0
 40
1.0
 10
299.7761074169762
 20
479.3338266708827
 30
0.0
 10
300.6145254158394
 20
479.3924748850858
 30
0.0
 10
302.2952191034429
 20
479.5100411629259
 30
0.0
 10
303.6869743723157
 20
479.6238240112658
 30
0.0
 10
304.0879600405668
 20
479.6580591808684
 30
0.0
 10
304.1346027460654
 20
479.6620414202847
 30
0.0
  0
SPLINE
  5
F1
330
1F
100
AcDbEntity
  8
0
  6
Continuous
 62
     8
370
    18
100
AcDbSpline
210
0.0
220
0.0
230
1.0
 70
     8
 71
     3
 72
    21
 73
    17
 74
     0
 42
0.000000001
 43
0.00000001
 40
0.0
 40
0.0
 40
0.0
 40
0.0
 40
0.0309085280799466
 40
0.0622001789959344
 40
0.0939128063959968
 40
0.1260800090202496
 40
0.1870918231991353
 40
0.2515521140832264
 40
0.3763645087588514
 40
0.5015814384681714
 40
0.6261044964851069
 40
0.751253028302861
 40
0.8247751230326258
 40
0.8753089412859335
 40
0.9414255341036061
 40
1.0
 40
1.0
 40
1.0
 40
1.0
 10
298.0994922474381
 20
477.4613011828384
 30
0.0
 10
298.1013886323394
 20
477.4961787557403
 30
0.0
 10
298.1052049085463
 20
477.5663662221846
 30
0.0
 10
298.1181666149861
 20
477.6711678209929
 30
0.0
 10
298.1364279871709
 20
477.7757582914901
 30
0.0
 10
298.1675950324596
 20
477.9100850088741
 30
0.0
 10
298.2192636403379
 20
478.0732872296323
 30
0.0
 10
298.3233204594833
 20
478.3152630408999
 30
0.0
 10
298.4889410752703
 20
478.5839526006083
 30
0.0
 10
298.7203681283614
 20
478.8447901210663
 30
0.0
 10
298.9730974115211
 20
479.0496951975106
 30
0.0
 10
299.2015927788128
 20
479.1797184754039
 30
0.0
 10
299.3803826140471
 20
479.2521024309822
 30
0.0
 10
299.517762369003
 20
479.2937052487435
 30
0.0
 10
299.6443118245023
 20
479.3214004596247
 30
0.0
 10
299.7339546157602
 20
479.3298536987548
 30
0.0
 10
299.7760649216117
 20
479.3338246648549
 30
0.0
  0
SPLINE
  5
F2
330
1F
100
AcDbEntity
  8
0
  6
Continuous
 62
     8
370
    18
100
AcDbSpline
210
0.0
220
0.0
230
1.0
 70
     8
 71
     3
 72
    36
 73
    32
 74
     0
 42
0.000000001
 43
0.00000001
 40
0.0
 40
0.0
 40
0.0
 40
0.0
 40
0.0078124999999997
 40
0.0078124999999997
 40
0.0156249999999993
 40
0.0156249999999993
 40
0.023437499999999
 40
0.023437499999999
 40
0.0312499999999987
 40
0.0312499999999987
 40
0.0390624999999983
 40
0.0390624999999983
 40
0.046874999999998
 40
0.046874999999998
 40
0.0546874999999976
 40
0.0546874999999976
 40
0.0624999999999973
 40
0.0624999999999973
 40
0.070312499999997
 40
0.070312499999997
 40
0.0781249999999966
 40
0.0781249999999966
 40
0.0937499999999966
 40
0.0937499999999966
 40
0.1249999999999966
 40
0.1249999999999966
 40
0.2499999999999972
 40
0.2499999999999972
 40
0.4999999999999982
 40
0.4999999999999982
 40
1.0
 40
1.0
 40
1.0
 40
1.0
 10
421.4685381728782
 20
477.1451796738755
 30
0.0
 10
421.3458781932763
 20
477.1409267445168
 30
0.0
 10
421.2001278698232
 20
477.1375913026183
 30
0.0
 10
420.8792323361223
 20
477.1323894738301
 30
0.0
 10
420.7014216101675
 20
477.1304582478261
 30
0.0
 10
420.3053376090764
 20
477.1275883969523
 30
0.0
 10
420.0865787941593
 20
477.126676205034
 30
0.0
 10
419.6190060587338
 20
477.1256845674494
 30
0.0
 10
419.3715321723512
 20
477.1255846749831
 30
0.0
 10
418.850129534837
 20
477.1260045242091
 30
0.0
 10
418.5754180805549
 20
477.1265337959074
 30
0.0
 10
418.0006104607589
 20
477.1281510591995
 30
0.0
 10
417.7025051466354
 20
477.1292299433634
 30
0.0
 10
417.0944946024701
 20
477.1317844998555
 30
0.0
 10
416.7834354738736
 20
477.1332489488379
 30
0.0
 10
416.1468868983384
 20
477.1365167555888
 30
0.0
 10
415.8194209198206
 20
477.1384749920854
 30
0.0
 10
415.1649527672596
 20
477.143192228498
 30
0.0
 10
414.8374509797654
 20
477.1457968922981
 30
0.0
 10
414.1833727198006
 20
477.1501918767942
 30
0.0
 10
413.8569859043093
 20
477.1520851074028
 30
0.0
 10
412.8787347942584
 20
477.1576500581583
 30
0.0
 10
412.2274568921384
 20
477.1616903133888
 30
0.0
 10
410.2710857010551
 20
477.1740828939459
 30
0.0
 10
408.9660536836282
 20
477.1816005459762
 30
0.0
 10
402.4441728833437
 20
477.2170208631453
 30
0.0
 10
397.2277434763643
 20
477.2434796427034
 30
0.0
 10
381.5759375145807
 20
477.3131998738697
 30
0.0
 10
371.1415612567999
 20
477.3468454469741
 30
0.0
 10
339.8380404113135
 20
477.4247260298658
 30
0.0
 10
318.9687586224275
 20
477.4443829319792
 30
0.0
 10
298.0994922509666
 20
477.4613011822896
 30
0.0
  0
SPLINE
  5
F3
330
1F
100
AcDbEntity
  8
0
  6
Continuous
 62
     8
370
    18
100
AcDbSpline
210
0.0
220
0.0
230
1.0
 70
     8
 71
     3
 72
     9
 73
     5
 74
     0
 42
0.000000001
 43
0.00000001
 40
0.0
 40
0.0
 40
0.0
 40
0.0
 40
0.5031724123026718
 40
1.0
 40
1.0
 40
1.0
 40
1.0
 10
421.4687149885563
 20
477.1451649407728
 30
0.0
 10
421.6238736718933
 20
477.1506044671897
 30
0.0
 10
421.9322345429254
 20
477.1614149295361
 30
0.0
 10
421.9422933933803
 20
477.1743574088495
 30
0.0
 10
421.9472909077868
 20
477.1807875896255
 30
0.0
  0
SPLINE
  5
F4
330
1F
100
AcDbEntity
  8
0
  6
Continuous
 62
     8
370
    18
100
AcDbSpline
210
0.0
220
0.0
230
1.0
 70
     8
 71
     3
 72
    36
 73
    32
 74
     0
 42
0.000000001
 43
0.00000001
 40
0.0
 40
0.0
 40
0.0
 40
0.0
 40
0.5000000000000032
 40
0.5000000000000032
 40
0.750000000000005
 40
0.750000000000005
 40
0.8125000000000054
 40
0.8125000000000054
 40
0.8437500000000057
 40
0.8437500000000057
 40
0.8750000000000059
 40
0.8750000000000059
 40
0.8906250000000057
 40
0.8906250000000057
 40
0.8984375000000056
 40
0.8984375000000056
 40
0.9062500000000056
 40
0.9062500000000056
 40
0.9218750000000046
 40
0.9218750000000046
 40
0.9375000000000037
 40
0.9375000000000037
 40
0.9531250000000028
 40
0.9531250000000028
 40
0.9687500000000019
 40
0.9687500000000019
 40
0.984375000000001
 40
0.984375000000001
 40
0.9921875000000006
 40
0.9921875000000006
 40
1.0
 40
1.0
 40
1.0
 40
1.0
 10
298.0994922718958
 20
462.3897038840311
 30
0.0
 10
319.3809662330619
 20
462.3998824517521
 30
0.0
 10
340.6626406035464
 20
462.4131953408151
 30
0.0
 10
372.5849093617398
 20
462.4849011180905
 30
0.0
 10
383.2259078605894
 20
462.5172700132911
 30
0.0
 10
396.5272536763015
 20
462.5743486227299
 30
0.0
 10
399.1875523177351
 20
462.5866451944439
 30
0.0
 10
403.1777588710301
 20
462.6061776995497
 30
0.0
 10
404.5079244516052
 20
462.6128812750224
 30
0.0
 10
407.1683459396306
 20
462.6266902646904
 30
0.0
 10
408.498687982504
 20
462.6337772882834
 30
0.0
 10
410.4918540861725
 20
462.6443707157819
 30
0.0
 10
411.1553373978263
 20
462.6477967562474
 30
0.0
 10
412.151388951146
 20
462.6532074215074
 30
0.0
 10
412.4836306878681
 20
462.655075960302
 30
0.0
 10
413.1492484366661
 20
462.6591160829886
 30
0.0
 10
413.48286792471
 20
462.6613805279722
 30
0.0
 10
414.4844118258754
 20
462.6682873743766
 30
0.0
 10
415.1489684209644
 20
462.6713622139038
 30
0.0
 10
416.4664982929247
 20
462.6743024392573
 30
0.0
 10
417.1141836086512
 20
462.6759229004456
 30
0.0
 10
418.3285867991098
 20
462.6800426337883
 30
0.0
 10
418.8973475285455
 20
462.6822392447831
 30
0.0
 10
419.9124746397136
 20
462.6861922865422
 30
0.0
 10
420.3582958032238
 20
462.6880367393606
 30
0.0
 10
421.0871526940076
 20
462.6908633092006
 30
0.0
 10
421.3717194673953
 20
462.6918592413337
 30
0.0
 10
421.6546175365536
 20
462.6931277592305
 30
0.0
 10
421.7245010113662
 20
462.6934963381249
 30
0.0
 10
421.8161926120734
 20
462.6938124886074
 30
0.0
 10
421.8395804147897
 20
462.6937733388551
 30
0.0
 10
421.8482478333953
 20
462.693691950939
 30
0.0
  0
SPLINE
  5
F5
330
1F
100
AcDbEntity
  8
0
  6
Continuous
 62
     8
370
    18
100
AcDbSpline
210
0.0
220
0.0
230
1.0
 70
     8
 71
     3
 72
    41
 73
    37
 74
     0
 42
0.000000001
 43
0.00000001
 40
0.0
 40
0.0
 40
0.0
 40
0.0
 40
0.5000000000000039
 40
0.5000000000000039
 40
0.7500000000000057
 40
0.7500000000000057
 40
0.812500000000006
 40
0.812500000000006
 40
0.8750000000000062
 40
0.8750000000000062
 40
0.9062500000000057
 40
0.9062500000000057
 40
0.9140625000000052
 40
0.9140625000000052
 40
0.9218750000000048
 40
0.9296875000000042
 40
0.9296875000000042
 40
0.9375000000000038
 40
0.9375000000000038
 40
0.9414062500000036
 40
0.9414062500000036
 40
0.9453125000000033
 40
0.9453125000000033
 40
0.9531250000000029
 40
0.9531250000000029
 40
0.9609375000000024
 40
0.9609375000000024
 40
0.9687500000000019
 40
0.9687500000000019
 40
0.9765625000000014
 40
0.9765625000000014
 40
0.984375000000001
 40
0.984375000000001
 40
0.9921875000000004
 40
0.9921875000000004
 40
1.0
 40
1.0
 40
1.0
 40
1.0
 10
299.776086226947
 20
479.3338245068544
 30
0.0
 10
320.365650767206
 20
479.1811321148973
 30
0.0
 10
340.9551979464703
 20
479.0288209317492
 30
0.0
 10
371.8391379258887
 20
478.8034620631745
 30
0.0
 10
382.1339944611726
 20
478.7288346503474
 30
0.0
 10
395.0016799050107
 20
478.6365202536512
 30
0.0
 10
397.5751765188281
 20
478.6181075421622
 30
0.0
 10
402.7226609541148
 20
478.5813548367993
 30
0.0
 10
405.298092684584
 20
478.5629989405712
 30
0.0
 10
409.1566528387698
 20
478.5355559642135
 30
0.0
 10
410.439376830715
 20
478.5264543256422
 30
0.0
 10
412.0491062003528
 20
478.5150646896682
 30
0.0
 10
412.3713673149985
 20
478.5127848696529
 30
0.0
 10
413.0185675263018
 20
478.5082061919652
 30
0.0
 10
413.6695885159925
 20
478.5036028183622
 30
0.0
 10
414.3068975929431
 20
478.4991020742142
 30
0.0
 10
414.9266739787664
 20
478.4947286554366
 30
0.0
 10
415.2207821975982
 20
478.4926583548562
 30
0.0
 10
415.6247345316461
 20
478.4900102545915
 30
0.0
 10
415.7529490201217
 20
478.4892044195267
 30
0.0
 10
416.007413972078
 20
478.4877248181249
 30
0.0
 10
416.1328388013944
 20
478.4870470588478
 30
0.0
 10
416.5063507159847
 20
478.4851240236186
 30
0.0
 10
416.7528280112154
 20
478.4839533264232
 30
0.0
 10
417.2365817109265
 20
478.4819658006157
 30
0.0
 10
417.475173178392
 20
478.481138858605
 30
0.0
 10
417.9356847890334
 20
478.479902276293
 30
0.0
 10
418.1560770991258
 20
478.4794973336078
 30
0.0
 10
418.5750238467131
 20
478.4792303355751
 30
0.0
 10
418.7740766594824
 20
478.4793647619598
 30
0.0
 10
419.1489866043773
 20
478.480421006153
 30
0.0
 10
419.3240072032312
 20
478.4813533466281
 30
0.0
 10
419.6428157633546
 20
478.4841623229441
 30
0.0
 10
419.7866544883088
 20
478.4860119668517
 30
0.0
 10
420.0469676188283
 20
478.4909590775951
 30
0.0
 10
420.165226534036
 20
478.4941307789701
 30
0.0
 10
420.26465098145
 20
478.4982629260098
 30
0.0
  0
SPLINE
  5
F6
330
1F
100
AcDbEntity
  8
0
  6
Continuous
 62
     8
370
    18
100
AcDbSpline
210
0.0
220
0.0
230
1.0
 70
     8
 71
     3
 72
    14
 73
    10
 74
     0
 42
0.000000001
 43
0.00000001
 40
0.0
 40
0.0
 40
0.0
 40
0.0
 40
0.25
 40
0.25
 40
0.5
 40
0.5
 40
0.75
 40
0.75
 40
1.0
 40
1.0
 40
1.0
 40
1.0
 10
420.2642346051576
 20
478.4983196196837
 30
0.0
 10
420.4086855208007
 20
478.4854627192273
 30
0.0
 10
420.5610106597282
 20
478.4453597319238
 30
0.0
 10
420.8523602200328
 20
478.3007151379135
 30
0.0
 10
420.990657382757
 20
478.1960114650834
 30
0.0
 10
421.2206587789385
 20
477.9376376605508
 30
0.0
 10
421.3117946641325
 20
477.7846053948112
 30
0.0
 10
421.433077105057
 20
477.4656926161722
 30
0.0
 10
421.4634693161393
 20
477.3005614348244
 30
0.0
 10
421.4687218487417
 20
477.1451669231502
 30
0.0
  0
SPLINE
  5
F7
330
1F
100
AcDbEntity
  8
0
  6
Continuous
 62
     8
370
    18
100
AcDbSpline
210
0.0
220
0.0
230
1.0
 70
     8
 71
     3
 72
    19
 73
    15
 74
     0
 42
0.000000001
 43
0.00000001
 40
0.0
 40
0.0
 40
0.0
 40
0.0
 40
0.0577010282548634
 40
0.0923938221989989
 40
0.1287827731285096
 40
0.1932739144999517
 40
0.2650898345470389
 40
0.3526572905594504
 40
0.4428902483197916
 40
0.5356624127225056
 40
0.6509286356662298
 40
0.7710544189559866
 40
0.8887665495450967
 40
1.0
 40
1.0
 40
1.0
 40
1.0
 10
409.4694608773236
 20
478.9893116276264
 30
0.0
 10
409.4829838128336
 20
478.9889857489502
 30
0.0
 10
409.5046374252025
 20
478.9884639354337
 30
0.0
 10
409.6965547216603
 20
478.9836236116598
 30
0.0
 10
409.9584115252488
 20
478.9768917396175
 30
0.0
 10
410.4030547658035
 20
478.965208919312
 30
0.0
 10
411.103360031316
 20
478.9461593140074
 30
0.0
 10
411.9944756518652
 20
478.920962625651
 30
0.0
 10
413.043927152445
 20
478.8902459281559
 30
0.0
 10
414.2629874617678
 20
478.8532586529748
 30
0.0
 10
415.6578759232591
 20
478.8098429381436
 30
0.0
 10
417.1982934599283
 20
478.737717777294
 30
0.0
 10
418.7449953277001
 20
478.639853296376
 30
0.0
 10
419.7675743803185
 20
478.5445786102161
 30
0.0
 10
420.2643954845606
 20
478.49828930411
 30
0.0
  0
SPLINE
  5
F8
330
1F
100
AcDbEntity
  8
0
  6
Continuous
 62
     8
370
    18
100
AcDbSpline
210
0.0
220
0.0
230
1.0
 70
     8
 71
     3
 72
    12
 73
     8
 74
     0
 42
0.000000001
 43
0.00000001
 40
0.0
 40
0.0
 40
0.0
 40
0.0
 40
0.4508758646375947
 40
0.5991550067411071
 40
0.7494711116387225
 40
0.8798604285822615
 40
1.0
 40
1.0
 40
1.0
 40
1.0
 10
420.7364652387137
 20
478.5527889676885
 30
0.0
 10
420.7413130184462
 20
478.5524143809075
 30
0.0
 10
420.7477550831609
 20
478.5519166041071
 30
0.0
 10
420.7120930903667
 20
478.5451757712974
 30
0.0
 10
420.7098933838325
 20
478.5330341612444
 30
0.0
 10
420.6728633751026
 20
478.5144730773628
 30
0.0
 10
420.3966126130101
 20
478.5035385882414
 30
0.0
 10
420.2641382769018
 20
478.4982950219394
 30
0.0
  0
LINE
  5
F9
330
1F
100
AcDbEntity
  8
0
  6
Continuous
 62
     8
370
    18
100
AcDbLine
 10
299.1305265536
 20
517.9658555133
 30
0.0
 11
300.8850635296
 21
517.9658555133
 31
0.0
  0
ARC
  5
FA
330
1F
100
AcDbEntity
  8
0
  6
Continuous
 62
     8
370
    18
100
AcDbCircle
 10
302.3466158365
 20
515.0306555133
 30
0.0
 40
1.93644605003752
100
AcDbArc
 50
92.0555401372
 51
181.9176675672
  0
ARC
  5
FB
330
1F
100
AcDbEntity
  8
0
  6
Continuous
 62
     8
370
    18
100
AcDbCircle
 10
302.3466158365
 20
524.9010555133
 30
0.0
 40
1.936446050037405
100
AcDbArc
 50
178.0823324328
 51
267.9444598628
  0
LINE
  5
FC
330
1F
100
AcDbEntity
  8
0
  6
Continuous
 62
     8
370
    18
100
AcDbLine
 10
299.1305265536
 20
521.9658555133
 30
0.0
 11
300.8850635296
 21
521.9658555133
 31
0.0
  0
LINE
  5
FD
330
1F
100
AcDbEntity
  8
0
  6
Continuous
 62
     8
370
    18
100
AcDbLine
 10
300.8850635296
 20
517.9658555133
 30
0.0
 11
350.9533513301
 21
517.9658555133
 31
0.0
  0
LINE
  5
FE
330
1F
100
AcDbEntity
  8
0
  6
Continuous
 62
     8
370
    18
100
AcDbLine
 10
350.9533513301
 20
521.9658555133
 30
0.0
 11
300.8850635296
 21
521.9658555133
 31
0.0
  0
LINE
  5
FF
330
1F
100
AcDbEntity
  8
0
  6
Continuous
 62
     8
370
    18
100
AcDbLine
 10
355.9533513301
 20
521.9658555133
 30
0.0
 11
350.9533513301
 21
521.9658555133
 31
0.0
  0
LINE
  5
100
330
1F
100
AcDbEntity
  8
0
  6
Continuous
 62
     8
370
    18
100
AcDbLine
 10
350.9533513301
 20
517.9658555133
 30
0.0
 11
355.9533513301
 21
517.9658555133
 31
0.0
  0
LINE
  5
101
330
1F
100
AcDbEntity
  8
0
  6
Continuous
 62
     8
370
    18
100
AcDbLine
 10
231.6017150943
 20
370.0976135756
 30
0.0
 11
231.6017150943
 21
378.0976135756
 31
0.0
  0
LINE
  5
102
330
1F
100
AcDbEntity
  8
0
  6
Continuous
 62
     8
370
    18
100
AcDbLine
 10
250.1017150943
 20
370.0976135756
 30
0.0
 11
250.1017150943
 21
378.0976135756
 31
0.0
  0
LINE
  5
103
330
1F
100
AcDbEntity
  8
0
  6
Continuous
 62
     8
370
    18
100
AcDbLine
 10
254.2398708191
 20
368.1497344355
 30
0.0
 11
256.4866317104
 21
368.9674885235
 31
0.0
  0
LINE
  5
104
330
1F
100
AcDbEntity
  8
0
  6
Continuous
 62
     7
370
    25
100
AcDbLine
 10
152.4396958175
 20
460.0793811352
 30
0.0
 11
152.4396958175
 21
461.264218539
 31
0.0
  0
LINE
  5
105
330
1F
100
AcDbEntity
  8
0
  6
Continuous
 62
     7
370
    25
100
AcDbLine
 10
128.4396958175
 20
461.264218539
 30
0.0
 11
128.4396958175
 21
460.0793811352
 31
0.0
  0
LINE
  5
106
330
1F
100
AcDbEntity
  8
0
  6
Continuous
 62
     7
370
    25
100
AcDbLine
 10
129.4396958175
 20
455.9291343781
 30
0.0
 11
129.7705757328
 21
455.7456502628
 31
0.0
  0
LINE
  5
107
330
1F
100
AcDbEntity
  8
0
  6
Continuous
 62
     7
370
    25
100
AcDbLine
 10
151.1088159022
 20
455.7456502628
 30
0.0
 11
151.4396958175
 21
455.9291343781
 31
0.0
  0
SPLINE
  5
108
330
1F
100
AcDbEntity
  8
0
  6
Continuous
 62
     7
370
    25
100
AcDbSpline
210
0.0
220
0.0
230
1.0
 70
     8
 71
     3
 72
    12
 73
     8
 74
     0
 42
0.000000001
 43
0.00000001
 40
0.0
 40
0.0
 40
0.0
 40
0.0
 40
0.4609806326990162
 40
0.6150451245526554
 40
0.7250160431564701
 40
0.8652197991282687
 40
1.0
 40
1.0
 40
1.0
 40
1.0
 10
155.6080320571317
 20
460.5249532880622
 30
0.0
 10
155.2115756109527
 20
460.5279409361095
 30
0.0
 10
154.6826193229363
 20
460.5319270870125
 30
0.0
 10
153.9303963775683
 20
460.5370979883043
 30
0.0
 10
153.4438088644017
 20
460.536871043355
 30
0.0
 10
152.9455099670611
 20
460.5284574088123
 30
0.0
 10
152.6060689162579
 20
460.5249092675784
 30
0.0
 10
152.4396958174905
 20
460.5231701872563
 30
0.0
  0
SPLINE
  5
109
330
1F
100
AcDbEntity
  8
0
  6
Continuous
 62
     7
370
    25
100
AcDbSpline
210
0.0
220
0.0
230
1.0
 70
     8
 71
     3
 72
     9
 73
     5
 74
     0
 42
0.000000001
 43
0.00000001
 40
0.0
 40
0.0
 40
0.0
 40
0.0
 40
0.3804084534376256
 40
1.0
 40
1.0
 40
1.0
 40
1.0
 10
157.0705817481195
 20
460.749639630185
 30
0.0
 10
157.0157326291842
 20
460.7132139910668
 30
0.0
 10
156.8715478235111
 20
460.6174599698588
 30
0.0
 10
156.6704193929858
 20
460.6184379634653
 30
0.0
 10
156.5458019176591
 20
460.6190439200366
 30
0.0
  0
LINE
  5
10A
330
1F
100
AcDbEntity
  8
0
  6
Continuous
 62
     7
370
    25
100
AcDbLine
 10
117.4396958175
 20
526.4658555133
 30
0.0
 11
117.4396958175
 21
493.1657120515
 31
0.0
  0
LINE
  5
10B
330
1F
100
AcDbEntity
  8
0
  6
Continuous
 62
     7
370
    25
100
AcDbLine
 10
163.4396958175
 20
493.1817360889
 30
0.0
 11
163.4396958175
 21
526.4658555133
 31
0.0
  0
ARC
  5
10C
330
1F
100
AcDbEntity
  8
0
  6
Continuous
 62
     7
370
    25
100
AcDbCircle
 10
118.9396958175
 20
526.4658555133
 30
0.0
 40
1.5
100
AcDbArc
 50
90.0
 51
180.0
  0
ARC
  5
10D
330
1F
100
AcDbEntity
  8
0
  6
Continuous
 62
     7
370
    25
100
AcDbCircle
 10
161.9396958175
 20
526.4658555133
 30
0.0
 40
1.5
100
AcDbArc
 50
0.0
 51
90.0
  0
LINE
  5
10E
330
1F
100
AcDbEntity
  8
0
  6
Continuous
 62
     7
370
    25
100
AcDbLine
 10
117.8875197313
 20
485.3758555133
 30
0.0
 11
117.8875197313
 21
335.8658555133
 31
0.0
  0
LINE
  5
10F
330
1F
100
AcDbEntity
  8
0
  6
Continuous
 62
     7
370
    25
100
AcDbLine
 10
162.9918719037
 20
335.8658555133
 30
0.0
 11
162.9918719037
 21
485.3758555133
 31
0.0
  0
LINE
  5
110
330
1F
100
AcDbEntity
  8
0
  6
Continuous
 62
     7
370
    25
100
AcDbLine
 10
118.4396958175
 20
487.3658555133
 30
0.0
 11
118.4396958175
 21
485.3758555133
 31
0.0
  0
LINE
  5
111
330
1F
100
AcDbEntity
  8
0
  6
Continuous
 62
     7
370
    25
100
AcDbLine
 10
162.4396958175
 20
485.3758555133
 30
0.0
 11
162.4396958175
 21
487.3658555133
 31
0.0
  0
ARC
  5
112
330
1F
100
AcDbEntity
  8
0
  6
Continuous
 62
     7
370
    25
100
AcDbCircle
 10
140.4398184824
 20
487.4393214184
 30
0.0
 40
22.00000000000001
100
AcDbArc
 50
165.4511058388
 51
180.1888959576
  0
ARC
  5
113
330
1F
100
AcDbEntity
  8
0
  6
Continuous
 62
     7
370
    25
100
AcDbCircle
 10
140.4398184824
 20
487.4393214184
 30
0.0
 40
22.0
100
AcDbArc
 50
0.0
 51
14.5488941612
  0
SPLINE
  5
114
330
1F
100
AcDbEntity
  8
0
  6
Continuous
 62
     7
370
    25
100
AcDbSpline
210
0.0
220
0.0
230
1.0
 70
     8
 71
     3
 72
    14
 73
    10
 74
     0
 42
0.000000001
 43
0.00000001
 40
0.0
 40
0.0
 40
0.0
 40
0.0
 40
0.125
 40
0.125
 40
0.2500000000000001
 40
0.2500000000000001
 40
0.5000000000000001
 40
0.5000000000000001
 40
1.0
 40
1.0
 40
1.0
 40
1.0
 10
130.8147573028174
 20
461.3537728131017
 30
0.0
 10
131.2158191166848
 20
461.3538455856595
 30
0.0
 10
131.616879904105
 20
461.3537720858253
 30
0.0
 10
132.4190023249261
 20
461.3537456414242
 30
0.0
 10
132.8200637621144
 20
461.3537647358939
 30
0.0
 10
134.0232479210148
 20
461.3538002639747
 30
0.0
 10
134.8253705761875
 20
461.353807215515
 30
0.0
 10
137.2317383779511
 20
461.3538047345488
 30
0.0
 10
138.8359833433995
 20
461.3537694885921
 30
0.0
 10
140.4402285564097
 20
461.3537695210707
 30
0.0
  0
SPLINE
  5
115
330
1F
100
AcDbEntity
  8
0
  6
Continuous
 62
     7
370
    25
100
AcDbSpline
210
0.0
220
0.0
230
1.0
 70
     8
 71
     3
 72
    14
 73
    10
 74
     0
 42
0.000000001
 43
0.00000001
 40
0.0
 40
0.0
 40
0.0
 40
0.0
 40
0.5
 40
0.5
 40
0.7500000000000001
 40
0.7500000000000001
 40
0.875
 40
0.875
 40
1.0
 40
1.0
 40
1.0
 40
1.0
 10
140.4402285564097
 20
461.3537695210491
 30
0.0
 10
142.0441957387803
 20
461.3537694885762
 30
0.0
 10
143.6481626653018
 20
461.3538047381836
 30
0.0
 10
146.0541134205506
 20
461.3538072140551
 30
0.0
 10
146.8560970620261
 20
461.35380026268
 30
0.0
 10
148.0590727061867
 20
461.3537647447643
 30
0.0
 10
148.4600646401738
 20
461.3537456518234
 30
0.0
 10
149.262048039818
 20
461.353772049456
 30
0.0
 10
149.6630393025608
 20
461.3538455223421
 30
0.0
 10
150.0640316245558
 20
461.3537729223426
 30
0.0
  0
SPLINE
  5
116
330
1F
100
AcDbEntity
  8
0
  6
Continuous
 62
     7
370
    25
100
AcDbSpline
210
0.0
220
0.0
230
1.0
 70
     8
 71
     3
 72
    20
 73
    16
 74
     0
 42
0.000000001
 43
0.00000001
 40
0.0
 40
0.0
 40
0.0
 40
0.0
 40
0.0383962759307793
 40
0.08015236194295
 40
0.125331903528256
 40
0.1759760548568939
 40
0.2505690708302162
 40
0.3747115360437653
 40
0.4996697678981514
 40
0.6242401664474505
 40
0.7494544882660693
 40
0.8139138864550427
 40
0.8749344973877631
 40
0.9382911477052105
 40
1.0
 40
1.0
 40
1.0
 40
1.0
 10
156.3026255621116
 20
479.3338250101806
 30
0.0
 10
156.3361017669421
 20
479.3314844929201
 30
0.0
 10
156.4059834630442
 20
479.3265986548525
 30
0.0
 10
156.5142346390079
 20
479.3116644213305
 30
0.0
 10
156.6319401707469
 20
479.2888771533985
 30
0.0
 10
156.7755241466918
 20
479.2512847822627
 30
0.0
 10
156.9815114504459
 20
479.1785821225554
 30
0.0
 10
157.2374077170125
 20
479.0478584699146
 30
0.0
 10
157.5106754613657
 20
478.8432081865549
 30
0.0
 10
157.7546010847209
 20
478.5818555453546
 30
0.0
 10
157.9244115847566
 20
478.3130974876034
 30
0.0
 10
158.0299699315549
 20
478.0704584284103
 30
0.0
 10
158.0915018196826
 20
477.8748338526873
 30
0.0
 10
158.1341531318217
 20
477.671918531958
 30
0.0
 10
158.1439862355888
 20
477.5308843740016
 30
0.0
 10
158.1488380095416
 20
477.461296391384
 30
0.0
  0
SPLINE
  5
117
330
1F
100
AcDbEntity
  8
0
  6
Continuous
 62
     7
370
    25
100
AcDbSpline
210
0.0
220
0.0
230
1.0
 70
     8
 71
     3
 72
    14
 73
    10
 74
     0
 42
0.000000001
 43
0.00000001
 40
0.0
 40
0.0
 40
0.0
 40
0.0
 40
0.0090470856281231
 40
0.1978739242464567
 40
0.3857658573329188
 40
0.574639534625721
 40
0.7624901492785795
 40
0.9514169509658285
 40
1.0
 40
1.0
 40
1.0
 40
1.0
 10
127.9342357253852
 20
479.4987385153592
 30
0.0
 10
127.9906982967953
 20
479.5015271904441
 30
0.0
 10
129.2256231153736
 20
479.5625198797094
 30
0.0
 10
131.9924029289078
 20
479.6562253871541
 30
0.0
 10
136.1272918123905
 20
479.7534931422905
 30
0.0
 10
140.4349547690724
 20
479.7868043233105
 30
0.0
 10
144.7146944175701
 20
479.7513271793845
 30
0.0
 10
147.9059382392947
 20
479.6873159918048
 30
0.0
 10
149.5346132972588
 20
479.6258116259928
 30
0.0
 10
149.8677615854728
 20
479.6132308020354
 30
0.0
  0
SPLINE
  5
118
330
1F
100
AcDbEntity
  8
0
  6
Continuous
 62
     7
370
    25
100
AcDbSpline
210
0.0
220
0.0
230
1.0
 70
     8
 71
     3
 72
    19
 73
    15
 74
     0
 42
0.000000001
 43
0.00000001
 40
0.0
 40
0.0
 40
0.0
 40
0.0
 40
0.0690757110937336
 40
0.1400457559355383
 40
0.2132588495169252
 40
0.2890709337848353
 40
0.3679204354034413
 40
0.4504033010741381
 40
0.5102524143181554
 40
0.5205229625704257
 40
0.6108602213448228
 40
0.7074756245717412
 40
0.8437828720527726
 40
0.9999999999999999
 40
0.9999999999999999
 40
0.9999999999999999
 40
0.9999999999999999
 10
127.3635997035556
 20
460.5464458980846
 30
0.0
 10
127.2862807698786
 20
460.5461763380929
 30
0.0
 10
127.1295225064678
 20
460.5456298256909
 30
0.0
 10
126.8977560702598
 20
460.5446613408417
 30
0.0
 10
126.6647508543857
 20
460.5436064551386
 30
0.0
 10
126.43096091872
 20
460.5424520095231
 30
0.0
 10
126.1962544667328
 20
460.5411599296527
 30
0.0
 10
125.9862340374628
 20
460.5398553748518
 30
0.0
 10
125.8469411430968
 20
460.5389178872849
 30
0.0
 10
125.7035126921898
 20
460.5379200400846
 30
0.0
 10
125.5325325418095
 20
460.5366755188515
 30
0.0
 10
125.2703351454407
 20
460.5345043919988
 30
0.0
 10
124.9792021466231
 20
460.5315532445962
 30
0.0
 10
124.7963924748393
 20
460.5293541298885
 30
0.0
 10
124.6987664160016
 20
460.5281797341371
 30
0.0
  0
ELLIPSE
  5
119
330
1F
100
AcDbEntity
  8
0
  6
Continuous
 62
     7
370
    25
100
AcDbEllipse
 10
140.4396958175
 20
461.264218539
 30
0.0
 11
12.0
 21
0.0
 31
0.0
210
0.0
220
0.0
230
1.0
 40
0.0070431304
 41
1.570796326794897
 42
3.141592653589776
  0
ELLIPSE
  5
11A
330
1F
100
AcDbEntity
  8
0
  6
Continuous
 62
     7
370
    25
100
AcDbEllipse
 10
140.4396958175
 20
461.264218539
 30
0.0
 11
12.0
 21
0.0
 31
0.0
210
0.0
220
0.0
230
1.0
 40
0.0070431304
 41
0.0
 42
1.570796326794911
  0
ARC
  5
11B
330
1F
100
AcDbEntity
  8
0
  6
Continuous
 62
     7
370
    25
100
AcDbCircle
 10
140.4396958175
 20
402.848923976
 30
0.0
 40
55.60740862868484
100
AcDbArc
 50
78.5907633095
 51
101.4092366905
  0
SPLINE
  5
11C
330
1F
100
AcDbEntity
  8
0
  6
Continuous
 62
     7
370
    25
100
AcDbSpline
210
0.0
220
0.0
230
1.0
 70
    24
 71
     3
 72
    10
 73
     6
 74
     0
 42
0.000000001
 43
0.00000001
 40
0.0
 40
0.0
 40
0.0
 40
0.0
 40
0.5
 40
0.5
 40
1.0
 40
1.0
 40
1.0
 40
1.0
 10
151.4396958174905
 20
456.1183088602601
 30
0.0
 10
151.4396958174905
 20
456.2306737219494
 30
0.0
 10
151.4396958174905
 20
456.3968035342292
 30
0.0
 10
151.4396958174905
 20
456.816798207508
 30
0.0
 10
151.4396958174905
 20
457.0704385092667
 30
0.0
 10
151.4396958174905
 20
457.3574911410993
 30
0.0
  0
LWPOLYLINE
  5
11D
330
1F
100
AcDbEntity
  8
0
  6
Continuous
 62
     7
370
    25
100
AcDbPolyline
 90
       20
 70
   128
 43
0.0
 10
151.4396958175
 20
456.1183088603
 10
151.2896701549
 20
456.3702873951
 10
150.8436854762
 20
456.6153926124
 10
150.1139070808
 20
456.8469386807
 10
149.1202414209
 20
457.0586096269
 10
147.8897931054
 20
457.2446316193
 10
146.4561255568
 20
457.3999304631
 10
144.8583454887
 20
457.5202700104
 10
143.140036176
 20
457.6023677122
 10
141.3480686177
 20
457.6439841571
 10
139.5313230173
 20
457.6439841571
 10
137.7393554589
 20
457.6023677122
 10
136.0210461463
 20
457.5202700104
 10
134.4232660781
 20
457.3999304631
 10
132.9895985296
 20
457.2446316193
 10
131.7591502141
 20
457.0586096269
 10
130.7654845542
 20
456.8469386807
 10
130.0357061588
 20
456.6153926124
 10
129.5897214801
 20
456.3702873951
 10
129.4396958175
 20
456.1183088603
  0
SPLINE
  5
11E
330
1F
100
AcDbEntity
  8
0
  6
Continuous
 62
     7
370
    25
100
AcDbSpline
210
0.0
220
0.0
230
1.0
 70
    24
 71
     3
 72
    10
 73
     6
 74
     0
 42
0.000000001
 43
0.00000001
 40
0.0
 40
0.0
 40
0.0
 40
0.0
 40
0.5
 40
0.5
 40
1.0
 40
1.0
 40
1.0
 40
1.0
 10
129.4396958174905
 20
456.1183088602601
 30
0.0
 10
129.4396958174905
 20
456.2306737219494
 30
0.0
 10
129.4396958174905
 20
456.3968035342292
 30
0.0
 10
129.4396958174905
 20
456.816798207508
 30
0.0
 10
129.4396958174905
 20
457.0704385092667
 30
0.0
 10
129.4396958174905
 20
457.3574911410993
 30
0.0
  0
LINE
  5
11F
330
1F
100
AcDbEntity
  8
0
  6
Continuous
 62
     7
370
    25
100
AcDbLine
 10
151.4396958175
 20
457.3574911411
 30
0.0
 11
151.4396958175
 21
460.74683188
 31
0.0
  0
LINE
  5
120
330
1F
100
AcDbEntity
  8
0
  6
Continuous
 62
     7
370
    25
100
AcDbLine
 10
129.4396958175
 20
457.3574911411
 30
0.0
 11
129.4396958175
 21
460.74683188
 31
0.0
  0
LWPOLYLINE
  5
121
330
1F
100
AcDbEntity
  8
0
  6
Continuous
 62
     7
370
    25
100
AcDbPolyline
 90
        9
 70
   128
 43
0.0
 10
129.4396958175
 20
459.4119303904
 10
129.0056807474
 20
459.5725292219
 10
128.692355693
 20
459.738478052
 10
128.5030279095
 20
459.9080252329
 10
128.4396958175
 20
460.0793811352
 10
128.5030279095
 20
460.2507370375
 10
128.692355693
 20
460.4202842185
 10
129.0056807474
 20
460.5862330486
 10
129.4396958175
 20
460.74683188
  0
LWPOLYLINE
  5
122
330
1F
100
AcDbEntity
  8
0
  6
Continuous
 62
     7
370
    25
100
AcDbPolyline
 90
        9
 70
   128
 43
0.0
 10
151.4396958175
 20
460.74683188
 10
151.8737108876
 20
460.5862330486
 10
152.187035942
 20
460.4202842185
 10
152.3763637255
 20
460.2507370375
 10
152.4396958175
 20
460.0793811352
 10
152.3763637255
 20
459.9080252329
 10
152.187035942
 20
459.738478052
 10
151.8737108876
 20
459.5725292219
 10
151.4396958175
 20
459.4119303904
  0
LWPOLYLINE
  5
123
330
1F
100
AcDbEntity
  8
0
  6
Continuous
 62
     7
370
    25
100
AcDbPolyline
 90
       20
 70
   128
 43
0.0
 10
129.4396958175
 20
456.1183088603
 10
129.5897214801
 20
455.8663303254
 10
130.0357061588
 20
455.6212251082
 10
130.7654845542
 20
455.3896790398
 10
131.7591502141
 20
455.1780080936
 10
132.9895985296
 20
454.9919861012
 10
134.4232660781
 20
454.8366872575
 10
136.0210461463
 20
454.7163477101
 10
137.7393554589
 20
454.6342500084
 10
139.5313230173
 20
454.5926335634
 10
141.3480686177
 20
454.5926335634
 10
143.140036176
 20
454.6342500084
 10
144.8583454887
 20
454.7163477101
 10
146.4561255568
 20
454.8366872575
 10
147.8897931054
 20
454.9919861012
 10
149.1202414209
 20
455.1780080936
 10
150.1139070808
 20
455.3896790398
 10
150.8436854762
 20
455.6212251082
 10
151.2896701549
 20
455.8663303254
 10
151.4396958175
 20
456.1183088603
  0
LINE
  5
124
330
1F
100
AcDbEntity
  8
0
  6
Continuous
 62
     7
370
    25
100
AcDbLine
 10
130.4396958175
 20
517.9658555133
 30
0.0
 11
130.4396958175
 21
521.9658555133
 31
0.0
  0
LINE
  5
125
330
1F
100
AcDbEntity
  8
0
  6
Continuous
 62
     7
370
    25
100
AcDbLine
 10
145.4396958175
 20
516.9658555133
 30
0.0
 11
135.4396958175
 21
516.9658555133
 31
0.0
  0
LINE
  5
126
330
1F
100
AcDbEntity
  8
0
  6
Continuous
 62
     7
370
    25
100
AcDbLine
 10
131.4396958175
 20
522.9658555133
 30
0.0
 11
135.4396958175
 21
522.9658555133
 31
0.0
  0
ARC
  5
127
330
1F
100
AcDbEntity
  8
0
  6
Continuous
 62
     7
370
    25
100
AcDbCircle
 10
131.4396958175
 20
521.9658555133
 30
0.0
 40
1.0
100
AcDbArc
 50
90.0
 51
180.0
  0
LINE
  5
128
330
1F
100
AcDbEntity
  8
0
  6
Continuous
 62
     7
370
    25
100
AcDbLine
 10
135.4396958175
 20
522.9658555133
 30
0.0
 11
145.4396958175
 21
522.9658555133
 31
0.0
  0
LINE
  5
129
330
1F
100
AcDbEntity
  8
0
  6
Continuous
 62
     7
370
    25
100
AcDbLine
 10
135.4396958175
 20
516.9658555133
 30
0.0
 11
131.4396958175
 21
516.9658555133
 31
0.0
  0
ARC
  5
12A
330
1F
100
AcDbEntity
  8
0
  6
Continuous
 62
     7
370
    25
100
AcDbCircle
 10
131.4396958175
 20
517.9658555133
 30
0.0
 40
1.0
100
AcDbArc
 50
180.0
 51
270.0
  0
LINE
  5
12B
330
1F
100
AcDbEntity
  8
0
  6
Continuous
 62
     7
370
    25
100
AcDbLine
 10
150.4396958175
 20
521.9658555133
 30
0.0
 11
150.4396958175
 21
517.9658555133
 31
0.0
  0
ARC
  5
12C
330
1F
100
AcDbEntity
  8
0
  6
Continuous
 62
     7
370
    25
100
AcDbCircle
 10
149.4396958175
 20
517.9658555133
 30
0.0
 40
1.0
100
AcDbArc
 50
270.0
 51
0.0
  0
LINE
  5
12D
330
1F
100
AcDbEntity
  8
0
  6
Continuous
 62
     7
370
    25
100
AcDbLine
 10
149.4396958175
 20
516.9658555133
 30
0.0
 11
145.4396958175
 21
516.9658555133
 31
0.0
  0
LINE
  5
12E
330
1F
100
AcDbEntity
  8
0
  6
Continuous
 62
     7
370
    25
100
AcDbLine
 10
145.4396958175
 20
522.9658555133
 30
0.0
 11
149.4396958175
 21
522.9658555133
 31
0.0
  0
ARC
  5
12F
330
1F
100
AcDbEntity
  8
0
  6
Continuous
 62
     7
370
    25
100
AcDbCircle
 10
149.4396958175
 20
521.9658555133
 30
0.0
 40
1.0
100
AcDbArc
 50
0.0
 51
90.0
  0
SPLINE
  5
130
330
1F
100
AcDbEntity
  8
0
  6
Continuous
 62
     7
370
    25
100
AcDbSpline
210
0.0
220
0.0
230
1.0
 70
     8
 71
     3
 72
    82
 73
    78
 74
     0
 42
0.000000001
 43
0.00000001
 40
0.0
 40
0.0
 40
0.0
 40
0.0
 40
0.0078125
 40
0.0078125
 40
0.0156250000000001
 40
0.0156250000000001
 40
0.03125
 40
0.03125
 40
0.0468749999999999
 40
0.0468749999999999
 40
0.0624999999999998
 40
0.0624999999999998
 40
0.0937499999999996
 40
0.0937499999999996
 40
0.1249999999999994
 40
0.1249999999999994
 40
0.1562499999999993
 40
0.1562499999999993
 40
0.1874999999999991
 40
0.1874999999999991
 40
0.2031249999999991
 40
0.2031249999999991
 40
0.2187499999999991
 40
0.2187499999999991
 40
0.2343749999999991
 40
0.2343749999999991
 40
0.2499999999999991
 40
0.2499999999999991
 40
0.2812499999999991
 40
0.2812499999999991
 40
0.3124999999999992
 40
0.3124999999999992
 40
0.3749999999999994
 40
0.3749999999999994
 40
0.4062499999999995
 40
0.4062499999999995
 40
0.4374999999999996
 40
0.4374999999999996
 40
0.4999999999999999
 40
0.4999999999999999
 40
0.5312500000000001
 40
0.5312500000000001
 40
0.5625000000000002
 40
0.5625000000000002
 40
0.6250000000000004
 40
0.6250000000000004
 40
0.6875000000000008
 40
0.6875000000000008
 40
0.7187500000000009
 40
0.7187500000000009
 40
0.750000000000001
 40
0.750000000000001
 40
0.765625000000001
 40
0.765625000000001
 40
0.7812500000000009
 40
0.7812500000000009
 40
0.7968750000000009
 40
0.7968750000000009
 40
0.8125000000000008
 40
0.8125000000000008
 40
0.8437500000000008
 40
0.8437500000000008
 40
0.8593750000000008
 40
0.8593750000000008
 40
0.8750000000000007
 40
0.8750000000000007
 40
0.9375000000000003
 40
0.9375000000000003
 40
0.9531250000000002
 40
0.9531250000000002
 40
0.9687500000000002
 40
0.9687500000000002
 40
0.9843750000000001
 40
0.9843750000000001
 40
0.9921875000000001
 40
0.9921875000000001
 40
1.0
 40
1.0
 40
1.0
 40
1.0
 10
121.0163884117797
 20
461.7711177847704
 30
0.0
 10
121.0219767435222
 20
461.6253956038342
 30
0.0
 10
121.0374568176391
 20
461.4840576928526
 30
0.0
 10
121.0769060832345
 20
461.2050456362271
 30
0.0
 10
121.1009235968256
 20
461.0670047398317
 30
0.0
 10
121.1780028418366
 20
460.6587640664457
 30
0.0
 10
121.2363323783298
 20
460.393287469285
 30
0.0
 10
121.3643792118901
 20
459.8722921283344
 30
0.0
 10
121.4332142068837
 20
459.6158939884062
 30
0.0
 10
121.5837207301969
 20
459.113777506937
 30
0.0
 10
121.6654958365147
 20
458.8681409272476
 30
0.0
 10
121.9284849959175
 20
458.1443160627699
 30
0.0
 10
122.1297522467859
 20
457.6779074445402
 30
0.0
 10
122.5819414240044
 20
456.8125594024168
 30
0.0
 10
122.8332505230088
 20
456.4101876821063
 30
0.0
 10
123.3912125591041
 20
455.662112620861
 30
0.0
 10
123.7002380642474
 20
455.3146034433151
 30
0.0
 10
124.3620846178836
 20
454.6867656661478
 30
0.0
 10
124.7153794380999
 20
454.4042549595873
 30
0.0
 10
125.2796134921702
 20
454.0211573414196
 30
0.0
 10
125.4734256749229
 20
453.9003001477497
 30
0.0
 10
125.8733793863349
 20
453.6730002193023
 30
0.0
 10
126.0804117477959
 20
453.5660783076644
 30
0.0
 10
126.5040076655048
 20
453.3723777862775
 30
0.0
 10
126.7201997264553
 20
453.2863641810405
 30
0.0
 10
127.1621113324765
 20
453.1392925741395
 30
0.0
 10
127.387650160029
 20
453.0770322800869
 30
0.0
 10
128.0768625316042
 20
452.9147263420544
 30
0.0
 10
128.5530333517137
 20
452.8384826519082
 30
0.0
 10
129.535373876095
 20
452.7210036117259
 30
0.0
 10
130.0429749910423
 20
452.6801269556485
 30
0.0
 10
131.5817589783345
 20
452.5961235671688
 30
0.0
 10
132.6374405686369
 20
452.5939526385322
 30
0.0
 10
134.2633316185663
 20
452.5829923723405
 30
0.0
 10
134.8123823231842
 20
452.5780784014864
 30
0.0
 10
135.9249343827449
 20
452.5676232877809
 30
0.0
 10
136.4907211228812
 20
452.5633153312592
 30
0.0
 10
138.186805692772
 20
452.5493150653716
 30
0.0
 10
139.3190809187636
 20
452.5395083425131
 30
0.0
 10
141.0197655665815
 20
452.5412807997483
 30
0.0
 10
141.5870406961757
 20
452.5444013422496
 30
0.0
 10
142.7223607312435
 20
452.5533499080559
 30
0.0
 10
143.291531194379
 20
452.5589606910721
 30
0.0
 10
144.9929727647105
 20
452.5744054355388
 30
0.0
 10
146.0991502961966
 20
452.5865021071423
 30
0.0
 10
148.2580082915122
 20
452.5959288386098
 30
0.0
 10
149.3106206055223
 20
452.5953562816621
 30
0.0
 10
150.84668325496
 20
452.6798381908263
 30
0.0
 10
151.3541160642524
 20
452.7212996725145
 30
0.0
 10
152.3369733017024
 20
452.8404313114378
 30
0.0
 10
152.8131551399777
 20
452.9176976801036
 30
0.0
 10
153.5019630602742
 20
453.081707434406
 30
0.0
 10
153.7272962829133
 20
453.144562780572
 30
0.0
 10
154.1686438530564
 20
453.2928002209447
 30
0.0
 10
154.3844746465772
 20
453.379361869341
 30
0.0
 10
154.8072820493578
 20
453.5736937771936
 30
0.0
 10
155.0142888115513
 20
453.6809861886251
 30
0.0
 10
155.4138045734238
 20
453.9087295680071
 30
0.0
 10
155.6072730781441
 20
454.0296779852637
 30
0.0
 10
156.1701671309861
 20
454.4126604815872
 30
0.0
 10
156.5221574432399
 20
454.6945878272724
 30
0.0
 10
157.0161369862442
 20
455.1634830231982
 30
0.0
 10
157.1750911448074
 20
455.327549516875
 30
0.0
 10
157.4815962040217
 20
455.6727195818312
 30
0.0
 10
157.6294239063819
 20
455.8543271955259
 30
0.0
 10
158.3286012365801
 20
456.7921269162357
 30
0.0
 10
158.769529347941
 20
457.6497150632631
 30
0.0
 10
159.2089098119636
 20
458.8567045549663
 30
0.0
 10
159.29168889409
 20
459.105057688272
 30
0.0
 10
159.4440717020162
 20
459.6114394790662
 30
0.0
 10
159.5139849182611
 20
459.8696151563404
 30
0.0
 10
159.6433747920974
 20
460.3946366927785
 30
0.0
 10
159.7020365055647
 20
460.6615660408823
 30
0.0
 10
159.7789369519902
 20
461.0694001538615
 30
0.0
 10
159.8028105416334
 20
461.2070450281103
 30
0.0
 10
159.8420506619908
 20
461.4855830468722
 30
0.0
 10
159.8574064663401
 20
461.6265342704234
 30
0.0
 10
159.862978390976
 20
461.7714477117599
 30
0.0
  0
SPLINE
  5
131
330
1F
100
AcDbEntity
  8
0
  6
Continuous
 62
     7
370
    25
100
AcDbSpline
210
0.0
220
0.0
230
1.0
 70
     8
 71
     3
 72
    78
 73
    74
 74
     0
 42
0.000000001
 43
0.00000001
 40
0.0
 40
0.0
 40
0.0
 40
0.0
 40
0.0078125
 40
0.0078125
 40
0.0156249999999999
 40
0.0156249999999999
 40
0.0312499999999999
 40
0.0312499999999999
 40
0.0468749999999998
 40
0.0468749999999998
 40
0.0624999999999998
 40
0.0624999999999998
 40
0.0781249999999997
 40
0.0781249999999997
 40
0.0937499999999997
 40
0.0937499999999997
 40
0.1249999999999997
 40
0.1249999999999997
 40
0.1562499999999996
 40
0.1562499999999996
 40
0.1874999999999996
 40
0.1874999999999996
 40
0.2499999999999996
 40
0.2499999999999996
 40
0.2812499999999996
 40
0.2812499999999996
 40
0.3124999999999996
 40
0.3124999999999996
 40
0.3437499999999996
 40
0.3437499999999996
 40
0.3749999999999997
 40
0.3749999999999997
 40
0.4374999999999996
 40
0.4374999999999996
 40
0.4999999999999996
 40
0.4999999999999996
 40
0.5312499999999994
 40
0.5312499999999994
 40
0.5624999999999993
 40
0.5624999999999993
 40
0.6249999999999993
 40
0.6249999999999993
 40
0.6562499999999993
 40
0.6562499999999993
 40
0.6874999999999994
 40
0.6874999999999994
 40
0.7187499999999997
 40
0.7187499999999997
 40
0.7499999999999998
 40
0.7499999999999998
 40
0.7812499999999999
 40
0.7812499999999999
 40
0.8125
 40
0.8125
 40
0.8437500000000002
 40
0.8437500000000002
 40
0.8750000000000001
 40
0.8750000000000001
 40
0.90625
 40
0.90625
 40
0.921875
 40
0.921875
 40
0.9375
 40
0.9375
 40
0.9531250000000001
 40
0.9531250000000001
 40
0.9687500000000001
 40
0.9687500000000001
 40
0.9843750000000001
 40
0.9843750000000001
 40
0.9921875
 40
0.9921875
 40
1.0
 40
1.0
 40
1.0
 40
1.0
 10
159.8590636396613
 20
478.0867167757031
 30
0.0
 10
159.8534632307465
 20
478.2226967057408
 30
0.0
 10
159.8419179836154
 20
478.3584841268056
 30
0.0
 10
159.8119731718505
 20
478.6237265293318
 30
0.0
 10
159.7935096903297
 20
478.7543060382451
 30
0.0
 10
159.7303016077034
 20
479.141613210638
 30
0.0
 10
159.6772075773762
 20
479.3955326959618
 30
0.0
 10
159.5490855732291
 20
479.88175605044
 30
0.0
 10
159.4744053067427
 20
480.1128328332616
 30
0.0
 10
159.3024599333622
 20
480.5513902312144
 30
0.0
 10
159.2043494154272
 20
480.760107478844
 30
0.0
 10
158.9900445384839
 20
481.1457354189374
 30
0.0
 10
158.8739678467105
 20
481.3240872454556
 30
0.0
 10
158.6240852503088
 20
481.655246263582
 30
0.0
 10
158.4892473925834
 20
481.8086491456463
 30
0.0
 10
158.0642493335818
 20
482.2241810775541
 30
0.0
 10
157.7541365411778
 20
482.44185907196
 30
0.0
 10
157.0850952063372
 20
482.79896614967
 30
0.0
 10
156.7254065038663
 20
482.9395910944293
 30
0.0
 10
155.977201057508
 20
483.1735775448678
 30
0.0
 10
155.5870091134536
 20
483.2681704528578
 30
0.0
 10
154.3702401987642
 20
483.5104271473292
 30
0.0
 10
153.5129423318748
 20
483.606828790065
 30
0.0
 10
152.1650997595171
 20
483.6820644272508
 30
0.0
 10
151.7051258173354
 20
483.6942201813284
 30
0.0
 10
150.7646385021274
 20
483.7141270288562
 30
0.0
 10
150.2842617077934
 20
483.7244348204034
 30
0.0
 10
149.3029113098716
 20
483.7474707178403
 30
0.0
 10
148.8030210997573
 20
483.7594278439345
 30
0.0
 10
147.7921902789155
 20
483.7845304937543
 30
0.0
 10
147.2802043155748
 20
483.7980262054395
 30
0.0
 10
145.7243553317354
 20
483.8386160947309
 30
0.0
 10
144.6777483355138
 20
483.8639990859899
 30
0.0
 10
142.567276647713
 20
483.8906854407892
 30
0.0
 10
141.5032778495123
 20
483.8948165282966
 30
0.0
 10
139.8938939923466
 20
483.8890182046764
 30
0.0
 10
139.3533876010489
 20
483.885100956443
 30
0.0
 10
138.2775616640045
 20
483.8772031032441
 30
0.0
 10
137.742925906311
 20
483.8730603662717
 30
0.0
 10
136.1487908414829
 20
483.855314163187
 30
0.0
 10
135.0990827062563
 20
483.8316767035363
 30
0.0
 10
133.544283874813
 20
483.7908100533065
 30
0.0
 10
133.0346502737154
 20
483.7776340169622
 30
0.0
 10
132.0320639214848
 20
483.7557503959151
 30
0.0
 10
131.5391124829065
 20
483.7470756111059
 30
0.0
 10
130.569817045394
 20
483.7293795245685
 30
0.0
 10
130.0934985232985
 20
483.7194387113893
 30
0.0
 10
129.1576514813559
 20
483.6933194847347
 30
0.0
 10
128.6981043500078
 20
483.6779032733734
 30
0.0
 10
127.7964578722118
 20
483.6253813961037
 30
0.0
 10
127.3528518606959
 20
483.5878032733225
 30
0.0
 10
126.491793467984
 20
483.4862868625069
 30
0.0
 10
126.0750341602728
 20
483.421900391007
 30
0.0
 10
125.268979242019
 20
483.2606274215826
 30
0.0
 10
124.8785702177683
 20
483.1659638070345
 30
0.0
 10
124.1312282641947
 20
482.9321681530388
 30
0.0
 10
123.7733367470944
 20
482.7922771008028
 30
0.0
 10
123.1070582261758
 20
482.4366035290959
 30
0.0
 10
122.797800767218
 20
482.2196367305419
 30
0.0
 10
122.3735218078986
 20
481.8037319680732
 30
0.0
 10
122.2398825732486
 20
481.6510980335897
 30
0.0
 10
121.9918197904731
 20
481.3212473309842
 30
0.0
 10
121.8765971155926
 20
481.1435767773048
 30
0.0
 10
121.665001940385
 20
480.7569738920409
 30
0.0
 10
121.5681225697046
 20
480.5464652310328
 30
0.0
 10
121.3991935272626
 20
480.1068261468936
 30
0.0
 10
121.3262473655815
 20
479.8764200311314
 30
0.0
 10
121.2012477260123
 20
479.3948812734182
 30
0.0
 10
121.148850190175
 20
479.1424808425778
 30
0.0
 10
121.0857317412765
 20
478.7533387681107
 30
0.0
 10
121.0673037130219
 20
478.6224199554063
 30
0.0
 10
121.037438283776
 20
478.357254974853
 30
0.0
 10
121.0259447250149
 20
478.2220657356229
 30
0.0
 10
121.0203648407913
 20
478.086641595002
 30
0.0
  0
CIRCLE
  5
132
330
1F
100
AcDbEntity
  8
0
  6
Continuous
 62
     7
370
    25
100
AcDbCircle
 10
140.4396958175
 20
504.4658555133
 30
0.0
 40
3.569682227408578
  0
CIRCLE
  5
133
330
1F
100
AcDbEntity
  8
0
  6
Continuous
 62
     7
370
    25
100
AcDbCircle
 10
140.4396958175
 20
504.4658555133
 30
0.0
 40
3.999999999999972
  0
SPLINE
  5
134
330
1F
100
AcDbEntity
  8
0
  6
Continuous
 62
     7
370
    25
100
AcDbSpline
210
0.0
220
0.0
230
1.0
 70
     8
 71
     3
 72
    11
 73
     7
 74
     0
 42
0.000000001
 43
0.00000001
 40
0.0
 40
0.0
 40
0.0
 40
0.0
 40
0.2153311003508382
 40
0.6273717691483103
 40
0.8135429379980683
 40
1.0
 40
1.0
 40
1.0
 40
1.0
 10
117.4571734761386
 20
493.1657120514992
 30
0.0
 10
117.4540704515679
 20
493.1366000107433
 30
0.0
 10
117.4450297230739
 20
493.0517814569774
 30
0.0
 10
117.5573018507583
 20
492.9991355323056
 30
0.0
 10
117.7113546566462
 20
492.9694829482974
 30
0.0
 10
117.8101063790971
 20
492.9670652766112
 30
0.0
 10
117.8595201231758
 20
492.9658555133078
 30
0.0
  0
SPLINE
  5
135
330
1F
100
AcDbEntity
  8
0
  6
Continuous
 62
     7
370
    25
100
AcDbSpline
210
0.0
220
0.0
230
1.0
 70
     8
 71
     3
 72
     9
 73
     5
 74
     0
 42
0.000000001
 43
0.00000001
 40
0.0
 40
0.0
 40
0.0
 40
0.0
 40
0.7976652510939333
 40
1.0
 40
1.0
 40
1.0
 40
1.0
 10
163.0198715118052
 20
492.9658555133078
 30
0.0
 10
163.2260503669248
 20
492.9732870578683
 30
0.0
 10
163.4845282871261
 20
492.9826036785313
 30
0.0
 10
163.4037864974751
 20
493.1482251168079
 30
0.0
 10
163.3874496277398
 20
493.181736088935
 30
0.0
  0
LINE
  5
136
330
1F
100
AcDbEntity
  8
0
  6
Continuous
 62
     7
370
    25
100
AcDbLine
 10
117.8595201232
 20
492.9658555133
 30
0.0
 11
163.0198715118
 21
492.9658555133
 31
0.0
  0
LINE
  5
137
330
1F
100
AcDbEntity
  8
0
  6
Continuous
 62
     7
370
    25
100
AcDbLine
 10
118.9396958175
 20
527.9658555133
 30
0.0
 11
161.9396957518
 21
527.9658555133
 31
0.0
  0
SPLINE
  5
138
330
1F
100
AcDbEntity
  8
0
  6
Continuous
 62
     7
370
    25
100
AcDbSpline
210
0.0
220
0.0
230
1.0
 70
     8
 71
     3
 72
    10
 73
     6
 74
     0
 42
0.000000001
 43
0.00000001
 40
0.0
 40
0.0
 40
0.0
 40
0.0
 40
0.5
 40
0.5
 40
1.0
 40
1.0
 40
1.0
 40
1.0
 10
121.0200602734006
 20
478.0867120087957
 30
0.0
 10
120.9079485827137
 20
475.3727000602605
 30
0.0
 10
120.8537715664425
 20
472.6507648758536
 30
0.0
 10
120.852430057049
 20
467.2060298240207
 30
0.0
 10
120.9052374159215
 20
464.4852641191357
 30
0.0
 10
121.0158803484445
 20
461.7710410680743
 30
0.0
  0
SPLINE
  5
139
330
1F
100
AcDbEntity
  8
0
  6
Continuous
 62
     7
370
    25
100
AcDbSpline
210
0.0
220
0.0
230
1.0
 70
     8
 71
     3
 72
    10
 73
     6
 74
     0
 42
0.000000001
 43
0.00000001
 40
0.0
 40
0.0
 40
0.0
 40
0.0
 40
0.5
 40
0.5
 40
1.0
 40
1.0
 40
1.0
 40
1.0
 10
159.8635234894159
 20
461.7713404202834
 30
0.0
 10
159.9741659732478
 20
464.4855310908812
 30
0.0
 10
160.026980311318
 20
467.2075329901454
 30
0.0
 10
160.0256006056456
 20
472.6521809658416
 30
0.0
 10
159.9714390739331
 20
475.3727935203614
 30
0.0
 10
159.8593297382367
 20
478.0867513068985
 30
0.0
  0
LINE
  5
13A
330
1F
100
AcDbEntity
  8
0
  6
Continuous
 62
     7
370
    25
100
AcDbLine
 10
117.8875197313
 20
485.3758555133
 30
0.0
 11
162.9918719037
 21
485.3758555133
 31
0.0
  0
LINE
  5
13B
330
1F
100
AcDbEntity
  8
0
  6
Continuous
 62
     7
370
    25
100
AcDbLine
 10
117.8875197313
 20
335.8658555133
 30
0.0
 11
162.9918719037
 21
335.8658555133
 31
0.0
  0
SPLINE
  5
13C
330
1F
100
AcDbEntity
  8
0
  6
Continuous
 62
     8
370
    18
100
AcDbSpline
210
0.0
220
0.0
230
1.0
 70
     8
 71
     3
 72
    14
 73
    10
 74
     0
 42
0.000000001
 43
0.00000001
 40
0.0
 40
0.0
 40
0.0
 40
0.0
 40
0.5000000000000001
 40
0.5000000000000001
 40
0.7500000000000002
 40
0.7500000000000002
 40
0.8750000000000001
 40
0.8750000000000001
 40
1.0
 40
1.0
 40
1.0
 40
1.0
 10
140.4391590236778
 20
462.6937322598143
 30
0.0
 10
138.8290333055255
 20
462.6937367234933
 30
0.0
 10
137.2189114662771
 20
462.6937489150712
 30
0.0
 10
134.8037289356952
 20
462.6937976260963
 30
0.0
 10
133.9986686216933
 20
462.6937302936445
 30
0.0
 10
132.7910798506094
 20
462.6935596647673
 30
0.0
 10
132.3885507341364
 20
462.6935001451303
 30
0.0
 10
131.5834878709414
 20
462.6934840112777
 30
0.0
 10
131.1809529849659
 20
462.6935937836416
 30
0.0
 10
130.7784274746922
 20
462.693691950939
 30
0.0
  0
SPLINE
  5
13D
330
1F
100
AcDbEntity
  8
0
  6
Continuous
 62
     8
370
    18
100
AcDbSpline
210
0.0
220
0.0
230
1.0
 70
     8
 71
     3
 72
    36
 73
    32
 74
     0
 42
0.000000001
 43
0.00000001
 40
0.0
 40
0.0
 40
0.0
 40
0.0
 40
0.5000000000000032
 40
0.5000000000000032
 40
0.750000000000005
 40
0.750000000000005
 40
0.8125000000000054
 40
0.8125000000000054
 40
0.8437500000000057
 40
0.8437500000000057
 40
0.8750000000000059
 40
0.8750000000000059
 40
0.8906250000000057
 40
0.8906250000000057
 40
0.8984375000000056
 40
0.8984375000000056
 40
0.9062500000000056
 40
0.9062500000000056
 40
0.9218750000000046
 40
0.9218750000000046
 40
0.9375000000000037
 40
0.9375000000000037
 40
0.9531250000000028
 40
0.9531250000000028
 40
0.9687500000000019
 40
0.9687500000000019
 40
0.984375000000001
 40
0.984375000000001
 40
0.9921875000000006
 40
0.9921875000000006
 40
1.0
 40
1.0
 40
1.0
 40
1.0
 10
122.7269564102369
 20
462.3897038840311
 30
0.0
 10
122.9192063379518
 20
462.3998824517521
 30
0.0
 10
123.1110064801377
 20
462.4131953408151
 30
0.0
 10
123.3951833689096
 20
462.4849011180905
 30
0.0
 10
123.4891046016028
 20
462.5172700132911
 30
0.0
 10
123.6062643233845
 20
462.5743486227299
 30
0.0
 10
123.6298792277462
 20
462.5866451944439
 30
0.0
 10
123.6646467892521
 20
462.6061776995497
 30
0.0
 10
123.6757337846409
 20
462.6128812750224
 30
0.0
 10
123.6948248961769
 20
462.6266902646904
 30
0.0
 10
123.702915032205
 20
462.6337772882834
 30
0.0
 10
123.7248604247653
 20
462.6443707157819
 30
0.0
 10
123.7355537880327
 20
462.6477967562474
 30
0.0
 10
123.7502385918902
 20
462.6532074215074
 30
0.0
 10
123.7545740834626
 20
462.655075960302
 30
0.0
 10
123.7595161465263
 20
462.6591160829886
 30
0.0
 10
123.7589839852528
 20
462.6613805279722
 30
0.0
 10
123.7555973367703
 20
462.6682873743766
 30
0.0
 10
123.7557325267191
 20
462.6713622139038
 30
0.0
 10
123.94302985058
 20
462.6743024392573
 30
0.0
 10
124.1371542997059
 20
462.6759229004456
 30
0.0
 10
124.6965323840072
 20
462.6800426337883
 30
0.0
 10
125.0614803122702
 20
462.6822392447831
 30
0.0
 10
125.9333604161692
 20
462.6861922865422
 30
0.0
 10
126.440729515958
 20
462.6880367393606
 30
0.0
 10
127.5602537728908
 20
462.6908633092006
 30
0.0
 10
128.1710594626111
 20
462.6918592413337
 30
0.0
 10
129.1286595786262
 20
462.6931277592305
 30
0.0
 10
129.4545377115636
 20
462.6934963381249
 30
0.0
 10
130.1123355309951
 20
462.6938124886074
 30
0.0
 10
130.4447067459411
 20
462.6937733388551
 30
0.0
 10
130.7784274746924
 20
462.693691950939
 30
0.0
  0
SPLINE
  5
13E
330
1F
100
AcDbEntity
  8
0
  6
Continuous
 62
     8
370
    25
100
AcDbSpline
210
0.0
220
0.0
230
1.0
 70
     8
 71
     3
 72
     8
 73
     4
 74
     0
 42
0.000000001
 43
0.00000001
 40
0.0945042821237992
 40
0.0945042821237992
 40
0.0945042821237992
 40
0.0945042821237992
 40
0.8991156930500583
 40
0.8991156930500583
 40
0.8991156930500583
 40
0.8991156930500583
 10
122.726944776325
 20
462.3899833555546
 30
0.0
 10
122.5385332381044
 20
467.4152126762973
 30
0.0
 10
122.5397355489687
 20
472.4359352333172
 30
0.0
 10
122.7305511539318
 20
477.461259887215
 30
0.0
  0
SPLINE
  5
13F
330
1F
100
AcDbEntity
  8
0
  6
Continuous
 62
     8
370
    18
100
AcDbSpline
210
0.0
220
0.0
230
1.0
 70
     8
 71
     3
 72
    36
 73
    32
 74
     0
 42
0.000000001
 43
0.00000001
 40
0.0
 40
0.0
 40
0.0
 40
0.0
 40
0.0078125000000004
 40
0.0078125000000004
 40
0.0156250000000009
 40
0.0156250000000009
 40
0.0312500000000018
 40
0.0312500000000018
 40
0.0468750000000026
 40
0.0468750000000026
 40
0.0625000000000033
 40
0.0625000000000033
 40
0.0781250000000041
 40
0.0781250000000041
 40
0.093750000000005
 40
0.093750000000005
 40
0.101562500000005
 40
0.101562500000005
 40
0.1093750000000051
 40
0.1093750000000051
 40
0.1250000000000052
 40
0.1250000000000052
 40
0.1562500000000049
 40
0.1562500000000049
 40
0.1875000000000044
 40
0.1875000000000044
 40
0.250000000000004
 40
0.250000000000004
 40
0.5000000000000026
 40
0.5000000000000026
 40
1.0
 40
1.0
 40
1.0
 40
1.0
 10
150.1002816417374
 20
462.6936917844367
 30
0.0
 10
150.4340056384559
 20
462.6937732226619
 30
0.0
 10
150.7663819686689
 20
462.693812618566
 30
0.0
 10
151.4241927245413
 20
462.6934969976855
 30
0.0
 10
151.7500788702588
 20
462.6931286162034
 30
0.0
 10
152.7077104571133
 20
462.6918604273814
 30
0.0
 10
153.3185462204858
 20
462.6908647153231
 30
0.0
 10
154.438144152909
 20
462.6880386976675
 30
0.0
 10
154.9455576041568
 20
462.6861944514671
 30
0.0
 10
155.8175349014757
 20
462.6822416629557
 30
0.0
 10
156.1825348515755
 20
462.6800451642513
 30
0.0
 10
156.7420250807704
 20
462.6759252710378
 30
0.0
 10
156.9362137088246
 20
462.6743041278294
 30
0.0
 10
157.123629708953
 20
462.6713644157988
 30
0.0
 10
157.1237936672115
 20
462.6682921464064
 30
0.0
 10
157.1204111394288
 20
462.6613855968473
 30
0.0
 10
157.1198733529003
 20
462.6591207352024
 30
0.0
 10
157.1248106618115
 20
462.6550802301243
 30
0.0
 10
157.1291448456308
 20
462.6532115748578
 30
0.0
 10
157.14382816859
 20
462.6478007196055
 30
0.0
 10
157.1545235794908
 20
462.6443747471657
 30
0.0
 10
157.1764723145588
 20
462.6337813695822
 30
0.0
 10
157.1845629063969
 20
462.62669433141
 30
0.0
 10
157.2036534247747
 20
462.6128852682647
 30
0.0
 10
157.2147400917231
 20
462.6061816460835
 30
0.0
 10
157.2495076192522
 20
462.5866490219785
 30
0.0
 10
157.2731227383451
 20
462.5743523532447
 30
0.0
 10
157.3902831218093
 20
462.5172732033719
 30
0.0
 10
157.484204818384
 20
462.4849039491987
 30
0.0
 10
157.7683831588186
 20
462.4131970509915
 30
0.0
 10
157.9601843059619
 20
462.3998833980236
 30
0.0
 10
158.1524352314056
 20
462.3897040633281
 30
0.0
  0
SPLINE
  5
140
330
1F
100
AcDbEntity
  8
0
  6
Continuous
 62
     8
370
    18
100
AcDbSpline
210
0.0
220
0.0
230
1.0
 70
     8
 71
     3
 72
    14
 73
    10
 74
     0
 42
0.000000001
 43
0.00000001
 40
0.0
 40
0.0
 40
0.0
 40
0.0
 40
0.1249999999999998
 40
0.1249999999999998
 40
0.2499999999999996
 40
0.2499999999999996
 40
0.4999999999999997
 40
0.4999999999999997
 40
1.0
 40
1.0
 40
1.0
 40
1.0
 10
150.1002816417374
 20
462.6936917844367
 30
0.0
 10
149.6978548082883
 20
462.6935935815196
 30
0.0
 10
149.2953469654828
 20
462.6934839682953
 30
0.0
 10
148.4903579419326
 20
462.69350020902
 30
0.0
 10
148.0878505608595
 20
462.6935597244196
 30
0.0
 10
146.8803343590228
 20
462.6937303596039
 30
0.0
 10
146.0753225212196
 20
462.6937976290483
 30
0.0
 10
143.6602855504289
 20
462.6937488915149
 30
0.0
 10
142.0502606249136
 20
462.6937367232224
 30
0.0
 10
140.4402326113031
 20
462.6937322598143
 30
0.0
  0
SPLINE
  5
141
330
1F
100
AcDbEntity
  8
0
  6
Continuous
 62
     8
370
    25
100
AcDbSpline
210
0.0
220
0.0
230
1.0
 70
     8
 71
     3
 72
     8
 73
     4
 74
     0
 42
0.000000001
 43
0.00000001
 40
0.0945042821237991
 40
0.0945042821237991
 40
0.0945042821237991
 40
0.0945042821237991
 40
0.8991156930500586
 40
0.8991156930500586
 40
0.8991156930500586
 40
0.8991156930500586
 10
158.1488404810491
 20
477.461259887215
 30
0.0
 10
158.3396560860123
 20
472.4359352333172
 30
0.0
 10
158.3408583968766
 20
467.4152126762973
 30
0.0
 10
158.152446858656
 20
462.3899833555546
 30
0.0
  0
LWPOLYLINE
  5
142
330
1F
100
AcDbEntity
  8
0
  6
Continuous
 62
     8
370
    18
100
AcDbPolyline
 90
        9
 70
   128
 43
0.0
 10
140.4402285564
 20
461.3537695211
 10
140.4402277892
 20
461.380841129
 10
140.4402270496
 20
461.4573864136
 10
140.4402263643
 20
461.5806469858
 10
140.440225758
 20
461.7461810223
 10
140.4402252526
 20
461.9480233315
 10
140.4402248662
 20
462.1789003154
 10
140.4402246128
 20
462.430492081
 10
140.4402245015
 20
462.6937322569
  0
SPLINE
  5
143
330
1F
100
AcDbEntity
  8
0
  6
Continuous
 62
     8
370
    18
100
AcDbSpline
210
0.0
220
0.0
230
1.0
 70
     8
 71
     3
 72
    20
 73
    16
 74
     0
 42
0.000000001
 43
0.00000001
 40
0.0
 40
0.0
 40
0.0
 40
0.0
 40
0.5000000000000007
 40
0.5000000000000007
 40
0.6250000000000009
 40
0.6250000000000009
 40
0.6875000000000007
 40
0.6875000000000007
 40
0.7500000000000006
 40
0.7500000000000006
 40
0.8125000000000004
 40
0.8125000000000004
 40
0.8750000000000002
 40
0.8750000000000002
 40
1.0
 40
1.0
 40
1.0
 40
1.0
 10
140.441091345922
 20
478.5540171969844
 30
0.0
 10
142.484307921157
 20
478.5539755783066
 30
0.0
 10
144.5229602884195
 20
478.5537446200653
 30
0.0
 10
147.0695249025533
 20
478.5474644915384
 30
0.0
 10
147.5751245166405
 20
478.5459314550719
 30
0.0
 10
148.3474614982502
 20
478.5424125731373
 30
0.0
 10
148.6081156924999
 20
478.5409640285599
 30
0.0
 10
149.1351576102524
 20
478.5366995783914
 30
0.0
 10
149.396084120423
 20
478.5337847473243
 30
0.0
 10
149.8848591378182
 20
478.5278478284838
 30
0.0
 10
150.1145875374399
 20
478.5248572318278
 30
0.0
 10
150.5586513084308
 20
478.519338104408
 30
0.0
 10
150.7746918413966
 20
478.5167062693645
 30
0.0
 10
151.3964627980024
 20
478.5091452977582
 30
0.0
 10
151.7825211648021
 20
478.5047158879025
 30
0.0
 10
152.1743465727001
 20
478.4982948662073
 30
0.0
  0
SPLINE
  5
144
330
1F
100
AcDbEntity
  8
0
  6
Continuous
 62
     8
370
    18
100
AcDbSpline
210
0.0
220
0.0
230
1.0
 70
     8
 71
     3
 72
    20
 73
    16
 74
     0
 42
0.000000001
 43
0.00000001
 40
0.0
 40
0.0
 40
0.0
 40
0.0
 40
0.1250000000000013
 40
0.1250000000000013
 40
0.1875000000000013
 40
0.1875000000000013
 40
0.2500000000000013
 40
0.2500000000000013
 40
0.3125000000000012
 40
0.3125000000000012
 40
0.3750000000000012
 40
0.3750000000000012
 40
0.500000000000001
 40
0.500000000000001
 40
1.0
 40
1.0
 40
1.0
 40
1.0
 10
128.7050480670845
 20
478.4982950219394
 30
0.0
 10
129.0968529662653
 20
478.5047080032211
 30
0.0
 10
129.482660907408
 20
478.5091043722467
 30
0.0
 10
130.1043632146635
 20
478.5167162046393
 30
0.0
 10
130.3204010495654
 20
478.5193835170811
 30
0.0
 10
130.7646367077909
 20
478.5249972315007
 30
0.0
 10
130.9942557594264
 20
478.5280361946071
 30
0.0
 10
131.4829471497974
 20
478.5340061024667
 30
0.0
 10
131.7442746467698
 20
478.5369115282575
 30
0.0
 10
132.2711672484099
 20
478.5411587786429
 30
0.0
 10
132.5318498600213
 20
478.5426019699135
 30
0.0
 10
133.3043314705126
 20
478.5461129462974
 30
0.0
 10
133.8097085078916
 20
478.5476466934223
 30
0.0
 10
136.3565768648863
 20
478.5538904774312
 30
0.0
 10
138.3949736946431
 20
478.5540595185594
 30
0.0
 10
140.4383617542256
 20
478.5540172530138
 30
0.0
  0
SPLINE
  5
145
330
1F
100
AcDbEntity
  8
0
  6
Continuous
 62
     8
370
    25
100
AcDbSpline
210
0.0
220
0.0
230
1.0
 70
     8
 71
     3
 72
    18
 73
    14
 74
     0
 42
0.000000001
 43
0.00000001
 40
0.0
 40
0.0
 40
0.0
 40
0.0
 40
0.0567084669097962
 40
0.1172714360956142
 40
0.1816663594242849
 40
0.2498596922748375
 40
0.3621014054951411
 40
0.4994904410009816
 40
0.6248823732680836
 40
0.6947925898251265
 40
0.7497973743765778
 40
0.8852015984355243
 40
1.0
 40
1.0
 40
1.0
 40
1.0
 10
157.9169957705419
 20
461.5373290464668
 30
0.0
 10
157.8943509705722
 20
461.4982386857602
 30
0.0
 10
157.8475221924856
 20
461.4174009733804
 30
0.0
 10
157.7664366735295
 20
461.3025852552022
 30
0.0
 10
157.674094827082
 20
461.1890345729131
 30
0.0
 10
157.5489883765797
 20
461.0575732362404
 30
0.0
 10
157.3750376960754
 20
460.9084541461101
 30
0.0
 10
157.1539091297643
 20
460.7659521170357
 30
0.0
 10
156.947807436966
 20
460.6705149148216
 30
0.0
 10
156.7885823179365
 20
460.6153675279558
 30
0.0
 10
156.6210059104079
 20
460.5693511248508
 30
0.0
 10
156.4211377022829
 20
460.5331385335442
 30
0.0
 10
156.256298003178
 20
460.5297373973341
 30
0.0
 10
156.1806659672452
 20
460.5281768821339
 30
0.0
  0
SPLINE
  5
146
330
1F
100
AcDbEntity
  8
0
  6
Continuous
 62
     8
370
    18
100
AcDbSpline
210
0.0
220
0.0
230
1.0
 70
     8
 71
     3
 72
    40
 73
    36
 74
     0
 42
0.000000001
 43
0.00000001
 40
0.0
 40
0.0
 40
0.0
 40
0.0
 40
0.499999999999991
 40
0.499999999999991
 40
0.7499999999999865
 40
0.7499999999999865
 40
0.8124999999999851
 40
0.8124999999999851
 40
0.8437499999999845
 40
0.8437499999999845
 40
0.8749999999999838
 40
0.8749999999999838
 40
0.8906249999999831
 40
0.8906249999999831
 40
0.898437499999983
 40
0.898437499999983
 40
0.9023437499999835
 40
0.9023437499999835
 40
0.9062499999999838
 40
0.9062499999999838
 40
0.9140624999999851
 40
0.9140624999999851
 40
0.9218749999999865
 40
0.9218749999999865
 40
0.9374999999999891
 40
0.9374999999999891
 40
0.9531249999999919
 40
0.9531249999999919
 40
0.9687499999999946
 40
0.9687499999999946
 40
0.9843749999999973
 40
0.9843749999999973
 40
0.9921874999999987
 40
0.9921874999999987
 40
1.0
 40
1.0
 40
1.0
 40
1.0
 10
156.1806659724685
 20
460.5281768654357
 30
0.0
 10
156.1333063919221
 20
460.6719750244117
 30
0.0
 10
156.0815608812582
 20
460.8157732707126
 30
0.0
 10
155.9557137785038
 20
461.0314707213079
 30
0.0
 10
155.905891460247
 20
461.1033713834261
 30
0.0
 10
155.8281957376163
 20
461.1932462717666
 30
0.0
 10
155.8114970220605
 20
461.2112187660516
 30
0.0
 10
155.7866366767902
 20
461.2381870965435
 30
0.0
 10
155.7792792120754
 20
461.2471859768598
 30
0.0
 10
155.7655851712183
 20
461.2651662349031
 30
0.0
 10
155.7593056500434
 20
461.2741381549048
 30
0.0
 10
155.73812579119
 20
461.2875399578332
 30
0.0
 10
155.7271546529741
 20
461.2920020153978
 30
0.0
 10
155.7163733667259
 20
461.2987979933772
 30
0.0
 10
155.7137533907377
 20
461.3010817774644
 30
0.0
 10
155.7134498407242
 20
461.3045324156306
 30
0.0
 10
155.7141786389348
 20
461.3056888920701
 30
0.0
 10
155.7156983870309
 20
461.3079459999531
 30
0.0
 10
155.7164076953128
 20
461.3090482669269
 30
0.0
 10
155.7151014403177
 20
461.3122833851154
 30
0.0
 10
155.7096835402705
 20
461.3143392297648
 30
0.0
 10
155.675068995447
 20
461.3181978884786
 30
0.0
 10
155.6461999351454
 20
461.3199870666947
 30
0.0
 10
155.5031046861236
 20
461.3252358119855
 30
0.0
 10
155.3332352642404
 20
461.3286871610895
 30
0.0
 10
154.8642213146583
 20
461.3351856412827
 30
0.0
 10
154.5652890553132
 20
461.3382328842375
 30
0.0
 10
153.8673947827212
 20
461.3436147370164
 30
0.0
 10
153.4669210668139
 20
461.3459600355479
 30
0.0
 10
152.5889084083218
 20
461.3497948140214
 30
0.0
 10
152.1117250883049
 20
461.3512862013521
 30
0.0
 10
151.3807476982113
 20
461.3527443968899
 30
0.0
 10
151.1347439462255
 20
461.3531007249782
 30
0.0
 10
150.6184429237386
 20
461.3535869320804
 30
0.0
 10
150.3473929752376
 20
461.3537216195773
 30
0.0
 10
150.0640316245558
 20
461.3537729223426
 30
0.0
  0
SPLINE
  5
147
330
1F
100
AcDbEntity
  8
0
  6
Continuous
 62
     8
370
    25
100
AcDbSpline
210
0.0
220
0.0
230
1.0
 70
     8
 71
     3
 72
    17
 73
    13
 74
     0
 42
0.000000001
 43
0.00000001
 40
0.0
 40
0.0
 40
0.0
 40
0.0
 40
0.0822252725138758
 40
0.1643051375896292
 40
0.2466854385031299
 40
0.3298155468856437
 40
0.4141426935339107
 40
0.5001064176084413
 40
0.6245654956123443
 40
0.7503230515125328
 40
0.87557113240483
 40
1.0
 40
1.0
 40
1.0
 40
1.0
 10
158.1524352313841
 20
462.3897040633293
 30
0.0
 10
158.1509830000855
 20
462.3609324300075
 30
0.0
 10
158.1480811056187
 20
462.3034400432134
 30
0.0
 10
158.1389008384926
 20
462.2180959248201
 30
0.0
 10
158.126368130528
 20
462.1341456703814
 30
0.0
 10
158.1103078691324
 20
462.0519029580451
 30
0.0
 10
158.0910199540391
 20
461.9716378106941
 30
0.0
 10
158.0655689168084
 20
461.8826063727135
 30
0.0
 10
158.0330824532531
 20
461.787642612847
 30
0.0
 10
157.9942352393339
 20
461.692180390053
 30
0.0
 10
157.9543551816909
 20
461.6068239411697
 30
0.0
 10
157.9294216378325
 20
461.5604432849517
 30
0.0
 10
157.9169957705419
 20
461.5373290464668
 30
0.0
  0
SPLINE
  5
148
330
1F
100
AcDbEntity
  8
0
  6
Continuous
 62
     8
370
    18
100
AcDbSpline
210
0.0
220
0.0
230
1.0
 70
     8
 71
     3
 72
    42
 73
    38
 74
     0
 42
0.000000001
 43
0.00000001
 40
0.0
 40
0.0
 40
0.0
 40
0.0
 40
0.0078124999999988
 40
0.0078124999999988
 40
0.0156249999999977
 40
0.0156249999999977
 40
0.0312499999999953
 40
0.0312499999999953
 40
0.0468749999999931
 40
0.0468749999999931
 40
0.0624999999999908
 40
0.0624999999999908
 40
0.0781249999999885
 40
0.0781249999999885
 40
0.0820312499999879
 40
0.0820312499999879
 40
0.0859374999999872
 40
0.0859374999999872
 40
0.0937499999999868
 40
0.0937499999999868
 40
0.0976562499999867
 40
0.0976562499999867
 40
0.1015624999999865
 40
0.1015624999999865
 40
0.1093749999999868
 40
0.1093749999999868
 40
0.1249999999999867
 40
0.1249999999999867
 40
0.156249999999987
 40
0.156249999999987
 40
0.1874999999999875
 40
0.1874999999999875
 40
0.2499999999999882
 40
0.2499999999999882
 40
0.4999999999999921
 40
0.4999999999999921
 40
1.0
 40
1.0
 40
1.0
 40
1.0
 10
130.8147573028176
 20
461.3537728131017
 30
0.0
 10
130.531422150352
 20
461.353721402062
 30
0.0
 10
130.2603883383874
 20
461.3535865726383
 30
0.0
 10
129.744125233526
 20
461.3531000645602
 30
0.0
 10
129.4981303943365
 20
461.3527435604389
 30
0.0
 10
128.7671679489284
 20
461.3512848354087
 30
0.0
 10
128.2900059944081
 20
461.349793131792
 30
0.0
 10
127.4120483041114
 20
461.3459577913279
 30
0.0
 10
127.0116084031448
 20
461.3436122416831
 30
0.0
 10
126.3137861175562
 20
461.3382299514809
 30
0.0
 10
126.0148938649236
 20
461.3351825378676
 30
0.0
 10
125.5459672039019
 20
461.3286838259125
 30
0.0
 10
125.376144807584
 20
461.3252324073702
 30
0.0
 10
125.2569595173935
 20
461.3208584451042
 30
0.0
 10
125.2378896866137
 20
461.3199822070197
 30
0.0
 10
125.2072038918076
 20
461.3181644586032
 30
0.0
 10
125.1956279560054
 20
461.31722959401
 30
0.0
 10
125.169688915027
 20
461.3143353332944
 30
0.0
 10
125.1642822815997
 20
461.3122793774747
 30
0.0
 10
125.1629845885047
 20
461.3090440788808
 30
0.0
 10
125.1636955473558
 20
461.307941752805
 30
0.0
 10
125.1652152417645
 20
461.3056845424572
 30
0.0
 10
125.1659422112394
 20
461.304528029275
 30
0.0
 10
125.1656340805139
 20
461.3010774428336
 30
0.0
 10
125.16301188913
 20
461.2987936917507
 30
0.0
 10
125.1522270052796
 20
461.2919978121894
 30
0.0
 10
125.1412572093579
 20
461.2875358072712
 30
0.0
 10
125.1200810912217
 20
461.2741340613944
 30
0.0
 10
125.1138025440156
 20
461.2651621818974
 30
0.0
 10
125.1001083044024
 20
461.2471820153943
 30
0.0
 10
125.0927502944024
 20
461.2381831858571
 30
0.0
 10
125.0678897518255
 20
461.2112150064016
 30
0.0
 10
125.0511912924467
 20
461.1932426102285
 30
0.0
 10
124.9734962005917
 20
461.1033682173176
 30
0.0
 10
124.9236743293007
 20
461.0314679506913
 30
0.0
 10
124.7978285778019
 20
460.815771687643
 30
0.0
 10
124.7460839927395
 20
460.6719742328143
 30
0.0
 10
124.6987253491383
 20
460.5281768654365
 30
0.0
  0
SPLINE
  5
149
330
1F
100
AcDbEntity
  8
0
  6
Continuous
 62
     8
370
    25
100
AcDbSpline
210
0.0
220
0.0
230
1.0
 70
     8
 71
     3
 72
    19
 73
    15
 74
     0
 42
0.000000001
 43
0.00000001
 40
0.0
 40
0.0
 40
0.0
 40
0.0
 40
0.0548494447398305
 40
0.1148075243975592
 40
0.179920179266976
 40
0.2502279606962119
 40
0.3052319739709123
 40
0.3751411978622238
 40
0.5005313571396667
 40
0.6379184985673192
 40
0.7501586558102886
 40
0.840234168306087
 40
0.923536808307797
 40
0.9999999999999999
 40
0.9999999999999999
 40
0.9999999999999999
 40
0.9999999999999999
 10
124.6987253545282
 20
460.528176882134
 30
0.0
 10
124.6625889377991
 20
460.5282871366143
 30
0.0
 10
124.5869503863981
 20
460.528517914592
 30
0.0
 10
124.468587695029
 20
460.5375251880253
 30
0.0
 10
124.3404593907739
 20
460.5549518160644
 30
0.0
 10
124.2164815297344
 20
460.58075982614
 30
0.0
 10
124.0908089233227
 20
460.6153976761937
 30
0.0
 10
123.9315850862886
 20
460.6704991464679
 30
0.0
 10
123.7254749070162
 20
460.7659493850964
 30
0.0
 10
123.5043816791119
 20
460.9084859883514
 30
0.0
 10
123.3183500366296
 20
461.0677502324795
 30
0.0
 10
123.1739493463014
 20
461.2238108565176
 30
0.0
 10
123.0576733882111
 20
461.3755568902141
 30
0.0
 10
122.9932354783685
 20
461.4849662367803
 30
0.0
 10
122.9623957913071
 20
461.5373290464668
 30
0.0
  0
SPLINE
  5
14A
330
1F
100
AcDbEntity
  8
0
  6
Continuous
 62
     8
370
    25
100
AcDbSpline
210
0.0
220
0.0
230
1.0
 70
     8
 71
     3
 72
    15
 73
    11
 74
     0
 42
0.000000001
 43
0.00000001
 40
0.0
 40
0.0
 40
0.0
 40
0.0
 40
0.0832177778743716
 40
0.1665780837892969
 40
0.2505230588079055
 40
0.3762795086886982
 40
0.5007342991424426
 40
0.6707477746431708
 40
0.8359781373461529
 40
1.0
 40
1.0
 40
1.0
 40
1.0
 10
122.9623957913071
 20
461.5373290464668
 30
0.0
 10
122.9541677005144
 20
461.5525015455756
 30
0.0
 10
122.9376974265837
 20
461.5828725299062
 30
0.0
 10
122.9115477178566
 20
461.6356122742893
 30
0.0
 10
122.8807289436581
 20
461.7029799520163
 30
0.0
 10
122.8461230937095
 20
461.7881819957931
 30
0.0
 10
122.8055380770127
 20
461.9067508372157
 30
0.0
 10
122.7679435045979
 20
462.0494933202619
 30
0.0
 10
122.7379435472546
 20
462.2170605856505
 30
0.0
 10
122.730609816588
 20
462.3322971074276
 30
0.0
 10
122.7269564102584
 20
462.3897038840323
 30
0.0
  0
SPLINE
  5
14B
330
1F
100
AcDbEntity
  8
0
  6
Continuous
 62
     8
370
    18
100
AcDbSpline
210
0.0
220
0.0
230
1.0
 70
     8
 71
     3
 72
    41
 73
    37
 74
     0
 42
0.000000001
 43
0.00000001
 40
0.0
 40
0.0
 40
0.0
 40
0.0
 40
0.5000000000000039
 40
0.5000000000000039
 40
0.7500000000000057
 40
0.7500000000000057
 40
0.812500000000006
 40
0.812500000000006
 40
0.8750000000000062
 40
0.8750000000000062
 40
0.9062500000000057
 40
0.9062500000000057
 40
0.9140625000000052
 40
0.9140625000000052
 40
0.9218750000000048
 40
0.9296875000000042
 40
0.9296875000000042
 40
0.9375000000000038
 40
0.9375000000000038
 40
0.9414062500000036
 40
0.9414062500000036
 40
0.9453125000000033
 40
0.9453125000000033
 40
0.9531250000000029
 40
0.9531250000000029
 40
0.9609375000000024
 40
0.9609375000000024
 40
0.9687500000000019
 40
0.9687500000000019
 40
0.9765625000000014
 40
0.9765625000000014
 40
0.984375000000001
 40
0.984375000000001
 40
0.9921875000000004
 40
0.9921875000000004
 40
1.0
 40
1.0
 40
1.0
 40
1.0
 10
124.5767598435525
 20
479.3338245068544
 30
0.0
 10
124.6300056950117
 20
479.1811321148973
 30
0.0
 10
124.6865463877259
 20
479.0288209317492
 30
0.0
 10
124.8184491910938
 20
478.8034620631745
 30
0.0
 10
124.8689378279725
 20
478.7288346503474
 30
0.0
 10
124.9502561554935
 20
478.6365202536512
 30
0.0
 10
124.9674937871709
 20
478.6181075421622
 30
0.0
 10
125.00193399206
 20
478.5813548367993
 30
0.0
 10
125.0182552992125
 20
478.5629989405712
 30
0.0
 10
125.0441277216855
 20
478.5355559642135
 30
0.0
 10
125.0553565302909
 20
478.5264543256422
 30
0.0
 10
125.072339826614
 20
478.5150646896682
 30
0.0
 10
125.0758171816419
 20
478.5127848696529
 30
0.0
 10
125.0805674686501
 20
478.5082061919652
 30
0.0
 10
125.0815596373802
 20
478.5036028183622
 30
0.0
 10
125.0853316645974
 20
478.4991020742142
 30
0.0
 10
125.0956416685799
 20
478.4947286554366
 30
0.0
 10
125.1044162478166
 20
478.4926583548562
 30
0.0
 10
125.1394652959665
 20
478.4900102545915
 30
0.0
 10
125.1548051799401
 20
478.4892044195267
 30
0.0
 10
125.1951436653879
 20
478.4877248181249
 30
0.0
 10
125.2198800470268
 20
478.4870470588478
 30
0.0
 10
125.3077588171344
 20
478.4851240236186
 30
0.0
 10
125.3845903173311
 20
478.4839533264232
 30
0.0
 10
125.5733451390358
 20
478.4819658006157
 30
0.0
 10
125.685919656623
 20
478.481138858605
 30
0.0
 10
125.9426995131427
 20
478.479902276293
 30
0.0
 10
126.0858510452798
 20
478.4794973336078
 30
0.0
 10
126.3992174515167
 20
478.4792303355751
 30
0.0
 10
126.5697386805125
 20
478.4793647619598
 30
0.0
 10
126.938244485412
 20
478.480421006153
 30
0.0
 10
127.1355485593377
 20
478.4813533466281
 30
0.0
 10
127.5483034533536
 20
478.4841623229441
 30
0.0
 10
127.7628072034209
 20
478.4860119668517
 30
0.0
 10
128.214657941727
 20
478.4909590775951
 30
0.0
 10
128.4560881571133
 20
478.4941307789701
 30
0.0
 10
128.7046883022555
 20
478.4982629260098
 30
0.0
  0
SPLINE
  5
14C
330
1F
100
AcDbEntity
  8
0
  6
Continuous
 62
     8
370
    25
100
AcDbSpline
210
0.0
220
0.0
230
1.0
 70
     8
 71
     3
 72
    21
 73
    17
 74
     0
 42
0.000000001
 43
0.00000001
 40
0.0
 40
0.0
 40
0.0
 40
0.0
 40
0.0309085280799466
 40
0.0622001789959344
 40
0.0939128063959968
 40
0.1260800090202496
 40
0.1870918231991353
 40
0.2515521140832264
 40
0.3763645087588514
 40
0.5015814384681714
 40
0.6261044964851069
 40
0.751253028302861
 40
0.8247751230326258
 40
0.8753089412859335
 40
0.9414255341036061
 40
1.0
 40
1.0
 40
1.0
 40
1.0
 10
122.7305538076071
 20
477.4613011828384
 30
0.0
 10
122.7324356124266
 20
477.4961787557403
 30
0.0
 10
122.7362225477446
 20
477.5663662221846
 30
0.0
 10
122.7491228856338
 20
477.6711678209929
 30
0.0
 10
122.7674003323888
 20
477.7757582914901
 30
0.0
 10
122.79866981665
 20
477.9100850088741
 30
0.0
 10
122.8505548337272
 20
478.0732872296323
 30
0.0
 10
122.9561548633104
 20
478.3152630408999
 30
0.0
 10
123.1263927236047
 20
478.5839526006083
 30
0.0
 10
123.3704622419008
 20
478.8447901210663
 30
0.0
 10
123.6448312223443
 20
479.0496951975106
 30
0.0
 10
123.9005466864391
 20
479.1797184754039
 30
0.0
 10
124.1064775667766
 20
479.2521024309822
 30
0.0
 10
124.2667863019502
 20
479.2937052487435
 30
0.0
 10
124.41711295515
 20
479.3214004596247
 30
0.0
 10
124.5257342177008
 20
479.3298536987548
 30
0.0
 10
124.5767597884556
 20
479.3338246648549
 30
0.0
  0
SPLINE
  5
14D
330
1F
100
AcDbEntity
  8
0
  6
Continuous
 62
     8
370
    18
100
AcDbSpline
210
0.0
220
0.0
230
1.0
 70
     8
 71
     3
 72
    42
 73
    38
 74
     0
 42
0.000000001
 43
0.00000001
 40
0.0
 40
0.0
 40
0.0
 40
0.0
 40
0.0078124999999991
 40
0.0078124999999991
 40
0.0156249999999982
 40
0.0156249999999982
 40
0.0234374999999974
 40
0.0234374999999974
 40
0.0312499999999966
 40
0.0312499999999966
 40
0.0390624999999958
 40
0.0390624999999958
 40
0.0468749999999949
 40
0.0468749999999949
 40
0.0546874999999941
 40
0.0546874999999941
 40
0.0585937499999937
 40
0.0585937499999937
 40
0.0624999999999933
 40
0.0624999999999933
 40
0.0703124999999932
 40
0.0703124999999932
 40
0.0781249999999932
 40
0.0781249999999932
 40
0.0859374999999931
 40
0.0859374999999931
 40
0.0937499999999931
 40
0.0937499999999931
 40
0.1249999999999936
 40
0.1249999999999936
 40
0.1874999999999939
 40
0.1874999999999939
 40
0.2499999999999941
 40
0.2499999999999941
 40
0.499999999999996
 40
0.499999999999996
 40
1.0
 40
1.0
 40
1.0
 40
1.0
 10
152.1747074746639
 20
478.498262857164
 30
0.0
 10
152.4211612048496
 20
478.4941663962381
 30
0.0
 10
152.6643352580828
 20
478.4909644807359
 30
0.0
 10
153.118392149913
 20
478.4859917900306
 30
0.0
 10
153.3329372309289
 20
478.4841483329931
 30
0.0
 10
153.7438111912064
 20
478.4813548121369
 30
0.0
 10
153.9383042549701
 20
478.4804308713873
 30
0.0
 10
154.3052351364643
 20
478.4793731204435
 30
0.0
 10
154.4781515477383
 20
478.4792307135871
 30
0.0
 10
154.7919333242951
 20
478.4794938374902
 30
0.0
 10
154.9342959456673
 20
478.479894632831
 30
0.0
 10
155.1891618078664
 20
478.4811122754102
 30
0.0
 10
155.3020172461897
 20
478.4819325426188
 30
0.0
 10
155.4925065404048
 20
478.4839236998366
 30
0.0
 10
155.5698839582802
 20
478.4850958861653
 30
0.0
 10
155.6579120819194
 20
478.4870077635662
 30
0.0
 10
155.6826661719965
 20
478.4876796465725
 30
0.0
 10
155.7230751327355
 20
478.489138740573
 30
0.0
 10
155.7384633308429
 20
478.4899266001781
 30
0.0
 10
155.7739970053653
 20
478.4925451146848
 30
0.0
 10
155.7834786645009
 20
478.4946150274931
 30
0.0
 10
155.7936901287684
 20
478.4989787004798
 30
0.0
 10
155.7946593195717
 20
478.5012263351791
 30
0.0
 10
155.7967012494844
 20
478.5057810531755
 30
0.0
 10
155.7984356870432
 20
478.5080847612246
 30
0.0
 10
155.8035842933741
 20
478.5126650690281
 30
0.0
 10
155.8068600735895
 20
478.5149452563653
 30
0.0
 10
155.8238286142011
 20
478.5263375641501
 30
0.0
 10
155.8351210899877
 20
478.5354400813752
 30
0.0
 10
155.8610248234816
 20
478.5628869091807
 30
0.0
 10
155.8773205316547
 20
478.5812456474139
 30
0.0
 10
155.911762985196
 20
478.6180038822813
 30
0.0
 10
155.9290060419777
 20
478.6364193692816
 30
0.0
 10
156.0103484632377
 20
478.7287475214085
 30
0.0
 10
156.060845351029
 20
478.803385773124
 30
0.0
 10
156.1927865480371
 20
479.0287774717577
 30
0.0
 10
156.2493533160041
 20
479.1811105442612
 30
0.0
 10
156.3026255070049
 20
479.3338248522075
 30
0.0
  0
LINE
  5
14E
330
1F
100
AcDbEntity
  8
0
  6
Continuous
 62
     8
370
    25
100
AcDbLine
 10
124.5768115524
 20
479.3338266709
 30
0.0
 11
127.9342357254
 21
479.4987385154
 31
0.0
  0
SPLINE
  5
14F
330
1F
100
AcDbEntity
  8
0
  6
Continuous
 62
     8
370
    25
100
AcDbSpline
210
0.0
220
0.0
230
1.0
 70
     8
 71
     3
 72
     9
 73
     5
 74
     0
 42
0.000000001
 43
0.00000001
 40
0.0
 40
0.0
 40
0.0
 40
0.0
 40
0.4239185354318681
 40
0.9999999999999999
 40
0.9999999999999999
 40
0.9999999999999999
 40
0.9999999999999999
 10
149.8677615854728
 20
479.6132308020354
 30
0.0
 10
150.8476651918389
 20
479.5798439563114
 30
0.0
 10
153.1592027266811
 20
479.5010862636568
 30
0.0
 10
155.153624430642
 20
479.3949627846912
 30
0.0
 10
156.3025738068263
 20
479.3338270155035
 30
0.0
  0
SPLINE
  5
150
330
1F
100
AcDbEntity
  8
0
  6
Continuous
 62
     8
370
    18
100
AcDbSpline
210
0.0
220
0.0
230
1.0
 70
     8
 71
     3
 72
    21
 73
    17
 74
     0
 42
0.000000001
 43
0.00000001
 40
0.0
 40
0.0
 40
0.0
 40
0.0
 40
0.0641475679976302
 40
0.1260408265957298
 40
0.184868217108045
 40
0.2408920185709329
 40
0.2946202937536552
 40
0.3462049097070806
 40
0.3957845695076571
 40
0.5000328769327974
 40
0.5101688294029642
 40
0.5401940354020622
 40
0.6641547362954195
 40
0.7804671975628432
 40
0.8926628458545192
 40
1.0
 40
1.0
 40
1.0
 40
1.0
 10
156.1806254839615
 20
460.5282186315393
 30
0.0
 10
156.1416817735752
 20
460.528782532778
 30
0.0
 10
156.0651629342645
 20
460.5298905183253
 30
0.0
 10
155.9432080034188
 20
460.530944340895
 30
0.0
 10
155.8201405900395
 20
460.532246122061
 30
0.0
 10
155.6963607792056
 20
460.5336372909267
 30
0.0
 10
155.572396437084
 20
460.5348396633609
 30
0.0
 10
155.4484083019834
 20
460.5359282721077
 30
0.0
 10
155.2778331632784
 20
460.5372529557342
 30
0.0
 10
155.1343907684
 20
460.538252037406
 30
0.0
 10
155.0037355042666
 20
460.5391340781831
 30
0.0
 10
154.8534732459031
 20
460.5401333036625
 30
0.0
 10
154.5949513710961
 20
460.5417337869643
 30
0.0
 10
154.2372001948196
 20
460.5435277191499
 30
0.0
 10
153.8804261264067
 20
460.5451485616781
 30
0.0
 10
153.6355227478604
 20
460.546039995647
 30
0.0
 10
153.5157810445617
 20
460.546475848441
 30
0.0
  0
LINE
  5
151
330
1F
100
AcDbEntity
  8
0
  6
Continuous
 62
     8
370
    25
100
AcDbLine
 10
153.5158185761
 20
460.5463718205
 30
0.0
 11
152.4396958175
 21
460.5496343281
 31
0.0
  0
LINE
  5
152
330
1F
100
AcDbEntity
  8
0
  6
Continuous
 62
     8
370
    25
100
AcDbLine
 10
128.4396958175
 20
460.5496343281
 30
0.0
 11
127.3635730589
 21
460.5463718205
 31
0.0
  0
LINE
  5
153
330
1F
100
AcDbEntity
  8
0
  6
Continuous
 62
     8
370
    18
100
AcDbLine
 10
148.7196958175
 20
514.9658555133
 30
0.0
 11
132.1596958175
 21
514.9658555133
 31
0.0
  0
LINE
  5
154
330
1F
100
AcDbEntity
  8
0
  6
Continuous
 62
     8
370
    18
100
AcDbLine
 10
132.1596958175
 20
524.9658555133
 30
0.0
 11
148.7196958175
 21
524.9658555133
 31
0.0
  0
SPLINE
  5
155
330
1F
100
AcDbEntity
  8
0
  6
Continuous
 62
     8
370
    18
100
AcDbSpline
210
0.0
220
0.0
230
1.0
 70
     8
 71
     3
 72
    22
 73
    18
 74
     0
 42
0.000000001
 43
0.00000001
 40
0.0
 40
0.0
 40
0.0
 40
0.0
 40
0.125
 40
0.125
 40
0.25
 40
0.25
 40
0.375
 40
0.375
 40
0.5
 40
0.5
 40
0.625
 40
0.625
 40
0.75
 40
0.75
 40
0.875
 40
0.875
 40
1.0
 40
1.0
 40
1.0
 40
1.0
 10
132.1596958174907
 20
514.9658555133077
 30
0.0
 10
131.973601559161
 20
514.9658555133077
 30
0.0
 10
131.7919798436388
 20
514.9860914448288
 30
0.0
 10
131.4369272772547
 20
515.0638645740249
 30
0.0
 10
131.2620237817536
 20
515.1221233283413
 30
0.0
 10
130.927384909105
 20
515.274259860262
 30
0.0
 10
130.7699238745901
 20
515.366687335197
 30
0.0
 10
130.4734564228179
 20
515.5829487509375
 30
0.0
 10
130.3330427079321
 20
515.7084694548556
 30
0.0
 10
130.0797290028578
 20
515.9842894060671
 30
0.0
 10
129.9667732137635
 20
516.133882145811
 30
0.0
 10
129.7677408153497
 20
516.4565561200689
 30
0.0
 10
129.6809836838391
 20
516.6319155220674
 30
0.0
 10
129.5424156027138
 20
516.993689226974
 30
0.0
 10
129.4897786500994
 20
517.180566200167
 30
0.0
 10
129.4182532966721
 20
517.5666183658967
 30
0.0
 10
129.3996958174907
 20
517.7663671981198
 30
0.0
 10
129.3996958174907
 20
517.9658555133078
 30
0.0
  0
SPLINE
  5
156
330
1F
100
AcDbEntity
  8
0
  6
Continuous
 62
     8
370
    18
100
AcDbSpline
210
0.0
220
0.0
230
1.0
 70
     8
 71
     3
 72
    22
 73
    18
 74
     0
 42
0.000000001
 43
0.00000001
 40
0.0
 40
0.0
 40
0.0
 40
0.0
 40
0.125
 40
0.125
 40
0.25
 40
0.25
 40
0.375
 40
0.375
 40
0.5
 40
0.5
 40
0.625
 40
0.625
 40
0.75
 40
0.75
 40
0.875
 40
0.875
 40
1.0
 40
1.0
 40
1.0
 40
1.0
 10
148.7196958174907
 20
524.9658555133078
 30
0.0
 10
148.9057900758205
 20
524.9658555133078
 30
0.0
 10
149.0874117913426
 20
524.9456195817868
 30
0.0
 10
149.4424643577267
 20
524.8678464525907
 30
0.0
 10
149.6173678532278
 20
524.8095876982742
 30
0.0
 10
149.9520067258764
 20
524.6574511663537
 30
0.0
 10
150.1094677603914
 20
524.5650236914186
 30
0.0
 10
150.4059352121635
 20
524.3487622756782
 30
0.0
 10
150.5463489270494
 20
524.22324157176
 30
0.0
 10
150.7996626321236
 20
523.9474216205484
 30
0.0
 10
150.9126184212179
 20
523.7978288808047
 30
0.0
 10
151.1116508196317
 20
523.4751549065468
 30
0.0
 10
151.1984079511423
 20
523.2997955045481
 30
0.0
 10
151.3369760322676
 20
522.9380217996417
 30
0.0
 10
151.389612984882
 20
522.7511448264485
 30
0.0
 10
151.4611383383093
 20
522.3650926607188
 30
0.0
 10
151.4796958174907
 20
522.1653438284958
 30
0.0
 10
151.4796958174907
 20
521.9658555133078
 30
0.0
  0
SPLINE
  5
157
330
1F
100
AcDbEntity
  8
0
  6
Continuous
 62
     8
370
    18
100
AcDbSpline
210
0.0
220
0.0
230
1.0
 70
     8
 71
     3
 72
    20
 73
    16
 74
     0
 42
0.000000001
 43
0.00000001
 40
0.0
 40
0.0
 40
0.0
 40
0.0
 40
0.1249999999999987
 40
0.1249999999999987
 40
0.2499999999999973
 40
0.2499999999999973
 40
0.4999999999999987
 40
0.4999999999999987
 40
0.624999999999999
 40
0.624999999999999
 40
0.7499999999999993
 40
0.7499999999999993
 40
0.8749999999999997
 40
0.8749999999999997
 40
1.0
 40
1.0
 40
1.0
 40
1.0
 10
129.3996958174907
 20
521.9658555133078
 30
0.0
 10
129.3996958174907
 20
522.1649436518028
 30
0.0
 10
129.4177468351633
 20
522.360686298764
 30
0.0
 10
129.4884826375015
 20
522.7457805668523
 30
0.0
 10
129.5420451980578
 20
522.9368310375695
 30
0.0
 10
129.7496169746089
 20
523.4794285561152
 30
0.0
 10
129.9539946795876
 20
523.810484153612
 30
0.0
 10
130.3324112118059
 20
524.2225699505304
 30
0.0
 10
130.4724954767416
 20
524.3480345020181
 30
0.0
 10
130.7703621437073
 20
524.5653701456853
 30
0.0
 10
130.9277981264115
 20
524.6575834362824
 30
0.0
 10
131.2602800256158
 20
524.8088503048153
 30
0.0
 10
131.4362223443531
 20
524.867675348616
 30
0.0
 10
131.7922364995802
 20
524.9456924711242
 30
0.0
 10
131.9739624174832
 20
524.9658555133078
 30
0.0
 10
132.1596958174907
 20
524.9658555133078
 30
0.0
  0
SPLINE
  5
158
330
1F
100
AcDbEntity
  8
0
  6
Continuous
 62
     8
370
    18
100
AcDbSpline
210
0.0
220
0.0
230
1.0
 70
     8
 71
     3
 72
    20
 73
    16
 74
     0
 42
0.000000001
 43
0.00000001
 40
0.0
 40
0.0
 40
0.0
 40
0.0
 40
0.1250000000000006
 40
0.1250000000000006
 40
0.2500000000000012
 40
0.2500000000000012
 40
0.4999999999999987
 40
0.4999999999999987
 40
0.624999999999999
 40
0.624999999999999
 40
0.7499999999999992
 40
0.7499999999999992
 40
0.8749999999999997
 40
0.8749999999999997
 40
1.0
 40
1.0
 40
1.0
 40
1.0
 10
151.4796958174907
 20
517.9658555133078
 30
0.0
 10
151.4796958174907
 20
517.7667673748128
 30
0.0
 10
151.4616447998181
 20
517.5710247278515
 30
0.0
 10
151.3909089974799
 20
517.1859304597632
 30
0.0
 10
151.3373464369236
 20
516.994879989046
 30
0.0
 10
151.1297746603725
 20
516.4522824705004
 30
0.0
 10
150.9253969553938
 20
516.1212268730036
 30
0.0
 10
150.5469804231755
 20
515.7091410760852
 30
0.0
 10
150.4068961582398
 20
515.5836765245975
 30
0.0
 10
150.1090294912741
 20
515.3663408809304
 30
0.0
 10
149.9515935085699
 20
515.2741275903334
 30
0.0
 10
149.6191116093656
 20
515.1228607218003
 30
0.0
 10
149.4431692906283
 20
515.0640356779996
 30
0.0
 10
149.0871551354013
 20
514.9860185554915
 30
0.0
 10
148.9054292174983
 20
514.9658555133077
 30
0.0
 10
148.7196958174907
 20
514.9658555133077
 30
0.0
  0
LINE
  5
159
330
1F
100
AcDbEntity
  8
0
  6
Continuous
 62
     8
370
    18
100
AcDbLine
 10
151.4796958175
 20
521.9658555133
 30
0.0
 11
151.4796958175
 21
517.9658555133
 31
0.0
  0
LINE
  5
15A
330
1F
100
AcDbEntity
  8
0
  6
Continuous
 62
     8
370
    18
100
AcDbLine
 10
129.3996958175
 20
517.9658555133
 30
0.0
 11
129.3996958175
 21
521.9658555133
 31
0.0
  0
SPLINE
  5
15B
330
1F
100
AcDbEntity
  8
0
  6
Continuous
 62
     7
370
    25
100
AcDbSpline
210
0.0
220
0.0
230
1.0
 70
     8
 71
     3
 72
     9
 73
     5
 74
     0
 42
0.000000001
 43
0.00000001
 40
0.0
 40
0.0
 40
0.0
 40
0.0
 40
0.4300847243346271
 40
1.0
 40
1.0
 40
1.0
 40
1.0
 10
121.7427866340889
 20
224.7004301860945
 30
0.0
 10
121.786872406737
 20
224.5698368399775
 30
0.0
 10
121.8893772625334
 20
224.2661912122023
 30
0.0
 10
121.9831145523297
 20
223.9017660298935
 30
0.0
 10
122.0365368656841
 20
223.6940745516586
 30
0.0
  0
SPLINE
  5
15C
330
1F
100
AcDbEntity
  8
0
  6
Continuous
 62
     7
370
    25
100
AcDbSpline
210
0.0
220
0.0
230
1.0
 70
     8
 71
     3
 72
     9
 73
     5
 74
     0
 42
0.000000001
 43
0.00000001
 40
0.0
 40
0.0
 40
0.0
 40
0.0
 40
0.8121876544948157
 40
1.0
 40
1.0
 40
1.0
 40
1.0
 10
158.8654546485478
 20
223.7928660665953
 30
0.0
 10
158.9509962980067
 20
224.10406715175
 30
0.0
 10
159.0563188167442
 20
224.4872311698589
 30
0.0
 10
159.1638605969646
 20
224.8006784506049
 30
0.0
 10
159.1840582709476
 20
224.859547719594
 30
0.0
  0
SPLINE
  5
15D
330
1F
100
AcDbEntity
  8
0
  6
Continuous
 62
     7
370
    25
100
AcDbSpline
210
0.0
220
0.0
230
1.0
 70
     8
 71
     3
 72
     9
 73
     5
 74
     0
 42
0.000000001
 43
0.00000001
 40
0.0
 40
0.0
 40
0.0
 40
0.0
 40
0.6399510074067982
 40
1.0
 40
1.0
 40
1.0
 40
1.0
 10
158.2928592189595
 20
218.8076180308893
 30
0.0
 10
158.3580321643576
 20
220.1909052590712
 30
0.0
 10
158.4598726875288
 20
222.3524570218964
 30
0.0
 10
159.2093083114242
 20
224.3723638127533
 30
0.0
 10
159.4791418528212
 20
225.0996292179335
 30
0.0
  0
SPLINE
  5
15E
330
1F
100
AcDbEntity
  8
0
  6
Continuous
 62
     7
370
    25
100
AcDbSpline
210
0.0
220
0.0
230
1.0
 70
     8
 71
     3
 72
     9
 73
     5
 74
     0
 42
0.000000001
 43
0.00000001
 40
0.0
 40
0.0
 40
0.0
 40
0.0
 40
0.3549969743094384
 40
1.0
 40
1.0
 40
1.0
 40
1.0
 10
121.4160372384364
 20
225.0517567337875
 30
0.0
 10
121.6796158251212
 20
224.3402293803378
 30
0.0
 10
122.4220970454121
 20
222.3359098932948
 30
0.0
 10
122.5220575716728
 20
220.1910555633617
 30
0.0
 10
122.5865324135605
 20
218.8076180308893
 30
0.0
  0
SPLINE
  5
15F
330
1F
100
AcDbEntity
  8
0
  6
Continuous
 62
     7
370
    25
100
AcDbSpline
210
0.0
220
0.0
230
1.0
 70
     8
 71
     3
 72
    36
 73
    32
 74
     0
 42
0.000000001
 43
0.00000001
 40
0.0
 40
0.0
 40
0.0
 40
0.0
 40
0.1003406153422996
 40
0.1988580917227762
 40
0.2895661972289391
 40
0.3724662573394237
 40
0.4475544738141649
 40
0.5137043389756741
 40
0.5723276516630986
 40
0.6233919615133833
 40
0.6669189634684133
 40
0.6999926339695195
 40
0.7273540192695258
 40
0.7514967059798291
 40
0.772752043743795
 40
0.7911071073600325
 40
0.8005595593438657
 40
0.8134297570281244
 40
0.8291366296513484
 40
0.8457582933630041
 40
0.861821231558
 40
0.8702761439390372
 40
0.8777426566860208
 40
0.8880635042175493
 40
0.9025049898802134
 40
0.9112812219613712
 40
0.921097492834748
 40
0.931914296396424
 40
0.9435478323067639
 40
0.9697037156763901
 40
1.0
 40
1.0
 40
1.0
 40
1.0
 10
122.586530227781
 20
218.8076131410287
 30
0.0
 10
122.6282080747959
 20
214.2025370685095
 30
0.0
 10
122.7108065031215
 20
205.0760568601171
 30
0.0
 10
122.8309478571384
 20
191.7865778219024
 30
0.0
 10
122.9437311190009
 20
179.2975221285002
 30
0.0
 10
123.0467136632881
 20
167.8837384371611
 30
0.0
 10
123.1393795304708
 20
157.5970402616798
 30
0.0
 10
123.2219116608814
 20
148.4245092916267
 30
0.0
 10
123.2946270117581
 20
140.3545433833546
 30
0.0
 10
123.3576031895081
 20
133.3228381670039
 30
0.0
 10
123.4098634413706
 20
127.4637178930033
 30
0.0
 10
123.4527553393463
 20
122.6924359626
 30
0.0
 10
123.4881884223769
 20
118.81078715508
 30
0.0
 10
123.5184983026536
 20
115.4715472581261
 30
0.0
 10
123.5447210536148
 20
112.5456174164912
 30
0.0
 10
123.5614105155105
 20
110.2939691463737
 30
0.0
 10
123.5755829521814
 20
108.4269548431881
 30
0.0
 10
123.587989023525
 20
106.682092256127
 30
0.0
 10
123.6312414766369
 20
104.6057747924963
 30
0.0
 10
123.6025250594331
 20
102.3986756547245
 30
0.0
 10
123.7317293732134
 20
100.511568074589
 30
0.0
 10
124.2371893128807
 20
99.13641123188044
 30
0.0
 10
124.8056756422843
 20
98.08533410255794
 30
0.0
 10
125.7174130482692
 20
96.91343295865596
 30
0.0
 10
126.9375339006741
 20
95.94298106111285
 30
0.0
 10
128.3070870284605
 20
95.28238870257033
 30
0.0
 10
129.6190031425721
 20
94.92503488594062
 30
0.0
 10
131.103669031091
 20
94.8523927133055
 30
0.0
 10
133.3318807714196
 20
94.89310571257478
 30
0.0
 10
136.4569249360197
 20
94.8599843759883
 30
0.0
 10
139.0473482964529
 20
94.869823435392
 30
0.0
 10
140.4375553664926
 20
94.87510378074188
 30
0.0
  0
SPLINE
  5
160
330
1F
100
AcDbEntity
  8
0
  6
Continuous
 62
     7
370
    25
100
AcDbSpline
210
0.0
220
0.0
230
1.0
 70
     8
 71
     3
 72
    35
 73
    31
 74
     0
 42
0.000000001
 43
0.00000001
 40
0.0
 40
0.0
 40
0.0
 40
0.0
 40
0.0302967246685287
 40
0.0564529885686498
 40
0.0680866937925289
 40
0.0789036549137129
 40
0.088720068959173
 40
0.0974964291683619
 40
0.1119381261381601
 40
0.1222591254449736
 40
0.1297257468820512
 40
0.1381807815009495
 40
0.1572206356242687
 40
0.1765023868991023
 40
0.1937928379836286
 40
0.2063889503169711
 40
0.2228732637170315
 40
0.241811290381486
 40
0.2675773500755427
 40
0.2970295839777994
 40
0.3330712873098983
 40
0.3774598818262704
 40
0.4296634931062128
 40
0.4897024990309021
 40
0.5575434337867073
 40
0.6331908275954673
 40
0.7150910544095544
 40
0.804523029384521
 40
0.9014881480629411
 40
1.0
 40
1.0
 40
1.0
 40
1.0
 10
140.4418362684883
 20
94.8751037807418
 30
0.0
 10
141.8320432302633
 20
94.86982343246756
 30
0.0
 10
144.4224664056985
 20
94.85998436755128
 30
0.0
 10
147.547510411756
 20
94.89310573600085
 30
0.0
 10
149.7757219432939
 20
94.8523926732276
 30
0.0
 10
151.2603879941934
 20
94.92503500340644
 30
0.0
 10
152.5723033837787
 20
95.28238776053644
 30
0.0
 10
153.9418594626513
 20
95.94298358282266
 30
0.0
 10
155.161964837792
 20
96.913415899718
 30
0.0
 10
156.073745559278
 20
98.08537091478536
 30
0.0
 10
156.6421193400689
 20
99.13630740525683
 30
0.0
 10
157.1952537396975
 20
100.6402344070399
 30
0.0
 10
157.2646387664746
 20
102.7952211707517
 30
0.0
 10
157.2635867883698
 20
105.3336737563662
 30
0.0
 10
157.299423547454
 20
107.5928900526207
 30
0.0
 10
157.3132572987972
 20
109.7205152712194
 30
0.0
 10
157.3298644412207
 20
111.9244205594345
 30
0.0
 10
157.3540614378682
 20
114.7325260862388
 30
0.0
 10
157.3850857560187
 20
118.1358543252111
 30
0.0
 10
157.4232958640929
 20
122.3241099098173
 30
0.0
 10
157.468678041105
 20
127.3670384041917
 30
0.0
 10
157.5229536958527
 20
133.4541149510591
 30
0.0
 10
157.5873540908665
 20
140.6425179150214
 30
0.0
 10
157.6618289184779
 20
148.9072336914177
 30
0.0
 10
157.7458672749724
 20
158.2478746495578
 30
0.0
 10
157.8390644761653
 20
168.5918085931281
 30
0.0
 10
157.9413393726922
 20
179.9266356685735
 30
0.0
 10
158.0525399943215
 20
192.2398127126909
 30
0.0
 10
158.1707504047839
 20
205.3153587208873
 30
0.0
 10
158.2519435464503
 20
214.2865332054979
 30
0.0
 10
158.2928613421628
 20
218.8076131554626
 30
0.0
  0
LINE
  5
161
330
1F
100
AcDbEntity
  8
0
  6
Continuous
 62
     7
370
    25
100
AcDbLine
 10
144.4396958175
 20
266.8053951718
 30
0.0
 11
144.4396958175
 21
285.3053951718
 31
0.0
  0
LINE
  5
162
330
1F
100
AcDbEntity
  8
0
  6
Continuous
 62
     7
370
    25
100
AcDbLine
 10
136.4396958175
 20
285.3053951718
 30
0.0
 11
136.4396958175
 21
266.8053951718
 31
0.0
  0
ARC
  5
163
330
1F
100
AcDbEntity
  8
0
  6
Continuous
 62
     7
370
    25
100
AcDbCircle
 10
143.4396958175
 20
285.3053951718
 30
0.0
 40
0.9999999999999716
100
AcDbArc
 50
0.0
 51
90.0
  0
ARC
  5
164
330
1F
100
AcDbEntity
  8
0
  6
Continuous
 62
     7
370
    25
100
AcDbCircle
 10
137.4396958175
 20
285.3053951718
 30
0.0
 40
0.9999999999999716
100
AcDbArc
 50
90.0
 51
180.0
  0
ARC
  5
165
330
1F
100
AcDbEntity
  8
0
  6
Continuous
 62
     7
370
    25
100
AcDbCircle
 10
136.9396958175
 20
266.8053951718
 30
0.0
 40
0.5
100
AcDbArc
 50
180.0
 51
270.0
  0
ARC
  5
166
330
1F
100
AcDbEntity
  8
0
  6
Continuous
 62
     7
370
    25
100
AcDbCircle
 10
143.9396958175
 20
266.8053951718
 30
0.0
 40
0.5
100
AcDbArc
 50
270.0
 51
0.0
  0
LINE
  5
167
330
1F
100
AcDbEntity
  8
0
  6
Continuous
 62
     7
370
    25
100
AcDbLine
 10
142.4396958175
 20
260.8666374108
 30
0.0
 11
142.4396958175
 21
266.2696650237
 31
0.0
  0
LINE
  5
168
330
1F
100
AcDbEntity
  8
0
  6
Continuous
 62
     7
370
    25
100
AcDbLine
 10
138.4396958175
 20
266.2986228776
 30
0.0
 11
138.4396958175
 21
260.8666374108
 31
0.0
  0
CIRCLE
  5
169
330
1F
100
AcDbEntity
  8
0
  6
Continuous
 62
     7
370
    25
100
AcDbCircle
 10
140.4396958175
 20
237.953758936
 30
0.0
 40
23.0
  0
ARC
  5
16A
330
1F
100
AcDbEntity
  8
0
  6
Continuous
 62
     7
370
    25
100
AcDbCircle
 10
152.4396958175
 20
216.0220467366
 30
0.0
 40
2.0
100
AcDbArc
 50
118.6854020141
 51
180.0
  0
ARC
  5
16B
330
1F
100
AcDbEntity
  8
0
  6
Continuous
 62
     7
370
    25
100
AcDbCircle
 10
128.4396958175
 20
216.0220467366
 30
0.0
 40
2.000000000000028
100
AcDbArc
 50
0.0
 51
61.3145979859
  0
LINE
  5
16C
330
1F
100
AcDbEntity
  8
0
  6
Continuous
 62
     7
370
    25
100
AcDbLine
 10
130.4396958175
 20
165.953758936
 30
0.0
 11
130.4396958175
 21
216.0220467366
 31
0.0
  0
LINE
  5
16D
330
1F
100
AcDbEntity
  8
0
  6
Continuous
 62
     7
370
    25
100
AcDbLine
 10
150.4396958175
 20
216.0220467366
 30
0.0
 11
150.4396958175
 21
165.953758936
 31
0.0
  0
ARC
  5
16E
330
1F
100
AcDbEntity
  8
0
  6
Continuous
 62
     7
370
    25
100
AcDbCircle
 10
135.4396958175
 20
165.953758936
 30
0.0
 40
5.0
100
AcDbArc
 50
180.0
 51
270.0
  0
ARC
  5
16F
330
1F
100
AcDbEntity
  8
0
  6
Continuous
 62
     7
370
    25
100
AcDbCircle
 10
145.4396958175
 20
165.953758936
 30
0.0
 40
5.0
100
AcDbArc
 50
270.0
 51
0.0
  0
LINE
  5
170
330
1F
100
AcDbEntity
  8
0
  6
Continuous
 62
     7
370
    25
100
AcDbLine
 10
145.4396958175
 20
160.953758936
 30
0.0
 11
135.4396958175
 21
160.953758936
 31
0.0
  0
LINE
  5
171
330
1F
100
AcDbEntity
  8
0
  6
Continuous
 62
     7
370
    25
100
AcDbLine
 10
142.6110575295
 20
286.3053951718
 30
0.0
 11
143.4396958175
 21
286.3053951718
 31
0.0
  0
LINE
  5
172
330
1F
100
AcDbEntity
  8
0
  6
Continuous
 62
     7
370
    25
100
AcDbLine
 10
137.4396958175
 20
286.3053951718
 30
0.0
 11
142.6110575295
 21
286.3053951718
 31
0.0
  0
LINE
  5
173
330
1F
100
AcDbEntity
  8
0
  6
Continuous
 62
     7
370
    25
100
AcDbLine
 10
142.9729511482
 20
266.3053951718
 30
0.0
 11
136.9396958175
 21
266.3053951718
 31
0.0
  0
LINE
  5
174
330
1F
100
AcDbEntity
  8
0
  6
Continuous
 62
     7
370
    25
100
AcDbLine
 10
143.9396958175
 20
266.3053951718
 30
0.0
 11
142.9729511482
 21
266.3053951718
 31
0.0
  0
CIRCLE
  5
175
330
1F
100
AcDbEntity
  8
0
  6
Continuous
 62
     8
370
    18
100
AcDbCircle
 10
140.4396958175
 20
237.953758936
 30
0.0
 40
21.50000000000001
  0
SPLINE
  5
176
330
1F
100
AcDbEntity
  8
0
  6
Continuous
 62
     8
370
    18
100
AcDbSpline
210
0.0
220
0.0
230
1.0
 70
     8
 71
     3
 72
    16
 73
    12
 74
     0
 42
0.000000001
 43
0.00000001
 40
0.0
 40
0.0
 40
0.0
 40
0.0
 40
0.1250000000000015
 40
0.1250000000000015
 40
0.2500000000000029
 40
0.2500000000000029
 40
0.500000000000002
 40
0.500000000000002
 40
0.750000000000001
 40
0.750000000000001
 40
1.0
 40
1.0
 40
1.0
 40
1.0
 10
150.4396958174907
 20
216.0220467365766
 30
0.0
 10
150.4396958174907
 20
216.0220467365766
 30
0.0
 10
150.4267408100215
 20
216.0007041825976
 30
0.0
 10
150.3838015232421
 20
215.9310062789231
 30
0.0
 10
150.3535641026886
 20
215.8823230033535
 30
0.0
 10
150.2504719332113
 20
215.7196377835245
 30
0.0
 10
150.1667007090362
 20
215.5912980011488
 30
0.0
 10
149.982040469219
 20
215.3227868505479
 30
0.0
 10
149.882369738035
 20
215.1841778789364
 30
0.0
 10
149.6691130017252
 20
214.9046887405567
 30
0.0
 10
149.5574936077896
 20
214.7663158986486
 30
0.0
 10
149.4396958174907
 20
214.6299513566567
 30
0.0
  0
LINE
  5
177
330
1F
100
AcDbEntity
  8
0
  6
Continuous
 62
     8
370
    18
100
AcDbLine
 10
149.4396958175
 20
214.6299513567
 30
0.0
 11
148.7196958175
 21
216.495855963
 31
0.0
  0
LINE
  5
178
330
1F
100
AcDbEntity
  8
0
  6
Continuous
 62
     8
370
    18
100
AcDbLine
 10
131.4396958175
 20
214.6299513567
 30
0.0
 11
132.1596958175
 21
216.495855963
 31
0.0
  0
SPLINE
  5
179
330
1F
100
AcDbEntity
  8
0
  6
Continuous
 62
     8
370
    18
100
AcDbSpline
210
0.0
220
0.0
230
1.0
 70
     8
 71
     3
 72
    18
 73
    14
 74
     0
 42
0.000000001
 43
0.00000001
 40
0.0
 40
0.0
 40
0.0
 40
0.0
 40
0.2500000000000044
 40
0.2500000000000044
 40
0.5000000000000089
 40
0.5000000000000089
 40
0.6250000000000067
 40
0.6250000000000067
 40
0.7500000000000044
 40
0.7500000000000044
 40
0.8750000000000022
 40
0.8750000000000022
 40
1.0
 40
1.0
 40
1.0
 40
1.0
 10
131.4396958174907
 20
214.6299513566566
 30
0.0
 10
131.3219581128321
 20
214.766246342583
 30
0.0
 10
131.2098739168896
 20
214.9052027502129
 30
0.0
 10
130.9967675444264
 20
215.1845276798807
 30
0.0
 10
130.8968660642913
 20
215.3234720898774
 30
0.0
 10
130.758434451735
 20
215.5247933004322
 30
0.0
 10
130.7146408641444
 20
215.5900634884889
 30
0.0
 10
130.6322723195462
 20
215.7152580763695
 30
0.0
 10
130.59345005772
 20
215.775600073716
 30
0.0
 10
130.525694651204
 20
215.8825436918305
 30
0.0
 10
130.4958697251334
 20
215.9305536306614
 30
0.0
 10
130.4525824830585
 20
216.000813906518
 30
0.0
 10
130.4396958174907
 20
216.0220467365764
 30
0.0
 10
130.4396958174907
 20
216.0220467365764
 30
0.0
  0
ARC
  5
17A
330
1F
100
AcDbEntity
  8
0
  6
Continuous
 62
     8
370
    18
100
AcDbCircle
 10
140.4396958175
 20
237.953758936
 30
0.0
 40
25.00000000000001
100
AcDbArc
 50
248.8998039759
 51
291.1001960241
  0
LINE
  5
17B
330
1F
100
AcDbEntity
  8
0
  6
Continuous
 62
     8
370
    18
100
AcDbLine
 10
131.4396958175
 20
165.953758936
 30
0.0
 11
130.4396958175
 21
165.953758936
 31
0.0
  0
LINE
  5
17C
330
1F
100
AcDbEntity
  8
0
  6
Continuous
 62
     8
370
    18
100
AcDbLine
 10
131.4396958175
 20
214.6299513567
 30
0.0
 11
131.4396958175
 21
165.953758936
 31
0.0
  0
ARC
  5
17D
330
1F
100
AcDbEntity
  8
0
  6
Continuous
 62
     8
370
    18
100
AcDbCircle
 10
145.4396958175
 20
165.953758936
 30
0.0
 40
4.0
100
AcDbArc
 50
270.0
 51
0.0
  0
LINE
  5
17E
330
1F
100
AcDbEntity
  8
0
  6
Continuous
 62
     8
370
    18
100
AcDbLine
 10
135.4396958175
 20
161.953758936
 30
0.0
 11
145.4396958175
 21
161.953758936
 31
0.0
  0
ARC
  5
17F
330
1F
100
AcDbEntity
  8
0
  6
Continuous
 62
     8
370
    18
100
AcDbCircle
 10
135.4396958175
 20
165.953758936
 30
0.0
 40
4.0
100
AcDbArc
 50
180.0
 51
270.0
  0
LINE
  5
180
330
1F
100
AcDbEntity
  8
0
  6
Continuous
 62
     8
370
    18
100
AcDbLine
 10
149.4396958175
 20
165.953758936
 30
0.0
 11
149.4396958175
 21
214.6299513567
 31
0.0
  0
LINE
  5
181
330
1F
100
AcDbEntity
  8
0
  6
Continuous
 62
     8
370
    18
100
AcDbLine
 10
149.4396958175
 20
165.953758936
 30
0.0
 11
150.4396958175
 21
165.953758936
 31
0.0
  0
LINE
  5
182
330
1F
100
AcDbEntity
  8
0
  6
Continuous
 62
     8
370
    18
100
AcDbLine
 10
135.4396958175
 20
161.953758936
 30
0.0
 11
135.4396958175
 21
160.953758936
 31
0.0
  0
LINE
  5
183
330
1F
100
AcDbEntity
  8
0
  6
Continuous
 62
     8
370
    18
100
AcDbLine
 10
145.4396958175
 20
161.953758936
 30
0.0
 11
145.4396958175
 21
160.953758936
 31
0.0
  0
SPLINE
  5
184
330
1F
100
AcDbEntity
  8
0
  6
Continuous
 62
     8
370
    18
100
AcDbSpline
210
0.0
220
0.0
230
1.0
 70
     8
 71
     3
 72
    20
 73
    16
 74
     0
 42
0.000000001
 43
0.00000001
 40
0.0
 40
0.0
 40
0.0
 40
0.0
 40
0.0383962759307793
 40
0.08015236194295
 40
0.125331903528256
 40
0.1759760548568939
 40
0.2505690708302162
 40
0.3747115360437653
 40
0.4996697678981514
 40
0.6242401664474505
 40
0.7494544882660693
 40
0.8139138864550427
 40
0.8749344973877631
 40
0.9382911477052105
 40
1.0
 40
1.0
 40
1.0
 40
1.0
 10
156.3026255621116
 20
217.131040185375
 30
0.0
 10
156.3361017669421
 20
217.1586172871671
 30
0.0
 10
156.4059834630442
 20
217.2161845847914
 30
0.0
 10
156.5142346390079
 20
217.3065912897086
 30
0.0
 10
156.6319401707469
 20
217.4058699014495
 30
0.0
 10
156.7755241466918
 20
217.5290006480471
 30
0.0
 10
156.9815114504459
 20
217.7078597658455
 30
0.0
 10
157.2374077170125
 20
217.9366069746193
 30
0.0
 10
157.5106754613657
 20
218.188377181836
 30
0.0
 10
157.7546010847209
 20
218.4197114501382
 30
0.0
 10
157.9244115847566
 20
218.5849380420889
 30
0.0
 10
158.0299699315549
 20
218.6889712479758
 30
0.0
 10
158.0915018196826
 20
218.7502457953374
 30
0.0
 10
158.1341531318217
 20
218.7928057920723
 30
0.0
 10
158.1439862355888
 20
218.8027242920498
 30
0.0
 10
158.1488380095416
 20
218.8076182015396
 30
0.0
  0
SPLINE
  5
185
330
1F
100
AcDbEntity
  8
0
  6
Continuous
 62
     8
370
    18
100
AcDbSpline
210
0.0
220
0.0
230
1.0
 70
     8
 71
     3
 72
     9
 73
     5
 74
     0
 42
0.000000001
 43
0.00000001
 40
0.0
 40
0.0
 40
0.0
 40
0.0
 40
0.6248494768306451
 40
1.0
 40
1.0
 40
1.0
 40
1.0
 10
124.5768115523912
 20
217.1310028491835
 30
0.0
 10
125.7147284565714
 20
216.2572476520716
 30
0.0
 10
127.5358340930071
 20
214.8589025633573
 30
0.0
 10
129.6475023617222
 20
213.97113495027
 30
0.0
 10
130.4396958174907
 20
213.6380884657675
 30
0.0
  0
SPLINE
  5
186
330
1F
100
AcDbEntity
  8
0
  6
Continuous
 62
     8
370
    18
100
AcDbSpline
210
0.0
220
0.0
230
1.0
 70
     8
 71
     3
 72
     9
 73
     5
 74
     0
 42
0.000000001
 43
0.00000001
 40
0.0
 40
0.0
 40
0.0
 40
0.0
 40
0.3710175016338943
 40
0.9999999999999999
 40
0.9999999999999999
 40
0.9999999999999999
 40
0.9999999999999999
 10
150.4396958174908
 20
213.6373121004399
 30
0.0
 10
151.2232856606541
 20
213.9664155732151
 30
0.0
 10
153.3352880317353
 20
214.8534450834833
 30
0.0
 10
155.1568458312004
 20
216.2515893950037
 30
0.0
 10
156.3025738068263
 20
217.1309976971402
 30
0.0
  0
SPLINE
  5
187
330
1F
100
AcDbEntity
  8
0
  6
Continuous
 62
     8
370
    18
100
AcDbSpline
210
0.0
220
0.0
230
1.0
 70
     8
 71
     3
 72
    21
 73
    17
 74
     0
 42
0.000000001
 43
0.00000001
 40
0.0
 40
0.0
 40
0.0
 40
0.0
 40
0.0309085280799466
 40
0.0622001789959344
 40
0.0939128063959968
 40
0.1260800090202496
 40
0.1870918231991353
 40
0.2515521140832264
 40
0.3763645087588514
 40
0.5015814384681714
 40
0.6261044964851069
 40
0.751253028302861
 40
0.8247751230326258
 40
0.8753089412859335
 40
0.9414255341036061
 40
1.0
 40
1.0
 40
1.0
 40
1.0
 10
122.7305538076071
 20
218.8076180187216
 30
0.0
 10
122.7324356124266
 20
218.8057216338204
 30
0.0
 10
122.7362225477446
 20
218.8019053576135
 30
0.0
 10
122.7491228856338
 20
218.7889436511736
 30
0.0
 10
122.7674003323888
 20
218.7706822789889
 30
0.0
 10
122.79866981665
 20
218.7395152337001
 30
0.0
 10
122.8505548337272
 20
218.6878466258218
 30
0.0
 10
122.9561548633104
 20
218.5837898066764
 30
0.0
 10
123.1263927236047
 20
218.4181691908895
 30
0.0
 10
123.3704622419008
 20
218.1867421377983
 30
0.0
 10
123.6448312223443
 20
217.9340128546386
 30
0.0
 10
123.9005466864391
 20
217.705517487347
 30
0.0
 10
124.1064775667766
 20
217.5267276521127
 30
0.0
 10
124.2667863019502
 20
217.3893478971567
 30
0.0
 10
124.41711295515
 20
217.2627984416574
 30
0.0
 10
124.5257342177008
 20
217.1731556503995
 30
0.0
 10
124.5767597884556
 20
217.131045344548
 30
0.0
  0
SPLINE
  5
188
330
1F
100
AcDbEntity
  8
0
  6
Continuous
 62
     8
370
    18
100
AcDbSpline
210
0.0
220
0.0
230
1.0
 70
     8
 71
     3
 72
     9
 73
     5
 74
     0
 42
0.000000001
 43
0.00000001
 40
0.0
 40
0.0
 40
0.0
 40
0.0
 40
0.6987094469970095
 40
1.0
 40
1.0
 40
1.0
 40
1.0
 10
122.7305514110515
 20
218.8076180308893
 30
0.0
 10
122.6501094849623
 20
220.3113043699594
 30
0.0
 10
122.5349801898957
 20
222.4633954079907
 30
0.0
 10
121.7587152938832
 20
224.4574377482168
 30
0.0
 10
121.5248340140868
 20
225.0582238676149
 30
0.0
  0
SPLINE
  5
189
330
1F
100
AcDbEntity
  8
0
  6
Continuous
 62
     8
370
    18
100
AcDbSpline
210
0.0
220
0.0
230
1.0
 70
     8
 71
     3
 72
     9
 73
     5
 74
     0
 42
0.000000001
 43
0.00000001
 40
0.0
 40
0.0
 40
0.0
 40
0.0
 40
0.6902438544056831
 40
0.9999999999999999
 40
0.9999999999999999
 40
0.9999999999999999
 40
0.9999999999999999
 10
158.1488388318697
 20
218.8076181941069
 30
0.0
 10
158.2305837469943
 20
220.3109924971044
 30
0.0
 10
158.3490127842147
 20
222.4890260911767
 30
0.0
 10
159.1366891352797
 20
224.5070714175544
 30
0.0
 10
159.3806767257614
 20
225.1321733594877
 30
0.0
  0
SPLINE
  5
18A
330
1F
100
AcDbEntity
  8
0
  6
Continuous
 62
     8
370
    18
100
AcDbSpline
210
0.0
220
0.0
230
1.0
 70
     8
 71
     3
 72
    42
 73
    38
 74
     0
 42
0.000000001
 43
0.00000001
 40
0.0
 40
0.0
 40
0.0
 40
0.0
 40
0.0078124999999991
 40
0.0078124999999991
 40
0.0156249999999982
 40
0.0156249999999982
 40
0.0234374999999974
 40
0.0234374999999974
 40
0.0312499999999966
 40
0.0312499999999966
 40
0.0390624999999958
 40
0.0390624999999958
 40
0.0468749999999949
 40
0.0468749999999949
 40
0.0546874999999941
 40
0.0546874999999941
 40
0.0585937499999937
 40
0.0585937499999937
 40
0.0624999999999933
 40
0.0624999999999933
 40
0.0703124999999932
 40
0.0703124999999932
 40
0.0781249999999932
 40
0.0781249999999932
 40
0.0859374999999931
 40
0.0859374999999931
 40
0.0937499999999931
 40
0.0937499999999931
 40
0.1249999999999936
 40
0.1249999999999936
 40
0.1874999999999939
 40
0.1874999999999939
 40
0.2499999999999941
 40
0.2499999999999941
 40
0.499999999999996
 40
0.499999999999996
 40
1.0
 40
1.0
 40
1.0
 40
1.0
 10
152.1747074746639
 20
96.6424609412268
 30
0.0
 10
152.4211612048496
 20
96.74102719064676
 30
0.0
 10
152.6643352580828
 20
96.85993114459515
 30
0.0
 10
153.118392149913
 20
97.12149873803222
 30
0.0
 10
153.3329372309289
 20
97.26565883884771
 30
0.0
 10
153.7438111912064
 20
97.58314288819886
 30
0.0
 10
153.9383042549701
 20
97.75534566864141
 30
0.0
 10
154.3052351364643
 20
98.12822269794778
 30
0.0
 10
154.4781515477383
 20
98.32960710455916
 30
0.0
 10
154.7919333242951
 20
98.74866391744958
 30
0.0
 10
154.9342959456673
 20
98.96760748207411
 30
0.0
 10
155.1891618078664
 20
99.42341574134156
 30
0.0
 10
155.3020172461897
 20
99.66141632155276
 30
0.0
 10
155.4925065404048
 20
100.1476111032649
 30
0.0
 10
155.5698839582802
 20
100.3948586063685
 30
0.0
 10
155.6579120819194
 20
100.7668088807553
 30
0.0
 10
155.6826661719965
 20
100.8913888853357
 30
0.0
 10
155.7230751327355
 20
101.1431910229766
 30
0.0
 10
155.7384633308429
 20
101.2692018116516
 30
0.0
 10
155.7739970053653
 20
101.6698090788043
 30
0.0
 10
155.7834786645009
 20
101.9639858922084
 30
0.0
 10
155.7936901287684
 20
102.5829632734814
 30
0.0
 10
155.7946593195717
 20
102.9023023954812
 30
0.0
 10
155.7967012494844
 20
103.5457925093208
 30
0.0
 10
155.7984356870432
 20
103.8712971981132
 30
0.0
 10
155.8035842933741
 20
104.5186257510426
 30
0.0
 10
155.8068600735895
 20
104.8409750779306
 30
0.0
 10
155.8238286142011
 20
106.451081370054
 30
0.0
 10
155.8351210899877
 20
107.733966706191
 30
0.0
 10
155.8610248234816
 20
111.5930863301765
 30
0.0
 10
155.8773205316547
 20
114.1688912677432
 30
0.0
 10
155.911762985196
 20
119.317155304418
 30
0.0
 10
155.9290060419777
 20
121.8910498049117
 30
0.0
 10
156.0103484632377
 20
134.7607051780849
 30
0.0
 10
156.060845351029
 20
145.0570960817989
 30
0.0
 10
156.1927865480371
 20
175.9456951116829
 30
0.0
 10
156.2493533160041
 20
196.5383483190712
 30
0.0
 10
156.3026255070049
 20
217.1310188835898
 30
0.0
  0
SPLINE
  5
18B
330
1F
100
AcDbEntity
  8
0
  6
Continuous
 62
     8
370
    18
100
AcDbSpline
210
0.0
220
0.0
230
1.0
 70
     8
 71
     3
 72
    41
 73
    37
 74
     0
 42
0.000000001
 43
0.00000001
 40
0.0
 40
0.0
 40
0.0
 40
0.0
 40
0.5000000000000039
 40
0.5000000000000039
 40
0.7500000000000057
 40
0.7500000000000057
 40
0.812500000000006
 40
0.812500000000006
 40
0.8750000000000062
 40
0.8750000000000062
 40
0.9062500000000057
 40
0.9062500000000057
 40
0.9140625000000052
 40
0.9140625000000052
 40
0.9218750000000048
 40
0.9296875000000042
 40
0.9296875000000042
 40
0.9375000000000038
 40
0.9375000000000038
 40
0.9414062500000036
 40
0.9414062500000036
 40
0.9453125000000033
 40
0.9453125000000033
 40
0.9531250000000029
 40
0.9531250000000029
 40
0.9609375000000024
 40
0.9609375000000024
 40
0.9687500000000019
 40
0.9687500000000019
 40
0.9765625000000014
 40
0.9765625000000014
 40
0.984375000000001
 40
0.984375000000001
 40
0.9921875000000004
 40
0.9921875000000004
 40
1.0
 40
1.0
 40
1.0
 40
1.0
 10
124.5767598435525
 20
217.1310240392127
 30
0.0
 10
124.6300056950117
 20
196.5414594989537
 30
0.0
 10
124.6865463877259
 20
175.9519123196894
 30
0.0
 10
124.8184491910938
 20
145.067972340271
 30
0.0
 10
124.8689378279725
 20
134.7731158049871
 30
0.0
 10
124.9502561554935
 20
121.905430361149
 30
0.0
 10
124.9674937871709
 20
119.3319337473317
 30
0.0
 10
125.00193399206
 20
114.184449312045
 30
0.0
 10
125.0182552992125
 20
111.6090175815757
 30
0.0
 10
125.0441277216855
 20
107.75045742739
 30
0.0
 10
125.0553565302909
 20
106.4677334354447
 30
0.0
 10
125.072339826614
 20
104.858004065807
 30
0.0
 10
125.0758171816419
 20
104.5357429511613
 30
0.0
 10
125.0805674686501
 20
103.888542739858
 30
0.0
 10
125.0815596373802
 20
103.2375217501673
 30
0.0
 10
125.0853316645974
 20
102.6002126732166
 30
0.0
 10
125.0956416685799
 20
101.9804362873933
 30
0.0
 10
125.1044162478166
 20
101.6863280685616
 30
0.0
 10
125.1394652959665
 20
101.2823757345137
 30
0.0
 10
125.1548051799401
 20
101.154161246038
 30
0.0
 10
125.1951436653879
 20
100.8996962940818
 30
0.0
 10
125.2198800470268
 20
100.7742714647654
 30
0.0
 10
125.3077588171344
 20
100.4007595501751
 30
0.0
 10
125.3845903173311
 20
100.1542822549444
 30
0.0
 10
125.5733451390358
 20
99.67052855523332
 30
0.0
 10
125.685919656623
 20
99.43193708776774
 30
0.0
 10
125.9426995131427
 20
98.97142547712637
 30
0.0
 10
126.0858510452798
 20
98.75103316703395
 30
0.0
 10
126.3992174515167
 20
98.33208641944665
 30
0.0
 10
126.5697386805125
 20
98.13303360667742
 30
0.0
 10
126.938244485412
 20
97.75812366178243
 30
0.0
 10
127.1355485593377
 20
97.58310306292847
 30
0.0
 10
127.5483034533536
 20
97.2642945028051
 30
0.0
 10
127.7628072034209
 20
97.12045577785103
 30
0.0
 10
128.214657941727
 20
96.86014264733141
 30
0.0
 10
128.4560881571133
 20
96.74188373212381
 30
0.0
 10
128.7046883022555
 20
96.64245928470977
 30
0.0
  0
SPLINE
  5
18C
330
1F
100
AcDbEntity
  8
0
  6
Continuous
 62
     8
370
    18
100
AcDbSpline
210
0.0
220
0.0
230
1.0
 70
     8
 71
     3
 72
    14
 73
    10
 74
     0
 42
0.000000001
 43
0.00000001
 40
0.0
 40
0.0
 40
0.0
 40
0.0
 40
0.25
 40
0.25
 40
0.5
 40
0.5
 40
0.75
 40
0.75
 40
1.0
 40
1.0
 40
1.0
 40
1.0
 10
128.7052842998751
 20
96.64287566100211
 30
0.0
 10
128.6492120461371
 20
96.49842474535905
 30
0.0
 10
128.5905437555597
 20
96.3460996064316
 30
0.0
 10
128.4795086847271
 20
96.05475004612701
 30
0.0
 10
128.4274281429458
 20
95.91645288340273
 30
0.0
 10
128.3422747567255
 20
95.68645148722129
 30
0.0
 10
128.3094123420647
 20
95.59531560202721
 30
0.0
 10
128.2676791402373
 20
95.47403316110281
 30
0.0
 10
128.2586996160708
 20
95.44364095002045
 30
0.0
 10
128.2593485859203
 20
95.43838841741805
 30
0.0
  0
SPLINE
  5
18D
330
1F
100
AcDbEntity
  8
0
  6
Continuous
 62
     8
370
    18
100
AcDbSpline
210
0.0
220
0.0
230
1.0
 70
     8
 71
     3
 72
    36
 73
    32
 74
     0
 42
0.000000001
 43
0.00000001
 40
0.0
 40
0.0
 40
0.0
 40
0.0
 40
0.0078124999999997
 40
0.0078124999999997
 40
0.0156249999999993
 40
0.0156249999999993
 40
0.023437499999999
 40
0.023437499999999
 40
0.0312499999999987
 40
0.0312499999999987
 40
0.0390624999999983
 40
0.0390624999999983
 40
0.046874999999998
 40
0.046874999999998
 40
0.0546874999999976
 40
0.0546874999999976
 40
0.0624999999999973
 40
0.0624999999999973
 40
0.070312499999997
 40
0.070312499999997
 40
0.0781249999999966
 40
0.0781249999999966
 40
0.0937499999999966
 40
0.0937499999999966
 40
0.1249999999999966
 40
0.1249999999999966
 40
0.2499999999999972
 40
0.2499999999999972
 40
0.4999999999999982
 40
0.4999999999999982
 40
1.0
 40
1.0
 40
1.0
 40
1.0
 10
128.2588791092253
 20
95.43857209328152
 30
0.0
 10
127.944307158012
 20
95.56123207288344
 30
0.0
 10
127.6403463208033
 20
95.70698239633654
 30
0.0
 10
127.0732274415272
 20
96.02787793003748
 30
0.0
 10
126.804190019927
 20
96.20568865599222
 30
0.0
 10
126.2863902435828
 20
96.60177265708336
 30
0.0
 10
126.0384613381431
 20
96.82053147200045
 30
0.0
 10
125.5776185238709
 20
97.28810420742595
 30
0.0
 10
125.3656985178162
 20
97.53557809380852
 30
0.0
 10
124.9769198142284
 20
98.0569807313228
 30
0.0
 10
124.7996227487926
 20
98.33169218560484
 30
0.0
 10
124.4824588675846
 20
98.90649980540084
 30
0.0
 10
124.3439317140414
 20
99.2046051195243
 30
0.0
 10
124.1120392642638
 20
99.81261566368963
 30
0.0
 10
124.0179431730999
 20
100.1236747922861
 30
0.0
 10
123.8759152294581
 20
100.7602233678213
 30
0.0
 10
123.8298114171982
 20
101.0876893463391
 30
0.0
 10
123.780115533848
 20
101.7421574989002
 30
0.0
 10
123.7736037204724
 20
102.0696592863943
 30
0.0
 10
123.7637623021746
 20
102.7237375463592
 30
0.0
 10
123.7620477354535
 20
103.0501243618505
 30
0.0
 10
123.7580876247022
 20
104.0283754719013
 30
0.0
 10
123.7521004265553
 20
104.6796533740214
 30
0.0
 10
123.7291858507546
 20
106.6360245651047
 30
0.0
 10
123.7168883906368
 20
107.9410565825316
 30
0.0
 10
123.6644492206105
 20
114.462937382816
 30
0.0
 10
123.6179615937051
 20
119.6793667897955
 30
0.0
 10
123.4775016104421
 20
135.331172751579
 30
0.0
 10
123.3861445705263
 20
145.7655490093598
 30
0.0
 10
123.1068006456098
 20
177.0690698548463
 30
0.0
 10
122.9188511134966
 20
197.9383516437323
 30
0.0
 10
122.7305538076182
 20
218.8076180151932
 30
0.0
  0
SPLINE
  5
18E
330
1F
100
AcDbEntity
  8
0
  6
Continuous
 62
     8
370
    18
100
AcDbSpline
210
0.0
220
0.0
230
1.0
 70
     8
 71
     3
 72
    36
 73
    32
 74
     0
 42
0.000000001
 43
0.00000001
 40
0.0
 40
0.0
 40
0.0
 40
0.0
 40
0.5000000000000017
 40
0.5000000000000017
 40
0.7500000000000024
 40
0.7500000000000024
 40
0.8750000000000029
 40
0.8750000000000029
 40
0.906250000000003
 40
0.906250000000003
 40
0.9218750000000031
 40
0.9218750000000031
 40
0.9296875000000028
 40
0.9296875000000028
 40
0.9375000000000024
 40
0.9375000000000024
 40
0.9453125000000021
 40
0.9453125000000021
 40
0.9531250000000019
 40
0.9531250000000019
 40
0.9609375000000016
 40
0.9609375000000016
 40
0.9687500000000012
 40
0.9687500000000012
 40
0.9765625000000009
 40
0.9765625000000009
 40
0.9843750000000007
 40
0.9843750000000007
 40
0.9921875000000003
 40
0.9921875000000003
 40
1.0
 40
1.0
 40
1.0
 40
1.0
 10
158.1488380095527
 20
218.8076182027707
 30
0.0
 10
157.9605133755717
 20
197.9352449176088
 30
0.0
 10
157.7725363430324
 20
177.0628561726669
 30
0.0
 10
157.4931522048232
 20
145.7546750250096
 30
0.0
 10
157.401786154567
 20
135.3187387353914
 30
0.0
 10
157.2612975583093
 20
119.6646140599212
 30
0.0
 10
157.2148470126532
 20
114.4474151646146
 30
0.0
 10
157.1623641424587
 20
107.9245462403219
 30
0.0
 10
157.1500084770678
 20
106.6192958565892
 30
0.0
 10
157.1270985214099
 20
104.6626200463677
 30
0.0
 10
157.1201729323874
 20
104.0113513663657
 30
0.0
 10
157.1155831964846
 20
103.0334862978841
 30
0.0
 10
157.1149660996969
 20
102.7066610357851
 30
0.0
 10
157.1056623753421
 20
102.051993892525
 30
0.0
 10
157.09838270827
 20
101.7233716819915
 30
0.0
 10
157.0476396015884
 20
101.0711128073983
 30
0.0
 10
157.0014568653638
 20
100.7488886008224
 30
0.0
 10
156.8593001584696
 20
100.1162413543079
 30
0.0
 10
156.7647667448324
 20
99.80478356568997
 30
0.0
 10
156.5306839906553
 20
99.19366574980273
 30
0.0
 10
156.3914135126903
 20
98.89549361414545
 30
0.0
 10
156.0765057466485
 20
98.32638827045741
 30
0.0
 10
155.9004164695865
 20
98.0539458922497
 30
0.0
 10
155.5113241155239
 20
97.53267878795982
 30
0.0
 10
155.2964479460511
 20
97.28232279260924
 30
0.0
 10
154.8370449284694
 20
96.81674993648134
 30
0.0
 10
154.5927820614064
 20
96.60167881557987
 30
0.0
 10
154.0774743025212
 20
96.20735456702393
 30
0.0
 10
153.8084550439607
 20
96.0291827628565
 30
0.0
 10
153.238609778932
 20
95.70674638491869
 30
0.0
 10
152.9323843641326
 20
95.56017951697163
 30
0.0
 10
152.6205176962566
 20
95.43857410939982
 30
0.0
  0
SPLINE
  5
18F
330
1F
100
AcDbEntity
  8
0
  6
Continuous
 62
     8
370
    18
100
AcDbSpline
210
0.0
220
0.0
230
1.0
 70
     8
 71
     3
 72
    14
 73
    10
 74
     0
 42
0.000000001
 43
0.00000001
 40
0.0
 40
0.0
 40
0.0
 40
0.0
 40
0.25
 40
0.25
 40
0.5
 40
0.5
 40
0.75
 40
0.75
 40
1.0
 40
1.0
 40
1.0
 40
1.0
 10
152.1748409454925
 20
96.64251703411111
 30
0.0
 10
152.2309019523233
 20
96.49810528293568
 30
0.0
 10
152.2895579988962
 20
96.34580154303862
 30
0.0
 10
152.4005307043129
 20
96.05456286985952
 30
0.0
 10
152.4525675915295
 20
95.91633536084987
 30
0.0
 10
152.5376269235086
 20
95.68646061447089
 30
0.0
 10
152.5704396749352
 20
95.59538010613991
 30
0.0
 10
152.6120870182514
 20
95.47416082985885
 30
0.0
 10
152.6210312735318
 20
95.4437743684747
 30
0.0
 10
152.6203545501043
 20
95.43851048784363
 30
0.0
  0
SPLINE
  5
190
330
1F
100
AcDbEntity
  8
0
  6
Continuous
 62
     8
370
    18
100
AcDbSpline
210
0.0
220
0.0
230
1.0
 70
     8
 71
     3
 72
    20
 73
    16
 74
     0
 42
0.000000001
 43
0.00000001
 40
0.0
 40
0.0
 40
0.0
 40
0.0
 40
0.1250000000000013
 40
0.1250000000000013
 40
0.1875000000000013
 40
0.1875000000000013
 40
0.2500000000000013
 40
0.2500000000000013
 40
0.3125000000000012
 40
0.3125000000000012
 40
0.3750000000000012
 40
0.3750000000000012
 40
0.500000000000001
 40
0.500000000000001
 40
1.0
 40
1.0
 40
1.0
 40
1.0
 10
128.7050480670845
 20
96.642971989258
 30
0.0
 10
129.0968529662653
 20
96.48384165668772
 30
0.0
 10
129.482660907408
 20
96.37272043819759
 30
0.0
 10
130.1043632146635
 20
96.26927080986744
 30
0.0
 10
130.3204010495654
 20
96.24476960855691
 30
0.0
 10
130.7646367077909
 20
96.21341676674766
 30
0.0
 10
130.9942557594264
 20
96.20693518893137
 30
0.0
 10
131.4829471497974
 20
96.20174937851928
 30
0.0
 10
131.7442746467698
 20
96.20276270801173
 30
0.0
 10
132.2711672484099
 20
96.19899279808159
 30
0.0
 10
132.5318498600213
 20
96.19536349637997
 30
0.0
 10
133.3043314705126
 20
96.18465535328791
 30
0.0
 10
133.8097085078916
 20
96.17941847731679
 30
0.0
 10
136.3565768648863
 20
96.16179744370135
 30
0.0
 10
138.3949736946431
 20
96.16896931955782
 30
0.0
 10
140.4383617542256
 20
96.1689890522549
 30
0.0
  0
SPLINE
  5
191
330
1F
100
AcDbEntity
  8
0
  6
Continuous
 62
     8
370
    18
100
AcDbSpline
210
0.0
220
0.0
230
1.0
 70
     8
 71
     3
 72
    20
 73
    16
 74
     0
 42
0.000000001
 43
0.00000001
 40
0.0
 40
0.0
 40
0.0
 40
0.0
 40
0.5000000000000007
 40
0.5000000000000007
 40
0.6250000000000009
 40
0.6250000000000009
 40
0.6875000000000007
 40
0.6875000000000007
 40
0.7500000000000006
 40
0.7500000000000006
 40
0.8125000000000004
 40
0.8125000000000004
 40
0.8750000000000002
 40
0.8750000000000002
 40
1.0
 40
1.0
 40
1.0
 40
1.0
 10
140.441091345922
 20
96.16898908420524
 30
0.0
 10
142.484307921157
 20
96.16901718695395
 30
0.0
 10
144.5229602884195
 20
96.16191043423625
 30
0.0
 10
147.0695249025533
 20
96.17954365939296
 30
0.0
 10
147.5751245166405
 20
96.18481599433825
 30
0.0
 10
148.3474614982502
 20
96.19553181115597
 30
0.0
 10
148.6081156924999
 20
96.19914308754576
 30
0.0
 10
149.1351576102524
 20
96.20285250203287
 30
0.0
 10
149.396084120423
 20
96.20179889557218
 30
0.0
 10
149.8848591378182
 20
96.20703072902961
 30
0.0
 10
150.1145875374399
 20
96.2135976760787
 30
0.0
 10
150.5586513084308
 20
96.24501368209876
 30
0.0
 10
150.7746918413966
 20
96.26947022945478
 30
0.0
 10
151.3964627980024
 20
96.37269022292324
 30
0.0
 10
151.7825211648021
 20
96.48378870707263
 30
0.0
 10
152.1743465727001
 20
96.64297527009624
 30
0.0
  0
SPLINE
  5
192
330
1F
100
AcDbEntity
  8
0
  6
Continuous
 62
     8
370
    18
100
AcDbSpline
210
0.0
220
0.0
230
1.0
 70
     8
 71
     3
 72
    14
 73
    10
 74
     0
 42
0.000000001
 43
0.00000001
 40
0.0
 40
0.0
 40
0.0
 40
0.0
 40
0.25
 40
0.25
 40
0.5
 40
0.5
 40
0.75
 40
0.75
 40
1.0
 40
1.0
 40
1.0
 40
1.0
 10
140.4404178936448
 20
96.16898907211075
 30
0.0
 10
140.4404166470179
 20
96.01995953938346
 30
0.0
 10
140.4404147804119
 20
95.86505897271022
 30
0.0
 10
140.4404098086247
 20
95.57198604283693
 30
0.0
 10
140.4404067034743
 20
95.43444777261176
 30
0.0
 10
140.4403997529547
 20
95.20674070609694
 30
0.0
 10
140.4403959221136
 20
95.11704786702474
 30
0.0
 10
140.4403883119898
 20
94.99792282378621
 30
0.0
 10
140.4403845455672
 20
94.96827885347663
 30
0.0
 10
140.4403811064923
 20
94.96379936858804
 30
0.0
  0
SPLINE
  5
193
330
1F
100
AcDbEntity
  8
0
  6
Continuous
 62
     8
370
    18
100
AcDbSpline
210
0.0
220
0.0
230
1.0
 70
     8
 71
     3
 72
    20
 73
    16
 74
     0
 42
0.000000001
 43
0.00000001
 40
0.0
 40
0.0
 40
0.0
 40
0.0
 40
0.4999999999999993
 40
0.4999999999999993
 40
0.6249999999999992
 40
0.6249999999999992
 40
0.6874999999999993
 40
0.6874999999999993
 40
0.7499999999999994
 40
0.7499999999999994
 40
0.8124999999999996
 40
0.8124999999999996
 40
0.8749999999999997
 40
0.8749999999999997
 40
1.0
 40
1.0
 40
1.0
 40
1.0
 10
140.4383294200574
 20
94.96379937235336
 30
0.0
 10
138.3993667290795
 20
94.96380311432948
 30
0.0
 10
136.3600422169982
 20
94.95511510044174
 30
0.0
 10
133.8111981834569
 20
94.95994992206069
 30
0.0
 10
133.3016226344849
 20
94.96212976695573
 30
0.0
 10
132.5364019562633
 20
94.96559296456985
 30
0.0
 10
132.2814180402517
 20
94.96632353237102
 30
0.0
 10
131.7727020772513
 20
94.96364278282005
 30
0.0
 10
131.5178280065057
 20
94.95910410767145
 30
0.0
 10
131.0068393498612
 20
94.95703363768001
 30
0.0
 10
130.7507113735878
 20
94.95992396799264
 30
0.0
 10
130.2386090388493
 20
94.98739353606584
 30
0.0
 10
129.9834136377289
 20
95.01138998203129
 30
0.0
 10
129.227806249325
 20
95.12255225166128
 30
0.0
 10
128.7348456985431
 20
95.25302032109228
 30
0.0
 10
128.2593308955703
 20
95.43839527760342
 30
0.0
  0
SPLINE
  5
194
330
1F
100
AcDbEntity
  8
0
  6
Continuous
 62
     8
370
    18
100
AcDbSpline
210
0.0
220
0.0
230
1.0
 70
     8
 71
     3
 72
    20
 73
    16
 74
     0
 42
0.000000001
 43
0.00000001
 40
0.0
 40
0.0
 40
0.0
 40
0.0
 40
0.1249999999999986
 40
0.1249999999999986
 40
0.1874999999999987
 40
0.1874999999999987
 40
0.2499999999999988
 40
0.2499999999999988
 40
0.3124999999999989
 40
0.3124999999999989
 40
0.3749999999999989
 40
0.3749999999999989
 40
0.4999999999999993
 40
0.4999999999999993
 40
1.0
 40
1.0
 40
1.0
 40
1.0
 10
152.6200226075209
 20
95.43838040418301
 30
0.0
 10
152.1443729247539
 20
95.25295647698839
 30
0.0
 10
151.6513320326962
 20
95.12250500665698
 30
0.0
 10
150.895873393939
 20
95.01137899289195
 30
0.0
 10
150.6407314793851
 20
94.98738934777649
 30
0.0
 10
150.1287951258816
 20
94.9599244434407
 30
0.0
 10
149.8724371069729
 20
94.95702558538075
 30
0.0
 10
149.3611819310172
 20
94.95910112948825
 30
0.0
 10
149.1067048826952
 20
94.96363630178098
 30
0.0
 10
148.5978487483876
 20
94.9663174412288
 30
0.0
 10
148.3428937804974
 20
94.9655862284109
 30
0.0
 10
147.5778195138633
 20
94.96212382329888
 30
0.0
 10
147.0680224786622
 20
94.95994349808589
 30
0.0
 10
144.5194422366465
 20
94.95511093828848
 30
0.0
 10
142.4798738358755
 20
94.96380038488175
 30
0.0
 10
140.4410622149396
 20
94.9637993705315
 30
0.0
  0
SPLINE
  5
195
330
1F
100
AcDbEntity
  8
0
  6
Continuous
 62
     8
370
    18
100
AcDbSpline
210
0.0
220
0.0
230
1.0
 70
     8
 71
     3
 72
     9
 73
     5
 74
     0
 42
0.000000001
 43
0.00000001
 40
0.0
 40
0.0
 40
0.0
 40
0.0
 40
0.004714469796842
 40
0.9999999999999999
 40
0.9999999999999999
 40
0.9999999999999999
 40
0.9999999999999999
 10
158.2921887562209
 20
218.8076179178912
 30
0.0
 10
158.2924115122616
 20
218.8076179638657
 30
0.0
 10
158.3396609486401
 20
218.8076277156369
 30
0.0
 10
158.2440252791069
 20
218.8076374420522
 30
0.0
 10
158.1488404810491
 20
218.8076471226125
 30
0.0
  0
SPLINE
  5
196
330
1F
100
AcDbEntity
  8
0
  6
Continuous
 62
     8
370
    18
100
AcDbSpline
210
0.0
220
0.0
230
1.0
 70
     8
 71
     3
 72
     9
 73
     5
 74
     0
 42
0.000000001
 43
0.00000001
 40
0.0
 40
0.0
 40
0.0
 40
0.0
 40
0.9952797520387202
 40
1.0
 40
1.0
 40
1.0
 40
1.0
 10
122.7305511539318
 20
218.8076471226125
 30
0.0
 10
122.6353666297811
 20
218.8076374420521
 30
0.0
 10
122.5397306802346
 20
218.8076277155803
 30
0.0
 10
122.5869806661292
 20
218.8076179637524
 30
0.0
 10
122.5872036977788
 20
218.8076179177214
 30
0.0
  0
LINE
  5
197
330
1F
100
AcDbEntity
  8
0
  6
Continuous
 62
     8
370
    18
100
AcDbLine
 10
140.4377362953
 20
94.8958356627
 30
0.0
 11
140.4383294204
 21
94.9637994128
 31
0.0
  0
ENDSEC
  0
SECTION
  2
OBJECTS
  0
DICTIONARY
  5
C
330
0
100
AcDbDictionary
281
     1
  3
ACAD_GROUP
350
D
  3
ACAD_LAYOUT
350
1A
  3
ACAD_MLINESTYLE
350
17
  3
ACAD_PLOTSETTINGS
350
19
  3
ACAD_PLOTSTYLENAME
350
E
  3
ACAD_SCALELIST
350
47
  0
DICTIONARY
  5
D
102
{ACAD_REACTORS
330
C
102
}
330
C
100
AcDbDictionary
281
     1
  0
DICTIONARY
  5
1A
102
{ACAD_REACTORS
330
C
102
}
330
C
100
AcDbDictionary
281
     1
  3
Layout1
350
1E
  3
Layout2
350
26
  3
Model
350
22
  0
DICTIONARY
  5
17
102
{ACAD_REACTORS
330
C
102
}
330
C
100
AcDbDictionary
281
     1
  3
Standard
350
18
  0
DICTIONARY
  5
19
102
{ACAD_REACTORS
330
C
102
}
330
C
100
AcDbDictionary
281
     1
  0
ACDBDICTIONARYWDFLT
  5
E
102
{ACAD_REACTORS
330
C
102
}
330
C
100
AcDbDictionary
281
     1
  3
Normal
350
F
100
AcDbDictionaryWithDefault
340
F
  0
DICTIONARY
  5
47
102
{ACAD_REACTORS
330
C
102
}
330
C
100
AcDbDictionary
281
     1
  3
A0
350
48
  3
A1
350
49
  3
A2
350
4A
  3
A3
350
4B
  3
A4
350
4C
  3
A5
350
4D
  3
A6
350
4E
  3
A7
350
4F
  3
A8
350
50
  3
A9
350
51
  3
B0
350
52
  3
B1
350
53
  3
B2
350
54
  3
B3
350
55
  3
B4
350
56
  3
B5
350
57
  3
B6
350
58
  3
B7
350
59
  3
B8
350
5A
  3
B9
350
5B
  3
C0
350
5C
  3
C1
350
5D
  3
C2
350
5E
  3
C3
350
5F
  3
C4
350
60
  3
C5
350
61
  3
C6
350
62
  3
C7
350
63
  3
C8
350
64
  3
C9
350
65
  3
D0
350
66
  3
D1
350
67
  3
D2
350
68
  0
LAYOUT
  5
1E
102
{ACAD_REACTORS
330
1A
102
}
330
1A
100
AcDbPlotSettings
  1

  2
none_device
  4

  6

 40
0.0
 41
0.0
 42
0.0
 43
0.0
 44
0.0
 45
0.0
 46
0.0
 47
0.0
 48
0.0
 49
0.0
140
0.0
141
0.0
142
1.0
143
1.0
 70
   688
 72
     1
 73
     0
 74
     5
  7

 75
    16
147
1.0
148
0.0
149
0.0
100
AcDbLayout
  1
Layout1
 70
     1
 71
     1
 10
0.0
 20
0.0
 11
420.0
 21
297.0
 12
0.0
 22
0.0
 32
0.0
 14
1.0000000000E+20
 24
1.0000000000E+20
 34
1.0000000000E+20
 15
-1.0000000000E+20
 25
-1.0000000000E+20
 35
-1.0000000000E+20
146
0.0
 13
0.0
 23
0.0
 33
0.0
 16
1.0
 26
0.0
 36
0.0
 17
0.0
 27
1.0
 37
0.0
 76
     0
330
1B
  0
LAYOUT
  5
26
102
{ACAD_REACTORS
330
1A
102
}
330
1A
100
AcDbPlotSettings
  1

  2
none_device
  4

  6

 40
0.0
 41
0.0
 42
0.0
 43
0.0
 44
0.0
 45
0.0
 46
0.0
 47
0.0
 48
0.0
 49
0.0
140
0.0
141
0.0
142
1.0
143
1.0
 70
   688
 72
     1
 73
     0
 74
     5
  7

 75
    16
147
1.0
148
0.0
149
0.0
100
AcDbLayout
  1
Layout2
 70
     1
 71
     2
 10
0.0
 20
0.0
 11
0.0
 21
0.0
 12
0.0
 22
0.0
 32
0.0
 14
0.0
 24
0.0
 34
0.0
 15
0.0
 25
0.0
 35
0.0
146
0.0
 13
0.0
 23
0.0
 33
0.0
 16
1.0
 26
0.0
 36
0.0
 17
0.0
 27
1.0
 37
0.0
 76
     0
330
23
  0
LAYOUT
  5
22
102
{ACAD_REACTORS
330
1A
102
}
330
1A
100
AcDbPlotSettings
  1

  2
none_device
  4
Letter_(8.50_x_11.00_Inches)
  6

 40
6.35
 41
6.35
 42
6.35000508
 43
6.35000508
 44
215.9
 45
279.4
 46
0.0
 47
0.0
 48
0.0
 49
0.0
140
0.0
141
0.0
142
1.0
143
1.0
 70
  1712
 72
     1
 73
     0
 74
     0
  7

 75
     0
147
1.0
148
0.0
149
0.0
100
AcDbLayout
  1
Model
 70
     1
 71
     0
 10
0.0
 20
0.0
 11
594.0
 21
841.0
 12
0.0
 22
0.0
 32
0.0
 14
0.0
 24
0.0
 34
0.0
 15
594.0
 25
841.0
 35
0.0
146
0.0
 13
0.0
 23
0.0
 33
0.0
 16
1.0
 26
0.0
 36
0.0
 17
0.0
 27
1.0
 37
0.0
 76
     0
330
1F
331
29
  0
MLINESTYLE
  5
18
102
{ACAD_REACTORS
330
17
102
}
330
17
100
AcDbMlineStyle
  2
Standard
 70
     0
  3

 62
   256
 51
90.0
 52
90.0
 71
     2
 49
0.5
 62
   256
  6
BYLAYER
 49
-0.5
 62
   256
  6
BYLAYER
  0
ACDBPLACEHOLDER
  5
F
102
{ACAD_REACTORS
330
E
102
}
330
E
  0
SCALE
  5
48
102
{ACAD_REACTORS
330
47
102
}
330
47
100
AcDbScale
 70
     0
300
1:1
140
1.0
141
1.0
290
     1
  0
SCALE
  5
49
102
{ACAD_REACTORS
330
47
102
}
330
47
100
AcDbScale
 70
     0
300
1:2
140
1.0
141
2.0
290
     0
  0
SCALE
  5
4A
102
{ACAD_REACTORS
330
47
102
}
330
47
100
AcDbScale
 70
     0
300
1:4
140
1.0
141
4.0
290
     0
  0
SCALE
  5
4B
102
{ACAD_REACTORS
330
47
102
}
330
47
100
AcDbScale
 70
     0
300
1:5
140
1.0
141
5.0
290
     0
  0
SCALE
  5
4C
102
{ACAD_REACTORS
330
47
102
}
330
47
100
AcDbScale
 70
     0
300
1:8
140
1.0
141
8.0
290
     0
  0
SCALE
  5
4D
102
{ACAD_REACTORS
330
47
102
}
330
47
100
AcDbScale
 70
     0
300
1:10
140
1.0
141
10.0
290
     0
  0
SCALE
  5
4E
102
{ACAD_REACTORS
330
47
102
}
330
47
100
AcDbScale
 70
     0
300
1:16
140
1.0
141
16.0
290
     0
  0
SCALE
  5
4F
102
{ACAD_REACTORS
330
47
102
}
330
47
100
AcDbScale
 70
     0
300
1:20
140
1.0
141
20.0
290
     0
  0
SCALE
  5
50
102
{ACAD_REACTORS
330
47
102
}
330
47
100
AcDbScale
 70
     0
300
1:30
140
1.0
141
30.0
290
     0
  0
SCALE
  5
51
102
{ACAD_REACTORS
330
47
102
}
330
47
100
AcDbScale
 70
     0
300
1:40
140
1.0
141
40.0
290
     0
  0
SCALE
  5
52
102
{ACAD_REACTORS
330
47
102
}
330
47
100
AcDbScale
 70
     0
300
1:50
140
1.0
141
50.0
290
     0
  0
SCALE
  5
53
102
{ACAD_REACTORS
330
47
102
}
330
47
100
AcDbScale
 70
     0
300
1:100
140
1.0
141
100.0
290
     0
  0
SCALE
  5
54
102
{ACAD_REACTORS
330
47
102
}
330
47
100
AcDbScale
 70
     0
300
2:1
140
2.0
141
1.0
290
     0
  0
SCALE
  5
55
102
{ACAD_REACTORS
330
47
102
}
330
47
100
AcDbScale
 70
     0
300
4:1
140
4.0
141
1.0
290
     0
  0
SCALE
  5
56
102
{ACAD_REACTORS
330
47
102
}
330
47
100
AcDbScale
 70
     0
300
8:1
140
8.0
141
1.0
290
     0
  0
SCALE
  5
57
102
{ACAD_REACTORS
330
47
102
}
330
47
100
AcDbScale
 70
     0
300
10:1
140
10.0
141
1.0
290
     0
  0
SCALE
  5
58
102
{ACAD_REACTORS
330
47
102
}
330
47
100
AcDbScale
 70
     0
300
100:1
140
100.0
141
1.0
290
     0
  0
SCALE
  5
59
102
{ACAD_REACTORS
330
47
102
}
330
47
100
AcDbScale
 70
     0
300
1/128" = 1'-0"
140
0.0078125
141
12.0
290
     0
  0
SCALE
  5
5A
102
{ACAD_REACTORS
330
47
102
}
330
47
100
AcDbScale
 70
     0
300
1/64" = 1'-0"
140
0.015625
141
12.0
290
     0
  0
SCALE
  5
5B
102
{ACAD_REACTORS
330
47
102
}
330
47
100
AcDbScale
 70
     0
300
1/32" = 1'-0"
140
0.03125
141
12.0
290
     0
  0
SCALE
  5
5C
102
{ACAD_REACTORS
330
47
102
}
330
47
100
AcDbScale
 70
     0
300
1/16" = 1'-0"
140
0.0625
141
12.0
290
     0
  0
SCALE
  5
5D
102
{ACAD_REACTORS
330
47
102
}
330
47
100
AcDbScale
 70
     0
300
3/32" = 1'-0"
140
0.09375
141
12.0
290
     0
  0
SCALE
  5
5E
102
{ACAD_REACTORS
330
47
102
}
330
47
100
AcDbScale
 70
     0
300
1/8" = 1'-0"
140
0.125
141
12.0
290
     0
  0
SCALE
  5
5F
102
{ACAD_REACTORS
330
47
102
}
330
47
100
AcDbScale
 70
     0
300
3/16" = 1'-0"
140
0.1875
141
12.0
290
     0
  0
SCALE
  5
60
102
{ACAD_REACTORS
330
47
102
}
330
47
100
AcDbScale
 70
     0
300
1/4" = 1'-0"
140
0.25
141
12.0
290
     0
  0
SCALE
  5
61
102
{ACAD_REACTORS
330
47
102
}
330
47
100
AcDbScale
 70
     0
300
3/8" = 1'-0"
140
0.375
141
12.0
290
     0
  0
SCALE
  5
62
102
{ACAD_REACTORS
330
47
102
}
330
47
100
AcDbScale
 70
     0
300
1/2" = 1'-0"
140
0.5
141
12.0
290
     0
  0
SCALE
  5
63
102
{ACAD_REACTORS
330
47
102
}
330
47
100
AcDbScale
 70
     0
300
3/4" = 1'-0"
140
0.75
141
12.0
290
     0
  0
SCALE
  5
64
102
{ACAD_REACTORS
330
47
102
}
330
47
100
AcDbScale
 70
     0
300
1" = 1'-0"
140
1.0
141
12.0
290
     0
  0
SCALE
  5
65
102
{ACAD_REACTORS
330
47
102
}
330
47
100
AcDbScale
 70
     0
300
1-1/2" = 1'-0"
140
1.5
141
12.0
290
     0
  0
SCALE
  5
66
102
{ACAD_REACTORS
330
47
102
}
330
47
100
AcDbScale
 70
     0
300
3" = 1'-0"
140
3.0
141
12.0
290
     0
  0
SCALE
  5
67
102
{ACAD_REACTORS
330
47
102
}
330
47
100
AcDbScale
 70
     0
300
6" = 1'-0"
140
6.0
141
12.0
290
     0
  0
SCALE
  5
68
102
{ACAD_REACTORS
330
47
102
}
330
47
100
AcDbScale
 70
     0
300
1'-0" = 1'-0"
140
12.0
141
12.0
290
     0
  0
ENDSEC
  0
EOF
