  0
SECTION
  2
HEADER
  9
$ACADVER
  1
AC1015
  9
$ACADMAINTVER
 70
     6
  9
$DWGCODEPAGE
  3
ANSI_1252
  9
$INSBASE
 10
0.0
 20
0.0
 30
0.0
  9
$EXTMIN
 10
0.0
 20
0.0
 30
0.0
  9
$EXTMAX
 10
594.0
 20
841.0
 30
0.0
  9
$LIMMIN
 10
0.0
 20
0.0
  9
$LIMMAX
 10
594.0
 20
841.0
  9
$ORTHOMODE
 70
     0
  9
$REGENMODE
 70
     1
  9
$FILLMODE
 70
     1
  9
$QTEXTMODE
 70
     0
  9
$MIRRTEXT
 70
     1
  9
$LTSCALE
 40
1.0
  9
$ATTMODE
 70
     1
  9
$TEXTSIZE
 40
10.0
  9
$TRACEWID
 40
1.0
  9
$TEXTSTYLE
  7
Standard
  9
$CLAYER
  8
0
  9
$CELTYPE
  6
ByLayer
  9
$CECOLOR
 62
   256
  9
$CELTSCALE
 40
1.0
  9
$DISPSILH
 70
     0
  9
$DIMSCALE
 40
1.0
  9
$DIMASZ
 40
2.5
  9
$DIMEXO
 40
0.0
  9
$DIMDLI
 40
3.75
  9
$DIMRND
 40
0.0
  9
$DIMDLE
 40
0.0
  9
$DIMEXE
 40
1.0
  9
$DIMTP
 40
0.0
  9
$DIMTM
 40
0.0
  9
$DIMTXT
 40
3.5
  9
$DIMCEN
 40
2.5
  9
$DIMTSZ
 40
0.0
  9
$DIMTOL
 70
     0
  9
$DIMLIM
 70
     0
  9
$DIMTIH
 70
     1
  9
$DIMTOH
 70
     1
  9
$DIMSE1
 70
     0
  9
$DIMSE2
 70
     0
  9
$DIMTAD
 70
     1
  9
$DIMZIN
 70
     0
  9
$DIMBLK
  1

  9
$DIMASO
 70
     1
  9
$DIMSHO
 70
     1
  9
$DIMPOST
  1

  9
$DIMAPOST
  1

  9
$DIMALT
 70
     0
  9
$DIMALTD
 70
     3
  9
$DIMALTF
 40
0.0393700787
  9
$DIMLFAC
 40
1.0
  9
$DIMTOFL
 70
     1
  9
$DIMTVP
 40
0.0
  9
$DIMTIX
 70
     0
  9
$DIMSOXD
 70
     0
  9
$DIMSAH
 70
     0
  9
$DIMBLK1
  1

  9
$DIMBLK2
  1

  9
$DIMSTYLE
  2
ISO-25
  9
$DIMCLRD
 70
     0
  9
$DIMCLRE
 70
     0
  9
$DIMCLRT
 70
     0
  9
$DIMTFAC
 40
1.0
  9
$DIMGAP
 40
1.5
  9
$DIMJUST
 70
     0
  9
$DIMSD1
 70
     0
  9
$DIMSD2
 70
     0
  9
$DIMTOLJ
 70
     0
  9
$DIMTZIN
 70
     0
  9
$DIMALTZ
 70
     0
  9
$DIMALTTZ
 70
     0
  9
$DIMUPT
 70
     0
  9
$DIMDEC
 70
     2
  9
$DIMTDEC
 70
     2
  9
$DIMALTU
 70
     2
  9
$DIMALTTD
 70
     3
  9
$DIMTXSTY
  7
Standard
  9
$DIMAUNIT
 70
     0
  9
$DIMADEC
 70
     2
  9
$DIMALTRND
 40
0.0
  9
$DIMAZIN
 70
     0
  9
$DIMDSEP
 70
    44
  9
$DIMATFIT
 70
     3
  9
$DIMFRAC
 70
     0
  9
$DIMLDRBLK
  1

  9
$DIMLUNIT
 70
     2
  9
$DIMLWD
 70
    -2
  9
$DIMLWE
 70
    -2
  9
$DIMTMOVE
 70
     0
  9
$LUNITS
 70
     2
  9
$LUPREC
 70
     2
  9
$SKETCHINC
 40
1.0
  9
$FILLETRAD
 40
0.0
  9
$AUNITS
 70
     0
  9
$AUPREC
 70
     2
  9
$MENU
  1
.
  9
$ELEVATION
 40
0.0
  9
$PELEVATION
 40
0.0
  9
$THICKNESS
 40
0.0
  9
$LIMCHECK
 70
     0
  9
$CHAMFERA
 40
0.0
  9
$CHAMFERB
 40
0.0
  9
$CHAMFERC
 40
0.0
  9
$CHAMFERD
 40
0.0
  9
$SKPOLY
 70
     0
  9
$TDCREATE
 40
2460299.417878982
  9
$TDUCREATE
 40
2460299.376212315
  9
$TDUPDATE
 40
2460299.417880428
  9
$TDUUPDATE
 40
2460299.376213762
  9
$TDINDWG
 40
0.0000000116
  9
$TDUSRTIMER
 40
0.0000000116
  9
$USRTIMER
 70
     1
  9
$ANGBASE
 50
0.0
  9
$ANGDIR
 70
     0
  9
$PDMODE
 70
     0
  9
$PDSIZE
 40
-1.0
  9
$PLINEWID
 40
0.0
  9
$SPLFRAME
 70
     0
  9
$SPLINETYPE
 70
     6
  9
$SPLINESEGS
 70
     8
  9
$HANDSEED
  5
23C
  9
$SURFTAB1
 70
     6
  9
$SURFTAB2
 70
     6
  9
$SURFTYPE
 70
     6
  9
$SURFU
 70
     6
  9
$SURFV
 70
     6
  9
$UCSBASE
  2

  9
$UCSNAME
  2

  9
$UCSORG
 10
0.0
 20
0.0
 30
0.0
  9
$UCSXDIR
 10
1.0
 20
0.0
 30
0.0
  9
$UCSYDIR
 10
0.0
 20
1.0
 30
0.0
  9
$UCSORTHOREF
  2

  9
$UCSORTHOVIEW
 70
     0
  9
$UCSORGTOP
 10
0.0
 20
0.0
 30
0.0
  9
$UCSORGBOTTOM
 10
0.0
 20
0.0
 30
0.0
  9
$UCSORGLEFT
 10
0.0
 20
0.0
 30
0.0
  9
$UCSORGRIGHT
 10
0.0
 20
0.0
 30
0.0
  9
$UCSORGFRONT
 10
0.0
 20
0.0
 30
0.0
  9
$UCSORGBACK
 10
0.0
 20
0.0
 30
0.0
  9
$PUCSBASE
  2

  9
$PUCSNAME
  2

  9
$PUCSORG
 10
0.0
 20
0.0
 30
0.0
  9
$PUCSXDIR
 10
1.0
 20
0.0
 30
0.0
  9
$PUCSYDIR
 10
0.0
 20
1.0
 30
0.0
  9
$PUCSORTHOREF
  2

  9
$PUCSORTHOVIEW
 70
     0
  9
$PUCSORGTOP
 10
0.0
 20
0.0
 30
0.0
  9
$PUCSORGBOTTOM
 10
0.0
 20
0.0
 30
0.0
  9
$PUCSORGLEFT
 10
0.0
 20
0.0
 30
0.0
  9
$PUCSORGRIGHT
 10
0.0
 20
0.0
 30
0.0
  9
$PUCSORGFRONT
 10
0.0
 20
0.0
 30
0.0
  9
$PUCSORGBACK
 10
0.0
 20
0.0
 30
0.0
  9
$USERI1
 70
     0
  9
$USERI2
 70
     0
  9
$USERI3
 70
     0
  9
$USERI4
 70
     0
  9
$USERI5
 70
     0
  9
$USERR1
 40
0.0
  9
$USERR2
 40
0.0
  9
$USERR3
 40
0.0
  9
$USERR4
 40
0.0
  9
$USERR5
 40
0.0
  9
$WORLDVIEW
 70
     1
  9
$SHADEDGE
 70
     3
  9
$SHADEDIF
 70
    70
  9
$TILEMODE
 70
     1
  9
$MAXACTVP
 70
    64
  9
$PINSBASE
 10
0.0
 20
0.0
 30
0.0
  9
$PLIMCHECK
 70
     0
  9
$PEXTMIN
 10
1.0000000000E+20
 20
1.0000000000E+20
 30
1.0000000000E+20
  9
$PEXTMAX
 10
-1.0000000000E+20
 20
-1.0000000000E+20
 30
-1.0000000000E+20
  9
$PLIMMIN
 10
0.0
 20
0.0
  9
$PLIMMAX
 10
420.0
 20
297.0
  9
$UNITMODE
 70
     0
  9
$VISRETAIN
 70
     1
  9
$PLINEGEN
 70
     0
  9
$PSLTSCALE
 70
     1
  9
$TREEDEPTH
 70
  3020
  9
$CMLSTYLE
  2
Standard
  9
$CMLJUST
 70
     0
  9
$CMLSCALE
 40
20.0
  9
$PROXYGRAPHICS
 70
     1
  9
$MEASUREMENT
 70
     1
  9
$CELWEIGHT
370
    -1
  9
$ENDCAPS
280
     0
  9
$JOINSTYLE
280
     0
  9
$LWDISPLAY
290
     1
  9
$INSUNITS
 70
     4
  9
$HYPERLINKBASE
  1

  9
$STYLESHEET
  1

  9
$XEDIT
290
     1
  9
$CEPSNTYPE
380
     0
  9
$PSTYLEMODE
290
     1
  9
$FINGERPRINTGUID
  2
{2bf07ecd-189e-4613-9266-bc9f93d93046}
  9
$VERSIONGUID
  2
{FAEB1C32-E019-11D5-929B-00C0DF256EC4}
  9
$EXTNAMES
290
     1
  9
$PSVPSCALE
 40
0.0
  9
$OLESTARTUP
290
     0
  0
ENDSEC
  0
SECTION
  2
CLASSES
  0
CLASS
  1
ACDBDICTIONARYWDFLT
  2
AcDbDictionaryWithDefault
  3
ObjectDBX Classes
 90
        0
280
     0
281
     0
  0
CLASS
  1
VISUALSTYLE
  2
AcDbVisualStyle
  3
ObjectDBX Classes
 90
     4095
280
     0
281
     0
  0
CLASS
  1
MATERIAL
  2
AcDbMaterial
  3
ObjectDBX Classes
 90
     1153
280
     0
281
     0
  0
CLASS
  1
SCALE
  2
AcDbScale
  3
ObjectDBX Classes
 90
     1153
280
     0
281
     0
  0
CLASS
  1
TABLESTYLE
  2
AcDbTableStyle
  3
ObjectDBX Classes
 90
     4095
280
     0
281
     0
  0
CLASS
  1
MLEADERSTYLE
  2
AcDbMLeaderStyle
  3
ACDB_MLEADERSTYLE_CLASS
 90
     4095
280
     0
281
     0
  0
CLASS
  1
SUN
  2
AcDbSun
  3
SCENEOE
 90
     1153
280
     0
281
     0
  0
CLASS
  1
ACDBPLACEHOLDER
  2
AcDbPlaceHolder
  3
ObjectDBX Classes
 90
        0
280
     0
281
     0
  0
CLASS
  1
LAYOUT
  2
AcDbLayout
  3
ObjectDBX Classes
 90
        0
280
     0
281
     0
  0
ENDSEC
  0
SECTION
  2
TABLES
  0
TABLE
  2
VPORT
  5
8
330
0
100
AcDbSymbolTable
 70
     1
  0
VPORT
  5
29
330
8
100
AcDbSymbolTableRecord
100
AcDbViewportTableRecord
  2
*Active
 70
     0
 10
0.0
 20
0.0
 11
1.0
 21
1.0
 12
297.0
 22
420.5
 13
0.0
 23
0.0
 14
10.0
 24
10.0
 15
10.0
 25
10.0
 16
0.0
 26
0.0
 36
1.0
 17
0.0
 27
0.0
 37
0.0
 40
841.0
 41
0.7063020214
 42
50.0
 43
0.0
 44
0.0
 50
0.0
 51
0.0
 71
     0
 72
  2000
 73
     1
 74
     3
 75
     0
 76
     0
 77
     0
 78
     0
281
     0
 65
     1
110
0.0
120
0.0
130
0.0
111
1.0
121
0.0
131
0.0
112
0.0
122
1.0
132
0.0
 79
     0
146
0.0
  0
ENDTAB
  0
TABLE
  2
LTYPE
  5
5
330
0
100
AcDbSymbolTable
 70
     6
  0
LTYPE
  5
14
330
5
100
AcDbSymbolTableRecord
100
AcDbLinetypeTableRecord
  2
ByBlock
 70
     0
  3

 72
    65
 73
     0
 40
0.0
  0
LTYPE
  5
15
330
5
100
AcDbSymbolTableRecord
100
AcDbLinetypeTableRecord
  2
ByLayer
 70
     0
  3

 72
    65
 73
     0
 40
0.0
  0
LTYPE
  5
16
330
5
100
AcDbSymbolTableRecord
100
AcDbLinetypeTableRecord
  2
Continuous
 70
     0
  3
Solid line
 72
    65
 73
     0
 40
0.0
  0
LTYPE
  5
5E
330
5
100
AcDbSymbolTableRecord
100
AcDbLinetypeTableRecord
  2
HIDDEN
 70
     0
  3
Hidden __ __ __ __ __ __ __ __ __ __ __ __ __ __
 72
    65
 73
     2
 40
1.905
 49
1.27
 74
     0
 49
-0.635
 74
     0
  0
LTYPE
  5
5F
330
5
100
AcDbSymbolTableRecord
100
AcDbLinetypeTableRecord
  2
PHANTOM
 70
     0
  3
Phantom ______  __  __  ______  __  __  ______
 72
    65
 73
     6
 40
12.7
 49
6.35
 74
     0
 49
-1.27
 74
     0
 49
1.27
 74
     0
 49
-1.27
 74
     0
 49
1.27
 74
     0
 49
-1.27
 74
     0
  0
LTYPE
  5
60
330
5
100
AcDbSymbolTableRecord
100
AcDbLinetypeTableRecord
  2
CENTER
 70
     0
  3
Center ____ _ ____ _ ____ _ ____ _ ____ _ ____
 72
    65
 73
     4
 40
10.16
 49
6.35
 74
     0
 49
-1.27
 74
     0
 49
1.27
 74
     0
 49
-1.27
 74
     0
  0
LTYPE
  5
61
330
5
100
AcDbSymbolTableRecord
100
AcDbLinetypeTableRecord
  2
CENTERX2
 70
     0
  3
Center (2x) ________  __  ________  __  _____
 72
    65
 73
     4
 40
20.32
 49
12.7
 74
     0
 49
-2.54
 74
     0
 49
2.54
 74
     0
 49
-2.54
 74
     0
  0
LTYPE
  5
62
330
5
100
AcDbSymbolTableRecord
100
AcDbLinetypeTableRecord
  2
DOT2
 70
     0
  3
Dot (.5x) ........................................
 72
    65
 73
     2
 40
0.635
 49
0.0
 74
     0
 49
-0.635
 74
     0
  0
ENDTAB
  0
TABLE
  2
LAYER
  5
2
330
0
100
AcDbSymbolTable
 70
     1
  0
LAYER
  5
10
330
2
100
AcDbSymbolTableRecord
100
AcDbLayerTableRecord
  2
0
 70
     0
 62
     7
  6
Continuous
370
    -3
390
F
  0
ENDTAB
  0
TABLE
  2
STYLE
  5
3
330
0
100
AcDbSymbolTable
 70
     3
  0
STYLE
  5
11
330
3
100
AcDbSymbolTableRecord
100
AcDbTextStyleTableRecord
  2
Standard
 70
     0
 40
0.0
 41
1.0
 50
0.0
 71
     0
 42
10.0
  3
txt
  4

  0
STYLE
  5
66
330
3
100
AcDbSymbolTableRecord
100
AcDbTextStyleTableRecord
  2
SLDTEXTSTYLE0
 70
     0
 40
0.0
 41
0.96
 50
0.0
 71
     0
 42
10.0
  3
ISOCP3
  4

  0
STYLE
  5
7D
330
3
100
AcDbSymbolTableRecord
100
AcDbTextStyleTableRecord
  2
SLDTEXTSTYLE1
 70
     0
 40
0.0
 41
0.605
 50
0.0
 71
     0
 42
10.0
  3
TXT
  4

  0
ENDTAB
  0
TABLE
  2
VIEW
  5
6
330
0
100
AcDbSymbolTable
 70
     0
  0
ENDTAB
  0
TABLE
  2
UCS
  5
7
330
0
100
AcDbSymbolTable
 70
     0
  0
ENDTAB
  0
TABLE
  2
APPID
  5
9
330
0
100
AcDbSymbolTable
 70
     1
  0
APPID
  5
12
330
9
100
AcDbSymbolTableRecord
100
AcDbRegAppTableRecord
  2
ACAD
 70
     0
  0
ENDTAB
  0
TABLE
  2
DIMSTYLE
  5
A
330
0
100
AcDbSymbolTable
 70
     2
100
AcDbDimStyleTable
  0
DIMSTYLE
105
27
330
A
100
AcDbSymbolTableRecord
100
AcDbDimStyleTableRecord
  2
ISO-25
 70
     0
 41
2.5
 42
0.625
 43
3.75
 44
1.25
 73
     0
 74
     0
 77
     1
 78
     8
140
2.5
141
2.5
143
0.0393700787
147
0.625
171
     3
172
     1
178
     0
271
     2
272
     2
274
     3
278
    44
283
     0
284
     8
340
11
  0
DIMSTYLE
105
67
102
{ACAD_REACTORS
330
65
330
72
102
}
330
A
100
AcDbSymbolTableRecord
100
AcDbDimStyleTableRecord
  2
SLDDIMSTYLE0
 70
     0
 41
2.5
 44
0.0
 45
0.000000001
 73
     0
 74
     0
 77
     1
 78
    12
 79
     3
140
6.0
147
1.5
173
     1
178
     0
271
     2
272
     2
276
     2
284
    12
340
66
  0
ENDTAB
  0
TABLE
  2
BLOCK_RECORD
  5
1
330
0
100
AcDbSymbolTable
 70
     3
  0
BLOCK_RECORD
  5
1F
330
1
100
AcDbSymbolTableRecord
100
AcDbBlockTableRecord
  2
*Model_Space
340
22
  0
BLOCK_RECORD
  5
1B
330
1
100
AcDbSymbolTableRecord
100
AcDbBlockTableRecord
  2
*Paper_Space
340
1E
  0
BLOCK_RECORD
  5
23
330
1
100
AcDbSymbolTableRecord
100
AcDbBlockTableRecord
  2
*Paper_Space0
340
26
  0
BLOCK_RECORD
  5
68
330
1
100
AcDbSymbolTableRecord
100
AcDbBlockTableRecord
  2
_D
340
0
  0
BLOCK_RECORD
  5
73
330
1
100
AcDbSymbolTableRecord
100
AcDbBlockTableRecord
  2
_D_1
340
0
  0
ENDTAB
  0
ENDSEC
  0
SECTION
  2
BLOCKS
  0
BLOCK
  5
20
330
1F
100
AcDbEntity
  8
0
100
AcDbBlockBegin
  2
*Model_Space
 70
     0
 10
0.0
 20
0.0
 30
0.0
  3
*Model_Space
  1

  0
ENDBLK
  5
21
330
1F
100
AcDbEntity
  8
0
100
AcDbBlockEnd
  0
BLOCK
  5
1C
330
1B
100
AcDbEntity
 67
     1
  8
0
100
AcDbBlockBegin
  2
*Paper_Space
 70
     0
 10
0.0
 20
0.0
 30
0.0
  3
*Paper_Space
  1

  0
ENDBLK
  5
1D
330
1B
100
AcDbEntity
 67
     1
  8
0
100
AcDbBlockEnd
  0
BLOCK
  5
24
330
23
100
AcDbEntity
  8
0
100
AcDbBlockBegin
  2
*Paper_Space0
 70
     0
 10
0.0
 20
0.0
 30
0.0
  3
*Paper_Space0
  1

  0
ENDBLK
  5
25
330
23
100
AcDbEntity
  8
0
100
AcDbBlockEnd
  0
BLOCK
  5
69
330
68
100
AcDbEntity
  8
0
100
AcDbBlockBegin
  2
_D
 70
     0
 10
0.0
 20
0.0
 30
0.0
  3
_D
  1

  0
SOLID
  5
6B
330
68
100
AcDbEntity
  8
0
  6
Continuous
 62
     7
370
    18
100
AcDbTrace
 10
42.7614395004
 20
152.0299240879
 30
0.0
 11
42.4614395004
 21
149.5299240879
 31
0.0
 12
43.0614395004
 22
149.5299240879
 32
0.0
 13
43.0614395004
 23
149.5299240879
 33
0.0
  0
SOLID
  5
6C
330
68
100
AcDbEntity
  8
0
  6
Continuous
 62
     7
370
    18
100
AcDbTrace
 10
42.7614395004
 20
52.0299240879
 30
0.0
 11
43.0614395004
 21
54.5299240879
 31
0.0
 12
42.4614395004
 22
54.5299240879
 32
0.0
 13
42.4614395004
 23
54.5299240879
 33
0.0
  0
LINE
  5
6D
330
68
100
AcDbEntity
  8
0
  6
Continuous
 62
     7
370
     0
100
AcDbLine
 10
56.6850079902
 20
152.0299240879
 30
0.0
 11
41.7614395004
 21
152.0299240879
 31
0.0
  0
LINE
  5
6E
330
68
100
AcDbEntity
  8
0
  6
Continuous
 62
     7
370
     0
100
AcDbLine
 10
56.6850079902
 20
52.0299240879
 30
0.0
 11
41.7614395004
 21
52.0299240879
 31
0.0
  0
LINE
  5
6F
330
68
100
AcDbEntity
  8
0
  6
Continuous
 62
     7
370
     0
100
AcDbLine
 10
42.7614395004
 20
152.0299240879
 30
0.0
 11
42.7614395004
 21
52.0299240879
 31
0.0
  0
MTEXT
  5
70
330
68
100
AcDbEntity
  8
0
  6
Continuous
 62
     7
370
    18
100
AcDbMText
 10
35.0270332946
 20
94.3680541463
 30
0.0
 40
6.0
 41
0.0
 71
     1
 72
     1
  1
100
  7
SLDTEXTSTYLE0
 11
-7.044195017643634E-15
 21
1.0
 31
0.0
 73
     1
 44
1.0
  0
MTEXT
  5
71
330
68
100
AcDbEntity
  8
0
  6
Continuous
 62
     7
370
    18
100
AcDbMText
 10
35.0270332946
 20
105.7430548466
 30
0.0
 40
6.0
 41
0.0
 71
     1
 72
     1
  1
mm
  7
SLDTEXTSTYLE0
 11
-7.044195017643634E-15
 21
1.0
 31
0.0
 73
     1
 44
1.0
  0
ENDBLK
  5
6A
330
68
100
AcDbEntity
  8
0
100
AcDbBlockEnd
  0
BLOCK
  5
74
330
73
100
AcDbEntity
  8
0
100
AcDbBlockBegin
  2
_D_1
 70
     0
 10
0.0
 20
0.0
 30
0.0
  3
_D_1
  1

  0
SOLID
  5
76
330
73
100
AcDbEntity
  8
0
  6
Continuous
 62
     7
370
    18
100
AcDbTrace
 10
56.6850079902
 20
38.4602342313
 30
0.0
 11
59.1850079902
 21
38.1602342313
 31
0.0
 12
59.1850079902
 22
38.7602342313
 32
0.0
 13
59.1850079902
 23
38.7602342313
 33
0.0
  0
SOLID
  5
77
330
73
100
AcDbEntity
  8
0
  6
Continuous
 62
     7
370
    18
100
AcDbTrace
 10
156.6850079902
 20
38.4602342313
 30
0.0
 11
154.1850079902
 21
38.7602342313
 31
0.0
 12
154.1850079902
 22
38.1602342313
 32
0.0
 13
154.1850079902
 23
38.1602342313
 33
0.0
  0
LINE
  5
78
330
73
100
AcDbEntity
  8
0
  6
Continuous
 62
     7
370
     0
100
AcDbLine
 10
56.6850079902
 20
52.0299240879
 30
0.0
 11
56.6850079902
 21
37.4602342313
 31
0.0
  0
LINE
  5
79
330
73
100
AcDbEntity
  8
0
  6
Continuous
 62
     7
370
     0
100
AcDbLine
 10
156.6850079902
 20
52.0299240879
 30
0.0
 11
156.6850079902
 21
37.4602342313
 31
0.0
  0
LINE
  5
7A
330
73
100
AcDbEntity
  8
0
  6
Continuous
 62
     7
370
     0
100
AcDbLine
 10
56.6850079902
 20
38.4602342313
 30
0.0
 11
156.6850079902
 21
38.4602342313
 31
0.0
  0
MTEXT
  5
7B
330
73
100
AcDbEntity
  8
0
  6
Continuous
 62
     7
370
    18
100
AcDbMText
 10
93.9626484861
 20
46.1946404371
 30
0.0
 40
6.0
 41
0.0
 71
     1
 72
     1
  1
100
  7
SLDTEXTSTYLE0
 73
     1
 44
1.0
  0
MTEXT
  5
7C
330
73
100
AcDbEntity
  8
0
  6
Continuous
 62
     7
370
    18
100
AcDbMText
 10
105.3376491864
 20
46.1946404371
 30
0.0
 40
6.0
 41
0.0
 71
     1
 72
     1
  1
mm
  7
SLDTEXTSTYLE0
 73
     1
 44
1.0
  0
ENDBLK
  5
75
330
73
100
AcDbEntity
  8
0
100
AcDbBlockEnd
  0
ENDSEC
  0
SECTION
  2
ENTITIES
  0
LINE
  5
63
330
1F
100
AcDbEntity
  8
0
  6
Continuous
 62
     7
370
    18
100
AcDbLine
 10
56.6850079902
 20
152.0299240879
 30
0.0
 11
56.6850079902
 21
52.0299240879
 31
0.0
  0
LINE
  5
64
330
1F
100
AcDbEntity
  8
0
  6
Continuous
 62
     7
370
    18
100
AcDbLine
 10
56.6850079902
 20
52.0299240879
 30
0.0
 11
156.6850079902
 21
52.0299240879
 31
0.0
  0
DIMENSION
  5
65
330
1F
100
AcDbEntity
  8
0
  6
Continuous
 62
     7
370
    18
100
AcDbDimension
  2
_D
 10
42.7614395004
 20
52.0299240879
 30
0.0
 11
42.7614395004
 21
105.4472211621
 31
0.0
 70
   160
  1
<>mm
 71
     2
 42
-1.0
  3
SLDDIMSTYLE0
100
AcDbAlignedDimension
 13
56.6850079902
 23
152.0299240879
 33
0.0
 14
56.6850079902
 24
52.0299240879
 34
0.0
 50
90.0
100
AcDbRotatedDimension
  0
DIMENSION
  5
72
330
1F
100
AcDbEntity
  8
0
  6
Continuous
 62
     7
370
    18
100
AcDbDimension
  2
_D_1
 10
156.6850079902
 20
38.4602342313
 30
0.0
 11
105.0418155019
 21
38.4602342313
 31
0.0
 70
   160
  1
<>mm
 71
     2
 42
-1.0
  3
SLDDIMSTYLE0
100
AcDbAlignedDimension
 13
56.6850079902
 23
52.0299240879
 33
0.0
 14
156.6850079902
 24
52.0299240879
 34
0.0
100
AcDbRotatedDimension
  0
MTEXT
  5
7E
330
1F
100
AcDbEntity
  8
0
  6
Continuous
 62
     7
370
     0
100
AcDbMText
 10
412.8252631579
 20
48.4342449499
 30
0.0
 40
10.0
 41
0.0
 71
     1
 72
     1
  1
KLUDI GmbH & Co KG
  7
SLDTEXTSTYLE1
 73
     1
 44
1.0
  0
MTEXT
  5
7F
330
1F
100
AcDbEntity
  8
0
  6
Continuous
 62
     7
370
     0
100
AcDbMText
 10
210.0873490389
 20
48.4342449499
 30
0.0
 40
10.0
 41
0.0
 71
     1
 72
     1
  1
42 028 .. 75
  7
SLDTEXTSTYLE1
 73
     1
 44
1.0
  0
LINE
  5
80
330
1F
100
AcDbEntity
  8
0
  6
Continuous
 62
     7
370
    25
100
AcDbLine
 10
180.0688254967
 20
545.0390596575
 30
0.0
 11
180.0688254967
 21
583.3863149611
 31
0.0
  0
LINE
  5
81
330
1F
100
AcDbEntity
  8
0
  6
Continuous
 62
     7
370
    25
100
AcDbLine
 10
158.0688254967
 20
583.3863149611
 30
0.0
 11
158.0688254967
 21
545.0390596575
 31
0.0
  0
ARC
  5
82
330
1F
100
AcDbEntity
  8
0
  6
Continuous
 62
     7
370
    25
100
AcDbCircle
 10
169.0688254967
 20
643.5755097264
 30
0.0
 40
11.0
100
AcDbArc
 50
0.0
 51
180.0
  0
LINE
  5
83
330
1F
100
AcDbEntity
  8
0
  6
Continuous
 62
     7
370
    25
100
AcDbLine
 10
180.0688254967
 20
583.3863149611
 30
0.0
 11
180.0688254967
 21
643.5755097264
 31
0.0
  0
LINE
  5
84
330
1F
100
AcDbEntity
  8
0
  6
Continuous
 62
     7
370
    25
100
AcDbLine
 10
158.0688254967
 20
643.5755097264
 30
0.0
 11
158.0688254967
 21
583.3863149611
 31
0.0
  0
SPLINE
  5
85
330
1F
100
AcDbEntity
  8
0
  6
Continuous
 62
     7
370
    25
100
AcDbSpline
210
0.0
220
0.0
230
1.0
 70
     8
 71
     3
 72
    17
 73
    13
 74
     0
 42
0.00000001
 43
0.00000001
 40
0.0
 40
0.0
 40
0.0
 40
0.0
 40
0.2032118078561199
 40
0.3639000142541594
 40
0.4809871171780855
 40
0.5810873477883215
 40
0.6777963380782338
 40
0.7248275753874607
 40
0.748857240041723
 40
0.7752621649510709
 40
0.9214938921456928
 40
1.0
 40
1.0
 40
1.0
 40
1.0
 10
187.1041074971202
 20
425.9713047045811
 30
0.0
 10
187.1500126523662
 20
427.1573691085648
 30
0.0
 10
187.232216963349
 20
429.2813050061364
 30
0.0
 10
188.2278472311973
 20
431.8893173721208
 30
0.0
 10
189.6887627550012
 20
433.5981407548869
 30
0.0
 10
191.2531368282098
 20
434.5975449163042
 30
0.0
 10
192.538100148438
 20
435.0957648311983
 30
0.0
 10
193.3783126931794
 20
435.3473257937732
 30
0.0
 10
193.9156530409169
 20
435.4768811631318
 30
0.0
 10
195.0576464917318
 20
435.6894140237334
 30
0.0
 10
196.5125004604471
 20
435.7818194253384
 30
0.0
 10
197.6608992794841
 20
435.7447662388025
 30
0.0
 10
198.0620614670946
 20
435.7318227063622
 30
0.0
  0
SPLINE
  5
86
330
1F
100
AcDbEntity
  8
0
  6
Continuous
 62
     7
370
    25
100
AcDbSpline
210
0.0
220
0.0
230
1.0
 70
     8
 71
     3
 72
    19
 73
    15
 74
     0
 42
0.00000001
 43
0.00000001
 40
0.0
 40
0.0
 40
0.0
 40
0.0
 40
0.0804939636286928
 40
0.1615655885361232
 40
0.2244524191978328
 40
0.2506568877063667
 40
0.3343242449072383
 40
0.420195785157147
 40
0.5212729938241175
 40
0.6394608477731758
 40
0.7142400970297095
 40
0.8027112727957716
 40
0.9080262866068242
 40
1.0
 40
1.0
 40
1.0
 40
1.0
 10
198.061017613597
 20
471.7407256922108
 30
0.0
 10
197.6485323037889
 20
471.73713021657
 30
0.0
 10
196.8206015020575
 20
471.7299134625207
 30
0.0
 10
195.5956616881611
 20
471.7801247218287
 30
0.0
 10
194.6202481268018
 20
471.8868918262571
 30
0.0
 10
193.6226198027038
 20
472.0730896607898
 30
0.0
 10
192.6546317968092
 20
472.3579678580249
 30
0.0
 10
191.2504953089586
 20
472.9090288718077
 30
0.0
 10
189.7357144390053
 20
473.8610795127394
 30
0.0
 10
188.5896365157689
 20
475.1706902653239
 30
0.0
 10
187.8637025585643
 20
476.5943136570988
 30
0.0
 10
187.4030125418217
 20
478.0528257555178
 30
0.0
 10
187.1277880408482
 20
479.6684101443482
 30
0.0
 10
187.1019509725716
 20
480.8064046990459
 30
0.0
 10
187.089906031402
 20
481.3369245442493
 30
0.0
  0
SPLINE
  5
87
330
1F
100
AcDbEntity
  8
0
  6
Continuous
 62
     7
370
    25
100
AcDbSpline
210
0.0
220
0.0
230
1.0
 70
     8
 71
     3
 72
     9
 73
     5
 74
     0
 42
0.00000001
 43
0.00000001
 40
0.0
 40
0.0
 40
0.0
 40
0.0
 40
0.4991175039711109
 40
1.0
 40
1.0
 40
1.0
 40
1.0
 10
202.574098210599
 20
435.7569071822335
 30
0.0
 10
202.6367653177153
 20
435.7597226931816
 30
0.0
 10
202.7623211369716
 20
435.7653636713595
 30
0.0
 10
202.8726450787884
 20
435.8523910287997
 30
0.0
 10
202.9279044101374
 20
435.8959815088171
 30
0.0
  0
SPLINE
  5
88
330
1F
100
AcDbEntity
  8
0
  6
Continuous
 62
     7
370
    25
100
AcDbSpline
210
0.0
220
0.0
230
1.0
 70
     8
 71
     3
 72
     9
 73
     5
 74
     0
 42
0.00000001
 43
0.00000001
 40
0.0
 40
0.0
 40
0.0
 40
0.0
 40
0.5008834698543707
 40
1.0
 40
1.0
 40
1.0
 40
1.0
 10
202.927747383402
 20
471.6027394919998
 30
0.0
 10
202.872503988607
 20
471.6462851382693
 30
0.0
 10
202.7622120781731
 20
471.7332228171712
 30
0.0
 10
202.636728926069
 20
471.7388496508854
 30
0.0
 10
202.574098210599
 20
471.7416580966045
 30
0.0
  0
SPLINE
  5
89
330
1F
100
AcDbEntity
  8
0
  6
Continuous
 62
     7
370
    25
100
AcDbSpline
210
0.0
220
0.0
230
1.0
 70
     8
 71
     3
 72
     9
 73
     5
 74
     0
 42
0.00000001
 43
0.00000001
 40
0.0
 40
0.0
 40
0.0
 40
0.0
 40
0.4967293662180696
 40
1.0
 40
1.0
 40
1.0
 40
1.0
 10
237.2093108698605
 20
525.6800097000715
 30
0.0
 10
237.1411563519665
 20
525.7016554547174
 30
0.0
 10
237.0039498114857
 20
525.7452320099163
 30
0.0
 10
236.8711258395442
 20
525.713965419903
 30
0.0
 10
236.8042794350038
 20
525.6982298633308
 30
0.0
  0
LINE
  5
8A
330
1F
100
AcDbEntity
  8
0
  6
Continuous
 62
     7
370
    25
100
AcDbLine
 10
237.8740982106
 20
436.4450564837
 30
0.0
 11
237.8740982106
 21
524.7492819096
 31
0.0
  0
LINE
  5
8B
330
1F
100
AcDbEntity
  8
0
  6
Continuous
 62
     7
370
    25
100
AcDbLine
 10
203.0740982106
 20
437.2992819096
 30
0.0
 11
203.4369198473
 21
437.3182965858
 31
0.0
  0
LINE
  5
8C
330
1F
100
AcDbEntity
  8
0
  6
Continuous
 62
     7
370
    25
100
AcDbLine
 10
203.4369198473
 20
470.2802672333
 30
0.0
 11
203.0740982106
 21
470.2992819096
 31
0.0
  0
ARC
  5
8D
330
1F
100
AcDbEntity
  8
0
  6
Continuous
 62
     7
370
    25
100
AcDbCircle
 10
203.3950510823
 20
469.4813636055
 30
0.0
 40
0.8000000000029543
100
AcDbArc
 50
83.471941701
 51
87.0
  0
ARC
  5
8E
330
1F
100
AcDbEntity
  8
0
  6
Continuous
 62
     7
370
    25
100
AcDbCircle
 10
203.3950510823
 20
438.1172002136
 30
0.0
 40
0.8000000000029737
100
AcDbArc
 50
273.0
 51
276.5280582991
  0
ARC
  5
8F
330
1F
100
AcDbEntity
  8
0
  6
Continuous
 62
     7
370
    25
100
AcDbCircle
 10
201.2122076528
 20
457.1927131703
 30
0.0
 40
19.99999999995549
100
AcDbArc
 50
276.5280582991
 51
296.7123529294
  0
ARC
  5
90
330
1F
100
AcDbEntity
  8
0
  6
Continuous
 62
     7
370
    25
100
AcDbCircle
 10
201.2122076528
 20
450.4058506488
 30
0.0
 40
19.99999999995542
100
AcDbArc
 50
77.2981731196
 51
83.4719417009
  0
SPLINE
  5
91
330
1F
100
AcDbEntity
  8
0
  6
Continuous
 62
     7
370
    25
100
AcDbSpline
210
0.0
220
0.0
230
1.0
 70
     8
 71
     3
 72
     9
 73
     5
 74
     0
 42
0.00000001
 43
0.00000001
 40
0.0
 40
0.0
 40
0.0
 40
0.0
 40
0.4297077239287093
 40
1.0
 40
1.0
 40
1.0
 40
1.0
 10
232.931508595186
 20
523.8886530580438
 30
0.0
 10
232.9107411529759
 20
523.787005386333
 30
0.0
 10
232.8624119257974
 20
523.5504546658075
 30
0.0
 10
232.8292230696153
 20
523.2778429897279
 30
0.0
 10
232.810295721283
 20
523.1223746564928
 30
0.0
  0
LINE
  5
92
330
1F
100
AcDbEntity
  8
0
  6
Continuous
 62
     7
370
    25
100
AcDbLine
 10
232.9549231391
 20
524.0112613157
 30
0.0
 11
232.9315085952
 21
523.888653058
 31
0.0
  0
LINE
  5
93
330
1F
100
AcDbEntity
  8
0
  6
Continuous
 62
     7
370
    25
100
AcDbLine
 10
180.0688254967
 20
490.1492819096
 30
0.0
 11
180.0688254967
 21
545.0390596575
 31
0.0
  0
LINE
  5
94
330
1F
100
AcDbEntity
  8
0
  6
Continuous
 62
     7
370
    25
100
AcDbLine
 10
158.0688254967
 20
545.0390596575
 30
0.0
 11
158.0688254967
 21
490.1492819096
 31
0.0
  0
LINE
  5
95
330
1F
100
AcDbEntity
  8
0
  6
Continuous
 62
     7
370
    25
100
AcDbLine
 10
158.2688254967
 20
490.1492819096
 30
0.0
 11
158.2688254967
 21
489.7492819096
 31
0.0
  0
LINE
  5
96
330
1F
100
AcDbEntity
  8
0
  6
Continuous
 62
     7
370
    25
100
AcDbLine
 10
179.8688254967
 20
489.7492819096
 30
0.0
 11
179.8688254967
 21
490.1492819096
 31
0.0
  0
SPLINE
  5
97
330
1F
100
AcDbEntity
  8
0
  6
Continuous
 62
     7
370
    25
100
AcDbSpline
210
0.0
220
0.0
230
1.0
 70
     8
 71
     3
 72
    13
 73
     9
 74
     0
 42
0.00000001
 43
0.00000001
 40
0.0
 40
0.0
 40
0.0
 40
0.0
 40
0.2390104726245102
 40
0.3678594012634028
 40
0.4995403665237609
 40
0.6312886430047222
 40
0.7603311480574376
 40
1.0
 40
1.0
 40
1.0
 40
1.0
 10
236.8656319077719
 20
435.4493184156715
 30
0.0
 10
236.9919808087009
 20
435.4617044742042
 30
0.0
 10
237.1864435472397
 20
435.4807677730874
 30
0.0
 10
237.421137396683
 20
435.6044878438371
 30
0.0
 10
237.5829719272278
 20
435.7333824038681
 30
0.0
 10
237.7135228120192
 20
435.8940147251815
 30
0.0
 10
237.8397510972054
 20
436.1279384408015
 30
0.0
 10
237.8605671373938
 20
436.3226903879135
 30
0.0
 10
237.874097928782
 20
436.4492825709108
 30
0.0
  0
LINE
  5
98
330
1F
100
AcDbEntity
  8
0
  6
Continuous
 62
     7
370
    25
100
AcDbLine
 10
224.9466162204
 20
435.4492819096
 30
0.0
 11
236.875168168
 21
435.4492819096
 31
0.0
  0
LINE
  5
99
330
1F
100
AcDbEntity
  8
0
  6
Continuous
 62
     7
370
    25
100
AcDbLine
 10
213.1436831108
 20
435.4492819096
 30
0.0
 11
217.223725699
 21
435.4492819096
 31
0.0
  0
LINE
  5
9A
330
1F
100
AcDbEntity
  8
0
  6
Continuous
 62
     7
370
    25
100
AcDbLine
 10
223.6242954237
 20
472.0492819096
 30
0.0
 11
206.0740982106
 21
472.0492819096
 31
0.0
  0
SPLINE
  5
9B
330
1F
100
AcDbEntity
  8
0
  6
Continuous
 62
     7
370
    25
100
AcDbSpline
210
0.0
220
0.0
230
1.0
 70
     8
 71
     3
 72
    20
 73
    16
 74
     0
 42
0.00000001
 43
0.00000001
 40
0.0
 40
0.0
 40
0.0
 40
0.0
 40
0.5271654476910308
 40
0.8489230633857036
 40
0.9071603590136333
 40
0.9137401567792552
 40
0.9161412988377915
 40
0.9180930216728959
 40
0.9197712925381941
 40
0.9214023173504756
 40
0.9231964848487926
 40
0.9252888718807594
 40
0.9373500398586584
 40
0.9549953716608242
 40
1.0
 40
1.0
 40
1.0
 40
1.0
 10
212.6844416832309
 20
436.1505642571808
 30
0.0
 10
212.7312942116601
 20
436.0300947987834
 30
0.0
 10
212.8067433749839
 20
435.8360963071997
 30
0.0
 10
212.8464688668404
 20
435.7722771904971
 30
0.0
 10
212.8746592132949
 20
435.6831801786784
 30
0.0
 10
212.9351505453832
 20
435.6137673387558
 30
0.0
 10
212.9516011672575
 20
435.5970073705602
 30
0.0
 10
212.9636126806867
 20
435.5855159299317
 30
0.0
 10
212.9768790268908
 20
435.573644956578
 30
0.0
 10
212.9909526460077
 20
435.5619145407428
 30
0.0
 10
213.0052408374805
 20
435.5508260827816
 30
0.0
 10
213.0417615457933
 20
435.5245031015103
 30
0.0
 10
213.0932734181243
 20
435.4961470396324
 30
0.0
 10
213.1916429987512
 20
435.4566208194294
 30
0.0
 10
213.2580784770844
 20
435.4523504041352
 30
0.0
 10
213.3058024341975
 20
435.4492827492998
 30
0.0
  0
ARC
  5
9C
330
1F
100
AcDbEntity
  8
0
  6
Continuous
 62
     7
370
    25
100
AcDbCircle
 10
206.0740982106
 20
471.5492819096
 30
0.0
 40
0.5
100
AcDbArc
 50
90.0
 51
180.0
  0
LINE
  5
9D
330
1F
100
AcDbEntity
  8
0
  6
Continuous
 62
     7
370
    25
100
AcDbLine
 10
198.0635040046
 20
471.7492819096
 30
0.0
 11
194.3823614261
 21
472.0643928583
 31
0.0
  0
LINE
  5
9E
330
1F
100
AcDbEntity
  8
0
  6
Continuous
 62
     7
370
    25
100
AcDbLine
 10
187.2840332977
 20
478.9714734461
 30
0.0
 11
187.0697571762
 21
481.8815159633
 31
0.0
  0
LINE
  5
9F
330
1F
100
AcDbEntity
  8
0
  6
Continuous
 62
     7
370
    25
100
AcDbLine
 10
187.0688254967
 20
370.0492819096
 30
0.0
 11
187.0688254967
 21
425.7493030408
 31
0.0
  0
LINE
  5
A0
330
1F
100
AcDbEntity
  8
0
  6
Continuous
 62
     7
370
    25
100
AcDbLine
 10
187.0688254967
 20
481.7464350854
 30
0.0
 11
187.0688254967
 21
489.2492819096
 31
0.0
  0
ARC
  5
A1
330
1F
100
AcDbEntity
  8
0
  6
Continuous
 62
     7
370
    25
100
AcDbCircle
 10
151.3688254967
 20
370.0492819096
 30
0.0
 40
0.3000000000000114
100
AcDbArc
 50
180.0
 51
270.0
  0
ARC
  5
A2
330
1F
100
AcDbEntity
  8
0
  6
Continuous
 62
     7
370
    25
100
AcDbCircle
 10
186.7688254967
 20
370.0492819096
 30
0.0
 40
0.3000000000000114
100
AcDbArc
 50
270.0
 51
0.0
  0
ARC
  5
A3
330
1F
100
AcDbEntity
  8
0
  6
Continuous
 62
     7
370
    25
100
AcDbCircle
 10
151.5688254967
 20
489.2492819096
 30
0.0
 40
0.5
100
AcDbArc
 50
90.0
 51
180.0
  0
LINE
  5
A4
330
1F
100
AcDbEntity
  8
0
  6
Continuous
 62
     7
370
    25
100
AcDbLine
 10
151.0688254967
 20
489.2492819096
 30
0.0
 11
151.0688254967
 21
370.0492819096
 31
0.0
  0
ARC
  5
A5
330
1F
100
AcDbEntity
  8
0
  6
Continuous
 62
     7
370
    25
100
AcDbCircle
 10
186.5688254967
 20
489.2492819096
 30
0.0
 40
0.5000000000001705
100
AcDbArc
 50
0.0
 51
90.0
  0
ARC
  5
A6
330
1F
100
AcDbEntity
  8
0
  6
Continuous
 62
     7
370
    25
100
AcDbCircle
 10
236.8740982106
 20
524.7492819096
 30
0.0
 40
1.0
100
AcDbArc
 50
0.0
 51
90.0
  0
ARC
  5
A7
330
1F
100
AcDbEntity
  8
0
  6
Continuous
 62
     7
370
    25
100
AcDbCircle
 10
217.3740982106
 20
435.5395200052
 30
0.0
 40
0.1999999999999979
100
AcDbArc
 50
211.3074253866
 51
267.20581768
  0
ARC
  5
A8
330
1F
100
AcDbEntity
  8
0
  6
Continuous
 62
     7
370
    25
100
AcDbCircle
 10
224.7740982106
 20
435.5395200052
 30
0.0
 40
0.2000000000000006
100
AcDbArc
 50
272.79418232
 51
327.3917047727
  0
ARC
  5
A9
330
1F
100
AcDbEntity
  8
0
  6
Continuous
 62
     7
370
    25
100
AcDbCircle
 10
221.0740982106
 20
511.3492819096
 30
0.0
 40
76.10000000000998
100
AcDbArc
 50
267.2058176799
 51
272.7941823201
  0
LWPOLYLINE
  5
AA
330
1F
100
AcDbEntity
  8
0
  6
Continuous
 62
     7
370
    25
100
AcDbPolyline
 90
       12
 70
   128
 43
0.0
 10
169.0688254967
 20
547.8860691537
 10
171.0329513395
 20
547.8403165398
 10
172.9339485616
 20
547.7045292248
 10
174.7107175481
 20
547.4830715249
 10
176.306151482
 20
547.1830612725
 10
177.6689718038
 20
546.8141410442
 10
178.7553763471
 20
546.3881682395
 10
179.5304471759
 20
545.918833975
 10
179.9692728761
 20
545.42122304
 10
180.0577492286
 20
544.9113290595
 10
179.7930325307
 20
544.4055404455
 10
179.6880567702
 20
544.2964732594
  0
LWPOLYLINE
  5
AB
330
1F
100
AcDbEntity
  8
0
  6
Continuous
 62
     7
370
    25
100
AcDbPolyline
 90
       11
 70
   128
 43
0.0
 10
158.3098815216
 20
544.4463061495
 10
158.0799017647
 20
544.9113290595
 10
158.1683781172
 20
545.42122304
 10
158.6072038174
 20
545.918833975
 10
159.3822746463
 20
546.3881682395
 10
160.4686791895
 20
546.8141410442
 10
161.8314995113
 20
547.1830612725
 10
163.4269334452
 20
547.4830715249
 10
165.2037024318
 20
547.7045292248
 10
167.1046996539
 20
547.8403165398
 10
169.0688254967
 20
547.8860691537
  0
SPLINE
  5
AC
330
1F
100
AcDbEntity
  8
0
  6
Continuous
 62
     7
370
    25
100
AcDbSpline
210
0.0
220
0.0
230
1.0
 70
     8
 71
     3
 72
    15
 73
    11
 74
     0
 42
0.00000001
 43
0.00000001
 40
0.0
 40
0.0
 40
0.0
 40
0.0
 40
0.1270988810035975
 40
0.2618109353941527
 40
0.4021235013555272
 40
0.5454137012814796
 40
0.6887039012074346
 40
0.8290164671688114
 40
0.9637285215593623
 40
1.0
 40
1.0
 40
1.0
 40
1.0
 10
169.0688254966788
 20
541.9799181269476
 30
0.0
 10
168.4162080635496
 20
541.9889024478196
 30
0.0
 10
167.0718816676527
 20
542.0074092468785
 30
0.0
 10
165.0777859137947
 20
542.1614903732515
 30
0.0
 10
163.159693654045
 20
542.4169673392684
 30
0.0
 10
161.4503012383007
 20
542.7772307972336
 30
0.0
 10
160.0536178346148
 20
543.2198112955576
 30
0.0
 10
159.0842495898057
 20
543.7168297212849
 30
0.0
 10
158.5751743831608
 20
544.1145683380264
 30
0.0
 10
158.5102521338784
 20
544.3411116370802
 30
0.0
 10
158.4964798955454
 20
544.3891692497137
 30
0.0
  0
SPLINE
  5
AD
330
1F
100
AcDbEntity
  8
0
  6
Continuous
 62
     7
370
    25
100
AcDbSpline
210
0.0
220
0.0
230
1.0
 70
     8
 71
     3
 72
    15
 73
    11
 74
     0
 42
0.00000001
 43
0.00000001
 40
0.0
 40
0.0
 40
0.0
 40
0.0
 40
0.0687829904545648
 40
0.198950515471172
 40
0.3345296180433153
 40
0.4729859036955331
 40
0.6114421893477519
 40
0.7470212919198964
 40
0.8771888169365019
 40
1.0
 40
1.0
 40
1.0
 40
1.0
 10
158.4474111271241
 20
544.9709717272025
 30
0.0
 10
158.470657173287
 20
545.065429309733
 30
0.0
 10
158.5378949138418
 20
545.3386419835412
 30
0.0
 10
159.0773227477149
 20
545.7819947911051
 30
0.0
 10
160.0555504158189
 20
546.2786797904396
 30
0.0
 10
161.4497784068813
 20
546.721352698771
 30
0.0
 10
163.1598306691814
 20
547.0815913232625
 30
0.0
 10
165.0777512434672
 20
547.3370747507007
 30
0.0
 10
167.0718896274399
 20
547.4911542726795
 30
0.0
 10
168.4162106648728
 20
547.5096612734055
 30
0.0
 10
169.0688254966791
 20
547.5186456921788
 30
0.0
  0
SPLINE
  5
AE
330
1F
100
AcDbEntity
  8
0
  6
Continuous
 62
     7
370
    25
100
AcDbSpline
210
0.0
220
0.0
230
1.0
 70
     8
 71
     3
 72
    15
 73
    11
 74
     0
 42
0.00000001
 43
0.00000001
 40
0.0
 40
0.0
 40
0.0
 40
0.0
 40
0.1216570639756969
 40
0.2506013386214004
 40
0.3849063354787205
 40
0.5220614770648134
 40
0.6592166186509052
 40
0.7935216155082259
 40
0.9224658901539298
 40
1.0
 40
1.0
 40
1.0
 40
1.0
 10
169.0688254966791
 20
547.5186456921788
 30
0.0
 10
169.7214397622097
 20
547.5096612520936
 30
0.0
 10
171.0657596331713
 20
547.4911542074672
 30
0.0
 10
173.0599072971918
 20
547.337075034745
 30
0.0
 10
174.9777904976792
 20
547.0815902007355
 30
0.0
 10
176.6879864003994
 20
546.7213569821838
 30
0.0
 10
178.0816798785543
 20
546.2786639573383
 30
0.0
 10
179.0618361333482
 20
545.7820515407989
 30
0.0
 10
179.6105747058102
 20
545.3259007420103
 30
0.0
 10
179.6785233102056
 20
545.0395664187527
 30
0.0
 10
179.7040384970377
 20
544.9320458328725
 30
0.0
  0
SPLINE
  5
AF
330
1F
100
AcDbEntity
  8
0
  6
Continuous
 62
     7
370
    25
100
AcDbSpline
210
0.0
220
0.0
230
1.0
 70
     8
 71
     3
 72
    15
 73
    11
 74
     0
 42
0.00000001
 43
0.00000001
 40
0.0
 40
0.0
 40
0.0
 40
0.0
 40
0.0382190711479842
 40
0.1726588868231183
 40
0.3126878960316271
 40
0.4556885217235893
 40
0.5986891474155438
 40
0.7387181566240567
 40
0.8731579722991919
 40
1.0
 40
1.0
 40
1.0
 40
1.0
 10
179.6440171369545
 20
544.3971979172294
 30
0.0
 10
179.6296190388673
 20
544.3464519326888
 30
0.0
 10
179.5645740361129
 20
544.1172013272093
 30
0.0
 10
179.0538882411689
 20
543.7168113990414
 30
0.0
 10
178.0838973315921
 20
543.219816407443
 30
0.0
 10
176.6873865010951
 20
542.7772294142881
 30
0.0
 10
174.9779477095101
 20
542.4169677016881
 30
0.0
 10
173.0598675162896
 20
542.1614902815446
 30
0.0
 10
171.0657687662692
 20
542.007409267933
 30
0.0
 10
169.7214427469799
 20
541.9889024547002
 30
0.0
 10
169.0688254966788
 20
541.9799181269476
 30
0.0
  0
LINE
  5
B0
330
1F
100
AcDbEntity
  8
0
  6
Continuous
 62
     7
370
    25
100
AcDbLine
 10
193.0688254967
 20
364.9492819096
 30
0.0
 11
193.0688254967
 21
368.7492819096
 31
0.0
  0
LINE
  5
B1
330
1F
100
AcDbEntity
  8
0
  6
Continuous
 62
     7
370
    25
100
AcDbLine
 10
162.0688254967
 20
364.7492819096
 30
0.0
 11
176.0688254967
 21
364.7492819096
 31
0.0
  0
LINE
  5
B2
330
1F
100
AcDbEntity
  8
0
  6
Continuous
 62
     7
370
    25
100
AcDbLine
 10
145.0688254967
 20
368.7492819096
 30
0.0
 11
145.0688254967
 21
364.9492819096
 31
0.0
  0
LINE
  5
B3
330
1F
100
AcDbEntity
  8
0
  6
Continuous
 62
     7
370
    25
100
AcDbLine
 10
176.0688254967
 20
369.7492819096
 30
0.0
 11
162.0688254967
 21
369.7492819096
 31
0.0
  0
SPLINE
  5
B4
330
1F
100
AcDbEntity
  8
0
  6
Continuous
 62
     7
370
    25
100
AcDbSpline
210
0.0
220
0.0
230
1.0
 70
     8
 71
     3
 72
     9
 73
     5
 74
     0
 42
0.00000001
 43
0.00000001
 40
-0.000000000000071
 40
-0.000000000000071
 40
-0.000000000000071
 40
-0.000000000000071
 40
0.500031442366
 40
1.000020961460492
 40
1.000020961460492
 40
1.000020961460492
 40
1.000020961460492
 10
193.0688254966777
 20
364.9492819095632
 30
0.0
 10
193.0688254966787
 20
364.9021384930693
 30
0.0
 10
193.0280932348138
 20
364.7900029676778
 30
0.0
 10
192.9159587921719
 20
364.7492811321947
 30
0.0
 10
192.8688195679621
 20
364.749281909729
 30
0.0
  0
SPLINE
  5
B5
330
1F
100
AcDbEntity
  8
0
  6
Continuous
 62
     7
370
    25
100
AcDbSpline
210
0.0
220
0.0
230
1.0
 70
    24
 71
     3
 72
    21
 73
    17
 74
     0
 42
0.00000001
 43
0.00000001
 40
0.0
 40
0.0
 40
0.0
 40
0.0
 40
0.0646956823029257
 40
0.1293880259104992
 40
0.1964759860027236
 40
0.2585559068254064
 40
0.3235464358902681
 40
0.3897981532484323
 40
0.5163933008059566
 40
0.6450989432788878
 40
0.7074774598214556
 40
0.7741743200774401
 40
0.8363244202458557
 40
0.9032852937224616
 40
0.9677297689293273
 40
1.0
 40
1.0
 40
1.0
 40
1.0
 10
176.068825496679
 20
364.7492819095632
 30
0.0
 10
176.6531462555024
 20
364.7492819095632
 30
0.0
 10
177.821757618602
 20
364.7492819095632
 30
0.0
 10
179.5958801098572
 20
364.7492819095632
 30
0.0
 10
181.3403912425792
 20
364.7492819095632
 30
0.0
 10
183.0698676524393
 20
364.7492819095632
 30
0.0
 10
184.7578568470601
 20
364.7492819095632
 30
0.0
 10
186.9204059935581
 20
364.7492819095632
 30
0.0
 10
189.3658746335014
 20
364.7492819095632
 30
0.0
 10
191.0116957199234
 20
364.7492819095632
 30
0.0
 10
191.8835048728691
 20
364.7492819095632
 30
0.0
 10
192.3398583191773
 20
364.7492819095632
 30
0.0
 10
192.642260503001
 20
364.7492819095632
 30
0.0
 10
192.8065469200987
 20
364.7492819095632
 30
0.0
 10
192.8598065617418
 20
364.7492819095632
 30
0.0
 10
192.8622832350524
 20
364.7492819095632
 30
0.0
 10
192.8631096121681
 20
364.7492819095632
 30
0.0
  0
SPLINE
  5
B6
330
1F
100
AcDbEntity
  8
0
  6
Continuous
 62
     7
370
    25
100
AcDbSpline
210
0.0
220
0.0
230
1.0
 70
     8
 71
     3
 72
    10
 73
     6
 74
     0
 42
0.00000001
 43
0.00000001
 40
0.0
 40
0.0
 40
0.0
 40
0.0
 40
0.5
 40
0.5
 40
1.0
 40
1.0
 40
1.0
 40
1.0
 10
145.068825496679
 20
364.9492819095632
 30
0.0
 10
145.068825496679
 20
364.8969210438834
 30
0.0
 10
145.0903809646163
 20
364.8448826316363
 30
0.0
 10
145.1644315085363
 20
364.7708342828084
 30
0.0
 10
145.2164705597422
 20
364.7492803574865
 30
0.0
 10
145.268831425399
 20
364.7492819096511
 30
0.0
  0
SPLINE
  5
B7
330
1F
100
AcDbEntity
  8
0
  6
Continuous
 62
     7
370
    25
100
AcDbSpline
210
0.0
220
0.0
230
1.0
 70
    24
 71
     3
 72
    21
 73
    17
 74
     0
 42
0.00000001
 43
0.00000001
 40
0.0
 40
0.0
 40
0.0
 40
0.0
 40
0.032263255559248
 40
0.096693800493323
 40
0.163659979556209
 40
0.225776877583327
 40
0.2924792163703108
 40
0.3548243750167527
 40
0.4208632114195729
 40
0.483952006049894
 40
0.6105346159178646
 40
0.7414999909835392
 40
0.8035862763394109
 40
0.8706399402237291
 40
0.9353183010294195
 40
1.0
 40
1.0
 40
1.0
 40
1.0
 10
145.2745413811901
 20
364.7492819095632
 30
0.0
 10
145.2753674697818
 20
364.7492819095632
 30
0.0
 10
145.2778432783789
 20
364.7492819095632
 30
0.0
 10
145.3311210532847
 20
364.7492819095632
 30
0.0
 10
145.4953730987721
 20
364.7492819095632
 30
0.0
 10
145.7979908361098
 20
364.7492819095632
 30
0.0
 10
146.2537341924615
 20
364.7492819095632
 30
0.0
 10
146.9157911583668
 20
364.7492819095632
 30
0.0
 10
147.7870080968976
 20
364.7492819095632
 30
0.0
 10
149.2706556156557
 20
364.7492819095632
 30
0.0
 10
151.7079462094279
 20
364.7492819095632
 30
0.0
 10
154.4811909260596
 20
364.7492819095632
 30
0.0
 10
156.7972068448659
 20
364.7492819095632
 30
0.0
 10
158.5420107321047
 20
364.7492819095632
 30
0.0
 10
160.3158783416347
 20
364.7492819095632
 30
0.0
 10
161.4844997261534
 20
364.7492819095632
 30
0.0
 10
162.068825496679
 20
364.7492819095632
 30
0.0
  0
SPLINE
  5
B8
330
1F
100
AcDbEntity
  8
0
  6
Continuous
 62
     7
370
    25
100
AcDbSpline
210
0.0
220
0.0
230
1.0
 70
    24
 71
     3
 72
    21
 73
    17
 74
     0
 42
0.00000001
 43
0.00000001
 40
-0.0000000000000027
 40
-0.0000000000000027
 40
-0.0000000000000027
 40
-0.0000000000000027
 40
0.0033291836465486
 40
0.0066583672930986
 40
0.0083229591163786
 40
0.0091552550280186
 40
0.0099875509396586
 40
0.0116521427629286
 40
0.0124844386745686
 40
0.0133167345862086
 40
0.0149813264094786
 40
0.0166459182327556
 40
0.0183105100560316
 40
0.0199751018793066
 40
0.0233042855258576
 40
0.0266334691724114
 40
0.0266334691724114
 40
0.0266334691724114
 40
0.0266334691724114
 10
176.0688254966765
 20
369.7492819095594
 30
0.0
 10
177.1856248993631
 20
369.7492819095596
 30
0.0
 10
179.4176213130605
 20
369.7492819095594
 30
0.0
 10
182.2010490398998
 20
369.7492819095594
 30
0.0
 10
184.0765430586763
 20
369.7492819095594
 30
0.0
 10
185.1243818901379
 20
369.7492819095594
 30
0.0
 10
186.1578202905572
 20
369.7492819095594
 30
0.0
 10
187.126755062828
 20
369.7492819095594
 30
0.0
 10
188.0184893045151
 20
369.7492819095594
 30
0.0
 10
188.8533882363278
 20
369.7492819095594
 30
0.0
 10
189.7332114184533
 20
369.7492819095594
 30
0.0
 10
190.5669929074941
 20
369.7492819095594
 30
0.0
 10
191.1710114766915
 20
369.7492819095594
 30
0.0
 10
191.7404333640254
 20
369.7492819095594
 30
0.0
 10
192.0616375418118
 20
369.7492819095594
 30
0.0
 10
192.0688255013282
 20
369.7492819095596
 30
0.0
 10
192.068825496679
 20
369.7492819095594
 30
0.0
  0
SPLINE
  5
B9
330
1F
100
AcDbEntity
  8
0
  6
Continuous
 62
     7
370
    25
100
AcDbSpline
210
0.0
220
0.0
230
1.0
 70
     8
 71
     3
 72
    11
 73
     7
 74
     0
 42
0.00000001
 43
0.00000001
 40
-0.0000000000061942
 40
-0.0000000000061942
 40
-0.0000000000061942
 40
-0.0000000000061942
 40
0.2499909503169
 40
0.4999939668779
 40
0.749996983439
 40
0.9999999999999742
 40
0.9999999999999742
 40
0.9999999999999742
 40
0.9999999999999742
 10
192.068825496679
 20
369.7492819095594
 30
0.0
 10
192.1866724397105
 20
369.7492818590512
 30
0.0
 10
192.4412644141816
 20
369.7065707573676
 30
0.0
 10
192.797045386816
 20
369.4775165870479
 30
0.0
 10
193.0261110200358
 20
369.121733763068
 30
0.0
 10
193.0688254966788
 20
368.8671344617817
 30
0.0
 10
193.0688254966774
 20
368.7492819095632
 30
0.0
  0
SPLINE
  5
BA
330
1F
100
AcDbEntity
  8
0
  6
Continuous
 62
     7
370
    25
100
AcDbSpline
210
0.0
220
0.0
230
1.0
 70
     8
 71
     3
 72
    10
 73
     6
 74
     0
 42
0.00000001
 43
0.00000001
 40
0.0
 40
0.0
 40
0.0
 40
0.0
 40
0.5
 40
0.5
 40
1.0
 40
1.0
 40
1.0
 40
1.0
 10
146.068825496679
 20
369.7492819095632
 30
0.0
 10
145.8070261088799
 20
369.7492819095632
 30
0.0
 10
145.5468388379157
 20
369.6415088131731
 30
0.0
 10
145.1765985930692
 20
369.2712685683265
 30
0.0
 10
145.068825496679
 20
369.0110812973623
 30
0.0
 10
145.068825496679
 20
368.7492819095632
 30
0.0
  0
SPLINE
  5
BB
330
1F
100
AcDbEntity
  8
0
  6
Continuous
 62
     7
370
    25
100
AcDbSpline
210
0.0
220
0.0
230
1.0
 70
    24
 71
     3
 72
    21
 73
    17
 74
     0
 42
0.00000001
 43
0.00000001
 40
-0.0000000000000028
 40
-0.0000000000000028
 40
-0.0000000000000028
 40
-0.0000000000000028
 40
0.003329183646551
 40
0.006658367293102
 40
0.008322959116377
 40
0.009987550939653
 40
0.01165214276293
 40
0.0133167345862
 40
0.01414903049784
 40
0.01498132640948
 40
0.01664591823275
 40
0.01747821414439
 40
0.01831051005603
 40
0.01997510187931
 40
0.02330428552586
 40
0.0266334691724112
 40
0.0266334691724112
 40
0.0266334691724112
 40
0.0266334691724112
 10
146.0688254966796
 20
369.7492819095611
 30
0.0
 10
146.0688254920314
 20
369.7492819095613
 30
0.0
 10
146.0760134515455
 20
369.7492819095611
 30
0.0
 10
146.3972176293377
 20
369.7492819095617
 30
0.0
 10
146.9666395166652
 20
369.7492819095617
 30
0.0
 10
147.570658085863
 20
369.7492819095617
 30
0.0
 10
148.4044395749056
 20
369.7492819095617
 30
0.0
 10
149.2842627570306
 20
369.7492819095617
 30
0.0
 10
150.1191616888405
 20
369.7492819095617
 30
0.0
 10
151.010895930532
 20
369.7492819095617
 30
0.0
 10
151.9798307028051
 20
369.7492819095617
 30
0.0
 10
153.0132691032191
 20
369.7492819095617
 30
0.0
 10
154.0611079346862
 20
369.7492819095617
 30
0.0
 10
155.9366019534572
 20
369.7492819095617
 30
0.0
 10
158.7200296802937
 20
369.7492819095611
 30
0.0
 10
160.9520260939947
 20
369.7492819095613
 30
0.0
 10
162.0688254966815
 20
369.7492819095611
 30
0.0
  0
LINE
  5
BC
330
1F
100
AcDbEntity
  8
0
  6
Continuous
 62
     7
370
    25
100
AcDbLine
 10
198.0635750532
 20
435.7753586319
 30
0.0
 11
198.0635293152
 21
435.7492819096
 31
0.0
  0
LINE
  5
BD
330
1F
100
AcDbEntity
  8
0
  6
Continuous
 62
     7
370
    25
100
AcDbLine
 10
198.0635288152
 20
435.7492819096
 30
0.0
 11
197.8094840211
 21
435.7368276359
 31
0.0
  0
SPLINE
  5
BE
330
1F
100
AcDbEntity
  8
0
  6
Continuous
 62
     7
370
    25
100
AcDbSpline
210
0.0
220
0.0
230
1.0
 70
     8
 71
     3
 72
    11
 73
     7
 74
     0
 42
0.00000001
 43
0.00000001
 40
0.0
 40
0.0
 40
0.0
 40
0.0
 40
0.3021189996856684
 40
0.5649259499833633
 40
0.7958236579838375
 40
1.0
 40
1.0
 40
1.0
 40
1.0
 10
198.0635039865563
 20
471.7492819096228
 30
0.0
 10
197.1813236625302
 20
471.7688228613512
 30
0.0
 10
195.5317532676671
 20
471.8053620751386
 30
0.0
 10
193.2417313359287
 20
472.2054993363386
 30
0.0
 10
191.2866300297087
 20
472.8592419694239
 30
0.0
 10
190.2609125124885
 20
473.6172249322237
 30
0.0
 10
189.7795524989461
 20
473.9729395252892
 30
0.0
  0
LINE
  5
BF
330
1F
100
AcDbEntity
  8
0
  6
Continuous
 62
     7
370
    25
100
AcDbLine
 10
187.2111925779
 20
479.4573168518
 30
0.0
 11
187.0901126373
 21
481.3369378413
 31
0.0
  0
SPLINE
  5
C0
330
1F
100
AcDbEntity
  8
0
  6
Continuous
 62
     7
370
    25
100
AcDbSpline
210
0.0
220
0.0
230
1.0
 70
     8
 71
     3
 72
     9
 73
     5
 74
     0
 42
0.00000001
 43
0.00000001
 40
0.0
 40
0.0
 40
0.0
 40
0.0
 40
0.4299859159703751
 40
1.0
 40
1.0
 40
1.0
 40
1.0
 10
198.0609344731534
 20
471.7331957540118
 30
0.0
 10
198.0599958923037
 20
471.7385078673963
 30
0.0
 10
198.0578130746464
 20
471.7508620240958
 30
0.0
 10
198.061437826762
 20
471.749855590727
 30
0.0
 10
198.063503986519
 20
471.7492819095322
 30
0.0
  0
LINE
  5
C1
330
1F
100
AcDbEntity
  8
0
  6
Continuous
 62
     7
370
    25
100
AcDbLine
 10
175.0635711879
 20
489.7492819096
 30
0.0
 11
163.0740798054
 21
489.7492819096
 31
0.0
  0
SPLINE
  5
C2
330
1F
100
AcDbEntity
  8
0
  6
Continuous
 62
     7
370
    25
100
AcDbSpline
210
0.0
220
0.0
230
1.0
 70
     8
 71
     3
 72
    10
 73
     6
 74
     0
 42
0.00000001
 43
0.00000001
 40
0.0
 40
0.0
 40
0.0
 40
0.0
 40
0.5
 40
0.5
 40
1.0
 40
1.0
 40
1.0
 40
1.0
 10
205.5831173925874
 20
459.7580731302552
 30
0.0
 10
205.6305405845444
 20
457.6695594403223
 30
0.0
 10
205.8654650673038
 20
455.5851968109575
 30
0.0
 10
206.7027767893305
 20
451.4918090580729
 30
0.0
 10
207.3051751578063
 20
449.4826827994416
 30
0.0
 10
208.0816663578486
 20
447.543293274981
 30
0.0
  0
SPLINE
  5
C3
330
1F
100
AcDbEntity
  8
0
  6
Continuous
 62
     7
370
    25
100
AcDbSpline
210
0.0
220
0.0
230
1.0
 70
    24
 71
     3
 72
     9
 73
     5
 74
     0
 42
0.00000001
 43
0.00000001
 40
0.0
 40
0.0
 40
0.0
 40
0.0
 40
0.4999999999986053
 40
1.0
 40
1.0
 40
1.0
 40
1.0
 10
203.074098210599
 20
459.7694234110277
 30
0.0
 10
203.074098210599
 20
457.7627095772077
 30
0.0
 10
203.074098210599
 20
453.7492819095564
 30
0.0
 10
203.074098210599
 20
449.7358542419051
 30
0.0
 10
203.074098210599
 20
447.7291404080739
 30
0.0
  0
SPLINE
  5
C4
330
1F
100
AcDbEntity
  8
0
  6
Continuous
 62
     7
370
    25
100
AcDbSpline
210
0.0
220
0.0
230
1.0
 70
    24
 71
     3
 72
    22
 73
    18
 74
     0
 42
0.00000001
 43
0.00000001
 40
0.0
 40
0.0
 40
0.0
 40
0.0
 40
0.125
 40
0.125
 40
0.25
 40
0.25
 40
0.375
 40
0.375
 40
0.5
 40
0.5
 40
0.625
 40
0.625
 40
0.75
 40
0.75
 40
0.875
 40
0.875
 40
1.0
 40
1.0
 40
1.0
 40
1.0
 10
186.563553549639
 20
489.7492819095711
 30
0.0
 10
186.5621389318307
 20
489.7492819095712
 30
0.0
 10
186.5577657051626
 20
489.7492819095712
 30
0.0
 10
186.4544320201939
 20
489.7492819095711
 30
0.0
 10
186.3558590661898
 20
489.7492819095711
 30
0.0
 10
186.0116029115084
 20
489.7492819095711
 30
0.0
 10
185.7654996119841
 20
489.7492819095711
 30
0.0
 10
185.0731692102419
 20
489.7492819095711
 30
0.0
 10
184.6219774121449
 20
489.7492819095711
 30
0.0
 10
183.5049378897018
 20
489.7492819095711
 30
0.0
 10
182.8412629740742
 20
489.7492819095711
 30
0.0
 10
181.4106191844245
 20
489.7492819095711
 30
0.0
 10
180.6455134024604
 20
489.7492819095711
 30
0.0
 10
179.0834052935602
 20
489.7492819095711
 30
0.0
 10
178.2849503194556
 20
489.7492819095711
 30
0.0
 10
176.6806797541176
 20
489.7492819095711
 30
0.0
 10
175.8734709143569
 20
489.7492819095711
 30
0.0
 10
175.063571187919
 20
489.7492819095711
 30
0.0
  0
SPLINE
  5
C5
330
1F
100
AcDbEntity
  8
0
  6
Continuous
 62
     7
370
    25
100
AcDbSpline
210
0.0
220
0.0
230
1.0
 70
    24
 71
     3
 72
    22
 73
    18
 74
     0
 42
0.00000001
 43
0.00000001
 40
0.0
 40
0.0
 40
0.0
 40
0.0
 40
0.1250000000000001
 40
0.1250000000000001
 40
0.2500000000000002
 40
0.2500000000000002
 40
0.3750000000000003
 40
0.3750000000000003
 40
0.5000000000000004
 40
0.5000000000000004
 40
0.6250000000000003
 40
0.6250000000000003
 40
0.7500000000000002
 40
0.7500000000000002
 40
0.8750000000000001
 40
0.8750000000000001
 40
1.0
 40
1.0
 40
1.0
 40
1.0
 10
163.074079805439
 20
489.7492819095712
 30
0.0
 10
162.2641784442943
 20
489.7492819095712
 30
0.0
 10
161.4570080310857
 20
489.7492819095712
 30
0.0
 10
159.8527085557226
 20
489.7492819095711
 30
0.0
 10
159.0542620804823
 20
489.7492819095711
 30
0.0
 10
157.4922089148213
 20
489.7492819095711
 30
0.0
 10
156.7270234837126
 20
489.7492819095711
 30
0.0
 10
155.2964616405679
 20
489.7492819095712
 30
0.0
 10
154.632866787698
 20
489.749281909571
 30
0.0
 10
153.5156385559777
 20
489.7492819095713
 30
0.0
 10
153.0644585242226
 20
489.7492819095712
 30
0.0
 10
152.3721815186474
 20
489.7492819095712
 30
0.0
 10
152.1260314906244
 20
489.7492819095712
 30
0.0
 10
151.7818010703443
 20
489.7492819095712
 30
0.0
 10
151.6833254878696
 20
489.7492819095712
 30
0.0
 10
151.5798572456933
 20
489.7492819095712
 30
0.0
 10
151.575504810877
 20
489.7492819095711
 30
0.0
 10
151.5740974437225
 20
489.7492819095712
 30
0.0
  0
LINE
  5
C6
330
1F
100
AcDbEntity
  8
0
  6
Continuous
 62
     7
370
    25
100
AcDbLine
 10
202.5740982106
 20
435.7775269442
 30
0.0
 11
202.5740982106
 21
435.7492819096
 31
0.0
  0
LINE
  5
C7
330
1F
100
AcDbEntity
  8
0
  6
Continuous
 62
     7
370
    25
100
AcDbLine
 10
202.5740982106
 20
435.7492819096
 30
0.0
 11
198.0635293152
 21
435.7492819096
 31
0.0
  0
LINE
  5
C8
330
1F
100
AcDbEntity
  8
0
  6
Continuous
 62
     7
370
    25
100
AcDbLine
 10
198.0635039865
 20
471.7492819095
 30
0.0
 11
202.5740982106
 21
471.7492819095
 31
0.0
  0
SPLINE
  5
C9
330
1F
100
AcDbEntity
  8
0
  6
Continuous
 62
     7
370
    25
100
AcDbSpline
210
0.0
220
0.0
230
1.0
 70
    24
 71
     3
 72
    22
 73
    18
 74
     0
 42
0.00000001
 43
0.00000001
 40
0.0
 40
0.0
 40
0.0
 40
0.0
 40
0.125
 40
0.125
 40
0.25
 40
0.25
 40
0.375
 40
0.375
 40
0.5
 40
0.5
 40
0.625
 40
0.625
 40
0.75
 40
0.75
 40
0.875
 40
0.875
 40
1.0
 40
1.0
 40
1.0
 40
1.0
 10
208.1226633007564
 20
447.4413619598416
 30
0.0
 10
208.3904861437844
 20
446.7784771620219
 30
0.0
 10
208.6576447769858
 20
446.1172363412057
 30
0.0
 10
209.1898449937468
 20
444.7999945813153
 30
0.0
 10
209.4550304082165
 20
444.1436376482431
 30
0.0
 10
209.9799378904108
 20
442.8444460398053
 30
0.0
 10
210.2396001998982
 20
442.2017592712634
 30
0.0
 10
210.7443102721297
 20
440.9525580066933
 30
0.0
 10
210.9894707598586
 20
440.3457645065426
 30
0.0
 10
211.4452738917406
 20
439.2176121670736
 30
0.0
 10
211.6553570387315
 20
438.6976381318358
 30
0.0
 10
212.0141596830202
 20
437.8095704239847
 30
0.0
 10
212.1631907991133
 20
437.4407054677928
 30
0.0
 10
212.3996242122595
 20
436.855512235207
 30
0.0
 10
212.488273608056
 20
436.6360972811023
 30
0.0
 10
212.6181803196429
 20
436.3145668870888
 30
0.0
 10
212.6594677765832
 20
436.2123768452075
 30
0.0
 10
212.6844416832321
 20
436.1505642571751
 30
0.0
  0
SPLINE
  5
CA
330
1F
100
AcDbEntity
  8
0
  6
Continuous
 62
     7
370
    25
100
AcDbSpline
210
0.0
220
0.0
230
1.0
 70
     8
 71
     3
 72
     8
 73
     4
 74
     0
 42
0.00000001
 43
0.00000001
 40
0.0
 40
0.0
 40
0.0
 40
0.0
 40
1.0
 40
1.0
 40
1.0
 40
1.0
 10
205.5831173925854
 20
459.7580731302552
 30
0.0
 10
205.5771048628479
 20
460.0228674952297
 30
0.0
 10
205.574098210599
 20
460.2877301117217
 30
0.0
 10
205.574098210599
 20
460.5525927293862
 30
0.0
  0
SPLINE
  5
CB
330
1F
100
AcDbEntity
  8
0
  6
Continuous
 62
     7
370
    25
100
AcDbSpline
210
0.0
220
0.0
230
1.0
 70
     8
 71
     3
 72
     8
 73
     4
 74
     0
 42
0.00000001
 43
0.00000001
 40
0.0
 40
0.0
 40
0.0
 40
0.0
 40
1.0
 40
1.0
 40
1.0
 40
1.0
 10
208.1226633007614
 20
447.4413619598293
 30
0.0
 10
208.1089443363201
 20
447.4753175883604
 30
0.0
 10
208.0952786662398
 20
447.5092947492109
 30
0.0
 10
208.0816663578488
 20
447.5432932749811
 30
0.0
  0
SPLINE
  5
CC
330
1F
100
AcDbEntity
  8
0
  6
Continuous
 62
     7
370
    25
100
AcDbSpline
210
0.0
220
0.0
230
1.0
 70
    24
 71
     3
 72
    23
 73
    19
 74
     0
 42
0.00000001
 43
0.00000001
 40
0.0
 40
0.0
 40
0.0
 40
0.0
 40
0.0316563847980355
 40
0.0632516977733221
 40
0.1262542586108654
 40
0.2516075155039945
 40
0.3140590737519389
 40
0.3762921798994774
 40
0.4395228372987755
 40
0.4999987518604763
 40
0.5617443782221574
 40
0.6237069291508442
 40
0.6859404132762527
 40
0.7483915091666236
 40
0.8737437490275372
 40
0.9367469108259812
 40
0.968342515550948
 40
1.0
 40
1.0
 40
1.0
 40
1.0
 10
203.074098210599
 20
447.7291404080715
 30
0.0
 10
203.074098210599
 20
447.5268748804718
 30
0.0
 10
203.074098210599
 20
447.122734038006
 30
0.0
 10
203.074098210599
 20
446.3160313512183
 30
0.0
 10
203.074098210599
 20
444.9116724046085
 30
0.0
 10
203.074098210599
 20
443.3134630892206
 30
0.0
 10
203.074098210599
 20
441.7688762714868
 30
0.0
 10
203.074098210599
 20
440.6505993195975
 30
0.0
 10
203.074098210599
 20
439.6175192480306
 30
0.0
 10
203.074098210599
 20
438.7021031696525
 30
0.0
 10
203.074098210599
 20
437.948351405029
 30
0.0
 10
203.074098210599
 20
437.3545167788263
 30
0.0
 10
203.074098210599
 20
436.91343476041
 30
0.0
 10
203.074098210599
 20
436.4971375905842
 30
0.0
 10
203.074098210599
 20
436.3036189944146
 30
0.0
 10
203.074098210599
 20
436.2571089628674
 30
0.0
 10
203.074098210599
 20
436.2495502937105
 30
0.0
 10
203.074098210599
 20
436.2493714292766
 30
0.0
 10
203.074098210599
 20
436.2492819095692
 30
0.0
  0
ARC
  5
CD
330
1F
100
AcDbEntity
  8
0
  6
Continuous
 62
     7
370
    25
100
AcDbCircle
 10
202.5740982106
 20
436.2492819096
 30
0.0
 40
0.5000000000065086
100
AcDbArc
 50
315.0509410236
 51
0.0
  0
ARC
  5
CE
330
1F
100
AcDbEntity
  8
0
  6
Continuous
 62
     7
370
    25
100
AcDbCircle
 10
202.5740982106
 20
471.2492819095
 30
0.0
 40
0.5000000000163425
100
AcDbArc
 50
0.0
 51
90.0000000027
  0
SPLINE
  5
CF
330
1F
100
AcDbEntity
  8
0
  6
Continuous
 62
     7
370
    25
100
AcDbSpline
210
0.0
220
0.0
230
1.0
 70
    24
 71
     3
 72
    24
 73
    20
 74
     0
 42
0.00000001
 43
0.00000001
 40
0.0
 40
0.0
 40
0.0
 40
0.0
 40
0.0316546203574007
 40
0.0632475702350407
 40
0.1262439699068742
 40
0.2515843698284059
 40
0.3140304280741966
 40
0.3762584822280831
 40
0.4382147443668716
 40
0.4999532810281114
 40
0.5616929929743587
 40
0.6236496252219798
 40
0.6858772727784083
 40
0.7483229003888758
 40
0.798420211884793
 40
0.873755644153737
 40
0.9367538753531901
 40
0.9683463062511048
 40
1.0
 40
1.0
 40
1.0
 40
1.0
 10
203.074098210599
 20
471.2492819095513
 30
0.0
 10
203.074098210599
 20
471.2491944547746
 30
0.0
 10
203.074098210599
 20
471.2490197156033
 30
0.0
 10
203.074098210599
 20
471.2414404577966
 30
0.0
 10
203.074098210599
 20
471.195032911839
 30
0.0
 10
203.074098210599
 20
471.0013932532502
 30
0.0
 10
203.074098210599
 20
470.5851469098723
 30
0.0
 10
203.074098210599
 20
470.1440476667784
 30
0.0
 10
203.074098210599
 20
469.5502247748071
 30
0.0
 10
203.074098210599
 20
468.7913741658873
 30
0.0
 10
203.074098210599
 20
467.8740578051717
 30
0.0
 10
203.074098210599
 20
466.8405037510786
 30
0.0
 10
203.074098210599
 20
465.7297257773787
 30
0.0
 10
203.074098210599
 20
464.6499312894029
 30
0.0
 10
203.074098210599
 20
463.4676196397371
 30
0.0
 10
203.074098210599
 20
462.26796700125
 30
0.0
 10
203.074098210599
 20
461.1824978393299
 30
0.0
 10
203.074098210599
 20
460.3758377248242
 30
0.0
 10
203.074098210599
 20
459.9716920064621
 30
0.0
 10
203.074098210599
 20
459.7694234110281
 30
0.0
  0
SPLINE
  5
D0
330
1F
100
AcDbEntity
  8
0
  6
Continuous
 62
     7
370
    25
100
AcDbSpline
210
0.0
220
0.0
230
1.0
 70
    24
 71
     3
 72
    22
 73
    18
 74
     0
 42
0.00000001
 43
0.00000001
 40
0.0
 40
0.0
 40
0.0
 40
0.0
 40
0.1250000000000001
 40
0.1250000000000001
 40
0.2500000000000002
 40
0.2500000000000002
 40
0.3750000000000003
 40
0.3750000000000003
 40
0.5000000000000004
 40
0.5000000000000004
 40
0.6250000000000003
 40
0.6250000000000003
 40
0.7500000000000002
 40
0.7500000000000002
 40
0.8750000000000001
 40
0.8750000000000001
 40
1.0
 40
1.0
 40
1.0
 40
1.0
 10
205.574098210599
 20
471.1606962652436
 30
0.0
 10
205.574098210599
 20
471.1039729194533
 30
0.0
 10
205.5740982105991
 20
471.0132795083114
 30
0.0
 10
205.574098210599
 20
470.7345947562267
 30
0.0
 10
205.574098210599
 20
470.5463614352666
 30
0.0
 10
205.574098210599
 20
470.045620702041
 30
0.0
 10
205.574098210599
 20
469.7308163870913
 30
0.0
 10
205.574098210599
 20
468.9560524462232
 30
0.0
 10
205.5740982105991
 20
468.4945402475993
 30
0.0
 10
205.574098210599
 20
467.4583042541317
 30
0.0
 10
205.5740982105991
 20
466.8873060539973
 30
0.0
 10
205.574098210599
 20
465.6919622301832
 30
0.0
 10
205.5740982105991
 20
465.0685398128155
 30
0.0
 10
205.5740982105991
 20
463.8005600546624
 30
0.0
 10
205.5740982105991
 20
463.1555698007652
 30
0.0
 10
205.574098210599
 20
461.8589076040168
 30
0.0
 10
205.5740982105991
 20
461.206739196732
 30
0.0
 10
205.574098210599
 20
460.5525927293859
 30
0.0
  0
SPLINE
  5
D1
330
1F
100
AcDbEntity
  8
0
  6
Continuous
 62
     7
370
    25
100
AcDbSpline
210
0.0
220
0.0
230
1.0
 70
     8
 71
     3
 72
    16
 73
    12
 74
     0
 42
0.00000001
 43
0.00000001
 40
0.0
 40
0.0
 40
0.0
 40
0.0
 40
0.2500000000000091
 40
0.2500000000000091
 40
0.3750000000000041
 40
0.3750000000000041
 40
0.4999999999999992
 40
0.4999999999999992
 40
0.7499999999999996
 40
0.7499999999999996
 40
1.0
 40
1.0
 40
1.0
 40
1.0
 10
232.9477404302796
 20
524.009492942062
 30
0.0
 10
233.0183083663732
 20
524.3179924364103
 30
0.0
 10
233.1362440351866
 20
524.6102932885815
 30
0.0
 10
233.3946539836413
 20
524.9790069828609
 30
0.0
 10
233.4946719803758
 20
525.0899862091993
 30
0.0
 10
233.7221437921469
 20
525.282589114742
 30
0.0
 10
233.8489126255615
 20
525.3649013715465
 30
0.0
 10
234.2569668689004
 20
525.5725309898437
 30
0.0
 10
234.5653171594834
 20
525.6567953862334
 30
0.0
 10
235.198865167475
 20
525.7433669435374
 30
0.0
 10
235.5254740524043
 20
525.7492819095593
 30
0.0
 10
235.841177150309
 20
525.7492819095672
 30
0.0
  0
LINE
  5
D2
330
1F
100
AcDbEntity
  8
0
  6
Continuous
 62
     7
370
    25
100
AcDbLine
 10
235.8411771503
 20
525.7492819096
 30
0.0
 11
236.843618843
 21
525.7492819096
 31
0.0
  0
LINE
  5
D3
330
1F
100
AcDbEntity
  8
0
  6
Continuous
 62
     7
370
    25
100
AcDbLine
 10
210.2035782387
 20
439.3275711457
 30
0.0
 11
211.1549511872
 21
439.9361860764
 31
0.0
  0
LWPOLYLINE
  5
D4
330
1F
100
AcDbEntity
  8
0
  6
Continuous
 62
     7
370
    25
100
AcDbPolyline
 90
       12
 70
   128
 43
0.0
 10
232.3626695304
 20
479.125282388
 10
232.373701181
 20
481.2176913418
 10
232.3815139683
 20
482.7148083431
 10
232.3836986382
 20
483.1326320621
 10
232.3843565005
 20
483.2583144057
 10
232.4070941091
 20
487.6008409877
 10
232.4072017559
 20
487.6213998137
 10
232.4080284546
 20
487.7792862022
 10
232.4103080214
 20
488.2146473973
 10
232.4189262219
 20
489.8605874042
 10
232.452650288
 20
496.3013505869
 10
232.5443689944
 20
513.8181728276
  0
SPLINE
  5
D5
330
1F
100
AcDbEntity
  8
0
  6
Continuous
 62
     7
370
    25
100
AcDbSpline
210
0.0
220
0.0
230
1.0
 70
     8
 71
     3
 72
    14
 73
    10
 74
     0
 42
0.00000001
 43
0.00000001
 40
0.0
 40
0.0
 40
0.0
 40
0.0
 40
0.25
 40
0.25
 40
0.5
 40
0.5
 40
0.75
 40
0.75
 40
1.0
 40
1.0
 40
1.0
 40
1.0
 10
223.621099159589
 20
472.0492819095641
 30
0.0
 10
225.0395163503902
 20
472.0492819095516
 30
0.0
 10
226.2830571433021
 20
472.2032236926112
 30
0.0
 10
228.4294428357731
 20
472.7994181871265
 30
0.0
 10
229.3331475571373
 20
473.2413735277174
 30
0.0
 10
230.80386981432
 20
474.4111221165144
 30
0.0
 10
231.3711641471188
 20
475.139141910088
 30
0.0
 10
232.1476715919545
 20
476.8983051602323
 30
0.0
 10
232.3564581146464
 20
477.9301661418615
 30
0.0
 10
232.3627157837469
 20
479.1252821400632
 30
0.0
  0
LINE
  5
D6
330
1F
100
AcDbEntity
  8
0
  6
Continuous
 62
     7
370
    25
100
AcDbLine
 10
158.0688254967
 20
490.1492819096
 30
0.0
 11
180.0688254967
 21
490.1492819096
 31
0.0
  0
SPLINE
  5
D7
330
1F
100
AcDbEntity
  8
0
  6
Continuous
 62
     7
370
    25
100
AcDbSpline
210
0.0
220
0.0
230
1.0
 70
     8
 71
     3
 72
    18
 73
    14
 74
     0
 42
0.00000001
 43
0.00000001
 40
0.0
 40
0.0
 40
0.0
 40
0.0
 40
0.016381650511509
 40
0.1251990334589348
 40
0.2337869148644691
 40
0.3410351635451457
 40
0.4475842205600239
 40
0.5544184678648222
 40
0.6615706734323824
 40
0.7684176037750228
 40
0.8749596753661734
 40
0.982153974930237
 40
0.9999999999999999
 40
0.9999999999999999
 40
0.9999999999999999
 40
0.9999999999999999
 10
217.2237256989602
 20
435.4503480392875
 30
0.0
 10
217.2147057672635
 20
435.4500061881816
 30
0.0
 10
217.145769689699
 20
435.4473935437463
 30
0.0
 10
217.4433083622351
 20
435.4589719764177
 30
0.0
 10
218.1212778508671
 20
435.4819040696053
 30
0.0
 10
219.1738791946957
 20
435.5081008826133
 30
0.0
 10
220.424184878662
 20
435.5242770382047
 30
0.0
 10
221.749936092292
 20
435.5241363387105
 30
0.0
 10
222.9998761060105
 20
435.5075759567483
 30
0.0
 10
224.0336230657433
 20
435.4817010476993
 30
0.0
 10
224.7233125475223
 20
435.4582611939929
 30
0.0
 10
224.9537123597414
 20
435.4492341376027
 30
0.0
 10
224.9475025043302
 20
435.4494774420581
 30
0.0
 10
224.9466162203601
 20
435.4495121669952
 30
0.0
  0
SPLINE
  5
D8
330
1F
100
AcDbEntity
  8
0
  6
Continuous
 62
     7
370
    25
100
AcDbSpline
210
0.0
220
0.0
230
1.0
 70
    24
 71
     3
 72
     8
 73
     4
 74
     0
 42
0.00000001
 43
0.00000001
 40
0.0
 40
0.0
 40
0.0
 40
0.0
 40
1.0
 40
1.0
 40
1.0
 40
1.0
 10
205.574098210599
 20
471.5492819095608
 30
0.0
 10
205.574098210599
 20
471.5492809604001
 30
0.0
 10
205.574098210599
 20
471.4199475536496
 30
0.0
 10
205.574098210599
 20
471.1606962652431
 30
0.0
  0
LINE
  5
D9
330
1F
100
AcDbEntity
  8
0
  6
Continuous
 62
     7
370
    25
100
AcDbLine
 10
198.0635039866
 20
471.7492819096
 30
0.0
 11
198.0635040047
 21
471.7492819096
 31
0.0
  0
SPLINE
  5
DA
330
1F
100
AcDbEntity
  8
0
  6
Continuous
 62
     7
370
    25
100
AcDbSpline
210
0.0
220
0.0
230
1.0
 70
     8
 71
     3
 72
     8
 73
     4
 74
     0
 42
0.00000001
 43
0.00000001
 40
0.0
 40
0.0
 40
0.0
 40
0.0
 40
1.0
 40
1.0
 40
1.0
 40
1.0
 10
232.9477362771051
 20
524.0095630283485
 30
0.0
 10
232.6012749528057
 20
522.509511870088
 30
0.0
 10
232.5716369769921
 20
519.0259263024391
 30
0.0
 10
232.5443689943514
 20
513.8181728275626
 30
0.0
  0
LINE
  5
DB
330
1F
100
AcDbEntity
  8
0
  6
Continuous
 62
     7
370
    25
100
AcDbLine
 10
232.9477404303
 20
524.0094929421
 30
0.0
 11
232.9477554561
 21
524.0095586267
 31
0.0
  0
SPLINE
  5
DC
330
1F
100
AcDbEntity
  8
0
  6
Continuous
 62
     8
370
    18
100
AcDbSpline
210
0.0
220
0.0
230
1.0
 70
     8
 71
     3
 72
     9
 73
     5
 74
     0
 42
0.00000001
 43
0.00000001
 40
0.0
 40
0.0
 40
0.0
 40
0.0
 40
0.6189603409802164
 40
1.0
 40
1.0
 40
1.0
 40
1.0
 10
158.4964798955454
 20
544.3891692497137
 30
0.0
 10
158.4275907591733
 20
544.5092068029969
 30
0.0
 10
158.3162926164473
 20
544.7031409621596
 30
0.0
 10
158.4112345030329
 20
544.8970751213227
 30
0.0
 10
158.4474111271241
 20
544.9709717272025
 30
0.0
  0
SPLINE
  5
DD
330
1F
100
AcDbEntity
  8
0
  6
Continuous
 62
     8
370
    18
100
AcDbSpline
210
0.0
220
0.0
230
1.0
 70
     8
 71
     3
 72
     9
 73
     5
 74
     0
 42
0.00000001
 43
0.00000001
 40
0.0
 40
0.0
 40
0.0
 40
0.0
 40
0.3417119483200374
 40
0.9999999999999999
 40
0.9999999999999999
 40
0.9999999999999999
 40
0.9999999999999999
 10
179.7040384970377
 20
544.9320458328725
 30
0.0
 10
179.7330136608759
 20
544.8711245251027
 30
0.0
 10
179.817807780545
 20
544.6928418865549
 30
0.0
 10
179.7130065408481
 20
544.5145592480073
 30
0.0
 10
179.6440171369545
 20
544.3971979172294
 30
0.0
  0
LWPOLYLINE
  5
DE
330
1F
100
AcDbEntity
  8
0
  6
Continuous
 62
     8
370
    18
100
AcDbPolyline
 90
       34
 70
   128
 43
0.0
 10
179.3188254967
 20
544.7492819096
 10
179.1335946436
 20
544.2472181895
 10
178.5845968101
 20
543.7633003603
 10
177.6916742082
 20
543.3150184734
 10
176.4870993873
 20
542.9185746039
 10
175.0144088198
 20
542.5882972663
 10
173.3268293799
 20
542.3361235441
 10
171.4853545857
 20
542.1711676527
 10
169.5565401339
 20
542.0993915277
 10
167.6100984044
 20
542.1233893453
 10
165.7163788727
 20
542.242293762
 10
163.9438254967
 20
542.4518072621
 10
162.3565029737
 20
542.744357482
 10
161.0117812756
 20
543.1093708946
 10
159.958262148
 20
543.5336549639
 10
159.2340225171
 20
544.0018749584
 10
158.8652382903
 20
544.4971081874
 10
158.8652382903
 20
545.0014556317
 10
159.2340225171
 20
545.4966888608
 10
159.958262148
 20
545.9649088552
 10
161.0117812756
 20
546.3891929246
 10
162.3565029737
 20
546.7542063371
 10
163.9438254967
 20
547.046756557
 10
165.7163788727
 20
547.2562700572
 10
167.6100984044
 20
547.3751744738
 10
169.5565401339
 20
547.3991722914
 10
171.4853545857
 20
547.3273961664
 10
173.3268293799
 20
547.162440275
 10
175.0144088198
 20
546.9102665528
 10
176.4870993873
 20
546.5799892152
 10
177.6916742082
 20
546.1835453458
 10
178.5845968101
 20
545.7352634588
 10
179.1335946436
 20
545.2513456297
 10
179.3188254967
 20
544.7492819096
  0
LINE
  5
DF
330
1F
100
AcDbEntity
  8
0
  6
Continuous
 62
     8
370
    18
100
AcDbLine
 10
162.0688254967
 20
368.7492819096
 30
0.0
 11
176.0688254967
 21
368.7492819096
 31
0.0
  0
LINE
  5
E0
330
1F
100
AcDbEntity
  8
0
  6
Continuous
 62
     8
370
    18
100
AcDbLine
 10
176.0688254967
 20
364.9492819096
 30
0.0
 11
162.0688254967
 21
364.9492819096
 31
0.0
  0
SPLINE
  5
E1
330
1F
100
AcDbEntity
  8
0
  6
Continuous
 62
     8
370
    18
100
AcDbSpline
210
0.0
220
0.0
230
1.0
 70
    24
 71
     3
 72
    15
 73
    11
 74
     0
 42
0.00000001
 43
0.00000001
 40
0.0
 40
0.0
 40
0.0
 40
0.0
 40
0.125
 40
0.25
 40
0.375
 40
0.5
 40
0.625
 40
0.75
 40
0.875
 40
1.0
 40
1.0
 40
1.0
 40
1.0
 10
193.0688254966788
 20
364.9492819095632
 30
0.0
 10
193.0688254966751
 20
364.9492819095632
 30
0.0
 10
193.061594381539
 20
364.9492819095632
 30
0.0
 10
192.5879349678891
 20
364.9492819095632
 30
0.0
 10
191.4185394984589
 20
364.9492819095632
 30
0.0
 10
189.4696221777294
 20
364.9492819095632
 30
0.0
 10
186.7095935314693
 20
364.9492819095632
 30
0.0
 10
183.3103067622
 20
364.9492819095632
 30
0.0
 10
179.6573568906397
 20
364.9492819095632
 30
0.0
 10
177.2602283617115
 20
364.9492819095632
 30
0.0
 10
176.068825496679
 20
364.9492819095632
 30
0.0
  0
SPLINE
  5
E2
330
1F
100
AcDbEntity
  8
0
  6
Continuous
 62
     8
370
    18
100
AcDbSpline
210
0.0
220
0.0
230
1.0
 70
    24
 71
     3
 72
    21
 73
    17
 74
     0
 42
0.00000001
 43
0.00000001
 40
-0.0000000000000001
 40
-0.0000000000000001
 40
-0.0000000000000001
 40
-0.0000000000000001
 40
0.003329183646551
 40
0.006658367293102
 40
0.008322959116377
 40
0.009987550939653
 40
0.01165214276293
 40
0.0133167345862
 40
0.01414903049784
 40
0.01498132640948
 40
0.01664591823275
 40
0.01747821414439
 40
0.01831051005603
 40
0.01997510187931
 40
0.02330428552586
 40
0.026633469172409
 40
0.026633469172409
 40
0.026633469172409
 40
0.026633469172409
 10
193.0688254966774
 20
368.7492819095633
 30
0.0
 10
193.0688254966776
 20
368.7492819095592
 30
0.0
 10
193.0623988781234
 20
368.7492819095654
 30
0.0
 10
192.7292910138447
 20
368.7492819095631
 30
0.0
 10
192.1254028979962
 20
368.7492819095631
 30
0.0
 10
191.4760940130299
 20
368.7492819095631
 30
0.0
 10
190.5645178495913
 20
368.7492819095631
 30
0.0
 10
189.5861984553811
 20
368.7492819095631
 30
0.0
 10
188.6566676185842
 20
368.7492819095631
 30
0.0
 10
187.6687625053858
 20
368.7492819095631
 30
0.0
 10
186.6073374544137
 20
368.7492819095631
 30
0.0
 10
185.4900872361038
 20
368.7492819095631
 30
0.0
 10
184.3658971480828
 20
368.7492819095631
 30
0.0
 10
182.3742212854314
 20
368.7492819095631
 30
0.0
 10
179.4647323581265
 20
368.7492819095635
 30
0.0
 10
177.1856898337041
 20
368.7492819095636
 30
0.0
 10
176.068825496679
 20
368.7492819095633
 30
0.0
  0
SPLINE
  5
E3
330
1F
100
AcDbEntity
  8
0
  6
Continuous
 62
     8
370
    18
100
AcDbSpline
210
0.0
220
0.0
230
1.0
 70
    24
 71
     3
 72
     9
 73
     5
 74
     0
 42
0.00000001
 43
0.00000001
 40
-0.0000083847452513
 40
-0.0000083847452513
 40
-0.0000083847452513
 40
-0.0000083847452513
 40
0.5000230576096903
 40
0.9999999999889418
 40
0.9999999999889418
 40
0.9999999999889418
 40
0.9999999999889418
 10
162.0688254966793
 20
364.9492819095601
 30
0.0
 10
162.0688254966792
 20
364.902138493067
 30
0.0
 10
162.0688254966788
 20
364.7900043779444
 30
0.0
 10
162.068825496679
 20
364.7492821564784
 30
0.0
 10
162.068825496679
 20
364.749281909709
 30
0.0
  0
SPLINE
  5
E4
330
1F
100
AcDbEntity
  8
0
  6
Continuous
 62
     8
370
    18
100
AcDbSpline
210
0.0
220
0.0
230
1.0
 70
    24
 71
     3
 72
    10
 73
     6
 74
     0
 42
0.00000001
 43
0.00000001
 40
0.0
 40
0.0
 40
0.0
 40
0.0
 40
0.5
 40
0.5
 40
1.0
 40
1.0
 40
1.0
 40
1.0
 10
176.068825496679
 20
364.9492819095632
 30
0.0
 10
176.068825496679
 20
364.8969220320034
 30
0.0
 10
176.068825496679
 20
364.8448845778105
 30
0.0
 10
176.068825496679
 20
364.7708365288412
 30
0.0
 10
176.068825496679
 20
364.7492819095632
 30
0.0
 10
176.068825496679
 20
364.7492819095632
 30
0.0
  0
SPLINE
  5
E5
330
1F
100
AcDbEntity
  8
0
  6
Continuous
 62
     8
370
    18
100
AcDbSpline
210
0.0
220
0.0
230
1.0
 70
    24
 71
     3
 72
    21
 73
    17
 74
     0
 42
0.00000001
 43
0.00000001
 40
0.0
 40
0.0
 40
0.0
 40
0.0
 40
0.0033291836465484
 40
0.0066583672930984
 40
0.0083229591163784
 40
0.0091552550280184
 40
0.0099875509396584
 40
0.0116521427629284
 40
0.0124844386745684
 40
0.0133167345862084
 40
0.0149813264094784
 40
0.0166459182327554
 40
0.0183105100560314
 40
0.0199751018793064
 40
0.0233042855258574
 40
0.0266334691724083
 40
0.0266334691724083
 40
0.0266334691724083
 40
0.0266334691724083
 10
162.068825496679
 20
368.7492819095626
 30
0.0
 10
160.9519611596538
 20
368.749281909563
 30
0.0
 10
158.6729186352305
 20
368.7492819095629
 30
0.0
 10
155.7634297079315
 20
368.7492819095631
 30
0.0
 10
153.7717538452745
 20
368.7492819095631
 30
0.0
 10
152.6475637572542
 20
368.7492819095631
 30
0.0
 10
151.5303135389434
 20
368.7492819095631
 30
0.0
 10
150.4688884879748
 20
368.7492819095631
 30
0.0
 10
149.4809833747715
 20
368.7492819095631
 30
0.0
 10
148.5514525379749
 20
368.7492819095631
 30
0.0
 10
147.5731331437661
 20
368.7492819095631
 30
0.0
 10
146.6615569803313
 20
368.7492819095631
 30
0.0
 10
146.0122480953651
 20
368.7492819095631
 30
0.0
 10
145.4083599795135
 20
368.7492819095625
 30
0.0
 10
145.0752521152318
 20
368.7492819095654
 30
0.0
 10
145.0688254966765
 20
368.7492819095586
 30
0.0
 10
145.0688254966805
 20
368.7492819095633
 30
0.0
  0
SPLINE
  5
E6
330
1F
100
AcDbEntity
  8
0
  6
Continuous
 62
     8
370
    18
100
AcDbSpline
210
0.0
220
0.0
230
1.0
 70
    24
 71
     3
 72
    24
 73
    20
 74
     0
 42
0.00000001
 43
0.00000001
 40
-0.0000000000000003
 40
-0.0000000000000003
 40
-0.0000000000000003
 40
-0.0000000000000003
 40
0.003489801568054
 40
0.005234702352082
 40
0.006979603136109
 40
0.008724503920136
 40
0.01046940470416
 40
0.01134185509618
 40
0.01221430548819
 40
0.01395920627222
 40
0.01483165666423
 40
0.01570410705624
 40
0.01744900784027
 40
0.01832145823229
 40
0.0191939086243
 40
0.02093880940833
 40
0.02268371019235
 40
0.02442861097638
 40
0.0279184125444307
 40
0.0279184125444307
 40
0.0279184125444307
 40
0.0279184125444307
 10
145.0688254966786
 20
364.9492819095632
 30
0.0
 10
145.0688254966784
 20
364.9492819095632
 30
0.0
 10
145.0753595594745
 20
364.9492819095632
 30
0.0
 10
145.2931077761748
 20
364.9492819095632
 30
0.0
 10
145.5932129073316
 20
364.9492819095632
 30
0.0
 10
146.0583683220163
 20
364.9492819095632
 30
0.0
 10
146.6077138221343
 20
364.9492819095632
 30
0.0
 10
147.1695107000427
 20
364.9492819095632
 30
0.0
 10
147.8081241156307
 20
364.9492819095632
 30
0.0
 10
148.5645599297513
 20
364.9492819095632
 30
0.0
 10
149.4554559510437
 20
364.9492819095632
 30
0.0
 10
150.4032667025634
 20
364.9492819095632
 30
0.0
 10
151.4295427558001
 20
364.9492819095632
 30
0.0
 10
152.5237514495795
 20
364.9492819095632
 30
0.0
 10
153.6329540354654
 20
364.9492819095632
 30
0.0
 10
155.0492659495634
 20
364.9492819095632
 30
0.0
 10
156.7874922444929
 20
364.9492819095632
 30
0.0
 10
159.140404040366
 20
364.9492819095632
 30
0.0
 10
160.8995326724323
 20
364.9492819095632
 30
0.0
 10
162.068825496679
 20
364.9492819095632
 30
0.0
  0
SPLINE
  5
E7
330
1F
100
AcDbEntity
  8
0
  6
Continuous
 62
     8
370
    18
100
AcDbSpline
210
0.0
220
0.0
230
1.0
 70
     8
 71
     3
 72
    12
 73
     8
 74
     0
 42
0.00000001
 43
0.00000001
 40
0.0
 40
0.0
 40
0.0
 40
0.0
 40
0.1627183815157418
 40
0.3250401914689465
 40
0.4870141436189327
 40
0.7363867093867104
 40
1.0
 40
1.0
 40
1.0
 40
1.0
 10
198.064131835789
 20
445.5157149840796
 30
0.0
 10
198.0635639724433
 20
445.6356208786657
 30
0.0
 10
198.0624296297285
 20
445.8751404373746
 30
0.0
 10
198.0607904087872
 20
446.2342808153663
 30
0.0
 10
198.0584577022471
 20
446.6574162698711
 30
0.0
 10
198.0578369748191
 20
447.1553770477194
 30
0.0
 10
198.0615867308513
 20
447.5338276918286
 30
0.0
 10
198.063513656349
 20
447.72830599642
 30
0.0
  0
SPLINE
  5
E8
330
1F
100
AcDbEntity
  8
0
  6
Continuous
 62
     8
370
    18
100
AcDbSpline
210
0.0
220
0.0
230
1.0
 70
     8
 71
     3
 72
    15
 73
    11
 74
     0
 42
0.00000001
 43
0.00000001
 40
0.0
 40
0.0
 40
0.0
 40
0.0
 40
0.1398929953438798
 40
0.2776626202357105
 40
0.409238315198399
 40
0.5370680961119361
 40
0.6685792311006366
 40
0.806331688521617
 40
0.9462252260783036
 40
1.0
 40
1.0
 40
1.0
 40
1.0
 10
198.064131835789
 20
445.5157149840796
 30
0.0
 10
198.0641067439691
 20
444.7550806683795
 30
0.0
 10
198.0640569411864
 20
443.2453573500724
 30
0.0
 10
198.0639829454954
 20
441.0816743311177
 30
0.0
 10
198.0639069325378
 20
439.1457838732112
 30
0.0
 10
198.0638291150036
 20
437.6124717882648
 30
0.0
 10
198.0637530782525
 20
436.5819332752641
 30
0.0
 10
198.0636790284255
 20
435.997530638973
 30
0.0
 10
198.0636197962405
 20
435.7874412575837
 30
0.0
 10
198.0635847768378
 20
435.7779844497458
 30
0.0
 10
198.0635750532003
 20
435.7753586319255
 30
0.0
  0
SPLINE
  5
E9
330
1F
100
AcDbEntity
  8
0
  6
Continuous
 62
     8
370
    18
100
AcDbSpline
210
0.0
220
0.0
230
1.0
 70
     8
 71
     3
 72
    21
 73
    17
 74
     0
 42
0.00000001
 43
0.00000001
 40
0.0
 40
0.0
 40
0.0
 40
0.0
 40
0.0895210500698287
 40
0.1689475425650952
 40
0.2995596433048037
 40
0.3773810583869868
 40
0.527650983459135
 40
0.5823408351259075
 40
0.6366606482019519
 40
0.6905477200814316
 40
0.7468856369934683
 40
0.8031010229140161
 40
0.8625588121425615
 40
0.9060868591667084
 40
0.951862329791036
 40
1.0
 40
1.0
 40
1.0
 40
1.0
 10
237.6056864367564
 20
447.7300161275132
 30
0.0
 10
237.6057259177474
 20
447.2661930353408
 30
0.0
 10
237.6058004277806
 20
446.3908483924177
 30
0.0
 10
237.6079333752159
 20
444.8403698933145
 30
0.0
 10
237.6140404250029
 20
443.3555389436068
 30
0.0
 10
237.6287961363482
 20
441.5599612266016
 30
0.0
 10
237.6478953921065
 20
440.2108522737857
 30
0.0
 10
237.6719305794059
 20
439.1740997064878
 30
0.0
 10
237.688775061453
 20
438.6059035773819
 30
0.0
 10
237.7068520588581
 20
438.1244425892831
 30
0.0
 10
237.7254595336034
 20
437.7285169359668
 30
0.0
 10
237.7443816087052
 20
437.4063989215534
 30
0.0
 10
237.7611854030538
 20
437.17979921772
 30
0.0
 10
237.7760361112047
 20
437.0208606773545
 30
0.0
 10
237.7890653804415
 20
436.9088747579289
 30
0.0
 10
237.7972031580312
 20
436.8606696349538
 30
0.0
 10
237.8013743916878
 20
436.8359608211332
 30
0.0
  0
ARC
  5
EA
330
1F
100
AcDbEntity
  8
0
  6
Continuous
 62
     8
370
    18
100
AcDbCircle
 10
236.8016728387
 20
436.8394820275
 30
0.0
 40
0.9997077543059343
100
AcDbArc
 50
269.9906115983
 51
359.79819034
  0
SPLINE
  5
EB
330
1F
100
AcDbEntity
  8
0
  6
Continuous
 62
     8
370
    18
100
AcDbSpline
210
0.0
220
0.0
230
1.0
 70
     8
 71
     3
 72
    11
 73
     7
 74
     0
 42
0.00000001
 43
0.00000001
 40
0.0
 40
0.0
 40
0.0
 40
0.0
 40
0.2593328631702563
 40
0.5129613742000511
 40
0.7601295295174753
 40
1.0
 40
1.0
 40
1.0
 40
1.0
 10
198.0635126936257
 20
459.7702709949731
 30
0.0
 10
198.0613552874453
 20
459.9615431174221
 30
0.0
 10
198.0570879299441
 20
460.3398800916803
 30
0.0
 10
198.0569004127427
 20
460.9005181476039
 30
0.0
 10
198.0593245101209
 20
461.4467182741091
 30
0.0
 10
198.0614028508995
 20
461.8055601614723
 30
0.0
 10
198.0624264505771
 20
461.9822926992855
 30
0.0
  0
LINE
  5
EC
330
1F
100
AcDbEntity
  8
0
  6
Continuous
 62
     8
370
    18
100
AcDbLine
 10
187.0901126373
 20
481.3369378413
 30
0.0
 11
187.0635528147
 21
481.7492472611
 31
0.0
  0
SPLINE
  5
ED
330
1F
100
AcDbEntity
  8
0
  6
Continuous
 62
     8
370
    18
100
AcDbSpline
210
0.0
220
0.0
230
1.0
 70
     8
 71
     3
 72
    25
 73
    21
 74
     0
 42
0.00000001
 43
0.00000001
 40
0.0
 40
0.0
 40
0.0
 40
0.0
 40
0.0741228420912956
 40
0.1570728219637665
 40
0.2297117402041868
 40
0.2936950755869118
 40
0.3761772064700486
 40
0.4241370406042965
 40
0.4944761223013331
 40
0.5486087769503707
 40
0.5927109453049166
 40
0.6317081919951728
 40
0.6733071242785033
 40
0.7079145805268743
 40
0.7588506111824544
 40
0.7944483832211767
 40
0.8712663628726857
 40
0.9307002211324819
 40
0.9732296478323214
 40
1.0
 40
1.0
 40
1.0
 40
1.0
 10
198.062426160099
 20
461.9823144862423
 30
0.0
 10
198.0632097773914
 20
462.3842035873994
 30
0.0
 10
198.0648703313582
 20
463.2358419414373
 30
0.0
 10
198.0635180287114
 20
464.4705342836062
 30
0.0
 10
198.0620325065319
 20
465.628608347402
 30
0.0
 10
198.0627818371673
 20
466.7492289052003
 30
0.0
 10
198.0644093075508
 20
467.6935157227677
 30
0.0
 10
198.0646235843744
 20
468.5886537833104
 30
0.0
 10
198.0633370827884
 20
469.2810130438355
 30
0.0
 10
198.064497494111
 20
469.8566534350581
 30
0.0
 10
198.0657511356809
 20
470.2601160754487
 30
0.0
 10
198.0638914438669
 20
470.5772820173784
 30
0.0
 10
198.0608238296888
 20
470.8280552053363
 30
0.0
 10
198.0605934473911
 20
471.064461257099
 30
0.0
 10
198.0627060412606
 20
471.249648958718
 30
0.0
 10
198.0641513991462
 20
471.4492639050703
 30
0.0
 10
198.0641363698582
 20
471.5970020635029
 30
0.0
 10
198.0646063576296
 20
471.6854936298107
 30
0.0
 10
198.0623649414659
 20
471.7245325826663
 30
0.0
 10
198.0613330792558
 20
471.7307817243305
 30
0.0
 10
198.0609344731534
 20
471.7331957540118
 30
0.0
  0
SPLINE
  5
EE
330
1F
100
AcDbEntity
  8
0
  6
Continuous
 62
     8
370
    18
100
AcDbSpline
210
0.0
220
0.0
230
1.0
 70
     8
 71
     3
 72
    11
 73
     7
 74
     0
 42
0.00000001
 43
0.00000001
 40
0.0
 40
0.0
 40
0.0
 40
0.0
 40
0.2500006216508557
 40
0.5000003178873786
 40
0.7499998551798467
 40
1.0
 40
1.0
 40
1.0
 40
1.0
 10
237.6070067358438
 20
471.7440473917532
 30
0.0
 10
237.6067077966945
 20
469.7428882353116
 30
0.0
 10
237.6061099195023
 20
465.7405773300155
 30
0.0
 10
237.605637353616
 20
459.737064736365
 30
0.0
 10
237.6054488507819
 20
453.7335402241757
 30
0.0
 10
237.6056072413674
 20
449.7311924474265
 30
0.0
 10
237.6056864367564
 20
447.7300161275132
 30
0.0
  0
SPLINE
  5
EF
330
1F
100
AcDbEntity
  8
0
  6
Continuous
 62
     8
370
    18
100
AcDbSpline
210
0.0
220
0.0
230
1.0
 70
    24
 71
     3
 72
    22
 73
    18
 74
     0
 42
0.00000001
 43
0.00000001
 40
0.0
 40
0.0
 40
0.0
 40
0.0
 40
0.1249999999999998
 40
0.1249999999999998
 40
0.2499999999999998
 40
0.2499999999999998
 40
0.3749999999999999
 40
0.3749999999999999
 40
0.4999999999999999
 40
0.4999999999999999
 40
0.6249999999999999
 40
0.6249999999999999
 40
0.75
 40
0.75
 40
0.875
 40
0.875
 40
1.0
 40
1.0
 40
1.0
 40
1.0
 10
175.06357118792
 20
489.2492819095632
 30
0.0
 10
175.8744370587906
 20
489.2492819095632
 30
0.0
 10
176.692440582218
 20
489.2492819095632
 30
0.0
 10
178.3357382781095
 20
489.2492819095632
 30
0.0
 10
179.1590572103914
 20
489.2492819095632
 30
0.0
 10
180.7835352546997
 20
489.2492819095632
 30
0.0
 10
181.5847912238543
 20
489.2492819095632
 30
0.0
 10
183.1014847910432
 20
489.2492819095632
 30
0.0
 10
183.8143088763628
 20
489.2492819095632
 30
0.0
 10
185.0190249317914
 20
489.2492819095632
 30
0.0
 10
185.5022855141674
 20
489.2492819095632
 30
0.0
 10
186.2363851030053
 20
489.2492819095632
 30
0.0
 10
186.4929819329107
 20
489.2492819095633
 30
0.0
 10
186.8510274316466
 20
489.2492819095632
 30
0.0
 10
186.9521444472399
 20
489.2492819095632
 30
0.0
 10
187.0579720584053
 20
489.2492819095632
 30
0.0
 10
187.0621371859061
 20
489.2492819095631
 30
0.0
 10
187.0635527827581
 20
489.2492819095632
 30
0.0
  0
LINE
  5
F0
330
1F
100
AcDbEntity
  8
0
  6
Continuous
 62
     8
370
    18
100
AcDbLine
 10
187.0635527828
 20
489.2492819096
 30
0.0
 11
187.0635528147
 21
481.7492477611
 31
0.0
  0
LINE
  5
F1
330
1F
100
AcDbEntity
  8
0
  6
Continuous
 62
     8
370
    18
100
AcDbLine
 10
175.0635711879
 20
370.0492819096
 30
0.0
 11
163.0740798054
 21
370.0492819096
 31
0.0
  0
LINE
  5
F2
330
1F
100
AcDbEntity
  8
0
  6
Continuous
 62
     8
370
    18
100
AcDbLine
 10
163.0740798054
 20
489.2492819096
 30
0.0
 11
175.0635711879
 21
489.2492819096
 31
0.0
  0
SPLINE
  5
F3
330
1F
100
AcDbEntity
  8
0
  6
Continuous
 62
     8
370
    18
100
AcDbSpline
210
0.0
220
0.0
230
1.0
 70
    24
 71
     3
 72
     8
 73
     4
 74
     0
 42
0.00000001
 43
0.00000001
 40
0.0
 40
0.0
 40
0.0
 40
0.0
 40
1.0
 40
1.0
 40
1.0
 40
1.0
 10
198.063512679579
 20
459.7702709507698
 30
0.0
 10
198.063512679579
 20
455.7562867369585
 30
0.0
 10
198.063512679579
 20
451.7422902102543
 30
0.0
 10
198.063512679579
 20
447.7283059964162
 30
0.0
  0
LINE
  5
F4
330
1F
100
AcDbEntity
  8
0
  6
Continuous
 62
     8
370
    18
100
AcDbLine
 10
187.0635527828
 20
425.7493030408
 30
0.0
 11
187.0635527828
 21
370.0492819096
 31
0.0
  0
SPLINE
  5
F5
330
1F
100
AcDbEntity
  8
0
  6
Continuous
 62
     8
370
    18
100
AcDbSpline
210
0.0
220
0.0
230
1.0
 70
    24
 71
     3
 72
    22
 73
    18
 74
     0
 42
0.00000001
 43
0.00000001
 40
0.0
 40
0.0
 40
0.0
 40
0.0
 40
0.1249999999999999
 40
0.1249999999999999
 40
0.2499999999999999
 40
0.2499999999999999
 40
0.3749999999999999
 40
0.3749999999999999
 40
0.4999999999999999
 40
0.4999999999999999
 40
0.6249999999999999
 40
0.6249999999999999
 40
0.7499999999999999
 40
0.7499999999999999
 40
0.8749999999999999
 40
0.8749999999999999
 40
1.0
 40
1.0
 40
1.0
 40
1.0
 10
187.0635527827605
 20
370.0492819095632
 30
0.0
 10
187.0621248114067
 20
370.0492819095632
 30
0.0
 10
187.0577358619311
 20
370.0492819095632
 30
0.0
 10
186.9500823938038
 20
370.0492819095631
 30
0.0
 10
186.8474957455383
 20
370.0492819095632
 30
0.0
 10
186.4864050578549
 20
370.0492819095632
 30
0.0
 10
186.2281598302431
 20
370.0492819095632
 30
0.0
 10
185.4944224145932
 20
370.0492819095632
 30
0.0
 10
185.0136630404094
 20
370.0492819095632
 30
0.0
 10
183.8197167063671
 20
370.0492819095632
 30
0.0
 10
183.113771722438
 20
370.0492819095632
 30
0.0
 10
181.6056937147861
 20
370.0492819095632
 30
0.0
 10
180.8062891271494
 20
370.0492819095632
 30
0.0
 10
179.1820014811393
 20
370.0492819095632
 30
0.0
 10
178.3567502157744
 20
370.0492819095632
 30
0.0
 10
176.7065920533205
 20
370.0492819095632
 30
0.0
 10
175.8827689370652
 20
370.0492819095632
 30
0.0
 10
175.063571187921
 20
370.0492819095632
 30
0.0
  0
SPLINE
  5
F6
330
1F
100
AcDbEntity
  8
0
  6
Continuous
 62
     8
370
    18
100
AcDbSpline
210
0.0
220
0.0
230
1.0
 70
     8
 71
     3
 72
    23
 73
    19
 74
     0
 42
0.00000001
 43
0.00000001
 40
0.0
 40
0.0
 40
0.0
 40
0.0
 40
0.049502319258607
 40
0.0989366535401627
 40
0.1483184107649757
 40
0.1976630481063615
 40
0.246986057635781
 40
0.2963029518067347
 40
0.3456292488420735
 40
0.3949804580950993
 40
0.4443720654504891
 40
0.4938195188386862
 40
0.5433382139237406
 40
0.6347525485826879
 40
0.7260279481323506
 40
0.8172623245026445
 40
0.9085537216182394
 40
1.0
 40
1.0
 40
1.0
 40
1.0
 10
206.082988547136
 20
459.7702991273636
 30
0.0
 10
206.0886502167476
 20
459.5664736159912
 30
0.0
 10
206.0999657804061
 20
459.1591025209939
 30
0.0
 10
206.130569075683
 20
458.5489011845787
 30
0.0
 10
206.1711414069628
 20
457.9399557771566
 30
0.0
 10
206.2226582781027
 20
457.3322886007913
 30
0.0
 10
206.2848586813227
 20
456.7258939430263
 30
0.0
 10
206.3578125002052
 20
456.1207735828281
 30
0.0
 10
206.4415009041535
 20
455.5169273110977
 30
0.0
 10
206.5359292312809
 20
454.9143553780559
 30
0.0
 10
206.6410947454602
 20
454.3130581695886
 30
0.0
 10
206.757002772698
 20
453.7130350469424
 30
0.0
 10
206.9192693935107
 20
452.945797942509
 30
0.0
 10
207.1406400552549
 20
452.0151225387304
 30
0.0
 10
207.4373989002751
 20
450.9263372727457
 30
0.0
 10
207.7701997955669
 20
449.8486122629218
 30
0.0
 10
208.135945865007
 20
448.780718277062
 30
0.0
 10
208.4091340776357
 20
448.0792807243786
 30
0.0
 10
208.545843955742
 20
447.7282646925968
 30
0.0
  0
LINE
  5
F7
330
1F
100
AcDbEntity
  8
0
  6
Continuous
 62
     8
370
    18
100
AcDbLine
 10
223.5113351143
 20
459.7702991702
 30
0.0
 11
206.0829885471
 21
459.7702991274
 31
0.0
  0
SPLINE
  5
F8
330
1F
100
AcDbEntity
  8
0
  6
Continuous
 62
     8
370
    18
100
AcDbSpline
210
0.0
220
0.0
230
1.0
 70
     8
 71
     3
 72
    25
 73
    21
 74
     0
 42
0.00000001
 43
0.00000001
 40
0.0
 40
0.0
 40
0.0
 40
0.0
 40
0.057281896147123
 40
0.1043502723361333
 40
0.1516654902416389
 40
0.1946544140328108
 40
0.2723200125998958
 40
0.3386148144096616
 40
0.3933619088944383
 40
0.4413983364637541
 40
0.4799127691320427
 40
0.5164912396929443
 40
0.5504339684639109
 40
0.5867459140497735
 40
0.629885609379781
 40
0.6821850617865066
 40
0.7446503159833048
 40
0.8176795993998902
 40
0.9021163091404625
 40
1.0
 40
1.0
 40
1.0
 40
1.0
 10
235.505918442909
 20
471.7492852918522
 30
0.0
 10
235.4909255735374
 20
471.352952069406
 30
0.0
 10
235.4636131047251
 20
470.6309529304127
 30
0.0
 10
235.4090957627553
 20
469.582210577861
 30
0.0
 10
235.3437646139837
 20
468.6332497696125
 30
0.0
 10
235.24376283236
 20
467.4745060451818
 30
0.0
 10
235.0880522980587
 20
466.1888483003141
 30
0.0
 10
234.8349258726551
 20
464.8350337559562
 30
0.0
 10
234.5150127304572
 20
463.7069671914317
 30
0.0
 10
234.1403524532198
 20
462.7998364699636
 30
0.0
 10
233.6999175598534
 20
462.0661149754735
 30
0.0
 10
233.2097644894021
 20
461.487083038262
 30
0.0
 10
232.639476590661
 20
461.0103653307642
 30
0.0
 10
231.9562321115906
 20
460.6163819563326
 30
0.0
 10
231.1009861803074
 20
460.2892409394919
 30
0.0
 10
230.0324257312726
 20
460.045064852012
 30
0.0
 10
228.7405360129953
 20
459.8855073642573
 30
0.0
 10
227.2194186183429
 20
459.8009973127957
 30
0.0
 10
225.4514679973024
 20
459.7707603831494
 30
0.0
 10
224.1890817038159
 20
459.7704602856898
 30
0.0
 10
223.511335114349
 20
459.7702991701653
 30
0.0
  0
LINE
  5
F9
330
1F
100
AcDbEntity
  8
0
  6
Continuous
 62
     8
370
    18
100
AcDbLine
 10
202.5740982106
 20
447.7282646906
 30
0.0
 11
202.5740982106
 21
459.7702991285
 31
0.0
  0
ARC
  5
FA
330
1F
100
AcDbEntity
  8
0
  6
Continuous
 62
     8
370
    18
100
AcDbCircle
 10
186.7635530128
 20
370.0492816795
 30
0.0
 40
0.2999997699357409
100
AcDbArc
 50
270.0000439392
 51
0.0000439391
  0
LINE
  5
FB
330
1F
100
AcDbEntity
  8
0
  6
Continuous
 62
     8
370
    18
100
AcDbLine
 10
175.0635711879
 20
369.7492819096
 30
0.0
 11
175.0635711879
 21
370.0492819096
 31
0.0
  0
SPLINE
  5
FC
330
1F
100
AcDbEntity
  8
0
  6
Continuous
 62
     8
370
    18
100
AcDbSpline
210
0.0
220
0.0
230
1.0
 70
    24
 71
     3
 72
    15
 73
    11
 74
     0
 42
0.00000001
 43
0.00000001
 40
0.0
 40
0.0
 40
0.0
 40
0.0
 40
0.125
 40
0.2499999999999999
 40
0.3749999999999998
 40
0.4999999999999998
 40
0.6249999999999999
 40
0.7499999999999999
 40
0.875
 40
1.0
 40
1.0
 40
1.0
 40
1.0
 10
151.0740982105996
 20
370.0492819095632
 30
0.0
 10
151.0755712887481
 20
370.0492819095632
 30
0.0
 10
151.0841814867892
 20
370.0492819095632
 30
0.0
 10
151.4227155947696
 20
370.0492819095632
 30
0.0
 10
152.25018963254
 20
370.0492819095632
 30
0.0
 10
153.6257663503702
 20
370.0492819095632
 30
0.0
 10
155.5724087280896
 20
370.0492819095632
 30
0.0
 10
157.9693622361586
 20
370.0492819095632
 30
0.0
 10
160.5446880786834
 20
370.0492819095632
 30
0.0
 10
162.2343227637222
 20
370.0492819095632
 30
0.0
 10
163.074079805438
 20
370.0492819095632
 30
0.0
  0
LINE
  5
FD
330
1F
100
AcDbEntity
  8
0
  6
Continuous
 62
     8
370
    18
100
AcDbLine
 10
163.0740798054
 20
370.0492819096
 30
0.0
 11
163.0740798054
 21
369.7492819096
 31
0.0
  0
ARC
  5
FE
330
1F
100
AcDbEntity
  8
0
  6
Continuous
 62
     8
370
    18
100
AcDbCircle
 10
151.3740979805
 20
370.0492816795
 30
0.0
 40
0.2999997699358546
100
AcDbArc
 50
179.9999560609
 51
269.9999560608
  0
SPLINE
  5
FF
330
1F
100
AcDbEntity
  8
0
  6
Continuous
 62
     8
370
    18
100
AcDbSpline
210
0.0
220
0.0
230
1.0
 70
     8
 71
     3
 72
     8
 73
     4
 74
     0
 42
0.00000001
 43
0.00000001
 40
0.0
 40
0.0
 40
0.0
 40
0.0
 40
1.0
 40
1.0
 40
1.0
 40
1.0
 10
206.0829885471355
 20
459.770299127388
 30
0.0
 10
206.077054457653
 20
460.0319871706385
 30
0.0
 10
206.0740982107642
 20
460.2944070293767
 30
0.0
 10
206.074098210599
 20
460.5574647605866
 30
0.0
  0
SPLINE
  5
100
330
1F
100
AcDbEntity
  8
0
  6
Continuous
 62
     8
370
    18
100
AcDbSpline
210
0.0
220
0.0
230
1.0
 70
    24
 71
     3
 72
    24
 73
    20
 74
     0
 42
0.00000001
 43
0.00000001
 40
0.0
 40
0.0
 40
0.0
 40
0.0
 40
0.1249999999999995
 40
0.1249999999999995
 40
0.2499999999999989
 40
0.2499999999999989
 40
0.3749999999999984
 40
0.3749999999999984
 40
0.4999999999999979
 40
0.4999999999999979
 40
0.5624999999999986
 40
0.5624999999999986
 40
0.6249999999999989
 40
0.6249999999999989
 40
0.7499999999999992
 40
0.7499999999999992
 40
0.8749999999999997
 40
0.8749999999999997
 40
1.0
 40
1.0
 40
1.0
 40
1.0
 10
206.074098210599
 20
460.5574647605363
 30
0.0
 10
206.074098210599
 20
461.217448337249
 30
0.0
 10
206.074098210599
 20
461.8821850435875
 30
0.0
 10
206.074098210599
 20
463.2128661343522
 30
0.0
 10
206.074098210599
 20
463.8782219503319
 30
0.0
 10
206.074098210599
 20
465.1955461454426
 30
0.0
 10
206.074098210599
 20
465.8470894938733
 30
0.0
 10
206.074098210599
 20
467.1066006811275
 30
0.0
 10
206.074098210599
 20
467.715042397146
 30
0.0
 10
206.074098210599
 20
468.5482324353515
 30
0.0
 10
206.074098210599
 20
468.8126476467045
 30
0.0
 10
206.074098210599
 20
469.3056835805795
 30
0.0
 10
206.074098210599
 20
469.5336473901203
 30
0.0
 10
206.074098210599
 20
470.1573633017819
 30
0.0
 10
206.074098210599
 20
470.4924171603505
 30
0.0
 10
206.074098210599
 20
471.0209249751554
 30
0.0
 10
206.074098210599
 20
471.2172778613396
 30
0.0
 10
206.074098210599
 20
471.5071633369688
 30
0.0
 10
206.074098210599
 20
471.6005216312945
 30
0.0
 10
206.074098210599
 20
471.6587895324872
 30
0.0
  0
LINE
  5
101
330
1F
100
AcDbEntity
  8
0
  6
Continuous
 62
     8
370
    18
100
AcDbLine
 10
175.0635711879
 20
489.2492819096
 30
0.0
 11
175.0635711879
 21
489.7492819096
 31
0.0
  0
LINE
  5
102
330
1F
100
AcDbEntity
  8
0
  6
Continuous
 62
     8
370
    18
100
AcDbLine
 10
163.0740798054
 20
489.7492819096
 30
0.0
 11
163.0740798054
 21
489.2492819096
 31
0.0
  0
SPLINE
  5
103
330
1F
100
AcDbEntity
  8
0
  6
Continuous
 62
     8
370
    18
100
AcDbSpline
210
0.0
220
0.0
230
1.0
 70
    24
 71
     3
 72
    15
 73
    11
 74
     0
 42
0.00000001
 43
0.00000001
 40
0.0
 40
0.0
 40
0.0
 40
0.0
 40
0.125
 40
0.2500000000000001
 40
0.3750000000000001
 40
0.5000000000000002
 40
0.6250000000000002
 40
0.75
 40
0.875
 40
1.0
 40
1.0
 40
1.0
 40
1.0
 10
163.074079805438
 20
489.2492819095633
 30
0.0
 10
162.2343227637222
 20
489.2492819095633
 30
0.0
 10
160.5446880786834
 20
489.2492819095633
 30
0.0
 10
157.9693622361586
 20
489.2492819095632
 30
0.0
 10
155.5724087280896
 20
489.2492819095633
 30
0.0
 10
153.6257663503702
 20
489.2492819095632
 30
0.0
 10
152.25018963254
 20
489.2492819095632
 30
0.0
 10
151.4227155947696
 20
489.2492819095632
 30
0.0
 10
151.0841814867892
 20
489.2492819095632
 30
0.0
 10
151.0755712887481
 20
489.2492819095633
 30
0.0
 10
151.0740982105996
 20
489.2492819095633
 30
0.0
  0
LINE
  5
104
330
1F
100
AcDbEntity
  8
0
  6
Continuous
 62
     8
370
    18
100
AcDbLine
 10
151.0740982106
 20
489.2492819096
 30
0.0
 11
151.0740982106
 21
370.0492819096
 31
0.0
  0
ARC
  5
105
330
1F
100
AcDbEntity
  8
0
  6
Continuous
 62
     8
370
    18
100
AcDbCircle
 10
179.8795795825
 20
518.9900859727
 30
0.0
 40
76.81146975073484
100
AcDbArc
 50
291.5405634011
 51
291.9132854502
  0
ARC
  5
106
330
1F
100
AcDbEntity
  8
0
  6
Continuous
 62
     8
370
    18
100
AcDbCircle
 10
207.5786720489
 20
388.3929439647
 30
0.0
 40
71.39302416314183
100
AcDbArc
 50
91.2004341195
 51
91.6017216621
  0
ARC
  5
107
330
1F
100
AcDbEntity
  8
0
  6
Continuous
 62
     8
370
    18
100
AcDbCircle
 10
202.6990978272
 20
388.3995906993
 30
0.0
 40
71.37081789215364
100
AcDbArc
 50
89.6989520538
 51
90.1003484946
  0
ARC
  5
108
330
1F
100
AcDbEntity
  8
0
  6
Continuous
 62
     8
370
    18
100
AcDbCircle
 10
202.6990978273
 20
519.0989732311
 30
0.0
 40
71.37081800343148
100
AcDbArc
 50
269.8996515054
 51
270.3010479456
  0
ARC
  5
109
330
1F
100
AcDbEntity
  8
0
  6
Continuous
 62
     8
370
    18
100
AcDbCircle
 10
186.5635531662
 20
489.249282293
 30
0.0
 40
0.499999616559625
100
AcDbArc
 50
359.9999560609
 51
89.999956061
  0
ARC
  5
10A
330
1F
100
AcDbEntity
  8
0
  6
Continuous
 62
     8
370
    18
100
AcDbCircle
 10
151.5740978272
 20
489.249282293
 30
0.0
 40
0.499999616563462
100
AcDbArc
 50
90.0000439436
 51
180.0000439438
  0
SPLINE
  5
10B
330
1F
100
AcDbEntity
  8
0
  6
Continuous
 62
     8
370
    18
100
AcDbSpline
210
0.0
220
0.0
230
1.0
 70
    24
 71
     3
 72
    15
 73
    11
 74
     0
 42
0.00000001
 43
0.00000001
 40
0.0
 40
0.0
 40
0.0
 40
0.0
 40
0.1356406997909921
 40
0.2725955211353289
 40
0.4057772336067879
 40
0.5321998236084707
 40
0.6586661965144599
 40
0.791932090307743
 40
0.9289004071944997
 40
1.0
 40
1.0
 40
1.0
 40
1.0
 10
202.574098210599
 20
447.7282646906431
 30
0.0
 10
202.574098210599
 20
446.8813689208147
 30
0.0
 10
202.5740982105991
 20
445.1793724398219
 30
0.0
 10
202.574098210599
 20
442.658068078576
 30
0.0
 10
202.574098210599
 20
440.2919243746316
 30
0.0
 10
202.574098210599
 20
438.2795714663251
 30
0.0
 10
202.574098210599
 20
436.8774790932128
 30
0.0
 10
202.574098210599
 20
436.0887367443289
 30
0.0
 10
202.574098210599
 20
435.7924317009679
 30
0.0
 10
202.574098210599
 20
435.7813229524355
 30
0.0
 10
202.574098210599
 20
435.7775269442071
 30
0.0
  0
SPLINE
  5
10C
330
1F
100
AcDbEntity
  8
0
  6
Continuous
 62
     8
370
    18
100
AcDbSpline
210
0.0
220
0.0
230
1.0
 70
    24
 71
     3
 72
    22
 73
    18
 74
     0
 42
0.00000001
 43
0.00000001
 40
0.0
 40
0.0
 40
0.0
 40
0.0
 40
0.1250000000000002
 40
0.1250000000000002
 40
0.2500000000000003
 40
0.2500000000000003
 40
0.3750000000000003
 40
0.3750000000000003
 40
0.5000000000000003
 40
0.5000000000000003
 40
0.6250000000000003
 40
0.6250000000000003
 40
0.7500000000000002
 40
0.7500000000000002
 40
0.8750000000000001
 40
0.8750000000000001
 40
1.0
 40
1.0
 40
1.0
 40
1.0
 10
202.574098210599
 20
471.7492819095768
 30
0.0
 10
202.5740982105991
 20
471.7492866532198
 30
0.0
 10
202.574098210599
 20
471.7467806897459
 30
0.0
 10
202.574098210599
 20
471.6439838749935
 30
0.0
 10
202.574098210599
 20
471.5442688715671
 30
0.0
 10
202.574098210599
 20
471.1889199890268
 30
0.0
 10
202.574098210599
 20
470.9336392710449
 30
0.0
 10
202.574098210599
 20
470.2021222641717
 30
0.0
 10
202.574098210599
 20
469.7201264166148
 30
0.0
 10
202.574098210599
 20
468.5175582139415
 30
0.0
 10
202.5740982105991
 20
467.8055460458035
 30
0.0
 10
202.574098210599
 20
466.2901063414402
 30
0.0
 10
202.574098210599
 20
465.4892420692451
 30
0.0
 10
202.574098210599
 20
463.8653837320772
 30
0.0
 10
202.574098210599
 20
463.0422652171297
 30
0.0
 10
202.574098210599
 20
461.3992208598656
 30
0.0
 10
202.574098210599
 20
460.5812324590705
 30
0.0
 10
202.574098210599
 20
459.7702991284932
 30
0.0
  0
LINE
  5
10D
330
1F
100
AcDbEntity
  8
0
  6
Continuous
 62
     8
370
    18
100
AcDbLine
 10
236.801509028
 20
435.8397742866
 30
0.0
 11
213.1480336105
 21
435.8397742866
 31
0.0
  0
SPLINE
  5
10E
330
1F
100
AcDbEntity
  8
0
  6
Continuous
 62
     8
370
    18
100
AcDbSpline
210
0.0
220
0.0
230
1.0
 70
     8
 71
     3
 72
    27
 73
    23
 74
     0
 42
0.00000001
 43
0.00000001
 40
0.0
 40
0.0
 40
0.0
 40
0.0
 40
0.0248482959882176
 40
0.0489038522722288
 40
0.0721644223945563
 40
0.094629552593572
 40
0.1162988598138884
 40
0.1371637489185052
 40
0.1572175835487337
 40
0.1764580422728253
 40
0.1948848980548613
 40
0.2124972616444114
 40
0.2292949980251835
 40
0.2452758790751029
 40
0.3047906666219171
 40
0.363047988913352
 40
0.4060606002785145
 40
0.4808888920307424
 40
0.6273057307867618
 40
0.7624084341297238
 40
0.8866523303322602
 40
1.0
 40
1.0
 40
1.0
 40
1.0
 10
213.148033610516
 20
435.8397742866369
 30
0.0
 10
213.142651173764
 20
435.8534767819793
 30
0.0
 10
213.1320580171181
 20
435.8804446194641
 30
0.0
 10
213.1113868248448
 20
435.9332919816694
 30
0.0
 10
213.0876236967283
 20
435.9941874828855
 30
0.0
 10
213.0605522538893
 20
436.0637048207342
 30
0.0
 10
213.0304364403345
 20
436.141180650614
 30
0.0
 10
212.9975023487283
 20
436.2260589737733
 30
0.0
 10
212.9620423318423
 20
436.3176163233311
 30
0.0
 10
212.9244081379832
 20
436.4149827684415
 30
0.0
 10
212.8849756381914
 20
436.5172279134768
 30
0.0
 10
212.844094784423
 20
436.6234870974267
 30
0.0
 10
212.8021219660581
 20
436.7328758893263
 30
0.0
 10
212.7199794502862
 20
436.9476167592179
 30
0.0
 10
212.5825179925754
 20
437.3095010143217
 30
0.0
 10
212.3808653608392
 20
437.8435639252102
 30
0.0
 10
212.1285785640816
 20
438.5186861907326
 30
0.0
 10
211.6929542962099
 20
439.6779586153889
 30
0.0
 10
211.0002769024047
 20
441.4945161731449
 30
0.0
 10
210.153491160263
 20
443.6773808445262
 30
0.0
 10
209.3537459499275
 20
445.7132373673174
 30
0.0
 10
208.8341422580673
 20
447.0092967682865
 30
0.0
 10
208.58625522804
 20
447.6276070703072
 30
0.0
  0
SPLINE
  5
10F
330
1F
100
AcDbEntity
  8
0
  6
Continuous
 62
     8
370
    18
100
AcDbSpline
210
0.0
220
0.0
230
1.0
 70
     8
 71
     3
 72
     8
 73
     4
 74
     0
 42
0.00000001
 43
0.00000001
 40
0.0
 40
0.0
 40
0.0
 40
0.0
 40
1.0
 40
1.0
 40
1.0
 40
1.0
 10
208.5862576935814
 20
447.6276080664337
 30
0.0
 10
208.572736569564
 20
447.6611509854116
 30
0.0
 10
208.5592661119673
 20
447.694703591768
 30
0.0
 10
208.5458464243935
 20
447.7282656809913
 30
0.0
  0
ARC
  5
110
330
1F
100
AcDbEntity
  8
0
  6
Continuous
 62
     8
370
    18
100
AcDbCircle
 10
213.1457935195
 20
436.3375878166
 30
0.0
 40
0.4978185699640597
100
AcDbArc
 50
202.0667299006
 51
270.2578212259
  0
ARC
  5
111
330
1F
100
AcDbEntity
  8
0
  6
Continuous
 62
     8
370
    18
100
AcDbCircle
 10
184.6323360027
 20
506.5823980238
 30
0.0
 40
63.63534885025059
100
AcDbArc
 50
291.6625640507
 51
292.1123998589
  0
SPLINE
  5
112
330
1F
100
AcDbEntity
  8
0
  6
Continuous
 62
     8
370
    18
100
AcDbSpline
210
0.0
220
0.0
230
1.0
 70
     8
 71
     3
 72
    11
 73
     7
 74
     0
 42
0.00000001
 43
0.00000001
 40
0.0
 40
0.0
 40
0.0
 40
0.0
 40
0.2733638948636063
 40
0.5008359087790001
 40
0.7692143627716918
 40
0.9999999999999999
 40
0.9999999999999999
 40
0.9999999999999999
 40
0.9999999999999999
 10
235.608091121039
 20
478.2513463835632
 30
0.0
 10
235.6046038169701
 20
477.6587879361928
 30
0.0
 10
235.5982146517022
 20
476.5731487787556
 30
0.0
 10
235.5793514103284
 20
474.9058382765438
 30
0.0
 10
235.5527962891049
 20
473.3309061560205
 30
0.0
 10
235.5207396465954
 20
472.2493407953546
 30
0.0
 10
235.505918442909
 20
471.7492852918532
 30
0.0
  0
ARC
  5
113
330
1F
100
AcDbEntity
  8
0
  6
Continuous
 62
     8
370
    18
100
AcDbCircle
 10
205.949110079
 20
447.7254855331
 30
0.0
 40
12.83258792785483
100
AcDbArc
 50
89.4419359755
 51
91.6746159781
  0
ARC
  5
114
330
1F
100
AcDbEntity
  8
0
  6
Continuous
 62
     8
370
    18
100
AcDbCircle
 10
206.073146662
 20
471.1597410741
 30
0.0
 40
0.4990493655683667
100
AcDbArc
 50
89.8907527921
 51
179.8903345867
  0
LINE
  5
115
330
1F
100
AcDbEntity
  8
0
  6
Continuous
 62
     8
370
    18
100
AcDbLine
 10
237.6139031248
 20
513.8068775134
 30
0.0
 11
237.6070067358
 21
471.7440473918
 31
0.0
  0
LINE
  5
116
330
1F
100
AcDbEntity
  8
0
  6
Continuous
 62
     8
370
    18
100
AcDbLine
 10
235.7942986833
 20
513.8121134773
 30
0.0
 11
235.608091121
 21
478.2513463836
 31
0.0
  0
ARC
  5
117
330
1F
100
AcDbEntity
  8
0
  6
Continuous
 62
     8
370
    18
100
AcDbCircle
 10
236.8435905761
 20
524.7493101749
 30
0.0
 40
0.9999717350728557
100
AcDbArc
 50
359.9983804707
 51
89.9983803784
  0
SPLINE
  5
118
330
1F
100
AcDbEntity
  8
0
  6
Continuous
 62
     8
370
    18
100
AcDbSpline
210
0.0
220
0.0
230
1.0
 70
     8
 71
     3
 72
    22
 73
    18
 74
     0
 42
0.00000001
 43
0.00000001
 40
0.0
 40
0.0
 40
0.0
 40
0.0
 40
0.0842110018159275
 40
0.1577361572816496
 40
0.2196940591046113
 40
0.2770695498397079
 40
0.3545565768245706
 40
0.4255122872467441
 40
0.4920120428390343
 40
0.5579787915892063
 40
0.6277718386510737
 40
0.7036078005758999
 40
0.7637904631937917
 40
0.8289387074412086
 40
0.9080095220343503
 40
0.9472696842694154
 40
1.0
 40
1.0
 40
1.0
 40
1.0
 10
237.843562310764
 20
524.7492819095631
 30
0.0
 10
237.8376617184818
 20
524.7488489664432
 30
0.0
 10
237.8266092819568
 20
524.7480380179616
 30
0.0
 10
237.8065922787864
 20
524.6800282490657
 30
0.0
 10
237.7866522080496
 20
524.5369545498128
 30
0.0
 10
237.7641363876613
 20
524.2976531692589
 30
0.0
 10
237.7384967355843
 20
523.9138356114529
 30
0.0
 10
237.7105604593633
 20
523.3206313862524
 30
0.0
 10
237.6849695120137
 20
522.5614550070705
 30
0.0
 10
237.6627598138749
 20
521.6164081604907
 30
0.0
 10
237.6443172760645
 20
520.4848430221368
 30
0.0
 10
237.6313626589531
 20
519.2981543628131
 30
0.0
 10
237.6227143249706
 20
518.0991052482249
 30
0.0
 10
237.617137958946
 20
516.8601721459916
 30
0.0
 10
237.6148462284245
 20
515.7388573536329
 30
0.0
 10
237.6141025113461
 20
514.6924079536361
 30
0.0
 10
237.6139757730822
 20
514.1295284505125
 30
0.0
 10
237.6139031248167
 20
513.8068775134333
 30
0.0
  0
SPLINE
  5
119
330
1F
100
AcDbEntity
  8
0
  6
Continuous
 62
     8
370
    18
100
AcDbSpline
210
0.0
220
0.0
230
1.0
 70
     8
 71
     3
 72
    22
 73
    18
 74
     0
 42
0.00000001
 43
0.00000001
 40
-0.0000000000000009
 40
-0.0000000000000009
 40
-0.0000000000000009
 40
-0.0000000000000009
 40
0.001904562408399
 40
0.003809124816819
 40
0.004761406021029
 40
0.005713687225236
 40
0.00618982782734
 40
0.006665968429444
 40
0.007142109031549
 40
0.007618249633653
 40
0.008094390235757
 40
0.008570530837861
 40
0.009522812042069
 40
0.010475093246278
 40
0.011427374450486
 40
0.013331936858902
 40
0.0152364992673199
 40
0.0152364992673199
 40
0.0152364992673199
 40
0.0152364992673199
 10
235.7942995710965
 20
513.8121134755451
 30
0.0
 10
235.7975942916563
 20
514.4413529977894
 30
0.0
 10
235.8041873103871
 20
515.7945038732976
 30
0.0
 10
235.8124178139409
 20
517.677635580841
 30
0.0
 10
235.8189421065611
 20
519.2878718418825
 30
0.0
 10
235.8228596533231
 20
520.3213399926639
 30
0.0
 10
235.8258908264119
 20
521.1797620329994
 30
0.0
 10
235.82808727389
 20
521.8387745810527
 30
0.0
 10
235.8301224834977
 20
522.4884367645732
 30
0.0
 10
235.8319894554108
 20
523.1149221936266
 30
0.0
 10
235.8336718325926
 20
523.6800402061195
 30
0.0
 10
235.8355741202319
 20
524.2875098828233
 30
0.0
 10
235.8374484131416
 20
524.8282366389199
 30
0.0
 10
235.8390175561361
 20
525.2395413168239
 30
0.0
 10
235.840428488053
 20
525.5862322229514
 30
0.0
 10
235.8411743002595
 20
525.7504956499702
 30
0.0
 10
235.8411771503346
 20
525.7492819095619
 30
0.0
 10
235.8411771503091
 20
525.7492819095647
 30
0.0
  0
SPLINE
  5
11A
330
1F
100
AcDbEntity
  8
0
  6
Continuous
 62
     8
370
    18
100
AcDbSpline
210
0.0
220
0.0
230
1.0
 70
     8
 71
     3
 72
    16
 73
    12
 74
     0
 42
0.00000001
 43
0.00000001
 40
0.0
 40
0.0
 40
0.0
 40
0.0
 40
0.1113478780684735
 40
0.2226122728255003
 40
0.3338035685405342
 40
0.4449321699751037
 40
0.5560084995086788
 40
0.6670429942404698
 40
0.7780461030703825
 40
0.8890282837631298
 40
1.0
 40
1.0
 40
1.0
 40
1.0
 10
237.8013743916878
 20
436.8359608211332
 30
0.0
 10
237.8065877181449
 20
436.8081900778614
 30
0.0
 10
237.8170104623564
 20
436.7526694124924
 30
0.0
 10
237.8303783042525
 20
436.6814614318371
 30
0.0
 10
237.8420779314966
 20
436.6191401379998
 30
0.0
 10
237.8519482998217
 20
436.5665632673372
 30
0.0
 10
237.8600295514464
 20
436.5235167894392
 30
0.0
 10
237.8663218085032
 20
436.4899999184674
 30
0.0
 10
237.870784324566
 20
436.4662295822525
 30
0.0
 10
237.8735797776899
 20
436.4513391722138
 30
0.0
 10
237.8739254050611
 20
436.4494981411559
 30
0.0
 10
237.874098210599
 20
436.4485776690264
 30
0.0
  0
LINE
  5
11B
330
1F
100
AcDbEntity
  8
0
  6
Continuous
 62
     8
370
    18
100
AcDbLine
 10
237.8740982106
 20
524.7492819096
 30
0.0
 11
237.8435623108
 21
524.7492819096
 31
0.0
  0
LINE
  5
11C
330
1F
100
AcDbEntity
  8
0
  6
Continuous
 62
     8
370
    18
100
AcDbLine
 10
203.4369198473
 20
470.2802672333
 30
0.0
 11
203.4369198473
 21
437.3190131388
 31
0.0
  0
LINE
  5
11D
330
1F
100
AcDbEntity
  8
0
  6
Continuous
 62
     8
370
    18
100
AcDbLine
 10
203.4860028919
 20
437.3549005617
 30
0.0
 11
203.4860028919
 21
437.3223871738
 31
0.0
  0
LINE
  5
11E
330
1F
100
AcDbEntity
  8
0
  6
Continuous
 62
     8
370
    18
100
AcDbLine
 10
203.4860028919
 20
470.2761766454
 30
0.0
 11
203.4860028919
 21
437.3549005617
 31
0.0
  0
SPLINE
  5
11F
330
1F
100
AcDbEntity
  8
0
  6
Continuous
 62
     8
370
    18
100
AcDbSpline
210
0.0
220
0.0
230
1.0
 70
    24
 71
     3
 72
    11
 73
     7
 74
     0
 42
0.00000001
 43
0.00000001
 40
0.0
 40
0.0
 40
0.0
 40
0.0
 40
0.3038190881590544
 40
0.6076381763188126
 40
0.9114572644792742
 40
1.0
 40
1.0
 40
1.0
 40
1.0
 10
210.2034878253584
 20
439.3277507897891
 30
0.0
 10
210.2034878253362
 20
439.3799024078563
 30
0.0
 10
210.2034878252918
 20
439.4842056439911
 30
0.0
 10
210.2034878252253
 20
440.3703299664014
 30
0.0
 10
210.2034878251744
 20
441.3175529581466
 30
0.0
 10
210.2034878251458
 20
442.1118864489969
 30
0.0
 10
210.2034878251393
 20
442.2911405352781
 30
0.0
  0
SPLINE
  5
120
330
1F
100
AcDbEntity
  8
0
  6
Continuous
 62
     8
370
    18
100
AcDbSpline
210
0.0
220
0.0
230
1.0
 70
     8
 71
     3
 72
    18
 73
    14
 74
     0
 42
0.00000001
 43
0.00000001
 40
0.0
 40
0.0
 40
0.0
 40
0.0
 40
0.2499999999999998
 40
0.2499999999999998
 40
0.4999999999999997
 40
0.4999999999999997
 40
0.7499999999999996
 40
0.7499999999999996
 40
0.8749999999999996
 40
0.8749999999999996
 40
0.9374999999999998
 40
0.9374999999999998
 40
1.0
 40
1.0
 40
1.0
 40
1.0
 10
232.5428039383395
 20
513.2249946807398
 30
0.0
 10
232.5495988086361
 20
514.4800303101892
 30
0.0
 10
232.5568372431644
 20
515.6607444070407
 30
0.0
 10
232.5793724656494
 20
517.8279770353797
 30
0.0
 10
232.5944787463557
 20
518.8192478938656
 30
0.0
 10
232.6431585884206
 20
520.6169095448702
 30
0.0
 10
232.6744615418962
 20
521.4233231915156
 30
0.0
 10
232.7487845337987
 20
522.4952610109757
 30
0.0
 10
232.7760484036706
 20
522.8296092582679
 30
0.0
 10
232.8306623337089
 20
523.2966635749391
 30
0.0
 10
232.8504199241446
 20
523.4466434370592
 30
0.0
 10
232.892904337734
 20
523.7356468888046
 30
0.0
 10
232.9210506517079
 20
523.8738342814873
 30
0.0
 10
232.9477359601618
 20
524.0094941994827
 30
0.0
  0
SPLINE
  5
121
330
1F
100
AcDbEntity
  8
0
  6
Continuous
 62
     8
370
    18
100
AcDbSpline
210
0.0
220
0.0
230
1.0
 70
     8
 71
     3
 72
    19
 73
    15
 74
     0
 42
0.00000001
 43
0.00000001
 40
0.0
 40
0.0
 40
0.0
 40
0.0
 40
0.0344874059831192
 40
0.0741121323002331
 40
0.1201686610851283
 40
0.1738750488088152
 40
0.2363691417162537
 40
0.3087141739372216
 40
0.3919036815775349
 40
0.4868618611792276
 40
0.5944384287379523
 40
0.7153980396358466
 40
0.8504045120074574
 40
1.0
 40
1.0
 40
1.0
 40
1.0
 10
232.5443689943515
 20
513.818172827563
 30
0.0
 10
232.5442893842134
 20
513.8030280578905
 30
0.0
 10
232.5441183050348
 20
513.7704825201317
 30
0.0
 10
232.5438792273144
 20
513.7251691257702
 30
0.0
 10
232.5436382412886
 20
513.6786762793865
 30
0.0
 10
232.5434028262376
 20
513.6315487821241
 30
0.0
 10
232.5431781117581
 20
513.5835336145076
 30
0.0
 10
232.542972051031
 20
513.5346663733429
 30
0.0
 10
232.5427939033929
 20
513.4849039345057
 30
0.0
 10
232.5426550709156
 20
513.4342460594336
 30
0.0
 10
232.5425685360474
 20
513.3826700786515
 30
0.0
 10
232.5425515260286
 20
513.3302397566451
 30
0.0
 10
232.5426148350425
 20
513.2766663753227
 30
0.0
 10
232.5427387857904
 20
513.2427973582671
 30
0.0
 10
232.5428039380915
 20
513.2249947678431
 30
0.0
  0
SPLINE
  5
122
330
1F
100
AcDbEntity
  8
0
  6
Continuous
 62
     8
370
    18
100
AcDbSpline
210
0.0
220
0.0
230
1.0
 70
     8
 71
     3
 72
    16
 73
    12
 74
     0
 42
0.00000001
 43
0.00000001
 40
0.0
 40
0.0
 40
0.0
 40
0.0
 40
0.1111092395444869
 40
0.2222213496516025
 40
0.3333346203982717
 40
0.4444473558512814
 40
0.5555586529722712
 40
0.6666690127626972
 40
0.7777790817445058
 40
0.888889415335999
 40
1.0
 40
1.0
 40
1.0
 40
1.0
 10
236.8015090280299
 20
435.8397742866375
 30
0.0
 10
236.8067017483115
 20
435.8117953149468
 30
0.0
 10
236.8170873230312
 20
435.7558366487149
 30
0.0
 10
236.8304169950727
 20
435.6840873933807
 30
0.0
 10
236.8420941825537
 20
435.6212706791473
 30
0.0
 10
236.8519532944077
 20
435.5682654577822
 30
0.0
 10
236.860029879405
 20
435.5248614808729
 30
0.0
 10
236.8663219316123
 20
435.4910615563205
 30
0.0
 10
236.870786314082
 20
435.4670874580042
 30
0.0
 10
236.8735832472081
 20
435.4520687957208
 30
0.0
 10
236.873929194931
 20
435.4502113182031
 30
0.0
 10
236.8741021689878
 20
435.4492825783949
 30
0.0
  0
SPLINE
  5
123
330
1F
100
AcDbEntity
  8
0
  6
Continuous
 62
     8
370
    18
100
AcDbSpline
210
0.0
220
0.0
230
1.0
 70
    24
 71
     3
 72
     9
 73
     5
 74
     0
 42
0.00000001
 43
0.00000001
 40
0.0
 40
0.0
 40
0.0
 40
0.0
 40
0.9998420623992261
 40
1.0
 40
1.0
 40
1.0
 40
1.0
 10
213.1480336105161
 20
435.8397742866388
 30
0.0
 10
213.2526243972577
 20
435.5794665492425
 30
0.0
 10
213.3572317054266
 20
435.3191176929724
 30
0.0
 10
213.3049156328209
 20
435.4493230284577
 30
0.0
 10
213.3049073701459
 20
435.449343592776
 30
0.0
  0
LINE
  5
124
330
1F
100
AcDbEntity
  8
0
  6
Continuous
 62
     8
370
    18
100
AcDbLine
 10
206.0740982106
 20
472.0492819096
 30
0.0
 11
206.0740982106
 21
471.6587895325
 31
0.0
  0
SPLINE
  5
125
330
1F
100
AcDbEntity
  8
0
  6
Continuous
 62
     8
370
    18
100
AcDbSpline
210
0.0
220
0.0
230
1.0
 70
     8
 71
     3
 72
     8
 73
     4
 74
     0
 42
0.00000001
 43
0.00000001
 40
0.0
 40
0.0
 40
0.0
 40
0.0
 40
1.0
 40
1.0
 40
1.0
 40
1.0
 10
187.0635527827638
 20
481.7492611252632
 30
0.0
 10
187.0713289635214
 20
481.7492565081237
 30
0.0
 10
187.071328974139
 20
481.7492518894144
 30
0.0
 10
187.0635528146894
 20
481.7492472610916
 30
0.0
  0
SPLINE
  5
126
330
1F
100
AcDbEntity
  8
0
  6
Continuous
 62
     8
370
    18
100
AcDbSpline
210
0.0
220
0.0
230
1.0
 70
    27
 71
     3
 72
     8
 73
     4
 74
     0
 42
0.00000001
 43
0.00000001
 40
0.0
 40
0.0
 40
0.0
 40
0.0
 40
1.0
 40
1.0
 40
1.0
 40
1.0
 10
187.0635527827586
 20
425.7493030408032
 30
0.0
 10
187.0705830661884
 20
425.7493030408032
 30
0.0
 10
187.0705830661884
 20
425.7493030408032
 30
0.0
 10
187.0635527827586
 20
425.7493030408032
 30
0.0
  0
LINE
  5
127
330
1F
100
AcDbEntity
  8
0
  6
Continuous
 62
     8
370
    18
100
AcDbLine
 10
187.0688254967
 20
370.0492819096
 30
0.0
 11
187.0635527828
 21
370.0492819096
 31
0.0
  0
LINE
  5
128
330
1F
100
AcDbEntity
  8
0
  6
Continuous
 62
     8
370
    18
100
AcDbLine
 10
187.0635527828
 20
489.2492819096
 30
0.0
 11
187.0688254967
 21
489.2492819096
 31
0.0
  0
LINE
  5
129
330
1F
100
AcDbEntity
  8
0
  6
Continuous
 62
     8
370
    18
100
AcDbLine
 10
151.0688254967
 20
370.0492819096
 30
0.0
 11
151.0740982106
 21
370.0492819096
 31
0.0
  0
LINE
  5
12A
330
1F
100
AcDbEntity
  8
0
  6
Continuous
 62
     8
370
    18
100
AcDbLine
 10
151.0740982106
 20
489.2492819096
 30
0.0
 11
151.0688254967
 21
489.2492819096
 31
0.0
  0
LINE
  5
12B
330
1F
100
AcDbEntity
  8
0
  6
Continuous
 62
     8
370
    18
100
AcDbLine
 10
217.36434854
 20
435.3397577867
 30
0.0
 11
224.7838478812
 21
435.3397577867
 31
0.0
  0
LINE
  5
12C
330
1F
100
AcDbEntity
  8
0
  6
Continuous
 62
     7
370
    25
100
AcDbLine
 10
180.0688254967
 20
106.4230326526
 30
0.0
 11
180.0688254967
 21
266.0702708485
 31
0.0
  0
LINE
  5
12D
330
1F
100
AcDbEntity
  8
0
  6
Continuous
 62
     7
370
    25
100
AcDbLine
 10
158.0688254967
 20
266.0702708485
 30
0.0
 11
158.0688254967
 21
106.4230326526
 31
0.0
  0
LINE
  5
12E
330
1F
100
AcDbEntity
  8
0
  6
Continuous
 62
     7
370
    25
100
AcDbLine
 10
180.0688254967
 20
96.1479165619
 30
0.0
 11
180.0688254967
 21
106.4230326526
 31
0.0
  0
LINE
  5
12F
330
1F
100
AcDbEntity
  8
0
  6
Continuous
 62
     7
370
    25
100
AcDbLine
 10
158.0688254967
 20
106.4230326526
 30
0.0
 11
158.0688254967
 21
96.1479165619
 31
0.0
  0
SPLINE
  5
130
330
1F
100
AcDbEntity
  8
0
  6
Continuous
 62
     7
370
    25
100
AcDbSpline
210
0.0
220
0.0
230
1.0
 70
     8
 71
     3
 72
    10
 73
     6
 74
     0
 42
0.00000001
 43
0.00000001
 40
0.0
 40
0.0
 40
0.0
 40
0.0
 40
0.0763359283539892
 40
0.3813872294157643
 40
1.0
 40
1.0
 40
1.0
 40
1.0
 10
237.6348306069546
 20
282.0388240124403
 30
0.0
 10
237.6323436257537
 20
282.1142721286691
 30
0.0
 10
237.6199182463776
 20
282.4912236983112
 30
0.0
 10
237.5897576593687
 20
282.972979378554
 30
0.0
 10
237.5547791536308
 20
283.1100637667229
 30
0.0
 10
237.5313527251168
 20
283.2018743673212
 30
0.0
  0
LINE
  5
131
330
1F
100
AcDbEntity
  8
0
  6
Continuous
 62
     7
370
    25
100
AcDbLine
 10
237.6565014953
 20
281.400711362
 30
0.0
 11
237.646710078
 21
281.6890256732
 31
0.0
  0
SPLINE
  5
132
330
1F
100
AcDbEntity
  8
0
  6
Continuous
 62
     7
370
    25
100
AcDbSpline
210
0.0
220
0.0
230
1.0
 70
     8
 71
     3
 72
     9
 73
     5
 74
     0
 42
0.00000001
 43
0.00000001
 40
0.0
 40
0.0
 40
0.0
 40
0.0
 40
0.502489314948606
 40
1.0
 40
1.0
 40
1.0
 40
1.0
 10
237.531352495777
 20
248.9386668026573
 30
0.0
 10
237.5545042780278
 20
249.0019978397442
 30
0.0
 10
237.6005784562483
 20
249.1280324343175
 30
0.0
 10
237.6109714170258
 20
249.2955213746499
 30
0.0
 10
237.616142026062
 20
249.3788489120932
 30
0.0
  0
SPLINE
  5
133
330
1F
100
AcDbEntity
  8
0
  6
Continuous
 62
     7
370
    25
100
AcDbSpline
210
0.0
220
0.0
230
1.0
 70
     8
 71
     3
 72
     9
 73
     5
 74
     0
 42
0.00000001
 43
0.00000001
 40
0.0
 40
0.0
 40
0.0
 40
0.0
 40
0.5139884040215927
 40
1.0
 40
1.0
 40
1.0
 40
1.0
 10
232.4746454425998
 20
278.3309469626299
 30
0.0
 10
232.4655226425975
 20
277.8609892637819
 30
0.0
 10
232.4477736040378
 20
276.9466540469348
 30
0.0
 10
232.4312026983818
 20
276.0168881213779
 30
0.0
 10
232.4231490460771
 20
275.5650111000116
 30
0.0
  0
SPLINE
  5
134
330
1F
100
AcDbEntity
  8
0
  6
Continuous
 62
     7
370
    25
100
AcDbSpline
210
0.0
220
0.0
230
1.0
 70
     8
 71
     3
 72
     9
 73
     5
 74
     0
 42
0.00000001
 43
0.00000001
 40
0.0
 40
0.0
 40
0.0
 40
0.0
 40
0.4860121163759563
 40
0.9999999999999999
 40
0.9999999999999999
 40
0.9999999999999999
 40
0.9999999999999999
 10
232.4231489951647
 20
256.5755334135683
 30
0.0
 10
232.4312026641476
 20
256.1236554495405
 30
0.0
 10
232.4477735863767
 20
255.1938885799462
 30
0.0
 10
232.4655226427026
 20
254.2795524346849
 30
0.0
 10
232.4746454425998
 20
253.8095947344611
 30
0.0
  0
SPLINE
  5
135
330
1F
100
AcDbEntity
  8
0
  6
Continuous
 62
     7
370
    25
100
AcDbSpline
210
0.0
220
0.0
230
1.0
 70
     8
 71
     3
 72
     9
 73
     5
 74
     0
 42
0.00000001
 43
0.00000001
 40
0.0
 40
0.0
 40
0.0
 40
0.0
 40
0.5193111199143929
 40
1.0
 40
1.0
 40
1.0
 40
1.0
 10
232.4769859648102
 20
253.6564480204984
 30
0.0
 10
232.4961144051303
 20
253.014356760113
 30
0.0
 10
232.5329486641833
 20
251.7779278916319
 30
0.0
 10
232.579053841915
 20
251.2168304158773
 30
0.0
 10
232.601216088165
 20
250.9471170986379
 30
0.0
  0
SPLINE
  5
136
330
1F
100
AcDbEntity
  8
0
  6
Continuous
 62
     7
370
    25
100
AcDbSpline
210
0.0
220
0.0
230
1.0
 70
     8
 71
     3
 72
     9
 73
     5
 74
     0
 42
0.00000001
 43
0.00000001
 40
0.0
 40
0.0
 40
0.0
 40
0.0
 40
0.480686726089518
 40
1.0
 40
1.0
 40
1.0
 40
1.0
 10
232.6012193868029
 20
281.1934732858602
 30
0.0
 10
232.5790568086907
 20
280.9237598764091
 30
0.0
 10
232.5329507339659
 20
280.3626596944978
 30
0.0
 10
232.4961151610365
 20
279.1262021549063
 30
0.0
 10
232.4769859590622
 20
278.4840933419695
 30
0.0
  0
LWPOLYLINE
  5
137
330
1F
100
AcDbEntity
  8
0
  6
Continuous
 62
     7
370
    25
100
AcDbPolyline
 90
        3
 70
   128
 43
0.0
 10
237.5352548249
 20
283.192783284
 10
237.5321198064
 20
283.2925128149
 10
237.5283016138
 20
283.4131901051
  0
LWPOLYLINE
  5
138
330
1F
100
AcDbEntity
  8
0
  6
Continuous
 62
     7
370
    25
100
AcDbPolyline
 90
        3
 70
   128
 43
0.0
 10
237.528434969
 20
248.7276668595
 10
237.5315695643
 20
248.8266723501
 10
237.5353882577
 20
248.9480737264
  0
SPLINE
  5
139
330
1F
100
AcDbEntity
  8
0
  6
Continuous
 62
     7
370
    25
100
AcDbSpline
210
0.0
220
0.0
230
1.0
 70
     8
 71
     3
 72
     9
 73
     5
 74
     0
 42
0.00000001
 43
0.00000001
 40
0.0
 40
0.0
 40
0.0
 40
0.0
 40
0.4443832430344542
 40
1.0
 40
1.0
 40
1.0
 40
1.0
 10
179.9053075781943
 20
284.0698696844776
 30
0.0
 10
179.1873332578979
 20
284.0702353145893
 30
0.0
 10
177.5716685550757
 20
284.0710580956403
 30
0.0
 10
175.9593622693984
 20
284.0709668346593
 30
0.0
 10
175.0635378797151
 20
284.0709161285289
 30
0.0
  0
SPLINE
  5
13A
330
1F
100
AcDbEntity
  8
0
  6
Continuous
 62
     7
370
    25
100
AcDbSpline
210
0.0
220
0.0
230
1.0
 70
     8
 71
     3
 72
     9
 73
     5
 74
     0
 42
0.00000001
 43
0.00000001
 40
0.0
 40
0.0
 40
0.0
 40
0.0
 40
0.9166010884596647
 40
1.0
 40
1.0
 40
1.0
 40
1.0
 10
180.068825496679
 20
248.071774477501
 30
0.0
 10
180.9250760978937
 20
248.0721997433834
 30
0.0
 10
181.8592344924179
 20
248.0726637029922
 30
0.0
 10
182.7755537642784
 20
248.0722420635093
 30
0.0
 10
182.8519737941749
 20
248.0722068992354
 30
0.0
  0
ARC
  5
13B
330
1F
100
AcDbEntity
  8
0
  6
Continuous
 62
     7
370
    25
100
AcDbCircle
 10
172.7688254967
 20
284.2800327529
 30
0.0
 40
0.1999999999999993
100
AcDbArc
 50
0.0
 51
87.20581768
  0
ARC
  5
13C
330
1F
100
AcDbEntity
  8
0
  6
Continuous
 62
     7
370
    25
100
AcDbCircle
 10
165.3688254967
 20
284.2800327529
 30
0.0
 40
0.2000000000000006
100
AcDbArc
 50
92.79418232
 51
180.0
  0
LINE
  5
13D
330
1F
100
AcDbEntity
  8
0
  6
Continuous
 62
     7
370
    25
100
AcDbLine
 10
172.9688254967
 20
284.0702708485
 30
0.0
 11
172.9688254967
 21
284.2800327529
 31
0.0
  0
LINE
  5
13E
330
1F
100
AcDbEntity
  8
0
  6
Continuous
 62
     7
370
    25
100
AcDbLine
 10
165.1688254967
 20
284.2800327529
 30
0.0
 11
165.1688254967
 21
284.0702708485
 31
0.0
  0
ARC
  5
13F
330
1F
100
AcDbEntity
  8
0
  6
Continuous
 62
     7
370
    25
100
AcDbCircle
 10
169.0688254967
 20
208.4702708485
 30
0.0
 40
76.10000000000998
100
AcDbArc
 50
87.2058176799
 51
92.7941823201
  0
LINE
  5
140
330
1F
100
AcDbEntity
  8
0
  6
Continuous
 62
     7
370
    25
100
AcDbLine
 10
236.6102893521
 20
284.0702708485
 30
0.0
 11
206.779061395
 21
284.0702708485
 31
0.0
  0
LINE
  5
141
330
1F
100
AcDbEntity
  8
0
  6
Continuous
 62
     7
370
    25
100
AcDbLine
 10
206.7772806508
 20
248.0702708485
 30
0.0
 11
236.6109957597
 21
248.0702708485
 31
0.0
  0
SPLINE
  5
142
330
1F
100
AcDbEntity
  8
0
  6
Continuous
 62
     7
370
    25
100
AcDbSpline
210
0.0
220
0.0
230
1.0
 70
     8
 71
     3
 72
    12
 73
     8
 74
     0
 42
0.00000001
 43
0.00000001
 40
0.0
 40
0.0
 40
0.0
 40
0.0
 40
0.1696366693066895
 40
0.3426692969197704
 40
0.5156043501758788
 40
0.6849599238847182
 40
0.9999999999999999
 40
0.9999999999999999
 40
0.9999999999999999
 40
0.9999999999999999
 10
237.5254074633088
 20
283.4636171798849
 30
0.0
 10
237.495751575088
 20
283.5231593111396
 30
0.0
 10
237.4358461171011
 20
283.6434355482149
 30
0.0
 10
237.3021947431507
 20
283.7972869841512
 30
0.0
 10
237.1427724931513
 20
283.9214723645596
 30
0.0
 10
236.9112253307057
 20
284.0403263149832
 30
0.0
 10
236.7204314381979
 20
284.0584420102392
 30
0.0
 10
236.5963433658963
 20
284.07022405249
 30
0.0
  0
SPLINE
  5
143
330
1F
100
AcDbEntity
  8
0
  6
Continuous
 62
     7
370
    25
100
AcDbSpline
210
0.0
220
0.0
230
1.0
 70
     8
 71
     3
 72
    13
 73
     9
 74
     0
 42
0.00000001
 43
0.00000001
 40
0.0
 40
0.0
 40
0.0
 40
0.0
 40
0.2903053741615387
 40
0.4463317245513837
 40
0.6056387157829551
 40
0.7650237858794342
 40
0.9212750844213068
 40
1.0
 40
1.0
 40
1.0
 40
1.0
 10
236.5975926678945
 20
248.0703063390746
 30
0.0
 10
236.7216623966023
 20
248.0822082099321
 30
0.0
 10
236.9124141391036
 20
248.1005068120871
 30
0.0
 10
237.143211691177
 20
248.2196648379795
 30
0.0
 10
237.3039502337034
 20
248.3433491529443
 30
0.0
 10
237.4315592650964
 20
248.4991176985771
 30
0.0
 10
237.5240862741846
 20
248.6432396846541
 30
0.0
 10
237.5413810982698
 20
248.741946906539
 30
0.0
 10
237.5471754446089
 20
248.7750171376642
 30
0.0
  0
ARC
  5
144
330
1F
100
AcDbEntity
  8
0
  6
Continuous
 62
     7
370
    25
100
AcDbCircle
 10
201.2122076528
 20
269.4637021093
 30
0.0
 40
19.99999999995539
100
AcDbArc
 50
276.5280582991
 51
282.6601057258
  0
ARC
  5
145
330
1F
100
AcDbEntity
  8
0
  6
Continuous
 62
     7
370
    25
100
AcDbCircle
 10
201.2122076528
 20
262.6768395878
 30
0.0
 40
19.99999999995537
100
AcDbArc
 50
77.2911410299
 51
83.4719417009
  0
LINE
  5
146
330
1F
100
AcDbEntity
  8
0
  6
Continuous
 62
     7
370
    25
100
AcDbLine
 10
203.0740982106
 20
249.5702708485
 30
0.0
 11
203.4369198473
 21
249.5892855248
 31
0.0
  0
LINE
  5
147
330
1F
100
AcDbEntity
  8
0
  6
Continuous
 62
     7
370
    25
100
AcDbLine
 10
203.4369198473
 20
282.5512561723
 30
0.0
 11
203.0740982106
 21
282.5702708485
 31
0.0
  0
ARC
  5
148
330
1F
100
AcDbEntity
  8
0
  6
Continuous
 62
     7
370
    25
100
AcDbCircle
 10
203.3950510823
 20
281.7523525445
 30
0.0
 40
0.8000000000004855
100
AcDbArc
 50
83.4719417009
 51
87.0
  0
ARC
  5
149
330
1F
100
AcDbEntity
  8
0
  6
Continuous
 62
     7
370
    25
100
AcDbCircle
 10
203.3950510823
 20
250.3881891526
 30
0.0
 40
0.8000000000054956
100
AcDbArc
 50
273.0
 51
276.528058299
  0
LINE
  5
14A
330
1F
100
AcDbEntity
  8
0
  6
Continuous
 62
     7
370
    25
100
AcDbLine
 10
180.8135490755
 20
248.0716242138
 30
0.0
 11
186.5292315685
 21
248.0699920744
 31
0.0
  0
LINE
  5
14B
330
1F
100
AcDbEntity
  8
0
  6
Continuous
 62
     7
370
    25
100
AcDbLine
 10
180.8135491327
 20
248.0715890049
 30
0.0
 11
184.646735671
 21
248.0705296298
 31
0.0
  0
LINE
  5
14C
330
1F
100
AcDbEntity
  8
0
  6
Continuous
 62
     7
370
    25
100
AcDbLine
 10
186.5635272071
 20
248.0699911948
 30
0.0
 11
198.2015134976
 21
248.069708118
 31
0.0
  0
LINE
  5
14D
330
1F
100
AcDbEntity
  8
0
  6
Continuous
 62
     7
370
    25
100
AcDbLine
 10
198.0635126796
 20
248.0702708485
 30
0.0
 11
202.5740982106
 21
248.0702708485
 31
0.0
  0
LINE
  5
14E
330
1F
100
AcDbEntity
  8
0
  6
Continuous
 62
     7
370
    25
100
AcDbLine
 10
198.2015188288
 20
284.0708335792
 30
0.0
 11
186.5635283954
 21
284.0705505023
 31
0.0
  0
LINE
  5
14F
330
1F
100
AcDbEntity
  8
0
  6
Continuous
 62
     7
370
    25
100
AcDbLine
 10
186.5978360265
 20
284.0705512907
 30
0.0
 11
180.8135497248
 21
284.0689526943
 31
0.0
  0
LINE
  5
150
330
1F
100
AcDbEntity
  8
0
  6
Continuous
 62
     7
370
    25
100
AcDbLine
 10
202.5740982106
 20
284.0702708485
 30
0.0
 11
198.0635189384
 21
284.0702708485
 31
0.0
  0
ARC
  5
151
330
1F
100
AcDbEntity
  8
0
  6
Continuous
 62
     7
370
    25
100
AcDbCircle
 10
202.5740982106
 20
248.5702708485
 30
0.0
 40
0.5
100
AcDbArc
 50
270.0000000011
 51
360.0
  0
ARC
  5
152
330
1F
100
AcDbEntity
  8
0
  6
Continuous
 62
     7
370
    25
100
AcDbCircle
 10
202.5740982106
 20
283.5702708485
 30
0.0
 40
0.5
100
AcDbArc
 50
0.0
 51
90.0000000011
  0
SPLINE
  5
153
330
1F
100
AcDbEntity
  8
0
  6
Continuous
 62
     7
370
    25
100
AcDbSpline
210
0.0
220
0.0
230
1.0
 70
     8
 71
     3
 72
     9
 73
     5
 74
     0
 42
0.00000001
 43
0.00000001
 40
0.0
 40
0.0
 40
0.0
 40
0.0
 40
0.4244612518149647
 40
1.0
 40
1.0
 40
1.0
 40
1.0
 10
179.8265098010486
 20
284.0699823443131
 30
0.0
 10
179.1519497406032
 20
284.0703302227388
 30
0.0
 10
177.5627350418267
 20
284.0711497991412
 30
0.0
 10
175.9764943861578
 20
284.071170055276
 30
0.0
 10
175.0635514248739
 20
284.0711817134663
 30
0.0
  0
ARC
  5
154
330
1F
100
AcDbEntity
  8
0
  6
Continuous
 62
     7
370
    25
100
AcDbCircle
 10
169.0688254967
 20
266.0702708485
 30
0.0
 40
11.0
100
AcDbArc
 50
90.0
 51
180.0
  0
ARC
  5
155
330
1F
100
AcDbEntity
  8
0
  6
Continuous
 62
     7
370
    25
100
AcDbCircle
 10
169.0688254967
 20
266.0702708485
 30
0.0
 40
11.0
100
AcDbArc
 50
0.0
 51
90.0
  0
ARC
  5
156
330
1F
100
AcDbEntity
  8
0
  6
Continuous
 62
     7
370
    25
100
AcDbCircle
 10
169.2662746481
 20
96.3249291063
 30
0.0
 40
10.80400103098697
100
AcDbArc
 50
268.9528293402
 51
359.061225051
  0
ARC
  5
157
330
1F
100
AcDbEntity
  8
0
  6
Continuous
 62
     7
370
    25
100
AcDbCircle
 10
168.886940948
 20
96.3410427688
 30
0.0
 40
10.81983916929912
100
AcDbArc
 50
181.0227420239
 51
270.9632035849
  0
SPLINE
  5
158
330
1F
100
AcDbEntity
  8
0
  6
Continuous
 62
     7
370
    25
100
AcDbSpline
210
0.0
220
0.0
230
1.0
 70
     8
 71
     3
 72
    21
 73
    17
 74
     0
 42
0.00000001
 43
0.00000001
 40
0.0
 40
0.0
 40
0.0
 40
0.0
 40
0.0379325822848522
 40
0.0821462375124982
 40
0.1233755776817133
 40
0.1586378557736929
 40
0.2435265170784904
 40
0.2940767680839615
 40
0.3665173279046601
 40
0.4370384404077432
 40
0.5043650361638812
 40
0.5402715150378945
 40
0.6124027325724766
 40
0.7151482885213708
 40
0.8455318048111755
 40
1.0
 40
1.0
 40
1.0
 40
1.0
 10
232.8943273320616
 20
282.0499064056099
 30
0.0
 10
232.895323720862
 20
282.0481375367389
 30
0.0
 10
232.8974814856678
 20
282.0443069005507
 30
0.0
 10
232.9017680630656
 20
282.0351058711963
 30
0.0
 10
232.9059958724286
 20
282.0097661520719
 30
0.0
 10
232.9107841508793
 20
281.9441646704204
 30
0.0
 10
232.915374426471
 20
281.814213734508
 30
0.0
 10
232.9211942456284
 20
281.5482187982362
 30
0.0
 10
232.926709852348
 20
281.1909947945274
 30
0.0
 10
232.9322870366934
 20
280.6275221215801
 30
0.0
 10
232.9364849206293
 20
279.990999386703
 30
0.0
 10
232.9398915903181
 20
279.22819544143
 30
0.0
 10
232.9431041583946
 20
278.185715390886
 30
0.0
 10
232.946048537199
 20
276.5217654187557
 30
0.0
 10
232.9476939223951
 20
274.3171100083665
 30
0.0
 10
232.9476993304531
 20
272.6870241075452
 30
0.0
 10
232.9477022631122
 20
271.8030679403325
 30
0.0
  0
SPLINE
  5
159
330
1F
100
AcDbEntity
  8
0
  6
Continuous
 62
     7
370
    25
100
AcDbSpline
210
0.0
220
0.0
230
1.0
 70
     8
 71
     3
 72
    22
 73
    18
 74
     0
 42
0.00000001
 43
0.00000001
 40
0.0
 40
0.0
 40
0.0
 40
0.0
 40
0.0842621721557377
 40
0.157772630410019
 40
0.2196670150734696
 40
0.2769991197859124
 40
0.3543224217888064
 40
0.4251699069442556
 40
0.4916285602776788
 40
0.5575670895181112
 40
0.6273930392097644
 40
0.7033077582513785
 40
0.7633985017153919
 40
0.8284366484197248
 40
0.9073750651069746
 40
0.9468984815541888
 40
1.0
 40
1.0
 40
1.0
 40
1.0
 10
237.6139031248166
 20
282.8339533105854
 30
0.0
 10
237.6140006308863
 20
282.8308147210109
 30
0.0
 10
237.6141832014125
 20
282.8249380207042
 30
0.0
 10
237.616528213422
 20
282.7493158409272
 30
0.0
 10
237.6211532171325
 20
282.5991362978224
 30
0.0
 10
237.6286689260985
 20
282.3523412303956
 30
0.0
 10
237.6404010024129
 20
281.9604513930984
 30
0.0
 10
237.6578289329754
 20
281.3588474742587
 30
0.0
 10
237.6790773146376
 20
280.5920162191894
 30
0.0
 10
237.7039372989464
 20
279.6405063532599
 30
0.0
 10
237.7314417746089
 20
278.503763132291
 30
0.0
 10
237.757509800542
 20
277.3141607125668
 30
0.0
 10
237.7810993639683
 20
276.1142887992382
 30
0.0
 10
237.8028512102094
 20
274.8765682458374
 30
0.0
 10
237.8197818186223
 20
273.7548968022854
 30
0.0
 10
237.8336243172141
 20
272.7053532992977
 30
0.0
 10
237.8399409878284
 20
272.138612315361
 30
0.0
 10
237.843562310764
 20
271.8137018919716
 30
0.0
  0
SPLINE
  5
15A
330
1F
100
AcDbEntity
  8
0
  6
Continuous
 62
     7
370
    25
100
AcDbSpline
210
0.0
220
0.0
230
1.0
 70
     8
 71
     3
 72
    26
 73
    22
 74
     0
 42
0.00000001
 43
0.00000001
 40
0.0
 40
0.0
 40
0.0
 40
0.0
 40
0.1249999999999972
 40
0.1249999999999972
 40
0.2499999999999944
 40
0.2499999999999944
 40
0.3749999999999917
 40
0.3749999999999917
 40
0.4374999999999925
 40
0.4374999999999925
 40
0.4999999999999933
 40
0.4999999999999933
 40
0.5624999999999941
 40
0.5624999999999941
 40
0.624999999999995
 40
0.624999999999995
 40
0.7499999999999967
 40
0.7499999999999967
 40
0.8749999999999983
 40
0.8749999999999983
 40
1.0
 40
1.0
 40
1.0
 40
1.0
 10
232.8943732774622
 20
250.090645487669
 30
0.0
 10
232.8981184519108
 20
250.0943572291806
 30
0.0
 10
232.9018676862439
 20
250.0998931691273
 30
0.0
 10
232.9093491163566
 20
250.1844603400045
 30
0.0
 10
232.9130806973646
 20
250.2623707722068
 30
0.0
 10
232.9204155777347
 20
250.5435624037332
 30
0.0
 10
232.9240311628211
 20
250.7467066700027
 30
0.0
 10
232.9291573589353
 20
251.1926129636707
 30
0.0
 10
232.93081218468
 20
251.364955457147
 30
0.0
 10
232.9339244858627
 20
251.7635669321003
 30
0.0
 10
232.93537975658
 20
251.990092390647
 30
0.0
 10
232.938013771228
 20
252.4959310801429
 30
0.0
 10
232.9391920292857
 20
252.7751544820708
 30
0.0
 10
232.9412617221968
 20
253.3718162016032
 30
0.0
 10
232.9421543898211
 20
253.6888184251312
 30
0.0
 10
232.9444577592852
 20
254.6700868430768
 30
0.0
 10
232.9454990452482
 20
255.3613069027737
 30
0.0
 10
232.946941535988
 20
256.7640130733818
 30
0.0
 10
232.9473369679785
 20
257.4777319027224
 30
0.0
 10
232.9477263603
 20
258.9067545684861
 30
0.0
 10
232.9477359365278
 20
259.6222038124867
 30
0.0
 10
232.9477359601611
 20
260.3374737567685
 30
0.0
  0
SPLINE
  5
15B
330
1F
100
AcDbEntity
  8
0
  6
Continuous
 62
     7
370
    25
100
AcDbSpline
210
0.0
220
0.0
230
1.0
 70
     8
 71
     3
 72
    18
 73
    14
 74
     0
 42
0.00000001
 43
0.00000001
 40
0.0
 40
0.0
 40
0.0
 40
0.0
 40
0.0951133524589167
 40
0.1781574188588628
 40
0.2481366807916869
 40
0.3129402712384448
 40
0.4411674060007214
 40
0.555345080614578
 40
0.6683325635652232
 40
0.7939465512387911
 40
0.8619207431858693
 40
0.935503384213329
 40
1.0
 40
1.0
 40
1.0
 40
1.0
 10
237.843562310764
 20
260.3268398051197
 30
0.0
 10
237.8376616092476
 20
259.8115511622875
 30
0.0
 10
237.8266089681154
 20
258.8463607636637
 30
0.0
 10
237.806593281339
 20
257.503069044231
 30
0.0
 10
237.786649185466
 20
256.33059191121
 30
0.0
 10
237.7600279412943
 20
254.9335802825264
 30
0.0
 10
237.7252782420138
 20
253.3494404806165
 30
0.0
 10
237.6843127463881
 20
251.7313254204815
 30
0.0
 10
237.6513992446624
 20
250.5514816518284
 30
0.0
 10
237.6328585861726
 20
249.9269637604949
 30
0.0
 10
237.6227595033284
 20
249.5937784768078
 30
0.0
 10
237.6175607157924
 20
249.4246785348073
 30
0.0
 10
237.6162658097301
 20
249.3828831082469
 30
0.0
 10
237.6156609610316
 20
249.3633605265738
 30
0.0
  0
SPLINE
  5
15C
330
1F
100
AcDbEntity
  8
0
  6
Continuous
 62
     7
370
    25
100
AcDbSpline
210
0.0
220
0.0
230
1.0
 70
     8
 71
     3
 72
    10
 73
     6
 74
     0
 42
0.00000001
 43
0.00000001
 40
0.0
 40
0.0
 40
0.0
 40
0.0
 40
0.2682609335333586
 40
0.601582913610364
 40
1.0
 40
1.0
 40
1.0
 40
1.0
 10
237.6147792111593
 20
249.3348273602081
 30
0.0
 10
237.6146316631797
 20
249.3300688673065
 30
0.0
 10
237.6143007825618
 20
249.3193978091452
 30
0.0
 10
237.6140416822938
 20
249.3110514066227
 30
0.0
 10
237.6139519708688
 20
249.308161747379
 30
0.0
 10
237.6139031248167
 20
249.3065883865059
 30
0.0
  0
LINE
  5
15D
330
1F
100
AcDbEntity
  8
0
  6
Continuous
 62
     7
370
    25
100
AcDbLine
 10
232.9477404303
 20
260.3374737568
 30
0.0
 11
232.9477554561
 21
266.0702708485
 31
0.0
  0
LINE
  5
15E
330
1F
100
AcDbEntity
  8
0
  6
Continuous
 62
     7
370
    25
100
AcDbLine
 10
232.9477554561
 20
266.0702708485
 30
0.0
 11
232.9477404303
 21
271.8030679403
 31
0.0
  0
ARC
  5
15F
330
1F
100
AcDbEntity
  8
0
  6
Continuous
 62
     7
370
    25
100
AcDbCircle
 10
-302.2759017895
 20
266.0702708485
 30
0.0
 40
540.1500000001
100
AcDbArc
 50
359.3907607887
 51
0.6092392113
  0
SPLINE
  5
160
330
1F
100
AcDbEntity
  8
0
  6
Continuous
 62
     7
370
    25
100
AcDbSpline
210
0.0
220
0.0
230
1.0
 70
     8
 71
     3
 72
    10
 73
     6
 74
     0
 42
0.00000001
 43
0.00000001
 40
0.0
 40
0.0
 40
0.0
 40
0.0
 40
0.5480832343511005
 40
0.7926729106082429
 40
1.0
 40
1.0
 40
1.0
 40
1.0
 10
232.543000222444
 20
266.4602496396823
 30
0.0
 10
232.543154198186
 20
266.3791988834312
 30
0.0
 10
232.5433768877192
 20
266.261978113231
 30
0.0
 10
232.5439043887836
 20
266.1320334027255
 30
0.0
 10
232.5442228794967
 20
266.0896946937485
 30
0.0
 10
232.5443689943514
 20
266.0702708485451
 30
0.0
  0
SPLINE
  5
161
330
1F
100
AcDbEntity
  8
0
  6
Continuous
 62
     7
370
    25
100
AcDbSpline
210
0.0
220
0.0
230
1.0
 70
     8
 71
     3
 72
     9
 73
     5
 74
     0
 42
0.00000001
 43
0.00000001
 40
0.0
 40
0.0
 40
0.0
 40
0.0
 40
0.7913745955474554
 40
1.0
 40
1.0
 40
1.0
 40
1.0
 10
232.5430188428772
 20
265.6800657935957
 30
0.0
 10
232.5432400093301
 20
265.8020067782323
 30
0.0
 10
232.5435194805869
 20
265.9560943434926
 30
0.0
 10
232.544222356566
 20
266.0505624099696
 30
0.0
 10
232.5443689943514
 20
266.0702708485463
 30
0.0
  0
LINE
  5
162
330
1F
100
AcDbEntity
  8
0
  6
Continuous
 62
     7
370
    25
100
AcDbLine
 10
232.4746679427
 20
278.3324708293
 30
0.0
 11
232.4768617366
 21
278.4047575391
 31
0.0
  0
LWPOLYLINE
  5
163
330
1F
100
AcDbEntity
  8
0
  6
Continuous
 62
     7
370
    25
100
AcDbPolyline
 90
       11
 70
   128
 43
0.0
 10
232.3626695304
 20
266.0702707919
 10
232.373701181
 20
266.0702707585
 10
232.3815139683
 20
266.0699616991
 10
232.3836986382
 20
266.0701006639
 10
232.3843565005
 20
266.0702208956
 10
232.4070941091
 20
266.0702708485
 10
232.4072017559
 20
266.0702708485
 10
232.4080284546
 20
266.0702708485
 10
232.4103080214
 20
266.0702708485
 10
232.4189262219
 20
266.0702708485
 10
232.4393195618
 20
266.0702708485
  0
LWPOLYLINE
  5
164
330
1F
100
AcDbEntity
  8
0
  6
Continuous
 62
     7
370
    25
100
AcDbPolyline
 90
       17
 70
   128
 43
0.0
 10
232.4489117761
 20
276.4127790226
 10
232.3740588014
 20
270.6148446002
 10
232.3633078973
 20
267.1877707677
 10
232.3627124768
 20
266.264483463
 10
232.36271572
 20
266.0733323281
 10
232.3626695304
 20
266.0702707919
 10
232.3627140945
 20
266.0549217244
 10
232.3627113313
 20
266.050136846
 10
232.3627093592
 20
266.0488486509
 10
232.3627082137
 20
266.0484804293
 10
232.3627069576
 20
266.0482960389
 10
232.3627055879
 20
266.048295408
 10
232.3627048594
 20
266.0483639783
 10
232.3627041013
 20
266.0484784589
 10
232.3627007663
 20
266.0493952673
 10
232.3626925709
 20
266.053429019
 10
232.3626695304
 20
266.0702707919
  0
LINE
  5
165
330
1F
100
AcDbEntity
  8
0
  6
Continuous
 62
     7
370
    25
100
AcDbLine
 10
232.4482066667
 20
255.7277591285
 30
0.0
 11
232.4368176469
 21
256.5757169989
 31
0.0
  0
LINE
  5
166
330
1F
100
AcDbEntity
  8
0
  6
Continuous
 62
     7
370
    25
100
AcDbLine
 10
232.4746679427
 20
253.8080708678
 30
0.0
 11
232.4768617306
 21
253.7357843558
 31
0.0
  0
LINE
  5
167
330
1F
100
AcDbEntity
  8
0
  6
Continuous
 62
     7
370
    25
100
AcDbLine
 10
232.6029117791
 20
250.9472547474
 30
0.0
 11
232.6350792719
 21
250.5509842468
 31
0.0
  0
LINE
  5
168
330
1F
100
AcDbEntity
  8
0
  6
Continuous
 62
     7
370
    25
100
AcDbLine
 10
232.6350902434
 20
281.5896910537
 30
0.0
 11
232.6029157003
 21
281.193335586
 31
0.0
  0
LINE
  5
169
330
1F
100
AcDbEntity
  8
0
  6
Continuous
 62
     7
370
    25
100
AcDbLine
 10
237.6070067356
 20
283.0546042938
 30
0.0
 11
237.6139031248
 21
282.8339533106
 31
0.0
  0
LINE
  5
16A
330
1F
100
AcDbEntity
  8
0
  6
Continuous
 62
     7
370
    25
100
AcDbLine
 10
237.6139031248
 20
249.3065883865
 30
0.0
 11
237.6070067358
 21
249.0859374109
 31
0.0
  0
LINE
  5
16B
330
1F
100
AcDbEntity
  8
0
  6
Continuous
 62
     7
370
    25
100
AcDbLine
 10
179.9053073511
 20
284.0691609044
 30
0.0
 11
198.0635179657
 21
284.064998224
 31
0.0
  0
SPLINE
  5
16C
330
1F
100
AcDbEntity
  8
0
  6
Continuous
 62
     7
370
    25
100
AcDbSpline
210
0.0
220
0.0
230
1.0
 70
     8
 71
     3
 72
    16
 73
    12
 74
     0
 42
0.00000001
 43
0.00000001
 40
0.0
 40
0.0
 40
0.0
 40
0.0
 40
0.1249999999999993
 40
0.1249999999999993
 40
0.2499999999999985
 40
0.2499999999999985
 40
0.499999999999999
 40
0.499999999999999
 40
0.7499999999999994
 40
0.7499999999999994
 40
1.0
 40
1.0
 40
1.0
 40
1.0
 10
175.0640569134036
 20
284.0708137656384
 30
0.0
 10
175.0645795604013
 20
284.0713347731076
 30
0.0
 10
175.0636645550485
 20
284.0704171860184
 30
0.0
 10
175.0633433097847
 20
284.0700917660934
 30
0.0
 10
175.0634501562334
 20
284.070196700507
 30
0.0
 10
175.0633321892601
 20
284.0700727100404
 30
0.0
 10
175.0629768702236
 20
284.0697131940123
 30
0.0
 10
175.0637768217438
 20
284.0705057415599
 30
0.0
 10
175.0643722477578
 20
284.0710975936838
 30
0.0
 10
175.0633006007357
 20
284.0700173160787
 30
0.0
 10
175.0645521391535
 20
284.0712657106092
 30
0.0
 10
175.0640397705703
 20
284.0707490421091
 30
0.0
  0
SPLINE
  5
16D
330
1F
100
AcDbEntity
  8
0
  6
Continuous
 62
     7
370
    25
100
AcDbSpline
210
0.0
220
0.0
230
1.0
 70
     8
 71
     3
 72
    12
 73
     8
 74
     0
 42
0.00000001
 43
0.00000001
 40
0.0
 40
0.0
 40
0.0
 40
0.0
 40
0.276507520124195
 40
0.4502019130166809
 40
0.5659045108491282
 40
0.8594519106631162
 40
1.0
 40
1.0
 40
1.0
 40
1.0
 10
182.1684194096547
 20
248.0713369971677
 30
0.0
 10
183.6334572045861
 20
248.071335856752
 30
0.0
 10
186.0187913091471
 20
248.0713339999586
 30
0.0
 10
189.0171586821734
 20
248.0743029435077
 30
0.0
 10
192.1058107310779
 20
248.0748583619008
 30
0.0
 10
195.0188415649299
 20
248.0747700138597
 30
0.0
 10
197.3188376884277
 20
248.0754070684288
 30
0.0
 10
198.0635126936257
 20
248.0756133290437
 30
0.0
  0
LINE
  5
16E
330
1F
100
AcDbEntity
  8
0
  6
Continuous
 62
     7
370
    25
100
AcDbLine
 10
175.0635711879
 20
284.0702708485
 30
0.0
 11
163.0740798054
 21
284.0702708485
 31
0.0
  0
SPLINE
  5
16F
330
1F
100
AcDbEntity
  8
0
  6
Continuous
 62
     7
370
    25
100
AcDbSpline
210
0.0
220
0.0
230
1.0
 70
     8
 71
     3
 72
    22
 73
    18
 74
     0
 42
0.00000001
 43
0.00000001
 40
0.0
 40
0.0
 40
0.0
 40
0.0
 40
0.125
 40
0.125
 40
0.25
 40
0.25
 40
0.375
 40
0.375
 40
0.5
 40
0.5
 40
0.625
 40
0.625
 40
0.75
 40
0.75
 40
0.875
 40
0.875
 40
1.0
 40
1.0
 40
1.0
 40
1.0
 10
187.0635527827574
 20
272.0912880674728
 30
0.0
 10
187.0621446553997
 20
272.9022217920347
 30
0.0
 10
187.0580088350247
 20
273.7202095523454
 30
0.0
 10
186.9520276636844
 20
275.3632546867476
 30
0.0
 10
186.8509936009016
 20
276.1863753162394
 30
0.0
 10
186.4930249038336
 20
277.810239204512
 30
0.0
 10
186.236287474056
 20
278.6110945159689
 30
0.0
 10
185.5023594288892
 20
280.1265520280759
 30
0.0
 10
185.0191361027511
 20
280.8385572918637
 30
0.0
 10
183.8141786477239
 20
282.0411143943242
 30
0.0
 10
183.1014906602007
 20
282.5231092015491
 30
0.0
 10
181.5846714777699
 20
283.2546291520364
 30
0.0
 10
180.783561534674
 20
283.5099067586825
 30
0.0
 10
179.1589346048467
 20
283.865259334837
 30
0.0
 10
178.3356697064538
 20
283.9649722624895
 30
0.0
 10
176.6925274947328
 20
284.0677687552994
 30
0.0
 10
175.8744290775838
 20
284.0702757325264
 30
0.0
 10
175.0635711879191
 20
284.070270848544
 30
0.0
  0
ARC
  5
170
330
1F
100
AcDbEntity
  8
0
  6
Continuous
 62
     7
370
    25
100
AcDbCircle
 10
-3250.6936533023
 20
266.0702708485
 30
0.0
 40
3437.762478799
100
AcDbArc
 50
359.8996501202
 51
0.1003498798
  0
SPLINE
  5
171
330
1F
100
AcDbEntity
  8
0
  6
Continuous
 62
     7
370
    25
100
AcDbSpline
210
0.0
220
0.0
230
1.0
 70
     8
 71
     3
 72
    14
 73
    10
 74
     0
 42
0.00000001
 43
0.00000001
 40
0.0
 40
0.0
 40
0.0
 40
0.0
 40
0.0047282008010661
 40
0.1722119882505735
 40
0.3311503821366538
 40
0.4900337512415841
 40
0.6574117426301499
 40
0.8295316416928813
 40
1.0
 40
1.0
 40
1.0
 40
1.0
 10
180.068825496679
 20
248.4807890021061
 30
0.0
 10
180.0920797087927
 20
248.4840421992095
 30
0.0
 10
180.9390517964403
 20
248.6025311477352
 30
0.0
 10
182.4960375181854
 20
249.2294770719849
 30
0.0
 10
184.5178977083928
 20
250.5924540663315
 30
0.0
 10
185.9202042868066
 20
252.6152119396986
 30
0.0
 10
186.7194288153014
 20
254.978410615295
 30
0.0
 10
187.0528561727072
 20
257.500523028975
 30
0.0
 10
187.0599987236156
 20
259.2024115697331
 30
0.0
 10
187.0635527827559
 20
260.0492536296217
 30
0.0
  0
SPLINE
  5
172
330
1F
100
AcDbEntity
  8
0
  6
Continuous
 62
     7
370
    25
100
AcDbSpline
210
0.0
220
0.0
230
1.0
 70
     8
 71
     3
 72
    15
 73
    11
 74
     0
 42
0.00000001
 43
0.00000001
 40
0.0
 40
0.0
 40
0.0
 40
0.0
 40
0.1249999999999999
 40
0.25
 40
0.375
 40
0.5
 40
0.625
 40
0.75
 40
0.8750000000000001
 40
1.0
 40
1.0
 40
1.0
 40
1.0
 10
151.0740982105952
 20
272.0912880674725
 30
0.0
 10
151.0755712887419
 20
272.9323560834409
 30
0.0
 10
151.0841814867891
 20
274.6237787271992
 30
0.0
 10
151.4227155947689
 20
277.1978824353364
 30
0.0
 10
152.2501896325388
 20
279.5914340106664
 30
0.0
 10
153.6257663503687
 20
281.5349093766064
 30
0.0
 10
155.5724087280886
 20
282.9077433204165
 30
0.0
 10
157.9693622361584
 20
283.7315237126666
 30
0.0
 10
160.5446880786841
 20
284.0651817288867
 30
0.0
 10
162.2343227637226
 20
284.0702708485491
 30
0.0
 10
163.074079805438
 20
284.0702708485485
 30
0.0
  0
ARC
  5
173
330
1F
100
AcDbEntity
  8
0
  6
Continuous
 62
     7
370
    25
100
AcDbCircle
 10
3588.8313042957
 20
266.0702708485
 30
0.0
 40
3437.762478799
100
AcDbArc
 50
179.8996501202
 51
180.1003498798
  0
SPLINE
  5
174
330
1F
100
AcDbEntity
  8
0
  6
Continuous
 62
     7
370
    25
100
AcDbSpline
210
0.0
220
0.0
230
1.0
 70
     8
 71
     3
 72
    14
 73
    10
 74
     0
 42
0.00000001
 43
0.00000001
 40
0.0
 40
0.0
 40
0.0
 40
0.0
 40
0.0047282008010441
 40
0.1722119882505109
 40
0.3311503821365607
 40
0.4900337512414793
 40
0.657411742630043
 40
0.8295316416927947
 40
1.0
 40
1.0
 40
1.0
 40
1.0
 10
158.068825496679
 20
248.4807890021061
 30
0.0
 10
158.0455712845655
 20
248.4840421992095
 30
0.0
 10
157.1985991969183
 20
248.6025311477352
 30
0.0
 10
155.6416134751738
 20
249.2294770719844
 30
0.0
 10
153.6197532849667
 20
250.5924540663301
 30
0.0
 10
152.2174467065526
 20
252.6152119396963
 30
0.0
 10
151.4182221780571
 20
254.9784106152923
 30
0.0
 10
151.0847948206517
 20
257.5005230289725
 30
0.0
 10
151.0776522697411
 20
259.2024115697308
 30
0.0
 10
151.0740982105996
 20
260.0492536296197
 30
0.0
  0
SPLINE
  5
175
330
1F
100
AcDbEntity
  8
0
  6
Continuous
 62
     7
370
    25
100
AcDbSpline
210
0.0
220
0.0
230
1.0
 70
    24
 71
     3
 72
     8
 73
     4
 74
     0
 42
0.00000001
 43
0.00000001
 40
0.0
 40
0.0
 40
0.0
 40
0.0
 40
0.9999999999999999
 40
0.9999999999999999
 40
0.9999999999999999
 40
0.9999999999999999
 10
205.574098210599
 20
274.9607957324366
 30
0.0
 10
205.574098210599
 20
269.0448671631768
 30
0.0
 10
205.574098210599
 20
263.0956745339145
 30
0.0
 10
205.574098210599
 20
257.1797459646547
 30
0.0
  0
SPLINE
  5
176
330
1F
100
AcDbEntity
  8
0
  6
Continuous
 62
     7
370
    25
100
AcDbSpline
210
0.0
220
0.0
230
1.0
 70
     8
 71
     3
 72
    10
 73
     6
 74
     0
 42
0.00000001
 43
0.00000001
 40
0.0
 40
0.0
 40
0.0
 40
0.0
 40
0.1094277913245008
 40
0.5546489206774843
 40
0.9999999999999999
 40
0.9999999999999999
 40
0.9999999999999999
 40
0.9999999999999999
 10
206.7790613949977
 20
284.0700134683472
 30
0.0
 10
206.7270072958536
 20
284.0700952789447
 30
0.0
 10
206.4631643583546
 20
284.070509946545
 30
0.0
 10
206.2177675991556
 20
284.0689925597604
 30
0.0
 10
206.1279192679538
 20
284.066329739189
 30
0.0
 10
206.082988547136
 20
284.0649981346275
 30
0.0
  0
SPLINE
  5
177
330
1F
100
AcDbEntity
  8
0
  6
Continuous
 62
     7
370
    25
100
AcDbSpline
210
0.0
220
0.0
230
1.0
 70
     8
 71
     3
 72
     9
 73
     5
 74
     0
 42
0.00000001
 43
0.00000001
 40
0.0
 40
0.0
 40
0.0
 40
0.0
 40
0.552964432861315
 40
1.0
 40
1.0
 40
1.0
 40
1.0
 10
206.082988547136
 20
248.0755435624637
 30
0.0
 10
206.1326676356084
 20
248.0738330321787
 30
0.0
 10
206.2225090169344
 20
248.070739650067
 30
0.0
 10
206.6058939498381
 20
248.0705861518154
 30
0.0
 10
206.7772806507511
 20
248.0705175326375
 30
0.0
  0
LINE
  5
178
330
1F
100
AcDbEntity
  8
0
  6
Continuous
 62
     7
370
    25
100
AcDbLine
 10
203.0740982106
 20
272.0650165398
 30
0.0
 11
203.0740982106
 21
260.0755251573
 31
0.0
  0
ARC
  5
179
330
1F
100
AcDbEntity
  8
0
  6
Continuous
 62
     7
370
    25
100
AcDbCircle
 10
236.6061842052
 20
283.0649989595
 30
0.0
 40
0.999999175106741
100
AcDbArc
 50
1.8063809098
 51
90.0000485672
  0
LINE
  5
17A
330
1F
100
AcDbEntity
  8
0
  6
Continuous
 62
     7
370
    25
100
AcDbLine
 10
237.606016539
 20
283.0860409532
 30
0.0
 11
237.6070067356
 21
283.0546042938
 31
0.0
  0
LINE
  5
17B
330
1F
100
AcDbEntity
  8
0
  6
Continuous
 62
     7
370
    25
100
AcDbLine
 10
237.6070067358
 20
249.0859374109
 30
0.0
 11
237.606016511
 21
249.0544998552
 31
0.0
  0
SPLINE
  5
17C
330
1F
100
AcDbEntity
  8
0
  6
Continuous
 62
     7
370
    25
100
AcDbSpline
210
0.0
220
0.0
230
1.0
 70
    24
 71
     3
 72
    24
 73
    20
 74
     0
 42
0.00000001
 43
0.00000001
 40
0.0
 40
0.0
 40
0.0
 40
0.0
 40
0.0316546203574007
 40
0.0632475702350407
 40
0.1262439699068742
 40
0.2515843698284059
 40
0.3140304280741966
 40
0.3762584822280831
 40
0.4382147443668716
 40
0.4999532810281114
 40
0.5616929929743587
 40
0.6236496252219798
 40
0.6858772727784083
 40
0.7483229003888758
 40
0.798420211884793
 40
0.873755644153737
 40
0.9367538753531901
 40
0.9683463062511048
 40
1.0
 40
1.0
 40
1.0
 40
1.0
 10
203.074098210599
 20
260.0755251573056
 30
0.0
 10
203.074098210599
 20
259.8732526964545
 30
0.0
 10
203.074098210599
 20
259.4691018480205
 30
0.0
 10
203.074098210599
 20
258.6623782833103
 30
0.0
 10
203.074098210599
 20
257.2579411957876
 30
0.0
 10
203.074098210599
 20
255.6593851928074
 30
0.0
 10
203.074098210599
 20
254.114149561958
 30
0.0
 10
203.074098210599
 20
253.0026074730508
 30
0.0
 10
203.074098210599
 20
251.9680418944914
 30
0.0
 10
203.074098210599
 20
251.0493589019599
 30
0.0
 10
203.074098210599
 20
250.2888575294264
 30
0.0
 10
203.074098210599
 20
249.6932192287394
 30
0.0
 10
203.074098210599
 20
249.2503402279049
 30
0.0
 10
203.074098210599
 20
248.9573318072911
 30
0.0
 10
203.074098210599
 20
248.7439169144042
 30
0.0
 10
203.074098210599
 20
248.6239148952237
 30
0.0
 10
203.074098210599
 20
248.5860173840203
 30
0.0
 10
203.074098210599
 20
248.5768977725552
 30
0.0
 10
203.074098210599
 20
248.5759947461461
 30
0.0
 10
203.074098210599
 20
248.5755427955868
 30
0.0
  0
SPLINE
  5
17D
330
1F
100
AcDbEntity
  8
0
  6
Continuous
 62
     7
370
    25
100
AcDbSpline
210
0.0
220
0.0
230
1.0
 70
    24
 71
     3
 72
    24
 73
    20
 74
     0
 42
0.00000001
 43
0.00000001
 40
0.0
 40
0.0
 40
0.0
 40
0.0
 40
0.0316535988476854
 40
0.0632461292046402
 40
0.1262431471170469
 40
0.2515853251913786
 40
0.3140314143117437
 40
0.3762590060618006
 40
0.4382147478844142
 40
0.4999527709811265
 40
0.5616930170544917
 40
0.6236501955930353
 40
0.6858781889170122
 40
0.7483238019957886
 40
0.7984206079826008
 40
0.8737548473926995
 40
0.9367524760748254
 40
0.9683453037358536
 40
1.0
 40
1.0
 40
1.0
 40
1.0
 10
203.074098210599
 20
283.5649989015275
 30
0.0
 10
203.074098210599
 20
283.5645482794844
 30
0.0
 10
203.074098210599
 20
283.5636479047719
 30
0.0
 10
203.074098210599
 20
283.5545217394245
 30
0.0
 10
203.074098210599
 20
283.5054228563597
 30
0.0
 10
203.074098210599
 20
283.3090505201196
 30
0.0
 10
203.074098210599
 20
282.8902731750546
 30
0.0
 10
203.074098210599
 20
282.4473056201262
 30
0.0
 10
203.074098210599
 20
281.8517179545803
 30
0.0
 10
203.074098210599
 20
281.0912254975472
 30
0.0
 10
203.074098210599
 20
280.172546486621
 30
0.0
 10
203.074098210599
 20
279.1379713296051
 30
0.0
 10
203.074098210599
 20
278.0264459343187
 30
0.0
 10
203.074098210599
 20
276.9461743448642
 30
0.0
 10
203.074098210599
 20
275.7635144427944
 30
0.0
 10
203.074098210599
 20
274.5636613312663
 30
0.0
 10
203.074098210599
 20
273.4781287410798
 30
0.0
 10
203.074098210599
 20
272.6714477350541
 30
0.0
 10
203.074098210599
 20
272.2672920529708
 30
0.0
 10
203.074098210599
 20
272.0650165397838
 30
0.0
  0
ARC
  5
17E
330
1F
100
AcDbEntity
  8
0
  6
Continuous
 62
     7
370
    25
100
AcDbCircle
 10
206.0740863423
 20
248.5792853663
 30
0.0
 40
0.4999881317985199
100
AcDbArc
 50
180.0013601088
 51
270.0013600439
  0
SPLINE
  5
17F
330
1F
100
AcDbEntity
  8
0
  6
Continuous
 62
     7
370
    25
100
AcDbSpline
210
0.0
220
0.0
230
1.0
 70
    24
 71
     3
 72
    22
 73
    18
 74
     0
 42
0.00000001
 43
0.00000001
 40
0.0
 40
0.0
 40
0.0
 40
0.0
 40
0.1250000000000001
 40
0.1250000000000001
 40
0.2500000000000002
 40
0.2500000000000002
 40
0.3750000000000003
 40
0.3750000000000003
 40
0.5000000000000004
 40
0.5000000000000004
 40
0.6250000000000003
 40
0.6250000000000003
 40
0.7500000000000002
 40
0.7500000000000002
 40
0.8750000000000001
 40
0.8750000000000001
 40
1.0
 40
1.0
 40
1.0
 40
1.0
 10
205.574098210599
 20
257.1797459646589
 30
0.0
 10
205.574098210599
 20
256.532040928302
 30
0.0
 10
205.5740982105991
 20
255.8878283195446
 30
0.0
 10
205.574098210599
 20
254.6232943888438
 30
0.0
 10
205.574098210599
 20
254.0022206956857
 30
0.0
 10
205.574098210599
 20
252.8151624889345
 30
0.0
 10
205.574098210599
 20
252.2500540844551
 30
0.0
 10
205.574098210599
 20
251.2302717880235
 30
0.0
 10
205.5740982105991
 20
250.7796728390259
 30
0.0
 10
205.574098210599
 20
250.0260516161851
 30
0.0
 10
205.5740982105991
 20
249.7219239166916
 30
0.0
 10
205.574098210599
 20
249.2392896418269
 30
0.0
 10
205.5740982105991
 20
249.0588740017301
 30
0.0
 10
205.5740982105991
 20
248.7938312938495
 30
0.0
 10
205.5740982105991
 20
248.7084297959296
 30
0.0
 10
205.574098210599
 20
248.6037710571747
 30
0.0
 10
205.5740982105991
 20
248.585664925768
 30
0.0
 10
205.574098210599
 20
248.5792734973478
 30
0.0
  0
SPLINE
  5
180
330
1F
100
AcDbEntity
  8
0
  6
Continuous
 62
     7
370
    25
100
AcDbSpline
210
0.0
220
0.0
230
1.0
 70
    24
 71
     3
 72
    22
 73
    18
 74
     0
 42
0.00000001
 43
0.00000001
 40
0.0
 40
0.0
 40
0.0
 40
0.0
 40
0.125
 40
0.125
 40
0.25
 40
0.25
 40
0.375
 40
0.375
 40
0.5
 40
0.5
 40
0.625
 40
0.625
 40
0.75
 40
0.75
 40
0.875
 40
0.875
 40
1.0
 40
1.0
 40
1.0
 40
1.0
 10
205.574098210599
 20
283.5612681997389
 30
0.0
 10
205.574098210599
 20
283.5548715803931
 30
0.0
 10
205.574098210599
 20
283.5367029245469
 30
0.0
 10
205.574098210599
 20
283.4321448836312
 30
0.0
 10
205.574098210599
 20
283.3467193004946
 30
0.0
 10
205.574098210599
 20
283.0816117156539
 30
0.0
 10
205.574098210599
 20
282.9012263081674
 30
0.0
 10
205.574098210599
 20
282.4185923956143
 30
0.0
 10
205.574098210599
 20
282.114443246595
 30
0.0
 10
205.574098210599
 20
281.3608802641474
 30
0.0
 10
205.574098210599
 20
280.9102859015852
 30
0.0
 10
205.574098210599
 20
279.8904490313477
 30
0.0
 10
205.574098210599
 20
279.325382493379
 30
0.0
 10
205.574098210599
 20
278.1382738480392
 30
0.0
 10
205.574098210599
 20
277.5171990015473
 30
0.0
 10
205.574098210599
 20
276.2526818562735
 30
0.0
 10
205.574098210599
 20
275.6085016536659
 30
0.0
 10
205.574098210599
 20
274.9607957324293
 30
0.0
  0
ARC
  5
181
330
1F
100
AcDbEntity
  8
0
  6
Continuous
 62
     7
370
    25
100
AcDbCircle
 10
206.0740863423
 20
283.5612563308
 30
0.0
 40
0.4999881317981355
100
AcDbArc
 50
89.9986399561
 51
179.9986398911
  0
ARC
  5
182
330
1F
100
AcDbEntity
  8
0
  6
Continuous
 62
     7
370
    25
100
AcDbCircle
 10
206.0829703428
 20
248.5752974358
 30
0.0
 40
0.4997538736668521
100
AcDbArc
 50
246.3180559805
 51
270.0020870937
  0
ARC
  5
183
330
1F
100
AcDbEntity
  8
0
  6
Continuous
 62
     7
370
    25
100
AcDbCircle
 10
206.0829703432
 20
283.5652442585
 30
0.0
 40
0.4997538764805896
100
AcDbArc
 50
89.9979129555
 51
113.6851471901
  0
LINE
  5
184
330
1F
100
AcDbEntity
  8
0
  6
Continuous
 62
     7
370
    25
100
AcDbLine
 10
175.0635529276
 20
284.0702708485
 30
0.0
 11
175.0635378485
 21
284.0702708485
 31
0.0
  0
LINE
  5
185
330
1F
100
AcDbEntity
  8
0
  6
Continuous
 62
     7
370
    25
100
AcDbLine
 10
176.0688254967
 20
290.0702708485
 30
0.0
 11
162.0688254967
 21
290.0702708485
 31
0.0
  0
LINE
  5
186
330
1F
100
AcDbEntity
  8
0
  6
Continuous
 62
     7
370
    25
100
AcDbLine
 10
145.0688254967
 20
273.0702708485
 30
0.0
 11
145.0688254967
 21
259.0702708485
 31
0.0
  0
SPLINE
  5
187
330
1F
100
AcDbEntity
  8
0
  6
Continuous
 62
     7
370
    25
100
AcDbSpline
210
0.0
220
0.0
230
1.0
 70
     8
 71
     3
 72
    12
 73
     8
 74
     0
 42
0.00000001
 43
0.00000001
 40
0.0
 40
0.0
 40
0.0
 40
0.0
 40
0.1646248438412449
 40
0.3631278929967092
 40
0.5722862301007061
 40
0.7872764462501483
 40
1.0
 40
1.0
 40
1.0
 40
1.0
 10
190.9551019608486
 20
284.0706573207989
 30
0.0
 10
190.460386820017
 20
284.8660892854045
 30
0.0
 10
189.3691489331219
 20
286.620645442238
 30
0.0
 10
186.6025357566383
 20
288.4574380457519
 30
0.0
 10
183.2639301736415
 20
289.5979915069848
 30
0.0
 10
179.681303341195
 20
290.0613842651144
 30
0.0
 10
177.2687229675969
 20
290.0673191379922
 30
0.0
 10
176.068825496679
 20
290.0702708485483
 30
0.0
  0
SPLINE
  5
188
330
1F
100
AcDbEntity
  8
0
  6
Continuous
 62
     7
370
    25
100
AcDbSpline
210
0.0
220
0.0
230
1.0
 70
     8
 71
     3
 72
    11
 73
     7
 74
     0
 42
0.00000001
 43
0.00000001
 40
0.0
 40
0.0
 40
0.0
 40
0.0
 40
0.250228811195076
 40
0.5242540922709749
 40
0.7843195268713806
 40
1.0
 40
1.0
 40
1.0
 40
1.0
 10
180.068825496679
 20
242.2118358301124
 30
0.0
 10
181.1433927913929
 20
242.3240240062775
 30
0.0
 10
183.3947174849156
 20
242.5590693241132
 30
0.0
 10
186.6019767121242
 20
243.6903155366749
 30
0.0
 10
189.3692587352086
 20
245.5184797664115
 30
0.0
 10
190.4604210711861
 20
247.2740105585695
 30
0.0
 10
190.9551019608382
 20
248.06988437628
 30
0.0
  0
SPLINE
  5
189
330
1F
100
AcDbEntity
  8
0
  6
Continuous
 62
     7
370
    25
100
AcDbSpline
210
0.0
220
0.0
230
1.0
 70
     8
 71
     3
 72
    14
 73
    10
 74
     0
 42
0.00000001
 43
0.00000001
 40
0.0
 40
0.0
 40
0.0
 40
0.0
 40
0.1483395283835557
 40
0.2982596792484018
 40
0.4441130581365073
 40
0.5825361343561047
 40
0.720959210575714
 40
0.866812589463805
 40
1.0
 40
1.0
 40
1.0
 40
1.0
 10
145.0688254966793
 20
259.0702708485467
 30
0.0
 10
145.0715557456028
 20
257.8700148160643
 30
0.0
 10
145.077045335445
 20
255.456713498707
 30
0.0
 10
145.5437744533014
 20
251.8794884613795
 30
0.0
 10
146.67216154357
 20
248.5211846897442
 30
0.0
 10
148.6606636632128
 20
245.6603730761499
 30
0.0
 10
151.5197717200445
 20
243.6807693975126
 30
0.0
 10
154.7465872332082
 20
242.5612626164175
 30
0.0
 10
156.9954386892302
 20
242.324732640288
 30
0.0
 10
158.068825496679
 20
242.2118358301124
 30
0.0
  0
SPLINE
  5
18A
330
1F
100
AcDbEntity
  8
0
  6
Continuous
 62
     7
370
    25
100
AcDbSpline
210
0.0
220
0.0
230
1.0
 70
     8
 71
     3
 72
    21
 73
    17
 74
     0
 42
0.00000001
 43
0.00000001
 40
0.0
 40
0.0
 40
0.0
 40
0.0
 40
0.0033291836465485
 40
0.0066583672930985
 40
0.0083229591163785
 40
0.0091552550280185
 40
0.0099875509396585
 40
0.0116521427629285
 40
0.0124844386745685
 40
0.0133167345862085
 40
0.0149813264094785
 40
0.0166459182327555
 40
0.0183105100560315
 40
0.0199751018793065
 40
0.0233042855258575
 40
0.0266334691724085
 40
0.0266334691724085
 40
0.0266334691724085
 40
0.0266334691724085
 10
145.0688254966787
 20
273.0702708485467
 30
0.0
 10
145.0688254966778
 20
274.1871351855704
 30
0.0
 10
145.0740611541924
 20
276.4661777099952
 30
0.0
 10
145.4156469581936
 20
279.3756666372942
 30
0.0
 10
145.9389050329796
 20
281.3673424999512
 30
0.0
 10
146.3401246682905
 20
282.4915325879716
 30
0.0
 10
146.8225041748128
 20
283.6087828062823
 30
0.0
 10
147.4237238643088
 20
284.6702078572509
 30
0.0
 10
148.1666615691315
 20
285.6581129704543
 30
0.0
 10
149.0132105917931
 20
286.5876438072509
 30
0.0
 10
150.20320510972
 20
287.5659632014597
 30
0.0
 10
151.8186523473047
 20
288.4775393648944
 30
0.0
 10
153.4905953572802
 20
289.1268482498607
 30
0.0
 10
155.7976692350652
 20
289.7307363657123
 30
0.0
 10
158.6831111000346
 20
290.0638442299883
 30
0.0
 10
160.9552316993432
 20
290.0702708485488
 30
0.0
 10
162.068825496679
 20
290.0702708485452
 30
0.0
  0
SPLINE
  5
18B
330
1F
100
AcDbEntity
  8
0
  6
Continuous
 62
     8
370
    18
100
AcDbSpline
210
0.0
220
0.0
230
1.0
 70
     8
 71
     3
 72
    17
 73
    13
 74
     0
 42
0.00000001
 43
0.00000001
 40
0.0
 40
0.0
 40
0.0
 40
0.0
 40
0.1087348980643361
 40
0.2150469974566731
 40
0.3165768873907306
 40
0.4108562303406084
 40
0.498227036173756
 40
0.5884692152134057
 40
0.6846422415486995
 40
0.7869817841440967
 40
0.8928686752880463
 40
1.0
 40
1.0
 40
1.0
 40
1.0
 10
235.794299571109
 20
283.8029043673224
 30
0.0
 10
235.79795385195
 20
283.7980351634327
 30
0.0
 10
235.8051809900326
 20
283.788405249807
 30
0.0
 10
235.8141126378361
 20
283.5750754118624
 30
0.0
 10
235.821574879601
 20
283.0911819692171
 30
0.0
 10
235.8275877018485
 20
282.3099986470123
 30
0.0
 10
235.832118685918
 20
281.2013929444996
 30
0.0
 10
235.8354308860891
 20
279.7459723467778
 30
0.0
 10
235.8380275742146
 20
277.9845619303935
 30
0.0
 10
235.8398247971743
 20
276.0131582443128
 30
0.0
 10
235.8409649557779
 20
273.9264153666987
 30
0.0
 10
235.8411061438626
 20
272.5136022056278
 30
0.0
 10
235.841177150309
 20
271.8030688603556
 30
0.0
  0
SPLINE
  5
18C
330
1F
100
AcDbEntity
  8
0
  6
Continuous
 62
     8
370
    18
100
AcDbSpline
210
0.0
220
0.0
230
1.0
 70
     8
 71
     3
 72
    14
 73
    10
 74
     0
 42
0.00000001
 43
0.00000001
 40
0.0
 40
0.0
 40
0.0
 40
0.0
 40
0.25
 40
0.25
 40
0.5
 40
0.5
 40
0.75
 40
0.75
 40
1.0
 40
1.0
 40
1.0
 40
1.0
 10
235.794299571109
 20
283.8029043673253
 30
0.0
 10
235.4769622805914
 20
283.8028956899877
 30
0.0
 10
235.1542638969117
 20
283.7998444541669
 30
0.0
 10
234.512673810239
 20
283.7095808808745
 30
0.0
 10
234.1975392731096
 20
283.6232533763391
 30
0.0
 10
233.6528181868415
 20
283.3437758131373
 30
0.0
 10
233.4251454377432
 20
283.1501274586388
 30
0.0
 10
233.0823458420968
 20
282.660213840052
 30
0.0
 10
232.9649651933462
 20
282.3638027374918
 30
0.0
 10
232.8943273320616
 20
282.0499064056099
 30
0.0
  0
ARC
  5
18D
330
1F
100
AcDbEntity
  8
0
  6
Continuous
 62
     8
370
    18
100
AcDbCircle
 10
236.6143923984
 20
282.8029117315
 30
0.0
 40
0.9999926358646853
100
AcDbArc
 50
1.7788503292
 51
90.0004334271
  0
SPLINE
  5
18E
330
1F
100
AcDbEntity
  8
0
  6
Continuous
 62
     8
370
    18
100
AcDbSpline
210
0.0
220
0.0
230
1.0
 70
     8
 71
     3
 72
    16
 73
    12
 74
     0
 42
0.00000001
 43
0.00000001
 40
0.0
 40
0.0
 40
0.0
 40
0.0
 40
0.2500000000000006
 40
0.2500000000000006
 40
0.3749999999999975
 40
0.3749999999999975
 40
0.4999999999999944
 40
0.4999999999999944
 40
0.7499999999999972
 40
0.7499999999999972
 40
1.0
 40
1.0
 40
1.0
 40
1.0
 10
232.8943732533392
 20
250.0906455983717
 30
0.0
 10
232.963527497027
 20
249.7802392093421
 30
0.0
 10
233.0804758785276
 20
249.4859410248299
 30
0.0
 10
233.3382809849168
 20
249.1145016890086
 30
0.0
 10
233.4382387702027
 20
249.0026541922514
 30
0.0
 10
233.6659398339865
 20
248.8085055035216
 30
0.0
 10
233.7929911504783
 20
248.7255123495428
 30
0.0
 10
234.202279321522
 20
248.5161209478108
 30
0.0
 10
234.5119691375391
 20
248.4310657553393
 30
0.0
 10
235.1485908378658
 20
248.343651395252
 30
0.0
 10
235.4769381201739
 20
248.3376460189269
 30
0.0
 10
235.794298683279
 20
248.3376373297833
 30
0.0
  0
SPLINE
  5
18F
330
1F
100
AcDbEntity
  8
0
  6
Continuous
 62
     8
370
    18
100
AcDbSpline
210
0.0
220
0.0
230
1.0
 70
     8
 71
     3
 72
    22
 73
    18
 74
     0
 42
0.00000001
 43
0.00000001
 40
-0.0000000000000009
 40
-0.0000000000000009
 40
-0.0000000000000009
 40
-0.0000000000000009
 40
0.001904562408399
 40
0.003809124816819
 40
0.004761406021029
 40
0.005713687225236
 40
0.00618982782734
 40
0.006665968429444
 40
0.007142109031549
 40
0.007618249633653
 40
0.008094390235757
 40
0.008570530837861
 40
0.009522812042069
 40
0.010475093246278
 40
0.011427374450486
 40
0.013331936858902
 40
0.0152364992673199
 40
0.0152364992673199
 40
0.0152364992673199
 40
0.0152364992673199
 10
235.7942995710965
 20
248.3376373297656
 30
0.0
 10
235.7975942916563
 20
248.3409320503116
 30
0.0
 10
235.8041873103871
 20
248.3472174414181
 30
0.0
 10
235.8124178139409
 20
248.5153514268397
 30
0.0
 10
235.8189421065611
 20
248.8663712048174
 30
0.0
 10
235.8228596533231
 20
249.2076680494546
 30
0.0
 10
235.8258908264119
 20
249.5964695955513
 30
0.0
 10
235.82808727389
 20
249.9645102822388
 30
0.0
 10
235.8301224834977
 20
250.4163481680158
 30
0.0
 10
235.8319894554108
 20
250.9661567578247
 30
0.0
 10
235.8336718325926
 20
251.6030507890652
 30
0.0
 10
235.8355741202319
 20
252.4740214056387
 30
0.0
 10
235.8374484131416
 20
253.5701225679746
 30
0.0
 10
235.8390175561361
 20
254.8223840467407
 30
0.0
 10
235.840428488053
 20
256.4302327543637
 30
0.0
 10
235.8411743002595
 20
258.3365463218335
 30
0.0
 10
235.8411771503346
 20
259.7021715833188
 30
0.0
 10
235.8411771503091
 20
260.3374728367364
 30
0.0
  0
ARC
  5
190
330
1F
100
AcDbEntity
  8
0
  6
Continuous
 62
     8
370
    18
100
AcDbCircle
 10
236.6143905796
 20
249.3376345301
 30
0.0
 40
0.9999972003291988
100
AcDbArc
 50
269.9996707859
 51
336.5118379114
  0
LINE
  5
191
330
1F
100
AcDbEntity
  8
0
  6
Continuous
 62
     8
370
    18
100
AcDbLine
 10
236.6143848338
 20
283.8029043673
 30
0.0
 11
235.7942995711
 21
283.8029043673
 31
0.0
  0
LINE
  5
192
330
1F
100
AcDbEntity
  8
0
  6
Continuous
 62
     8
370
    18
100
AcDbLine
 10
235.8411771503
 20
260.3374728349
 30
0.0
 11
235.8411771503
 21
271.8030688604
 31
0.0
  0
LINE
  5
193
330
1F
100
AcDbEntity
  8
0
  6
Continuous
 62
     8
370
    18
100
AcDbLine
 10
236.6143848338
 20
248.3376373298
 30
0.0
 11
235.7942986833
 21
248.3376373298
 31
0.0
  0
SPLINE
  5
194
330
1F
100
AcDbEntity
  8
0
  6
Continuous
 62
     8
370
    18
100
AcDbSpline
210
0.0
220
0.0
230
1.0
 70
     8
 71
     3
 72
    20
 73
    16
 74
     0
 42
0.00000001
 43
0.00000001
 40
0.0
 40
0.0
 40
0.0
 40
0.0
 40
0.1250000000000004
 40
0.1250000000000004
 40
0.2500000000000009
 40
0.2500000000000009
 40
0.5000000000000004
 40
0.5000000000000004
 40
0.6250000000000002
 40
0.6250000000000002
 40
0.75
 40
0.75
 40
0.875
 40
0.875
 40
1.0
 40
1.0
 40
1.0
 40
1.0
 10
232.6357191463962
 20
277.0468892335157
 30
0.0
 10
232.6279959643747
 20
276.6707395529536
 30
0.0
 10
232.6205104555447
 20
276.2750350141192
 30
0.0
 10
232.6061368203842
 20
275.4438905969489
 30
0.0
 10
232.5992745348125
 20
275.0079815367498
 30
0.0
 10
232.5803377591648
 20
273.6533961808806
 30
0.0
 10
232.5699697237547
 20
272.6842292617573
 30
0.0
 10
232.5587712471193
 20
271.329523560081
 30
0.0
 10
232.5557560450701
 20
270.8957074566409
 30
0.0
 10
232.550916931431
 20
270.0859960040763
 30
0.0
 10
232.5490834287227
 20
269.7103265708094
 30
0.0
 10
232.5462222808606
 20
269.0133044413117
 30
0.0
 10
232.5451875262186
 20
268.6914639042358
 30
0.0
 10
232.5436236666848
 20
268.0736871355958
 30
0.0
 10
232.5430963361131
 20
267.7762526496675
 30
0.0
 10
232.5428039381048
 20
267.4792880303494
 30
0.0
  0
SPLINE
  5
195
330
1F
100
AcDbEntity
  8
0
  6
Continuous
 62
     8
370
    18
100
AcDbSpline
210
0.0
220
0.0
230
1.0
 70
     8
 71
     3
 72
    22
 73
    18
 74
     0
 42
0.00000001
 43
0.00000001
 40
0.0
 40
0.0
 40
0.0
 40
0.0
 40
0.0312499999999982
 40
0.0312499999999982
 40
0.0624999999999963
 40
0.0624999999999963
 40
0.1250000000000002
 40
0.1250000000000002
 40
0.2500000000000032
 40
0.2500000000000032
 40
0.5000000000000048
 40
0.5000000000000048
 40
0.7500000000000063
 40
0.7500000000000063
 40
0.8750000000000031
 40
0.8750000000000031
 40
1.0
 40
1.0
 40
1.0
 40
1.0
 10
232.8943732528123
 20
282.0498960987777
 30
0.0
 10
232.8832075081703
 20
282.0006743074143
 30
0.0
 10
232.8748459456861
 20
281.9480309810926
 30
0.0
 10
232.8598746404787
 20
281.8418123989766
 30
0.0
 10
232.8533582329069
 20
281.7880574064101
 30
0.0
 10
232.8353438618103
 20
281.626020715617
 30
0.0
 10
232.8255104280277
 20
281.5165833269534
 30
0.0
 10
232.7989616553087
 20
281.1868801448022
 30
0.0
 10
232.7849412352901
 20
280.9660300460183
 30
0.0
 10
232.7470712439954
 20
280.3050957472269
 30
0.0
 10
232.7282335500554
 20
279.8642404036244
 30
0.0
 10
232.6947405416408
 20
279.0037548556678
 30
0.0
 10
232.6807517550595
 20
278.5827365107575
 30
0.0
 10
232.6622087726658
 20
277.9834528305981
 30
0.0
 10
232.656492890307
 20
277.7904698943267
 30
0.0
 10
232.6458246232214
 20
277.4176262109451
 30
0.0
 10
232.6407356846329
 20
277.2354188997958
 30
0.0
 10
232.6357191463962
 20
277.0468892335157
 30
0.0
  0
SPLINE
  5
196
330
1F
100
AcDbEntity
  8
0
  6
Continuous
 62
     8
370
    18
100
AcDbSpline
210
0.0
220
0.0
230
1.0
 70
     8
 71
     3
 72
     9
 73
     5
 74
     0
 42
0.00000001
 43
0.00000001
 40
0.0
 40
0.0
 40
0.0
 40
0.0
 40
0.9572272276100865
 40
1.0
 40
1.0
 40
1.0
 40
1.0
 10
232.5428039381054
 20
267.4792880303469
 30
0.0
 10
232.5425155092648
 20
267.1409562211267
 30
0.0
 10
232.5422141922604
 20
266.7875063824034
 30
0.0
 10
232.5429679808176
 20
266.473673156809
 30
0.0
 10
232.543000222444
 20
266.4602496396823
 30
0.0
  0
SPLINE
  5
197
330
1F
100
AcDbEntity
  8
0
  6
Continuous
 62
     8
370
    18
100
AcDbSpline
210
0.0
220
0.0
230
1.0
 70
    24
 71
     3
 72
     8
 73
     4
 74
     0
 42
0.00000001
 43
0.00000001
 40
0.0
 40
0.0
 40
0.0
 40
0.0
 40
1.0
 40
1.0
 40
1.0
 40
1.0
 10
232.9477362771051
 20
266.0702708485461
 30
0.0
 10
232.6012749528057
 20
266.0702708485458
 30
0.0
 10
232.5716369769921
 20
266.0702708485458
 30
0.0
 10
232.5443689943514
 20
266.0702708485456
 30
0.0
  0
SPLINE
  5
198
330
1F
100
AcDbEntity
  8
0
  6
Continuous
 62
     8
370
    18
100
AcDbSpline
210
0.0
220
0.0
230
1.0
 70
     8
 71
     3
 72
    22
 73
    18
 74
     0
 42
0.00000001
 43
0.00000001
 40
0.0
 40
0.0
 40
0.0
 40
0.0
 40
0.0267338500613196
 40
0.0625018443125112
 40
0.1250051284215916
 40
0.1895754327884367
 40
0.2500116422046931
 40
0.3757381670820608
 40
0.4999756804567959
 40
0.6292881251942196
 40
0.7499824006675486
 40
0.8064224366173366
 40
0.8578720321589929
 40
0.9035668227195528
 40
0.9428776457357632
 40
0.9752119278795135
 40
1.0
 40
1.0
 40
1.0
 40
1.0
 10
232.6357191463989
 20
255.0936524635756
 30
0.0
 10
232.6367829684122
 20
255.0535412905369
 30
0.0
 10
232.6392701087865
 20
254.9597642144067
 30
0.0
 10
232.6443627859209
 20
254.7747076453253
 30
0.0
 10
232.6511675220415
 20
254.5348080001224
 30
0.0
 10
232.6594768929107
 20
254.2502569985975
 30
0.0
 10
232.6713829175542
 20
253.8561131098992
 30
0.0
 10
232.6878189758182
 20
253.3456352018887
 30
0.0
 10
232.711129859685
 20
252.7004484629433
 30
0.0
 10
232.7382469131757
 20
252.0481820096379
 30
0.0
 10
232.7651562120077
 20
251.5082800515933
 30
0.0
 10
232.7894558686088
 20
251.104840707285
 30
0.0
 10
232.8083253194589
 20
250.8340413281798
 30
0.0
 10
232.8278941974894
 20
250.5942628382929
 30
0.0
 10
232.8486023536921
 20
250.3901923448663
 30
0.0
 10
232.8686522534085
 20
250.2238785403192
 30
0.0
 10
232.8865894579246
 20
250.1309651024916
 30
0.0
 10
232.894373253339
 20
250.0906455983763
 30
0.0
  0
SPLINE
  5
199
330
1F
100
AcDbEntity
  8
0
  6
Continuous
 62
     8
370
    18
100
AcDbSpline
210
0.0
220
0.0
230
1.0
 70
     8
 71
     3
 72
    18
 73
    14
 74
     0
 42
0.00000001
 43
0.00000001
 40
0.0
 40
0.0
 40
0.0
 40
0.0
 40
0.0251946355267449
 40
0.0563460566902558
 40
0.094094453505068
 40
0.1475719739844616
 40
0.1955687201062609
 40
0.4459640144982315
 40
0.5997697505103834
 40
0.7351323683585836
 40
0.8284006297982907
 40
0.916327441472955
 40
1.0
 40
1.0
 40
1.0
 40
1.0
 10
232.5428039380915
 20
264.6612536667446
 30
0.0
 10
232.5428935366615
 20
264.5809526951954
 30
0.0
 10
232.5430939176552
 20
264.4013651361536
 30
0.0
 10
232.5436077199612
 20
264.1002116818435
 30
0.0
 10
232.5444814359405
 20
263.7076191721369
 30
0.0
 10
232.5458003836622
 20
263.2599806665978
 30
0.0
 10
232.5500243533077
 20
262.1271667359019
 30
0.0
 10
232.5588596695255
 20
260.6686987324735
 30
0.0
 10
232.5755142752702
 20
258.9363814351789
 30
0.0
 10
232.5906794220815
 20
257.7161106637844
 30
0.0
 10
232.6056560578994
 20
256.7150972299437
 30
0.0
 10
232.6197936772757
 20
255.8842165163847
 30
0.0
 10
232.6304991257191
 20
255.3527820800104
 30
0.0
 10
232.6357191464009
 20
255.0936524635756
 30
0.0
  0
SPLINE
  5
19A
330
1F
100
AcDbEntity
  8
0
  6
Continuous
 62
     8
370
    18
100
AcDbSpline
210
0.0
220
0.0
230
1.0
 70
     8
 71
     3
 72
     9
 73
     5
 74
     0
 42
0.00000001
 43
0.00000001
 40
0.0
 40
0.0
 40
0.0
 40
0.0
 40
0.9561364210979668
 40
1.0
 40
1.0
 40
1.0
 40
1.0
 10
232.5428039381054
 20
264.6612536667443
 30
0.0
 10
232.5424599785758
 20
265.0040954227105
 30
0.0
 10
232.5421002396075
 20
265.3626653384684
 30
0.0
 10
232.5429802427882
 20
265.6667284953238
 30
0.0
 10
232.5430188428772
 20
265.6800657935957
 30
0.0
  0
SPLINE
  5
19B
330
1F
100
AcDbEntity
  8
0
  6
Continuous
 62
     8
370
    18
100
AcDbSpline
210
0.0
220
0.0
230
1.0
 70
     8
 71
     3
 72
    11
 73
     7
 74
     0
 42
0.00000001
 43
0.00000001
 40
0.0
 40
0.0
 40
0.0
 40
0.0
 40
0.1618500018625701
 40
0.3666821836656128
 40
0.68166544558766
 40
1.0
 40
1.0
 40
1.0
 40
1.0
 10
232.4768617366277
 20
278.4047575391044
 30
0.0
 10
232.4790291086555
 20
278.5279275656485
 30
0.0
 10
232.4839394373477
 20
278.8069776353151
 30
0.0
 10
232.5110678273107
 20
278.4373502647308
 30
0.0
 10
232.5840010444593
 20
277.5066337561588
 30
0.0
 10
232.6184190697722
 20
277.2006770790164
 30
0.0
 10
232.635719146399
 20
277.0468892335215
 30
0.0
  0
SPLINE
  5
19C
330
1F
100
AcDbEntity
  8
0
  6
Continuous
 62
     8
370
    25
100
AcDbSpline
210
0.0
220
0.0
230
1.0
 70
     8
 71
     3
 72
    11
 73
     7
 74
     0
 42
0.00000001
 43
0.00000001
 40
0.0
 40
0.0
 40
0.0
 40
0.0
 40
0.4707025058322992
 40
0.8301232786538594
 40
0.9822468540940159
 40
1.0
 40
1.0
 40
1.0
 40
1.0
 10
232.4368176469165
 20
256.5757169989045
 30
0.0
 10
232.4127735616703
 20
258.0653160177244
 30
0.0
 10
232.370369804245
 20
260.6923486042536
 30
0.0
 10
232.364761858274
 20
263.8012059948549
 30
0.0
 10
232.3626704742447
 20
265.4764234065591
 30
0.0
 10
232.3627114966565
 20
266.0140822446848
 30
0.0
 10
232.3627157837469
 20
266.0702708485456
 30
0.0
  0
SPLINE
  5
19D
330
1F
100
AcDbEntity
  8
0
  6
Continuous
 62
     8
370
    18
100
AcDbSpline
210
0.0
220
0.0
230
1.0
 70
     8
 71
     3
 72
    11
 73
     7
 74
     0
 42
0.00000001
 43
0.00000001
 40
0.0
 40
0.0
 40
0.0
 40
0.0
 40
0.1618500989243962
 40
0.366682257006858
 40
0.6816654824523227
 40
1.0
 40
1.0
 40
1.0
 40
1.0
 10
232.476861730628
 20
253.7357843557609
 30
0.0
 10
232.4790291039683
 20
253.6126142293034
 30
0.0
 10
232.4839394336715
 20
253.3335640448091
 30
0.0
 10
232.5110678268763
 20
253.7031914108047
 30
0.0
 10
232.5840010445899
 20
254.6339079473217
 30
0.0
 10
232.6184190698171
 20
254.939864620216
 30
0.0
 10
232.6357191464009
 20
255.0936524635756
 30
0.0
  0
LINE
  5
19E
330
1F
100
AcDbEntity
  8
0
  6
Continuous
 62
     8
370
    18
100
AcDbLine
 10
232.7126891113
 20
249.9091318382
 30
0.0
 11
232.8943732507
 21
250.0906455958
 31
0.0
  0
SPLINE
  5
19F
330
1F
100
AcDbEntity
  8
0
  6
Continuous
 62
     8
370
    18
100
AcDbSpline
210
0.0
220
0.0
230
1.0
 70
     8
 71
     3
 72
     9
 73
     5
 74
     0
 42
0.00000001
 43
0.00000001
 40
0.0
 40
0.0
 40
0.0
 40
0.0
 40
0.3922979341297299
 40
1.0
 40
1.0
 40
1.0
 40
1.0
 10
232.6350792718607
 20
250.5509842468389
 30
0.0
 10
232.6408550078564
 20
250.4665542024314
 30
0.0
 10
232.6555778383715
 20
250.2513350104292
 30
0.0
 10
232.6911206516382
 20
250.0384869465073
 30
0.0
 10
232.7127200926872
 20
249.9091387383456
 30
0.0
  0
SPLINE
  5
1A0
330
1F
100
AcDbEntity
  8
0
  6
Continuous
 62
     8
370
    18
100
AcDbSpline
210
0.0
220
0.0
230
1.0
 70
     8
 71
     3
 72
     9
 73
     5
 74
     0
 42
0.00000001
 43
0.00000001
 40
0.0
 40
0.0
 40
0.0
 40
0.0
 40
0.6078250627989675
 40
0.9999999999999999
 40
0.9999999999999999
 40
0.9999999999999999
 40
0.9999999999999999
 10
232.7127204927769
 20
282.2314032377902
 30
0.0
 10
232.6911205288316
 20
282.1020556713687
 30
0.0
 10
232.6555840475851
 20
281.8892517342856
 30
0.0
 10
232.6408633370844
 20
281.6740771376196
 30
0.0
 10
232.6350902433683
 20
281.5896910536848
 30
0.0
  0
LINE
  5
1A1
330
1F
100
AcDbEntity
  8
0
  6
Continuous
 62
     8
370
    18
100
AcDbLine
 10
232.7126895122
 20
282.2314101378
 30
0.0
 11
232.8943732507
 21
282.0498961013
 31
0.0
  0
SPLINE
  5
1A2
330
1F
100
AcDbEntity
  8
0
  6
Continuous
 62
     8
370
    18
100
AcDbSpline
210
0.0
220
0.0
230
1.0
 70
     8
 71
     3
 72
    19
 73
    15
 74
     0
 42
0.00000001
 43
0.00000001
 40
0.0
 40
0.0
 40
0.0
 40
0.0
 40
0.0693046741536271
 40
0.1372334517195673
 40
0.2032882834207726
 40
0.2671795139237657
 40
0.3844275628917732
 40
0.5103003520871363
 40
0.5767087401476033
 40
0.6481622836251371
 40
0.7252967654805039
 40
0.8091957089271598
 40
0.9006800447052394
 40
1.0
 40
1.0
 40
1.0
 40
1.0
 10
235.608080948619
 20
283.9891018095359
 30
0.0
 10
235.5190470030521
 20
283.9888070239087
 30
0.0
 10
235.3427466911384
 20
283.9882233049948
 30
0.0
 10
235.0822726494239
 20
283.9800358274283
 30
0.0
 10
234.8299508065666
 20
283.9625430513393
 30
0.0
 10
234.5178423296111
 20
283.9248332611166
 30
0.0
 10
234.1383019994022
 20
283.842379076848
 30
0.0
 10
233.7771208995018
 20
283.6971825406288
 30
0.0
 10
233.4976981158721
 20
283.5270791779237
 30
0.0
 10
233.2914715595603
 20
283.3597606552154
 30
0.0
 10
233.1019488462288
 20
283.1452818139718
 30
0.0
 10
232.9376963028986
 20
282.8827299115775
 30
0.0
 10
232.8008153362033
 20
282.5747786849575
 30
0.0
 10
232.7428581486015
 20
282.3489575306073
 30
0.0
 10
232.7126895121979
 20
282.2314101377864
 30
0.0
  0
LINE
  5
1A3
330
1F
100
AcDbEntity
  8
0
  6
Continuous
 62
     8
370
    18
100
AcDbLine
 10
235.6080809486
 20
283.9891018096
 30
0.0
 11
235.7942995711
 21
283.8029043673
 31
0.0
  0
LINE
  5
1A4
330
1F
100
AcDbEntity
  8
0
  6
Continuous
 62
     8
370
    18
100
AcDbLine
 10
235.7942986833
 20
248.3376373298
 30
0.0
 11
235.608091121
 21
248.1514398871
 31
0.0
  0
SPLINE
  5
1A5
330
1F
100
AcDbEntity
  8
0
  6
Continuous
 62
     8
370
    18
100
AcDbSpline
210
0.0
220
0.0
230
1.0
 70
     8
 71
     3
 72
    16
 73
    12
 74
     0
 42
0.00000001
 43
0.00000001
 40
0.0
 40
0.0
 40
0.0
 40
0.0
 40
0.2499999999999984
 40
0.2499999999999984
 40
0.4999999999999968
 40
0.4999999999999968
 40
0.6249999999999968
 40
0.6249999999999968
 40
0.7499999999999967
 40
0.7499999999999967
 40
1.0
 40
1.0
 40
1.0
 40
1.0
 10
235.608091121039
 20
248.1514398871091
 30
0.0
 10
235.2863570934084
 20
248.1514400210756
 30
0.0
 10
234.96439524864
 20
248.155105321605
 30
0.0
 10
234.3358794181289
 20
248.2442530376086
 30
0.0
 10
234.0273268054279
 20
248.3257545732775
 30
0.0
 10
233.6118404069496
 20
248.5378709808743
 30
0.0
 10
233.4815575674697
 20
248.6237285742688
 30
0.0
 10
233.2484875578363
 20
248.8243852613644
 30
0.0
 10
233.1466703972062
 20
248.9399568537754
 30
0.0
 10
232.8883442074735
 20
249.3194091601636
 30
0.0
 10
232.7790862553956
 20
249.6108051354173
 30
0.0
 10
232.7127200890202
 20
249.9091387519776
 30
0.0
  0
SPLINE
  5
1A6
330
1F
100
AcDbEntity
  8
0
  6
Continuous
 62
     8
370
    18
100
AcDbSpline
210
0.0
220
0.0
230
1.0
 70
     8
 71
     3
 72
    12
 73
     8
 74
     0
 42
0.00000001
 43
0.00000001
 40
0.0
 40
0.0
 40
0.0
 40
0.0
 40
0.1912707514498714
 40
0.3849336306542354
 40
0.5809966897777356
 40
0.7982449294522634
 40
1.0
 40
1.0
 40
1.0
 40
1.0
 10
235.505914684649
 20
284.0231468203176
 30
0.0
 10
235.5179734584888
 20
284.0209767942806
 30
0.0
 10
235.5422418192298
 20
284.0166096027748
 30
0.0
 10
235.5685534296547
 20
284.0100166076314
 30
0.0
 10
235.5875829396194
 20
284.003128102076
 30
0.0
 10
235.6008958462137
 20
283.996147369748
 30
0.0
 10
235.6057456908318
 20
283.9913917141882
 30
0.0
 10
235.608080948619
 20
283.9891018095514
 30
0.0
  0
LINE
  5
1A7
330
1F
100
AcDbEntity
  8
0
  6
Continuous
 62
     8
370
    18
100
AcDbLine
 10
236.6062550696
 20
284.0231468511
 30
0.0
 11
235.5059146846
 21
284.0231468511
 31
0.0
  0
ARC
  5
1A8
330
1F
100
AcDbEntity
  8
0
  6
Continuous
 62
     8
370
    18
100
AcDbCircle
 10
229.4216386152
 20
283.6476713375
 30
0.0
 40
7.194421134319471
100
AcDbArc
 50
1.2363590569
 51
2.9916153093
  0
SPLINE
  5
1A9
330
1F
100
AcDbEntity
  8
0
  6
Continuous
 62
     8
370
    18
100
AcDbSpline
210
0.0
220
0.0
230
1.0
 70
     8
 71
     3
 72
    11
 73
     7
 74
     0
 42
0.00000001
 43
0.00000001
 40
0.0
 40
0.0
 40
0.0
 40
0.0
 40
0.2733638948636063
 40
0.5008359087790001
 40
0.7692143627716918
 40
0.9999999999999999
 40
0.9999999999999999
 40
0.9999999999999999
 40
0.9999999999999999
 10
235.608091121039
 20
248.151439887102
 30
0.0
 10
235.6046038169701
 20
248.1483372299731
 30
0.0
 10
235.5982146517022
 20
248.1426527846898
 30
0.0
 10
235.5793514103284
 20
248.1339226875345
 30
0.0
 10
235.5527962891049
 20
248.1256762868749
 30
0.0
 10
235.5207396465954
 20
248.1200131721366
 30
0.0
 10
235.505918442909
 20
248.1173948637154
 30
0.0
  0
LINE
  5
1AA
330
1F
100
AcDbEntity
  8
0
  6
Continuous
 62
     8
370
    18
100
AcDbLine
 10
236.6143848338
 20
248.3376373298
 30
0.0
 11
236.6075012123
 21
248.1173948524
 31
0.0
  0
LINE
  5
1AB
330
1F
100
AcDbEntity
  8
0
  6
Continuous
 62
     8
370
    18
100
AcDbLine
 10
236.6075012027
 20
248.1173948524
 30
0.0
 11
235.5059184429
 21
248.1173948637
 31
0.0
  0
ARC
  5
1AC
330
1F
100
AcDbEntity
  8
0
  6
Continuous
 62
     8
370
    18
100
AcDbCircle
 10
236.6075087639
 20
283.023154209
 30
0.0
 40
0.9999926515893212
100
AcDbArc
 50
1.8022675628
 51
90.071831885
  0
ARC
  5
1AD
330
1F
100
AcDbEntity
  8
0
  6
Continuous
 62
     8
370
    18
100
AcDbCircle
 10
236.607508785
 20
249.1173874814
 30
0.0
 40
0.9999926302589425
100
AcDbArc
 50
269.999565557
 51
358.1977332197
  0
SPLINE
  5
1AE
330
1F
100
AcDbEntity
  8
0
  6
Continuous
 62
     8
370
    18
100
AcDbSpline
210
0.0
220
0.0
230
1.0
 70
     8
 71
     3
 72
    11
 73
     7
 74
     0
 42
0.00000001
 43
0.00000001
 40
0.0
 40
0.0
 40
0.0
 40
0.0
 40
0.2401858212702621
 40
0.5074368861473394
 40
0.7532899678199445
 40
1.0
 40
1.0
 40
1.0
 40
1.0
 10
198.063517961659
 20
284.0649982086583
 30
0.0
 10
198.0615784585139
 20
284.0646271937116
 30
0.0
 10
198.0574809000843
 20
284.0638433561469
 30
0.0
 10
198.0579051031973
 20
284.0582302822652
 30
0.0
 10
198.0603628772864
 20
284.0459900742683
 30
0.0
 10
198.0631883326197
 20
284.0290503089076
 30
0.0
 10
198.064603518119
 20
284.020565690511
 30
0.0
  0
SPLINE
  5
1AF
330
1F
100
AcDbEntity
  8
0
  6
Continuous
 62
     8
370
    18
100
AcDbSpline
210
0.0
220
0.0
230
1.0
 70
     8
 71
     3
 72
    22
 73
    18
 74
     0
 42
0.00000001
 43
0.00000001
 40
0.0
 40
0.0
 40
0.0
 40
0.0
 40
0.1250000000000001
 40
0.1250000000000001
 40
0.2500000000000002
 40
0.2500000000000002
 40
0.3750000000000003
 40
0.3750000000000003
 40
0.5000000000000004
 40
0.5000000000000004
 40
0.6250000000000003
 40
0.6250000000000003
 40
0.7500000000000002
 40
0.7500000000000002
 40
0.8750000000000001
 40
0.8750000000000001
 40
1.0
 40
1.0
 40
1.0
 40
1.0
 10
198.064603518119
 20
284.020565690511
 30
0.0
 10
198.0645577043024
 20
283.9799959528185
 30
0.0
 10
198.0645118904857
 20
283.8997627874713
 30
0.0
 10
198.0644202628524
 20
283.6195472322502
 30
0.0
 10
198.0643744490357
 20
283.4181076736899
 30
0.0
 10
198.0642828214023
 20
282.8743302213867
 30
0.0
 10
198.0642370075857
 20
282.5320096032615
 30
0.0
 10
198.0641453799524
 20
281.698229833449
 30
0.0
 10
198.0640995661357
 20
281.2050922270667
 30
0.0
 10
198.0640079385024
 20
280.0773112781202
 30
0.0
 10
198.0639621246857
 20
279.4433098257581
 30
0.0
 10
198.0638704970523
 20
278.074437601675
 30
0.0
 10
198.0638246832357
 20
277.3424685931402
 30
0.0
 10
198.0637330556024
 20
275.8457133063326
 30
0.0
 10
198.0636872417857
 20
275.0804157745583
 30
0.0
 10
198.0635956141523
 20
273.5654389845811
 30
0.0
 10
198.0635498003357
 20
272.8132069923215
 30
0.0
 10
198.063503986519
 20
272.0649921707573
 30
0.0
  0
SPLINE
  5
1B0
330
1F
100
AcDbEntity
  8
0
  6
Continuous
 62
     8
370
    18
100
AcDbSpline
210
0.0
220
0.0
230
1.0
 70
     8
 71
     3
 72
    29
 73
    25
 74
     0
 42
0.00000001
 43
0.00000001
 40
0.0
 40
0.0
 40
0.0
 40
0.0
 40
0.0536090890103769
 40
0.1057441658161248
 40
0.1564329119174841
 40
0.2057060356322351
 40
0.2535975977886182
 40
0.3001453635000325
 40
0.3383811237504905
 40
0.4257579075529619
 40
0.4827033096640134
 40
0.5441143174234278
 40
0.5681209375953946
 40
0.5948763434323979
 40
0.6242589564080508
 40
0.6561551116379586
 40
0.6904684697224113
 40
0.7271314104548898
 40
0.7661184958816973
 40
0.8074618666195452
 40
0.8512680783514723
 40
0.8977354072642116
 40
0.9471701402216413
 40
1.0
 40
1.0
 40
1.0
 40
1.0
 10
198.0635039865563
 20
272.0649921707587
 30
0.0
 10
197.8743226591833
 20
272.0650950339878
 30
0.0
 10
197.5011616519672
 20
272.0652979321634
 30
0.0
 10
196.9493173101017
 20
272.0655950202727
 30
0.0
 10
196.4131975168523
 20
272.0658847073851
 30
0.0
 10
195.8927349603494
 20
272.0661238804717
 30
0.0
 10
195.3878686420903
 20
272.0664426408584
 30
0.0
 10
194.9230745371287
 20
272.0663538236324
 30
0.0
 10
194.3221075553302
 20
272.0677812807971
 30
0.0
 10
193.6888189566949
 20
272.0697590651119
 30
0.0
 10
192.9844752385638
 20
272.0715005207415
 30
0.0
 10
192.5041587932538
 20
272.0715738585474
 30
0.0
 10
192.1314474617201
 20
272.0715478794548
 30
0.0
 10
191.8678656717626
 20
272.0717498464862
 30
0.0
 10
191.582104179576
 20
272.0720987571948
 30
0.0
 10
191.2769356191967
 20
272.072623052527
 30
0.0
 10
190.9554071504778
 20
272.0733188546143
 30
0.0
 10
190.6208371575835
 20
272.0741904844646
 30
0.0
 10
190.2767999065301
 20
272.0752375976983
 30
0.0
 10
189.9271968736229
 20
272.0764583271134
 30
0.0
 10
189.5759795687127
 20
272.0778477823828
 30
0.0
 10
189.2283054384988
 20
272.079396749797
 30
0.0
 10
188.8858311163138
 20
272.0810945296765
 30
0.0
 10
188.680218263645
 20
272.08226362666
 30
0.0
 10
188.5739987219197
 20
272.082867581832
 30
0.0
  0
SPLINE
  5
1B1
330
1F
100
AcDbEntity
  8
0
  6
Continuous
 62
     8
370
    18
100
AcDbSpline
210
0.0
220
0.0
230
1.0
 70
     8
 71
     3
 72
    18
 73
    14
 74
     0
 42
0.00000001
 43
0.00000001
 40
0.0
 40
0.0
 40
0.0
 40
0.0
 40
0.0320892518652236
 40
0.0686003719287638
 40
0.1097090559590248
 40
0.1642056155393972
 40
0.2197883197002593
 40
0.2773460768734702
 40
0.4453271509239241
 40
0.570455403397868
 40
0.7029198939592024
 40
0.8469376406637302
 40
1.0
 40
1.0
 40
1.0
 40
1.0
 10
188.5739987219197
 20
272.082867581832
 30
0.0
 10
188.535238294196
 20
272.0826844732874
 30
0.0
 10
188.4523762889013
 20
272.082293024016
 30
0.0
 10
188.3283178542382
 20
272.0826655240407
 30
0.0
 10
188.1874801636849
 20
272.0838138257181
 30
0.0
 10
188.0391700668151
 20
272.085357191231
 30
0.0
 10
187.8903482394871
 20
272.0877668950333
 30
0.0
 10
187.6667441878803
 20
272.0878253442041
 30
0.0
 10
187.4489090673249
 20
272.088582406773
 30
0.0
 10
187.264780048585
 20
272.0891021458559
 30
0.0
 10
187.1484706892529
 20
272.0906862804976
 30
0.0
 10
187.0761454859728
 20
272.0919096831948
 30
0.0
 10
187.0678346912969
 20
272.091499436041
 30
0.0
 10
187.0635527827638
 20
272.0912880674707
 30
0.0
  0
SPLINE
  5
1B2
330
1F
100
AcDbEntity
  8
0
  6
Continuous
 62
     8
370
    18
100
AcDbSpline
210
0.0
220
0.0
230
1.0
 70
     8
 71
     3
 72
    11
 73
     7
 74
     0
 42
0.00000001
 43
0.00000001
 40
0.0
 40
0.0
 40
0.0
 40
0.0
 40
0.2593328631702563
 40
0.5129613742000511
 40
0.7601295295174753
 40
1.0
 40
1.0
 40
1.0
 40
1.0
 10
198.0635126936257
 20
248.0756133290437
 30
0.0
 10
198.0613552874453
 20
248.0757118199075
 30
0.0
 10
198.0570879299441
 20
248.0759066352048
 30
0.0
 10
198.0569004127427
 20
248.0826150616338
 30
0.0
 10
198.0593245101209
 20
248.0951144060614
 30
0.0
 10
198.0614028508995
 20
248.1120423431327
 30
0.0
 10
198.0624264505771
 20
248.1203794893353
 30
0.0
  0
SPLINE
  5
1B3
330
1F
100
AcDbEntity
  8
0
  6
Continuous
 62
     8
370
    18
100
AcDbSpline
210
0.0
220
0.0
230
1.0
 70
     8
 71
     3
 72
    26
 73
    22
 74
     0
 42
0.00000001
 43
0.00000001
 40
0.0
 40
0.0
 40
0.0
 40
0.0
 40
0.0329320455121788
 40
0.064710017705346
 40
0.0953361088347037
 40
0.1248257171818558
 40
0.1532008122591947
 40
0.2225529383957394
 40
0.2865020526501839
 40
0.4035340115743807
 40
0.4578852428972807
 40
0.5104680379228476
 40
0.562734226646713
 40
0.6151826586105493
 40
0.6695241604554819
 40
0.7266580127132769
 40
0.787486129525745
 40
0.8529028699820664
 40
0.899066157485261
 40
0.9480631293018023
 40
1.0
 40
1.0
 40
1.0
 40
1.0
 10
198.0635039115847
 20
260.0755548216649
 30
0.0
 10
197.8740479404059
 20
260.0755590362638
 30
0.0
 10
197.5017753087277
 20
260.0755673177649
 30
0.0
 10
196.9534990238907
 20
260.07559915524
 30
0.0
 10
196.4254353453492
 20
260.0753584823419
 30
0.0
 10
195.917573251327
 20
260.0749212512736
 30
0.0
 10
195.1889470562616
 20
260.0741783862754
 30
0.0
 10
194.2665853119172
 20
260.0733980036452
 30
0.0
 10
192.8584100589959
 20
260.0709997983221
 30
0.0
 10
191.5715484925857
 20
260.0681200095473
 30
0.0
 10
190.4517608047564
 20
260.0650598695683
 30
0.0
 10
189.7216231632735
 20
260.062386914441
 30
0.0
 10
189.0815592609439
 20
260.059944320946
 30
0.0
 10
188.5305250203175
 20
260.0575195126756
 30
0.0
 10
188.0700207742386
 20
260.0552733549387
 30
0.0
 10
187.6963537516817
 20
260.053227847795
 30
0.0
 10
187.4088753791657
 20
260.0517595181896
 30
0.0
 10
187.2315706689421
 20
260.0503662846496
 30
0.0
 10
187.1287661595624
 20
260.0498668491494
 30
0.0
 10
187.0737329011753
 20
260.0494835539416
 30
0.0
 10
187.0669611198048
 20
260.0493437717915
 30
0.0
 10
187.0634766083201
 20
260.0492718449999
 30
0.0
  0
SPLINE
  5
1B4
330
1F
100
AcDbEntity
  8
0
  6
Continuous
 62
     8
370
    18
100
AcDbSpline
210
0.0
220
0.0
230
1.0
 70
     8
 71
     3
 72
    28
 73
    24
 74
     0
 42
0.00000001
 43
0.00000001
 40
0.0
 40
0.0
 40
0.0
 40
0.0
 40
0.0259522698829291
 40
0.0511291781520259
 40
0.0755318718933932
 40
0.0991792465092395
 40
0.1220990716493936
 40
0.1443188888955679
 40
0.2089765590723549
 40
0.2698212032230709
 40
0.3188740826008901
 40
0.3663202558468345
 40
0.435553617105157
 40
0.5039734873648329
 40
0.5603137384984788
 40
0.6184828157642231
 40
0.7296423304293811
 40
0.7898361955675187
 40
0.8548055981233807
 40
0.8885458210325297
 40
0.9248766431269223
 40
0.9628865417735906
 40
1.0
 40
1.0
 40
1.0
 40
1.0
 10
198.0624264505771
 20
248.1203794893353
 30
0.0
 10
198.0628571024347
 20
248.1294763802183
 30
0.0
 10
198.0637055398025
 20
248.1473983792065
 30
0.0
 10
198.0646459910817
 20
248.1861687908185
 30
0.0
 10
198.0649141075853
 20
248.2336911780414
 30
0.0
 10
198.064623972936
 20
248.290637516724
 30
0.0
 10
198.0640436232181
 20
248.3565259641931
 30
0.0
 10
198.0630078312611
 20
248.4794443859016
 30
0.0
 10
198.0619233217969
 20
248.6939157916543
 30
0.0
 10
198.0626592993623
 20
249.044837559084
 30
0.0
 10
198.0640130562273
 20
249.449991154586
 30
0.0
 10
198.0652991504195
 20
249.9647546196893
 30
0.0
 10
198.062332711506
 20
250.6662895224319
 30
0.0
 10
198.0650424486292
 20
251.5473825250633
 30
0.0
 10
198.0647826347654
 20
252.4715286999856
 30
0.0
 10
198.0588357880441
 20
253.687144100347
 30
0.0
 10
198.0639195631913
 20
255.0001789252872
 30
0.0
 10
198.0646877132427
 20
256.3794905502407
 30
0.0
 10
198.0643395932709
 20
257.3158104966862
 30
0.0
 10
198.0630509735515
 20
258.113423064235
 30
0.0
 10
198.0599768846243
 20
258.7524994151343
 30
0.0
 10
198.0577947440311
 20
259.4117050752207
 30
0.0
 10
198.061616055525
 20
259.8560389719731
 30
0.0
 10
198.0635039115847
 20
260.0755548216649
 30
0.0
  0
LINE
  5
1B5
330
1F
100
AcDbEntity
  8
0
  6
Continuous
 62
     8
370
    18
100
AcDbLine
 10
163.0740798054
 20
283.5702708485
 30
0.0
 11
175.0635711879
 21
283.5702708485
 31
0.0
  0
LINE
  5
1B6
330
1F
100
AcDbEntity
  8
0
  6
Continuous
 62
     8
370
    18
100
AcDbLine
 10
163.0740798054
 20
283.5702708485
 30
0.0
 11
163.0740798054
 21
284.0702708485
 31
0.0
  0
LINE
  5
1B7
330
1F
100
AcDbEntity
  8
0
  6
Continuous
 62
     8
370
    18
100
AcDbLine
 10
175.0635711879
 20
284.0702708485
 30
0.0
 11
175.0635711879
 21
283.5702708485
 31
0.0
  0
SPLINE
  5
1B8
330
1F
100
AcDbEntity
  8
0
  6
Continuous
 62
     8
370
    18
100
AcDbSpline
210
0.0
220
0.0
230
1.0
 70
     8
 71
     3
 72
    16
 73
    12
 74
     0
 42
0.00000001
 43
0.00000001
 40
0.0
 40
0.0
 40
0.0
 40
0.0
 40
0.0255422569815961
 40
0.1758960595906517
 40
0.3115309895966626
 40
0.4464521539773716
 40
0.5949923221181433
 40
0.6758158706094751
 40
0.762895329797804
 40
0.8698425063343789
 40
1.0
 40
1.0
 40
1.0
 40
1.0
 10
158.068825496679
 20
248.9993997733078
 30
0.0
 10
157.9512021629342
 20
249.0243251394162
 30
0.0
 10
157.1411922669201
 20
249.1959729967489
 30
0.0
 10
155.7608909582227
 20
249.7407660504767
 30
0.0
 10
154.1107947943206
 20
250.8782028531365
 30
0.0
 10
152.8926831318688
 20
252.4681110068101
 30
0.0
 10
152.2361140134538
 20
254.0690320584221
 30
0.0
 10
151.880310172011
 20
255.5167849171176
 30
0.0
 10
151.6846051407943
 20
256.7973204476396
 30
0.0
 10
151.5791408463732
 20
258.3211461798333
 30
0.0
 10
151.5758848226369
 20
259.4373787351728
 30
0.0
 10
151.574097443719
 20
260.0501293470737
 30
0.0
  0
SPLINE
  5
1B9
330
1F
100
AcDbEntity
  8
0
  6
Continuous
 62
     8
370
    18
100
AcDbSpline
210
0.0
220
0.0
230
1.0
 70
     8
 71
     3
 72
     8
 73
     4
 74
     0
 42
0.00000001
 43
0.00000001
 40
0.0
 40
0.0
 40
0.0
 40
0.0
 40
1.0
 40
1.0
 40
1.0
 40
1.0
 10
151.5740974437196
 20
260.050129347075
 30
0.0
 10
151.566322383345
 20
264.4893742219694
 30
0.0
 10
151.566322383345
 20
267.6511674751068
 30
0.0
 10
151.5740974437196
 20
272.0904123500012
 30
0.0
  0
SPLINE
  5
1BA
330
1F
100
AcDbEntity
  8
0
  6
Continuous
 62
     8
370
    18
100
AcDbSpline
210
0.0
220
0.0
230
1.0
 70
     8
 71
     3
 72
    22
 73
    18
 74
     0
 42
0.00000001
 43
0.00000001
 40
0.0
 40
0.0
 40
0.0
 40
0.0
 40
0.125
 40
0.125
 40
0.2500000000000001
 40
0.2500000000000001
 40
0.3750000000000001
 40
0.3750000000000001
 40
0.5000000000000001
 40
0.5000000000000001
 40
0.6250000000000001
 40
0.6250000000000001
 40
0.7500000000000002
 40
0.7500000000000002
 40
0.8750000000000002
 40
0.8750000000000002
 40
1.0
 40
1.0
 40
1.0
 40
1.0
 10
151.574097443719
 20
272.0904123500012
 30
0.0
 10
151.5755120267987
 20
272.9002777575259
 30
0.0
 10
151.5798855385788
 20
273.7074436160982
 30
0.0
 10
151.6832190384263
 20
275.3115849650587
 30
0.0
 10
151.7817916617135
 20
276.1098684380742
 30
0.0
 10
152.126048409978
 20
277.6713623633691
 30
0.0
 10
152.37215099268
 20
278.4361380377217
 30
0.0
 10
153.0644823294831
 20
279.8655203879106
 30
0.0
 10
153.5156753087298
 20
280.5283204185426
 30
0.0
 10
154.6327129614763
 20
281.6435459086491
 30
0.0
 10
155.2963881570443
 20
282.0935709037169
 30
0.0
 10
156.7270321014434
 20
282.7834193604
 30
0.0
 10
157.4921378003712
 20
283.0283191507384
 30
0.0
 10
159.0542459733335
 20
283.3699509735776
 30
0.0
 10
159.8527008605033
 20
283.4670593797293
 30
0.0
 10
161.4569711861521
 20
283.5675666799218
 30
0.0
 10
162.2641800784924
 20
283.5702821384331
 30
0.0
 10
163.074079805439
 20
283.5702708485472
 30
0.0
  0
SPLINE
  5
1BB
330
1F
100
AcDbEntity
  8
0
  6
Continuous
 62
     8
370
    18
100
AcDbSpline
210
0.0
220
0.0
230
1.0
 70
     8
 71
     3
 72
    22
 73
    18
 74
     0
 42
0.00000001
 43
0.00000001
 40
0.0
 40
0.0
 40
0.0
 40
0.0
 40
0.1250000000000001
 40
0.1250000000000001
 40
0.2500000000000001
 40
0.2500000000000001
 40
0.3750000000000001
 40
0.3750000000000001
 40
0.5
 40
0.5
 40
0.625
 40
0.625
 40
0.75
 40
0.75
 40
0.875
 40
0.875
 40
1.0
 40
1.0
 40
1.0
 40
1.0
 10
175.063571187919
 20
283.5702708485467
 30
0.0
 10
175.8734725277723
 20
283.570274835608
 30
0.0
 10
176.6806428263266
 20
283.5675369460222
 30
0.0
 10
178.2849424896279
 20
283.4671682452064
 30
0.0
 10
179.0833884915793
 20
283.369961120066
 30
0.0
 10
180.6454417281498
 20
283.0283010550074
 30
0.0
 10
181.4106270950339
 20
282.7834509613012
 30
0.0
 10
182.8411887479279
 20
282.0935457407911
 30
0.0
 10
183.5047832072297
 20
281.6435087095564
 30
0.0
 10
184.6220128996371
 20
280.5284751480621
 30
0.0
 10
185.0731926149627
 20
279.8655940248759
 30
0.0
 10
185.7654691240152
 20
278.436130776042
 30
0.0
 10
186.0116196962084
 20
277.6714338555767
 30
0.0
 10
186.3558496083396
 20
276.109885293206
 30
0.0
 10
186.4543253608823
 20
275.3115920380743
 30
0.0
 10
186.5577937211854
 20
273.707480086402
 30
0.0
 10
186.5621462056009
 20
272.9002762452709
 30
0.0
 10
186.5635535496424
 20
272.0904123500127
 30
0.0
  0
SPLINE
  5
1BC
330
1F
100
AcDbEntity
  8
0
  6
Continuous
 62
     8
370
    18
100
AcDbSpline
210
0.0
220
0.0
230
1.0
 70
     8
 71
     3
 72
     8
 73
     4
 74
     0
 42
0.00000001
 43
0.00000001
 40
0.0
 40
0.0
 40
0.0
 40
0.0
 40
0.9999999999999999
 40
0.9999999999999999
 40
0.9999999999999999
 40
0.9999999999999999
 10
186.5635535496393
 20
272.0904123500168
 30
0.0
 10
186.5713286100139
 20
267.6511674751183
 30
0.0
 10
186.5713286100135
 20
264.4893742219768
 30
0.0
 10
186.5635535496388
 20
260.0501293470783
 30
0.0
  0
SPLINE
  5
1BD
330
1F
100
AcDbEntity
  8
0
  6
Continuous
 62
     8
370
    18
100
AcDbSpline
210
0.0
220
0.0
230
1.0
 70
     8
 71
     3
 72
    16
 73
    12
 74
     0
 42
0.00000001
 43
0.00000001
 40
0.0
 40
0.0
 40
0.0
 40
0.0
 40
0.1171024132201583
 40
0.2171335428434447
 40
0.3026997075849344
 40
0.3820051611425117
 40
0.5323264471888589
 40
0.667924052928471
 40
0.802894379749099
 40
0.9514798302928626
 40
1.0
 40
1.0
 40
1.0
 40
1.0
 10
186.563553549639
 20
260.0501293470797
 30
0.0
 10
186.5619912127267
 20
259.498897890728
 30
0.0
 10
186.5590942976287
 20
258.4767939412612
 30
0.0
 10
186.4766700480341
 20
257.0533720032437
 30
0.0
 10
186.3116065371291
 20
255.816066899333
 30
0.0
 10
185.9942468806441
 20
254.365714975157
 30
0.0
 10
185.3903200758097
 20
252.7410481040168
 30
0.0
 10
184.2408801216073
 20
251.0927391534968
 30
0.0
 10
182.6505113455463
 20
249.883112057178
 30
0.0
 10
181.1951224803277
 20
249.2633534146784
 30
0.0
 10
180.291310769079
 20
249.0533119594748
 30
0.0
 10
180.068825496679
 20
249.0016074619621
 30
0.0
  0
LINE
  5
1BE
330
1F
100
AcDbEntity
  8
0
  6
Continuous
 62
     8
370
    18
100
AcDbLine
 10
187.0635527828
 20
272.0912880675
 30
0.0
 11
186.5635535496
 21
272.09041235
 31
0.0
  0
LINE
  5
1BF
330
1F
100
AcDbEntity
  8
0
  6
Continuous
 62
     8
370
    18
100
AcDbLine
 10
187.0635527828
 20
260.0492536296
 30
0.0
 11
186.5635535496
 21
260.0501293471
 31
0.0
  0
LINE
  5
1C0
330
1F
100
AcDbEntity
  8
0
  6
Continuous
 62
     8
370
    18
100
AcDbLine
 10
151.5740974437
 20
272.09041235
 30
0.0
 11
151.0740982106
 21
272.0912880675
 31
0.0
  0
LINE
  5
1C1
330
1F
100
AcDbEntity
  8
0
  6
Continuous
 62
     8
370
    18
100
AcDbLine
 10
151.5740974437
 20
260.0501293471
 30
0.0
 11
151.0740982106
 21
260.0492536296
 31
0.0
  0
LINE
  5
1C2
330
1F
100
AcDbEntity
  8
0
  6
Continuous
 62
     8
370
    18
100
AcDbLine
 10
172.7785751673
 20
284.4797949714
 30
0.0
 11
165.3590758261
 21
284.4797949714
 31
0.0
  0
LINE
  5
1C3
330
1F
100
AcDbEntity
  8
0
  6
Continuous
 62
     8
370
    18
100
AcDbLine
 10
172.9688254967
 20
284.2800327529
 30
0.0
 11
165.1688254967
 21
284.2800327529
 31
0.0
  0
LINE
  5
1C4
330
1F
100
AcDbEntity
  8
0
  6
Continuous
 62
     8
370
    18
100
AcDbLine
 10
198.0635039866
 20
260.0755550427
 30
0.0
 11
198.0635039866
 21
272.0649921708
 31
0.0
  0
SPLINE
  5
1C5
330
1F
100
AcDbEntity
  8
0
  6
Continuous
 62
     8
370
    18
100
AcDbSpline
210
0.0
220
0.0
230
1.0
 70
     8
 71
     3
 72
    24
 73
    20
 74
     0
 42
0.00000001
 43
0.00000001
 40
0.0
 40
0.0
 40
0.0
 40
0.0
 40
0.0790735448455826
 40
0.1348935711148508
 40
0.2076119069142888
 40
0.2665940260936752
 40
0.3312987463729639
 40
0.3952119867175032
 40
0.4583466959276765
 40
0.4892376916231591
 40
0.5209518996655199
 40
0.5776578539917403
 40
0.644127028000338
 40
0.7000792629047515
 40
0.7650046281775915
 40
0.8278950565544863
 40
0.9003491494216134
 40
0.9481359729869023
 40
1.0
 40
1.0
 40
1.0
 40
1.0
 10
223.511334994119
 20
284.0649981345518
 30
0.0
 10
224.0587218105254
 20
284.0649971256078
 30
0.0
 10
224.9925229015281
 20
284.0649954044244
 30
0.0
 10
226.4296749610235
 20
284.0649726656766
 30
0.0
 10
227.7274009204895
 20
284.0649021346979
 30
0.0
 10
229.0841658936445
 20
284.0647341188063
 30
0.0
 10
230.3720221680011
 20
284.0644055539279
 30
0.0
 10
231.6575347143927
 20
284.0637418976686
 30
0.0
 10
232.6330253135361
 20
284.0626794678099
 30
0.0
 10
233.2820799031078
 20
284.0613911127635
 30
0.0
 10
233.8092604305511
 20
284.0598938262706
 30
0.0
 10
234.3219317474882
 20
284.0574619995368
 30
0.0
 10
234.7128028269502
 20
284.0540320012759
 30
0.0
 10
234.9883618706014
 20
284.0498908165888
 30
0.0
 10
235.1763232916963
 20
284.0453271772679
 30
0.0
 10
235.317401338502
 20
284.0397996109635
 30
0.0
 10
235.4058914517988
 20
284.034207288786
 30
0.0
 10
235.4673495232841
 20
284.0285405672485
 30
0.0
 10
235.4927137066157
 20
284.0249931171331
 30
0.0
 10
235.505914684649
 20
284.0231468203123
 30
0.0
  0
SPLINE
  5
1C6
330
1F
100
AcDbEntity
  8
0
  6
Continuous
 62
     8
370
    18
100
AcDbSpline
210
0.0
220
0.0
230
1.0
 70
     8
 71
     3
 72
    14
 73
    10
 74
     0
 42
0.00000001
 43
0.00000001
 40
0.0
 40
0.0
 40
0.0
 40
0.0
 40
0.0114303239176392
 40
0.0916169336967596
 40
0.1722559002904224
 40
0.3122859731964826
 40
0.4999281192765749
 40
0.7790041000264069
 40
1.0
 40
1.0
 40
1.0
 40
1.0
 10
223.597672218899
 20
281.0508458128893
 30
0.0
 10
223.5973621736848
 20
281.0809119933705
 30
0.0
 10
223.5948770829699
 20
281.3219000251622
 30
0.0
 10
223.5886586498777
 20
281.7455488754651
 30
0.0
 10
223.5788190293031
 20
282.3909864822177
 30
0.0
 10
223.5656542382364
 20
283.0856662794343
 30
0.0
 10
223.5468623766346
 20
283.7539095974003
 30
0.0
 10
223.5266913350313
 20
284.0557215935398
 30
0.0
 10
223.5160414703631
 20
284.062155021071
 30
0.0
 10
223.511334994119
 20
284.0649981345552
 30
0.0
  0
SPLINE
  5
1C7
330
1F
100
AcDbEntity
  8
0
  6
Continuous
 62
     8
370
    18
100
AcDbSpline
210
0.0
220
0.0
230
1.0
 70
     8
 71
     3
 72
    25
 73
    21
 74
     0
 42
0.00000001
 43
0.00000001
 40
0.0
 40
0.0
 40
0.0
 40
0.0
 40
0.057281896147123
 40
0.1043502723361333
 40
0.1516654902416389
 40
0.1946544140328108
 40
0.2723200125998958
 40
0.3386148144096616
 40
0.3933619088944383
 40
0.4413983364637541
 40
0.4799127691320427
 40
0.5164912396929443
 40
0.5504339684639109
 40
0.5867459140497735
 40
0.629885609379781
 40
0.6821850617865066
 40
0.7446503159833048
 40
0.8176795993998902
 40
0.9021163091404625
 40
1.0
 40
1.0
 40
1.0
 40
1.0
 10
235.505918442909
 20
248.1173948637201
 30
0.0
 10
235.4909255735374
 20
248.1153586782731
 30
0.0
 10
235.4636131047251
 20
248.1116493648561
 30
0.0
 10
235.4090957627553
 20
248.1066882649403
 30
0.0
 10
235.3437646139837
 20
248.102448162812
 30
0.0
 10
235.24376283236
 20
248.0975927007244
 30
0.0
 10
235.0880522980587
 20
248.0926707496972
 30
0.0
 10
234.8349258726551
 20
248.088072014591
 30
0.0
 10
234.5150127304572
 20
248.0846426263276
 30
0.0
 10
234.1403524532198
 20
248.0821530597095
 30
0.0
 10
233.6999175598534
 20
248.0803114639232
 30
0.0
 10
233.2097644894021
 20
248.0789661235439
 30
0.0
 10
232.639476590661
 20
248.0779305890265
 30
0.0
 10
231.9562321115906
 20
248.0771233630582
 30
0.0
 10
231.1009861803074
 20
248.0764876257712
 30
0.0
 10
230.0324257312726
 20
248.0760338907498
 30
0.0
 10
228.7405360129953
 20
248.0757466215319
 30
0.0
 10
227.2194186183429
 20
248.0755973575788
 30
0.0
 10
225.4514679973024
 20
248.0755443708934
 30
0.0
 10
224.1890817038159
 20
248.0755438449214
 30
0.0
 10
223.511335114349
 20
248.075543562539
 30
0.0
  0
SPLINE
  5
1C8
330
1F
100
AcDbEntity
  8
0
  6
Continuous
 62
     8
370
    18
100
AcDbSpline
210
0.0
220
0.0
230
1.0
 70
     8
 71
     3
 72
    40
 73
    36
 74
     0
 42
0.00000001
 43
0.00000001
 40
0.0000000036077534
 40
0.0000000036077534
 40
0.0000000036077534
 40
0.0000000036077534
 40
0.0012844550477917
 40
0.0325344550477917
 40
0.0637844550477917
 40
0.0765360983810918
 40
0.0950344550477917
 40
0.1262844550477917
 40
0.1575344550477917
 40
0.1887844550477917
 40
0.2200344550477917
 40
0.2512844550477917
 40
0.2825344550477917
 40
0.3137844550477917
 40
0.3450344550477917
 40
0.3535355506033917
 40
0.3762844550477917
 40
0.4075344550477917
 40
0.4615333594921917
 40
0.4700344550477917
 40
0.5012844550477917
 40
0.5325344550477917
 40
0.5637844550477917
 40
0.5950344550477917
 40
0.6262844550477917
 40
0.6575344550477917
 40
0.6887844550477917
 40
0.7200344550477917
 40
0.7385328117144917
 40
0.7512844550477917
 40
0.7825344550477917
 40
0.8137844550477917
 40
0.8450344550477917
 40
0.8762844550477917
 40
0.9075344514400383
 40
0.9075344514400383
 40
0.9075344514400383
 40
0.9075344514400383
 10
223.5976724004991
 20
251.0894791995518
 30
0.0
 10
223.5976339934807
 20
251.0857360124384
 30
0.0
 10
223.5966594800042
 20
250.9910097620325
 30
0.0
 10
223.5946650063327
 20
250.8096143160352
 30
0.0
 10
223.5921075420946
 20
250.6062409205609
 30
0.0
 10
223.5899005943292
 20
250.4437010111599
 30
0.0
 10
223.5876454323692
 20
250.2857304203487
 30
0.0
 10
223.5846551236148
 20
250.0905649543613
 30
0.0
 10
223.5811737370042
 20
249.8789032789288
 30
0.0
 10
223.5777501398657
 20
249.6817976810651
 30
0.0
 10
223.5743710886782
 20
249.4988344278017
 30
0.0
 10
223.5710233399054
 20
249.329599786147
 30
0.0
 10
223.5676936500107
 20
249.1736800231262
 30
0.0
 10
223.5643687754762
 20
249.0306614057521
 30
0.0
 10
223.5618622414635
 20
248.931754679033
 30
0.0
 10
223.5596667029878
 20
248.8497541192271
 30
0.0
 10
223.5574806658941
 20
248.7716910337169
 30
0.0
 10
223.5537392325357
 20
248.6482102900819
 30
0.0
 10
223.5505549714482
 20
248.5560023773385
 30
0.0
 10
223.547425895258
 20
248.4737727252427
 30
0.0
 10
223.5450833300057
 20
248.4162266000095
 30
0.0
 10
223.5420516313753
 20
248.3494803051921
 30
0.0
 10
223.5390862715621
 20
248.2913895841648
 30
0.0
 10
223.5361837103388
 20
248.2415654371291
 30
0.0
 10
223.5333404074602
 20
248.1996188643174
 30
0.0
 10
223.5305528226988
 20
248.1651608659506
 30
0.0
 10
223.5278174158333
 20
248.1378024422539
 30
0.0
 10
223.5255112515459
 20
248.1195831264644
 30
0.0
 10
223.523774317396
 20
248.1084125595895
 30
0.0
 10
223.5220668744005
 20
248.0988924922643
 30
0.0
 10
223.5200643047644
 20
248.0900371094389
 30
0.0
 10
223.5176777168822
 20
248.082789403589
 30
0.0
 10
223.5154134301113
 20
248.0784974062479
 30
0.0
 10
223.5132854922488
 20
248.076332319121
 30
0.0
 10
223.5119671314023
 20
248.0757543354602
 30
0.0
 10
223.5113353583943
 20
248.0755435625377
 30
0.0
  0
SPLINE
  5
1C9
330
1F
100
AcDbEntity
  8
0
  6
Continuous
 62
     8
370
    18
100
AcDbSpline
210
0.0
220
0.0
230
1.0
 70
     8
 71
     3
 72
    18
 73
    14
 74
     0
 42
0.00000001
 43
0.00000001
 40
0.0
 40
0.0
 40
0.0
 40
0.0
 40
0.2500000000000005
 40
0.2500000000000005
 40
0.500000000000001
 40
0.500000000000001
 40
0.7500000000000016
 40
0.7500000000000016
 40
0.8750000000000012
 40
0.8750000000000012
 40
0.9375000000000006
 40
0.9375000000000006
 40
1.0
 40
1.0
 40
1.0
 40
1.0
 10
223.597672400499
 20
251.089479199496
 30
0.0
 10
223.6018947396599
 20
251.5016455383995
 30
0.0
 10
223.6051992566058
 20
251.9561189539492
 30
0.0
 10
223.6120668173958
 20
252.9152157488745
 30
0.0
 10
223.6153064758178
 20
253.419515160173
 30
0.0
 10
223.6172602076653
 20
254.4526829344159
 30
0.0
 10
223.6181314116808
 20
254.9821288193869
 30
0.0
 10
223.622633068008
 20
255.7855222846176
 30
0.0
 10
223.6232404578622
 20
256.0546335566276
 30
0.0
 10
223.6223962609226
 20
256.4593104722236
 30
0.0
 10
223.6223005551367
 20
256.5944740163407
 30
0.0
 10
223.6234284058319
 20
256.8653828087956
 30
0.0
 10
223.6252917476468
 20
257.001264724047
 30
0.0
 10
223.6210281987062
 20
257.13589477455
 30
0.0
  0
SPLINE
  5
1CA
330
1F
100
AcDbEntity
  8
0
  6
Continuous
 62
     8
370
    18
100
AcDbSpline
210
0.0
220
0.0
230
1.0
 70
     8
 71
     3
 72
    23
 73
    19
 74
     0
 42
0.00000001
 43
0.00000001
 40
0.0
 40
0.0
 40
0.0
 40
0.0
 40
0.0239206345452688
 40
0.0624208051808808
 40
0.0880731176244818
 40
0.1248940812753209
 40
0.1864713290149026
 40
0.2498769925742672
 40
0.3497780720716767
 40
0.4998436439068137
 40
0.5458977806530666
 40
0.5969270649508295
 40
0.6527871124269934
 40
0.7133130162998731
 40
0.7783441184350487
 40
0.8477972788600434
 40
0.9216590574477623
 40
1.0
 40
1.0
 40
1.0
 40
1.0
 10
223.621028198709
 20
275.0046466764248
 30
0.0
 10
223.6219179248544
 20
275.0565706289255
 30
0.0
 10
223.6242396618585
 20
275.1920659861721
 30
0.0
 10
223.6228719472912
 20
275.383034522665
 30
0.0
 10
223.6223998310911
 20
275.6016849677238
 30
0.0
 10
223.6228648166426
 20
275.8699194717522
 30
0.0
 10
223.6230203072168
 20
276.2188634534198
 30
0.0
 10
223.6207897345827
 20
276.7017240101173
 30
0.0
 10
223.6180267511377
 20
277.3696694092581
 30
0.0
 10
223.6168886464565
 20
277.9910014988801
 30
0.0
 10
223.6155617728864
 20
278.4994177341845
 30
0.0
 10
223.6142989293973
 20
278.810530417132
 30
0.0
 10
223.6126257356064
 20
279.1461883637642
 30
0.0
 10
223.6105061595166
 20
279.5031725235963
 30
0.0
 10
223.607949409734
 20
279.8777986572209
 30
0.0
 10
223.6049482212663
 20
280.2654656753528
 30
0.0
 10
223.6015182104136
 20
280.6635277448598
 30
0.0
 10
223.5989791236106
 20
280.91923142787
 30
0.0
 10
223.597672218899
 20
281.0508458128893
 30
0.0
  0
SPLINE
  5
1CB
330
1F
100
AcDbEntity
  8
0
  6
Continuous
 62
     8
370
    18
100
AcDbSpline
210
0.0
220
0.0
230
1.0
 70
     8
 71
     3
 72
     8
 73
     4
 74
     0
 42
0.00000001
 43
0.00000001
 40
0.0
 40
0.0
 40
0.0
 40
0.0
 40
1.0
 40
1.0
 40
1.0
 40
1.0
 10
223.621099159589
 20
266.0702708485456
 30
0.0
 10
223.6210755059624
 20
269.0521877607858
 30
0.0
 10
223.6210518523357
 20
272.0341017791316
 30
0.0
 10
223.621028198709
 20
275.0046466765381
 30
0.0
  0
SPLINE
  5
1CC
330
1F
100
AcDbEntity
  8
0
  6
Continuous
 62
     8
370
    18
100
AcDbSpline
210
0.0
220
0.0
230
1.0
 70
     8
 71
     3
 72
     8
 73
     4
 74
     0
 42
0.00000001
 43
0.00000001
 40
0.0
 40
0.0
 40
0.0
 40
0.0
 40
1.0
 40
1.0
 40
1.0
 40
1.0
 10
223.621028198709
 20
257.1358950205531
 30
0.0
 10
223.6210518523357
 20
260.1064399179596
 30
0.0
 10
223.6210755059624
 20
263.0883539363062
 30
0.0
 10
223.621099159589
 20
266.0702708485456
 30
0.0
  0
LINE
  5
1CD
330
1F
100
AcDbEntity
  8
0
  6
Continuous
 62
     8
370
    18
100
AcDbLine
 10
206.0740982106
 20
275.0044202338
 30
0.0
 11
206.0740982106
 21
257.1361214632
 31
0.0
  0
ARC
  5
1CE
330
1F
100
AcDbEntity
  8
0
  6
Continuous
 62
     8
370
    18
100
AcDbCircle
 10
205.9500497592
 20
258.6015209698
 30
0.0
 40
1.470640585670709
100
AcDbArc
 50
255.1886098727
 51
274.8386451745
  0
ARC
  5
1CF
330
1F
100
AcDbEntity
  8
0
  6
Continuous
 62
     8
370
    18
100
AcDbCircle
 10
205.9500497592
 20
273.5390207273
 30
0.0
 40
1.470640585583419
100
AcDbArc
 50
85.1613548251
 51
104.811390128
  0
LINE
  5
1D0
330
1F
100
AcDbEntity
  8
0
  6
Continuous
 62
     8
370
    18
100
AcDbLine
 10
202.5740982106
 20
284.0649981346
 30
0.0
 11
198.0635179617
 21
284.0649982087
 31
0.0
  0
SPLINE
  5
1D1
330
1F
100
AcDbEntity
  8
0
  6
Continuous
 62
     8
370
    18
100
AcDbSpline
210
0.0
220
0.0
230
1.0
 70
    24
 71
     3
 72
    15
 73
    11
 74
     0
 42
0.00000001
 43
0.00000001
 40
0.0
 40
0.0
 40
0.0
 40
0.0
 40
0.1250000000000001
 40
0.2500000000000002
 40
0.3750000000000003
 40
0.5000000000000004
 40
0.6250000000000003
 40
0.7500000000000002
 40
0.8750000000000001
 40
1.0
 40
1.0
 40
1.0
 40
1.0
 10
202.574098210599
 20
272.0650165397848
 30
0.0
 10
202.574098210599
 20
272.9047735815006
 30
0.0
 10
202.574098210599
 20
274.594408266539
 30
0.0
 10
202.574098210599
 20
277.1697341090664
 30
0.0
 10
202.574098210599
 20
279.5666876171371
 30
0.0
 10
202.574098210599
 20
281.5133299948574
 30
0.0
 10
202.574098210599
 20
282.8889067126875
 30
0.0
 10
202.574098210599
 20
283.7163807504572
 30
0.0
 10
202.574098210599
 20
284.054914858437
 30
0.0
 10
202.574098210599
 20
284.0635250564828
 30
0.0
 10
202.574098210599
 20
284.064998134624
 30
0.0
  0
LINE
  5
1D2
330
1F
100
AcDbEntity
  8
0
  6
Continuous
 62
     8
370
    18
100
AcDbLine
 10
202.5740982106
 20
272.0650165398
 30
0.0
 11
198.0635039865
 21
272.0649921708
 31
0.0
  0
LINE
  5
1D3
330
1F
100
AcDbEntity
  8
0
  6
Continuous
 62
     8
370
    18
100
AcDbLine
 10
202.5740982106
 20
260.0755251573
 30
0.0
 11
202.5740982106
 21
272.0650165398
 31
0.0
  0
LINE
  5
1D4
330
1F
100
AcDbEntity
  8
0
  6
Continuous
 62
     8
370
    18
100
AcDbLine
 10
198.0635039865
 20
260.0755550427
 30
0.0
 11
202.5740982106
 21
260.0755251573
 31
0.0
  0
LINE
  5
1D5
330
1F
100
AcDbEntity
  8
0
  6
Continuous
 62
     8
370
    18
100
AcDbLine
 10
206.0829885471
 20
284.0649981346
 30
0.0
 11
223.5113349941
 21
284.0649981346
 31
0.0
  0
SPLINE
  5
1D6
330
1F
100
AcDbEntity
  8
0
  6
Continuous
 62
     8
370
    18
100
AcDbSpline
210
0.0
220
0.0
230
1.0
 70
     8
 71
     3
 72
     8
 73
     4
 74
     0
 42
0.00000001
 43
0.00000001
 40
0.0
 40
0.0
 40
0.0
 40
0.0
 40
1.0
 40
1.0
 40
1.0
 40
1.0
 10
236.6061833575597
 20
284.0649981346314
 30
0.0
 10
236.6052735658798
 20
284.0790219310695
 30
0.0
 10
236.6052996489402
 20
284.0650710604929
 30
0.0
 10
236.6062550705672
 20
284.0231460746561
 30
0.0
  0
LINE
  5
1D7
330
1F
100
AcDbEntity
  8
0
  6
Continuous
 62
     8
370
    18
100
AcDbLine
 10
223.5113351143
 20
248.0755435625
 30
0.0
 11
206.0829885471
 21
248.0755435625
 31
0.0
  0
SPLINE
  5
1D8
330
1F
100
AcDbEntity
  8
0
  6
Continuous
 62
     8
370
    18
100
AcDbSpline
210
0.0
220
0.0
230
1.0
 70
     8
 71
     3
 72
     8
 73
     4
 74
     0
 42
0.00000001
 43
0.00000001
 40
0.0
 40
0.0
 40
0.0
 40
0.0
 40
1.0
 40
1.0
 40
1.0
 40
1.0
 10
236.6075012026798
 20
248.1173948523753
 30
0.0
 10
236.6061544253147
 20
248.0754703154801
 30
0.0
 10
236.6057368692971
 20
248.0615197620532
 30
0.0
 10
236.6062550712396
 20
248.0755435650302
 30
0.0
  0
LINE
  5
1D9
330
1F
100
AcDbEntity
  8
0
  6
Continuous
 62
     8
370
    18
100
AcDbLine
 10
202.5740982106
 20
248.0755435625
 30
0.0
 11
198.0635126796
 21
248.0755435131
 31
0.0
  0
SPLINE
  5
1DA
330
1F
100
AcDbEntity
  8
0
  6
Continuous
 62
     8
370
    18
100
AcDbSpline
210
0.0
220
0.0
230
1.0
 70
    24
 71
     3
 72
    22
 73
    18
 74
     0
 42
0.00000001
 43
0.00000001
 40
0.0
 40
0.0
 40
0.0
 40
0.0
 40
0.1250000000000002
 40
0.1250000000000002
 40
0.2500000000000003
 40
0.2500000000000003
 40
0.3750000000000003
 40
0.3750000000000003
 40
0.5000000000000003
 40
0.5000000000000003
 40
0.6250000000000003
 40
0.6250000000000003
 40
0.7500000000000002
 40
0.7500000000000002
 40
0.8750000000000001
 40
0.8750000000000001
 40
1.0
 40
1.0
 40
1.0
 40
1.0
 10
202.574098210599
 20
260.0755251573062
 30
0.0
 10
202.5740982105991
 20
259.2646674935552
 30
0.0
 10
202.574098210599
 20
258.4465682231702
 30
0.0
 10
202.574098210599
 20
256.803429491682
 30
0.0
 10
202.574098210599
 20
255.9801629274708
 30
0.0
 10
202.574098210599
 20
254.3555360414436
 30
0.0
 10
202.574098210599
 20
253.5544301879882
 30
0.0
 10
202.574098210599
 20
252.0376049573354
 30
0.0
 10
202.574098210599
 20
251.324924440249
 30
0.0
 10
202.574098210599
 20
250.119949731475
 30
0.0
 10
202.5740982105991
 20
249.6367311694868
 30
0.0
 10
202.574098210599
 20
248.9028044949597
 30
0.0
 10
202.574098210599
 20
248.6460718619454
 30
0.0
 10
202.574098210599
 20
248.2880993970644
 30
0.0
 10
202.574098210599
 20
248.1870654541572
 30
0.0
 10
202.574098210599
 20
248.0810892258101
 30
0.0
 10
202.574098210599
 20
248.0769519116009
 30
0.0
 10
202.574098210599
 20
248.0755435624673
 30
0.0
  0
LINE
  5
1DB
330
1F
100
AcDbEntity
  8
0
  6
Continuous
 62
     8
370
    18
100
AcDbLine
 10
203.0740982106
 20
272.0650165398
 30
0.0
 11
202.5740982106
 21
272.0650165398
 31
0.0
  0
LINE
  5
1DC
330
1F
100
AcDbEntity
  8
0
  6
Continuous
 62
     8
370
    18
100
AcDbLine
 10
203.0740982106
 20
260.0755251573
 30
0.0
 11
202.5740982106
 21
260.0755251573
 31
0.0
  0
ARC
  5
1DD
330
1F
100
AcDbEntity
  8
0
  6
Continuous
 62
     8
370
    18
100
AcDbCircle
 10
202.574098594
 20
248.575543179
 30
0.0
 40
0.4999996165596818
100
AcDbArc
 50
269.9999560621
 51
359.999956061
  0
ARC
  5
1DE
330
1F
100
AcDbEntity
  8
0
  6
Continuous
 62
     8
370
    18
100
AcDbCircle
 10
202.574098594
 20
283.5649985181
 30
0.0
 40
0.4999996165649683
100
AcDbArc
 50
0.0000439392
 51
90.0000439392
  0
SPLINE
  5
1DF
330
1F
100
AcDbEntity
  8
0
  6
Continuous
 62
     8
370
    18
100
AcDbSpline
210
0.0
220
0.0
230
1.0
 70
    24
 71
     3
 72
    22
 73
    18
 74
     0
 42
0.00000001
 43
0.00000001
 40
0.0
 40
0.0
 40
0.0
 40
0.0
 40
0.125
 40
0.125
 40
0.25
 40
0.25
 40
0.375
 40
0.375
 40
0.5
 40
0.5
 40
0.625
 40
0.625
 40
0.75
 40
0.75
 40
0.875
 40
0.875
 40
1.0
 40
1.0
 40
1.0
 40
1.0
 10
206.074098210599
 20
284.0612444624888
 30
0.0
 10
206.074098210599
 20
284.0545295234301
 30
0.0
 10
206.074098210599
 20
284.0349793046989
 30
0.0
 10
206.074098210599
 20
283.9159719995876
 30
0.0
 10
206.074098210599
 20
283.8179821814996
 30
0.0
 10
206.074098210599
 20
283.5154110785867
 30
0.0
 10
206.074098210599
 20
283.3102689847228
 30
0.0
 10
206.074098210599
 20
282.7812890588524
 30
0.0
 10
206.074098210599
 20
282.4570115713632
 30
0.0
 10
206.074098210599
 20
281.6833535931698
 30
0.0
 10
206.074098210599
 20
281.2326054819015
 30
0.0
 10
206.074098210599
 20
280.2114230892039
 30
0.0
 10
206.074098210599
 20
279.6420035111797
 30
0.0
 10
206.074098210599
 20
278.4119011401827
 30
0.0
 10
206.074098210599
 20
277.7531674288608
 30
0.0
 10
206.074098210599
 20
276.397624088016
 30
0.0
 10
206.074098210599
 20
275.7006720079385
 30
0.0
 10
206.074098210599
 20
275.0044202338478
 30
0.0
  0
SPLINE
  5
1E0
330
1F
100
AcDbEntity
  8
0
  6
Continuous
 62
     8
370
    18
100
AcDbSpline
210
0.0
220
0.0
230
1.0
 70
     8
 71
     3
 72
     9
 73
     5
 74
     0
 42
0.00000001
 43
0.00000001
 40
0.0
 40
0.0
 40
0.0
 40
0.0
 40
0.4990491843294651
 40
1.0
 40
1.0
 40
1.0
 40
1.0
 10
206.082988547136
 20
284.0649981346302
 30
0.0
 10
206.0803955349867
 20
284.0647665909185
 30
0.0
 10
206.0751996299924
 20
284.0643026211957
 30
0.0
 10
206.074465815545
 20
284.062265140237
 30
0.0
 10
206.074098210599
 20
284.0612444624888
 30
0.0
  0
SPLINE
  5
1E1
330
1F
100
AcDbEntity
  8
0
  6
Continuous
 62
     8
370
    18
100
AcDbSpline
210
0.0
220
0.0
230
1.0
 70
     8
 71
     3
 72
     8
 73
     4
 74
     0
 42
0.00000001
 43
0.00000001
 40
0.0
 40
0.0
 40
0.0
 40
0.0
 40
1.0
 40
1.0
 40
1.0
 40
1.0
 10
206.0829885471355
 20
248.0755435624601
 30
0.0
 10
206.077054457653
 20
248.0760018931003
 30
0.0
 10
206.0740982107642
 20
248.0767338616227
 30
0.0
 10
206.074098210599
 20
248.0792972346063
 30
0.0
  0
SPLINE
  5
1E2
330
1F
100
AcDbEntity
  8
0
  6
Continuous
 62
     8
370
    18
100
AcDbSpline
210
0.0
220
0.0
230
1.0
 70
    24
 71
     3
 72
    24
 73
    20
 74
     0
 42
0.00000001
 43
0.00000001
 40
0.0
 40
0.0
 40
0.0
 40
0.0
 40
0.1249999999999995
 40
0.1249999999999995
 40
0.2499999999999989
 40
0.2499999999999989
 40
0.3749999999999984
 40
0.3749999999999984
 40
0.4999999999999979
 40
0.4999999999999979
 40
0.5624999999999986
 40
0.5624999999999986
 40
0.6249999999999989
 40
0.6249999999999989
 40
0.7499999999999992
 40
0.7499999999999992
 40
0.8749999999999997
 40
0.8749999999999997
 40
1.0
 40
1.0
 40
1.0
 40
1.0
 10
206.074098210599
 20
248.0792972346018
 30
0.0
 10
206.074098210599
 20
248.0857477516952
 30
0.0
 10
206.074098210599
 20
248.1040256657415
 30
0.0
 10
206.074098210599
 20
248.2114260198199
 30
0.0
 10
206.074098210599
 20
248.2992581834241
 30
0.0
 10
206.074098210599
 20
248.5746167060202
 30
0.0
 10
206.074098210599
 20
248.7627097242928
 30
0.0
 10
206.074098210599
 20
249.2712400822291
 30
0.0
 10
206.074098210599
 20
249.5945368659179
 30
0.0
 10
206.074098210599
 20
250.200462693596
 30
0.0
 10
206.074098210599
 20
250.4225038156256
 30
0.0
 10
206.074098210599
 20
250.9044156209844
 30
0.0
 10
206.074098210599
 20
251.1640175173293
 30
0.0
 10
206.074098210599
 20
251.9849756183275
 30
0.0
 10
206.074098210599
 20
252.5878991003899
 30
0.0
 10
206.074098210599
 20
253.8407745650001
 30
0.0
 10
206.074098210599
 20
254.4902952632459
 30
0.0
 10
206.074098210599
 20
255.8056330909568
 30
0.0
 10
206.074098210599
 20
256.4707691983742
 30
0.0
 10
206.074098210599
 20
257.1361214632423
 30
0.0
  0
LINE
  5
1E3
330
1F
100
AcDbEntity
  8
0
  6
Continuous
 62
     8
370
    18
100
AcDbLine
 10
203.4860028919
 20
282.5471655843
 30
0.0
 11
203.4860028919
 21
249.5933761127
 31
0.0
  0
LINE
  5
1E4
330
1F
100
AcDbEntity
  8
0
  6
Continuous
 62
     8
370
    18
100
AcDbLine
 10
203.4369198473
 20
282.5512561723
 30
0.0
 11
203.4369198473
 21
249.5892855248
 31
0.0
  0
LINE
  5
1E5
330
1F
100
AcDbEntity
  8
0
  6
Continuous
 62
     8
370
    18
100
AcDbLine
 10
198.0635126796
 20
248.0755435131
 30
0.0
 11
198.0635126796
 21
248.0755435017
 31
0.0
  0
LINE
  5
1E6
330
1F
100
AcDbEntity
  8
0
  6
Continuous
 62
     8
370
    18
100
AcDbLine
 10
202.5740982106
 20
248.0702708485
 30
0.0
 11
202.5740982106
 21
248.0755435625
 31
0.0
  0
LINE
  5
1E7
330
1F
100
AcDbEntity
  8
0
  6
Continuous
 62
     8
370
    18
100
AcDbLine
 10
198.0635189384
 20
284.0649982087
 30
0.0
 11
198.0635189384
 21
284.0649981957
 31
0.0
  0
LINE
  5
1E8
330
1F
100
AcDbEntity
  8
0
  6
Continuous
 62
     8
370
    18
100
AcDbLine
 10
202.5740982106
 20
284.0649981346
 30
0.0
 11
202.5740982106
 21
284.0702708485
 31
0.0
  0
SPLINE
  5
1E9
330
1F
100
AcDbEntity
  8
0
  6
Continuous
 62
     8
370
    18
100
AcDbSpline
210
0.0
220
0.0
230
1.0
 70
     8
 71
     3
 72
    21
 73
    17
 74
     0
 42
0.00000001
 43
0.00000001
 40
-0.0000000000000028
 40
-0.0000000000000028
 40
-0.0000000000000028
 40
-0.0000000000000028
 40
0.003329183646551
 40
0.006658367293102
 40
0.008322959116377
 40
0.009987550939653
 40
0.01165214276293
 40
0.0133167345862
 40
0.01414903049784
 40
0.01498132640948
 40
0.01664591823275
 40
0.01747821414439
 40
0.01831051005603
 40
0.01997510187931
 40
0.02330428552586
 40
0.0266334691724108
 40
0.0266334691724108
 40
0.0266334691724108
 40
0.0266334691724108
 10
162.0688254966817
 20
289.0702708485449
 30
0.0
 10
160.9552888242672
 20
289.0702708531859
 30
0.0
 10
158.7301125964592
 20
289.063082893681
 30
0.0
 10
155.9690178445424
 20
288.7418787158887
 30
0.0
 10
153.7962925063282
 20
288.1724568285608
 30
0.0
 10
152.2432785163573
 20
287.5684382593634
 30
0.0
 10
150.768206842856
 20
286.7346567703208
 30
0.0
 10
149.698961392637
 20
285.8548335881957
 30
0.0
 10
148.9384502357493
 20
285.0199346563858
 30
0.0
 10
148.2676251360293
 20
284.1282004146941
 30
0.0
 10
147.7179619374377
 20
283.1592656424211
 30
0.0
 10
147.2716020657768
 20
282.1258272420069
 30
0.0
 10
146.8974925894361
 20
281.0779884105398
 30
0.0
 10
146.4041127371759
 20
279.2024943917687
 30
0.0
 10
146.0749180587756
 20
276.4190666649322
 30
0.0
 10
146.0688254920257
 20
274.1870702512294
 30
0.0
 10
146.068825496679
 20
273.0702708485443
 30
0.0
  0
LINE
  5
1EA
330
1F
100
AcDbEntity
  8
0
  6
Continuous
 62
     8
370
    18
100
AcDbLine
 10
162.0688254967
 20
289.0702708485
 30
0.0
 11
176.0688254967
 21
289.0702708485
 31
0.0
  0
SPLINE
  5
1EB
330
1F
100
AcDbEntity
  8
0
  6
Continuous
 62
     8
370
    18
100
AcDbSpline
210
0.0
220
0.0
230
1.0
 70
     8
 71
     3
 72
    14
 73
    10
 74
     0
 42
0.00000001
 43
0.00000001
 40
0.0
 40
0.0
 40
0.0
 40
0.0
 40
0.1093747194254833
 40
0.218570377538573
 40
0.3322975932453057
 40
0.4371029934800756
 40
0.6698531801603971
 40
0.8742638921663628
 40
1.0
 40
1.0
 40
1.0
 40
1.0
 10
176.068825496679
 20
289.0702708485467
 30
0.0
 10
176.6252389229919
 20
289.0697306063472
 30
0.0
 10
177.7371548510561
 20
289.0686510063982
 30
0.0
 10
179.4273970639832
 20
289.0157846570081
 30
0.0
 10
181.0889760570913
 20
288.8663343531452
 30
0.0
 10
183.3577184763413
 20
288.4916804722614
 30
0.0
 10
185.9874120837765
 20
287.6348548510056
 30
0.0
 10
188.488437573747
 20
286.0497809708322
 30
0.0
 10
189.3889975334448
 20
284.6164936911798
 30
0.0
 10
189.7319749525768
 20
284.0706275700446
 30
0.0
  0
SPLINE
  5
1EC
330
1F
100
AcDbEntity
  8
0
  6
Continuous
 62
     8
370
    18
100
AcDbSpline
210
0.0
220
0.0
230
1.0
 70
     8
 71
     3
 72
    14
 73
    10
 74
     0
 42
0.00000001
 43
0.00000001
 40
0.0
 40
0.0
 40
0.0
 40
0.0
 40
0.168724013123163
 40
0.4458925176036458
 40
0.5457274818750469
 40
0.6506358002853347
 40
0.7613602956378084
 40
0.9037202653334419
 40
1.0
 40
1.0
 40
1.0
 40
1.0
 10
189.7316169450537
 20
248.0699141357433
 30
0.0
 10
189.3931893555549
 20
247.5285954989141
 30
0.0
 10
188.4988155962135
 20
246.0980348731109
 30
0.0
 10
186.6981336182068
 20
244.9646520492926
 30
0.0
 10
185.0484911782011
 20
244.2330548390482
 30
0.0
 10
183.9226197628924
 20
243.8548276826352
 30
0.0
 10
182.617573340289
 20
243.5304775997295
 30
0.0
 10
181.3227704541934
 20
243.303669782035
 30
0.0
 10
180.4292987141968
 20
243.2311215511923
 30
0.0
 10
180.068825496679
 20
243.2018518014886
 30
0.0
  0
SPLINE
  5
1ED
330
1F
100
AcDbEntity
  8
0
  6
Continuous
 62
     8
370
    18
100
AcDbSpline
210
0.0
220
0.0
230
1.0
 70
     8
 71
     3
 72
    21
 73
    17
 74
     0
 42
0.00000001
 43
0.00000001
 40
0.0
 40
0.0
 40
0.0
 40
0.0
 40
0.0477076164577185
 40
0.1183076005970132
 40
0.1923352612984709
 40
0.2680685071066533
 40
0.3419911835767269
 40
0.4124900455490382
 40
0.5497463592533735
 40
0.5992934040469645
 40
0.6514052287367841
 40
0.706447440919081
 40
0.7768102998114297
 40
0.8532110601454023
 40
0.926545403361524
 40
0.9999999999999999
 40
0.9999999999999999
 40
0.9999999999999999
 40
0.9999999999999999
 10
158.068825496679
 20
243.2018407008128
 30
0.0
 10
157.7085231060677
 20
243.2311179430664
 30
0.0
 10
156.8150282201857
 20
243.3037210312167
 30
0.0
 10
155.3774105889955
 20
243.5549749695629
 30
0.0
 10
153.7601184894023
 20
243.9776214496009
 30
0.0
 10
152.1790051880778
 20
244.6011939748254
 30
0.0
 10
150.7276913853281
 20
245.4372400667118
 30
0.0
 10
149.0775234607448
 20
246.8063304227139
 30
0.0
 10
147.9498587152115
 20
248.4477628487916
 30
0.0
 10
147.226952830262
 20
250.107107991163
 30
0.0
 10
146.8489302632283
 20
251.2341728828777
 30
0.0
 10
146.5231929717478
 20
252.5399642133311
 30
0.0
 10
146.2724717470697
 20
254.049724838902
 30
0.0
 10
146.1233922775353
 20
255.7115823169046
 30
0.0
 10
146.0704240245355
 20
257.4019271092361
 30
0.0
 10
146.069358630231
 20
258.5138526290761
 30
0.0
 10
146.068825496679
 20
259.0702708485467
 30
0.0
  0
LINE
  5
1EE
330
1F
100
AcDbEntity
  8
0
  6
Continuous
 62
     8
370
    18
100
AcDbLine
 10
146.0688254967
 20
259.0702708485
 30
0.0
 11
146.0688254967
 21
273.0702708485
 31
0.0
  0
SPLINE
  5
1EF
330
1F
100
AcDbEntity
  8
0
  6
Continuous
 62
     8
370
    18
100
AcDbSpline
210
0.0
220
0.0
230
1.0
 70
    24
 71
     3
 72
    11
 73
     7
 74
     0
 42
0.00000001
 43
0.00000001
 40
0.0000000000001538
 40
0.0000000000001538
 40
0.0000000000001538
 40
0.0000000000001538
 40
0.250002097784
 40
0.5000041955681
 40
0.7500062933521
 40
1.00000000000319
 40
1.00000000000319
 40
1.00000000000319
 40
1.00000000000319
 10
162.0688254966792
 20
290.0702708485451
 30
0.0
 10
162.068825496679
 20
290.070270848547
 30
0.0
 10
162.0688254966787
 20
290.0275566957616
 30
0.0
 10
162.0688254966791
 20
289.7984928289762
 30
0.0
 10
162.0688254966794
 20
289.4427122546846
 30
0.0
 10
162.0688254966792
 20
289.188119066896
 30
0.0
 10
162.068825496679
 20
289.0702708485467
 30
0.0
  0
SPLINE
  5
1F0
330
1F
100
AcDbEntity
  8
0
  6
Continuous
 62
     8
370
    18
100
AcDbSpline
210
0.0
220
0.0
230
1.0
 70
    24
 71
     3
 72
    11
 73
     7
 74
     0
 42
0.00000001
 43
0.00000001
 40
-0.0000000000050948
 40
-0.0000000000050948
 40
-0.0000000000050948
 40
-0.0000000000050948
 40
0.2499909503167
 40
0.4999939668778
 40
0.7499969834389
 40
0.99999999999989
 40
0.99999999999989
 40
0.99999999999989
 40
0.99999999999989
 10
176.0688254966794
 20
289.0702708485467
 30
0.0
 10
176.0688254966794
 20
289.1881177915778
 30
0.0
 10
176.0688254966793
 20
289.442709766048
 30
0.0
 10
176.0688254966795
 20
289.7984907386817
 30
0.0
 10
176.0688254966792
 20
290.0275563719015
 30
0.0
 10
176.068825496679
 20
290.0702708485462
 30
0.0
 10
176.068825496679
 20
290.0702708485451
 30
0.0
  0
SPLINE
  5
1F1
330
1F
100
AcDbEntity
  8
0
  6
Continuous
 62
     8
370
    18
100
AcDbSpline
210
0.0
220
0.0
230
1.0
 70
    24
 71
     3
 72
    10
 73
     6
 74
     0
 42
0.00000001
 43
0.00000001
 40
0.0
 40
0.0
 40
0.0
 40
0.0
 40
0.5
 40
0.5
 40
1.0
 40
1.0
 40
1.0
 40
1.0
 10
146.068825496679
 20
259.0702708485467
 30
0.0
 10
145.8070261088799
 20
259.0702708485467
 30
0.0
 10
145.5468388379157
 20
259.0702708485467
 30
0.0
 10
145.1765985930692
 20
259.0702708485467
 30
0.0
 10
145.068825496679
 20
259.0702708485467
 30
0.0
 10
145.068825496679
 20
259.0702708485467
 30
0.0
  0
SPLINE
  5
1F2
330
1F
100
AcDbEntity
  8
0
  6
Continuous
 62
     8
370
    18
100
AcDbSpline
210
0.0
220
0.0
230
1.0
 70
    24
 71
     3
 72
    11
 73
     7
 74
     0
 42
0.00000001
 43
0.00000001
 40
0.0000000000001482
 40
0.0000000000001482
 40
0.0000000000001482
 40
0.0000000000001482
 40
0.2499937066525421
 40
0.4999958044365421
 40
0.7499979022206421
 40
1.000000000004494
 40
1.000000000004494
 40
1.000000000004494
 40
1.000000000004494
 10
146.068825496679
 20
273.0702708485466
 30
0.0
 10
145.9509772783303
 20
273.0702708485466
 30
0.0
 10
145.696384090543
 20
273.0702708485463
 30
0.0
 10
145.340603516251
 20
273.0702708485462
 30
0.0
 10
145.1115396494627
 20
273.0702708485466
 30
0.0
 10
145.0688254966794
 20
273.0702708485467
 30
0.0
 10
145.0688254966787
 20
273.0702708485467
 30
0.0
  0
SPLINE
  5
1F3
330
1F
100
AcDbEntity
  8
0
  6
Continuous
 62
     7
370
    25
100
AcDbSpline
210
0.0
220
0.0
230
1.0
 70
     8
 71
     3
 72
     9
 73
     5
 74
     0
 42
0.00000001
 43
0.00000001
 40
0.0
 40
0.0
 40
0.0
 40
0.0
 40
0.5022163613129449
 40
1.0
 40
1.0
 40
1.0
 40
1.0
 10
379.7671091602645
 20
369.8368293606165
 30
0.0
 10
379.7932818336833
 20
369.8699502366268
 30
0.0
 10
379.8453961721139
 20
369.9358996531765
 30
0.0
 10
379.8512009270518
 20
370.011599676503
 30
0.0
 10
379.8540904390866
 20
370.0492819095632
 30
0.0
  0
SPLINE
  5
1F4
330
1F
100
AcDbEntity
  8
0
  6
Continuous
 62
     7
370
    25
100
AcDbSpline
210
0.0
220
0.0
230
1.0
 70
     8
 71
     3
 72
     9
 73
     5
 74
     0
 42
0.00000001
 43
0.00000001
 40
0.0
 40
0.0
 40
0.0
 40
0.0
 40
0.4977780945704395
 40
1.0
 40
1.0
 40
1.0
 40
1.0
 10
343.8565091223324
 20
370.0492819095632
 30
0.0
 10
343.8594092789423
 20
370.0115347629176
 30
0.0
 10
343.8652354827097
 20
369.9357034897913
 30
0.0
 10
343.9175120794823
 20
369.869699685799
 30
0.0
 10
343.9437665315228
 20
369.8365511295924
 30
0.0
  0
SPLINE
  5
1F5
330
1F
100
AcDbEntity
  8
0
  6
Continuous
 62
     7
370
    25
100
AcDbSpline
210
0.0
220
0.0
230
1.0
 70
     8
 71
     3
 72
     9
 73
     5
 74
     0
 42
0.00000001
 43
0.00000001
 40
0.0
 40
0.0
 40
0.0
 40
0.0
 40
0.5008824355990542
 40
1.0
 40
1.0
 40
1.0
 40
1.0
 10
344.0020017306458
 20
489.6030921092165
 30
0.0
 10
343.9584100962196
 20
489.5478323698688
 30
0.0
 10
343.8713804235297
 20
489.4375076001818
 30
0.0
 10
343.8657391079453
 20
489.3119499420712
 30
0.0
 10
343.8629234282508
 20
489.2492819095632
 30
0.0
  0
SPLINE
  5
1F6
330
1F
100
AcDbEntity
  8
0
  6
Continuous
 62
     7
370
    25
100
AcDbSpline
210
0.0
220
0.0
230
1.0
 70
     8
 71
     3
 72
     9
 73
     5
 74
     0
 42
0.00000001
 43
0.00000001
 40
0.0
 40
0.0
 40
0.0
 40
0.0
 40
0.499116503026009
 40
1.0
 40
1.0
 40
1.0
 40
1.0
 10
379.8476743312561
 20
489.249281909563
 30
0.0
 10
379.8448656889262
 20
489.3119135448824
 30
0.0
 10
379.8392384609886
 20
489.4373985467601
 30
0.0
 10
379.7522985261637
 20
489.5476912470946
 30
0.0
 10
379.7087517475819
 20
489.6029350405288
 30
0.0
  0
ARC
  5
1F7
330
1F
100
AcDbEntity
  8
0
  6
Continuous
 62
     7
370
    25
100
AcDbCircle
 10
542.1130587534
 20
547.8084234401
 30
0.0
 40
0.3000000000080063
100
AcDbArc
 50
285.0000000001
 51
15.0000000096
  0
ARC
  5
1F8
330
1F
100
AcDbEntity
  8
0
  6
Continuous
 62
     7
370
    25
100
AcDbCircle
 10
521.4422460708
 20
542.2696958748
 30
0.0
 40
0.3000000000000815
100
AcDbArc
 50
194.9999999906
 51
285.0000000001
  0
ARC
  5
1F9
330
1F
100
AcDbEntity
  8
0
  6
Continuous
 62
     7
370
    25
100
AcDbCircle
 10
443.0624505324
 20
562.3683573196
 30
0.0
 40
92.20715240684996
100
AcDbArc
 50
15.0000000001
 51
180.0
  0
ARC
  5
1FA
330
1F
100
AcDbEntity
  8
0
  6
Continuous
 62
     7
370
    25
100
AcDbCircle
 10
443.0624505324
 20
562.3683573196
 30
0.0
 40
70.20715240685001
100
AcDbArc
 50
15.0000000001
 51
180.0
  0
LINE
  5
1FB
330
1F
100
AcDbEntity
  8
0
  6
Continuous
 62
     7
370
    25
100
AcDbLine
 10
372.8552981255
 20
490.1492819096
 30
0.0
 11
372.8552981255
 21
562.3683573196
 31
0.0
  0
LINE
  5
1FC
330
1F
100
AcDbEntity
  8
0
  6
Continuous
 62
     7
370
    25
100
AcDbLine
 10
350.8552981255
 20
562.3683573196
 30
0.0
 11
350.8552981255
 21
490.1492819096
 31
0.0
  0
LINE
  5
1FD
330
1F
100
AcDbEntity
  8
0
  6
Continuous
 62
     7
370
    25
100
AcDbLine
 10
542.4028365013
 20
547.8860691537
 30
0.0
 11
532.1277204107
 21
586.2333244573
 31
0.0
  0
LINE
  5
1FE
330
1F
100
AcDbEntity
  8
0
  6
Continuous
 62
     7
370
    25
100
AcDbLine
 10
510.8773522323
 20
580.539305465
 30
0.0
 11
521.1524683229
 21
542.1920501614
 31
0.0
  0
LINE
  5
1FF
330
1F
100
AcDbEntity
  8
0
  6
Continuous
 62
     7
370
    25
100
AcDbLine
 10
351.0552981255
 20
490.1492819096
 30
0.0
 11
351.0552981255
 21
489.7492819096
 31
0.0
  0
LINE
  5
200
330
1F
100
AcDbEntity
  8
0
  6
Continuous
 62
     7
370
    25
100
AcDbLine
 10
372.6552981255
 20
489.7492819096
 30
0.0
 11
372.6552981255
 21
490.1492819096
 31
0.0
  0
ARC
  5
201
330
1F
100
AcDbEntity
  8
0
  6
Continuous
 62
     7
370
    25
100
AcDbCircle
 10
343.6455362211
 20
488.1492819096
 30
0.0
 40
0.1999999999999886
100
AcDbArc
 50
90.0
 51
177.20581768
  0
ARC
  5
202
330
1F
100
AcDbEntity
  8
0
  6
Continuous
 62
     7
370
    25
100
AcDbCircle
 10
343.6455362211
 20
480.7492819096
 30
0.0
 40
0.2000000000000455
100
AcDbArc
 50
182.79418232
 51
270.0
  0
LINE
  5
203
330
1F
100
AcDbEntity
  8
0
  6
Continuous
 62
     7
370
    25
100
AcDbLine
 10
343.8552981255
 20
488.3492819096
 30
0.0
 11
343.6455362211
 21
488.3492819096
 31
0.0
  0
LINE
  5
204
330
1F
100
AcDbEntity
  8
0
  6
Continuous
 62
     7
370
    25
100
AcDbLine
 10
343.6455362211
 20
480.5492819096
 30
0.0
 11
343.8552981255
 21
480.5492819096
 31
0.0
  0
ARC
  5
205
330
1F
100
AcDbEntity
  8
0
  6
Continuous
 62
     7
370
    25
100
AcDbCircle
 10
419.4552981255
 20
484.4492819096
 30
0.0
 40
76.10000000000998
100
AcDbArc
 50
177.2058176799
 51
182.7941823201
  0
LINE
  5
206
330
1F
100
AcDbEntity
  8
0
  6
Continuous
 62
     7
370
    25
100
AcDbLine
 10
337.8552981255
 20
364.9492819096
 30
0.0
 11
337.8552981255
 21
368.7492819096
 31
0.0
  0
LINE
  5
207
330
1F
100
AcDbEntity
  8
0
  6
Continuous
 62
     7
370
    25
100
AcDbLine
 10
354.8552981255
 20
364.7492819097
 30
0.0
 11
368.8552981255
 21
364.7492819097
 31
0.0
  0
LINE
  5
208
330
1F
100
AcDbEntity
  8
0
  6
Continuous
 62
     7
370
    25
100
AcDbLine
 10
385.8552981255
 20
368.7492819096
 30
0.0
 11
385.8552981255
 21
364.9492819096
 31
0.0
  0
LINE
  5
209
330
1F
100
AcDbEntity
  8
0
  6
Continuous
 62
     7
370
    25
100
AcDbLine
 10
368.8552981255
 20
369.7492819096
 30
0.0
 11
354.8552981255
 21
369.7492819096
 31
0.0
  0
SPLINE
  5
20A
330
1F
100
AcDbEntity
  8
0
  6
Continuous
 62
     7
370
    25
100
AcDbSpline
210
0.0
220
0.0
230
1.0
 70
     8
 71
     3
 72
     9
 73
     5
 74
     0
 42
0.00000001
 43
0.00000001
 40
-0.0000000003347869
 40
-0.0000000003347869
 40
-0.0000000003347869
 40
-0.0000000003347869
 40
0.4999685576351
 40
0.9999999999891176
 40
0.9999999999891176
 40
0.9999999999891176
 40
0.9999999999891176
 10
338.0552981255055
 20
364.7492819097386
 30
0.0
 10
338.0081601292172
 20
364.7492828393413
 30
0.0
 10
337.8960295335959
 20
364.7900053181151
 30
0.0
 10
337.8552981255071
 20
364.9021384930671
 30
0.0
 10
337.8552981255052
 20
364.9492819095601
 30
0.0
  0
SPLINE
  5
20B
330
1F
100
AcDbEntity
  8
0
  6
Continuous
 62
     7
370
    25
100
AcDbSpline
210
0.0
220
0.0
230
1.0
 70
    24
 71
     3
 72
    24
 73
    20
 74
     0
 42
0.00000001
 43
0.00000001
 40
-0.0000000000000001
 40
-0.0000000000000001
 40
-0.0000000000000001
 40
-0.0000000000000001
 40
0.0034898015680698
 40
0.0052347023520998
 40
0.0069796031361198
 40
0.0087245039201498
 40
0.0095969543121598
 40
0.0104694047041798
 40
0.0122143054882098
 40
0.0130867558802198
 40
0.0139592062722298
 40
0.0157041070562598
 40
0.0165765574482698
 40
0.0174490078402898
 40
0.0191939086243138
 40
0.0209388094083408
 40
0.0226837101923678
 40
0.0244286109763958
 40
0.02791841254445
 40
0.02791841254445
 40
0.02791841254445
 40
0.02791841254445
 10
354.8552981255249
 20
364.7492819097386
 30
0.0
 10
353.6860417092142
 20
364.7492819097386
 30
0.0
 10
351.9344559828577
 20
364.7492819097386
 30
0.0
 10
349.5997931700742
 20
364.7492819097386
 30
0.0
 10
347.8785404688834
 20
364.7492819097386
 30
0.0
 10
346.4790536394144
 20
364.7492819097386
 30
0.0
 10
345.3851505778878
 20
364.7492819097386
 30
0.0
 10
344.3075922879881
 20
364.7492819097386
 30
0.0
 10
343.2993849238631
 20
364.7492819097386
 30
0.0
 10
342.3700842032545
 20
364.7492819097386
 30
0.0
 10
341.4973247124551
 20
364.7492819097386
 30
0.0
 10
340.7561384764059
 20
364.7492819097386
 30
0.0
 10
340.1291184591518
 20
364.7492819097386
 30
0.0
 10
339.5766770581203
 20
364.7492819097386
 30
0.0
 10
339.0351768526943
 20
364.7492819097386
 30
0.0
 10
338.5753724538698
 20
364.7492819097386
 30
0.0
 10
338.2781559262952
 20
364.7492819097386
 30
0.0
 10
338.0619540399485
 20
364.7492819097386
 30
0.0
 10
338.0552981206352
 20
364.7492819097386
 30
0.0
 10
338.0552981255055
 20
364.7492819097386
 30
0.0
  0
SPLINE
  5
20C
330
1F
100
AcDbEntity
  8
0
  6
Continuous
 62
     7
370
    25
100
AcDbSpline
210
0.0
220
0.0
230
1.0
 70
     8
 71
     3
 72
     9
 73
     5
 74
     0
 42
0.00000001
 43
0.00000001
 40
-0.0000083847452513
 40
-0.0000083847452513
 40
-0.0000083847452513
 40
-0.0000083847452513
 40
0.5000230576096903
 40
0.9999999999889418
 40
0.9999999999889418
 40
0.9999999999889418
 40
0.9999999999889418
 10
385.8552981255045
 20
364.9492819095601
 30
0.0
 10
385.8552981255039
 20
364.902138493067
 30
0.0
 10
385.8145663759092
 20
364.7900043779444
 30
0.0
 10
385.7024342414915
 20
364.7492821564784
 30
0.0
 10
385.6552957540168
 20
364.749281909709
 30
0.0
  0
SPLINE
  5
20D
330
1F
100
AcDbEntity
  8
0
  6
Continuous
 62
     7
370
    25
100
AcDbSpline
210
0.0
220
0.0
230
1.0
 70
    24
 71
     3
 72
    21
 73
    17
 74
     0
 42
0.00000001
 43
0.00000001
 40
0.0
 40
0.0
 40
0.0
 40
0.0
 40
0.0645469698187023
 40
0.1289817733041193
 40
0.1959523785116548
 40
0.2580733821691027
 40
0.3247801296621536
 40
0.3871294090258625
 40
0.4531726102804106
 40
0.516265574778786
 40
0.6428565511527932
 40
0.7738305824043548
 40
0.835920971367205
 40
0.9029790671785015
 40
0.9676617029149797
 40
1.0
 40
1.0
 40
1.0
 40
1.0
 10
368.8552981255055
 20
364.7492819095632
 30
0.0
 10
369.4383624102938
 20
364.7492819095632
 30
0.0
 10
370.6034777613866
 20
364.7492819095632
 30
0.0
 10
372.3731477229144
 20
364.7492819095632
 30
0.0
 10
374.114981534049
 20
364.7492819095632
 30
0.0
 10
375.8595184137421
 20
364.7492819095632
 30
0.0
 10
377.5288630002553
 20
364.7492819095632
 30
0.0
 10
379.1668838342166
 20
364.7492819095632
 30
0.0
 10
380.6697744921622
 20
364.7492819095632
 30
0.0
 10
382.4552440237014
 20
364.7492819095632
 30
0.0
 10
384.127769818933
 20
364.7492819095632
 30
0.0
 10
385.0235720862487
 20
364.7492819095632
 30
0.0
 10
385.4272675381471
 20
364.7492819095632
 30
0.0
 10
385.5924773423168
 20
364.7492819095632
 30
0.0
 10
385.6464008362424
 20
364.7492819095632
 30
0.0
 10
385.6488098835218
 20
364.7492819095632
 30
0.0
 10
385.6496128492773
 20
364.7492819095632
 30
0.0
  0
SPLINE
  5
20E
330
1F
100
AcDbEntity
  8
0
  6
Continuous
 62
     7
370
    25
100
AcDbSpline
210
0.0
220
0.0
230
1.0
 70
     8
 71
     3
 72
    11
 73
     7
 74
     0
 42
0.00000001
 43
0.00000001
 40
0.0000000000001538
 40
0.0000000000001538
 40
0.0000000000001538
 40
0.0000000000001538
 40
0.250002097784
 40
0.5000041955681
 40
0.7500062933521
 40
1.00000000000319
 40
1.00000000000319
 40
1.00000000000319
 40
1.00000000000319
 10
337.8552981255071
 20
368.7492819095632
 30
0.0
 10
337.8552981255053
 20
368.8671340286658
 30
0.0
 10
337.8980122782906
 20
369.1217323116916
 30
0.0
 10
338.127076145076
 20
369.4775141734452
 30
0.0
 10
338.4828567193676
 20
369.7065700686827
 30
0.0
 10
338.7374499071562
 20
369.749281874434
 30
0.0
 10
338.8552981255055
 20
369.7492819095611
 30
0.0
  0
SPLINE
  5
20F
330
1F
100
AcDbEntity
  8
0
  6
Continuous
 62
     7
370
    25
100
AcDbSpline
210
0.0
220
0.0
230
1.0
 70
    24
 71
     3
 72
    21
 73
    17
 74
     0
 42
0.00000001
 43
0.00000001
 40
-0.0000000000000028
 40
-0.0000000000000028
 40
-0.0000000000000028
 40
-0.0000000000000028
 40
0.003329183646551
 40
0.006658367293102
 40
0.008322959116377
 40
0.009987550939653
 40
0.01165214276293
 40
0.0133167345862
 40
0.01414903049784
 40
0.01498132640948
 40
0.01664591823275
 40
0.01747821414439
 40
0.01831051005603
 40
0.01997510187931
 40
0.02330428552586
 40
0.0266334691724108
 40
0.0266334691724108
 40
0.0266334691724108
 40
0.0266334691724108
 10
338.8552981255073
 20
369.7492819095611
 30
0.0
 10
338.8552981208663
 20
369.7492819095613
 30
0.0
 10
338.8624860803712
 20
369.7492819095611
 30
0.0
 10
339.1836902581636
 20
369.7492819095617
 30
0.0
 10
339.7531121454913
 20
369.7492819095617
 30
0.0
 10
340.3571307146888
 20
369.7492819095617
 30
0.0
 10
341.1909122037314
 20
369.7492819095617
 30
0.0
 10
342.0707353858566
 20
369.7492819095617
 30
0.0
 10
342.9056343176665
 20
369.7492819095617
 30
0.0
 10
343.7973685593581
 20
369.7492819095617
 30
0.0
 10
344.7663033316312
 20
369.7492819095617
 30
0.0
 10
345.7997417320454
 20
369.7492819095617
 30
0.0
 10
346.8475805635125
 20
369.7492819095617
 30
0.0
 10
348.7230745822836
 20
369.7492819095617
 30
0.0
 10
351.5065023091199
 20
369.7492819095611
 30
0.0
 10
353.7384987228228
 20
369.7492819095613
 30
0.0
 10
354.855298125508
 20
369.7492819095611
 30
0.0
  0
SPLINE
  5
210
330
1F
100
AcDbEntity
  8
0
  6
Continuous
 62
     7
370
    25
100
AcDbSpline
210
0.0
220
0.0
230
1.0
 70
     8
 71
     3
 72
    11
 73
     7
 74
     0
 42
0.00000001
 43
0.00000001
 40
0.0000000000002098
 40
0.0000000000002098
 40
0.0000000000002098
 40
0.0000000000002098
 40
0.2499937066525159
 40
0.4999958044364159
 40
0.749997902220416
 40
1.000000000004106
 40
1.000000000004106
 40
1.000000000004106
 40
1.000000000004106
 10
384.8552981255055
 20
369.7492819095611
 30
0.0
 10
384.9731463438554
 20
369.7492818744341
 30
0.0
 10
385.2277395316413
 20
369.7065700686825
 30
0.0
 10
385.5835201059335
 20
369.4775141734442
 30
0.0
 10
385.8125839727219
 20
369.1217323116915
 30
0.0
 10
385.8552981255051
 20
368.8671340286658
 30
0.0
 10
385.8552981255058
 20
368.7492819095632
 30
0.0
  0
SPLINE
  5
211
330
1F
100
AcDbEntity
  8
0
  6
Continuous
 62
     7
370
    25
100
AcDbSpline
210
0.0
220
0.0
230
1.0
 70
    24
 71
     3
 72
    21
 73
    17
 74
     0
 42
0.00000001
 43
0.00000001
 40
-0.0000000000000028
 40
-0.0000000000000028
 40
-0.0000000000000028
 40
-0.0000000000000028
 40
0.003329183646551
 40
0.006658367293102
 40
0.008322959116377
 40
0.009987550939653
 40
0.01165214276293
 40
0.0133167345862
 40
0.01414903049784
 40
0.01498132640948
 40
0.01664591823275
 40
0.01747821414439
 40
0.01831051005603
 40
0.01997510187931
 40
0.02330428552586
 40
0.0266334691724112
 40
0.0266334691724112
 40
0.0266334691724112
 40
0.0266334691724112
 10
368.8552981255028
 20
369.7492819095611
 30
0.0
 10
369.9688347979138
 20
369.7492819095613
 30
0.0
 10
372.1940110257314
 20
369.7492819095611
 30
0.0
 10
374.955105777642
 20
369.7492819095617
 30
0.0
 10
377.1278311158561
 20
369.7492819095617
 30
0.0
 10
378.680845105827
 20
369.7492819095617
 30
0.0
 10
380.1559167793281
 20
369.7492819095617
 30
0.0
 10
381.225162229547
 20
369.7492819095617
 30
0.0
 10
381.9856733864347
 20
369.7492819095617
 30
0.0
 10
382.6564984861546
 20
369.7492819095617
 30
0.0
 10
383.2061616847462
 20
369.7492819095617
 30
0.0
 10
383.6525215564071
 20
369.7492819095617
 30
0.0
 10
384.0266310327481
 20
369.7492819095617
 30
0.0
 10
384.520010885008
 20
369.7492819095617
 30
0.0
 10
384.8492055634083
 20
369.7492819095611
 30
0.0
 10
384.8552981301614
 20
369.7492819095613
 30
0.0
 10
384.8552981255056
 20
369.7492819095611
 30
0.0
  0
SPLINE
  5
212
330
1F
100
AcDbEntity
  8
0
  6
Continuous
 62
     7
370
    25
100
AcDbSpline
210
0.0
220
0.0
230
1.0
 70
    24
 71
     3
 72
     8
 73
     4
 74
     0
 42
0.00000001
 43
0.00000001
 40
0.0
 40
0.0
 40
0.0
 40
0.0
 40
1.0
 40
1.0
 40
1.0
 40
1.0
 10
367.8754396269773
 20
489.7492819095632
 30
0.0
 10
363.4361947520828
 20
489.7492819095632
 30
0.0
 10
360.2744014989455
 20
489.7492819095632
 30
0.0
 10
355.835156624051
 20
489.7492819095632
 30
0.0
  0
LINE
  5
213
330
1F
100
AcDbEntity
  8
0
  6
Continuous
 62
     7
370
    25
100
AcDbLine
 10
343.8552981255
 20
370.0492819096
 30
0.0
 11
343.8695200143
 21
370.0492819096
 31
0.0
  0
LINE
  5
214
330
1F
100
AcDbEntity
  8
0
  6
Continuous
 62
     7
370
    25
100
AcDbLine
 10
379.8552981255
 20
489.2492819096
 30
0.0
 11
379.8270577938
 21
489.2492819096
 31
0.0
  0
LINE
  5
215
330
1F
100
AcDbEntity
  8
0
  6
Continuous
 62
     7
370
    25
100
AcDbLine
 10
379.8552981255
 20
370.0492819096
 30
0.0
 11
379.8552981255
 21
489.2492819096
 31
0.0
  0
LINE
  5
216
330
1F
100
AcDbEntity
  8
0
  6
Continuous
 62
     7
370
    25
100
AcDbLine
 10
343.8552981255
 20
489.2492819096
 30
0.0
 11
343.8552981255
 21
370.0492819096
 31
0.0
  0
SPLINE
  5
217
330
1F
100
AcDbEntity
  8
0
  6
Continuous
 62
     7
370
    25
100
AcDbSpline
210
0.0
220
0.0
230
1.0
 70
    24
 71
     3
 72
    22
 73
    18
 74
     0
 42
0.00000001
 43
0.00000001
 40
0.0
 40
0.0
 40
0.0
 40
0.0
 40
0.125
 40
0.125
 40
0.2500000000000001
 40
0.2500000000000001
 40
0.3750000000000001
 40
0.3750000000000001
 40
0.5000000000000001
 40
0.5000000000000001
 40
0.6250000000000001
 40
0.6250000000000001
 40
0.7500000000000002
 40
0.7500000000000002
 40
0.8750000000000002
 40
0.8750000000000002
 40
1.0
 40
1.0
 40
1.0
 40
1.0
 10
355.835156624051
 20
489.7492819095711
 30
0.0
 10
355.0252912165264
 20
489.7492819095711
 30
0.0
 10
354.218125357954
 20
489.749281909571
 30
0.0
 10
352.6139840089935
 20
489.7492819095712
 30
0.0
 10
351.8157005359781
 20
489.7492819095712
 30
0.0
 10
350.2542066106832
 20
489.7492819095712
 30
0.0
 10
349.4894309363306
 20
489.7492819095711
 30
0.0
 10
348.0600485861417
 20
489.7492819095711
 30
0.0
 10
347.3972485555097
 20
489.7492819095713
 30
0.0
 10
346.2820230654032
 20
489.749281909571
 30
0.0
 10
345.8319980703353
 20
489.7492819095711
 30
0.0
 10
345.1421496136522
 20
489.7492819095711
 30
0.0
 10
344.8972498233139
 20
489.7492819095711
 30
0.0
 10
344.5556180004747
 20
489.7492819095711
 30
0.0
 10
344.458509594323
 20
489.749281909571
 30
0.0
 10
344.3580022941305
 20
489.7492819095713
 30
0.0
 10
344.3552868356192
 20
489.7492819095711
 30
0.0
 10
344.355298125505
 20
489.7492819095711
 30
0.0
  0
ARC
  5
218
330
1F
100
AcDbEntity
  8
0
  6
Continuous
 62
     7
370
    25
100
AcDbCircle
 10
344.3552981255
 20
489.2492819096
 30
0.0
 40
0.5
100
AcDbArc
 50
90.0
 51
180.0
  0
SPLINE
  5
219
330
1F
100
AcDbEntity
  8
0
  6
Continuous
 62
     7
370
    25
100
AcDbSpline
210
0.0
220
0.0
230
1.0
 70
    24
 71
     3
 72
    22
 73
    18
 74
     0
 42
0.00000001
 43
0.00000001
 40
0.0
 40
0.0
 40
0.0
 40
0.0
 40
0.1250000000000001
 40
0.1250000000000001
 40
0.2500000000000002
 40
0.2500000000000002
 40
0.3750000000000003
 40
0.3750000000000003
 40
0.5000000000000004
 40
0.5000000000000004
 40
0.6250000000000003
 40
0.6250000000000003
 40
0.7500000000000002
 40
0.7500000000000002
 40
0.8750000000000001
 40
0.8750000000000001
 40
1.0
 40
1.0
 40
1.0
 40
1.0
 10
379.3552981255056
 20
489.7492819095712
 30
0.0
 10
379.3553021581541
 20
489.7492819095712
 30
0.0
 10
379.3525639010206
 20
489.7492819095712
 30
0.0
 10
379.2521954218415
 20
489.7492819095711
 30
0.0
 10
379.154988774009
 20
489.7492819095711
 30
0.0
 10
378.8133278356091
 20
489.7492819095711
 30
0.0
 10
378.5684787477869
 20
489.7492819095711
 30
0.0
 10
377.8785721891297
 20
489.7492819095712
 30
0.0
 10
377.4285342683791
 20
489.749281909571
 30
0.0
 10
376.3135026602378
 20
489.7492819095713
 30
0.0
 10
375.6506212985151
 20
489.7492819095712
 30
0.0
 10
374.2211579545152
 20
489.7492819095712
 30
0.0
 10
373.4564610256675
 20
489.7492819095712
 30
0.0
 10
371.8949123877154
 20
489.7492819095712
 30
0.0
 10
371.0966192235531
 20
489.7492819095712
 30
0.0
 10
369.4925074414321
 20
489.7492819095712
 30
0.0
 10
368.6853035312075
 20
489.7492819095711
 30
0.0
 10
367.8754396269784
 20
489.7492819095712
 30
0.0
  0
ARC
  5
21A
330
1F
100
AcDbEntity
  8
0
  6
Continuous
 62
     7
370
    25
100
AcDbCircle
 10
379.3552981255
 20
489.2492819096
 30
0.0
 40
0.5
100
AcDbArc
 50
0.0
 51
90.0
  0
SPLINE
  5
21B
330
1F
100
AcDbEntity
  8
0
  6
Continuous
 62
     7
370
    25
100
AcDbSpline
210
0.0
220
0.0
230
1.0
 70
    24
 71
     3
 72
    14
 73
    10
 74
     0
 42
0.00000001
 43
0.00000001
 40
0.0
 40
0.0
 40
0.0
 40
0.0
 40
0.25
 40
0.25
 40
0.5
 40
0.5
 40
0.7500000000000001
 40
0.7500000000000001
 40
1.0
 40
1.0
 40
1.0
 40
1.0
 10
521.5198917843284
 20
541.9799181269576
 30
0.0
 10
521.5198917843284
 20
541.9799181269576
 30
0.0
 10
522.6088523947874
 20
542.2717042431212
 30
0.0
 10
526.4852720359709
 20
543.3103877555072
 30
0.0
 10
529.1142555106312
 20
544.0148217544618
 30
0.0
 10
534.5963407406423
 20
545.4837420646915
 30
0.0
 10
537.2253242153026
 20
546.188176063646
 30
0.0
 10
541.1017438564861
 20
547.226859576032
 30
0.0
 10
542.1907044669451
 20
547.5186456921956
 30
0.0
 10
542.1907044669451
 20
547.5186456921956
 30
0.0
  0
LINE
  5
21C
330
1F
100
AcDbEntity
  8
0
  6
Continuous
 62
     7
370
    25
100
AcDbLine
 10
350.8552981255
 20
490.1492819096
 30
0.0
 11
372.8552981255
 21
490.1492819096
 31
0.0
  0
SPLINE
  5
21D
330
1F
100
AcDbEntity
  8
0
  6
Continuous
 62
     7
370
    18
100
AcDbSpline
210
0.0
220
0.0
230
1.0
 70
     8
 71
     3
 72
    12
 73
     8
 74
     0
 42
0.00000001
 43
0.00000001
 40
0.0
 40
0.0
 40
0.0
 40
0.0
 40
0.3631359738258782
 40
0.5446593004198113
 40
0.7255878969406114
 40
0.9065048894359986
 40
0.9999999999999999
 40
0.9999999999999999
 40
0.9999999999999999
 40
0.9999999999999999
 10
345.8756728016437
 20
513.8180670224875
 30
0.0
 10
345.893772605611
 20
515.2537258907868
 30
0.0
 10
345.9209200855555
 20
517.4070376285666
 30
0.0
 10
346.7303576027539
 20
520.1745606184791
 30
0.0
 10
347.9221621314717
 20
521.9966787595617
 30
0.0
 10
349.453660309896
 20
523.0427663146879
 30
0.0
 10
350.4991042872537
 20
523.3201216581141
 30
0.0
 10
350.8552981255058
 20
523.4146195618509
 30
0.0
  0
SPLINE
  5
21E
330
1F
100
AcDbEntity
  8
0
  6
Continuous
 62
     7
370
    18
100
AcDbSpline
210
0.0
220
0.0
230
1.0
 70
     8
 71
     3
 72
    12
 73
     8
 74
     0
 42
0.00000001
 43
0.00000001
 40
0.0
 40
0.0
 40
0.0
 40
0.0
 40
0.3631359779759515
 40
0.5446593053259204
 40
0.7255879057850972
 40
0.9065049063550085
 40
1.0
 40
1.0
 40
1.0
 40
1.0
 10
377.8349234863833
 20
513.8180670222733
 30
0.0
 10
377.8168236203015
 20
515.2537257949457
 30
0.0
 10
377.7896760472585
 20
517.4070373840842
 30
0.0
 10
376.980238376193
 20
520.1745601322887
 30
0.0
 10
375.7884338022969
 20
521.9966780883166
 30
0.0
 10
374.2569357362459
 20
523.0427655076977
 30
0.0
 10
373.2114918721807
 20
523.3201208066292
 30
0.0
 10
372.8552981255057
 20
523.4146186811515
 30
0.0
  0
LINE
  5
21F
330
1F
100
AcDbEntity
  8
0
  6
Continuous
 62
     7
370
    25
100
AcDbLine
 10
343.9958726987
 20
489.5968640762
 30
0.0
 11
344.1226646067
 21
513.8121134755
 31
0.0
  0
LINE
  5
220
330
1F
100
AcDbEntity
  8
0
  6
Continuous
 62
     7
370
    25
100
AcDbLine
 10
379.5879316443
 20
513.8121134773
 30
0.0
 11
379.7147235523
 21
489.5968640762
 31
0.0
  0
SPLINE
  5
221
330
1F
100
AcDbEntity
  8
0
  6
Continuous
 62
     7
370
    25
100
AcDbSpline
210
0.0
220
0.0
230
1.0
 70
     8
 71
     3
 72
    13
 73
     9
 74
     0
 42
0.00000001
 43
0.00000001
 40
0.0
 40
0.0
 40
0.0
 40
0.0
 40
0.1849625291562296
 40
0.3636343043046482
 40
0.5291908232771528
 40
0.6793463494386168
 40
0.8341670957501268
 40
1.0
 40
1.0
 40
1.0
 40
1.0
 10
344.1226646067299
 20
513.8121134755431
 30
0.0
 10
344.1298374784145
 20
514.7115769586951
 30
0.0
 10
344.1439392654996
 20
516.4799123044294
 30
0.0
 10
344.5216531574624
 20
519.0361245560671
 30
0.0
 10
345.3440449598097
 20
521.318853467809
 30
0.0
 10
346.6946540493289
 20
523.2034798900397
 30
0.0
 10
348.5837794503067
 20
524.5791014325966
 30
0.0
 10
350.0809857930462
 20
525.0393320651192
 30
0.0
 10
350.8552981255058
 20
525.2773501955298
 30
0.0
  0
SPLINE
  5
222
330
1F
100
AcDbEntity
  8
0
  6
Continuous
 62
     7
370
    25
100
AcDbSpline
210
0.0
220
0.0
230
1.0
 70
     8
 71
     3
 72
    13
 73
     9
 74
     0
 42
0.00000001
 43
0.00000001
 40
0.0
 40
0.0
 40
0.0
 40
0.0
 40
0.1856318947889142
 40
0.3645112516500089
 40
0.5297987824621962
 40
0.679304575341053
 40
0.8330699710802527
 40
1.0
 40
1.0
 40
1.0
 40
1.0
 10
379.5879316442591
 20
513.8121134801931
 30
0.0
 10
379.5807042785406
 20
514.7149004442286
 30
0.0
 10
379.5665124494523
 20
516.4876346320042
 30
0.0
 10
379.1864383595299
 20
519.0467921498841
 30
0.0
 10
378.362563331002
 20
521.3254421701816
 30
0.0
 10
377.0163956340837
 20
523.2012623068634
 30
0.0
 10
375.1312965049763
 20
524.5763695880552
 30
0.0
 10
373.6344462862877
 20
525.0390573696474
 30
0.0
 10
372.8552981255057
 20
525.2798979891983
 30
0.0
  0
SPLINE
  5
223
330
1F
100
AcDbEntity
  8
0
  6
Continuous
 62
     8
370
    18
100
AcDbSpline
210
0.0
220
0.0
230
1.0
 70
    24
 71
     3
 72
    21
 73
    17
 74
     0
 42
0.00000001
 43
0.00000001
 40
0.0
 40
0.0
 40
0.0
 40
0.0
 40
0.0033291836465485
 40
0.0066583672930985
 40
0.0083229591163785
 40
0.0091552550280185
 40
0.0099875509396585
 40
0.0116521427629285
 40
0.0124844386745685
 40
0.0133167345862085
 40
0.0149813264094785
 40
0.0166459182327555
 40
0.0183105100560315
 40
0.0199751018793065
 40
0.0233042855258575
 40
0.0266334691724085
 40
0.0266334691724085
 40
0.0266334691724085
 40
0.0266334691724085
 10
354.8552981255055
 20
368.7492819095633
 30
0.0
 10
353.7384337884819
 20
368.7492819095636
 30
0.0
 10
351.459391264057
 20
368.7492819095631
 30
0.0
 10
348.549902336758
 20
368.7492819095631
 30
0.0
 10
346.558226474101
 20
368.7492819095631
 30
0.0
 10
345.4340363860807
 20
368.7492819095631
 30
0.0
 10
344.31678616777
 20
368.7492819095631
 30
0.0
 10
343.2553611168013
 20
368.7492819095631
 30
0.0
 10
342.2674560035979
 20
368.7492819095631
 30
0.0
 10
341.3379251668014
 20
368.7492819095631
 30
0.0
 10
340.3596057725926
 20
368.7492819095631
 30
0.0
 10
339.4480296091578
 20
368.7492819095631
 30
0.0
 10
338.7987207241916
 20
368.7492819095631
 30
0.0
 10
338.19483260834
 20
368.7492819095631
 30
0.0
 10
337.8617247440639
 20
368.7492819095631
 30
0.0
 10
337.8552981255034
 20
368.7492819095635
 30
0.0
 10
337.8552981255071
 20
368.7492819095633
 30
0.0
  0
SPLINE
  5
224
330
1F
100
AcDbEntity
  8
0
  6
Continuous
 62
     8
370
    18
100
AcDbSpline
210
0.0
220
0.0
230
1.0
 70
    24
 71
     3
 72
    24
 73
    20
 74
     0
 42
0.00000001
 43
0.00000001
 40
-0.0000000000000002
 40
-0.0000000000000002
 40
-0.0000000000000002
 40
-0.0000000000000002
 40
0.003489801568054
 40
0.005234702352082
 40
0.006979603136109
 40
0.008724503920136
 40
0.01046940470416
 40
0.01134185509618
 40
0.01221430548819
 40
0.01395920627222
 40
0.01483165666423
 40
0.01570410705624
 40
0.01744900784027
 40
0.01832145823229
 40
0.0191939086243
 40
0.02093880940833
 40
0.02268371019235
 40
0.02442861097638
 40
0.0279184125444311
 40
0.0279184125444311
 40
0.0279184125444311
 40
0.0279184125444311
 10
337.8552981255052
 20
364.9492819095632
 30
0.0
 10
337.8552981255049
 20
364.9492819095631
 30
0.0
 10
337.861832188301
 20
364.9492819095632
 30
0.0
 10
338.0795804050013
 20
364.9492819095632
 30
0.0
 10
338.3796855361581
 20
364.9492819095632
 30
0.0
 10
338.8448409508394
 20
364.9492819095632
 30
0.0
 10
339.3941864509608
 20
364.9492819095632
 30
0.0
 10
339.9559833288693
 20
364.9492819095632
 30
0.0
 10
340.5945967444572
 20
364.9492819095632
 30
0.0
 10
341.3510325585778
 20
364.9492819095632
 30
0.0
 10
342.2419285798702
 20
364.9492819095632
 30
0.0
 10
343.1897393313898
 20
364.9492819095632
 30
0.0
 10
344.2160153846265
 20
364.9492819095632
 30
0.0
 10
345.310224078406
 20
364.9492819095632
 30
0.0
 10
346.4194266642918
 20
364.9492819095632
 30
0.0
 10
347.8357385783899
 20
364.9492819095632
 30
0.0
 10
349.5739648733194
 20
364.9492819095632
 30
0.0
 10
351.9268766691926
 20
364.9492819095632
 30
0.0
 10
353.6860053012607
 20
364.9492819095632
 30
0.0
 10
354.8552981255056
 20
364.9492819095632
 30
0.0
  0
LINE
  5
225
330
1F
100
AcDbEntity
  8
0
  6
Continuous
 62
     8
370
    18
100
AcDbLine
 10
354.8552981255
 20
368.7492819096
 30
0.0
 11
368.8552981255
 21
368.7492819096
 31
0.0
  0
LINE
  5
226
330
1F
100
AcDbEntity
  8
0
  6
Continuous
 62
     8
370
    18
100
AcDbLine
 10
368.8552981255
 20
364.9492819096
 30
0.0
 11
354.8552981255
 21
364.9492819096
 31
0.0
  0
SPLINE
  5
227
330
1F
100
AcDbEntity
  8
0
  6
Continuous
 62
     8
370
    18
100
AcDbSpline
210
0.0
220
0.0
230
1.0
 70
    24
 71
     3
 72
     9
 73
     5
 74
     0
 42
0.00000001
 43
0.00000001
 40
-0.0000125769720739
 40
-0.0000125769720739
 40
-0.0000125769720739
 40
-0.0000125769720739
 40
0.5000188653818575
 40
0.9999999999890313
 40
0.9999999999890313
 40
0.9999999999890313
 40
0.9999999999890313
 10
354.855298125505
 20
364.9492819095601
 30
0.0
 10
354.8552981255051
 20
364.9021384930671
 30
0.0
 10
354.855298125505
 20
364.7900039078569
 30
0.0
 10
354.8552981255054
 20
364.7492818150488
 30
0.0
 10
354.8552981255056
 20
364.7492819097071
 30
0.0
  0
SPLINE
  5
228
330
1F
100
AcDbEntity
  8
0
  6
Continuous
 62
     8
370
    18
100
AcDbSpline
210
0.0
220
0.0
230
1.0
 70
    24
 71
     3
 72
    10
 73
     6
 74
     0
 42
0.00000001
 43
0.00000001
 40
0.0
 40
0.0
 40
0.0
 40
0.0
 40
0.5
 40
0.5
 40
1.0
 40
1.0
 40
1.0
 40
1.0
 10
368.8552981255055
 20
364.9492819095632
 30
0.0
 10
368.8552981255055
 20
364.8969210438834
 30
0.0
 10
368.8552981255055
 20
364.8448826316363
 30
0.0
 10
368.8552981255055
 20
364.7708342828084
 30
0.0
 10
368.8552981255055
 20
364.7492803574865
 30
0.0
 10
368.8552981255055
 20
364.7492819096511
 30
0.0
  0
SPLINE
  5
229
330
1F
100
AcDbEntity
  8
0
  6
Continuous
 62
     8
370
    18
100
AcDbSpline
210
0.0
220
0.0
230
1.0
 70
    24
 71
     3
 72
    21
 73
    17
 74
     0
 42
0.00000001
 43
0.00000001
 40
0.0
 40
0.0
 40
0.0
 40
0.0
 40
0.0033291836465484
 40
0.0066583672930984
 40
0.0083229591163784
 40
0.0091552550280184
 40
0.0099875509396584
 40
0.0116521427629284
 40
0.0124844386745684
 40
0.0133167345862084
 40
0.0149813264094784
 40
0.0166459182327554
 40
0.0183105100560314
 40
0.0199751018793064
 40
0.0233042855258574
 40
0.0266334691724083
 40
0.0266334691724083
 40
0.0266334691724083
 40
0.0266334691724083
 10
385.8552981255058
 20
368.7492819095626
 30
0.0
 10
385.8552981255067
 20
368.749281909563
 30
0.0
 10
385.8500624679921
 20
368.7492819095629
 30
0.0
 10
385.5084766639908
 20
368.7492819095631
 30
0.0
 10
384.9852185892049
 20
368.7492819095631
 30
0.0
 10
384.583998953894
 20
368.7492819095631
 30
0.0
 10
384.1016194473718
 20
368.7492819095631
 30
0.0
 10
383.5003997578757
 20
368.7492819095631
 30
0.0
 10
382.757462053053
 20
368.7492819095631
 30
0.0
 10
381.9109130303914
 20
368.7492819095631
 30
0.0
 10
380.7209185124646
 20
368.7492819095631
 30
0.0
 10
379.1054712748798
 20
368.7492819095631
 30
0.0
 10
377.4335282649043
 20
368.7492819095631
 30
0.0
 10
375.1264543871194
 20
368.7492819095625
 30
0.0
 10
372.2410125221502
 20
368.7492819095654
 30
0.0
 10
369.9688919228391
 20
368.7492819095586
 30
0.0
 10
368.8552981255055
 20
368.7492819095633
 30
0.0
  0
SPLINE
  5
22A
330
1F
100
AcDbEntity
  8
0
  6
Continuous
 62
     8
370
    18
100
AcDbSpline
210
0.0
220
0.0
230
1.0
 70
    24
 71
     3
 72
    24
 73
    20
 74
     0
 42
0.00000001
 43
0.00000001
 40
-0.0000000000000003
 40
-0.0000000000000003
 40
-0.0000000000000003
 40
-0.0000000000000003
 40
0.003489801568054
 40
0.005234702352082
 40
0.006979603136109
 40
0.008724503920136
 40
0.01046940470416
 40
0.01134185509618
 40
0.01221430548819
 40
0.01395920627222
 40
0.01483165666423
 40
0.01570410705624
 40
0.01744900784027
 40
0.01832145823229
 40
0.0191939086243
 40
0.02093880940833
 40
0.02268371019235
 40
0.02442861097638
 40
0.0279184125444307
 40
0.0279184125444307
 40
0.0279184125444307
 40
0.0279184125444307
 10
368.8552981255055
 20
364.9492819095632
 30
0.0
 10
370.0220808057179
 20
364.9492819095632
 30
0.0
 10
371.7789239811234
 20
364.9492819095632
 30
0.0
 10
374.1138712595221
 20
364.9492819095632
 30
0.0
 10
375.8621533025003
 20
364.9492819095632
 30
0.0
 10
377.5767774653754
 20
364.9492819095632
 30
0.0
 10
378.9447538075584
 20
364.9492819095632
 30
0.0
 10
380.0041962989352
 20
364.9492819095632
 30
0.0
 10
381.0082174520304
 20
364.9492819095632
 30
0.0
 10
381.9209684618033
 20
364.9492819095632
 30
0.0
 10
382.7347946954848
 20
364.9492819095632
 30
0.0
 10
383.4553654346162
 20
364.9492819095632
 30
0.0
 10
384.0493653486915
 20
364.9492819095632
 30
0.0
 10
384.5344303700446
 20
364.9492819095632
 30
0.0
 10
384.942323449778
 20
364.9492819095632
 30
0.0
 10
385.327841133471
 20
364.9492819095632
 30
0.0
 10
385.6280431677384
 20
364.9492819095632
 30
0.0
 10
385.8493331393967
 20
364.9492819095632
 30
0.0
 10
385.8552981255024
 20
364.9492819095632
 30
0.0
 10
385.8552981255045
 20
364.9492819095632
 30
0.0
  0
LINE
  5
22B
330
1F
100
AcDbEntity
  8
0
  6
Continuous
 62
     8
370
    18
100
AcDbLine
 10
355.8342809066
 20
370.0492819096
 30
0.0
 11
367.8763153444
 21
370.0492819096
 31
0.0
  0
ARC
  5
22C
330
1F
100
AcDbEntity
  8
0
  6
Continuous
 62
     8
370
    18
100
AcDbCircle
 10
325.0538902929
 20
369.9742821396
 30
0.0
 40
42.82249072933498
100
AcDbArc
 50
359.6989520537
 51
0.1003484946
  0
ARC
  5
22D
330
1F
100
AcDbEntity
  8
0
  6
Continuous
 62
     8
370
    18
100
AcDbCircle
 10
398.6567059673
 20
369.9742821396
 30
0.0
 40
42.82249073849413
100
AcDbArc
 50
179.8996515054
 51
180.3010479462
  0
ARC
  5
22E
330
1F
100
AcDbEntity
  8
0
  6
Continuous
 62
     8
370
    18
100
AcDbCircle
 10
296.5056069183
 20
489.3742815261
 30
0.0
 40
71.37081788905583
100
AcDbArc
 50
359.8996515054
 51
0.3010479463
  0
LINE
  5
22F
330
1F
100
AcDbEntity
  8
0
  6
Continuous
 62
     8
370
    18
100
AcDbLine
 10
367.8763153444
 20
489.2492819096
 30
0.0
 11
355.8342809066
 21
489.2492819096
 31
0.0
  0
ARC
  5
230
330
1F
100
AcDbEntity
  8
0
  6
Continuous
 62
     8
370
    18
100
AcDbCircle
 10
427.2049893373
 20
489.3742815261
 30
0.0
 40
71.37081789366577
100
AcDbArc
 50
179.6989520537
 51
180.1003484946
  0
SPLINE
  5
231
330
1F
100
AcDbEntity
  8
0
  6
Continuous
 62
     8
370
    18
100
AcDbSpline
210
0.0
220
0.0
230
1.0
 70
    24
 71
     3
 72
    15
 73
    11
 74
     0
 42
0.00000001
 43
0.00000001
 40
0.0
 40
0.0
 40
0.0
 40
0.0
 40
0.125
 40
0.2499999999999999
 40
0.3749999999999998
 40
0.4999999999999998
 40
0.6249999999999999
 40
0.7499999999999999
 40
0.875
 40
1.0
 40
1.0
 40
1.0
 40
1.0
 10
367.8763153444325
 20
370.0492819095632
 30
0.0
 10
368.7173833604021
 20
370.0492819095632
 30
0.0
 10
370.4088060041603
 20
370.0492819095632
 30
0.0
 10
372.982909712298
 20
370.0492819095632
 30
0.0
 10
375.3764612876273
 20
370.0492819095632
 30
0.0
 10
377.3199366535666
 20
370.0492819095632
 30
0.0
 10
378.6927705973757
 20
370.0492819095632
 30
0.0
 10
379.5165509896253
 20
370.0492819095632
 30
0.0
 10
379.8502090058454
 20
370.0492819095632
 30
0.0
 10
379.8552981255085
 20
370.0492819095632
 30
0.0
 10
379.8552981255058
 20
370.0492819095632
 30
0.0
  0
SPLINE
  5
232
330
1F
100
AcDbEntity
  8
0
  6
Continuous
 62
     8
370
    18
100
AcDbSpline
210
0.0
220
0.0
230
1.0
 70
    24
 71
     3
 72
    15
 73
    11
 74
     0
 42
0.00000001
 43
0.00000001
 40
0.0
 40
0.0
 40
0.0
 40
0.0
 40
0.0998812454639581
 40
0.2326056471889766
 40
0.3617423440989079
 40
0.4842902008865744
 40
0.6067956313678263
 40
0.7358507552845498
 40
0.8685620796217347
 40
1.0
 40
1.0
 40
1.0
 40
1.0
 10
343.8695200142845
 20
370.0492819095632
 30
0.0
 10
343.8727239604756
 20
370.0492819095632
 30
0.0
 10
343.8801853810244
 20
370.0492819095632
 30
0.0
 10
344.191991229148
 20
370.0492819095632
 30
0.0
 10
344.984185171704
 20
370.0492819095632
 30
0.0
 10
346.3854073393817
 20
370.0492819095632
 30
0.0
 10
348.3979917284365
 20
370.0492819095632
 30
0.0
 10
350.764069913913
 20
370.0492819095632
 30
0.0
 10
353.2853922520156
 20
370.0492819095632
 30
0.0
 10
354.9873863316456
 20
370.0492819095632
 30
0.0
 10
355.8342809065805
 20
370.0492819095632
 30
0.0
  0
SPLINE
  5
233
330
1F
100
AcDbEntity
  8
0
  6
Continuous
 62
     8
370
    18
100
AcDbSpline
210
0.0
220
0.0
230
1.0
 70
    24
 71
     3
 72
    15
 73
    11
 74
     0
 42
0.00000001
 43
0.00000001
 40
0.0
 40
0.0
 40
0.0
 40
0.0
 40
0.0711095539254947
 40
0.2080764020241734
 40
0.3413408667325586
 40
0.4678058834687343
 40
0.5942271177701155
 40
0.7274074020593736
 40
0.8643607547603305
 40
1.0
 40
1.0
 40
1.0
 40
1.0
 10
379.8270577938438
 20
489.2492819095633
 30
0.0
 10
379.8232618348003
 20
489.2492819095633
 30
0.0
 10
379.8121543329755
 20
489.2492819095633
 30
0.0
 10
379.5158443732122
 20
489.2492819095632
 30
0.0
 10
378.7271006714631
 20
489.2492819095633
 30
0.0
 10
377.3250086394326
 20
489.2492819095632
 30
0.0
 10
375.3126556403971
 20
489.2492819095633
 30
0.0
 10
372.946511962134
 20
489.2492819095633
 30
0.0
 10
370.425207593843
 20
489.2492819095633
 30
0.0
 10
368.7232111137922
 20
489.2492819095633
 30
0.0
 10
367.8763153444325
 20
489.2492819095633
 30
0.0
  0
SPLINE
  5
234
330
1F
100
AcDbEntity
  8
0
  6
Continuous
 62
     8
370
    18
100
AcDbSpline
210
0.0
220
0.0
230
1.0
 70
    24
 71
     3
 72
    15
 73
    11
 74
     0
 42
0.00000001
 43
0.00000001
 40
0.0
 40
0.0
 40
0.0
 40
0.0
 40
0.1249999999999999
 40
0.25
 40
0.375
 40
0.5
 40
0.625
 40
0.75
 40
0.8750000000000001
 40
1.0
 40
1.0
 40
1.0
 40
1.0
 10
355.8342809065797
 20
489.2492819095632
 30
0.0
 10
354.9932128906113
 20
489.2492819095632
 30
0.0
 10
353.301790246853
 20
489.2492819095632
 30
0.0
 10
350.7276865387158
 20
489.2492819095632
 30
0.0
 10
348.3341349633858
 20
489.2492819095632
 30
0.0
 10
346.3906595974458
 20
489.2492819095632
 30
0.0
 10
345.0178256536358
 20
489.2492819095632
 30
0.0
 10
344.1940452613857
 20
489.2492819095632
 30
0.0
 10
343.8603872451656
 20
489.2492819095633
 30
0.0
 10
343.8552981255031
 20
489.2492819095633
 30
0.0
 10
343.8552981255037
 20
489.2492819095632
 30
0.0
  0
LINE
  5
235
330
1F
100
AcDbEntity
  8
0
  6
Continuous
 62
     8
370
    18
100
AcDbLine
 10
521.1524683229
 20
542.1920501614
 30
0.0
 11
542.4028365013
 21
547.8860691537
 31
0.0
  0
LINE
  5
236
330
1F
100
AcDbEntity
  8
0
  6
Continuous
 62
     8
370
    18
100
AcDbLine
 10
343.4457740027
 20
484.2416103027
 30
0.0
 11
343.4457740027
 21
480.7395322389
 31
0.0
  0
LINE
  5
237
330
1F
100
AcDbEntity
  8
0
  6
Continuous
 62
     8
370
    18
100
AcDbLine
 10
343.4457740027
 20
488.1590315802
 30
0.0
 11
343.4457740027
 21
484.2416103027
 31
0.0
  0
LINE
  5
238
330
1F
100
AcDbEntity
  8
0
  6
Continuous
 62
     8
370
    18
100
AcDbLine
 10
343.6455362211
 20
488.3492819096
 30
0.0
 11
343.6455362211
 21
480.5492819096
 31
0.0
  0
LINE
  5
239
330
1F
100
AcDbEntity
  8
0
  6
Continuous
 62
     8
370
    18
100
AcDbLine
 10
377.9608517186
 20
489.7492819096
 30
0.0
 11
377.8349233783
 21
513.8180665217
 31
0.0
  0
LINE
  5
23A
330
1F
100
AcDbEntity
  8
0
  6
Continuous
 62
     8
370
    18
100
AcDbLine
 10
345.7497441468
 20
489.7492819096
 30
0.0
 11
345.8756728727
 21
513.8180665217
 31
0.0
  0
ENDSEC
  0
SECTION
  2
OBJECTS
  0
DICTIONARY
  5
C
330
0
100
AcDbDictionary
281
     1
  3
ACAD_GROUP
350
D
  3
ACAD_LAYOUT
350
1A
  3
ACAD_MLINESTYLE
350
17
  3
ACAD_PLOTSETTINGS
350
19
  3
ACAD_PLOTSTYLENAME
350
E
  3
ACAD_SCALELIST
350
47
  3
DWGPROPS
350
23B
  0
DICTIONARY
  5
D
102
{ACAD_REACTORS
330
C
102
}
330
C
100
AcDbDictionary
281
     1
  0
DICTIONARY
  5
1A
102
{ACAD_REACTORS
330
C
102
}
330
C
100
AcDbDictionary
281
     1
  3
Layout1
350
1E
  3
Layout2
350
26
  3
Model
350
22
  0
DICTIONARY
  5
17
102
{ACAD_REACTORS
330
C
102
}
330
C
100
AcDbDictionary
281
     1
  3
Standard
350
18
  0
DICTIONARY
  5
19
102
{ACAD_REACTORS
330
C
102
}
330
C
100
AcDbDictionary
281
     1
  0
ACDBDICTIONARYWDFLT
  5
E
102
{ACAD_REACTORS
330
C
102
}
330
C
100
AcDbDictionary
281
     1
  3
Normal
350
F
100
AcDbDictionaryWithDefault
340
F
  0
DICTIONARY
  5
47
102
{ACAD_REACTORS
330
C
102
}
330
C
100
AcDbDictionary
281
     1
  3
A0
350
48
  3
A1
350
49
  3
A2
350
4A
  3
A3
350
4B
  3
A4
350
4C
  3
A5
350
4D
  3
A6
350
4E
  3
A7
350
4F
  3
A8
350
50
  3
A9
350
51
  3
B0
350
52
  3
B1
350
53
  3
B2
350
54
  3
B3
350
55
  3
B4
350
56
  3
B5
350
57
  3
B6
350
58
  0
XRECORD
  5
23B
102
{ACAD_REACTORS
330
C
102
}
330
C
100
AcDbXrecord
280
     1
  1
DWGPROPS COOKIE
  2

  3

  4

  6

  7

  8
fue-task
  9

300
=
301
=
302
=
303
=
304
=
305
=
306
=
307
=
308
=
309
=
 40
0.0
 41
2460299.376212315
 42
2460299.376213762
  1

 90
        0
  0
LAYOUT
  5
1E
102
{ACAD_REACTORS
330
1A
102
}
330
1A
100
AcDbPlotSettings
  1

  2
none_device
  4

  6

 40
0.0
 41
0.0
 42
0.0
 43
0.0
 44
0.0
 45
0.0
 46
0.0
 47
0.0
 48
0.0
 49
0.0
140
0.0
141
0.0
142
1.0
143
1.0
 70
   688
 72
     1
 73
     0
 74
     5
  7

 75
    16
147
1.0
148
0.0
149
0.0
100
AcDbLayout
  1
Layout1
 70
     1
 71
     1
 10
0.0
 20
0.0
 11
420.0
 21
297.0
 12
0.0
 22
0.0
 32
0.0
 14
1.0000000000E+20
 24
1.0000000000E+20
 34
1.0000000000E+20
 15
-1.0000000000E+20
 25
-1.0000000000E+20
 35
-1.0000000000E+20
146
0.0
 13
0.0
 23
0.0
 33
0.0
 16
1.0
 26
0.0
 36
0.0
 17
0.0
 27
1.0
 37
0.0
 76
     0
330
1B
  0
LAYOUT
  5
26
102
{ACAD_REACTORS
330
1A
102
}
330
1A
100
AcDbPlotSettings
  1

  2
none_device
  4

  6

 40
0.0
 41
0.0
 42
0.0
 43
0.0
 44
0.0
 45
0.0
 46
0.0
 47
0.0
 48
0.0
 49
0.0
140
0.0
141
0.0
142
1.0
143
1.0
 70
   688
 72
     1
 73
     0
 74
     5
  7

 75
    16
147
1.0
148
0.0
149
0.0
100
AcDbLayout
  1
Layout2
 70
     1
 71
     2
 10
0.0
 20
0.0
 11
0.0
 21
0.0
 12
0.0
 22
0.0
 32
0.0
 14
0.0
 24
0.0
 34
0.0
 15
0.0
 25
0.0
 35
0.0
146
0.0
 13
0.0
 23
0.0
 33
0.0
 16
1.0
 26
0.0
 36
0.0
 17
0.0
 27
1.0
 37
0.0
 76
     0
330
23
  0
LAYOUT
  5
22
102
{ACAD_REACTORS
330
1A
102
}
330
1A
100
AcDbPlotSettings
  1

  2
none_device
  4
Letter_(8.50_x_11.00_Inches)
  6

 40
6.35
 41
6.35
 42
6.35000508
 43
6.35000508
 44
215.9
 45
279.4
 46
0.0
 47
0.0
 48
0.0
 49
0.0
140
0.0
141
0.0
142
1.0
143
1.0
 70
  1712
 72
     1
 73
     0
 74
     0
  7

 75
     0
147
1.0
148
0.0
149
0.0
100
AcDbLayout
  1
Model
 70
     1
 71
     0
 10
0.0
 20
0.0
 11
594.0
 21
841.0
 12
0.0
 22
0.0
 32
0.0
 14
0.0
 24
0.0
 34
0.0
 15
594.0
 25
841.0
 35
0.0
146
0.0
 13
0.0
 23
0.0
 33
0.0
 16
1.0
 26
0.0
 36
0.0
 17
0.0
 27
1.0
 37
0.0
 76
     0
330
1F
331
29
  0
MLINESTYLE
  5
18
102
{ACAD_REACTORS
330
17
102
}
330
17
100
AcDbMlineStyle
  2
Standard
 70
     0
  3

 62
   256
 51
90.0
 52
90.0
 71
     2
 49
0.5
 62
   256
  6
BYLAYER
 49
-0.5
 62
   256
  6
BYLAYER
  0
ACDBPLACEHOLDER
  5
F
102
{ACAD_REACTORS
330
E
102
}
330
E
  0
SCALE
  5
48
102
{ACAD_REACTORS
330
47
102
}
330
47
100
AcDbScale
 70
     0
300
1:1
140
1.0
141
1.0
290
     1
  0
SCALE
  5
49
102
{ACAD_REACTORS
330
47
102
}
330
47
100
AcDbScale
 70
     0
300
1:2
140
1.0
141
2.0
290
     0
  0
SCALE
  5
4A
102
{ACAD_REACTORS
330
47
102
}
330
47
100
AcDbScale
 70
     0
300
1:4
140
1.0
141
4.0
290
     0
  0
SCALE
  5
4B
102
{ACAD_REACTORS
330
47
102
}
330
47
100
AcDbScale
 70
     0
300
1:5
140
1.0
141
5.0
290
     0
  0
SCALE
  5
4C
102
{ACAD_REACTORS
330
47
102
}
330
47
100
AcDbScale
 70
     0
300
1:8
140
1.0
141
8.0
290
     0
  0
SCALE
  5
4D
102
{ACAD_REACTORS
330
47
102
}
330
47
100
AcDbScale
 70
     0
300
1:10
140
1.0
141
10.0
290
     0
  0
SCALE
  5
4E
102
{ACAD_REACTORS
330
47
102
}
330
47
100
AcDbScale
 70
     0
300
1:16
140
1.0
141
16.0
290
     0
  0
SCALE
  5
4F
102
{ACAD_REACTORS
330
47
102
}
330
47
100
AcDbScale
 70
     0
300
1:20
140
1.0
141
20.0
290
     0
  0
SCALE
  5
50
102
{ACAD_REACTORS
330
47
102
}
330
47
100
AcDbScale
 70
     0
300
1:30
140
1.0
141
30.0
290
     0
  0
SCALE
  5
51
102
{ACAD_REACTORS
330
47
102
}
330
47
100
AcDbScale
 70
     0
300
1:40
140
1.0
141
40.0
290
     0
  0
SCALE
  5
52
102
{ACAD_REACTORS
330
47
102
}
330
47
100
AcDbScale
 70
     0
300
1:50
140
1.0
141
50.0
290
     0
  0
SCALE
  5
53
102
{ACAD_REACTORS
330
47
102
}
330
47
100
AcDbScale
 70
     0
300
1:100
140
1.0
141
100.0
290
     0
  0
SCALE
  5
54
102
{ACAD_REACTORS
330
47
102
}
330
47
100
AcDbScale
 70
     0
300
2:1
140
2.0
141
1.0
290
     0
  0
SCALE
  5
55
102
{ACAD_REACTORS
330
47
102
}
330
47
100
AcDbScale
 70
     0
300
4:1
140
4.0
141
1.0
290
     0
  0
SCALE
  5
56
102
{ACAD_REACTORS
330
47
102
}
330
47
100
AcDbScale
 70
     0
300
8:1
140
8.0
141
1.0
290
     0
  0
SCALE
  5
57
102
{ACAD_REACTORS
330
47
102
}
330
47
100
AcDbScale
 70
     0
300
10:1
140
10.0
141
1.0
290
     0
  0
SCALE
  5
58
102
{ACAD_REACTORS
330
47
102
}
330
47
100
AcDbScale
 70
     0
300
100:1
140
100.0
141
1.0
290
     0
  0
ENDSEC
  0
EOF
