  0
SECTION
  2
HEADER
  9
$ACADVER
  1
AC1015
  9
$ACADMAINTVER
 70
     6
  9
$DWGCODEPAGE
  3
ANSI_1252
  9
$INSBASE
 10
0.0
 20
0.0
 30
0.0
  9
$EXTMIN
 10
0.0
 20
0.0
 30
0.0
  9
$EXTMAX
 10
841.0
 20
594.0
 30
0.0
  9
$LIMMIN
 10
0.0
 20
0.0
  9
$LIMMAX
 10
841.0
 20
594.0
  9
$ORTHOMODE
 70
     0
  9
$REGENMODE
 70
     1
  9
$FILLMODE
 70
     1
  9
$QTEXTMODE
 70
     0
  9
$MIRRTEXT
 70
     1
  9
$LTSCALE
 40
1.0
  9
$ATTMODE
 70
     1
  9
$TEXTSIZE
 40
10.0
  9
$TRACEWID
 40
1.0
  9
$TEXTSTYLE
  7
Standard
  9
$CLAYER
  8
0
  9
$CELTYPE
  6
ByLayer
  9
$CECOLOR
 62
   256
  9
$CELTSCALE
 40
1.0
  9
$DISPSILH
 70
     0
  9
$DIMSCALE
 40
1.0
  9
$DIMASZ
 40
2.5
  9
$DIMEXO
 40
0.0
  9
$DIMDLI
 40
3.75
  9
$DIMRND
 40
0.0
  9
$DIMDLE
 40
0.0
  9
$DIMEXE
 40
1.0
  9
$DIMTP
 40
0.0
  9
$DIMTM
 40
0.0
  9
$DIMTXT
 40
3.5
  9
$DIMCEN
 40
2.5
  9
$DIMTSZ
 40
0.0
  9
$DIMTOL
 70
     0
  9
$DIMLIM
 70
     0
  9
$DIMTIH
 70
     1
  9
$DIMTOH
 70
     1
  9
$DIMSE1
 70
     0
  9
$DIMSE2
 70
     0
  9
$DIMTAD
 70
     1
  9
$DIMZIN
 70
     0
  9
$DIMBLK
  1

  9
$DIMASO
 70
     1
  9
$DIMSHO
 70
     1
  9
$DIMPOST
  1

  9
$DIMAPOST
  1

  9
$DIMALT
 70
     0
  9
$DIMALTD
 70
     3
  9
$DIMALTF
 40
0.0393700787
  9
$DIMLFAC
 40
1.0
  9
$DIMTOFL
 70
     1
  9
$DIMTVP
 40
0.0
  9
$DIMTIX
 70
     0
  9
$DIMSOXD
 70
     0
  9
$DIMSAH
 70
     0
  9
$DIMBLK1
  1

  9
$DIMBLK2
  1

  9
$DIMSTYLE
  2
ISO-25
  9
$DIMCLRD
 70
     0
  9
$DIMCLRE
 70
     0
  9
$DIMCLRT
 70
     0
  9
$DIMTFAC
 40
1.0
  9
$DIMGAP
 40
1.5
  9
$DIMJUST
 70
     0
  9
$DIMSD1
 70
     0
  9
$DIMSD2
 70
     0
  9
$DIMTOLJ
 70
     0
  9
$DIMTZIN
 70
     0
  9
$DIMALTZ
 70
     0
  9
$DIMALTTZ
 70
     0
  9
$DIMUPT
 70
     0
  9
$DIMDEC
 70
     2
  9
$DIMTDEC
 70
     2
  9
$DIMALTU
 70
     2
  9
$DIMALTTD
 70
     3
  9
$DIMTXSTY
  7
Standard
  9
$DIMAUNIT
 70
     0
  9
$DIMADEC
 70
     2
  9
$DIMALTRND
 40
0.0
  9
$DIMAZIN
 70
     0
  9
$DIMDSEP
 70
    44
  9
$DIMATFIT
 70
     3
  9
$DIMFRAC
 70
     0
  9
$DIMLDRBLK
  1

  9
$DIMLUNIT
 70
     2
  9
$DIMLWD
 70
    -2
  9
$DIMLWE
 70
    -2
  9
$DIMTMOVE
 70
     0
  9
$LUNITS
 70
     2
  9
$LUPREC
 70
     2
  9
$SKETCHINC
 40
1.0
  9
$FILLETRAD
 40
10.0
  9
$AUNITS
 70
     0
  9
$AUPREC
 70
     2
  9
$MENU
  1
.
  9
$ELEVATION
 40
0.0
  9
$PELEVATION
 40
0.0
  9
$THICKNESS
 40
0.0
  9
$LIMCHECK
 70
     0
  9
$CHAMFERA
 40
0.0
  9
$CHAMFERB
 40
0.0
  9
$CHAMFERC
 40
0.0
  9
$CHAMFERD
 40
0.0
  9
$SKPOLY
 70
     0
  9
$TDCREATE
 40
2458866.412431621
  9
$TDUCREATE
 40
2458866.370764954
  9
$TDUPDATE
 40
2458866.412433438
  9
$TDUUPDATE
 40
2458866.370766771
  9
$TDINDWG
 40
0.0000000116
  9
$TDUSRTIMER
 40
0.0000000116
  9
$USRTIMER
 70
     1
  9
$ANGBASE
 50
0.0
  9
$ANGDIR
 70
     0
  9
$PDMODE
 70
     0
  9
$PDSIZE
 40
-1.0
  9
$PLINEWID
 40
0.0
  9
$SPLFRAME
 70
     0
  9
$SPLINETYPE
 70
     6
  9
$SPLINESEGS
 70
     8
  9
$HANDSEED
  5
218
  9
$SURFTAB1
 70
     6
  9
$SURFTAB2
 70
     6
  9
$SURFTYPE
 70
     6
  9
$SURFU
 70
     6
  9
$SURFV
 70
     6
  9
$UCSBASE
  2

  9
$UCSNAME
  2

  9
$UCSORG
 10
0.0
 20
0.0
 30
0.0
  9
$UCSXDIR
 10
1.0
 20
0.0
 30
0.0
  9
$UCSYDIR
 10
0.0
 20
1.0
 30
0.0
  9
$UCSORTHOREF
  2

  9
$UCSORTHOVIEW
 70
     0
  9
$UCSORGTOP
 10
0.0
 20
0.0
 30
0.0
  9
$UCSORGBOTTOM
 10
0.0
 20
0.0
 30
0.0
  9
$UCSORGLEFT
 10
0.0
 20
0.0
 30
0.0
  9
$UCSORGRIGHT
 10
0.0
 20
0.0
 30
0.0
  9
$UCSORGFRONT
 10
0.0
 20
0.0
 30
0.0
  9
$UCSORGBACK
 10
0.0
 20
0.0
 30
0.0
  9
$PUCSBASE
  2

  9
$PUCSNAME
  2

  9
$PUCSORG
 10
0.0
 20
0.0
 30
0.0
  9
$PUCSXDIR
 10
1.0
 20
0.0
 30
0.0
  9
$PUCSYDIR
 10
0.0
 20
1.0
 30
0.0
  9
$PUCSORTHOREF
  2

  9
$PUCSORTHOVIEW
 70
     0
  9
$PUCSORGTOP
 10
0.0
 20
0.0
 30
0.0
  9
$PUCSORGBOTTOM
 10
0.0
 20
0.0
 30
0.0
  9
$PUCSORGLEFT
 10
0.0
 20
0.0
 30
0.0
  9
$PUCSORGRIGHT
 10
0.0
 20
0.0
 30
0.0
  9
$PUCSORGFRONT
 10
0.0
 20
0.0
 30
0.0
  9
$PUCSORGBACK
 10
0.0
 20
0.0
 30
0.0
  9
$USERI1
 70
     0
  9
$USERI2
 70
     0
  9
$USERI3
 70
     0
  9
$USERI4
 70
     0
  9
$USERI5
 70
     0
  9
$USERR1
 40
0.0
  9
$USERR2
 40
0.0
  9
$USERR3
 40
0.0
  9
$USERR4
 40
0.0
  9
$USERR5
 40
0.0
  9
$WORLDVIEW
 70
     1
  9
$SHADEDGE
 70
     3
  9
$SHADEDIF
 70
    70
  9
$TILEMODE
 70
     1
  9
$MAXACTVP
 70
    64
  9
$PINSBASE
 10
0.0
 20
0.0
 30
0.0
  9
$PLIMCHECK
 70
     0
  9
$PEXTMIN
 10
1.0000000000E+20
 20
1.0000000000E+20
 30
1.0000000000E+20
  9
$PEXTMAX
 10
-1.0000000000E+20
 20
-1.0000000000E+20
 30
-1.0000000000E+20
  9
$PLIMMIN
 10
0.0
 20
0.0
  9
$PLIMMAX
 10
420.0
 20
297.0
  9
$UNITMODE
 70
     0
  9
$VISRETAIN
 70
     1
  9
$PLINEGEN
 70
     0
  9
$PSLTSCALE
 70
     1
  9
$TREEDEPTH
 70
  3020
  9
$CMLSTYLE
  2
Standard
  9
$CMLJUST
 70
     0
  9
$CMLSCALE
 40
20.0
  9
$PROXYGRAPHICS
 70
     1
  9
$MEASUREMENT
 70
     1
  9
$CELWEIGHT
370
    -1
  9
$ENDCAPS
280
     0
  9
$JOINSTYLE
280
     0
  9
$LWDISPLAY
290
     1
  9
$INSUNITS
 70
     4
  9
$HYPERLINKBASE
  1

  9
$STYLESHEET
  1

  9
$XEDIT
290
     1
  9
$CEPSNTYPE
380
     0
  9
$PSTYLEMODE
290
     1
  9
$FINGERPRINTGUID
  2
{4f64e0b2-34d4-4ffa-b9dd-5fd2a1bd9dd9}
  9
$VERSIONGUID
  2
{FAEB1C32-E019-11D5-929B-00C0DF256EC4}
  9
$EXTNAMES
290
     1
  9
$PSVPSCALE
 40
0.0
  9
$OLESTARTUP
290
     0
  0
ENDSEC
  0
SECTION
  2
CLASSES
  0
CLASS
  1
ACDBDICTIONARYWDFLT
  2
AcDbDictionaryWithDefault
  3
ObjectDBX Classes
 90
        0
280
     0
281
     0
  0
CLASS
  1
VISUALSTYLE
  2
AcDbVisualStyle
  3
ObjectDBX Classes
 90
     4095
280
     0
281
     0
  0
CLASS
  1
MATERIAL
  2
AcDbMaterial
  3
ObjectDBX Classes
 90
     1153
280
     0
281
     0
  0
CLASS
  1
SCALE
  2
AcDbScale
  3
ObjectDBX Classes
 90
     1153
280
     0
281
     0
  0
CLASS
  1
TABLESTYLE
  2
AcDbTableStyle
  3
ObjectDBX Classes
 90
     4095
280
     0
281
     0
  0
CLASS
  1
MLEADERSTYLE
  2
AcDbMLeaderStyle
  3
ACDB_MLEADERSTYLE_CLASS
 90
     4095
280
     0
281
     0
  0
CLASS
  1
SUN
  2
AcDbSun
  3
SCENEOE
 90
     1153
280
     0
281
     0
  0
CLASS
  1
ACDBPLACEHOLDER
  2
AcDbPlaceHolder
  3
ObjectDBX Classes
 90
        0
280
     0
281
     0
  0
CLASS
  1
LAYOUT
  2
AcDbLayout
  3
ObjectDBX Classes
 90
        0
280
     0
281
     0
  0
ENDSEC
  0
SECTION
  2
TABLES
  0
TABLE
  2
VPORT
  5
8
330
0
100
AcDbSymbolTable
 70
     1
  0
VPORT
  5
29
330
8
100
AcDbSymbolTableRecord
100
AcDbViewportTableRecord
  2
*Active
 70
     0
 10
0.0
 20
0.0
 11
1.0
 21
1.0
 12
420.5
 22
297.0
 13
0.0
 23
0.0
 14
10.0
 24
10.0
 15
10.0
 25
10.0
 16
0.0
 26
0.0
 36
1.0
 17
0.0
 27
0.0
 37
0.0
 40
594.0
 41
1.4158249158
 42
50.0
 43
0.0
 44
0.0
 50
0.0
 51
0.0
 71
     0
 72
  2000
 73
     1
 74
     3
 75
     0
 76
     0
 77
     0
 78
     0
281
     0
 65
     1
110
0.0
120
0.0
130
0.0
111
1.0
121
0.0
131
0.0
112
0.0
122
1.0
132
0.0
 79
     0
146
0.0
  0
ENDTAB
  0
TABLE
  2
LTYPE
  5
5
330
0
100
AcDbSymbolTable
 70
     6
  0
LTYPE
  5
14
330
5
100
AcDbSymbolTableRecord
100
AcDbLinetypeTableRecord
  2
ByBlock
 70
     0
  3

 72
    65
 73
     0
 40
0.0
  0
LTYPE
  5
15
330
5
100
AcDbSymbolTableRecord
100
AcDbLinetypeTableRecord
  2
ByLayer
 70
     0
  3

 72
    65
 73
     0
 40
0.0
  0
LTYPE
  5
16
330
5
100
AcDbSymbolTableRecord
100
AcDbLinetypeTableRecord
  2
Continuous
 70
     0
  3
Solid line
 72
    65
 73
     0
 40
0.0
  0
LTYPE
  5
6E
330
5
100
AcDbSymbolTableRecord
100
AcDbLinetypeTableRecord
  2
HIDDEN
 70
     0
  3
Hidden __ __ __ __ __ __ __ __ __ __ __ __ __ __
 72
    65
 73
     2
 40
1.905
 49
1.27
 74
     0
 49
-0.635
 74
     0
  0
LTYPE
  5
6F
330
5
100
AcDbSymbolTableRecord
100
AcDbLinetypeTableRecord
  2
PHANTOM
 70
     0
  3
Phantom ______  __  __  ______  __  __  ______
 72
    65
 73
     6
 40
12.7
 49
6.35
 74
     0
 49
-1.27
 74
     0
 49
1.27
 74
     0
 49
-1.27
 74
     0
 49
1.27
 74
     0
 49
-1.27
 74
     0
  0
LTYPE
  5
70
330
5
100
AcDbSymbolTableRecord
100
AcDbLinetypeTableRecord
  2
CENTER
 70
     0
  3
Center ____ _ ____ _ ____ _ ____ _ ____ _ ____
 72
    65
 73
     4
 40
10.16
 49
6.35
 74
     0
 49
-1.27
 74
     0
 49
1.27
 74
     0
 49
-1.27
 74
     0
  0
LTYPE
  5
71
330
5
100
AcDbSymbolTableRecord
100
AcDbLinetypeTableRecord
  2
CENTERX2
 70
     0
  3
Center (2x) ________  __  ________  __  _____
 72
    65
 73
     4
 40
20.32
 49
12.7
 74
     0
 49
-2.54
 74
     0
 49
2.54
 74
     0
 49
-2.54
 74
     0
  0
LTYPE
  5
72
330
5
100
AcDbSymbolTableRecord
100
AcDbLinetypeTableRecord
  2
DOT2
 70
     0
  3
Dot (.5x) ........................................
 72
    65
 73
     2
 40
0.635
 49
0.0
 74
     0
 49
-0.635
 74
     0
  0
ENDTAB
  0
TABLE
  2
LAYER
  5
2
330
0
100
AcDbSymbolTable
 70
     1
  0
LAYER
  5
10
330
2
100
AcDbSymbolTableRecord
100
AcDbLayerTableRecord
  2
0
 70
     0
 62
     7
  6
Continuous
370
    -3
390
F
  0
ENDTAB
  0
TABLE
  2
STYLE
  5
3
330
0
100
AcDbSymbolTable
 70
     3
  0
STYLE
  5
11
330
3
100
AcDbSymbolTableRecord
100
AcDbTextStyleTableRecord
  2
Standard
 70
     0
 40
0.0
 41
1.0
 50
0.0
 71
     0
 42
10.0
  3
txt
  4

  0
STYLE
  5
76
330
3
100
AcDbSymbolTableRecord
100
AcDbTextStyleTableRecord
  2
SLDTEXTSTYLE0
 70
     0
 40
0.0
 41
0.96
 50
0.0
 71
     0
 42
10.0
  3
ISOCP3
  4

  0
STYLE
  5
8D
330
3
100
AcDbSymbolTableRecord
100
AcDbTextStyleTableRecord
  2
SLDTEXTSTYLE1
 70
     0
 40
0.0
 41
0.605
 50
0.0
 71
     0
 42
10.0
  3
TXT
  4

  0
ENDTAB
  0
TABLE
  2
VIEW
  5
6
330
0
100
AcDbSymbolTable
 70
     0
  0
ENDTAB
  0
TABLE
  2
UCS
  5
7
330
0
100
AcDbSymbolTable
 70
     0
  0
ENDTAB
  0
TABLE
  2
APPID
  5
9
330
0
100
AcDbSymbolTable
 70
     1
  0
APPID
  5
12
330
9
100
AcDbSymbolTableRecord
100
AcDbRegAppTableRecord
  2
ACAD
 70
     0
  0
ENDTAB
  0
TABLE
  2
DIMSTYLE
  5
A
330
0
100
AcDbSymbolTable
 70
     2
100
AcDbDimStyleTable
  0
DIMSTYLE
105
27
330
A
100
AcDbSymbolTableRecord
100
AcDbDimStyleTableRecord
  2
ISO-25
 70
     0
 41
2.5
 42
0.625
 43
3.75
 44
1.25
 73
     0
 74
     0
 77
     1
 78
     8
140
2.5
141
2.5
143
0.0393700787
147
0.625
171
     3
172
     1
178
     0
271
     2
272
     2
274
     3
278
    44
283
     0
284
     8
340
11
  0
DIMSTYLE
105
77
102
{ACAD_REACTORS
330
75
330
82
102
}
330
A
100
AcDbSymbolTableRecord
100
AcDbDimStyleTableRecord
  2
SLDDIMSTYLE0
 70
     0
 41
2.5
 44
0.0
 45
0.000000001
 73
     0
 74
     0
 77
     1
 78
    12
 79
     3
140
6.0
147
1.5
173
     1
178
     0
271
     2
272
     2
276
     2
284
    12
340
76
  0
ENDTAB
  0
TABLE
  2
BLOCK_RECORD
  5
1
330
0
100
AcDbSymbolTable
 70
     3
  0
BLOCK_RECORD
  5
1F
330
1
100
AcDbSymbolTableRecord
100
AcDbBlockTableRecord
  2
*Model_Space
340
22
  0
BLOCK_RECORD
  5
1B
330
1
100
AcDbSymbolTableRecord
100
AcDbBlockTableRecord
  2
*Paper_Space
340
1E
  0
BLOCK_RECORD
  5
23
330
1
100
AcDbSymbolTableRecord
100
AcDbBlockTableRecord
  2
*Paper_Space0
340
26
  0
BLOCK_RECORD
  5
78
330
1
100
AcDbSymbolTableRecord
100
AcDbBlockTableRecord
  2
_D
340
0
  0
BLOCK_RECORD
  5
83
330
1
100
AcDbSymbolTableRecord
100
AcDbBlockTableRecord
  2
_D_1
340
0
  0
ENDTAB
  0
ENDSEC
  0
SECTION
  2
BLOCKS
  0
BLOCK
  5
20
330
1F
100
AcDbEntity
  8
0
100
AcDbBlockBegin
  2
*Model_Space
 70
     0
 10
0.0
 20
0.0
 30
0.0
  3
*Model_Space
  1

  0
ENDBLK
  5
21
330
1F
100
AcDbEntity
  8
0
100
AcDbBlockEnd
  0
BLOCK
  5
1C
330
1B
100
AcDbEntity
 67
     1
  8
0
100
AcDbBlockBegin
  2
*Paper_Space
 70
     0
 10
0.0
 20
0.0
 30
0.0
  3
*Paper_Space
  1

  0
ENDBLK
  5
1D
330
1B
100
AcDbEntity
 67
     1
  8
0
100
AcDbBlockEnd
  0
BLOCK
  5
24
330
23
100
AcDbEntity
  8
0
100
AcDbBlockBegin
  2
*Paper_Space0
 70
     0
 10
0.0
 20
0.0
 30
0.0
  3
*Paper_Space0
  1

  0
ENDBLK
  5
25
330
23
100
AcDbEntity
  8
0
100
AcDbBlockEnd
  0
BLOCK
  5
79
330
78
100
AcDbEntity
  8
0
100
AcDbBlockBegin
  2
_D
 70
     0
 10
0.0
 20
0.0
 30
0.0
  3
_D
  1

  0
SOLID
  5
7B
330
78
100
AcDbEntity
  8
0
  6
Continuous
 62
     7
370
    18
100
AcDbTrace
 10
42.7614395004
 20
152.0299240879
 30
0.0
 11
42.4614395004
 21
149.5299240879
 31
0.0
 12
43.0614395004
 22
149.5299240879
 32
0.0
 13
43.0614395004
 23
149.5299240879
 33
0.0
  0
SOLID
  5
7C
330
78
100
AcDbEntity
  8
0
  6
Continuous
 62
     7
370
    18
100
AcDbTrace
 10
42.7614395004
 20
52.0299240879
 30
0.0
 11
43.0614395004
 21
54.5299240879
 31
0.0
 12
42.4614395004
 22
54.5299240879
 32
0.0
 13
42.4614395004
 23
54.5299240879
 33
0.0
  0
LINE
  5
7D
330
78
100
AcDbEntity
  8
0
  6
Continuous
 62
     7
370
     0
100
AcDbLine
 10
56.6850079902
 20
152.0299240879
 30
0.0
 11
41.7614395004
 21
152.0299240879
 31
0.0
  0
LINE
  5
7E
330
78
100
AcDbEntity
  8
0
  6
Continuous
 62
     7
370
     0
100
AcDbLine
 10
56.6850079902
 20
52.0299240879
 30
0.0
 11
41.7614395004
 21
52.0299240879
 31
0.0
  0
LINE
  5
7F
330
78
100
AcDbEntity
  8
0
  6
Continuous
 62
     7
370
     0
100
AcDbLine
 10
42.7614395004
 20
152.0299240879
 30
0.0
 11
42.7614395004
 21
52.0299240879
 31
0.0
  0
MTEXT
  5
80
330
78
100
AcDbEntity
  8
0
  6
Continuous
 62
     7
370
    18
100
AcDbMText
 10
35.0270332946
 20
94.3680541463
 30
0.0
 40
6.0
 41
0.0
 71
     1
 72
     1
  1
100
  7
SLDTEXTSTYLE0
 11
-7.044195017643634E-15
 21
1.0
 31
0.0
 73
     1
 44
1.0
  0
MTEXT
  5
81
330
78
100
AcDbEntity
  8
0
  6
Continuous
 62
     7
370
    18
100
AcDbMText
 10
35.0270332946
 20
105.7430548466
 30
0.0
 40
6.0
 41
0.0
 71
     1
 72
     1
  1
mm
  7
SLDTEXTSTYLE0
 11
-7.044195017643634E-15
 21
1.0
 31
0.0
 73
     1
 44
1.0
  0
ENDBLK
  5
7A
330
78
100
AcDbEntity
  8
0
100
AcDbBlockEnd
  0
BLOCK
  5
84
330
83
100
AcDbEntity
  8
0
100
AcDbBlockBegin
  2
_D_1
 70
     0
 10
0.0
 20
0.0
 30
0.0
  3
_D_1
  1

  0
SOLID
  5
86
330
83
100
AcDbEntity
  8
0
  6
Continuous
 62
     7
370
    18
100
AcDbTrace
 10
56.6850079902
 20
38.4602342313
 30
0.0
 11
59.1850079902
 21
38.1602342313
 31
0.0
 12
59.1850079902
 22
38.7602342313
 32
0.0
 13
59.1850079902
 23
38.7602342313
 33
0.0
  0
SOLID
  5
87
330
83
100
AcDbEntity
  8
0
  6
Continuous
 62
     7
370
    18
100
AcDbTrace
 10
156.6850079902
 20
38.4602342313
 30
0.0
 11
154.1850079902
 21
38.7602342313
 31
0.0
 12
154.1850079902
 22
38.1602342313
 32
0.0
 13
154.1850079902
 23
38.1602342313
 33
0.0
  0
LINE
  5
88
330
83
100
AcDbEntity
  8
0
  6
Continuous
 62
     7
370
     0
100
AcDbLine
 10
56.6850079902
 20
52.0299240879
 30
0.0
 11
56.6850079902
 21
37.4602342313
 31
0.0
  0
LINE
  5
89
330
83
100
AcDbEntity
  8
0
  6
Continuous
 62
     7
370
     0
100
AcDbLine
 10
156.6850079902
 20
52.0299240879
 30
0.0
 11
156.6850079902
 21
37.4602342313
 31
0.0
  0
LINE
  5
8A
330
83
100
AcDbEntity
  8
0
  6
Continuous
 62
     7
370
     0
100
AcDbLine
 10
56.6850079902
 20
38.4602342313
 30
0.0
 11
156.6850079902
 21
38.4602342313
 31
0.0
  0
MTEXT
  5
8B
330
83
100
AcDbEntity
  8
0
  6
Continuous
 62
     7
370
    18
100
AcDbMText
 10
93.9626484861
 20
46.1946404371
 30
0.0
 40
6.0
 41
0.0
 71
     1
 72
     1
  1
100
  7
SLDTEXTSTYLE0
 73
     1
 44
1.0
  0
MTEXT
  5
8C
330
83
100
AcDbEntity
  8
0
  6
Continuous
 62
     7
370
    18
100
AcDbMText
 10
105.3376491864
 20
46.1946404371
 30
0.0
 40
6.0
 41
0.0
 71
     1
 72
     1
  1
mm
  7
SLDTEXTSTYLE0
 73
     1
 44
1.0
  0
ENDBLK
  5
85
330
83
100
AcDbEntity
  8
0
100
AcDbBlockEnd
  0
ENDSEC
  0
SECTION
  2
ENTITIES
  0
LINE
  5
73
330
1F
100
AcDbEntity
  8
0
  6
Continuous
 62
     7
370
    18
100
AcDbLine
 10
56.6850079902
 20
152.0299240879
 30
0.0
 11
56.6850079902
 21
52.0299240879
 31
0.0
  0
LINE
  5
74
330
1F
100
AcDbEntity
  8
0
  6
Continuous
 62
     7
370
    18
100
AcDbLine
 10
56.6850079902
 20
52.0299240879
 30
0.0
 11
156.6850079902
 21
52.0299240879
 31
0.0
  0
DIMENSION
  5
75
330
1F
100
AcDbEntity
  8
0
  6
Continuous
 62
     7
370
    18
100
AcDbDimension
  2
_D
 10
42.7614395004
 20
52.0299240879
 30
0.0
 11
42.7614395004
 21
105.4472211621
 31
0.0
 70
   160
  1
<>mm
 71
     2
 42
-1.0
  3
SLDDIMSTYLE0
100
AcDbAlignedDimension
 13
56.6850079902
 23
152.0299240879
 33
0.0
 14
56.6850079902
 24
52.0299240879
 34
0.0
 50
90.0
100
AcDbRotatedDimension
  0
DIMENSION
  5
82
330
1F
100
AcDbEntity
  8
0
  6
Continuous
 62
     7
370
    18
100
AcDbDimension
  2
_D_1
 10
156.6850079902
 20
38.4602342313
 30
0.0
 11
105.0418155019
 21
38.4602342313
 31
0.0
 70
   160
  1
<>mm
 71
     2
 42
-1.0
  3
SLDDIMSTYLE0
100
AcDbAlignedDimension
 13
56.6850079902
 23
52.0299240879
 33
0.0
 14
156.6850079902
 24
52.0299240879
 34
0.0
100
AcDbRotatedDimension
  0
MTEXT
  5
8E
330
1F
100
AcDbEntity
  8
0
  6
Continuous
 62
     7
370
     0
100
AcDbMText
 10
664.658399795
 20
48.4342449499
 30
0.0
 40
10.0
 41
0.0
 71
     1
 72
     1
  1
KLUDI GmbH & Co KG
  7
SLDTEXTSTYLE1
 73
     1
 44
1.0
  0
MTEXT
  5
8F
330
1F
100
AcDbEntity
  8
0
  6
Continuous
 62
     7
370
     0
100
AcDbMText
 10
349.0758972247
 20
48.4342449499
 30
0.0
 40
10.0
 41
0.0
 71
     1
 72
     1
  1
48 248 05 65
  7
SLDTEXTSTYLE1
 73
     1
 44
1.0
  0
LINE
  5
90
330
1F
100
AcDbEntity
  8
0
  6
Continuous
 62
     7
370
    25
100
AcDbLine
 10
165.8252388213
 20
460.9408009039
 30
0.0
 11
165.8252388213
 21
464.1417876187
 31
0.0
  0
LINE
  5
91
330
1F
100
AcDbEntity
  8
0
  6
Continuous
 62
     7
370
    25
100
AcDbLine
 10
141.8252388213
 20
464.1417876187
 30
0.0
 11
141.8252388213
 21
460.9408009039
 31
0.0
  0
LINE
  5
92
330
1F
100
AcDbEntity
  8
0
  6
Continuous
 62
     7
370
    25
100
AcDbLine
 10
142.8252388213
 20
456.7027474903
 30
0.0
 11
143.3507988409
 21
456.4182022803
 31
0.0
  0
LINE
  5
93
330
1F
100
AcDbEntity
  8
0
  6
Continuous
 62
     7
370
    25
100
AcDbLine
 10
164.2996788017
 20
456.4182022803
 30
0.0
 11
164.8252388213
 21
456.7027474903
 31
0.0
  0
SPLINE
  5
94
330
1F
100
AcDbEntity
  8
0
  6
Continuous
 62
     7
370
    25
100
AcDbSpline
210
0.0
220
0.0
230
1.0
 70
     8
 71
     3
 72
    15
 73
    11
 74
     0
 42
0.000000001
 43
0.00000001
 40
0.0
 40
0.0
 40
0.0
 40
0.0
 40
0.0692599888331159
 40
0.1658376497446715
 40
0.2599917581797809
 40
0.3513643843694435
 40
0.5398447909059011
 40
0.7596154171589135
 40
0.9988098278940182
 40
1.0
 40
1.0
 40
1.0
 40
1.0
 10
165.7337799457008
 20
463.5022949163095
 30
0.0
 10
166.019579773893
 20
463.6272181957825
 30
0.0
 10
166.7039052062725
 20
463.9263372602703
 30
0.0
 10
167.7793361210983
 20
464.5068443665771
 30
0.0
 10
168.8716085522165
 20
465.1275470020262
 30
0.0
 10
170.1915915968278
 20
465.9135190788275
 30
0.0
 10
171.5884868110243
 20
466.7838126679728
 30
0.0
 10
172.4767125112839
 20
467.3799495796061
 30
0.0
 10
173.070483816348
 20
467.7559789334271
 30
0.0
 10
172.8826772262223
 20
467.6724158453778
 30
0.0
 10
172.8817473738904
 20
467.6720021147828
 30
0.0
  0
SPLINE
  5
95
330
1F
100
AcDbEntity
  8
0
  6
Continuous
 62
     7
370
    25
100
AcDbSpline
210
0.0
220
0.0
230
1.0
 70
     8
 71
     3
 72
    15
 73
    11
 74
     0
 42
0.000000001
 43
0.00000001
 40
0.0
 40
0.0
 40
0.0
 40
0.0
 40
0.001190172105976
 40
0.2403845828410884
 40
0.4601552090941048
 40
0.648635615630552
 40
0.7400082418202111
 40
0.8341623502553182
 40
0.9307400111668733
 40
1.0
 40
1.0
 40
1.0
 40
1.0
 10
134.7687302686927
 20
467.6720021147827
 30
0.0
 10
134.7678004163609
 20
467.6724158453777
 30
0.0
 10
134.5799938262344
 20
467.7559789334269
 30
0.0
 10
135.1737651312994
 20
467.3799495796059
 30
0.0
 10
136.0619908315587
 20
466.7838126679728
 30
0.0
 10
137.4588860457551
 20
465.9135190788274
 30
0.0
 10
138.7788690903665
 20
465.1275470020262
 30
0.0
 10
139.8711415214845
 20
464.5068443665771
 30
0.0
 10
140.9465724363104
 20
463.9263372602702
 30
0.0
 10
141.6308978686899
 20
463.6272181957825
 30
0.0
 10
141.9166976968822
 20
463.5022949163094
 30
0.0
  0
SPLINE
  5
96
330
1F
100
AcDbEntity
  8
0
  6
Continuous
 62
     7
370
    25
100
AcDbSpline
210
0.0
220
0.0
230
1.0
 70
     8
 71
     3
 72
    18
 73
    14
 74
     0
 42
0.000000001
 43
0.00000001
 40
-0.0000021263988984
 40
-0.0000021263988984
 40
-0.0000021263988984
 40
-0.0000021263988984
 40
0.0
 40
0.0
 40
0.0
 40
0.4275885759528201
 40
0.4413627440184678
 40
0.4674703602842568
 40
0.5038751990645237
 40
0.5336694441824861
 40
0.5666506397578235
 40
0.5795963365626782
 40
1.0
 40
1.0
 40
1.0
 40
1.0
 10
141.3252388212876
 20
464.1417799765421
 30
0.0
 10
141.3252388212876
 20
464.1417825239423
 30
0.0
 10
141.3252388212876
 20
464.1417850713425
 30
0.0
 10
141.3252388212876
 20
464.1417876187428
 30
0.0
 10
141.3252388212876
 20
464.6540335786891
 30
0.0
 10
142.3822806509332
 20
465.140247930889
 30
0.0
 10
144.2778476697816
 20
465.5428000765826
 30
0.0
 10
144.5984483156012
 20
465.606803578562
 30
0.0
 10
145.0070868879727
 20
465.6809315963367
 30
0.0
 10
145.4686930546872
 20
465.7566277323953
 30
0.0
 10
145.8368234690811
 20
465.8114525712208
 30
0.0
 10
148.1716990299323
 20
466.1351973578623
 30
0.0
 10
150.9249001703187
 20
466.3123898395785
 30
0.0
 10
153.8252388212914
 20
466.3123898395784
 30
0.0
  0
SPLINE
  5
97
330
1F
100
AcDbEntity
  8
0
  6
Continuous
 62
     7
370
    25
100
AcDbSpline
210
0.0
220
0.0
230
1.0
 70
     8
 71
     3
 72
    18
 73
    14
 74
     0
 42
0.000000001
 43
0.00000001
 40
-0.0000021263988977
 40
-0.0000021263988977
 40
-0.0000021263988977
 40
-0.0000021263988977
 40
0.0
 40
0.0
 40
0.0
 40
0.4275885759528201
 40
0.4413627440184678
 40
0.4674703602842568
 40
0.5038751990645237
 40
0.5336694441824861
 40
0.5666506397578235
 40
0.5795963365626782
 40
1.0
 40
1.0
 40
1.0
 40
1.0
 10
166.3252388212951
 20
464.141779976542
 30
0.0
 10
166.3252388212951
 20
464.1417825239422
 30
0.0
 10
166.3252388212951
 20
464.1417850713424
 30
0.0
 10
166.3252388212951
 20
464.1417876187427
 30
0.0
 10
166.3252388212951
 20
464.6540335786891
 30
0.0
 10
165.2681969916495
 20
465.140247930889
 30
0.0
 10
163.3726299728011
 20
465.5428000765825
 30
0.0
 10
163.0520293269815
 20
465.6068035785619
 30
0.0
 10
162.64339075461
 20
465.6809315963367
 30
0.0
 10
162.1817845878955
 20
465.7566277323952
 30
0.0
 10
161.8136541735015
 20
465.8114525712207
 30
0.0
 10
159.4787786126504
 20
466.1351973578622
 30
0.0
 10
156.7255774722641
 20
466.3123898395784
 30
0.0
 10
153.8252388212914
 20
466.3123898395784
 30
0.0
  0
SPLINE
  5
98
330
1F
100
AcDbEntity
  8
0
  6
Continuous
 62
     7
370
    25
100
AcDbSpline
210
0.0
220
0.0
230
1.0
 70
     8
 71
     3
 72
     8
 73
     4
 74
     0
 42
0.000000001
 43
0.00000001
 40
0.0
 40
0.0
 40
0.0
 40
0.0
 40
1.0
 40
1.0
 40
1.0
 40
1.0
 10
153.8252388212917
 20
482.3711853979045
 30
0.0
 10
146.9257703299839
 20
482.3711853979045
 30
0.0
 10
140.0263452484458
 20
482.1594434130038
 30
0.0
 10
133.1399067680968
 20
481.7357906176275
 30
0.0
  0
SPLINE
  5
99
330
1F
100
AcDbEntity
  8
0
  6
Continuous
 62
     7
370
    25
100
AcDbSpline
210
0.0
220
0.0
230
1.0
 70
     8
 71
     3
 72
     8
 73
     4
 74
     0
 42
0.000000001
 43
0.00000001
 40
0.0
 40
0.0
 40
0.0
 40
0.0
 40
1.0
 40
1.0
 40
1.0
 40
1.0
 10
153.8252388212917
 20
482.3711853979045
 30
0.0
 10
160.7247207795396
 20
482.3711853979045
 30
0.0
 10
167.6241605127472
 20
482.1594416831505
 30
0.0
 10
174.510570874486
 20
481.7357906176275
 30
0.0
  0
LWPOLYLINE
  5
9A
330
1F
100
AcDbEntity
  8
0
  6
Continuous
 62
     7
370
    25
100
AcDbPolyline
 90
       10
 70
   128
 43
0.0
 10
153.8252388213
 20
466.2255657507
 10
155.9090169533
 20
466.1939084787
 10
157.9294805412
 20
466.0998985527
 10
159.8252388213
 20
465.9463924169
 10
161.5386901375
 20
465.7380542775
 10
163.0177721387
 20
465.4812143833
 10
164.2175436667
 20
465.1836766847
 10
165.1015502707
 20
464.8544817141
 10
165.6429318574
 20
464.503631894
 10
165.8252388213
 20
464.1417876187
  0
LWPOLYLINE
  5
9B
330
1F
100
AcDbEntity
  8
0
  6
Continuous
 62
     7
370
    25
100
AcDbPolyline
 90
       10
 70
   128
 43
0.0
 10
141.8252388213
 20
464.1417876187
 10
142.0075457851
 20
464.503631894
 10
142.5489273719
 20
464.8544817141
 10
143.4329339759
 20
465.1836766847
 10
144.6327055039
 20
465.4812143833
 10
146.1117875051
 20
465.7380542775
 10
147.8252388213
 20
465.9463924169
 10
149.7209971014
 20
466.0998985527
 10
151.7414606893
 20
466.1939084787
 10
153.8252388213
 20
466.2255657507
  0
LWPOLYLINE
  5
9C
330
1F
100
AcDbEntity
  8
0
  6
Continuous
 62
     7
370
    25
100
AcDbPolyline
 90
       14
 70
   128
 43
0.0
 10
164.8252388213
 20
458.4029363176
 10
163.7995512808
 20
458.7286971117
 10
162.4572248924
 20
459.0176792939
 10
160.8408723856
 20
459.2607090002
 10
159.0018055676
 20
459.4500711479
 10
156.9984064071
 20
459.5797543541
 10
154.894273674
 20
459.6456417693
 10
152.7562039686
 20
459.6456417693
 10
150.6520712355
 20
459.5797543541
 10
148.648672075
 20
459.4500711479
 10
146.8096052569
 20
459.2607090002
 10
145.1932527502
 20
459.0176792939
 10
143.8509263617
 20
458.7286971117
 10
142.8252388213
 20
458.4029363176
  0
SPLINE
  5
9D
330
1F
100
AcDbEntity
  8
0
  6
Continuous
 62
     7
370
    25
100
AcDbSpline
210
0.0
220
0.0
230
1.0
 70
    24
 71
     3
 72
    10
 73
     6
 74
     0
 42
0.000000001
 43
0.00000001
 40
0.0
 40
0.0
 40
0.0
 40
0.0
 40
0.5
 40
0.5
 40
1.0
 40
1.0
 40
1.0
 40
1.0
 10
164.8252388212914
 20
457.00156989188
 30
0.0
 10
164.8252388212914
 20
457.1417690634981
 30
0.0
 10
164.8252388212914
 20
457.3357701660966
 30
0.0
 10
164.8252388212915
 20
457.8098887487529
 30
0.0
 10
164.8252388212914
 20
458.0899512580451
 30
0.0
 10
164.8252388212914
 20
458.4029363176024
 30
0.0
  0
LWPOLYLINE
  5
9E
330
1F
100
AcDbEntity
  8
0
  6
Continuous
 62
     7
370
    25
100
AcDbPolyline
 90
       18
 70
   128
 43
0.0
 10
164.8252388213
 20
457.0015698919
 10
164.6379429178
 20
457.35255535
 10
164.0824333447
 20
457.6915884192
 10
163.1776273143
 20
458.0071237351
 10
161.9543369107
 20
458.2884161209
 10
160.4542198215
 20
458.5258865018
 10
158.7283607348
 20
458.7114481087
 10
156.8355317121
 20
458.8387818638
 10
154.8401907754
 20
458.9035515686
 10
152.8102868672
 20
458.9035515686
 10
150.8149459305
 20
458.8387818638
 10
148.9221169077
 20
458.7114481087
 10
147.1962578211
 20
458.5258865018
 10
145.6961407319
 20
458.2884161209
 10
144.4728503283
 20
458.0071237351
 10
143.5680442978
 20
457.6915884192
 10
143.0125347248
 20
457.35255535
 10
142.8252388213
 20
457.0015698919
  0
SPLINE
  5
9F
330
1F
100
AcDbEntity
  8
0
  6
Continuous
 62
     7
370
    25
100
AcDbSpline
210
0.0
220
0.0
230
1.0
 70
    24
 71
     3
 72
    10
 73
     6
 74
     0
 42
0.000000001
 43
0.00000001
 40
0.0
 40
0.0
 40
0.0
 40
0.0
 40
0.5
 40
0.5
 40
1.0
 40
1.0
 40
1.0
 40
1.0
 10
142.8252388212914
 20
457.00156989188
 30
0.0
 10
142.8252388212914
 20
457.1417690634981
 30
0.0
 10
142.8252388212914
 20
457.3357701660966
 30
0.0
 10
142.8252388212914
 20
457.8098887487529
 30
0.0
 10
142.8252388212914
 20
458.0899512580451
 30
0.0
 10
142.8252388212914
 20
458.4029363176024
 30
0.0
  0
LINE
  5
A0
330
1F
100
AcDbEntity
  8
0
  6
Continuous
 62
     7
370
    25
100
AcDbLine
 10
164.8252388213
 20
458.4029363176
 30
0.0
 11
164.8252388213
 21
461.7735883083
 31
0.0
  0
LINE
  5
A1
330
1F
100
AcDbEntity
  8
0
  6
Continuous
 62
     7
370
    25
100
AcDbLine
 10
142.8252388213
 20
458.4029363176
 30
0.0
 11
142.8252388213
 21
461.7735883083
 31
0.0
  0
LWPOLYLINE
  5
A2
330
1F
100
AcDbEntity
  8
0
  6
Continuous
 62
     7
370
    25
100
AcDbPolyline
 90
        9
 70
   128
 43
0.0
 10
142.8252388213
 20
460.1080134995
 10
142.3912237512
 20
460.3083948535
 10
142.0778986968
 20
460.5154514739
 10
141.8885709133
 20
460.7269978058
 10
141.8252388213
 20
460.9408009039
 10
141.8885709133
 20
461.1546040021
 10
142.0778986968
 20
461.366150334
 10
142.3912237512
 20
461.5732069543
 10
142.8252388213
 20
461.7735883083
  0
LWPOLYLINE
  5
A3
330
1F
100
AcDbEntity
  8
0
  6
Continuous
 62
     7
370
    25
100
AcDbPolyline
 90
        9
 70
   128
 43
0.0
 10
164.8252388213
 20
461.7735883083
 10
165.2592538914
 20
461.5732069543
 10
165.5725789458
 20
461.366150334
 10
165.7619067293
 20
461.1546040021
 10
165.8252388213
 20
460.9408009039
 10
165.7619067293
 20
460.7269978058
 10
165.5725789458
 20
460.5154514739
 10
165.2592538914
 20
460.3083948535
 10
164.8252388213
 20
460.1080134995
  0
LWPOLYLINE
  5
A4
330
1F
100
AcDbEntity
  8
0
  6
Continuous
 62
     7
370
    25
100
AcDbPolyline
 90
       18
 70
   128
 43
0.0
 10
142.8252388213
 20
457.0015698919
 10
143.0125347248
 20
456.6505844338
 10
143.5680442978
 20
456.3115513645
 10
144.4728503283
 20
455.9960160486
 10
145.6961407319
 20
455.7147236628
 10
147.1962578211
 20
455.477253282
 10
148.9221169077
 20
455.291691675
 10
150.8149459305
 20
455.16435792
 10
152.8102868672
 20
455.0995882152
 10
154.8401907754
 20
455.0995882152
 10
156.8355317121
 20
455.16435792
 10
158.7283607348
 20
455.291691675
 10
160.4542198215
 20
455.477253282
 10
161.9543369107
 20
455.7147236628
 10
163.1776273143
 20
455.9960160486
 10
164.0824333447
 20
456.3115513645
 10
164.6379429178
 20
456.6505844338
 10
164.8252388213
 20
457.0015698919
  0
SPLINE
  5
A5
330
1F
100
AcDbEntity
  8
0
  6
Continuous
 62
     7
370
    25
100
AcDbSpline
210
0.0
220
0.0
230
1.0
 70
     8
 71
     3
 72
     9
 73
     5
 74
     0
 42
0.000000001
 43
0.00000001
 40
0.0
 40
0.0
 40
0.0
 40
0.0
 40
0.6311139725179759
 40
1.0
 40
1.0
 40
1.0
 40
1.0
 10
166.3262593830255
 20
464.1417787819453
 30
0.0
 10
166.3003789030988
 20
464.0177244271835
 30
0.0
 10
166.2593712863233
 20
463.8211603196472
 30
0.0
 10
165.9422284005636
 20
463.6328830461222
 30
0.0
 10
165.8252388212914
 20
463.5634301906263
 30
0.0
  0
SPLINE
  5
A6
330
1F
100
AcDbEntity
  8
0
  6
Continuous
 62
     7
370
    25
100
AcDbSpline
210
0.0
220
0.0
230
1.0
 70
     8
 71
     3
 72
     9
 73
     5
 74
     0
 42
0.000000001
 43
0.00000001
 40
0.0
 40
0.0
 40
0.0
 40
0.0
 40
0.6311139725179319
 40
1.0
 40
1.0
 40
1.0
 40
1.0
 10
141.3242182595573
 20
464.1417787819453
 30
0.0
 10
141.350098739484
 20
464.0177244271835
 30
0.0
 10
141.3911063562596
 20
463.8211603196471
 30
0.0
 10
141.7082492420193
 20
463.6328830461222
 30
0.0
 10
141.8252388212914
 20
463.5634301906263
 30
0.0
  0
LINE
  5
A7
330
1F
100
AcDbEntity
  8
0
  6
Continuous
 62
     7
370
    25
100
AcDbLine
 10
175.5354494782
 20
480.6488762335
 30
0.0
 11
175.5354494782
 21
468.7661927074
 31
0.0
  0
LINE
  5
A8
330
1F
100
AcDbEntity
  8
0
  6
Continuous
 62
     7
370
    25
100
AcDbLine
 10
132.1150281644
 20
480.6488762335
 30
0.0
 11
132.1150281644
 21
468.7661927074
 31
0.0
  0
SPLINE
  5
A9
330
1F
100
AcDbEntity
  8
0
  6
Continuous
 62
     7
370
    25
100
AcDbSpline
210
0.0
220
0.0
230
1.0
 70
     8
 71
     3
 72
    10
 73
     6
 74
     0
 42
0.000000001
 43
0.00000001
 40
0.0
 40
0.0
 40
0.0
 40
0.0
 40
0.0982821540819236
 40
0.5696101828621071
 40
1.0
 40
1.0
 40
1.0
 40
1.0
 10
175.0274066244875
 20
467.6790331812392
 30
0.0
 10
174.7041223357664
 20
467.4091939404026
 30
0.0
 10
172.8304757461588
 20
465.8452968041218
 30
0.0
 10
169.5443867874784
 20
463.0878148806206
 30
0.0
 10
166.3499453345431
 20
460.910290928269
 30
0.0
 10
164.8252388212914
 20
459.8709590131822
 30
0.0
  0
SPLINE
  5
AA
330
1F
100
AcDbEntity
  8
0
  6
Continuous
 62
     7
370
    25
100
AcDbSpline
210
0.0
220
0.0
230
1.0
 70
     8
 71
     3
 72
    10
 73
     6
 74
     0
 42
0.000000001
 43
0.00000001
 40
0.0
 40
0.0
 40
0.0
 40
0.0
 40
0.0982821540821112
 40
0.5696101828623006
 40
1.0
 40
1.0
 40
1.0
 40
1.0
 10
132.6230710180954
 20
467.6790331812392
 30
0.0
 10
132.9463553068171
 20
467.4091939404021
 30
0.0
 10
134.8200018964253
 20
465.8452968041207
 30
0.0
 10
138.1060908551057
 20
463.0878148806197
 30
0.0
 10
141.3005323080404
 20
460.9102909282686
 30
0.0
 10
142.8252388212914
 20
459.8709590131823
 30
0.0
  0
SPLINE
  5
AB
330
1F
100
AcDbEntity
  8
0
  6
Continuous
 62
     7
370
    25
100
AcDbSpline
210
0.0
220
0.0
230
1.0
 70
     8
 71
     3
 72
    10
 73
     6
 74
     0
 42
0.000000001
 43
0.00000001
 40
0.0
 40
0.0
 40
0.0
 40
0.0
 40
0.4999999999999999
 40
0.4999999999999999
 40
1.0
 40
1.0
 40
1.0
 40
1.0
 10
175.5354494782014
 20
468.7661927073815
 30
0.0
 10
175.5354494782325
 20
468.5584389756388
 30
0.0
 10
175.4888742724215
 20
468.3515814336152
 30
0.0
 10
175.3151405612998
 20
467.9800667103547
 30
0.0
 10
175.1868510213619
 20
467.8123584312945
 30
0.0
 10
175.0274179088672
 20
467.6790196879707
 30
0.0
  0
SPLINE
  5
AC
330
1F
100
AcDbEntity
  8
0
  6
Continuous
 62
     7
370
    25
100
AcDbSpline
210
0.0
220
0.0
230
1.0
 70
     8
 71
     3
 72
    10
 73
     6
 74
     0
 42
0.000000001
 43
0.00000001
 40
0.0
 40
0.0
 40
0.0
 40
0.0
 40
0.5
 40
0.5
 40
1.0
 40
1.0
 40
1.0
 40
1.0
 10
132.1150281643815
 20
468.7661927073816
 30
0.0
 10
132.1150281643503
 20
468.5584389758299
 30
0.0
 10
132.1616033705714
 20
468.3515814315376
 30
0.0
 10
132.3353370838514
 20
467.9800667060638
 30
0.0
 10
132.4636266258213
 20
467.812358427447
 30
0.0
 10
132.6230597337156
 20
467.6790196879707
 30
0.0
  0
SPLINE
  5
AD
330
1F
100
AcDbEntity
  8
0
  6
Continuous
 62
     7
370
    25
100
AcDbSpline
210
0.0
220
0.0
230
1.0
 70
     8
 71
     3
 72
    12
 73
     8
 74
     0
 42
0.000000001
 43
0.00000001
 40
0.0
 40
0.0
 40
0.0
 40
0.0
 40
0.2499999999999962
 40
0.2499999999999962
 40
0.4999999999999925
 40
0.4999999999999925
 40
1.0
 40
1.0
 40
1.0
 40
1.0
 10
132.1150427659619
 20
480.6488761580705
 30
0.0
 10
132.1157566072671
 20
480.787089478952
 30
0.0
 10
132.1423071092574
 20
480.9222764099766
 30
0.0
 10
132.2443960776781
 20
481.1774630295692
 30
0.0
 10
132.3192318002708
 20
481.2944908075762
 30
0.0
 10
132.6007877160574
 20
481.5932538911186
 30
0.0
 10
132.8640410113912
 20
481.7181324556533
 30
0.0
 10
133.139906982083
 20
481.7357872739793
 30
0.0
  0
SPLINE
  5
AE
330
1F
100
AcDbEntity
  8
0
  6
Continuous
 62
     7
370
    25
100
AcDbSpline
210
0.0
220
0.0
230
1.0
 70
     8
 71
     3
 72
    12
 73
     8
 74
     0
 42
0.000000001
 43
0.00000001
 40
0.0
 40
0.0
 40
0.0
 40
0.0
 40
0.4999999999999989
 40
0.4999999999999989
 40
0.7499999999999994
 40
0.7499999999999994
 40
1.0
 40
1.0
 40
1.0
 40
1.0
 10
174.510570660501
 20
481.7357872739968
 30
0.0
 10
174.7838888521435
 20
481.7182955097162
 30
0.0
 10
175.0483655680248
 20
481.5947632343859
 30
0.0
 10
175.3321993484935
 20
481.2934269301765
 30
0.0
 10
175.4062411229556
 20
481.177125745136
 30
0.0
 10
175.5081465248935
 20
480.9222747939099
 30
0.0
 10
175.5347238460839
 20
480.7865453352378
 30
0.0
 10
175.5354348766361
 20
480.6488761580705
 30
0.0
  0
SPLINE
  5
AF
330
1F
100
AcDbEntity
  8
0
  6
Continuous
 62
     7
370
    25
100
AcDbSpline
210
0.0
220
0.0
230
1.0
 70
     8
 71
     3
 72
    26
 73
    22
 74
     0
 42
0.000000001
 43
0.00000001
 40
0.0
 40
0.0
 40
0.0
 40
0.0
 40
0.0624999999999998
 40
0.0624999999999998
 40
0.1249999999999997
 40
0.1249999999999997
 40
0.1874999999999994
 40
0.1874999999999994
 40
0.2499999999999993
 40
0.2499999999999993
 40
0.374999999999999
 40
0.374999999999999
 40
0.4999999999999988
 40
0.4999999999999988
 40
0.5624999999999989
 40
0.5624999999999989
 40
0.6249999999999991
 40
0.6249999999999991
 40
0.7499999999999993
 40
0.7499999999999993
 40
1.0
 40
1.0
 40
1.0
 40
1.0
 10
285.5670935271877
 20
461.6184023177592
 30
0.0
 10
285.4691183493723
 20
461.3344860618979
 30
0.0
 10
285.3566146528352
 20
461.0262833479966
 30
0.0
 10
285.1002516682323
 20
460.3262458982001
 30
0.0
 10
284.9564374558007
 20
459.9345493020321
 30
0.0
 10
284.640539581816
 20
459.0532281496011
 30
0.0
 10
284.4685009958972
 20
458.5637417330654
 30
0.0
 10
284.1031827935388
 20
457.4888876983378
 30
0.0
 10
283.9099482527337
 20
456.9036582198732
 30
0.0
 10
283.3128107231873
 20
455.0255158767359
 30
0.0
 10
282.8916663196642
 20
453.6086084629591
 30
0.0
 10
282.0894829634074
 20
450.6386531326518
 30
0.0
 10
281.7098864309715
 20
449.090025687394
 30
0.0
 10
281.2197909156167
 20
446.813914401026
 30
0.0
 10
281.069323714155
 20
446.062571941133
 30
0.0
 10
280.7963795267634
 20
444.5874082558513
 30
0.0
 10
280.6738557060382
 20
443.8635400229709
 30
0.0
 10
280.3441373256322
 20
441.7352908433905
 30
0.0
 10
280.1744840432668
 20
440.3744765089983
 30
0.0
 10
279.7788422774931
 20
436.4362674293452
 30
0.0
 10
279.6654272262849
 20
434.0015919816759
 30
0.0
 10
279.6102447370823
 20
431.6044313039227
 30
0.0
  0
SPLINE
  5
B0
330
1F
100
AcDbEntity
  8
0
  6
Continuous
 62
     7
370
    25
100
AcDbSpline
210
0.0
220
0.0
230
1.0
 70
     8
 71
     3
 72
    26
 73
    22
 74
     0
 42
0.000000001
 43
0.00000001
 40
0.0
 40
0.0
 40
0.0
 40
0.0
 40
0.0624999999999999
 40
0.0624999999999999
 40
0.1249999999999998
 40
0.1249999999999998
 40
0.1874999999999998
 40
0.1874999999999998
 40
0.2499999999999998
 40
0.2499999999999998
 40
0.3749999999999998
 40
0.3749999999999998
 40
0.4999999999999999
 40
0.4999999999999999
 40
0.5625
 40
0.5625
 40
0.6250000000000002
 40
0.6250000000000002
 40
0.7500000000000002
 40
0.7500000000000002
 40
1.0
 40
1.0
 40
1.0
 40
1.0
 10
242.0833841153952
 20
461.6184023177592
 30
0.0
 10
242.1813592932105
 20
461.3344860618979
 30
0.0
 10
242.2938629897477
 20
461.0262833479966
 30
0.0
 10
242.5502259743506
 20
460.3262458982001
 30
0.0
 10
242.6940401867821
 20
459.9345493020321
 30
0.0
 10
243.0099380607668
 20
459.0532281496011
 30
0.0
 10
243.1819766466858
 20
458.5637417330655
 30
0.0
 10
243.547294849044
 20
457.4888876983378
 30
0.0
 10
243.7405293898491
 20
456.9036582198732
 30
0.0
 10
244.3376669193956
 20
455.0255158767359
 30
0.0
 10
244.7588113229187
 20
453.6086084629591
 30
0.0
 10
245.5609946791754
 20
450.6386531326518
 30
0.0
 10
245.9405912116113
 20
449.090025687394
 30
0.0
 10
246.4306867269662
 20
446.813914401026
 30
0.0
 10
246.5811539284279
 20
446.062571941133
 30
0.0
 10
246.8540981158195
 20
444.5874082558512
 30
0.0
 10
246.9766219365446
 20
443.8635400229709
 30
0.0
 10
247.3063403169507
 20
441.7352908433905
 30
0.0
 10
247.475993599316
 20
440.3744765089983
 30
0.0
 10
247.8716353650897
 20
436.4362674293452
 30
0.0
 10
247.985050416298
 20
434.0015919816759
 30
0.0
 10
248.0402329055005
 20
431.6044313039227
 30
0.0
  0
SPLINE
  5
B1
330
1F
100
AcDbEntity
  8
0
  6
Continuous
 62
     7
370
    25
100
AcDbSpline
210
0.0
220
0.0
230
1.0
 70
     8
 71
     3
 72
    22
 73
    18
 74
     0
 42
0.000000001
 43
0.00000001
 40
0.0
 40
0.0
 40
0.0
 40
0.0
 40
0.125
 40
0.125
 40
0.25
 40
0.25
 40
0.375
 40
0.375
 40
0.5
 40
0.5
 40
0.625
 40
0.625
 40
0.75
 40
0.75
 40
0.875
 40
0.875
 40
1.0
 40
1.0
 40
1.0
 40
1.0
 10
248.3111755475273
 20
385.8070482955586
 30
0.0
 10
248.3121619727206
 20
385.6186566825796
 30
0.0
 10
248.3136927589125
 20
385.4292355036752
 30
0.0
 10
248.3412062049322
 20
385.0470550215372
 30
0.0
 10
248.3670732928104
 20
384.8547360518709
 30
0.0
 10
248.4554069810708
 20
384.4831452408646
 30
0.0
 10
248.5177580095034
 20
384.3043137330917
 30
0.0
 10
248.6836900073541
 20
383.9796566695109
 30
0.0
 10
248.7871554048227
 20
383.8342714472701
 30
0.0
 10
249.0358965173265
 20
383.5868293423595
 30
0.0
 10
249.1818214877416
 20
383.4841265949343
 30
0.0
 10
249.507342914943
 20
383.3198967642809
 30
0.0
 10
249.6864984390675
 20
383.2584829458474
 30
0.0
 10
250.0585466683958
 20
383.1720961044899
 30
0.0
 10
250.2509984409378
 20
383.1472363463606
 30
0.0
 10
250.6333177436484
 20
383.1217243606699
 30
0.0
 10
250.8227443411553
 20
383.1211853979034
 30
0.0
 10
251.0111385365954
 20
383.1211853979034
 30
0.0
  0
SPLINE
  5
B2
330
1F
100
AcDbEntity
  8
0
  6
Continuous
 62
     7
370
    25
100
AcDbSpline
210
0.0
220
0.0
230
1.0
 70
     8
 71
     3
 72
    22
 73
    18
 74
     0
 42
0.000000001
 43
0.00000001
 40
0.0
 40
0.0
 40
0.0
 40
0.0
 40
0.125
 40
0.125
 40
0.25
 40
0.25
 40
0.375
 40
0.375
 40
0.5
 40
0.5
 40
0.625
 40
0.625
 40
0.75
 40
0.75
 40
0.875
 40
0.875
 40
1.0
 40
1.0
 40
1.0
 40
1.0
 10
279.3393020950556
 20
385.8070482955586
 30
0.0
 10
279.3383156698622
 20
385.6186566825796
 30
0.0
 10
279.3367848836704
 20
385.4292355036752
 30
0.0
 10
279.3092714376507
 20
385.0470550215372
 30
0.0
 10
279.2834043497725
 20
384.8547360518709
 30
0.0
 10
279.195070661512
 20
384.4831452408646
 30
0.0
 10
279.1327196330794
 20
384.3043137330917
 30
0.0
 10
278.9667876352287
 20
383.9796566695109
 30
0.0
 10
278.8633222377601
 20
383.8342714472701
 30
0.0
 10
278.6145811252563
 20
383.5868293423595
 30
0.0
 10
278.4686561548413
 20
383.4841265949343
 30
0.0
 10
278.1431347276398
 20
383.3198967642809
 30
0.0
 10
277.9639792035154
 20
383.2584829458474
 30
0.0
 10
277.5919309741871
 20
383.1720961044899
 30
0.0
 10
277.3994792016451
 20
383.1472363463606
 30
0.0
 10
277.0171598989345
 20
383.1217243606699
 30
0.0
 10
276.8277333014275
 20
383.1211853979034
 30
0.0
 10
276.6393391059875
 20
383.1211853979034
 30
0.0
  0
SPLINE
  5
B3
330
1F
100
AcDbEntity
  8
0
  6
Continuous
 62
     7
370
    25
100
AcDbSpline
210
0.0
220
0.0
230
1.0
 70
     8
 71
     3
 72
    10
 73
     6
 74
     0
 42
0.000000001
 43
0.00000001
 40
0.0
 40
0.0
 40
0.0
 40
0.0
 40
0.5
 40
0.5
 40
1.0
 40
1.0
 40
1.0
 40
1.0
 10
248.0402329055005
 20
431.6044313039227
 30
0.0
 10
248.0606408635907
 20
430.7178972719462
 30
0.0
 10
248.0729719852006
 20
429.8364999650061
 30
0.0
 10
248.0898887328372
 20
428.0741327392651
 30
0.0
 10
248.0944770361229
 20
427.1930371875691
 30
0.0
 10
248.0990928865954
 20
426.3114827385
 30
0.0
  0
SPLINE
  5
B4
330
1F
100
AcDbEntity
  8
0
  6
Continuous
 62
     7
370
    25
100
AcDbSpline
210
0.0
220
0.0
230
1.0
 70
     8
 71
     3
 72
    10
 73
     6
 74
     0
 42
0.000000001
 43
0.00000001
 40
0.0
 40
0.0
 40
0.0
 40
0.0
 40
0.5
 40
0.5
 40
1.0
 40
1.0
 40
1.0
 40
1.0
 10
279.6102447370823
 20
431.6044313039227
 30
0.0
 10
279.5898367789921
 20
430.7178972719462
 30
0.0
 10
279.5775056573823
 20
429.8364999650061
 30
0.0
 10
279.5605889097457
 20
428.0741327392651
 30
0.0
 10
279.55600060646
 20
427.1930371875691
 30
0.0
 10
279.5513847559874
 20
426.3114827385
 30
0.0
  0
LINE
  5
B5
330
1F
100
AcDbEntity
  8
0
  6
Continuous
 62
     7
370
    25
100
AcDbLine
 10
279.551384756
 20
426.3114827385
 30
0.0
 11
279.3393020951
 21
385.8070482956
 31
0.0
  0
LINE
  5
B6
330
1F
100
AcDbEntity
  8
0
  6
Continuous
 62
     7
370
    25
100
AcDbLine
 10
248.0990928866
 20
426.3114827385
 30
0.0
 11
248.3111755475
 21
385.8070482956
 31
0.0
  0
LINE
  5
B7
330
1F
100
AcDbEntity
  8
0
  6
Continuous
 62
     7
370
    25
100
AcDbLine
 10
276.639339106
 20
383.1211853979
 30
0.0
 11
251.0111385366
 21
383.1211853979
 31
0.0
  0
ARC
  5
B8
330
1F
100
AcDbEntity
  8
0
  6
Continuous
 62
     7
370
    25
100
AcDbCircle
 10
263.8252388213
 20
469.1211853979
 30
0.0
 40
23.00000000000005
100
AcDbArc
 50
340.9612250536
 51
199.0387749464
  0
SPLINE
  5
B9
330
1F
100
AcDbEntity
  8
0
  6
Continuous
 62
     7
370
    25
100
AcDbSpline
210
0.0
220
0.0
230
1.0
 70
     8
 71
     3
 72
    20
 73
    16
 74
     0
 42
0.000000001
 43
0.00000001
 40
0.0
 40
0.0
 40
0.0
 40
0.0
 40
0.2500000000000072
 40
0.2500000000000072
 40
0.3750000000000059
 40
0.3750000000000059
 40
0.5000000000000048
 40
0.5000000000000048
 40
0.6250000000000036
 40
0.6250000000000036
 40
0.7500000000000023
 40
0.7500000000000023
 40
0.8750000000000012
 40
0.8750000000000012
 40
1.0
 40
1.0
 40
1.0
 40
1.0
 10
111.5780761191215
 20
434.0740610774531
 30
0.0
 10
111.1898340571001
 20
434.0740610774531
 30
0.0
 10
110.8022325440439
 20
434.0810486495661
 30
0.0
 10
110.2315049951435
 20
434.2079775935144
 30
0.0
 10
110.0450095834324
 20
434.2684953061098
 30
0.0
 10
109.6952664327115
 20
434.4391065065803
 30
0.0
 10
109.5320671551301
 20
434.5507510666448
 30
0.0
 10
109.2585815729945
 20
434.8232147320505
 30
0.0
 10
109.1454468062638
 20
434.9874804872924
 30
0.0
 10
108.9741110401095
 20
435.3368193324116
 30
0.0
 10
108.9128958850424
 20
435.524785405643
 30
0.0
 10
108.8283438447425
 20
435.9025484931082
 30
0.0
 10
108.8041973175381
 20
436.0948284292311
 30
0.0
 10
108.7787838746813
 20
436.4836771085619
 30
0.0
 10
108.7781145008354
 20
436.6789977549059
 30
0.0
 10
108.7781145008401
 20
436.8740226957459
 30
0.0
  0
SPLINE
  5
BA
330
1F
100
AcDbEntity
  8
0
  6
Continuous
 62
     7
370
    25
100
AcDbSpline
210
0.0
220
0.0
230
1.0
 70
     8
 71
     3
 72
    20
 73
    16
 74
     0
 42
0.000000001
 43
0.00000001
 40
0.0
 40
0.0
 40
0.0
 40
0.0
 40
0.2500000000000033
 40
0.2500000000000033
 40
0.3750000000000028
 40
0.3750000000000028
 40
0.5000000000000023
 40
0.5000000000000023
 40
0.6250000000000018
 40
0.6250000000000018
 40
0.7500000000000012
 40
0.7500000000000012
 40
0.8750000000000007
 40
0.8750000000000007
 40
1.0
 40
1.0
 40
1.0
 40
1.0
 10
108.7781145008401
 20
501.3683481000627
 30
0.0
 10
108.7781145008307
 20
501.7565901620846
 30
0.0
 10
108.7851020729418
 20
502.1441916751406
 30
0.0
 10
108.9120310168856
 20
502.714919224041
 30
0.0
 10
108.9725487294802
 20
502.9014146357541
 30
0.0
 10
109.1431599299491
 20
503.2511577864763
 30
0.0
 10
109.2548044900135
 20
503.4143570640593
 30
0.0
 10
109.5272681554198
 20
503.6878426461957
 30
0.0
 10
109.6915339106627
 20
503.8009774129258
 30
0.0
 10
110.040872755784
 20
503.9723131790782
 30
0.0
 10
110.228838829016
 20
504.0335283341441
 30
0.0
 10
110.6066019164824
 20
504.1180803744431
 30
0.0
 10
110.7988818526058
 20
504.1422269016477
 30
0.0
 10
111.1877305319369
 20
504.1676403445072
 30
0.0
 10
111.3830511782811
 20
504.1683097183556
 30
0.0
 10
111.5780761191215
 20
504.1683097183556
 30
0.0
  0
SPLINE
  5
BB
330
1F
100
AcDbEntity
  8
0
  6
Continuous
 62
     7
370
    25
100
AcDbSpline
210
0.0
220
0.0
230
1.0
 70
     8
 71
     3
 72
    20
 73
    16
 74
     0
 42
0.000000001
 43
0.00000001
 40
0.0
 40
0.0
 40
0.0
 40
0.0
 40
0.2500000000000014
 40
0.2500000000000014
 40
0.3750000000000011
 40
0.3750000000000011
 40
0.5000000000000009
 40
0.5000000000000009
 40
0.6250000000000006
 40
0.6250000000000006
 40
0.7500000000000003
 40
0.7500000000000003
 40
0.8750000000000002
 40
0.8750000000000002
 40
1.0
 40
1.0
 40
1.0
 40
1.0
 10
308.8723631417428
 20
436.8740226957459
 30
0.0
 10
308.8723631417348
 20
436.4857806337247
 30
0.0
 10
308.8653755696201
 20
436.0981791206682
 30
0.0
 10
308.7384466256727
 20
435.5274515717699
 30
0.0
 10
308.6779289130774
 20
435.3409561600563
 30
0.0
 10
308.5073177126093
 20
434.9912130093344
 30
0.0
 10
308.395673152545
 20
434.8280137317503
 30
0.0
 10
308.12320948714
 20
434.5545281496136
 30
0.0
 10
307.9589437318977
 20
434.4413933828828
 30
0.0
 10
307.6096048867772
 20
434.2700576167295
 30
0.0
 10
307.4216388135449
 20
434.2088424616634
 30
0.0
 10
307.0438757260786
 20
434.1242904213645
 30
0.0
 10
306.8515957899554
 20
434.1001438941603
 30
0.0
 10
306.4627471106249
 20
434.0747304513014
 30
0.0
 10
306.2674264642806
 20
434.0740610774531
 30
0.0
 10
306.0724015234404
 20
434.0740610774531
 30
0.0
  0
SPLINE
  5
BC
330
1F
100
AcDbEntity
  8
0
  6
Continuous
 62
     7
370
    25
100
AcDbSpline
210
0.0
220
0.0
230
1.0
 70
     8
 71
     3
 72
    20
 73
    16
 74
     0
 42
0.000000001
 43
0.00000001
 40
0.0
 40
0.0
 40
0.0
 40
0.0
 40
0.2500000000000007
 40
0.2500000000000007
 40
0.3750000000000006
 40
0.3750000000000006
 40
0.5000000000000004
 40
0.5000000000000004
 40
0.6250000000000003
 40
0.6250000000000003
 40
0.7500000000000002
 40
0.7500000000000002
 40
0.8750000000000002
 40
0.8750000000000002
 40
1.0
 40
1.0
 40
1.0
 40
1.0
 10
306.0724015234404
 20
504.1683097183557
 30
0.0
 10
306.4606435854614
 20
504.1683097183556
 30
0.0
 10
306.8482450985173
 20
504.1613221462417
 30
0.0
 10
307.4189726474166
 20
504.0343932022899
 30
0.0
 10
307.6054680591268
 20
503.9738754896933
 30
0.0
 10
307.9552112098466
 20
503.8032642892211
 30
0.0
 10
308.1184104874277
 20
503.6916197291566
 30
0.0
 10
308.3918960695638
 20
503.4191560637523
 30
0.0
 10
308.5050308362958
 20
503.2548903085114
 30
0.0
 10
308.676366602452
 20
502.9055514633939
 30
0.0
 10
308.73758175752
 20
502.7175853901628
 30
0.0
 10
308.8221337978214
 20
502.3398223026981
 30
0.0
 10
308.8462803250266
 20
502.1475423665755
 30
0.0
 10
308.8716937678885
 20
501.7586936872463
 30
0.0
 10
308.8723631417387
 20
501.5633730409025
 30
0.0
 10
308.8723631417428
 20
501.3683481000628
 30
0.0
  0
LINE
  5
BD
330
1F
100
AcDbEntity
  8
0
  6
Continuous
 62
     7
370
    25
100
AcDbLine
 10
306.0724015234
 20
504.1683097184
 30
0.0
 11
111.5780761191
 21
504.1683097184
 31
0.0
  0
LINE
  5
BE
330
1F
100
AcDbEntity
  8
0
  6
Continuous
 62
     7
370
    25
100
AcDbLine
 10
111.5780761191
 20
434.0740610775
 30
0.0
 11
247.9290715492
 21
434.0740610775
 31
0.0
  0
LINE
  5
BF
330
1F
100
AcDbEntity
  8
0
  6
Continuous
 62
     7
370
    25
100
AcDbLine
 10
279.7214060934
 20
434.0740610775
 30
0.0
 11
306.0724015234
 21
434.0740610775
 31
0.0
  0
LINE
  5
C0
330
1F
100
AcDbEntity
  8
0
  6
Continuous
 62
     7
370
    25
100
AcDbLine
 10
308.8723631417
 20
436.8740226957
 30
0.0
 11
308.8723631417
 21
501.3683481001
 31
0.0
  0
LINE
  5
C1
330
1F
100
AcDbEntity
  8
0
  6
Continuous
 62
     7
370
    25
100
AcDbLine
 10
108.7781145008
 20
501.3683481001
 30
0.0
 11
108.7781145008
 21
436.8740226957
 31
0.0
  0
LINE
  5
C2
330
1F
100
AcDbEntity
  8
0
  6
Continuous
 62
     8
370
    18
100
AcDbLine
 10
132.1774680402
 20
470.0885725451
 30
0.0
 11
132.1774680402
 21
480.6055234306
 31
0.0
  0
LINE
  5
C3
330
1F
100
AcDbEntity
  8
0
  6
Continuous
 62
     8
370
    18
100
AcDbLine
 10
175.4730096023
 20
470.0885725451
 30
0.0
 11
175.4730096023
 21
480.6130105472
 31
0.0
  0
ARC
  5
C4
330
1F
100
AcDbEntity
  8
0
  6
Continuous
 62
     8
370
    18
100
AcDbCircle
 10
133.2398287282
 20
480.612962961
 30
0.0
 40
1.062360687931968
100
AcDbArc
 50
90.1832736746
 51
179.9999132138
  0
SPLINE
  5
C5
330
1F
100
AcDbEntity
  8
0
  6
Continuous
 62
     8
370
    18
100
AcDbSpline
210
0.0
220
0.0
230
1.0
 70
     8
 71
     3
 72
    17
 73
    13
 74
     0
 42
0.000000001
 43
0.00000001
 40
0.0
 40
0.0
 40
0.0
 40
0.0
 40
0.1013633771746835
 40
0.184490974720354
 40
0.2495775742541657
 40
0.3463583534454859
 40
0.4288178211139194
 40
0.5004888050303103
 40
0.6111399394795667
 40
0.7503099099639956
 40
0.85467438918396
 40
1.0
 40
1.0
 40
1.0
 40
1.0
 10
133.2364305299636
 20
481.6753182139822
 30
0.0
 10
133.2374917753193
 20
481.675053175992
 30
0.0
 10
133.2394233426718
 20
481.6745707816748
 30
0.0
 10
133.2564734930705
 20
481.6739976649164
 30
0.0
 10
133.2930096714457
 20
481.6735013730082
 30
0.0
 10
133.3673621878952
 20
481.6731104651028
 30
0.0
 10
133.4991467984048
 20
481.6728266361704
 30
0.0
 10
133.7175818587
 20
481.6726860751313
 30
0.0
 10
134.1110131578065
 20
481.6728353782939
 30
0.0
 10
134.5914280679106
 20
481.6731842935565
 30
0.0
 10
135.1289600542947
 20
481.6736942960908
 30
0.0
 10
135.4749758845888
 20
481.6740514692348
 30
0.0
 10
135.6763653825951
 20
481.6742593525565
 30
0.0
  0
SPLINE
  5
C6
330
1F
100
AcDbEntity
  8
0
  6
Continuous
 62
     8
370
    18
100
AcDbSpline
210
0.0
220
0.0
230
1.0
 70
     8
 71
     3
 72
    15
 73
    11
 74
     0
 42
0.000000001
 43
0.00000001
 40
0.0
 40
0.0
 40
0.0
 40
0.0
 40
0.1024824867629574
 40
0.2388236764944092
 40
0.395100658770091
 40
0.4976047488058966
 40
0.6038706316132225
 40
0.7581901384682613
 40
0.9007298936205068
 40
1.0
 40
1.0
 40
1.0
 40
1.0
 10
135.6622909296572
 20
469.1476521191516
 30
0.0
 10
135.5046375291749
 20
469.1501068496303
 30
0.0
 10
135.1372443686038
 20
469.1558273173534
 30
0.0
 10
134.5308366245698
 20
469.1720675588172
 30
0.0
 10
133.9415897338676
 20
469.1869919541539
 30
0.0
 10
133.458374829684
 20
469.1941505550234
 30
0.0
 10
133.1412308178395
 20
469.1799923843184
 30
0.0
 10
132.9617275001215
 20
469.1565221729239
 30
0.0
 10
132.8972253919415
 20
469.1316597948166
 30
0.0
 10
132.8896786124978
 20
469.12073367133
 30
0.0
 10
132.8865804361313
 20
469.1162481741961
 30
0.0
  0
ARC
  5
C7
330
1F
100
AcDbEntity
  8
0
  6
Continuous
 62
     8
370
    18
100
AcDbCircle
 10
133.1924205821
 20
470.0840242285
 30
0.0
 40
1.01495255369905
100
AcDbArc
 50
180.0087420688
 51
252.4622304746
  0
ARC
  5
C8
330
1F
100
AcDbEntity
  8
0
  6
Continuous
 62
     8
370
    18
100
AcDbCircle
 10
174.4580570605
 20
470.0840242285
 30
0.0
 40
1.014952553698822
100
AcDbArc
 50
287.5377695253
 51
359.9912579312
  0
SPLINE
  5
C9
330
1F
100
AcDbEntity
  8
0
  6
Continuous
 62
     8
370
    18
100
AcDbSpline
210
0.0
220
0.0
230
1.0
 70
     8
 71
     3
 72
    18
 73
    14
 74
     0
 42
0.000000001
 43
0.00000001
 40
0.0
 40
0.0
 40
0.0
 40
0.0
 40
0.2499999999999981
 40
0.2499999999999981
 40
0.3749999999999971
 40
0.3749999999999971
 40
0.4999999999999961
 40
0.4999999999999961
 40
0.6249999999999951
 40
0.6249999999999951
 40
0.7499999999999942
 40
0.7499999999999942
 40
1.0
 40
1.0
 40
1.0
 40
1.0
 10
174.7638972064516
 20
469.1162481741962
 30
0.0
 10
174.7563571099742
 20
469.1249552361145
 30
0.0
 10
174.7440988372274
 20
469.1401249942695
 30
0.0
 10
174.6349560346951
 20
469.1631454008011
 30
0.0
 10
174.5845727470955
 20
469.170765787822
 30
0.0
 10
174.4275889268367
 20
469.1841110734455
 30
0.0
 10
174.3180561753744
 20
469.1897321275625
 30
0.0
 10
174.010869932821
 20
469.1925225671761
 30
0.0
 10
173.8274591603572
 20
469.189573104237
 30
0.0
 10
173.4617175069217
 20
469.1813899460574
 30
0.0
 10
173.2733681510472
 20
469.1760782469842
 30
0.0
 10
172.7121001353845
 20
469.1609527584597
 30
0.0
 10
172.3438565779108
 20
469.1517349061518
 30
0.0
 10
171.9881867129255
 20
469.1476521191517
 30
0.0
  0
SPLINE
  5
CA
330
1F
100
AcDbEntity
  8
0
  6
Continuous
 62
     8
370
    18
100
AcDbSpline
210
0.0
220
0.0
230
1.0
 70
     8
 71
     3
 72
     8
 73
     4
 74
     0
 42
0.000000001
 43
0.00000001
 40
0.0
 40
0.0
 40
0.0
 40
0.0
 40
1.0
 40
1.0
 40
1.0
 40
1.0
 10
135.6763653825951
 20
481.6742593525565
 30
0.0
 10
141.7259898896259
 20
481.6805346571233
 30
0.0
 10
147.7756143966456
 20
481.6804623756387
 30
0.0
 10
153.8252389036655
 20
481.6804526768914
 30
0.0
  0
SPLINE
  5
CB
330
1F
100
AcDbEntity
  8
0
  6
Continuous
 62
     8
370
    18
100
AcDbSpline
210
0.0
220
0.0
230
1.0
 70
     8
 71
     3
 72
    17
 73
    13
 74
     0
 42
0.000000001
 43
0.00000001
 40
0.0
 40
0.0
 40
0.0
 40
0.0
 40
0.1014221813722785
 40
0.1845838270053717
 40
0.2496794023070974
 40
0.3464937167668079
 40
0.4289771292931664
 40
0.5006612644417946
 40
0.6112884877235082
 40
0.7504117062930596
 40
0.8547533127487843
 40
1.0
 40
1.0
 40
1.0
 40
1.0
 10
171.9741121909481
 20
481.6742589181619
 30
0.0
 10
172.1146349119054
 20
481.6741140496567
 30
0.0
 10
172.3703799694908
 20
481.6738503954664
 30
0.0
 10
172.716054436151
 20
481.6735068931495
 30
0.0
 10
173.0538579124575
 20
481.6731981501437
 30
0.0
 10
173.385655201978
 20
481.6729479866366
 30
0.0
 10
173.7096630351892
 20
481.6727627191673
 30
0.0
 10
174.0113718824635
 20
481.6726965065848
 30
0.0
 10
174.2460774524367
 20
481.6729387710162
 30
0.0
 10
174.3636196275624
 20
481.6734762204269
 30
0.0
 10
174.4092306842047
 20
481.6742947787537
 30
0.0
 10
174.4122753065974
 20
481.6749412027993
 30
0.0
 10
174.4140471097133
 20
481.6753173861122
 30
0.0
  0
ARC
  5
CC
330
1F
100
AcDbEntity
  8
0
  6
Continuous
 62
     8
370
    18
100
AcDbCircle
 10
174.4106489173
 20
480.612962136
 30
0.0
 40
1.062360685034753
100
AcDbArc
 50
0.0000867825
 51
89.8167266378
  0
SPLINE
  5
CD
330
1F
100
AcDbEntity
  8
0
  6
Continuous
 62
     8
370
    18
100
AcDbSpline
210
0.0
220
0.0
230
1.0
 70
     8
 71
     3
 72
     8
 73
     4
 74
     0
 42
0.000000001
 43
0.00000001
 40
0.0
 40
0.0
 40
0.0
 40
0.0
 40
1.0
 40
1.0
 40
1.0
 40
1.0
 10
153.8252389036655
 20
481.6804526768914
 30
0.0
 10
159.8748633327633
 20
481.680461440879
 30
0.0
 10
165.9244877618613
 20
481.6805338310024
 30
0.0
 10
171.9741121909481
 20
481.6742589181619
 30
0.0
  0
SPLINE
  5
CE
330
1F
100
AcDbEntity
  8
0
  6
Continuous
 62
     8
370
    18
100
AcDbSpline
210
0.0
220
0.0
230
1.0
 70
     8
 71
     3
 72
    12
 73
     8
 74
     0
 42
0.000000001
 43
0.00000001
 40
0.0
 40
0.0
 40
0.0
 40
0.0
 40
0.2499999999999997
 40
0.2499999999999997
 40
0.4999999999999994
 40
0.4999999999999994
 40
1.0
 40
1.0
 40
1.0
 40
1.0
 10
171.9881867129246
 20
469.1476521191517
 30
0.0
 10
170.4541738494248
 20
469.1300430060832
 30
0.0
 10
168.9508782642853
 20
469.1393372398124
 30
0.0
 10
165.9260556281233
 20
469.1336416798376
 30
0.0
 10
164.4135929234535
 20
469.1309714259461
 30
0.0
 10
159.8760138710473
 20
469.1241050162618
 30
0.0
 10
156.8502893629578
 20
469.1211512654106
 30
0.0
 10
153.8252388212914
 20
469.1211512900786
 30
0.0
  0
SPLINE
  5
CF
330
1F
100
AcDbEntity
  8
0
  6
Continuous
 62
     8
370
    18
100
AcDbSpline
210
0.0
220
0.0
230
1.0
 70
     8
 71
     3
 72
    16
 73
    12
 74
     0
 42
0.000000001
 43
0.00000001
 40
0.0
 40
0.0
 40
0.0
 40
0.0
 40
0.237077181085075
 40
0.4996869929446803
 40
0.5946279517368549
 40
0.699540982840362
 40
0.8009646074506522
 40
0.8817948095758572
 40
0.9419599926250767
 40
0.9813843223822942
 40
1.0
 40
1.0
 40
1.0
 40
1.0
 10
153.8252388212914
 20
469.1211512900786
 30
0.0
 10
152.3898913933468
 20
469.1215754067664
 30
0.0
 10
149.3646131408475
 20
469.122469316469
 30
0.0
 10
145.7645339042332
 20
469.1269945398645
 30
0.0
 10
142.9646242470409
 20
469.1315020441649
 30
0.0
 10
141.140588734343
 20
469.134741211843
 30
0.0
 10
139.4019901331737
 20
469.1379649650271
 30
0.0
 10
137.9342956806843
 20
469.1407022306886
 30
0.0
 10
136.8419998522287
 20
469.1433702202739
 30
0.0
 10
136.1262976713342
 20
469.1449466144032
 30
0.0
 10
135.7749740257171
 20
469.1469950928112
 30
0.0
 10
135.6622909296583
 20
469.1476521191517
 30
0.0
  0
SPLINE
  5
D0
330
1F
100
AcDbEntity
  8
0
  6
Continuous
 62
     8
370
    18
100
AcDbSpline
210
0.0
220
0.0
230
1.0
 70
     8
 71
     3
 72
     8
 73
     4
 74
     0
 42
0.000000001
 43
0.00000001
 40
0.0660517884963816
 40
0.0660517884963816
 40
0.0660517884963816
 40
0.0660517884963816
 40
1.0
 40
1.0
 40
1.0
 40
1.0
 10
132.7637533965182
 20
468.8937081443542
 30
0.0
 10
135.553975740246
 20
467.1924581898898
 30
0.0
 10
138.4040696501707
 20
465.6105716375907
 30
0.0
 10
141.3252388212914
 20
464.1417876187409
 30
0.0
  0
SPLINE
  5
D1
330
1F
100
AcDbEntity
  8
0
  6
Continuous
 62
     8
370
    18
100
AcDbSpline
210
0.0
220
0.0
230
1.0
 70
     8
 71
     3
 72
    17
 73
    13
 74
     0
 42
0.000000001
 43
0.00000001
 40
0.0
 40
0.0
 40
0.0
 40
0.0
 40
0.0117953204103733
 40
0.0430807758439715
 40
0.093855055084766
 40
0.1640517278709969
 40
0.226673090047167
 40
0.2862408455259102
 40
0.3959126070769364
 40
0.5003028279328415
 40
0.7502095136946998
 40
1.0
 40
1.0
 40
1.0
 40
1.0
 10
132.8865804361315
 20
469.1162481741963
 30
0.0
 10
132.8835808196226
 20
469.1151755020513
 30
0.0
 10
132.872625135339
 20
469.1112577154524
 30
0.0
 10
132.8686799053049
 20
469.1037537376757
 30
0.0
 10
132.8646691161579
 20
469.0910963817246
 30
0.0
 10
132.8588162909208
 20
469.0757936086599
 30
0.0
 10
132.8525687608026
 20
469.0596609095824
 30
0.0
 10
132.8429187818825
 20
469.0409346400363
 30
0.0
 10
132.8305056549144
 20
469.0193216593911
 30
0.0
 10
132.809915205492
 20
468.9834252806675
 30
0.0
 10
132.782779621366
 20
468.9393168351081
 30
0.0
 10
132.7677326365832
 20
468.9104352229621
 30
0.0
 10
132.7602108937029
 20
468.8959977749506
 30
0.0
  0
SPLINE
  5
D2
330
1F
100
AcDbEntity
  8
0
  6
Continuous
 62
     8
370
    18
100
AcDbSpline
210
0.0
220
0.0
230
1.0
 70
     8
 71
     3
 72
    12
 73
     8
 74
     0
 42
0.000000001
 43
0.00000001
 40
0.0
 40
0.0
 40
0.0
 40
0.0
 40
0.5000000000000022
 40
0.5000000000000022
 40
0.7500000000000011
 40
0.7500000000000011
 40
1.0
 40
1.0
 40
1.0
 40
1.0
 10
174.89026674888
 20
468.8959977749506
 30
0.0
 10
174.8773045267158
 20
468.9227574975866
 30
0.0
 10
174.8562923146146
 20
468.9568946739374
 30
0.0
 10
174.823035652847
 20
469.0137788447181
 30
0.0
 10
174.8117184900636
 20
469.0335969747604
 30
0.0
 10
174.7900415225481
 20
469.0735314052417
 30
0.0
 10
174.7965149037966
 20
469.0785825402978
 30
0.0
 10
174.7638972064514
 20
469.1162481741964
 30
0.0
  0
SPLINE
  5
D3
330
1F
100
AcDbEntity
  8
0
  6
Continuous
 62
     8
370
    18
100
AcDbSpline
210
0.0
220
0.0
230
1.0
 70
     8
 71
     3
 72
    16
 73
    12
 74
     0
 42
0.000000001
 43
0.00000001
 40
0.0
 40
0.0
 40
0.0
 40
0.0
 40
0.1116636678600936
 40
0.223166429387122
 40
0.3345174844646763
 40
0.4457264132192129
 40
0.5568034000425817
 40
0.6677590547864267
 40
0.7786039559590059
 40
0.8893480445928372
 40
1.0
 40
1.0
 40
1.0
 40
1.0
 10
174.8867923965433
 20
468.8935963728853
 30
0.0
 10
174.5750263401628
 20
468.704620954991
 30
0.0
 10
173.9519434794625
 20
468.3269424310662
 30
0.0
 10
173.0114887479131
 20
467.7716160765612
 30
0.0
 10
172.067645530473
 20
467.2250474019427
 30
0.0
 10
171.1199482549223
 20
466.6879930313074
 30
0.0
 10
170.1685361889989
 20
466.1602085715495
 30
0.0
 10
169.213446819641
 20
465.6415901181323
 30
0.0
 10
168.254632703642
 20
465.1322140688486
 30
0.0
 10
167.2925376931642
 20
464.631182151825
 30
0.0
 10
166.6476964208712
 20
464.3045885750685
 30
0.0
 10
166.3254099589991
 20
464.1413597421051
 30
0.0
  0
SPLINE
  5
D4
330
1F
100
AcDbEntity
  8
0
  6
Continuous
 62
     8
370
    18
100
AcDbSpline
210
0.0
220
0.0
230
1.0
 70
     8
 71
     3
 72
    27
 73
    23
 74
     0
 42
0.000000001
 43
0.00000001
 40
0.0
 40
0.0
 40
0.0
 40
0.0
 40
0.0117653501344894
 40
0.0448758823004689
 40
0.0713443537434275
 40
0.1507419570816681
 40
0.2561962770531897
 40
0.3628621851138954
 40
0.4429086499397537
 40
0.5229543729529432
 40
0.5763216849268468
 40
0.6031532128095796
 40
0.6299836863968045
 40
0.6836430986591274
 40
0.723550065790669
 40
0.7501548028434414
 40
0.7634571318215075
 40
0.8429063662426732
 40
0.8693329470471913
 40
0.8957591861466997
 40
0.9478793308939378
 40
1.0
 40
1.0
 40
1.0
 40
1.0
 10
174.414930876144
 20
481.6770344318475
 30
0.0
 10
174.3458223560827
 20
481.6774105274806
 30
0.0
 10
174.0822257969679
 20
481.6788450469108
 30
0.0
 10
173.6578631654363
 20
481.6812785375584
 30
0.0
 10
172.8201291077697
 20
481.6862883271784
 30
0.0
 10
171.5155447722543
 20
481.6945619028964
 30
0.0
 10
169.6474856269457
 20
481.7067484824083
 30
0.0
 10
167.7060149923777
 20
481.7188788098034
 30
0.0
 10
165.8853088116372
 20
481.7292738778613
 30
0.0
 10
164.3991839311197
 20
481.7368826942363
 30
0.0
 10
163.2679294074601
 20
481.7420263957641
 30
0.0
 10
162.5067553695924
 20
481.745207959044
 30
0.0
 10
161.7399890574626
 20
481.748220640597
 30
0.0
 10
160.8741767818075
 20
481.7512891093788
 30
0.0
 10
160.004495433844
 20
481.7539665513565
 30
0.0
 10
159.4246028274412
 20
481.7555570677532
 30
0.0
 10
158.5555960243125
 20
481.7577639704613
 30
0.0
 10
157.6835635442282
 20
481.7595638772785
 30
0.0
 10
156.7123274542873
 20
481.7610327837281
 30
0.0
 10
155.9405682818261
 20
481.7619818353281
 30
0.0
 10
154.9781808515581
 20
481.7628066681112
 30
0.0
 10
154.209554121163
 20
481.762927900326
 30
0.0
 10
153.8252388227677
 20
481.7629885167384
 30
0.0
  0
LINE
  5
D5
330
1F
100
AcDbEntity
  8
0
  6
Continuous
 62
     8
370
    18
100
AcDbLine
 10
174.4140471097
 20
481.6753173861
 30
0.0
 11
174.4145679357
 21
481.6770363904
 31
0.0
  0
LINE
  5
D6
330
1F
100
AcDbEntity
  8
0
  6
Continuous
 62
     8
370
    18
100
AcDbLine
 10
133.2359096945
 20
481.6770372225
 30
0.0
 11
133.23643053
 21
481.675318214
 31
0.0
  0
SPLINE
  5
D7
330
1F
100
AcDbEntity
  8
0
  6
Continuous
 62
     8
370
    18
100
AcDbSpline
210
0.0
220
0.0
230
1.0
 70
     8
 71
     3
 72
    29
 73
    25
 74
     0
 42
0.000000001
 43
0.00000001
 40
0.0
 40
0.0
 40
0.0
 40
0.0
 40
0.0123228845376729
 40
0.0457284022488475
 40
0.0723317643278598
 40
0.1521336915921106
 40
0.2306340341431045
 40
0.256802819518888
 40
0.415659951574646
 40
0.4687484369876264
 40
0.521835644855165
 40
0.5882987451593784
 40
0.6150534766404507
 40
0.6284308080533737
 40
0.7086404725164197
 40
0.7353492548631438
 40
0.7487032994096526
 40
0.7887646392601714
 40
0.8550324919641646
 40
0.8682871676154182
 40
0.9073522403979618
 40
0.9473970600018813
 40
0.9736984491244121
 40
1.0
 40
1.0
 40
1.0
 40
1.0
 10
133.2370278682301
 20
481.6770432569336
 30
0.0
 10
133.3094122718881
 20
481.6774373963701
 30
0.0
 10
133.578020089879
 20
481.6788999895351
 30
0.0
 10
134.00838088282
 20
481.6813714838807
 30
0.0
 10
134.8514265517478
 20
481.6864196035152
 30
0.0
 10
135.9934437968299
 20
481.6936685485437
 30
0.0
 10
137.1697430397072
 20
481.7013128192827
 30
0.0
 10
138.881468326393
 20
481.712296396431
 30
0.0
 10
140.4791150045931
 20
481.7221567857854
 30
0.0
 10
142.3056656474808
 20
481.7320606971889
 30
0.0
 10
143.5104918578531
 20
481.738098644887
 30
0.0
 10
144.5444950252148
 20
481.7427523923428
 30
0.0
 10
145.3040854469706
 20
481.7458426470869
 30
0.0
 10
146.164482313464
 20
481.7491799394575
 30
0.0
 10
147.0312819698169
 20
481.7521548776492
 30
0.0
 10
147.9035060653105
 20
481.7546777552136
 30
0.0
 10
148.4858991948815
 20
481.7562441455316
 30
0.0
 10
149.3583363389186
 20
481.7583536832651
 30
0.0
 10
150.2343743404273
 20
481.7599910263666
 30
0.0
 10
151.1051029419124
 20
481.7612561660497
 30
0.0
 10
151.7843158937139
 20
481.7620587436151
 30
0.0
 10
152.5606716873994
 20
481.7626483539689
 30
0.0
 10
153.2435150067509
 20
481.7629419654698
 30
0.0
 10
153.6313304856031
 20
481.7629729996171
 30
0.0
 10
153.8252388212919
 20
481.7629885167384
 30
0.0
  0
SPLINE
  5
D8
330
1F
100
AcDbEntity
  8
0
  6
Continuous
 62
     8
370
    18
100
AcDbSpline
210
0.0
220
0.0
230
1.0
 70
     8
 71
     3
 72
    11
 73
     7
 74
     0
 42
0.000000001
 43
0.00000001
 40
0.0
 40
0.0
 40
0.0
 40
0.0
 40
0.4022371812388782
 40
0.7037011773803079
 40
0.9030951424435054
 40
1.0
 40
1.0
 40
1.0
 40
1.0
 10
133.2273707205441
 20
481.6832316961581
 30
0.0
 10
133.2283689256114
 20
481.6825177096979
 30
0.0
 10
133.230115253683
 20
481.6812686130553
 30
0.0
 10
133.224363109355
 20
481.6795234805301
 30
0.0
 10
133.2249927666679
 20
481.6782213575926
 30
0.0
 10
133.2326774400436
 20
481.67707799996
 30
0.0
 10
133.2351907209681
 20
481.6767040635821
 30
0.0
  0
SPLINE
  5
D9
330
1F
100
AcDbEntity
  8
0
  6
Continuous
 62
     8
370
    18
100
AcDbSpline
210
0.0
220
0.0
230
1.0
 70
     8
 71
     3
 72
    10
 73
     6
 74
     0
 42
0.000000001
 43
0.00000001
 40
0.0
 40
0.0
 40
0.0
 40
0.0
 40
0.5
 40
0.5
 40
1.0
 40
1.0
 40
1.0
 40
1.0
 10
133.215746679728
 20
481.6919063178051
 30
0.0
 10
133.216772941969
 20
481.6904283588352
 30
0.0
 10
133.2180307537402
 20
481.6889477892917
 30
0.0
 10
133.2216037203881
 20
481.6860384269893
 30
0.0
 10
133.2241677934142
 20
481.6846202947974
 30
0.0
 10
133.2273707205441
 20
481.6832316961581
 30
0.0
  0
SPLINE
  5
DA
330
1F
100
AcDbEntity
  8
0
  6
Continuous
 62
     8
370
    18
100
AcDbSpline
210
0.0
220
0.0
230
1.0
 70
     8
 71
     3
 72
    16
 73
    12
 74
     0
 42
0.000000001
 43
0.00000001
 40
0.0
 40
0.0
 40
0.0
 40
0.0
 40
0.2499999999999999
 40
0.2499999999999999
 40
0.5
 40
0.5
 40
0.75
 40
0.75
 40
0.875
 40
0.875
 40
1.0
 40
1.0
 40
1.0
 40
1.0
 10
133.1399067680968
 20
481.7357906176275
 30
0.0
 10
133.1452060626576
 20
481.7358708217258
 30
0.0
 10
133.1502750862785
 20
481.7378109469436
 30
0.0
 10
133.1614172172694
 20
481.7331437015977
 30
0.0
 10
133.1675565119536
 20
481.7258560041125
 30
0.0
 10
133.1796824434399
 20
481.7163097126726
 30
0.0
 10
133.1858906408103
 20
481.7114836749357
 30
0.0
 10
133.1959733899857
 20
481.704114799458
 30
0.0
 10
133.1994647756516
 20
481.7017165658856
 30
0.0
 10
133.2070092510644
 20
481.6968544281443
 30
0.0
 10
133.2110338068833
 20
481.6943966143267
 30
0.0
 10
133.215746679728
 20
481.6919063178051
 30
0.0
  0
SPLINE
  5
DB
330
1F
100
AcDbEntity
  8
0
  6
Continuous
 62
     8
370
    18
100
AcDbSpline
210
0.0
220
0.0
230
1.0
 70
     8
 71
     3
 72
    16
 73
    12
 74
     0
 42
0.000000001
 43
0.00000001
 40
0.0
 40
0.0
 40
0.0
 40
0.0
 40
0.1249999999999998
 40
0.1249999999999998
 40
0.2499999999999997
 40
0.2499999999999997
 40
0.4999999999999998
 40
0.4999999999999998
 40
0.7499999999999999
 40
0.7499999999999999
 40
1.0
 40
1.0
 40
1.0
 40
1.0
 10
174.4347309628548
 20
481.6919063178051
 30
0.0
 10
174.4394438356995
 20
481.6943966143266
 30
0.0
 10
174.4434683915185
 20
481.6968544281443
 30
0.0
 10
174.4510128669311
 20
481.7017165658856
 30
0.0
 10
174.4545042525971
 20
481.704114799458
 30
0.0
 10
174.4645870017727
 20
481.7114836749357
 30
0.0
 10
174.4707951991429
 20
481.7163097126726
 30
0.0
 10
174.4829211306293
 20
481.7258560041125
 30
0.0
 10
174.4890604253135
 20
481.7331437015977
 30
0.0
 10
174.5002025563043
 20
481.7378109469436
 30
0.0
 10
174.5052715799247
 20
481.7358708217258
 30
0.0
 10
174.510570874486
 20
481.7357906176275
 30
0.0
  0
SPLINE
  5
DC
330
1F
100
AcDbEntity
  8
0
  6
Continuous
 62
     8
370
    18
100
AcDbSpline
210
0.0
220
0.0
230
1.0
 70
     8
 71
     3
 72
    10
 73
     6
 74
     0
 42
0.000000001
 43
0.00000001
 40
0.0
 40
0.0
 40
0.0
 40
0.0
 40
0.5
 40
0.5
 40
1.0
 40
1.0
 40
1.0
 40
1.0
 10
174.4231069220388
 20
481.6832316961581
 30
0.0
 10
174.4263098491687
 20
481.6846202947974
 30
0.0
 10
174.4288739221947
 20
481.6860384269893
 30
0.0
 10
174.4324468888427
 20
481.6889477892917
 30
0.0
 10
174.4337047006139
 20
481.6904283588352
 30
0.0
 10
174.4347309628549
 20
481.6919063178051
 30
0.0
  0
SPLINE
  5
DD
330
1F
100
AcDbEntity
  8
0
  6
Continuous
 62
     8
370
    18
100
AcDbSpline
210
0.0
220
0.0
230
1.0
 70
     8
 71
     3
 72
    11
 73
     7
 74
     0
 42
0.000000001
 43
0.00000001
 40
0.0
 40
0.0
 40
0.0
 40
0.0
 40
0.0969048698289236
 40
0.2962988390594259
 40
0.5977628312206779
 40
1.0
 40
1.0
 40
1.0
 40
1.0
 10
174.4152869203096
 20
481.6767040619945
 30
0.0
 10
174.4178002027553
 20
481.6770779985982
 30
0.0
 10
174.4254848802352
 20
481.6782213568397
 30
0.0
 10
174.426114539259
 20
481.6795234801144
 30
0.0
 10
174.4203623887848
 20
481.6812686128588
 30
0.0
 10
174.4221087169345
 20
481.68251770963
 30
0.0
 10
174.4231069220388
 20
481.6832316961581
 30
0.0
  0
LINE
  5
DE
330
1F
100
AcDbEntity
  8
0
  6
Continuous
 62
     8
370
    18
100
AcDbLine
 10
132.1726476241
 20
469.9422469931
 30
0.0
 11
132.1774680402
 21
470.0838693692
 31
0.0
  0
LINE
  5
DF
330
1F
100
AcDbEntity
  8
0
  6
Continuous
 62
     8
370
    18
100
AcDbLine
 10
132.1726476231
 20
480.6166674991
 30
0.0
 11
132.1726476241
 21
469.9447805796
 31
0.0
  0
LINE
  5
E0
330
1F
100
AcDbEntity
  8
0
  6
Continuous
 62
     8
370
    18
100
AcDbLine
 10
132.1772478962
 20
480.6133336169
 30
0.0
 11
132.1726476231
 21
480.6166674991
 31
0.0
  0
LINE
  5
E1
330
1F
100
AcDbEntity
  8
0
  6
Continuous
 62
     8
370
    18
100
AcDbLine
 10
132.1774680402
 20
480.6129645702
 30
0.0
 11
132.1772473675
 21
480.6143848417
 31
0.0
  0
LINE
  5
E2
330
1F
100
AcDbEntity
  8
0
  6
Continuous
 62
     8
370
    18
100
AcDbLine
 10
175.4778300194
 20
480.6166674991
 30
0.0
 11
175.4778300185
 21
469.9447805796
 31
0.0
  0
LINE
  5
E3
330
1F
100
AcDbEntity
  8
0
  6
Continuous
 62
     8
370
    18
100
AcDbLine
 10
175.4778300185
 20
469.9422469931
 30
0.0
 11
175.4730096023
 21
470.0838693692
 31
0.0
  0
LINE
  5
E4
330
1F
100
AcDbEntity
  8
0
  6
Continuous
 62
     8
370
    18
100
AcDbLine
 10
175.4732302744
 20
480.6143840212
 30
0.0
 11
175.4730096023
 21
480.6129637451
 31
0.0
  0
LINE
  5
E5
330
1F
100
AcDbEntity
  8
0
  6
Continuous
 62
     8
370
    18
100
AcDbLine
 10
175.4778300194
 20
480.6166674991
 30
0.0
 11
175.4732297459
 21
480.6133336161
 31
0.0
  0
SPLINE
  5
E6
330
1F
100
AcDbEntity
  8
0
  6
Continuous
 62
     8
370
    18
100
AcDbSpline
210
0.0
220
0.0
230
1.0
 70
     8
 71
     3
 72
    10
 73
     6
 74
     0
 42
0.000000001
 43
0.00000001
 40
0.0
 40
0.0
 40
0.0
 40
0.0
 40
0.5
 40
0.5
 40
1.0
 40
1.0
 40
1.0
 40
1.0
 10
132.1726476240858
 20
469.9422469930619
 30
0.0
 10
132.1726482066765
 20
469.7422593737064
 30
0.0
 10
132.2249621054366
 20
469.5285892060676
 30
0.0
 10
132.4342162961409
 20
469.155979063923
 30
0.0
 10
132.5894404573984
 20
469.0000949312
 30
0.0
 10
132.7602108937029
 20
468.8959977749506
 30
0.0
  0
SPLINE
  5
E7
330
1F
100
AcDbEntity
  8
0
  6
Continuous
 62
     8
370
    18
100
AcDbSpline
210
0.0
220
0.0
230
1.0
 70
     8
 71
     3
 72
    10
 73
     6
 74
     0
 42
0.000000001
 43
0.00000001
 40
0.0
 40
0.0
 40
0.0
 40
0.0
 40
0.5
 40
0.5
 40
1.0
 40
1.0
 40
1.0
 40
1.0
 10
174.8903218256867
 20
468.8957484566752
 30
0.0
 10
175.0610818729936
 20
468.9998637064161
 30
0.0
 10
175.2162908706306
 20
469.1557589446095
 30
0.0
 10
175.4255236973332
 20
469.5283785813505
 30
0.0
 10
175.4778322237598
 20
469.7420482228778
 30
0.0
 10
175.4778327543746
 20
469.9420379528269
 30
0.0
  0
SPLINE
  5
E8
330
1F
100
AcDbEntity
  8
0
  6
Continuous
 62
     8
370
    18
100
AcDbSpline
210
0.0
220
0.0
230
1.0
 70
     8
 71
     3
 72
    14
 73
    10
 74
     0
 42
0.000000001
 43
0.00000001
 40
0.0
 40
0.0
 40
0.0
 40
0.0
 40
0.25
 40
0.25
 40
0.5
 40
0.5
 40
0.75
 40
0.75
 40
1.0
 40
1.0
 40
1.0
 40
1.0
 10
133.2351892878725
 20
481.6770330019932
 30
0.0
 10
133.1101282611715
 20
481.6764774070465
 30
0.0
 10
132.9753566417947
 20
481.6531183140554
 30
0.0
 10
132.7146654484087
 20
481.5487696497782
 30
0.0
 10
132.5895507476366
 20
481.467438723195
 30
0.0
 10
132.3831520253109
 20
481.2598581990767
 30
0.0
 10
132.3025584685075
 20
481.1343056193707
 30
0.0
 10
132.1997191235457
 20
480.8731322908147
 30
0.0
 10
132.1772475915669
 20
480.7383631433405
 30
0.0
 10
132.1772475214686
 20
480.6133361860694
 30
0.0
  0
SPLINE
  5
E9
330
1F
100
AcDbEntity
  8
0
  6
Continuous
 62
     8
370
    18
100
AcDbSpline
210
0.0
220
0.0
230
1.0
 70
     8
 71
     3
 72
    14
 73
    10
 74
     0
 42
0.000000001
 43
0.00000001
 40
0.0
 40
0.0
 40
0.0
 40
0.0
 40
0.25
 40
0.25
 40
0.5
 40
0.5
 40
0.75
 40
0.75
 40
1.0
 40
1.0
 40
1.0
 40
1.0
 10
174.4145660992688
 20
481.6767079679196
 30
0.0
 10
174.5395370914473
 20
481.6760683792835
 30
0.0
 10
174.6741316091324
 20
481.6528587740017
 30
0.0
 10
174.9346318896477
 20
481.5487793493882
 30
0.0
 10
175.0597049139811
 20
481.4676525288769
 30
0.0
 10
175.2662193379541
 20
481.260482631181
 30
0.0
 10
175.3469709918361
 20
481.1351289075
 30
0.0
 10
175.4502434057804
 20
480.87419134636
 30
0.0
 10
175.473105875207
 20
480.7394067548476
 30
0.0
 10
175.4732293030401
 20
480.6143833336127
 30
0.0
  0
ARC
  5
EA
330
1F
100
AcDbEntity
  8
0
  6
Continuous
 62
     8
370
    18
100
AcDbCircle
 10
133.2392783982
 20
480.6166673907
 30
0.0
 40
1.066630775113115
100
AcDbArc
 50
90.6396532551
 51
179.9999941758
  0
ARC
  5
EB
330
1F
100
AcDbEntity
  8
0
  6
Continuous
 62
     8
370
    18
100
AcDbCircle
 10
174.4111992444
 20
480.6166673908
 30
0.0
 40
1.066630775009938
100
AcDbArc
 50
0.0000058172
 51
89.3603467476
  0
LINE
  5
EC
330
1F
100
AcDbEntity
  8
0
  6
Continuous
 62
     8
370
    18
100
AcDbLine
 10
165.8252388213
 20
464.1417876187
 30
0.0
 11
166.3252388213
 21
464.1417876187
 31
0.0
  0
LINE
  5
ED
330
1F
100
AcDbEntity
  8
0
  6
Continuous
 62
     8
370
    18
100
AcDbLine
 10
141.8252388213
 20
464.1417876187
 30
0.0
 11
141.3252388213
 21
464.1417876187
 31
0.0
  0
SPLINE
  5
EE
330
1F
100
AcDbEntity
  8
0
  6
Continuous
 62
     8
370
    18
100
AcDbSpline
210
0.0
220
0.0
230
1.0
 70
     8
 71
     3
 72
     8
 73
     4
 74
     0
 42
0.000000001
 43
0.00000001
 40
0.0
 40
0.0
 40
0.0
 40
0.0
 40
1.0
 40
1.0
 40
1.0
 40
1.0
 10
174.8641456962415
 20
468.7848956419522
 30
0.0
 10
174.8544974679105
 20
468.8415784029981
 30
0.0
 10
174.9344237831843
 20
468.8270873816613
 30
0.0
 10
174.8903218256867
 20
468.8957484566752
 30
0.0
  0
LINE
  5
EF
330
1F
100
AcDbEntity
  8
0
  6
Continuous
 62
     8
370
    18
100
AcDbLine
 10
172.8457391615
 20
467.7508615645
 30
0.0
 11
174.8687888077
 21
468.7874666017
 31
0.0
  0
LINE
  5
F0
330
1F
100
AcDbEntity
  8
0
  6
Continuous
 62
     8
370
    18
100
AcDbLine
 10
135.0399610115
 20
467.6303341912
 30
0.0
 11
132.7816888349
 21
468.7874666017
 31
0.0
  0
SPLINE
  5
F1
330
1F
100
AcDbEntity
  8
0
  6
Continuous
 62
     8
370
    18
100
AcDbSpline
210
0.0
220
0.0
230
1.0
 70
     8
 71
     3
 72
    13
 73
     9
 74
     0
 42
0.000000001
 43
0.00000001
 40
0.0
 40
0.0
 40
0.0
 40
0.0
 40
0.1073716779534739
 40
0.2265434756302797
 40
0.3575160807849816
 40
0.5002903411992965
 40
0.8124436841281637
 40
1.0
 40
1.0
 40
1.0
 40
1.0
 10
132.7601558168962
 20
468.8957484566752
 30
0.0
 10
132.755918342338
 20
468.8880020194338
 30
0.0
 10
132.7469776958601
 20
468.8716578134955
 30
0.0
 10
132.7436591235817
 20
468.8537685664133
 30
0.0
 10
132.7466971498312
 20
468.84001630721
 30
0.0
 10
132.7622430046796
 20
468.8284958460586
 30
0.0
 10
132.7841447279887
 20
468.8193087256275
 30
0.0
 10
132.7857350496929
 20
468.7942870437698
 30
0.0
 10
132.7863319460599
 20
468.7848956414156
 30
0.0
  0
SPLINE
  5
F2
330
1F
100
AcDbEntity
  8
0
  6
Continuous
 62
     8
370
    18
100
AcDbSpline
210
0.0
220
0.0
230
1.0
 70
     8
 71
     3
 72
     8
 73
     4
 74
     0
 42
0.000000001
 43
0.00000001
 40
0.0
 40
0.0
 40
0.0
 40
0.0
 40
1.0
 40
1.0
 40
1.0
 40
1.0
 10
175.4778327543746
 20
469.9420379528269
 30
0.0
 10
175.4802599894746
 20
469.8968332209342
 30
0.0
 10
175.4826873922625
 20
469.8641022809237
 30
0.0
 10
175.4851146551147
 20
469.8117198270557
 30
0.0
  0
LINE
  5
F3
330
1F
100
AcDbEntity
  8
0
  6
Continuous
 62
     8
370
    18
100
AcDbLine
 10
175.4851294725
 20
480.6210828184
 30
0.0
 11
175.4778300194
 21
480.6166674991
 31
0.0
  0
LINE
  5
F4
330
1F
100
AcDbEntity
  8
0
  6
Continuous
 62
     8
370
    18
100
AcDbLine
 10
175.4851146552
 20
469.8117669403
 30
0.0
 11
175.4851294725
 21
480.6210828184
 31
0.0
  0
LINE
  5
F5
330
1F
100
AcDbEntity
  8
0
  6
Continuous
 62
     8
370
    18
100
AcDbLine
 10
132.1653629875
 20
469.8117198271
 30
0.0
 11
132.1726448882
 21
469.9420379528
 31
0.0
  0
LINE
  5
F6
330
1F
100
AcDbEntity
  8
0
  6
Continuous
 62
     8
370
    18
100
AcDbLine
 10
132.1653629874
 20
469.8117669403
 30
0.0
 11
132.1653481702
 21
480.62101909
 31
0.0
  0
LINE
  5
F7
330
1F
100
AcDbEntity
  8
0
  6
Continuous
 62
     8
370
    18
100
AcDbLine
 10
132.1726476231
 20
480.6166674991
 30
0.0
 11
132.1653481701
 21
480.6210828184
 31
0.0
  0
SPLINE
  5
F8
330
1F
100
AcDbEntity
  8
0
  6
Continuous
 62
     8
370
    18
100
AcDbSpline
210
0.0
220
0.0
230
1.0
 70
     8
 71
     3
 72
    10
 73
     6
 74
     0
 42
0.000000001
 43
0.00000001
 40
0.0
 40
0.0
 40
0.0
 40
0.0
 40
0.5
 40
0.5
 40
1.0
 40
1.0
 40
1.0
 40
1.0
 10
174.8641065739507
 20
468.7850225310029
 30
0.0
 10
175.0412342892697
 20
468.8778956564288
 30
0.0
 10
175.2062369371449
 20
469.0273872071253
 30
0.0
 10
175.4293386433553
 20
469.3962695896286
 30
0.0
 10
175.4851142931772
 20
469.6118188350911
 30
0.0
 10
175.4851146552405
 20
469.8118140534482
 30
0.0
  0
SPLINE
  5
F9
330
1F
100
AcDbEntity
  8
0
  6
Continuous
 62
     8
370
    18
100
AcDbSpline
210
0.0
220
0.0
230
1.0
 70
     8
 71
     3
 72
    10
 73
     6
 74
     0
 42
0.000000001
 43
0.00000001
 40
0.0
 40
0.0
 40
0.0
 40
0.0
 40
0.5
 40
0.5
 40
1.0
 40
1.0
 40
1.0
 40
1.0
 10
132.1653629929822
 20
469.8118141751613
 30
0.0
 10
132.1653633348914
 20
469.6118062835331
 30
0.0
 10
132.2211059095312
 20
469.3962470877435
 30
0.0
 10
132.4441854676919
 20
469.0273249264511
 30
0.0
 10
132.6091834949968
 20
468.8778085783038
 30
0.0
 10
132.7863143312448
 20
468.7849128033922
 30
0.0
  0
ARC
  5
FA
330
1F
100
AcDbEntity
  8
0
  6
Continuous
 62
     8
370
    18
100
AcDbCircle
 10
133.2363703664
 20
480.6210827056
 30
0.0
 40
1.071022196260322
100
AcDbArc
 50
91.1033601762
 51
179.999993964
  0
ARC
  5
FB
330
1F
100
AcDbEntity
  8
0
  6
Continuous
 62
     8
370
    18
100
AcDbCircle
 10
174.4141072762
 20
480.6210827056
 30
0.0
 40
1.07102219626059
100
AcDbArc
 50
0.000006036
 51
88.8966398238
  0
SPLINE
  5
FC
330
1F
100
AcDbEntity
  8
0
  6
Continuous
 62
     8
370
    18
100
AcDbSpline
210
0.0
220
0.0
230
1.0
 70
     8
 71
     3
 72
    10
 73
     6
 74
     0
 42
0.000000001
 43
0.00000001
 40
0.0
 40
0.0
 40
0.0
 40
0.0
 40
0.5
 40
0.5
 40
1.0
 40
1.0
 40
1.0
 40
1.0
 10
175.4851146552405
 20
469.8118140534482
 30
0.0
 10
175.4935037949208
 20
469.6296178208045
 30
0.0
 10
175.5018929352881
 20
469.450786310673
 30
0.0
 10
175.5186712141407
 20
469.0966385750206
 30
0.0
 10
175.5270603317323
 20
468.932839611557
 30
0.0
 10
175.5354494782017
 20
468.7661927073764
 30
0.0
  0
LINE
  5
FD
330
1F
100
AcDbEntity
  8
0
  6
Continuous
 62
     8
370
    18
100
AcDbLine
 10
175.5354494782
 20
480.6488762335
 30
0.0
 11
175.4851294725
 21
480.6210828184
 31
0.0
  0
SPLINE
  5
FE
330
1F
100
AcDbEntity
  8
0
  6
Continuous
 62
     8
370
    18
100
AcDbSpline
210
0.0
220
0.0
230
1.0
 70
     8
 71
     3
 72
    11
 73
     7
 74
     0
 42
0.000000001
 43
0.00000001
 40
0.0
 40
0.0
 40
0.0
 40
0.0
 40
0.2536467682205594
 40
0.5048623551939138
 40
0.7536467645434923
 40
0.9999999999999999
 40
0.9999999999999999
 40
0.9999999999999999
 40
0.9999999999999999
 10
132.1150281643815
 20
468.7661927073814
 30
0.0
 10
132.1192839241344
 20
468.8512698865915
 30
0.0
 10
132.1277546525695
 20
469.0206087879724
 30
0.0
 10
132.1403995484712
 20
469.2807505894455
 30
0.0
 10
132.1529220643725
 20
469.5433445560261
 30
0.0
 10
132.1612296099708
 20
469.72261763705
 30
0.0
 10
132.1653629873423
 20
469.8118140534481
 30
0.0
  0
LINE
  5
FF
330
1F
100
AcDbEntity
  8
0
  6
Continuous
 62
     8
370
    18
100
AcDbLine
 10
132.1653481701
 20
480.6210828184
 30
0.0
 11
132.1150281644
 21
480.6488762335
 31
0.0
  0
SPLINE
  5
100
330
1F
100
AcDbEntity
  8
0
  6
Continuous
 62
     8
370
    18
100
AcDbSpline
210
0.0
220
0.0
230
1.0
 70
     8
 71
     3
 72
    14
 73
    10
 74
     0
 42
0.000000001
 43
0.00000001
 40
0.0
 40
0.0
 40
0.0
 40
0.0
 40
0.25
 40
0.25
 40
0.375
 40
0.375
 40
0.5
 40
0.5
 40
1.0
 40
1.0
 40
1.0
 40
1.0
 10
175.0274179088672
 20
467.6790196879707
 30
0.0
 10
175.0252411074603
 20
467.7614085679511
 30
0.0
 10
175.0229821254138
 20
467.8438691403318
 30
0.0
 10
175.0200758820795
 20
467.96717428692
 30
0.0
 10
175.0186003201803
 20
468.0086483977133
 30
0.0
 10
175.0075199716431
 20
468.097693446139
 30
0.0
 10
174.9978832250346
 20
468.1453211775553
 30
0.0
 10
174.9484634358859
 20
468.3854954416619
 30
0.0
 10
174.9073841015026
 20
468.5817142428371
 30
0.0
 10
174.8641086881986
 20
468.7850125987343
 30
0.0
  0
SPLINE
  5
101
330
1F
100
AcDbEntity
  8
0
  6
Continuous
 62
     8
370
    18
100
AcDbSpline
210
0.0
220
0.0
230
1.0
 70
     8
 71
     3
 72
    16
 73
    12
 74
     0
 42
0.000000001
 43
0.00000001
 40
0.0
 40
0.0
 40
0.0
 40
0.0
 40
0.2043305143287009
 40
0.3999970928128102
 40
0.4676106263371815
 40
0.5412573150862267
 40
0.6209364174699814
 40
0.7066486244032988
 40
0.7983981664851024
 40
0.8961822673388162
 40
1.0
 40
1.0
 40
1.0
 40
1.0
 10
132.7863689543701
 20
468.7850125986679
 30
0.0
 10
132.7689855262993
 20
468.7025348778433
 30
0.0
 10
132.7349557549051
 20
468.5410766215468
 30
0.0
 10
132.6960677254288
 20
468.3592545434574
 30
0.0
 10
132.6711242813473
 20
468.2281564672933
 30
0.0
 10
132.6580929873458
 20
468.140228596055
 30
0.0
 10
132.646331840544
 20
468.0443255730829
 30
0.0
 10
132.6377611848759
 20
467.9598222347955
 30
0.0
 10
132.6313285364891
 20
467.8741141324979
 30
0.0
 10
132.6261578226809
 20
467.7792041750881
 30
0.0
 10
132.6241202796745
 20
467.7130831458365
 30
0.0
 10
132.6230710179121
 20
467.67903318102
 30
0.0
  0
LINE
  5
102
330
1F
100
AcDbEntity
  8
0
  6
Continuous
 62
     8
370
    18
100
AcDbLine
 10
278.1606287747
 20
431.6378013729
 30
0.0
 11
279.6102447371
 21
431.6044313039
 31
0.0
  0
SPLINE
  5
103
330
1F
100
AcDbEntity
  8
0
  6
Continuous
 62
     8
370
    18
100
AcDbSpline
210
0.0
220
0.0
230
1.0
 70
     8
 71
     3
 72
    26
 73
    22
 74
     0
 42
0.000000001
 43
0.00000001
 40
0.0
 40
0.0
 40
0.0
 40
0.0
 40
0.0312500000000001
 40
0.0312500000000001
 40
0.0625000000000001
 40
0.0625000000000001
 40
0.1250000000000003
 40
0.1250000000000003
 40
0.2500000000000003
 40
0.2500000000000003
 40
0.3750000000000003
 40
0.3750000000000003
 40
0.5000000000000003
 40
0.5000000000000003
 40
0.6250000000000002
 40
0.6250000000000002
 40
0.7500000000000002
 40
0.7500000000000002
 40
0.8750000000000001
 40
0.8750000000000001
 40
1.0
 40
1.0
 40
1.0
 40
1.0
 10
284.1964113826986
 20
462.0914038598062
 30
0.0
 10
284.0900774337684
 20
461.7832652340399
 30
0.0
 10
283.9777520920521
 20
461.4776829326411
 30
0.0
 10
283.7539240520065
 20
460.8664985421389
 30
0.0
 10
283.641969649361
 20
460.561071088282
 30
0.0
 10
283.3103998645338
 20
459.6434890249557
 30
0.0
 10
283.0949630131203
 20
459.0300833173751
 30
0.0
 10
282.4691050906797
 20
457.1832318590169
 30
0.0
 10
282.0778926102636
 20
455.9436215837017
 30
0.0
 10
281.3429445374466
 20
453.4491629279011
 30
0.0
 10
280.9989169152591
 20
452.1934634091204
 30
0.0
 10
280.3624332010934
 20
449.6705597810692
 30
0.0
 10
280.0702258004719
 20
448.4039203927143
 30
0.0
 10
279.5467129967143
 20
445.8585333670519
 30
0.0
 10
279.3161278871376
 20
444.5796411600655
 30
0.0
 10
278.9206427181393
 20
442.0085944783182
 30
0.0
 10
278.7553554745463
 20
440.7163710036338
 30
0.0
 10
278.4884562607929
 20
438.1298930835789
 30
0.0
 10
278.3868331637916
 20
436.8342776040242
 30
0.0
 10
278.237893454128
 20
434.2388575766298
 30
0.0
 10
278.1905833897321
 20
432.9390479530135
 30
0.0
 10
278.1606287746649
 20
431.6378013729115
 30
0.0
  0
LINE
  5
104
330
1F
100
AcDbEntity
  8
0
  6
Continuous
 62
     8
370
    18
100
AcDbLine
 10
284.1964113827
 20
462.0914038598
 30
0.0
 11
285.5670935272
 21
461.6184023178
 31
0.0
  0
SPLINE
  5
105
330
1F
100
AcDbEntity
  8
0
  6
Continuous
 62
     8
370
    18
100
AcDbSpline
210
0.0
220
0.0
230
1.0
 70
     8
 71
     3
 72
    76
 73
    72
 74
     0
 42
0.000000001
 43
0.00000001
 40
0.0
 40
0.0
 40
0.0
 40
0.0
 40
0.0120137255661579
 40
0.024027725937446
 40
0.0300343904228082
 40
0.0420498371676558
 40
0.0540647596796951
 40
0.0600733791260077
 40
0.0780941658162255
 40
0.090102999692217
 40
0.0961102773059122
 40
0.1087092377732807
 40
0.1276077746689156
 40
0.1339073816046855
 40
0.1465005898421415
 40
0.159102195064734
 40
0.1654035326445696
 40
0.1780018520198163
 40
0.1968999830487005
 40
0.2078067300648979
 40
0.2187136954720272
 40
0.2405294069174635
 40
0.2623435829657131
 40
0.2787016981524469
 40
0.2900033352183826
 40
0.2958544558504789
 40
0.3075559011809381
 40
0.3309561238081254
 40
0.3426536216823235
 40
0.3543448887763251
 40
0.3660385815696441
 40
0.3777358410754218
 40
0.4144260434053232
 40
0.4235994340777889
 40
0.4327735575432612
 40
0.4511220910984757
 40
0.4878051047194712
 40
0.4939166016495207
 40
0.5061390164088883
 40
0.5244820808458681
 40
0.5305972805706992
 40
0.5428289106961524
 40
0.558119282465117
 40
0.5672910282854916
 40
0.5764587307702456
 40
0.5856300548322507
 40
0.6039742507754924
 40
0.6477919239030924
 40
0.6668970248433725
 40
0.6732655489373384
 40
0.6987419355863559
 40
0.7242118912519927
 40
0.7287254656271763
 40
0.7377495655678887
 40
0.7603296318139315
 40
0.7693636296893308
 40
0.7829157840829019
 40
0.7919492438415421
 40
0.7964657257049617
 40
0.8092950701902573
 40
0.8285388590445161
 40
0.8349533712100212
 40
0.8477842084535258
 40
0.860615041629104
 40
0.8734446580063656
 40
0.892684964680219
 40
0.9075675926083083
 40
0.9160357304215487
 40
0.949908373447118
 40
0.9749541535259609
 40
0.9999999999999999
 40
0.9999999999999999
 40
0.9999999999999999
 40
0.9999999999999999
 10
243.4540663144386
 20
462.0914037205473
 30
0.0
 10
243.4953557214299
 20
461.9734393408343
 30
0.0
 10
243.5779354798772
 20
461.7375078830599
 30
0.0
 10
243.6850776182075
 20
461.4439943614582
 30
0.0
 10
243.7924912704968
 20
461.1505682793755
 30
0.0
 10
243.9000199837027
 20
460.8571728373856
 30
0.0
 10
244.0071983841791
 20
460.5636277631869
 30
0.0
 10
244.1351238744911
 20
460.2111503656322
 30
0.0
 10
244.2619431000922
 20
459.858338698367
 30
0.0
 10
244.3870838670453
 20
459.5049441216484
 30
0.0
 10
244.4925342722
 20
459.2044150580377
 30
0.0
 10
244.6205857209843
 20
458.8358587903033
 30
0.0
 10
244.7477467460121
 20
458.463776745516
 30
0.0
 10
244.8732334764283
 20
458.09119296176
 30
0.0
 10
244.9767675982736
 20
457.7803399792194
 30
0.0
 10
245.0790700998388
 20
457.4690606651253
 30
0.0
 10
245.1804054613131
 20
457.1574100310191
 30
0.0
 10
245.3008393809942
 20
456.7830911919625
 30
0.0
 10
245.4338027659962
 20
456.3624781518614
 30
0.0
 10
245.5595425074956
 20
455.9580426268328
 30
0.0
 10
245.6927944015406
 20
455.5241603911421
 30
0.0
 10
245.8565660615921
 20
454.980952989972
 30
0.0
 10
246.0327169044401
 20
454.3822620646038
 30
0.0
 10
246.1751265561253
 20
453.8876707055128
 30
0.0
 10
246.2701964379435
 20
453.5522656583955
 30
0.0
 10
246.3512868761091
 20
453.2632522168841
 30
0.0
 10
246.4652532251203
 20
452.8527406067105
 30
0.0
 10
246.5929178850616
 20
452.3829139356989
 30
0.0
 10
246.7179268987298
 20
451.9124878038895
 30
0.0
 10
246.8103289962553
 20
451.5594105585395
 30
0.0
 10
246.9013427364793
 20
451.2059752703261
 30
0.0
 10
247.0548550804272
 20
450.6000881158034
 30
0.0
 10
247.1972394609082
 20
450.018428646727
 30
0.0
 10
247.3289400269604
 20
449.4612168330641
 30
0.0
 10
247.4155525836993
 20
449.0894176401225
 30
0.0
 10
247.5639526275395
 20
448.4381687972055
 30
0.0
 10
247.6991486981971
 20
447.8165990054665
 30
0.0
 10
247.8163405968474
 20
447.2563775437496
 30
0.0
 10
247.8932123037773
 20
446.8826448594318
 30
0.0
 10
247.9677911114911
 20
446.5084058377274
 30
0.0
 10
248.0405557824671
 20
446.1337161948157
 30
0.0
 10
248.1059968480891
 20
445.7899562910131
 30
0.0
 10
248.1753240706344
 20
445.4145721835535
 30
0.0
 10
248.2371526319148
 20
445.0702229900792
 30
0.0
 10
248.2867015387957
 20
444.7883461533968
 30
0.0
 10
248.3513958087976
 20
444.4122487601656
 30
0.0
 10
248.4731657133383
 20
443.6802147757971
 30
0.0
 10
248.6014728844331
 20
442.8445235662043
 30
0.0
 10
248.7018806570828
 20
442.1306995508629
 30
0.0
 10
248.7730429066547
 20
441.605458708865
 30
0.0
 10
248.8493381637693
 20
441.0140951679116
 30
0.0
 10
248.917346882443
 20
440.4411501048564
 30
0.0
 10
248.9627887466645
 20
440.0379011511052
 30
0.0
 10
249.003845039063
 20
439.6644130237237
 30
0.0
 10
249.0473918086633
 20
439.2438909830928
 30
0.0
 10
249.0929301015753
 20
438.7762326635521
 30
0.0
 10
249.123389172372
 20
438.4487014327249
 30
0.0
 10
249.1482957162486
 20
438.1678567215243
 30
0.0
 10
249.1718482753585
 20
437.8944422033098
 30
0.0
 10
249.2032956806454
 20
437.5150957915556
 30
0.0
 10
249.2340236627378
 20
437.1158810432032
 30
0.0
 10
249.2629249432615
 20
436.7165180356374
 30
0.0
 10
249.2858801862526
 20
436.3836147593834
 30
0.0
 10
249.3116366038425
 20
435.9840130551921
 30
0.0
 10
249.3396418533957
 20
435.5177438570817
 30
0.0
 10
249.3663053569171
 20
435.030015406809
 30
0.0
 10
249.3880853880782
 20
434.5874692851074
 30
0.0
 10
249.4152605992363
 20
433.9927872410493
 30
0.0
 10
249.4427851774731
 20
433.2922855079625
 30
0.0
 10
249.4706337547112
 20
432.4192319360072
 30
0.0
 10
249.4834438671575
 20
431.8982785308631
 30
0.0
 10
249.4898489318704
 20
431.6378014830358
 30
0.0
  0
LINE
  5
106
330
1F
100
AcDbEntity
  8
0
  6
Continuous
 62
     8
370
    18
100
AcDbLine
 10
249.4898488679
 20
431.6378013729
 30
0.0
 11
248.0402329055
 21
431.6044313039
 31
0.0
  0
LINE
  5
107
330
1F
100
AcDbEntity
  8
0
  6
Continuous
 62
     8
370
    18
100
AcDbLine
 10
243.4540662599
 20
462.0914038598
 30
0.0
 11
242.0833841154
 21
461.6184023178
 31
0.0
  0
SPLINE
  5
108
330
1F
100
AcDbEntity
  8
0
  6
Continuous
 62
     8
370
    18
100
AcDbSpline
210
0.0
220
0.0
230
1.0
 70
     8
 71
     3
 72
     8
 73
     4
 74
     0
 42
0.000000001
 43
0.00000001
 40
0.0
 40
0.0
 40
0.0
 40
0.0
 40
1.0
 40
1.0
 40
1.0
 40
1.0
 10
278.1606287746649
 20
431.6378013729115
 30
0.0
 10
278.119828760597
 20
429.8654241063413
 30
0.0
 10
278.1106898072904
 20
428.0923964948735
 30
0.0
 10
278.1014046322286
 20
426.3190748860371
 30
0.0
  0
LINE
  5
109
330
1F
100
AcDbEntity
  8
0
  6
Continuous
 62
     8
370
    18
100
AcDbLine
 10
278.1014046322
 20
426.3190748861
 30
0.0
 11
277.8893219713
 21
385.8146404431
 31
0.0
  0
SPLINE
  5
10A
330
1F
100
AcDbEntity
  8
0
  6
Continuous
 62
     8
370
    18
100
AcDbSpline
210
0.0
220
0.0
230
1.0
 70
     8
 71
     3
 72
    32
 73
    28
 74
     0
 42
0.000000001
 43
0.00000001
 40
0.0
 40
0.0
 40
0.0
 40
0.0
 40
0.2500000000001282
 40
0.2500000000001282
 40
0.3750000000001913
 40
0.3750000000001913
 40
0.437500000000216
 40
0.437500000000216
 40
0.4687500000002165
 40
0.4687500000002165
 40
0.484375000000213
 40
0.484375000000213
 40
0.4921875000002112
 40
0.4921875000002112
 40
0.5000000000002094
 40
0.5000000000002094
 40
0.5156250000002047
 40
0.5156250000002047
 40
0.5312500000002001
 40
0.5312500000002001
 40
0.5625000000001749
 40
0.5625000000001749
 40
0.6250000000001478
 40
0.6250000000001478
 40
0.7500000000000979
 40
0.7500000000000979
 40
1.0
 40
1.0
 40
1.0
 40
1.0
 10
277.8893219712968
 20
385.8146404431141
 30
0.0
 10
277.8883884404898
 20
385.6363508214861
 30
0.0
 10
277.8883227638813
 20
385.4568527960456
 30
0.0
 10
277.8627626905976
 20
385.1855141054637
 30
0.0
 10
277.8500296850402
 20
385.094868295018
 30
0.0
 10
277.8180765512458
 20
384.9601263675351
 30
0.0
 10
277.8052631700348
 20
384.9151718285137
 30
0.0
 10
277.7802410595733
 20
384.8484572576307
 30
0.0
 10
277.7709892387495
 20
384.8263906911415
 30
0.0
 10
277.7542215186722
 20
384.7931566638394
 30
0.0
 10
277.7481686757804
 20
384.7820593523045
 30
0.0
 10
277.7375171495253
 20
384.7651444041088
 30
0.0
 10
277.7337407178931
 20
384.759483448581
 30
0.0
 10
277.7246119406141
 20
384.7474060256111
 30
0.0
 10
277.7178869870515
 20
384.7396052979508
 30
0.0
 10
277.6971492160539
 20
384.7213802761258
 30
0.0
 10
277.6867092878247
 20
384.7154111871793
 30
0.0
 10
277.6642704019242
 20
384.7023405878323
 30
0.0
 10
277.653139019659
 20
384.6966171840259
 30
0.0
 10
277.6199289543517
 20
384.6807928352248
 30
0.0
 10
277.5978956178862
 20
384.6719819278172
 30
0.0
 10
277.5314597892525
 20
384.6482062853714
 30
0.0
 10
277.4867440988579
 20
384.6359927200947
 30
0.0
 10
277.3516395868062
 20
384.605461761093
 30
0.0
 10
277.2620831652139
 20
384.5937014278471
 30
0.0
 10
276.9938950137611
 20
384.5703791691043
 30
0.0
 10
276.8160121352715
 20
384.5711853979034
 30
0.0
 10
276.6393391059875
 20
384.5711853979034
 30
0.0
  0
LINE
  5
10B
330
1F
100
AcDbEntity
  8
0
  6
Continuous
 62
     8
370
    18
100
AcDbLine
 10
276.639339106
 20
384.5711853979
 30
0.0
 11
263.8252388213
 21
384.5711853979
 31
0.0
  0
SPLINE
  5
10C
330
1F
100
AcDbEntity
  8
0
  6
Continuous
 62
     8
370
    18
100
AcDbSpline
210
0.0
220
0.0
230
1.0
 70
     8
 71
     3
 72
    22
 73
    18
 74
     0
 42
0.000000001
 43
0.00000001
 40
0.0
 40
0.0
 40
0.0
 40
0.0
 40
0.1250000000000001
 40
0.1250000000000001
 40
0.2500000000000001
 40
0.2500000000000001
 40
0.3750000000000002
 40
0.3750000000000002
 40
0.5000000000000001
 40
0.5000000000000001
 40
0.6250000000000001
 40
0.6250000000000001
 40
0.7500000000000001
 40
0.7500000000000001
 40
0.875
 40
0.875
 40
1.0
 40
1.0
 40
1.0
 40
1.0
 10
263.8252388212915
 20
490.6711853979035
 30
0.0
 10
265.5340511311917
 20
490.6711853979035
 30
0.0
 10
267.2427724820282
 20
490.4669813115769
 30
0.0
 10
270.564151245857
 20
489.6616235345281
 30
0.0
 10
272.1766318638317
 20
489.0605127125216
 30
0.0
 10
275.2146939387608
 20
487.495157522559
 30
0.0
 10
276.6401136814768
 20
486.5309964775292
 30
0.0
 10
279.2237455501221
 20
484.2938097599783
 30
0.0
 10
280.3818201508627
 20
483.0209031715765
 30
0.0
 10
282.3655032801046
 20
480.2378905441119
 30
0.0
 10
283.1910062183319
 20
478.7279326431573
 30
0.0
 10
284.4630131354432
 20
475.5558424104106
 30
0.0
 10
284.909449406155
 20
473.8938789270963
 30
0.0
 10
285.3981365527237
 20
470.5113735073454
 30
0.0
 10
285.4403614160544
 20
468.7910116196618
 30
0.0
 10
285.1182043457438
 20
465.3886046975089
 30
0.0
 10
284.7538395603318
 20
463.7067407711376
 30
0.0
 10
284.1964113826856
 20
462.0914038597681
 30
0.0
  0
SPLINE
  5
10D
330
1F
100
AcDbEntity
  8
0
  6
Continuous
 62
     8
370
    18
100
AcDbSpline
210
0.0
220
0.0
230
1.0
 70
     8
 71
     3
 72
    10
 73
     6
 74
     0
 42
0.000000001
 43
0.00000001
 40
0.0
 40
0.0
 40
0.0
 40
0.0
 40
0.5
 40
0.5
 40
1.0
 40
1.0
 40
1.0
 40
1.0
 10
251.0111385420655
 20
384.5711856402751
 30
0.0
 10
253.1468218783537
 20
384.5711836687993
 30
0.0
 10
255.2825052958447
 20
384.5711852952818
 30
0.0
 10
259.5538720556131
 20
384.5711852156636
 30
0.0
 10
261.6895554384717
 20
384.5711853076422
 30
0.0
 10
263.8252388192898
 20
384.5711853092136
 30
0.0
  0
SPLINE
  5
10E
330
1F
100
AcDbEntity
  8
0
  6
Continuous
 62
     8
370
    18
100
AcDbSpline
210
0.0
220
0.0
230
1.0
 70
     8
 71
     3
 72
    65
 73
    61
 74
     0
 42
0.000000001
 43
0.00000001
 40
0.0
 40
0.0
 40
0.0
 40
0.0
 40
0.0736009160735806
 40
0.1099455602700334
 40
0.1212862546867691
 40
0.1447299607396531
 40
0.1775652142682242
 40
0.1887427763373308
 40
0.2113286728618319
 40
0.2453600237466763
 40
0.2578026137967949
 40
0.2781513789881151
 40
0.2982917346572941
 40
0.304746867358668
 40
0.3176269717187034
 40
0.3308350742780862
 40
0.3374752025526594
 40
0.3508335858566413
 40
0.369665756545721
 40
0.3758795492880124
 40
0.4144224610312808
 40
0.4336827036162356
 40
0.4400137021799707
 40
0.4542886915188109
 40
0.4680724240113813
 40
0.4716378718618489
 40
0.4787792289382361
 40
0.4891332340738184
 40
0.4962812546286136
 40
0.5010230082992079
 40
0.505523848645115
 40
0.5103425564182256
 40
0.5242854797710045
 40
0.5312951562265994
 40
0.5336794612152533
 40
0.5427739517770076
 40
0.5524753330292479
 40
0.5571527235990307
 40
0.5660635891302571
 40
0.5758355621288646
 40
0.5806196614422766
 40
0.594585828805986
 40
0.6042073919446712
 40
0.6091971606939175
 40
0.6315105655733206
 40
0.65083027182927
 40
0.6618527447002143
 40
0.6832316447832909
 40
0.7022493974557532
 40
0.7128992928249777
 40
0.7355657214714592
 40
0.7568029809110461
 40
0.7780000480901629
 40
0.8300077731965633
 40
0.8494456883823935
 40
0.8554657945140137
 40
0.8807402379906777
 40
0.9326175262693015
 40
0.9588115888212762
 40
1.0
 40
1.0
 40
1.0
 40
1.0
 10
249.7611557403858
 20
385.8146407795302
 30
0.0
 10
249.7614069666116
 20
385.7603930028697
 30
0.0
 10
249.7617822500949
 20
385.6793572968414
 30
0.0
 10
249.7631625987274
 20
385.5899715431627
 30
0.0
 10
249.764377787752
 20
385.5375594840767
 30
0.0
 10
249.7658464558265
 20
385.4877411695514
 30
0.0
 10
249.7679148511077
 20
385.4380624827515
 30
0.0
 10
249.7705448261501
 20
385.3890458293778
 30
0.0
 10
249.7737057872398
 20
385.3391760490662
 30
0.0
 10
249.7778844802763
 20
385.2884409288375
 30
0.0
 10
249.7827901395145
 20
385.2394333073957
 30
0.0
 10
249.7872065806549
 20
385.2006682736538
 30
0.0
 10
249.7917876766792
 20
385.1663696063229
 30
0.0
 10
249.7960506133814
 20
385.1375877559929
 30
0.0
 10
249.7998214598237
 20
385.1138988387422
 30
0.0
 10
249.8039840320031
 20
385.0901369503757
 30
0.0
 10
249.8085113645763
 20
385.0660839957123
 30
0.0
 10
249.8141707092257
 20
385.038027488866
 30
0.0
 10
249.8203894763002
 20
385.010408347178
 30
0.0
 10
249.8315377027825
 20
384.9648863236243
 30
0.0
 10
249.8444352581692
 20
384.9194454667887
 30
0.0
 10
249.8601581336314
 20
384.8748488615508
 30
0.0
 10
249.8708879011157
 20
384.8474934079148
 30
0.0
 10
249.8809099672522
 20
384.8242020877537
 30
0.0
 10
249.8910703390238
 20
384.8032155480299
 30
0.0
 10
249.899393020043
 20
384.7871978430109
 30
0.0
 10
249.9068984395691
 20
384.773606360501
 30
0.0
 10
249.9167921628948
 20
384.7583332851447
 30
0.0
 10
249.9271185807281
 20
384.7455599044232
 30
0.0
 10
249.935584452566
 20
384.7369275847977
 30
0.0
 10
249.943273243842
 20
384.7299703826606
 30
0.0
 10
249.9566264096047
 20
384.7192031365323
 30
0.0
 10
249.9726035974934
 20
384.7088075501819
 30
0.0
 10
249.9877412871211
 20
384.7006362138661
 30
0.0
 10
249.9999155847401
 20
384.6945129917571
 30
0.0
 10
250.0140953412764
 20
384.6879702876085
 30
0.0
 10
250.0300493770602
 20
384.6812727899064
 30
0.0
 10
250.0459866554265
 20
384.6748966568291
 30
0.0
 10
250.0620168765778
 20
384.6686110568544
 30
0.0
 10
250.078280761281
 20
384.662718222533
 30
0.0
 10
250.0981666679873
 20
384.6558998545077
 30
0.0
 10
250.1180950379209
 20
384.6495504393988
 30
0.0
 10
250.1383166665326
 20
384.6436528121083
 30
0.0
 10
250.1645449655761
 20
384.6363890208732
 30
0.0
 10
250.1978874455062
 20
384.6280356799695
 30
0.0
 10
250.2358220434823
 20
384.6198183215091
 30
0.0
 10
250.2732339018541
 20
384.6124931967412
 30
0.0
 10
250.310578897963
 20
384.606008858123
 30
0.0
 10
250.3477941593486
 20
384.6004578123146
 30
0.0
 10
250.3860328058016
 20
384.595384802129
 30
0.0
 10
250.4259779853921
 20
384.5907561320789
 30
0.0
 10
250.473742184235
 20
384.5861568062971
 30
0.0
 10
250.5431302095582
 20
384.5805850523384
 30
0.0
 10
250.6113253224399
 20
384.576859470676
 30
0.0
 10
250.6683833779952
 20
384.5747650880298
 30
0.0
 10
250.7057582217976
 20
384.5736098302764
 30
0.0
 10
250.767044636077
 20
384.5721658120148
 30
0.0
 10
250.8432151573913
 20
384.5713957552812
 30
0.0
 10
250.9311157204447
 20
384.5711500991143
 30
0.0
 10
250.9807803767006
 20
384.5711721963485
 30
0.0
 10
251.0111385421056
 20
384.5711857035695
 30
0.0
  0
LINE
  5
10F
330
1F
100
AcDbEntity
  8
0
  6
Continuous
 62
     8
370
    18
100
AcDbLine
 10
249.5490730104
 20
426.3190748861
 30
0.0
 11
249.7611556713
 21
385.8146404431
 31
0.0
  0
SPLINE
  5
110
330
1F
100
AcDbEntity
  8
0
  6
Continuous
 62
     8
370
    18
100
AcDbSpline
210
0.0
220
0.0
230
1.0
 70
     8
 71
     3
 72
    12
 73
     8
 74
     0
 42
0.000000001
 43
0.00000001
 40
0.0
 40
0.0
 40
0.0
 40
0.0
 40
0.1999975921096629
 40
0.3999984185790549
 40
0.6000006443274957
 40
0.8000011564866614
 40
1.0
 40
1.0
 40
1.0
 40
1.0
 10
249.4898489318704
 20
431.6378014830358
 30
0.0
 10
249.497278634425
 20
431.2832739170911
 30
0.0
 10
249.5121381596873
 20
430.5742130517843
 30
0.0
 10
249.5263110848721
 20
429.5104725656005
 30
0.0
 10
249.5364874278989
 20
428.4466887267048
 30
0.0
 10
249.5435022060029
 20
427.3828823175148
 30
0.0
 10
249.5472161182484
 20
426.6736762223296
 30
0.0
 10
249.5490730666246
 20
426.3190746540066
 30
0.0
  0
SPLINE
  5
111
330
1F
100
AcDbEntity
  8
0
  6
Continuous
 62
     8
370
    18
100
AcDbSpline
210
0.0
220
0.0
230
1.0
 70
     8
 71
     3
 72
    51
 73
    47
 74
     0
 42
0.000000001
 43
0.00000001
 40
0.0
 40
0.0
 40
0.0
 40
0.0
 40
0.0111189929054469
 40
0.0222379110629578
 40
0.0333566993448646
 40
0.0444753232432006
 40
0.0555937678324524
 40
0.0667120362419599
 40
0.0778301476543852
 40
0.0889481348476442
 40
0.1000660412986684
 40
0.1111839178684141
 40
0.1223018190886817
 40
0.1334197990723991
 40
0.1445379070702011
 40
0.1556561826972786
 40
0.1667746508555842
 40
0.1778933163776027
 40
0.1890121584205635
 40
0.2001311246373608
 40
0.2112501391962013
 40
0.2223692413046242
 40
0.2334885228042466
 40
0.2446080331349853
 40
0.2557277841561985
 40
0.2668477567524755
 40
0.2779679075661423
 40
0.2890881758063
 40
0.3002084900842123
 40
0.3113287752249869
 40
0.3224489590057126
 40
0.3335689787704922
 40
0.3446887878835551
 40
0.355808361971639
 40
0.3669277047935796
 40
0.3780468538799339
 40
0.3891658858459655
 40
0.4817278577903996
 40
0.5742896888999819
 40
0.6668473400828268
 40
0.759404864150021
 40
0.8519911995756776
 40
0.9445774154399208
 40
0.9630484489867056
 40
0.9815289726764365
 40
1.0
 40
1.0
 40
1.0
 40
1.0
 10
263.8252388216731
 20
490.6711851460269
 30
0.0
 10
263.6733447316065
 20
490.6702568580457
 30
0.0
 10
263.3695575725882
 20
490.6684002883236
 30
0.0
 10
262.9140831864061
 20
490.6533917661486
 30
0.0
 10
262.4590215000838
 20
490.6294482974774
 30
0.0
 10
262.004577188868
 20
490.5957057534756
 30
0.0
 10
261.5509537709303
 20
490.5524166043037
 30
0.0
 10
261.0983536670459
 20
490.4995381934283
 30
0.0
 10
260.6469782510248
 20
490.4371111983277
 30
0.0
 10
260.1970279025217
 20
490.3651584219696
 30
0.0
 10
259.7487020591128
 20
490.2837121082595
 30
0.0
 10
259.3021992684801
 20
490.1928068202731
 30
0.0
 10
258.8577172404742
 20
490.092481545639
 30
0.0
 10
258.4154528991554
 20
489.9827793293896
 30
0.0
 10
257.9756024346798
 20
489.8637475694092
 30
0.0
 10
257.5383613554984
 20
489.7354381334488
 30
0.0
 10
257.1039245391765
 20
489.5979075267157
 30
0.0
 10
256.6724862881591
 20
489.451217035009
 30
0.0
 10
256.2442403668427
 20
489.2954329144675
 30
0.0
 10
255.8193799297391
 20
489.1306263483048
 30
0.0
 10
255.3980953704697
 20
488.9568732330869
 30
0.0
 10
254.9805743251494
 20
488.774250859579
 30
0.0
 10
254.5670015005648
 20
488.5828391343769
 30
0.0
 10
254.1575600373205
 20
488.3827224242178
 30
0.0
 10
253.752432618956
 20
488.1739896049489
 30
0.0
 10
253.3518011280645
 20
487.9567339976454
 30
0.0
 10
252.9558463288012
 20
487.7310531860562
 30
0.0
 10
252.564747536257
 20
487.4970488629203
 30
0.0
 10
252.1786822914849
 20
487.2548266718081
 30
0.0
 10
251.797826026612
 20
487.0044960391428
 30
0.0
 10
251.4223517634595
 20
486.7461700510909
 30
0.0
 10
251.0524296873786
 20
486.4799651617678
 30
0.0
 10
250.688227185418
 20
486.2060015317321
 30
0.0
 10
250.3299071532076
 20
485.9244010123424
 30
0.0
 10
249.977632766951
 20
485.6352939182256
 30
0.0
 10
249.6315481077019
 20
485.3387930258082
 30
0.0
 10
248.4624602027152
 20
484.2935867920427
 30
0.0
 10
246.6386481231246
 20
482.3068817470823
 30
0.0
 10
244.5934712761755
 20
479.0897544985057
 30
0.0
 10
243.1434346976595
 20
475.5631815336105
 30
0.0
 10
242.3342335245782
 20
471.8366188742402
 30
0.0
 10
242.191086547177
 20
468.0264778457637
 30
0.0
 10
242.5776587049893
 20
465.2547630814447
 30
0.0
 10
243.0067985427947
 20
463.5380020223063
 30
0.0
 10
243.2143599652821
 20
462.8096324303684
 30
0.0
 10
243.3741780196001
 20
462.3307723183131
 30
0.0
 10
243.4540665105337
 20
462.0914037946276
 30
0.0
  0
LINE
  5
112
330
1F
100
AcDbEntity
  8
0
  6
Continuous
 62
     8
370
    18
100
AcDbLine
 10
251.0111385366
 20
383.1211853979
 30
0.0
 11
251.0111385366
 21
384.5711853979
 31
0.0
  0
LINE
  5
113
330
1F
100
AcDbEntity
  8
0
  6
Continuous
 62
     8
370
    18
100
AcDbLine
 10
248.3111755475
 20
385.8070482956
 30
0.0
 11
249.7611556713
 21
385.8146404431
 31
0.0
  0
LINE
  5
114
330
1F
100
AcDbEntity
  8
0
  6
Continuous
 62
     8
370
    18
100
AcDbLine
 10
276.639339106
 20
383.1211853979
 30
0.0
 11
276.639339106
 21
384.5711853979
 31
0.0
  0
LINE
  5
115
330
1F
100
AcDbEntity
  8
0
  6
Continuous
 62
     8
370
    18
100
AcDbLine
 10
279.3393020951
 20
385.8070482956
 30
0.0
 11
277.8893219713
 21
385.8146404431
 31
0.0
  0
LINE
  5
116
330
1F
100
AcDbEntity
  8
0
  6
Continuous
 62
     8
370
    18
100
AcDbLine
 10
249.5490730106
 20
426.3190748861
 30
0.0
 11
248.0990928866
 21
426.3114827385
 31
0.0
  0
LINE
  5
117
330
1F
100
AcDbEntity
  8
0
  6
Continuous
 62
     8
370
    18
100
AcDbLine
 10
278.101404632
 20
426.3190748861
 30
0.0
 11
279.551384756
 21
426.3114827385
 31
0.0
  0
SPLINE
  5
118
330
1F
100
AcDbEntity
  8
0
  6
Continuous
 62
     8
370
    18
100
AcDbSpline
210
0.0
220
0.0
230
1.0
 70
     8
 71
     3
 72
    17
 73
    13
 74
     0
 42
0.000000001
 43
0.00000001
 40
0.0
 40
0.0
 40
0.0
 40
0.0
 40
0.1245339562918127
 40
0.2492014966524621
 40
0.3740239276891069
 40
0.4448755393948661
 40
0.4992320281189066
 40
0.5534588052018496
 40
0.6247205830628284
 40
0.7500823055262695
 40
0.8749477765954454
 40
1.0
 40
1.0
 40
1.0
 40
1.0
 10
110.1184497953266
 20
436.9143758102433
 30
0.0
 10
110.1184202545652
 20
436.8055944398031
 30
0.0
 10
110.1183611413548
 20
436.5879150122093
 30
0.0
 10
110.1360113780156
 20
436.2615104558598
 30
0.0
 10
110.1849558496957
 20
435.9843970011175
 30
0.0
 10
110.2585198775298
 20
435.7783361499697
 30
0.0
 10
110.3437712181718
 20
435.6428475784596
 30
0.0
 10
110.4787226739477
 20
435.5559766431668
 30
0.0
 10
110.6853572160878
 20
435.4816277940562
 30
0.0
 10
110.9633831623782
 20
435.4321348208466
 30
0.0
 10
111.2908920375485
 20
435.4143092564111
 30
0.0
 10
111.5091957920817
 20
435.4143673189675
 30
0.0
 10
111.6184292336731
 20
435.4143963719395
 30
0.0
  0
LINE
  5
119
330
1F
100
AcDbEntity
  8
0
  6
Continuous
 62
     8
370
    18
100
AcDbLine
 10
110.1184497953
 20
501.3279949855
 30
0.0
 11
110.1184497953
 21
436.9143758103
 31
0.0
  0
SPLINE
  5
11A
330
1F
100
AcDbEntity
  8
0
  6
Continuous
 62
     8
370
    18
100
AcDbSpline
210
0.0
220
0.0
230
1.0
 70
     8
 71
     3
 72
    17
 73
    13
 74
     0
 42
0.000000001
 43
0.00000001
 40
0.0
 40
0.0
 40
0.0
 40
0.0
 40
0.1245339563132488
 40
0.249201496697417
 40
0.3740239277371787
 40
0.4448755394589851
 40
0.4992320281859811
 40
0.5534588052603544
 40
0.6247205831073467
 40
0.7500823055543829
 40
0.8749477766097835
 40
1.0
 40
1.0
 40
1.0
 40
1.0
 10
111.6184292336731
 20
502.8279744238691
 30
0.0
 10
111.5096478632132
 20
502.8280039646258
 30
0.0
 10
111.2919684355783
 20
502.8280630778269
 30
0.0
 10
110.965563879184
 20
502.8104128411588
 30
0.0
 10
110.6884504244037
 20
502.7614683694689
 30
0.0
 10
110.4823895732354
 20
502.6879043416248
 30
0.0
 10
110.3469010017317
 20
502.6026530009468
 30
0.0
 10
110.2600300664871
 20
502.4677015451604
 30
0.0
 10
110.1856812174033
 20
502.2610670030475
 30
0.0
 10
110.1361882442103
 20
501.9830410567905
 30
0.0
 10
110.1183626797841
 20
501.655532181656
 30
0.0
 10
110.1184207423499
 20
501.4372284271452
 30
0.0
 10
110.1184497953266
 20
501.3279949855653
 30
0.0
  0
LINE
  5
11B
330
1F
100
AcDbEntity
  8
0
  6
Continuous
 62
     8
370
    18
100
AcDbLine
 10
306.0320484089
 20
502.8279744239
 30
0.0
 11
111.6184292337
 21
502.8279744239
 31
0.0
  0
SPLINE
  5
11C
330
1F
100
AcDbEntity
  8
0
  6
Continuous
 62
     8
370
    18
100
AcDbSpline
210
0.0
220
0.0
230
1.0
 70
     8
 71
     3
 72
    17
 73
    13
 74
     0
 42
0.000000001
 43
0.00000001
 40
0.0
 40
0.0
 40
0.0
 40
0.0
 40
0.1245339562957409
 40
0.249201496660712
 40
0.3740239276977174
 40
0.4448755394070134
 40
0.4992320281307084
 40
0.5534588052139927
 40
0.6247205830707595
 40
0.750082305531394
 40
0.8749477765980027
 40
1.0
 40
1.0
 40
1.0
 40
1.0
 10
307.5320278472562
 20
501.3279949855382
 30
0.0
 10
307.5320573880158
 20
501.4367763559823
 30
0.0
 10
307.5321165012226
 20
501.6544557835844
 30
0.0
 10
307.5144662645592
 20
501.9808603399428
 30
0.0
 10
307.4655217928789
 20
502.2579737946942
 30
0.0
 10
307.3919577650326
 20
502.4640346458429
 30
0.0
 10
307.3067064243776
 20
502.5995232173493
 30
0.0
 10
307.1717549686006
 20
502.6863941526332
 30
0.0
 10
306.965120426468
 20
502.7607430017489
 30
0.0
 10
306.6870944801843
 20
502.8102359749602
 30
0.0
 10
306.3595856050196
 20
502.8280615393978
 30
0.0
 10
306.1412818504896
 20
502.8280034768412
 30
0.0
 10
306.0320484088999
 20
502.8279744238692
 30
0.0
  0
LINE
  5
11D
330
1F
100
AcDbEntity
  8
0
  6
Continuous
 62
     8
370
    18
100
AcDbLine
 10
307.5320278473
 20
436.9143758103
 30
0.0
 11
307.5320278473
 21
501.3279949855
 31
0.0
  0
SPLINE
  5
11E
330
1F
100
AcDbEntity
  8
0
  6
Continuous
 62
     8
370
    18
100
AcDbSpline
210
0.0
220
0.0
230
1.0
 70
     8
 71
     3
 72
    17
 73
    13
 74
     0
 42
0.000000001
 43
0.00000001
 40
0.0
 40
0.0
 40
0.0
 40
0.0
 40
0.1245339563090495
 40
0.2492014966886665
 40
0.3740239277278368
 40
0.4448755394460358
 40
0.4992320281729537
 40
0.5534588052471374
 40
0.6247205830986243
 40
0.7500823055489587
 40
0.8749477766070144
 40
1.0
 40
1.0
 40
1.0
 40
1.0
 10
306.0320484089
 20
435.4143963719396
 30
0.0
 10
306.1408297793564
 20
435.4143668311829
 30
0.0
 10
306.3585092069842
 20
435.4143077179817
 30
0.0
 10
306.6849137633708
 20
435.4319579546508
 30
0.0
 10
306.9620272181446
 20
435.4809024263423
 30
0.0
 10
307.1680880693065
 20
435.5544664541927
 30
0.0
 10
307.3035766408105
 20
435.639717794863
 30
0.0
 10
307.3904475760659
 20
435.774669250647
 30
0.0
 10
307.4647964251637
 20
435.981303792763
 30
0.0
 10
307.5142893983617
 20
436.2593297390296
 30
0.0
 10
307.5321149627933
 20
436.5868386141721
 30
0.0
 10
307.5320569002311
 20
436.8051423686881
 30
0.0
 10
307.5320278472563
 20
436.9143758102706
 30
0.0
  0
LINE
  5
11F
330
1F
100
AcDbEntity
  8
0
  6
Continuous
 62
     8
370
    18
100
AcDbLine
 10
111.6184292337
 20
435.4143963719
 30
0.0
 11
247.8687412556
 21
435.4143963719
 31
0.0
  0
LINE
  5
120
330
1F
100
AcDbEntity
  8
0
  6
Continuous
 62
     8
370
    18
100
AcDbLine
 10
279.781736387
 20
435.4143963719
 30
0.0
 11
306.0320484089
 21
435.4143963719
 31
0.0
  0
LINE
  5
121
330
1F
100
AcDbEntity
  8
0
  6
Continuous
 62
     8
370
    18
100
AcDbLine
 10
308.8320100272
 20
501.3279949855
 30
0.0
 11
308.8320100272
 21
436.9143758103
 31
0.0
  0
SPLINE
  5
122
330
1F
100
AcDbEntity
  8
0
  6
Continuous
 62
     8
370
    18
100
AcDbSpline
210
0.0
220
0.0
230
1.0
 70
    24
 71
     3
 72
    18
 73
    14
 74
     0
 42
0.000000001
 43
0.00000001
 40
0.0
 40
0.0
 40
0.0
 40
0.0
 40
0.1250000000000023
 40
0.1250000000000023
 40
0.2500000000000047
 40
0.2500000000000047
 40
0.5000000000000092
 40
0.5000000000000092
 40
0.7500000000000138
 40
0.7500000000000138
 40
0.8750000000000069
 40
0.8750000000000069
 40
1.0
 40
1.0
 40
1.0
 40
1.0
 10
308.8320100271779
 20
436.9143758103107
 30
0.0
 10
308.8315350817144
 20
436.9143758103107
 30
0.0
 10
308.8307980365109
 20
436.9143758103107
 30
0.0
 10
308.8175508217608
 20
436.9143758103107
 30
0.0
 10
308.8050962979675
 20
436.9143758103107
 30
0.0
 10
308.741299745335
 20
436.9143758103107
 30
0.0
 10
308.6627166600088
 20
436.9143758103107
 30
0.0
 10
308.4231881813014
 20
436.9143758103107
 30
0.0
 10
308.2593846901635
 20
436.9143758103107
 30
0.0
 10
307.9906831912042
 20
436.9143758103107
 30
0.0
 10
307.8980212266469
 20
436.9143758103107
 30
0.0
 10
307.7139415623789
 20
436.9143758103107
 30
0.0
 10
307.6227361635792
 20
436.9143758103107
 30
0.0
 10
307.5320278472562
 20
436.9143758103107
 30
0.0
  0
SPLINE
  5
123
330
1F
100
AcDbEntity
  8
0
  6
Continuous
 62
     8
370
    18
100
AcDbSpline
210
0.0
220
0.0
230
1.0
 70
    24
 71
     3
 72
    18
 73
    14
 74
     0
 42
0.000000001
 43
0.00000001
 40
0.0
 40
0.0
 40
0.0
 40
0.0
 40
0.1250000000000006
 40
0.1250000000000006
 40
0.2500000000000013
 40
0.2500000000000013
 40
0.500000000000007
 40
0.500000000000007
 40
0.7500000000000128
 40
0.7500000000000128
 40
0.8750000000000063
 40
0.8750000000000063
 40
1.0
 40
1.0
 40
1.0
 40
1.0
 10
308.8320100271779
 20
501.3279949854981
 30
0.0
 10
308.8315350817144
 20
501.3279949854982
 30
0.0
 10
308.830798036511
 20
501.3279949854982
 30
0.0
 10
308.8175508217608
 20
501.3279949854985
 30
0.0
 10
308.8050962979676
 20
501.3279949854989
 30
0.0
 10
308.7412997453351
 20
501.3279949855008
 30
0.0
 10
308.6627166600089
 20
501.3279949855033
 30
0.0
 10
308.4231881813016
 20
501.3279949855107
 30
0.0
 10
308.2593846901636
 20
501.3279949855157
 30
0.0
 10
307.9906831912043
 20
501.3279949855241
 30
0.0
 10
307.898021226647
 20
501.3279949855268
 30
0.0
 10
307.7139415623789
 20
501.3279949855325
 30
0.0
 10
307.6227361635792
 20
501.3279949855354
 30
0.0
 10
307.5320278472562
 20
501.3279949855382
 30
0.0
  0
LINE
  5
124
330
1F
100
AcDbEntity
  8
0
  6
Continuous
 62
     8
370
    18
100
AcDbLine
 10
108.8184676154
 20
436.9143758103
 30
0.0
 11
108.8184676154
 21
501.3279949855
 31
0.0
  0
SPLINE
  5
125
330
1F
100
AcDbEntity
  8
0
  6
Continuous
 62
     8
370
    18
100
AcDbSpline
210
0.0
220
0.0
230
1.0
 70
    24
 71
     3
 72
    18
 73
    14
 74
     0
 42
0.000000001
 43
0.00000001
 40
0.0
 40
0.0
 40
0.0
 40
0.0
 40
0.1250000000000024
 40
0.1250000000000024
 40
0.2500000000000047
 40
0.2500000000000047
 40
0.5000000000000093
 40
0.5000000000000093
 40
0.7500000000000139
 40
0.7500000000000139
 40
0.875000000000007
 40
0.875000000000007
 40
1.0
 40
1.0
 40
1.0
 40
1.0
 10
108.818467615405
 20
501.3279949854981
 30
0.0
 10
108.8189425608685
 20
501.3279949854981
 30
0.0
 10
108.8196796060719
 20
501.3279949854981
 30
0.0
 10
108.8329268208221
 20
501.3279949854981
 30
0.0
 10
108.8453813446154
 20
501.3279949854981
 30
0.0
 10
108.9091778972478
 20
501.3279949854981
 30
0.0
 10
108.987760982574
 20
501.3279949854981
 30
0.0
 10
109.2272894612814
 20
501.3279949854981
 30
0.0
 10
109.3910929524194
 20
501.3279949854981
 30
0.0
 10
109.6597944513787
 20
501.3279949854981
 30
0.0
 10
109.752456415936
 20
501.3279949854981
 30
0.0
 10
109.936536080204
 20
501.3279949854981
 30
0.0
 10
110.0277414790036
 20
501.3279949854981
 30
0.0
 10
110.1184497953266
 20
501.3279949854981
 30
0.0
  0
SPLINE
  5
126
330
1F
100
AcDbEntity
  8
0
  6
Continuous
 62
     8
370
    18
100
AcDbSpline
210
0.0
220
0.0
230
1.0
 70
    24
 71
     3
 72
    18
 73
    14
 74
     0
 42
0.000000001
 43
0.00000001
 40
0.0
 40
0.0
 40
0.0
 40
0.0
 40
0.1250000000000017
 40
0.1250000000000017
 40
0.2500000000000033
 40
0.2500000000000033
 40
0.5000000000000022
 40
0.5000000000000022
 40
0.7500000000000012
 40
0.7500000000000012
 40
0.8750000000000007
 40
0.8750000000000007
 40
1.0
 40
1.0
 40
1.0
 40
1.0
 10
108.818467615405
 20
436.9143758103106
 30
0.0
 10
108.8189425608685
 20
436.9143758103106
 30
0.0
 10
108.8196796060719
 20
436.9143758103105
 30
0.0
 10
108.8329268208221
 20
436.9143758103098
 30
0.0
 10
108.8453813446153
 20
436.9143758103092
 30
0.0
 10
108.9091778972477
 20
436.9143758103059
 30
0.0
 10
108.9877609825739
 20
436.9143758103018
 30
0.0
 10
109.2272894612813
 20
436.9143758102894
 30
0.0
 10
109.3910929524193
 20
436.9143758102809
 30
0.0
 10
109.6597944513786
 20
436.914375810267
 30
0.0
 10
109.7524564159359
 20
436.9143758102622
 30
0.0
 10
109.936536080204
 20
436.9143758102526
 30
0.0
 10
110.0277414790036
 20
436.9143758102479
 30
0.0
 10
110.1184497953266
 20
436.9143758102433
 30
0.0
  0
LINE
  5
127
330
1F
100
AcDbEntity
  8
0
  6
Continuous
 62
     8
370
    18
100
AcDbLine
 10
306.0320484089
 20
434.114414192
 30
0.0
 11
279.7232224414
 21
434.114414192
 31
0.0
  0
LINE
  5
128
330
1F
100
AcDbEntity
  8
0
  6
Continuous
 62
     8
370
    18
100
AcDbLine
 10
247.9272552012
 20
434.114414192
 30
0.0
 11
111.6184292337
 21
434.114414192
 31
0.0
  0
SPLINE
  5
129
330
1F
100
AcDbEntity
  8
0
  6
Continuous
 62
     8
370
    18
100
AcDbSpline
210
0.0
220
0.0
230
1.0
 70
    24
 71
     3
 72
    18
 73
    14
 74
     0
 42
0.000000001
 43
0.00000001
 40
0.0
 40
0.0
 40
0.0
 40
0.0
 40
0.1250000000000008
 40
0.1250000000000008
 40
0.2500000000000017
 40
0.2500000000000017
 40
0.5000000000000011
 40
0.5000000000000011
 40
0.7500000000000006
 40
0.7500000000000006
 40
0.8750000000000002
 40
0.8750000000000002
 40
1.0
 40
1.0
 40
1.0
 40
1.0
 10
111.6184292336863
 20
434.1144141920179
 30
0.0
 10
111.6184292336863
 20
434.1148891374814
 30
0.0
 10
111.6184292336863
 20
434.1156261826848
 30
0.0
 10
111.6184292336863
 20
434.128873397435
 30
0.0
 10
111.6184292336863
 20
434.1413279212283
 30
0.0
 10
111.6184292336863
 20
434.2051244738608
 30
0.0
 10
111.6184292336863
 20
434.283707559187
 30
0.0
 10
111.6184292336863
 20
434.5232360378943
 30
0.0
 10
111.6184292336863
 20
434.6870395290323
 30
0.0
 10
111.6184292336863
 20
434.9557410279916
 30
0.0
 10
111.6184292336863
 20
435.0484029925489
 30
0.0
 10
111.6184292336863
 20
435.2324826568169
 30
0.0
 10
111.6184292336863
 20
435.3236880556166
 30
0.0
 10
111.6184292336863
 20
435.4143963719395
 30
0.0
  0
SPLINE
  5
12A
330
1F
100
AcDbEntity
  8
0
  6
Continuous
 62
     8
370
    18
100
AcDbSpline
210
0.0
220
0.0
230
1.0
 70
    24
 71
     3
 72
    18
 73
    14
 74
     0
 42
0.000000001
 43
0.00000001
 40
0.0
 40
0.0
 40
0.0
 40
0.0
 40
0.1250000000000008
 40
0.1250000000000008
 40
0.2500000000000016
 40
0.2500000000000016
 40
0.500000000000001
 40
0.500000000000001
 40
0.7500000000000006
 40
0.7500000000000006
 40
0.8750000000000003
 40
0.8750000000000003
 40
1.0
 40
1.0
 40
1.0
 40
1.0
 10
306.0320484088996
 20
434.1144141920179
 30
0.0
 10
306.0320484088997
 20
434.1148891374814
 30
0.0
 10
306.0320484088996
 20
434.1156261826848
 30
0.0
 10
306.0320484088996
 20
434.1288733974351
 30
0.0
 10
306.0320484088996
 20
434.1413279212283
 30
0.0
 10
306.0320484088996
 20
434.2051244738608
 30
0.0
 10
306.0320484088997
 20
434.283707559187
 30
0.0
 10
306.0320484088998
 20
434.5232360378944
 30
0.0
 10
306.0320484088998
 20
434.6870395290323
 30
0.0
 10
306.0320484088999
 20
434.9557410279917
 30
0.0
 10
306.0320484088999
 20
435.0484029925489
 30
0.0
 10
306.0320484088999
 20
435.232482656817
 30
0.0
 10
306.0320484089
 20
435.3236880556166
 30
0.0
 10
306.0320484089
 20
435.4143963719396
 30
0.0
  0
LINE
  5
12B
330
1F
100
AcDbEntity
  8
0
  6
Continuous
 62
     8
370
    18
100
AcDbLine
 10
111.6184292337
 20
504.1279566038
 30
0.0
 11
306.0320484089
 21
504.1279566038
 31
0.0
  0
SPLINE
  5
12C
330
1F
100
AcDbEntity
  8
0
  6
Continuous
 62
     8
370
    18
100
AcDbSpline
210
0.0
220
0.0
230
1.0
 70
    24
 71
     3
 72
    18
 73
    14
 74
     0
 42
0.000000001
 43
0.00000001
 40
0.0
 40
0.0
 40
0.0
 40
0.0
 40
0.1250000000000009
 40
0.1250000000000009
 40
0.2500000000000017
 40
0.2500000000000017
 40
0.5000000000000011
 40
0.5000000000000011
 40
0.7500000000000006
 40
0.7500000000000006
 40
0.8750000000000003
 40
0.8750000000000003
 40
1.0
 40
1.0
 40
1.0
 40
1.0
 10
306.0320484088921
 20
504.1279566037908
 30
0.0
 10
306.0320484088921
 20
504.1274816583273
 30
0.0
 10
306.0320484088921
 20
504.1267446131238
 30
0.0
 10
306.0320484088921
 20
504.1134973983736
 30
0.0
 10
306.0320484088921
 20
504.1010428745803
 30
0.0
 10
306.0320484088921
 20
504.0372463219479
 30
0.0
 10
306.0320484088921
 20
503.9586632366218
 30
0.0
 10
306.0320484088921
 20
503.7191347579143
 30
0.0
 10
306.0320484088921
 20
503.5553312667764
 30
0.0
 10
306.0320484088921
 20
503.286629767817
 30
0.0
 10
306.0320484088921
 20
503.1939678032599
 30
0.0
 10
306.0320484088921
 20
503.0098881389917
 30
0.0
 10
306.0320484088921
 20
502.9186827401921
 30
0.0
 10
306.0320484088921
 20
502.8279744238692
 30
0.0
  0
SPLINE
  5
12D
330
1F
100
AcDbEntity
  8
0
  6
Continuous
 62
     8
370
    18
100
AcDbSpline
210
0.0
220
0.0
230
1.0
 70
    24
 71
     3
 72
    18
 73
    14
 74
     0
 42
0.000000001
 43
0.00000001
 40
0.0
 40
0.0
 40
0.0
 40
0.0
 40
0.1250000000000008
 40
0.1250000000000008
 40
0.2500000000000017
 40
0.2500000000000017
 40
0.5000000000000011
 40
0.5000000000000011
 40
0.7500000000000006
 40
0.7500000000000006
 40
0.8750000000000003
 40
0.8750000000000003
 40
1.0
 40
1.0
 40
1.0
 40
1.0
 10
111.6184292336734
 20
504.1279566037907
 30
0.0
 10
111.6184292336734
 20
504.1274816583272
 30
0.0
 10
111.6184292336734
 20
504.1267446131238
 30
0.0
 10
111.6184292336734
 20
504.1134973983736
 30
0.0
 10
111.6184292336734
 20
504.1010428745803
 30
0.0
 10
111.6184292336734
 20
504.0372463219478
 30
0.0
 10
111.6184292336733
 20
503.9586632366216
 30
0.0
 10
111.6184292336733
 20
503.7191347579143
 30
0.0
 10
111.6184292336732
 20
503.5553312667763
 30
0.0
 10
111.6184292336732
 20
503.286629767817
 30
0.0
 10
111.6184292336731
 20
503.1939678032597
 30
0.0
 10
111.6184292336731
 20
503.0098881389917
 30
0.0
 10
111.6184292336731
 20
502.918682740192
 30
0.0
 10
111.6184292336731
 20
502.8279744238691
 30
0.0
  0
SPLINE
  5
12E
330
1F
100
AcDbEntity
  8
0
  6
Continuous
 62
     8
370
    18
100
AcDbSpline
210
0.0
220
0.0
230
1.0
 70
     8
 71
     3
 72
    15
 73
    11
 74
     0
 42
0.000000001
 43
0.00000001
 40
0.0
 40
0.0
 40
0.0
 40
0.0
 40
0.1273225625687414
 40
0.2560012990768115
 40
0.3811893626503213
 40
0.4999999990749561
 40
0.6188106355429053
 40
0.7439986994045132
 40
0.8726774365405513
 40
1.0
 40
1.0
 40
1.0
 40
1.0
 10
111.6184292336734
 20
434.1144141920179
 30
0.0
 10
111.4207403947198
 20
434.1148640789523
 30
0.0
 10
111.0232570377713
 20
434.1157686447837
 30
0.0
 10
110.4341078857632
 20
434.1926465331629
 30
0.0
 10
109.8808735703945
 20
434.3784898632508
 30
0.0
 10
109.4100885684343
 20
434.7060351388913
 30
0.0
 10
109.0825432900511
 20
435.1768201395939
 30
0.0
 10
108.8966999577907
 20
435.7300544559249
 30
0.0
 10
108.8198220681856
 20
436.319203610658
 30
0.0
 10
108.8189175023447
 20
436.7166869699709
 30
0.0
 10
108.818467615405
 20
436.9143758103106
 30
0.0
  0
SPLINE
  5
12F
330
1F
100
AcDbEntity
  8
0
  6
Continuous
 62
     8
370
    18
100
AcDbSpline
210
0.0
220
0.0
230
1.0
 70
     8
 71
     3
 72
    15
 73
    11
 74
     0
 42
0.000000001
 43
0.00000001
 40
0.0
 40
0.0
 40
0.0
 40
0.0
 40
0.1273225631489351
 40
0.2560013000630185
 40
0.3811893638198415
 40
0.500000000269694
 40
0.6188106367086416
 40
0.743998700385432
 40
0.8726774371171092
 40
1.0
 40
1.0
 40
1.0
 40
1.0
 10
108.818467615405
 20
501.3279949854981
 30
0.0
 10
108.8189175023402
 20
501.5256838253555
 30
0.0
 10
108.8198220681723
 20
501.9231671838414
 30
0.0
 10
108.8966999573407
 20
502.5123163376172
 30
0.0
 10
109.0825432888273
 20
503.0655506536033
 30
0.0
 10
109.4100885662295
 20
503.536335654749
 30
0.0
 10
109.8808735677453
 20
503.8638809313598
 30
0.0
 10
110.4341078834642
 20
504.0497242622065
 30
0.0
 10
111.0232570364424
 20
504.1266021510123
 30
0.0
 10
111.42074039423
 20
504.1275067168521
 30
0.0
 10
111.6184292336734
 20
504.1279566037907
 30
0.0
  0
SPLINE
  5
130
330
1F
100
AcDbEntity
  8
0
  6
Continuous
 62
     8
370
    18
100
AcDbSpline
210
0.0
220
0.0
230
1.0
 70
     8
 71
     3
 72
    15
 73
    11
 74
     0
 42
0.000000001
 43
0.00000001
 40
0.0
 40
0.0
 40
0.0
 40
0.0
 40
0.1273225632624941
 40
0.2560013002600112
 40
0.3811893640585098
 40
0.5000000005170763
 40
0.6188106369510705
 40
0.7439987005880101
 40
0.8726774372346497
 40
0.9999999999999999
 40
0.9999999999999999
 40
0.9999999999999999
 40
0.9999999999999999
 10
308.8320100271779
 20
436.9143758103106
 30
0.0
 10
308.831560140238
 20
436.7166869702773
 30
0.0
 10
308.8306555743965
 20
436.3192036114865
 30
0.0
 10
308.7537776850616
 20
435.7300544573544
 30
0.0
 10
308.5679343532812
 20
435.176820141234
 30
0.0
 10
308.240389075504
 20
434.706035140252
 30
0.0
 10
307.7696040738207
 20
434.3784898640066
 30
0.0
 10
307.2163697582394
 20
434.1926465334408
 30
0.0
 10
306.6272206056298
 20
434.1157686447917
 30
0.0
 10
306.2297372481593
 20
434.1148640789551
 30
0.0
 10
306.0320484088996
 20
434.1144141920179
 30
0.0
  0
SPLINE
  5
131
330
1F
100
AcDbEntity
  8
0
  6
Continuous
 62
     8
370
    18
100
AcDbSpline
210
0.0
220
0.0
230
1.0
 70
     8
 71
     3
 72
    15
 73
    11
 74
     0
 42
0.000000001
 43
0.00000001
 40
0.0
 40
0.0
 40
0.0
 40
0.0
 40
0.1273225627409782
 40
0.2560012993707938
 40
0.3811893630009405
 40
0.4999999994348989
 40
0.6188106358936469
 40
0.7439986996972703
 40
0.8726774367113126
 40
1.0
 40
1.0
 40
1.0
 40
1.0
 10
306.0320484088996
 20
504.1279566037908
 30
0.0
 10
306.2297372481207
 20
504.1275067168538
 30
0.0
 10
306.6272206055258
 20
504.1266021510176
 30
0.0
 10
307.2163697580604
 20
504.0497242623942
 30
0.0
 10
307.7696040736138
 20
503.8638809318763
 30
0.0
 10
308.2403890753275
 20
503.5363356557028
 30
0.0
 10
308.5679343531837
 20
503.0655506547663
 30
0.0
 10
308.753777685028
 20
502.5123163386298
 30
0.0
 10
308.8306555743956
 20
501.9231671844274
 30
0.0
 10
308.8315601402377
 20
501.5256838255715
 30
0.0
 10
308.8320100271779
 20
501.3279949854981
 30
0.0
  0
LINE
  5
132
330
1F
100
AcDbEntity
  8
0
  6
Continuous
 62
     8
370
    18
100
AcDbLine
 10
108.7781145008
 20
436.8740226957
 30
0.0
 11
108.8184676154
 21
436.9143758103
 31
0.0
  0
LINE
  5
133
330
1F
100
AcDbEntity
  8
0
  6
Continuous
 62
     8
370
    18
100
AcDbLine
 10
111.6184292337
 20
434.114414192
 30
0.0
 11
111.5780761191
 21
434.0740610775
 31
0.0
  0
LINE
  5
134
330
1F
100
AcDbEntity
  8
0
  6
Continuous
 62
     8
370
    18
100
AcDbLine
 10
111.5780761191
 20
504.1683097184
 30
0.0
 11
111.6184292337
 21
504.1279566038
 31
0.0
  0
LINE
  5
135
330
1F
100
AcDbEntity
  8
0
  6
Continuous
 62
     8
370
    18
100
AcDbLine
 10
108.8184676154
 20
501.3279949855
 30
0.0
 11
108.7781145008
 21
501.3683481001
 31
0.0
  0
LINE
  5
136
330
1F
100
AcDbEntity
  8
0
  6
Continuous
 62
     8
370
    18
100
AcDbLine
 10
306.0724015234
 20
434.0740610775
 30
0.0
 11
306.0320484089
 21
434.114414192
 31
0.0
  0
LINE
  5
137
330
1F
100
AcDbEntity
  8
0
  6
Continuous
 62
     8
370
    18
100
AcDbLine
 10
308.8320100272
 20
436.9143758103
 30
0.0
 11
308.8723631417
 21
436.8740226957
 31
0.0
  0
LINE
  5
138
330
1F
100
AcDbEntity
  8
0
  6
Continuous
 62
     8
370
    18
100
AcDbLine
 10
308.8723631417
 20
501.3683481001
 30
0.0
 11
308.8320100272
 21
501.3279949855
 31
0.0
  0
LINE
  5
139
330
1F
100
AcDbEntity
  8
0
  6
Continuous
 62
     8
370
    18
100
AcDbLine
 10
306.0320484089
 20
504.1279566038
 30
0.0
 11
306.0724015234
 21
504.1683097184
 31
0.0
  0
SPLINE
  5
13A
330
1F
100
AcDbEntity
  8
0
  6
Continuous
 62
     7
370
    25
100
AcDbSpline
210
0.0
220
0.0
230
1.0
 70
     8
 71
     3
 72
     9
 73
     5
 74
     0
 42
0.000000001
 43
0.00000001
 40
0.0
 40
0.0
 40
0.0
 40
0.0
 40
0.4850162067142879
 40
1.0
 40
1.0
 40
1.0
 40
1.0
 10
308.8241720564338
 20
331.3966072433872
 30
0.0
 10
308.8267193015744
 20
331.4431859839329
 30
0.0
 10
308.8319711779146
 20
331.5392214151228
 30
0.0
 10
308.8297974625823
 20
331.6257932116664
 30
0.0
 10
308.8286780344151
 20
331.670376283842
 30
0.0
  0
SPLINE
  5
13B
330
1F
100
AcDbEntity
  8
0
  6
Continuous
 62
     7
370
    25
100
AcDbSpline
210
0.0
220
0.0
230
1.0
 70
     8
 71
     3
 72
     9
 73
     5
 74
     0
 42
0.000000001
 43
0.00000001
 40
0.0
 40
0.0
 40
0.0
 40
0.0
 40
0.515009546136275
 40
0.9999999999999999
 40
0.9999999999999999
 40
0.9999999999999999
 40
0.9999999999999999
 10
108.8218443412245
 20
331.6703747487142
 30
0.0
 10
108.8207087466952
 20
331.6257898108859
 30
0.0
 10
108.8185037496466
 20
331.5392187207716
 30
0.0
 10
108.8237586401289
 20
331.4431682357614
 30
0.0
 10
108.8263072118489
 20
331.3965846674425
 30
0.0
  0
LINE
  5
13C
330
1F
100
AcDbEntity
  8
0
  6
Continuous
 62
     7
370
    25
100
AcDbLine
 10
240.8252388213
 20
294.8983469871
 30
0.0
 11
240.8252388213
 21
264.9773632266
 31
0.0
  0
LINE
  5
13D
330
1F
100
AcDbEntity
  8
0
  6
Continuous
 62
     7
370
    25
100
AcDbLine
 10
286.8252388213
 20
264.9773632266
 30
0.0
 11
286.8252388213
 21
294.8983469871
 31
0.0
  0
ARC
  5
13E
330
1F
100
AcDbEntity
  8
0
  6
Continuous
 62
     7
370
    25
100
AcDbCircle
 10
285.3252388213
 20
264.9773632266
 30
0.0
 40
1.499999999999943
100
AcDbArc
 50
270.0
 51
0.0
  0
ARC
  5
13F
330
1F
100
AcDbEntity
  8
0
  6
Continuous
 62
     7
370
    25
100
AcDbCircle
 10
242.3252388213
 20
264.9773632266
 30
0.0
 40
1.500000000000028
100
AcDbArc
 50
180.0
 51
270.0
  0
LINE
  5
140
330
1F
100
AcDbEntity
  8
0
  6
Continuous
 62
     7
370
    25
100
AcDbLine
 10
286.3752388213
 20
303.8540838049
 30
0.0
 11
286.3752388213
 21
330.3773632266
 31
0.0
  0
LINE
  5
141
330
1F
100
AcDbEntity
  8
0
  6
Continuous
 62
     7
370
    25
100
AcDbLine
 10
241.2752388213
 20
330.3773632266
 30
0.0
 11
241.2752388213
 21
303.8540838049
 31
0.0
  0
ARC
  5
142
330
1F
100
AcDbEntity
  8
0
  6
Continuous
 62
     7
370
    25
100
AcDbCircle
 10
285.6752388213
 20
303.8540838049
 30
0.0
 40
0.7000000000000455
100
AcDbArc
 50
311.0
 51
0.0
  0
ARC
  5
143
330
1F
100
AcDbEntity
  8
0
  6
Continuous
 62
     7
370
    25
100
AcDbCircle
 10
241.9752388213
 20
303.8540838049
 30
0.0
 40
0.700000000000017
100
AcDbArc
 50
180.0
 51
229.0
  0
LINE
  5
144
330
1F
100
AcDbEntity
  8
0
  6
Continuous
 62
     7
370
    25
100
AcDbLine
 10
241.515997501
 20
303.3257870987
 30
0.0
 11
241.5867496148
 21
303.2642832245
 31
0.0
  0
LINE
  5
145
330
1F
100
AcDbEntity
  8
0
  6
Continuous
 62
     7
370
    25
100
AcDbLine
 10
286.0637280278
 20
303.2642832245
 30
0.0
 11
286.1344801416
 21
303.3257870987
 31
0.0
  0
SPLINE
  5
146
330
1F
100
AcDbEntity
  8
0
  6
Continuous
 62
     7
370
    25
100
AcDbSpline
210
0.0
220
0.0
230
1.0
 70
     8
 71
     3
 72
     9
 73
     5
 74
     0
 42
0.000000001
 43
0.00000001
 40
0.0
 40
0.0
 40
0.0
 40
0.0
 40
0.4922627281534228
 40
1.0
 40
1.0
 40
1.0
 40
1.0
 10
242.4041620996069
 20
263.4768836829398
 30
0.0
 10
245.940168795727
 20
263.3689574021901
 30
0.0
 10
253.1233384608048
 20
263.1497121199916
 30
0.0
 10
260.3097391889303
 20
263.112991964557
 30
0.0
 10
263.9585426890251
 20
263.0943477730148
 30
0.0
  0
SPLINE
  5
147
330
1F
100
AcDbEntity
  8
0
  6
Continuous
 62
     7
370
    25
100
AcDbSpline
210
0.0
220
0.0
230
1.0
 70
     8
 71
     3
 72
     9
 73
     5
 74
     0
 42
0.000000001
 43
0.00000001
 40
0.0
 40
0.0
 40
0.0
 40
0.0
 40
0.5077372718465794
 40
1.0
 40
1.0
 40
1.0
 40
1.0
 10
263.6919349535578
 20
263.0943477730148
 30
0.0
 10
267.3407384536525
 20
263.112991964557
 30
0.0
 10
274.527139181778
 20
263.1497121199916
 30
0.0
 10
281.7103088468559
 20
263.3689574021901
 30
0.0
 10
285.246315542976
 20
263.4768836829398
 30
0.0
  0
ARC
  5
148
330
1F
100
AcDbEntity
  8
0
  6
Continuous
 62
     7
370
    25
100
AcDbCircle
 10
286.5229693481
 20
302.7359865184
 30
0.0
 40
0.7000000000000247
100
AcDbArc
 50
131.0
 51
179.1898025957
  0
ARC
  5
149
330
1F
100
AcDbEntity
  8
0
  6
Continuous
 62
     7
370
    25
100
AcDbCircle
 10
241.1275082945
 20
302.7359865184
 30
0.0
 40
0.7000000000000061
100
AcDbArc
 50
0.8101974043
 51
49.0
  0
ARC
  5
14A
330
1F
100
AcDbEntity
  8
0
  6
Continuous
 62
     7
370
    25
100
AcDbCircle
 10
263.8252388213
 20
303.0569677202
 30
0.0
 40
21.99999999999999
100
AcDbArc
 50
338.798145253
 51
359.1898025957
  0
ARC
  5
14B
330
1F
100
AcDbEntity
  8
0
  6
Continuous
 62
     7
370
    25
100
AcDbCircle
 10
263.8252388213
 20
303.0569677202
 30
0.0
 40
22.00000000000004
100
AcDbArc
 50
180.8101974043
 51
201.2104536277
  0
LINE
  5
14C
330
1F
100
AcDbEntity
  8
0
  6
Continuous
 62
     7
370
    25
100
AcDbLine
 10
108.8184676154
 20
331.6705564736
 30
0.0
 11
108.7781145008
 21
339.3773632266
 31
0.0
  0
SPLINE
  5
14D
330
1F
100
AcDbEntity
  8
0
  6
Continuous
 62
     7
370
    25
100
AcDbSpline
210
0.0
220
0.0
230
1.0
 70
    24
 71
     3
 72
    20
 73
    16
 74
     0
 42
0.000000001
 43
0.00000001
 40
0.0
 40
0.0
 40
0.0
 40
0.0
 40
0.2500000000000033
 40
0.2500000000000033
 40
0.3750000000000028
 40
0.3750000000000028
 40
0.5000000000000023
 40
0.5000000000000023
 40
0.6250000000000018
 40
0.6250000000000018
 40
0.7500000000000012
 40
0.7500000000000012
 40
0.8750000000000007
 40
0.8750000000000007
 40
1.0
 40
1.0
 40
1.0
 40
1.0
 10
108.7781145008401
 20
339.3773632266052
 30
0.0
 10
108.7781145008307
 20
339.3773632266052
 30
0.0
 10
108.7851020729418
 20
339.3773632266052
 30
0.0
 10
108.9120310168856
 20
339.3773632266052
 30
0.0
 10
108.9725487294802
 20
339.3773632266052
 30
0.0
 10
109.1431599299491
 20
339.3773632266052
 30
0.0
 10
109.2548044900135
 20
339.3773632266052
 30
0.0
 10
109.5272681554198
 20
339.3773632266052
 30
0.0
 10
109.6915339106627
 20
339.3773632266052
 30
0.0
 10
110.040872755784
 20
339.3773632266052
 30
0.0
 10
110.228838829016
 20
339.3773632266052
 30
0.0
 10
110.6066019164824
 20
339.3773632266052
 30
0.0
 10
110.7988818526058
 20
339.3773632266052
 30
0.0
 10
111.1877305319369
 20
339.3773632266052
 30
0.0
 10
111.3830511782811
 20
339.3773632266052
 30
0.0
 10
111.5780761191215
 20
339.3773632266052
 30
0.0
  0
LINE
  5
14E
330
1F
100
AcDbEntity
  8
0
  6
Continuous
 62
     7
370
    25
100
AcDbLine
 10
308.8723631417
 20
339.3773632266
 30
0.0
 11
308.8320100272
 21
331.6705564736
 31
0.0
  0
SPLINE
  5
14F
330
1F
100
AcDbEntity
  8
0
  6
Continuous
 62
     7
370
    25
100
AcDbSpline
210
0.0
220
0.0
230
1.0
 70
    24
 71
     3
 72
    20
 73
    16
 74
     0
 42
0.000000001
 43
0.00000001
 40
0.0
 40
0.0
 40
0.0
 40
0.0
 40
0.2500000000000007
 40
0.2500000000000007
 40
0.3750000000000006
 40
0.3750000000000006
 40
0.5000000000000004
 40
0.5000000000000004
 40
0.6250000000000003
 40
0.6250000000000003
 40
0.7500000000000002
 40
0.7500000000000002
 40
0.8750000000000002
 40
0.8750000000000002
 40
1.0
 40
1.0
 40
1.0
 40
1.0
 10
306.0724015234404
 20
339.3773632266052
 30
0.0
 10
306.4606435854614
 20
339.3773632266052
 30
0.0
 10
306.8482450985173
 20
339.3773632266052
 30
0.0
 10
307.4189726474166
 20
339.3773632266052
 30
0.0
 10
307.6054680591268
 20
339.3773632266052
 30
0.0
 10
307.9552112098466
 20
339.3773632266052
 30
0.0
 10
308.1184104874277
 20
339.3773632266052
 30
0.0
 10
308.3918960695638
 20
339.3773632266052
 30
0.0
 10
308.5050308362958
 20
339.3773632266052
 30
0.0
 10
308.676366602452
 20
339.3773632266052
 30
0.0
 10
308.73758175752
 20
339.3773632266052
 30
0.0
 10
308.8221337978214
 20
339.3773632266052
 30
0.0
 10
308.8462803250266
 20
339.3773632266052
 30
0.0
 10
308.8716937678885
 20
339.3773632266052
 30
0.0
 10
308.8723631417387
 20
339.3773632266052
 30
0.0
 10
308.8723631417428
 20
339.3773632266052
 30
0.0
  0
LINE
  5
150
330
1F
100
AcDbEntity
  8
0
  6
Continuous
 62
     7
370
    25
100
AcDbLine
 10
306.0724015234
 20
339.3773632266
 30
0.0
 11
111.5780761191
 21
339.3773632266
 31
0.0
  0
LINE
  5
151
330
1F
100
AcDbEntity
  8
0
  6
Continuous
 62
     7
370
    25
100
AcDbLine
 10
306.0320484089
 20
330.3773632266
 30
0.0
 11
111.6184292337
 21
330.3773632266
 31
0.0
  0
SPLINE
  5
152
330
1F
100
AcDbEntity
  8
0
  6
Continuous
 62
     7
370
    25
100
AcDbSpline
210
0.0
220
0.0
230
1.0
 70
     8
 71
     3
 72
    13
 73
     9
 74
     0
 42
0.000000001
 43
0.00000001
 40
0.0
 40
0.0
 40
0.0
 40
0.0
 40
0.2928593700311585
 40
0.4364023929619658
 40
0.5727013498107113
 40
0.7090003066594553
 40
0.8525433295902688
 40
0.9999999999999999
 40
0.9999999999999999
 40
0.9999999999999999
 40
0.9999999999999999
 10
307.5320278472562
 20
330.3773632266052
 30
0.0
 10
307.7168288246162
 20
330.3797020662155
 30
0.0
 10
307.9922087406935
 20
330.38318727211
 30
0.0
 10
308.3355863620638
 20
330.4993483676016
 30
0.0
 10
308.5540890366527
 20
330.6502096357462
 30
0.0
 10
308.7045882294954
 20
330.8677634046911
 30
0.0
 10
308.7988076199134
 20
331.1225813167736
 30
0.0
 10
308.8049678281468
 20
331.3056990022977
 30
0.0
 10
308.8080893565055
 20
331.3984892176088
 30
0.0
  0
SPLINE
  5
153
330
1F
100
AcDbEntity
  8
0
  6
Continuous
 62
     7
370
    25
100
AcDbSpline
210
0.0
220
0.0
230
1.0
 70
    24
 71
     3
 72
    17
 73
    13
 74
     0
 42
0.000000001
 43
0.00000001
 40
0.0
 40
0.0
 40
0.0
 40
0.0
 40
0.1245339562957409
 40
0.249201496660712
 40
0.3740239276977174
 40
0.4448755394070134
 40
0.4992320281307084
 40
0.5534588052139927
 40
0.6247205830707595
 40
0.750082305531394
 40
0.8749477765980027
 40
1.0
 40
1.0
 40
1.0
 40
1.0
 10
307.5320278472562
 20
330.3773632266052
 30
0.0
 10
307.5320573880158
 20
330.3773632266052
 30
0.0
 10
307.5321165012226
 20
330.3773632266052
 30
0.0
 10
307.5144662645592
 20
330.3773632266052
 30
0.0
 10
307.4655217928789
 20
330.3773632266052
 30
0.0
 10
307.3919577650326
 20
330.3773632266052
 30
0.0
 10
307.3067064243776
 20
330.3773632266052
 30
0.0
 10
307.1717549686006
 20
330.3773632266052
 30
0.0
 10
306.965120426468
 20
330.3773632266052
 30
0.0
 10
306.6870944801843
 20
330.3773632266052
 30
0.0
 10
306.3595856050196
 20
330.3773632266052
 30
0.0
 10
306.1412818504896
 20
330.3773632266052
 30
0.0
 10
306.0320484088999
 20
330.3773632266052
 30
0.0
  0
SPLINE
  5
154
330
1F
100
AcDbEntity
  8
0
  6
Continuous
 62
     7
370
    25
100
AcDbSpline
210
0.0
220
0.0
230
1.0
 70
    24
 71
     3
 72
    17
 73
    13
 74
     0
 42
0.000000001
 43
0.00000001
 40
0.0
 40
0.0
 40
0.0
 40
0.0
 40
0.1245339563132488
 40
0.249201496697417
 40
0.3740239277371787
 40
0.4448755394589851
 40
0.4992320281859811
 40
0.5534588052603544
 40
0.6247205831073467
 40
0.7500823055543829
 40
0.8749477766097835
 40
1.0
 40
1.0
 40
1.0
 40
1.0
 10
111.6184292336731
 20
330.3773632266052
 30
0.0
 10
111.5096478632132
 20
330.3773632266052
 30
0.0
 10
111.2919684355783
 20
330.3773632266052
 30
0.0
 10
110.965563879184
 20
330.3773632266052
 30
0.0
 10
110.6884504244037
 20
330.3773632266052
 30
0.0
 10
110.4823895732354
 20
330.3773632266052
 30
0.0
 10
110.3469010017317
 20
330.3773632266052
 30
0.0
 10
110.2600300664871
 20
330.3773632266052
 30
0.0
 10
110.1856812174033
 20
330.3773632266052
 30
0.0
 10
110.1361882442103
 20
330.3773632266052
 30
0.0
 10
110.1183626797841
 20
330.3773632266052
 30
0.0
 10
110.1184207423499
 20
330.3773632266052
 30
0.0
 10
110.1184497953266
 20
330.3773632266052
 30
0.0
  0
SPLINE
  5
155
330
1F
100
AcDbEntity
  8
0
  6
Continuous
 62
     7
370
    25
100
AcDbSpline
210
0.0
220
0.0
230
1.0
 70
     8
 71
     3
 72
    13
 73
     9
 74
     0
 42
0.000000001
 43
0.00000001
 40
0.0
 40
0.0
 40
0.0
 40
0.0
 40
0.2928635123205735
 40
0.4364085655663095
 40
0.5727094502677624
 40
0.709010334969222
 40
0.8525553882149469
 40
0.9999999999999999
 40
0.9999999999999999
 40
0.9999999999999999
 40
0.9999999999999999
 10
110.1184497953266
 20
330.3773632266052
 30
0.0
 10
109.9336488148404
 20
330.3797020656991
 30
0.0
 10
109.6582688941045
 20
330.3831872708241
 30
0.0
 10
109.3148912939513
 20
330.4993483698202
 30
0.0
 10
109.0963885573465
 20
330.6502096277213
 30
0.0
 10
108.9458895991549
 20
330.867763435425
 30
0.0
 10
108.8516723971278
 20
331.1225727590526
 30
0.0
 10
108.8455120592933
 20
331.3056814732427
 30
0.0
 10
108.8423906129684
 20
331.398462752177
 30
0.0
  0
SPLINE
  5
156
330
1F
100
AcDbEntity
  8
0
  6
Continuous
 62
     7
370
    25
100
AcDbSpline
210
0.0
220
0.0
230
1.0
 70
     8
 71
     3
 72
     8
 73
     4
 74
     0
 42
0.000000001
 43
0.00000001
 40
0.0
 40
0.0
 40
0.0
 40
0.0
 40
1.0
 40
1.0
 40
1.0
 40
1.0
 10
241.0237403891227
 20
295.0773632266051
 30
0.0
 10
240.9541319352773
 20
295.0773632266051
 30
0.0
 10
240.9028268402056
 20
295.0756587558088
 30
0.0
 10
240.8698158246748
 20
295.0484379912099
 30
0.0
  0
SPLINE
  5
157
330
1F
100
AcDbEntity
  8
0
  6
Continuous
 62
     7
370
    25
100
AcDbSpline
210
0.0
220
0.0
230
1.0
 70
     8
 71
     3
 72
     9
 73
     5
 74
     0
 42
0.000000001
 43
0.00000001
 40
0.0
 40
0.0
 40
0.0
 40
0.0
 40
0.0527685714821467
 40
1.0
 40
1.0
 40
1.0
 40
1.0
 10
240.8299991388184
 20
294.8983469871334
 30
0.0
 10
240.8284595109221
 20
294.893192180898
 30
0.0
 10
240.7992825244497
 20
294.7955051279681
 30
0.0
 10
240.902015901757
 20
294.4959476512591
 30
0.0
 10
240.9993281855003
 20
294.2121973946728
 30
0.0
  0
SPLINE
  5
158
330
1F
100
AcDbEntity
  8
0
  6
Continuous
 62
     7
370
    25
100
AcDbSpline
210
0.0
220
0.0
230
1.0
 70
     8
 71
     3
 72
     8
 73
     4
 74
     0
 42
0.000000001
 43
0.00000001
 40
0.0
 40
0.0
 40
0.0
 40
0.0
 40
1.0
 40
1.0
 40
1.0
 40
1.0
 10
286.6267372534601
 20
295.0773632266051
 30
0.0
 10
286.6963457073056
 20
295.0773632266051
 30
0.0
 10
286.7476508023773
 20
295.0756587558088
 30
0.0
 10
286.7806618179081
 20
295.0484379912099
 30
0.0
  0
SPLINE
  5
159
330
1F
100
AcDbEntity
  8
0
  6
Continuous
 62
     7
370
    25
100
AcDbSpline
210
0.0
220
0.0
230
1.0
 70
     8
 71
     3
 72
     9
 73
     5
 74
     0
 42
0.000000001
 43
0.00000001
 40
0.0
 40
0.0
 40
0.0
 40
0.0
 40
0.0527685714821466
 40
1.0
 40
1.0
 40
1.0
 40
1.0
 10
286.8204785037645
 20
294.8983469871334
 30
0.0
 10
286.8220181316608
 20
294.893192180898
 30
0.0
 10
286.851195118133
 20
294.7955051279681
 30
0.0
 10
286.7484617408259
 20
294.4959476512591
 30
0.0
 10
286.6511494570826
 20
294.2121973946728
 30
0.0
  0
SPLINE
  5
15A
330
1F
100
AcDbEntity
  8
0
  6
Continuous
 62
     7
370
    25
100
AcDbSpline
210
0.0
220
0.0
230
1.0
 70
    24
 71
     3
 72
    14
 73
    10
 74
     0
 42
0.000000001
 43
0.00000001
 40
0.0
 40
0.0
 40
0.0
 40
0.0
 40
0.1514428949419808
 40
0.3028857898839619
 40
0.4543286848259427
 40
0.6057715797679238
 40
0.7572144747099048
 40
0.9086573696518855
 40
1.0
 40
1.0
 40
1.0
 40
1.0
 10
263.8252388212915
 20
263.4781967915486
 30
0.0
 10
265.5339676252266
 20
263.4781967915486
 30
0.0
 10
268.951425233097
 20
263.4781967915486
 30
0.0
 10
273.7898314299761
 20
263.4781967915486
 30
0.0
 10
278.0632264547763
 20
263.4781967915486
 30
0.0
 10
281.5488404457151
 20
263.4781967915487
 30
0.0
 10
283.9833820552651
 20
263.4781967915487
 30
0.0
 10
285.2817523722834
 20
263.4781967915487
 30
0.0
 10
285.2437715308965
 20
263.4781967915487
 30
0.0
 10
285.2294820877719
 20
263.4781967915487
 30
0.0
  0
SPLINE
  5
15B
330
1F
100
AcDbEntity
  8
0
  6
Continuous
 62
     7
370
    25
100
AcDbSpline
210
0.0
220
0.0
230
1.0
 70
    24
 71
     3
 72
    14
 73
    10
 74
     0
 42
0.000000001
 43
0.00000001
 40
0.0
 40
0.0
 40
0.0
 40
0.0
 40
0.1514428949419806
 40
0.3028857898839617
 40
0.4543286848259427
 40
0.6057715797679237
 40
0.7572144747099047
 40
0.9086573696518856
 40
1.0
 40
1.0
 40
1.0
 40
1.0
 10
263.8252388212915
 20
263.4781967915486
 30
0.0
 10
262.1165100173562
 20
263.4781967915486
 30
0.0
 10
258.6990524094858
 20
263.4781967915486
 30
0.0
 10
253.8606462126068
 20
263.4781967915486
 30
0.0
 10
249.5872511878065
 20
263.4781967915486
 30
0.0
 10
246.1016371968677
 20
263.4781967915487
 30
0.0
 10
243.6670955873178
 20
263.4781967915487
 30
0.0
 10
242.3687252702994
 20
263.4781967915487
 30
0.0
 10
242.4067061116864
 20
263.4781967915487
 30
0.0
 10
242.420995554811
 20
263.4781967915487
 30
0.0
  0
LWPOLYLINE
  5
15C
330
1F
100
AcDbEntity
  8
0
  6
Continuous
 62
     7
370
    25
100
AcDbPolyline
 90
       21
 70
   128
 43
0.0
 10
283.8488809607
 20
294.4034583459
 10
282.986823367
 20
293.6498183833
 10
281.7945265954
 20
292.9356893201
 10
280.292539213
 20
292.2733787706
 10
278.5067471311
 20
291.6743012863
 10
276.4679274761
 20
291.1487816321
 10
274.2112181629
 20
290.7058768449
 10
271.7755123126
 20
290.3532201406
 10
269.2027879513
 20
290.0968893601
 10
266.5373845426
 20
289.9413022207
 10
263.8252388213
 20
289.8891401798
 10
261.1130931
 20
289.9413022207
 10
258.4476896913
 20
290.0968893601
 10
255.87496533
 20
290.3532201406
 10
253.4392594797
 20
290.7058768449
 10
251.1825501665
 20
291.1487816321
 10
249.1437305115
 20
291.6743012863
 10
247.3579384296
 20
292.2733787706
 10
245.8559510472
 20
292.9356893201
 10
244.6636542756
 20
293.6498183833
 10
243.8015966819
 20
294.4034583459
  0
SPLINE
  5
15D
330
1F
100
AcDbEntity
  8
0
  6
Continuous
 62
     7
370
    25
100
AcDbSpline
210
0.0
220
0.0
230
1.0
 70
     8
 71
     3
 72
     9
 73
     5
 74
     0
 42
0.000000001
 43
0.00000001
 40
0.0
 40
0.0
 40
0.0
 40
0.0
 40
0.5213760085129381
 40
1.0
 40
1.0
 40
1.0
 40
1.0
 10
243.8015966818835
 20
294.4034583458644
 30
0.0
 10
243.6777156824256
 20
294.5533168704774
 30
0.0
 10
243.4401117316585
 20
294.8407457551331
 30
0.0
 10
243.3579491393783
 20
295.0169589694017
 30
0.0
 10
243.3186241515102
 20
295.1012988413677
 30
0.0
  0
SPLINE
  5
15E
330
1F
100
AcDbEntity
  8
0
  6
Continuous
 62
     7
370
    25
100
AcDbSpline
210
0.0
220
0.0
230
1.0
 70
     8
 71
     3
 72
     9
 73
     5
 74
     0
 42
0.000000001
 43
0.00000001
 40
0.0
 40
0.0
 40
0.0
 40
0.0
 40
0.0378758290544174
 40
1.0
 40
1.0
 40
1.0
 40
1.0
 10
284.3332489291595
 20
295.1034840801398
 30
0.0
 10
284.3331149668468
 20
295.0997599733032
 30
0.0
 10
284.3295780855167
 20
295.0014358724318
 30
0.0
 10
284.0845899589071
 20
294.6966755848721
 30
0.0
 10
283.8488809607014
 20
294.4034583458666
 30
0.0
  0
LINE
  5
15F
330
1F
100
AcDbEntity
  8
0
  6
Continuous
 62
     7
370
    25
100
AcDbLine
 10
132.1653481701
 20
138.1691041223
 30
0.0
 11
132.1150281644
 21
330.3773632266
 31
0.0
  0
LINE
  5
160
330
1F
100
AcDbEntity
  8
0
  6
Continuous
 62
     7
370
    25
100
AcDbLine
 10
175.5354494782
 20
330.3773632266
 30
0.0
 11
175.4851294725
 21
138.1691041223
 31
0.0
  0
LINE
  5
161
330
1F
100
AcDbEntity
  8
0
  6
Continuous
 62
     7
370
    25
100
AcDbLine
 10
132.1726476231
 20
110.2872480615
 30
0.0
 11
132.1653481701
 21
138.1691041223
 31
0.0
  0
LINE
  5
162
330
1F
100
AcDbEntity
  8
0
  6
Continuous
 62
     7
370
    25
100
AcDbLine
 10
175.4851294725
 20
138.1691041223
 30
0.0
 11
175.4778300194
 21
110.2872478664
 31
0.0
  0
LINE
  5
163
330
1F
100
AcDbEntity
  8
0
  6
Continuous
 62
     7
370
    25
100
AcDbLine
 10
153.8252388193
 20
88.3755276512
 30
0.0
 11
135.6774679203
 21
88.3755276512
 31
0.0
  0
LINE
  5
164
330
1F
100
AcDbEntity
  8
0
  6
Continuous
 62
     7
370
    25
100
AcDbLine
 10
132.1772478962
 20
92.7154996961
 30
0.0
 11
132.1726476231
 21
110.2872480615
 31
0.0
  0
LINE
  5
165
330
1F
100
AcDbEntity
  8
0
  6
Continuous
 62
     7
370
    25
100
AcDbLine
 10
132.1774680402
 20
91.8746113534
 30
0.0
 11
132.1772473675
 21
92.7175189117
 31
0.0
  0
LINE
  5
166
330
1F
100
AcDbEntity
  8
0
  6
Continuous
 62
     7
370
    25
100
AcDbLine
 10
175.4778300194
 20
110.2872478664
 30
0.0
 11
175.4732297459
 21
92.7154975787
 31
0.0
  0
SPLINE
  5
167
330
1F
100
AcDbEntity
  8
0
  6
Continuous
 62
     7
370
    25
100
AcDbSpline
210
0.0
220
0.0
230
1.0
 70
     8
 71
     3
 72
    22
 73
    18
 74
     0
 42
0.000000001
 43
0.00000001
 40
0.0
 40
0.0
 40
0.0
 40
0.0
 40
0.125
 40
0.125
 40
0.25
 40
0.25
 40
0.375
 40
0.375
 40
0.5
 40
0.5
 40
0.625
 40
0.625
 40
0.75
 40
0.75
 40
0.875
 40
0.875
 40
1.0
 40
1.0
 40
1.0
 40
1.0
 10
135.6774679202937
 20
88.37552765123127
 30
0.0
 10
135.4322328854024
 20
88.37552765123127
 30
0.0
 10
135.1856522555081
 20
88.37623442827287
 30
0.0
 10
134.6880453610306
 20
88.40954647978919
 30
0.0
 10
134.4375941638146
 20
88.4420024812502
 30
0.0
 10
133.9535848922059
 20
88.55472364417571
 30
0.0
 10
133.7206018851805
 20
88.63483953262642
 30
0.0
 10
133.2975587979074
 20
88.84899358775917
 30
0.0
 10
133.1080737850271
 20
88.98288248142735
 30
0.0
 10
132.7854955154232
 20
89.30537631129046
 30
0.0
 10
132.6515570192834
 20
89.4948262656473
 30
0.0
 10
132.4372922190697
 20
89.91781327302297
 30
0.0
 10
132.3571153385566
 20
90.15077529777393
 30
0.0
 10
132.2442674661644
 20
90.63475504246479
 30
0.0
 10
132.2117458978463
 20
90.8851977341367
 30
0.0
 10
132.1783035742927
 20
91.38279589048692
 30
0.0
 10
132.1775322426181
 20
91.62937632689716
 30
0.0
 10
132.1774680402368
 20
91.87461135338434
 30
0.0
  0
LINE
  5
168
330
1F
100
AcDbEntity
  8
0
  6
Continuous
 62
     7
370
    25
100
AcDbLine
 10
171.9730097223
 20
88.3755276512
 30
0.0
 11
153.8252388193
 21
88.3755276512
 31
0.0
  0
LINE
  5
169
330
1F
100
AcDbEntity
  8
0
  6
Continuous
 62
     7
370
    25
100
AcDbLine
 10
175.4732302744
 20
92.7175163413
 30
0.0
 11
175.4730096023
 21
91.8746113534
 31
0.0
  0
SPLINE
  5
16A
330
1F
100
AcDbEntity
  8
0
  6
Continuous
 62
     7
370
    25
100
AcDbSpline
210
0.0
220
0.0
230
1.0
 70
     8
 71
     3
 72
    22
 73
    18
 74
     0
 42
0.000000001
 43
0.00000001
 40
0.0
 40
0.0
 40
0.0
 40
0.0
 40
0.125
 40
0.125
 40
0.25
 40
0.25
 40
0.375
 40
0.375
 40
0.5
 40
0.5
 40
0.625
 40
0.625
 40
0.75
 40
0.75
 40
0.875
 40
0.875
 40
1.0
 40
1.0
 40
1.0
 40
1.0
 10
175.4730096023461
 20
91.87461135338445
 30
0.0
 10
175.4729453999648
 20
91.62937632689724
 30
0.0
 10
175.4721740682902
 20
91.38279589048686
 30
0.0
 10
175.4387317447366
 20
90.88519773413667
 30
0.0
 10
175.4062101764185
 20
90.63475504246476
 30
0.0
 10
175.2933623040263
 20
90.15077529777393
 30
0.0
 10
175.2131854235132
 20
89.917813273023
 30
0.0
 10
174.9989206232995
 20
89.49482626564733
 30
0.0
 10
174.8649821271597
 20
89.3053763112904
 30
0.0
 10
174.5424038575557
 20
88.98288248142732
 30
0.0
 10
174.3529188446754
 20
88.84899358775914
 30
0.0
 10
173.9298757574024
 20
88.63483953262651
 30
0.0
 10
173.6968927503769
 20
88.55472364417568
 30
0.0
 10
173.2128834787682
 20
88.44200248125017
 30
0.0
 10
172.9624322815522
 20
88.4095464797891
 30
0.0
 10
172.4648253870747
 20
88.37623442827275
 30
0.0
 10
172.2182447571805
 20
88.3755276512312
 30
0.0
 10
171.9730097222892
 20
88.37552765123127
 30
0.0
  0
SPLINE
  5
16B
330
1F
100
AcDbEntity
  8
0
  6
Continuous
 62
     7
370
    25
100
AcDbSpline
210
0.0
220
0.0
230
1.0
 70
     8
 71
     3
 72
    14
 73
    10
 74
     0
 42
0.000000001
 43
0.00000001
 40
0.0
 40
0.0
 40
0.0
 40
0.0
 40
0.2500000000000001
 40
0.2500000000000001
 40
0.5
 40
0.5
 40
0.7499999999999999
 40
0.7499999999999999
 40
1.0
 40
1.0
 40
1.0
 40
1.0
 10
241.1978143649419
 20
294.4034583458667
 30
0.0
 10
241.1396050492128
 20
294.5472794359246
 30
0.0
 10
241.0961888730204
 20
294.6907525677093
 30
0.0
 10
241.0385108631873
 20
294.9358561647518
 30
0.0
 10
241.0241921823948
 20
295.0386947411654
 30
0.0
 10
241.0264044262128
 20
295.1858682622494
 30
0.0
 10
241.0429362992317
 20
295.2298843217733
 30
0.0
 10
241.1082376283175
 20
295.2759505170765
 30
0.0
 10
241.1570766772306
 20
295.2773632266052
 30
0.0
 10
241.2220142885329
 20
295.2773632266052
 30
0.0
  0
SPLINE
  5
16C
330
1F
100
AcDbEntity
  8
0
  6
Continuous
 62
     7
370
    25
100
AcDbSpline
210
0.0
220
0.0
230
1.0
 70
     8
 71
     3
 72
    14
 73
    10
 74
     0
 42
0.000000001
 43
0.00000001
 40
0.0
 40
0.0
 40
0.0
 40
0.0
 40
0.2500000000000001
 40
0.2500000000000001
 40
0.5000000000000001
 40
0.5000000000000001
 40
0.75
 40
0.75
 40
1.0
 40
1.0
 40
1.0
 40
1.0
 10
286.452663277641
 20
294.4034583458667
 30
0.0
 10
286.51087259337
 20
294.5472794359246
 30
0.0
 10
286.5542887695624
 20
294.6907525677093
 30
0.0
 10
286.6119667793955
 20
294.9358561647518
 30
0.0
 10
286.626285460188
 20
295.0386947411654
 30
0.0
 10
286.62407321637
 20
295.1858682622494
 30
0.0
 10
286.6075413433512
 20
295.2298843217733
 30
0.0
 10
286.5422400142653
 20
295.2759505170765
 30
0.0
 10
286.493400965296
 20
295.2773632266052
 30
0.0
 10
286.42846335405
 20
295.2773632266052
 30
0.0
  0
LINE
  5
16D
330
1F
100
AcDbEntity
  8
0
  6
Continuous
 62
     7
370
    25
100
AcDbLine
 10
243.2466637024
 20
295.2773632266
 30
0.0
 11
241.2220142885
 21
295.2773632266
 31
0.0
  0
LINE
  5
16E
330
1F
100
AcDbEntity
  8
0
  6
Continuous
 62
     7
370
    25
100
AcDbLine
 10
284.4038139402
 20
295.2773632266
 30
0.0
 11
286.428463354
 21
295.2773632266
 31
0.0
  0
ELLIPSE
  5
16F
330
1F
100
AcDbEntity
  8
0
  6
Continuous
 62
     8
370
    25
100
AcDbEllipse
 10
263.8252388213
 20
295.0682248753
 30
0.0
 11
22.99999999999994
 21
0.0
 31
0.0
210
0.0
220
0.0
230
1.0
 40
0.3030721538
 41
3.264707808340261
 42
6.160070152429209
  0
ARC
  5
170
330
1F
100
AcDbEntity
  8
0
  6
Continuous
 62
     8
370
    18
100
AcDbCircle
 10
286.4479343483
 20
294.1999281202
 30
0.0
 40
0.2035851554429945
100
AcDbArc
 50
3.4550843051
 51
88.6689989206
  0
ARC
  5
171
330
1F
100
AcDbEntity
  8
0
  6
Continuous
 62
     8
370
    18
100
AcDbCircle
 10
241.2025432942
 20
294.1999281202
 30
0.0
 40
0.2035851554430128
100
AcDbArc
 50
91.3310010792
 51
176.544915695
  0
ELLIPSE
  5
172
330
1F
100
AcDbEntity
  8
0
  6
Continuous
 62
     8
370
    18
100
AcDbEllipse
 10
263.8252388213
 20
295.2594858265
 30
0.0
 11
22.79999999999995
 21
0.0
 31
0.0
210
0.0
220
0.0
230
1.0
 40
0.3057306815
 41
3.26470780834009
 42
6.160070152429373
  0
LINE
  5
173
330
1F
100
AcDbEntity
  8
0
  6
Continuous
 62
     8
370
    18
100
AcDbLine
 10
278.1994635502
 20
303.3257870987
 30
0.0
 11
241.515997501
 21
303.3257870987
 31
0.0
  0
LINE
  5
174
330
1F
100
AcDbEntity
  8
0
  6
Continuous
 62
     8
370
    18
100
AcDbLine
 10
286.1344801416
 20
303.3257870987
 30
0.0
 11
278.1994635502
 21
303.3257870987
 31
0.0
  0
LINE
  5
175
330
1F
100
AcDbEntity
  8
0
  6
Continuous
 62
     8
370
    18
100
AcDbLine
 10
278.1538767564
 20
303.2642832245
 30
0.0
 11
241.5867496148
 21
303.2642832245
 31
0.0
  0
LINE
  5
176
330
1F
100
AcDbEntity
  8
0
  6
Continuous
 62
     8
370
    18
100
AcDbLine
 10
286.0637280278
 20
303.2642832245
 30
0.0
 11
278.1538767564
 21
303.2642832245
 31
0.0
  0
SPLINE
  5
177
330
1F
100
AcDbEntity
  8
0
  6
Continuous
 62
     8
370
    18
100
AcDbSpline
210
0.0
220
0.0
230
1.0
 70
    24
 71
     3
 72
     9
 73
     5
 74
     0
 42
0.000000001
 43
0.00000001
 40
0.0
 40
0.0
 40
0.0
 40
0.0
 40
0.9189376281109638
 40
1.0
 40
1.0
 40
1.0
 40
1.0
 10
263.8252388212915
 20
263.4781878476886
 30
0.0
 10
263.8252388212915
 20
263.2738507402701
 30
0.0
 10
263.8252388212916
 20
263.051488415377
 30
0.0
 10
263.8252388212915
 20
263.099995215456
 30
0.0
 10
263.8252388212915
 20
263.1039272917232
 30
0.0
  0
SPLINE
  5
178
330
1F
100
AcDbEntity
  8
0
  6
Continuous
 62
     8
370
    18
100
AcDbSpline
210
0.0
220
0.0
230
1.0
 70
     8
 71
     3
 72
    11
 73
     7
 74
     0
 42
0.000000001
 43
0.00000001
 40
0.0
 40
0.0
 40
0.0
 40
0.0
 40
0.4022371812388782
 40
0.7037011773803079
 40
0.9030951424435054
 40
1.0
 40
1.0
 40
1.0
 40
1.0
 10
133.2273707205441
 20
110.2871961212231
 30
0.0
 10
133.2283689256114
 20
107.9311267155719
 30
0.0
 10
133.230115253683
 20
103.8092580965648
 30
0.0
 10
133.224363109355
 20
98.51946431774708
 30
0.0
 10
133.2249927666679
 20
95.01811192344067
 30
0.0
 10
133.2326774400436
 20
93.28258390573433
 30
0.0
 10
133.2351907209681
 20
92.71497754856364
 30
0.0
  0
SPLINE
  5
179
330
1F
100
AcDbEntity
  8
0
  6
Continuous
 62
     8
370
    18
100
AcDbSpline
210
0.0
220
0.0
230
1.0
 70
     8
 71
     3
 72
    10
 73
     6
 74
     0
 42
0.000000001
 43
0.00000001
 40
0.0
 40
0.0
 40
0.0
 40
0.0
 40
0.5
 40
0.5
 40
1.0
 40
1.0
 40
1.0
 40
1.0
 10
133.215746679728
 20
138.1690395607316
 30
0.0
 10
133.216772941969
 20
133.5197351487565
 30
0.0
 10
133.2180307537402
 20
128.867893580286
 30
0.0
 10
133.2216037203881
 20
119.5703977287649
 30
0.0
 10
133.2241677934142
 20
114.9265688509309
 30
0.0
 10
133.2273707205441
 20
110.2871961212232
 30
0.0
  0
SPLINE
  5
17A
330
1F
100
AcDbEntity
  8
0
  6
Continuous
 62
     8
370
    18
100
AcDbSpline
210
0.0
220
0.0
230
1.0
 70
     8
 71
     3
 72
    16
 73
    12
 74
     0
 42
0.000000001
 43
0.00000001
 40
0.0
 40
0.0
 40
0.0
 40
0.0
 40
0.2499999999999999
 40
0.2499999999999999
 40
0.5
 40
0.5
 40
0.75
 40
0.75
 40
0.875
 40
0.875
 40
1.0
 40
1.0
 40
1.0
 40
1.0
 10
133.1399067680968
 20
330.3773632266052
 30
0.0
 10
133.1452060626576
 20
314.3591970225669
 30
0.0
 10
133.1502750862785
 20
298.3405644295382
 30
0.0
 10
133.1614172172694
 20
266.305548596418
 30
0.0
 10
133.1675565119536
 20
250.2892209798456
 30
0.0
 10
133.1796824434399
 20
218.2527928730497
 30
0.0
 10
133.1858906408103
 20
202.2390776059379
 30
0.0
 10
133.1959733899857
 20
178.2093445222426
 30
0.0
 10
133.1994647756516
 20
170.1982690432894
 30
0.0
 10
133.2070092510644
 20
154.184894533384
 30
0.0
 10
133.2110338068833
 20
146.1812977505103
 30
0.0
 10
133.215746679728
 20
138.1690395607315
 30
0.0
  0
SPLINE
  5
17B
330
1F
100
AcDbEntity
  8
0
  6
Continuous
 62
     8
370
    18
100
AcDbSpline
210
0.0
220
0.0
230
1.0
 70
     8
 71
     3
 72
    16
 73
    12
 74
     0
 42
0.000000001
 43
0.00000001
 40
0.0
 40
0.0
 40
0.0
 40
0.0
 40
0.1249999999999998
 40
0.1249999999999998
 40
0.2499999999999997
 40
0.2499999999999997
 40
0.4999999999999998
 40
0.4999999999999998
 40
0.7499999999999999
 40
0.7499999999999999
 40
1.0
 40
1.0
 40
1.0
 40
1.0
 10
174.4347309628548
 20
138.1690395607315
 30
0.0
 10
174.4394438356995
 20
146.1812977505104
 30
0.0
 10
174.4434683915185
 20
154.1848945333838
 30
0.0
 10
174.4510128669311
 20
170.1982690432894
 30
0.0
 10
174.4545042525971
 20
178.2093445222426
 30
0.0
 10
174.4645870017727
 20
202.2390776059377
 30
0.0
 10
174.4707951991429
 20
218.2527928730494
 30
0.0
 10
174.4829211306293
 20
250.2892209798458
 30
0.0
 10
174.4890604253135
 20
266.3055485964181
 30
0.0
 10
174.5002025563043
 20
298.3405644295381
 30
0.0
 10
174.5052715799247
 20
314.3591970225668
 30
0.0
 10
174.510570874486
 20
330.3773632266052
 30
0.0
  0
SPLINE
  5
17C
330
1F
100
AcDbEntity
  8
0
  6
Continuous
 62
     8
370
    18
100
AcDbSpline
210
0.0
220
0.0
230
1.0
 70
     8
 71
     3
 72
    10
 73
     6
 74
     0
 42
0.000000001
 43
0.00000001
 40
0.0
 40
0.0
 40
0.0
 40
0.0
 40
0.5
 40
0.5
 40
1.0
 40
1.0
 40
1.0
 40
1.0
 10
174.4231069220388
 20
110.2871961212231
 30
0.0
 10
174.4263098491687
 20
114.9265688509308
 30
0.0
 10
174.4288739221947
 20
119.5703977287648
 30
0.0
 10
174.4324468888427
 20
128.8678935802858
 30
0.0
 10
174.4337047006139
 20
133.5197351487564
 30
0.0
 10
174.4347309628549
 20
138.1690395607315
 30
0.0
  0
SPLINE
  5
17D
330
1F
100
AcDbEntity
  8
0
  6
Continuous
 62
     8
370
    18
100
AcDbSpline
210
0.0
220
0.0
230
1.0
 70
     8
 71
     3
 72
    11
 73
     7
 74
     0
 42
0.000000001
 43
0.00000001
 40
0.0
 40
0.0
 40
0.0
 40
0.0
 40
0.0969048698289236
 40
0.2962988390594259
 40
0.5977628312206779
 40
1.0
 40
1.0
 40
1.0
 40
1.0
 10
174.4152869203096
 20
92.71497543087975
 30
0.0
 10
174.4178002027553
 20
93.28258192833513
 30
0.0
 10
174.4254848802352
 20
95.01811025147852
 30
0.0
 10
174.426114539259
 20
98.5194631407339
 30
0.0
 10
174.4203623887848
 20
103.8092574851554
 30
0.0
 10
174.4221087169345
 20
107.9311265046126
 30
0.0
 10
174.4231069220388
 20
110.2871961212231
 30
0.0
  0
LINE
  5
17E
330
1F
100
AcDbEntity
  8
0
  6
Continuous
 62
     8
370
    18
100
AcDbLine
 10
174.4140471097
 20
91.8728279131
 30
0.0
 11
174.4145679357
 21
92.7155175363
 31
0.0
  0
SPLINE
  5
17F
330
1F
100
AcDbEntity
  8
0
  6
Continuous
 62
     8
370
    18
100
AcDbSpline
210
0.0
220
0.0
230
1.0
 70
     8
 71
     3
 72
    17
 73
    13
 74
     0
 42
0.000000001
 43
0.00000001
 40
0.0
 40
0.0
 40
0.0
 40
0.0
 40
0.1014221813722785
 40
0.1845838270053717
 40
0.2496794023070974
 40
0.3464937167668079
 40
0.4289771292931664
 40
0.5006612644417946
 40
0.6112884877235082
 40
0.7504117062930596
 40
0.8547533127487843
 40
1.0
 40
1.0
 40
1.0
 40
1.0
 10
171.9741121909481
 20
89.43452446579298
 30
0.0
 10
172.1146349119054
 20
89.4355464642323
 30
0.0
 10
172.3703799694908
 20
89.43740645561257
 30
0.0
 10
172.716054436151
 20
89.45434368558644
 30
0.0
 10
173.0538579124575
 20
89.49075657083586
 30
0.0
 10
173.385655201978
 20
89.56498323382658
 30
0.0
 10
173.7096630351892
 20
89.69663703925524
 30
0.0
 10
174.0113718824635
 20
89.91490145124578
 30
0.0
 10
174.2460774524367
 20
90.30812434683911
 30
0.0
 10
174.3636196275624
 20
90.78836569986112
 30
0.0
 10
174.4092306842047
 20
91.32567445514647
 30
0.0
 10
174.4122753065974
 20
91.67154831272758
 30
0.0
 10
174.4140471097133
 20
91.87282791312198
 30
0.0
  0
SPLINE
  5
180
330
1F
100
AcDbEntity
  8
0
  6
Continuous
 62
     8
370
    18
100
AcDbSpline
210
0.0
220
0.0
230
1.0
 70
     8
 71
     3
 72
     8
 73
     4
 74
     0
 42
0.000000001
 43
0.00000001
 40
0.0
 40
0.0
 40
0.0
 40
0.0
 40
1.0
 40
1.0
 40
1.0
 40
1.0
 10
153.8252389036655
 20
89.43140547472797
 30
0.0
 10
159.8748633327633
 20
89.43243148168617
 30
0.0
 10
165.9244877618613
 20
89.43345706955219
 30
0.0
 10
171.9741121909481
 20
89.4345244657928
 30
0.0
  0
SPLINE
  5
181
330
1F
100
AcDbEntity
  8
0
  6
Continuous
 62
     8
370
    18
100
AcDbSpline
210
0.0
220
0.0
230
1.0
 70
     8
 71
     3
 72
     8
 73
     4
 74
     0
 42
0.000000001
 43
0.00000001
 40
0.0
 40
0.0
 40
0.0
 40
0.0
 40
1.0
 40
1.0
 40
1.0
 40
1.0
 10
135.6763653825951
 20
89.43452424618509
 30
0.0
 10
141.7259898896259
 20
89.4334569196131
 30
0.0
 10
147.7756143966456
 20
89.43243140328022
 30
0.0
 10
153.8252389036655
 20
89.43140547472791
 30
0.0
  0
SPLINE
  5
182
330
1F
100
AcDbEntity
  8
0
  6
Continuous
 62
     8
370
    18
100
AcDbSpline
210
0.0
220
0.0
230
1.0
 70
     8
 71
     3
 72
    17
 73
    13
 74
     0
 42
0.000000001
 43
0.00000001
 40
0.0
 40
0.0
 40
0.0
 40
0.0
 40
0.1013633771746835
 40
0.184490974720354
 40
0.2495775742541657
 40
0.3463583534454859
 40
0.4288178211139194
 40
0.5004888050303103
 40
0.6111399394795667
 40
0.7503099099639956
 40
0.85467438918396
 40
1.0
 40
1.0
 40
1.0
 40
1.0
 10
133.2364305299636
 20
91.87282786186701
 30
0.0
 10
133.2374917753193
 20
91.73238702327829
 30
0.0
 10
133.2394233426718
 20
91.47677135691067
 30
0.0
 10
133.2564734930705
 20
91.1312436009398
 30
0.0
 10
133.2930096714457
 20
90.79356001604181
 30
0.0
 10
133.3673621878952
 20
90.46188490090795
 30
0.0
 10
133.4991467984048
 20
90.13803380248736
 30
0.0
 10
133.7175818587
 20
89.83647044302487
 30
0.0
 10
134.1110131578065
 20
89.60195982334344
 30
0.0
 10
134.5914280679106
 20
89.4846028020955
 30
0.0
 10
135.1289600542947
 20
89.43918494346512
 30
0.0
 10
135.4749758845888
 20
89.43623890886194
 30
0.0
 10
135.6763653825951
 20
89.434524246185
 30
0.0
  0
LINE
  5
183
330
1F
100
AcDbEntity
  8
0
  6
Continuous
 62
     8
370
    18
100
AcDbLine
 10
133.2359096945
 20
92.7155201625
 30
0.0
 11
133.23643053
 21
91.8728278619
 31
0.0
  0
LWPOLYLINE
  5
184
330
1F
100
AcDbEntity
  8
0
  6
Continuous
 62
     8
370
    18
100
AcDbPolyline
 90
        9
 70
   128
 43
0.0
 10
133.2157466797
 20
138.1690395607
 10
133.0097547402
 20
138.1689932585
 10
132.8122599532
 20
138.1689616268
 10
132.6306675628
 20
138.1689458517
 10
132.4717865387
 20
138.1689465247
 10
132.3415742672
 20
138.1689636205
 10
132.2449131743
 20
138.1689964982
 10
132.1854276543
 20
138.1690439248
 10
132.1653481701
 20
138.1691041223
  0
LWPOLYLINE
  5
185
330
1F
100
AcDbEntity
  8
0
  6
Continuous
 62
     8
370
    18
100
AcDbPolyline
 90
        9
 70
   128
 43
0.0
 10
174.4347309629
 20
138.1690395607
 10
174.6407229024
 20
138.1689932585
 10
174.8382176894
 20
138.1689616267
 10
175.0198100797
 20
138.1689458515
 10
175.1786911039
 20
138.1689465243
 10
175.3089033754
 20
138.1689636199
 10
175.4055644683
 20
138.1689964972
 10
175.4650499883
 20
138.1690439236
 10
175.4851294725
 20
138.1691041223
  0
LWPOLYLINE
  5
186
330
1F
100
AcDbEntity
  8
0
  6
Continuous
 62
     8
370
    18
100
AcDbPolyline
 90
        9
 70
   128
 43
0.0
 10
133.2273707205
 20
110.2871961212
 10
133.0209799352
 20
110.2871489337
 10
132.8228597874
 20
110.2871159401
 10
132.6405164254
 20
110.2870983904
 10
132.480858265
 20
110.2870969494
 10
132.3499342508
 20
110.2871116719
 10
132.2527046813
 20
110.2871420001
 10
132.1928532787
 20
110.2871867848
 10
132.1726476231
 20
110.2872480615
  0
LWPOLYLINE
  5
187
330
1F
100
AcDbEntity
  8
0
  6
Continuous
 62
     8
370
    18
100
AcDbPolyline
 90
        9
 70
   128
 43
0.0
 10
174.423106922
 20
110.2871961212
 10
174.6294977074
 20
110.2871489337
 10
174.8276178552
 20
110.2871159401
 10
175.0099612172
 20
110.2870983904
 10
175.1696193776
 20
110.2870969494
 10
175.3005433918
 20
110.2871116719
 10
175.3977729613
 20
110.2871420001
 10
175.4576243639
 20
110.2871867848
 10
175.4778300194
 20
110.2872478664
  0
ARC
  5
188
330
1F
100
AcDbEntity
  8
0
  6
Continuous
 62
     8
370
    18
100
AcDbCircle
 10
390.4947955904
 20
89.1703207751
 30
0.0
 40
254.8185671748941
100
AcDbArc
 50
179.9405940207
 51
180.1787089768
  0
LWPOLYLINE
  5
189
330
1F
100
AcDbEntity
  8
0
  6
Continuous
 62
     8
370
    18
100
AcDbPolyline
 90
        9
 70
   128
 43
0.0
 10
153.8252389037
 20
89.4314054747
 10
153.825238902
 20
89.2249096092
 10
153.8252388972
 20
89.0266231071
 10
153.8252388895
 20
88.8440792393
 10
153.8252388793
 20
88.6842131851
 10
153.8252388668
 20
88.5530985517
 10
153.8252388526
 20
88.4557166264
 10
153.8252388373
 20
88.3957671288
 10
153.8252388193
 20
88.3755276512
  0
SPLINE
  5
18A
330
1F
100
AcDbEntity
  8
0
  6
Continuous
 62
     8
370
    18
100
AcDbSpline
210
0.0
220
0.0
230
1.0
 70
     8
 71
     3
 72
    14
 73
    10
 74
     0
 42
0.000000001
 43
0.00000001
 40
0.0
 40
0.0
 40
0.0
 40
0.0
 40
0.25
 40
0.25
 40
0.5
 40
0.5
 40
0.75
 40
0.75
 40
1.0
 40
1.0
 40
1.0
 40
1.0
 10
133.2351892878725
 20
92.71492995571568
 30
0.0
 10
133.1101282611715
 20
92.71489840466737
 30
0.0
 10
132.9753566417947
 20
92.71491314697435
 30
0.0
 10
132.7146654484087
 20
92.71506836949833
 30
0.0
 10
132.5895507476366
 20
92.7152097914713
 30
0.0
 10
132.3831520253109
 20
92.71560030732229
 30
0.0
 10
132.3025584685075
 20
92.71584808924219
 30
0.0
 10
132.1997191235457
 20
92.71638049031158
 30
0.0
 10
132.1772475915669
 20
92.71666322658662
 30
0.0
 10
132.1772475214686
 20
92.71693098216835
 30
0.0
  0
ARC
  5
18B
330
1F
100
AcDbEntity
  8
0
  6
Continuous
 62
     8
370
    18
100
AcDbCircle
 10
132.936555879
 20
228.2044887305
 30
0.0
 40
136.3319906699005
100
AcDbArc
 50
269.6809791014
 51
270.1260273957
  0
SPLINE
  5
18C
330
1F
100
AcDbEntity
  8
0
  6
Continuous
 62
     8
370
    18
100
AcDbSpline
210
0.0
220
0.0
230
1.0
 70
     8
 71
     3
 72
    14
 73
    10
 74
     0
 42
0.000000001
 43
0.00000001
 40
0.0
 40
0.0
 40
0.0
 40
0.0
 40
0.25
 40
0.25
 40
0.5
 40
0.5
 40
0.75
 40
0.75
 40
1.0
 40
1.0
 40
1.0
 40
1.0
 10
174.4145660992688
 20
92.71526364931559
 30
0.0
 10
174.5395370914473
 20
92.71523141260823
 30
0.0
 10
174.6741316091324
 20
92.71521361691565
 30
0.0
 10
174.9346318896477
 20
92.71522362954369
 30
0.0
 10
175.0597049139811
 20
92.71525184900062
 30
0.0
 10
175.2662193379541
 20
92.71535346338536
 30
0.0
 10
175.3469709918361
 20
92.71542652086703
 30
0.0
 10
175.4502434057804
 20
92.71559556815804
 30
0.0
 10
175.473105875207
 20
92.71569086790737
 30
0.0
 10
175.4732293030401
 20
92.71578478560235
 30
0.0
  0
ARC
  5
18D
330
1F
100
AcDbEntity
  8
0
  6
Continuous
 62
     8
370
    18
100
AcDbCircle
 10
-82.8597683321
 20
89.170320302
 30
0.0
 40
254.834017482535
100
AcDbArc
 50
359.8213019645
 51
0.0594025334
  0
ARC
  5
18E
330
1F
100
AcDbEntity
  8
0
  6
Continuous
 62
     8
370
    18
100
AcDbCircle
 10
174.7139223832
 20
228.2080385229
 30
0.0
 40
136.3355404037531
100
AcDbArc
 50
269.873975624
 51
270.3190123318
  0
SPLINE
  5
18F
330
1F
100
AcDbEntity
  8
0
  6
Continuous
 62
     7
370
    25
100
AcDbSpline
210
0.0
220
0.0
230
1.0
 70
     8
 71
     3
 72
    10
 73
     6
 74
     0
 42
0.000000001
 43
0.00000001
 40
0.0
 40
0.0
 40
0.0
 40
0.0
 40
0.0960509596470853
 40
0.7406065804544452
 40
1.0
 40
1.0
 40
1.0
 40
1.0
 10
591.0371755500207
 20
461.7331729149708
 30
0.0
 10
591.2215376996045
 20
461.7409808782808
 30
0.0
 10
592.6430729103951
 20
461.8011846391654
 30
0.0
 10
594.4512995677843
 20
461.9201798440087
 30
0.0
 10
596.1088018452257
 20
461.9587034164886
 30
0.0
 10
596.5844317363556
 20
461.9697579790276
 30
0.0
  0
LINE
  5
190
330
1F
100
AcDbEntity
  8
0
  6
Continuous
 62
     7
370
    25
100
AcDbLine
 10
629.6380038215
 20
481.679899666
 30
0.0
 11
619.276969882
 21
481.7634165458
 31
0.0
  0
SPLINE
  5
191
330
1F
100
AcDbEntity
  8
0
  6
Continuous
 62
     7
370
    25
100
AcDbSpline
210
0.0
220
0.0
230
1.0
 70
     8
 71
     3
 72
     9
 73
     5
 74
     0
 42
0.000000001
 43
0.00000001
 40
0.0
 40
0.0
 40
0.0
 40
0.0
 40
0.3570874845785449
 40
1.0
 40
1.0
 40
1.0
 40
1.0
 10
619.5421411200233
 20
481.7502281659029
 30
0.0
 10
616.2935030859576
 20
481.7653750322779
 30
0.0
 10
607.1959060702013
 20
481.8077928347188
 30
0.0
 10
598.0972924292525
 20
481.8343906462214
 30
0.0
 10
592.2476798465021
 20
481.8514907121191
 30
0.0
  0
LINE
  5
192
330
1F
100
AcDbEntity
  8
0
  6
Continuous
 62
     7
370
    25
100
AcDbLine
 10
629.8713321982
 20
481.636104123
 30
0.0
 11
629.5765636481
 21
481.6804520862
 31
0.0
  0
SPLINE
  5
193
330
1F
100
AcDbEntity
  8
0
  6
Continuous
 62
     7
370
    25
100
AcDbSpline
210
0.0
220
0.0
230
1.0
 70
     8
 71
     3
 72
    10
 73
     6
 74
     0
 42
0.000000001
 43
0.00000001
 40
0.0
 40
0.0
 40
0.0
 40
0.0
 40
0.2824779102328555
 40
0.6515666140492977
 40
0.9999999999999999
 40
0.9999999999999999
 40
0.9999999999999999
 40
0.9999999999999999
 10
630.6324530364384
 20
480.6030138726952
 30
0.0
 10
630.6207896309018
 20
480.7141642109301
 30
0.0
 10
630.5938866930841
 20
480.9705447876428
 30
0.0
 10
630.5114256759409
 20
481.1022594550629
 30
0.0
 10
630.5332990601826
 20
481.0587940839349
 30
0.0
 10
630.5439209176029
 20
481.037687017477
 30
0.0
  0
LINE
  5
194
330
1F
100
AcDbEntity
  8
0
  6
Continuous
 62
     7
370
    25
100
AcDbLine
 10
621.6971866058
 20
459.6539270452
 30
0.0
 11
620.5384293945
 21
466.2255657507
 31
0.0
  0
LINE
  5
195
330
1F
100
AcDbEntity
  8
0
  6
Continuous
 62
     7
370
    25
100
AcDbLine
 10
596.9030433222
 20
462.0580094867
 30
0.0
 11
598.0618005335
 21
455.4863707812
 31
0.0
  0
LINE
  5
196
330
1F
100
AcDbEntity
  8
0
  6
Continuous
 62
     7
370
    25
100
AcDbLine
 10
620.8126346749
 20
458.9116998462
 30
0.0
 11
621.6971866058
 21
459.6539270452
 31
0.0
  0
LINE
  5
197
330
1F
100
AcDbEntity
  8
0
  6
Continuous
 62
     7
370
    25
100
AcDbLine
 10
598.0618005335
 20
455.4863707812
 30
0.0
 11
599.1468641086
 21
455.0914399375
 31
0.0
  0
LINE
  5
198
330
1F
100
AcDbEntity
  8
0
  6
Continuous
 62
     7
370
    25
100
AcDbLine
 10
600.4711713224
 20
481.8243870043
 30
0.0
 11
592.5112614987
 21
481.8506129262
 31
0.0
  0
LINE
  5
199
330
1F
100
AcDbEntity
  8
0
  6
Continuous
 62
     7
370
    25
100
AcDbLine
 10
454.0306174611
 20
492.1211853979
 30
0.0
 11
430.9104153496
 21
492.1211853979
 31
0.0
  0
ARC
  5
19A
330
1F
100
AcDbEntity
  8
0
  6
Continuous
 62
     7
370
    25
100
AcDbCircle
 10
454.0306174611
 20
490.6211853979
 30
0.0
 40
1.5
100
AcDbArc
 50
0.0
 51
90.0
  0
ARC
  5
19B
330
1F
100
AcDbEntity
  8
0
  6
Continuous
 62
     7
370
    25
100
AcDbCircle
 10
430.9104153496
 20
491.9211853979
 30
0.0
 40
0.2000000000000525
100
AcDbArc
 50
91.5876485151
 51
163.0
  0
ARC
  5
19C
330
1F
100
AcDbEntity
  8
0
  6
Continuous
 62
     7
370
    25
100
AcDbCircle
 10
415.1538968828
 20
490.9711853979
 30
0.0
 40
0.6999999999999874
100
AcDbArc
 50
41.0
 51
90.0
  0
ARC
  5
19D
330
1F
100
AcDbEntity
  8
0
  6
Continuous
 62
     7
370
    25
100
AcDbCircle
 10
415.1538968828
 20
447.2711853979
 30
0.0
 40
0.7000000000000455
100
AcDbArc
 50
270.0
 51
319.0
  0
LINE
  5
19E
330
1F
100
AcDbEntity
  8
0
  6
Continuous
 62
     7
370
    25
100
AcDbLine
 10
415.1538968828
 20
491.6711853979
 30
0.0
 11
388.6306174611
 21
491.6711853979
 31
0.0
  0
LINE
  5
19F
330
1F
100
AcDbEntity
  8
0
  6
Continuous
 62
     7
370
    25
100
AcDbLine
 10
388.6306174611
 20
446.5711853979
 30
0.0
 11
415.1538968828
 21
446.5711853979
 31
0.0
  0
LINE
  5
1A0
330
1F
100
AcDbEntity
  8
0
  6
Continuous
 62
     7
370
    25
100
AcDbLine
 10
415.682193589
 20
446.8119440776
 30
0.0
 11
415.7436974631
 21
446.8826961914
 31
0.0
  0
LINE
  5
1A1
330
1F
100
AcDbEntity
  8
0
  6
Continuous
 62
     7
370
    25
100
AcDbLine
 10
415.7436974631
 20
491.3596746044
 30
0.0
 11
415.682193589
 21
491.4304267182
 31
0.0
  0
ARC
  5
1A2
330
1F
100
AcDbEntity
  8
0
  6
Continuous
 62
     7
370
    25
100
AcDbCircle
 10
416.2719941693
 20
491.8189159247
 30
0.0
 40
0.6999999999999879
100
AcDbArc
 50
221.0
 51
269.1898025957
  0
ARC
  5
1A3
330
1F
100
AcDbEntity
  8
0
  6
Continuous
 62
     7
370
    25
100
AcDbCircle
 10
416.2719941693
 20
446.4234548711
 30
0.0
 40
0.7000000000000247
100
AcDbArc
 50
90.8101974043
 51
139.0
  0
ARC
  5
1A4
330
1F
100
AcDbEntity
  8
0
  6
Continuous
 62
     7
370
    25
100
AcDbCircle
 10
415.9510129675
 20
469.1211853979
 30
0.0
 40
21.99999999999999
100
AcDbArc
 50
270.8101974043
 51
290.7087921947
  0
ARC
  5
1A5
330
1F
100
AcDbEntity
  8
0
  6
Continuous
 62
     7
370
    25
100
AcDbCircle
 10
415.9510129675
 20
469.1211853979
 30
0.0
 40
22.00000000000004
100
AcDbArc
 50
53.2347662918
 51
89.1898025957
  0
SPLINE
  5
1A6
330
1F
100
AcDbEntity
  8
0
  6
Continuous
 62
     7
370
    25
100
AcDbSpline
210
0.0
220
0.0
230
1.0
 70
     8
 71
     3
 72
    12
 73
     8
 74
     0
 42
0.000000001
 43
0.00000001
 40
0.0
 40
0.0
 40
0.0
 40
0.0
 40
0.1824825823278587
 40
0.3894111286872921
 40
0.5903262776033248
 40
0.7852310969877361
 40
1.0
 40
1.0
 40
1.0
 40
1.0
 10
455.5297838961207
 20
386.0647819841203
 30
0.0
 10
455.5817815087847
 20
390.3177541092313
 30
0.0
 10
455.6927425045041
 20
399.3934404261836
 30
0.0
 10
455.7180129542645
 20
413.1540833605634
 30
0.0
 10
455.7573977608285
 20
427.2049748582319
 30
0.0
 10
455.7533065779787
 20
441.4396665022772
 30
0.0
 10
455.8176016041816
 20
450.9909610430864
 30
0.0
 10
455.8513078721012
 20
455.9981678487267
 30
0.0
  0
LINE
  5
1A7
330
1F
100
AcDbEntity
  8
0
  6
Continuous
 62
     7
370
    25
100
AcDbLine
 10
455.7089713066
 20
482.304183532
 30
0.0
 11
455.5297838961
 21
490.117626706
 31
0.0
  0
LINE
  5
1A8
330
1F
100
AcDbEntity
  8
0
  6
Continuous
 62
     7
370
    25
100
AcDbLine
 10
423.9306174611
 20
446.1211853979
 30
0.0
 11
428.1946582404
 21
446.1211853979
 31
0.0
  0
ARC
  5
1A9
330
1F
100
AcDbEntity
  8
0
  6
Continuous
 62
     7
370
    25
100
AcDbCircle
 10
423.9306174611
 20
446.3211853979
 30
0.0
 40
0.1999999999999886
100
AcDbArc
 50
180.0
 51
270.0
  0
LINE
  5
1AA
330
1F
100
AcDbEntity
  8
0
  6
Continuous
 62
     7
370
    25
100
AcDbLine
 10
430.7306174611
 20
446.1225044269
 30
0.0
 11
430.7306174611
 21
445.9711853979
 31
0.0
  0
LINE
  5
1AB
330
1F
100
AcDbEntity
  8
0
  6
Continuous
 62
     7
370
    25
100
AcDbLine
 10
430.7306174611
 20
445.9711853979
 30
0.0
 11
430.949198828
 21
445.370638028
 31
0.0
  0
ARC
  5
1AC
330
1F
100
AcDbEntity
  8
0
  6
Continuous
 62
     7
370
    25
100
AcDbCircle
 10
431.1371373521
 20
445.4390420566
 30
0.0
 40
0.2000000000000455
100
AcDbArc
 50
200.0
 51
270.0
  0
LINE
  5
1AD
330
1F
100
AcDbEntity
  8
0
  6
Continuous
 62
     7
370
    25
100
AcDbLine
 10
431.1371373521
 20
445.2390420566
 30
0.0
 11
438.1665220068
 21
445.2390420566
 31
0.0
  0
SPLINE
  5
1AE
330
1F
100
AcDbEntity
  8
0
  6
Continuous
 62
     7
370
    25
100
AcDbSpline
210
0.0
220
0.0
230
1.0
 70
     8
 71
     3
 72
    14
 73
    10
 74
     0
 42
0.000000001
 43
0.00000001
 40
0.0
 40
0.0
 40
0.0
 40
0.0
 40
0.0858654033594743
 40
0.2412785729960271
 40
0.3828132385659004
 40
0.5150335753852253
 40
0.6411542751050809
 40
0.7632992906393666
 40
1.0
 40
1.0
 40
1.0
 40
1.0
 10
438.0670625084273
 20
445.1585701048344
 30
0.0
 10
438.6158308292384
 20
445.0132969642752
 30
0.0
 10
440.1578492926747
 20
444.6050848709592
 30
0.0
 10
442.4091992200981
 20
443.4020534402816
 30
0.0
 10
444.7018546033708
 20
441.728267900043
 30
0.0
 10
446.5419316575338
 20
439.8159275017553
 30
0.0
 10
447.9775494480986
 20
437.7479429843035
 30
0.0
 10
449.4433460462827
 20
434.8831739616783
 30
0.0
 10
449.9692962888032
 20
432.5612138387054
 30
0.0
 10
450.3162219642574
 20
431.0296096698784
 30
0.0
  0
SPLINE
  5
1AF
330
1F
100
AcDbEntity
  8
0
  6
Continuous
 62
     7
370
    25
100
AcDbSpline
210
0.0
220
0.0
230
1.0
 70
     8
 71
     3
 72
     9
 73
     5
 74
     0
 42
0.000000001
 43
0.00000001
 40
0.0
 40
0.0
 40
0.0
 40
0.0
 40
0.4845060480910793
 40
1.0
 40
1.0
 40
1.0
 40
1.0
 10
449.9653433236002
 20
432.7502373342531
 30
0.0
 10
450.0929495528493
 20
432.1822403227846
 30
0.0
 10
450.3563234152643
 20
431.009918504086
 30
0.0
 10
450.4765420091494
 20
429.8078128129418
 30
0.0
 10
450.5385139672042
 20
429.1881345996018
 30
0.0
  0
LINE
  5
1B0
330
1F
100
AcDbEntity
  8
0
  6
Continuous
 62
     7
370
    25
100
AcDbLine
 10
438.0670625086
 20
445.1585701049
 30
0.0
 11
439.697784267
 21
444.6784198281
 31
0.0
  0
LINE
  5
1B1
330
1F
100
AcDbEntity
  8
0
  6
Continuous
 62
     7
370
    25
100
AcDbLine
 10
449.5734322021
 20
433.6371179054
 30
0.0
 11
450.3162219618
 21
431.0296096851
 31
0.0
  0
LINE
  5
1B2
330
1F
100
AcDbEntity
  8
0
  6
Continuous
 62
     7
370
    25
100
AcDbLine
 10
449.9653433185
 20
432.7502373546
 30
0.0
 11
450.1592971379
 21
431.7999545573
 31
0.0
  0
LINE
  5
1B3
330
1F
100
AcDbEntity
  8
0
  6
Continuous
 62
     7
370
    25
100
AcDbLine
 10
450.4497439842
 20
429.9218639469
 30
0.0
 11
450.5385139663
 21
429.1881346107
 31
0.0
  0
LINE
  5
1B4
330
1F
100
AcDbEntity
  8
0
  6
Continuous
 62
     7
370
    25
100
AcDbLine
 10
379.6306174611
 20
504.1683097184
 30
0.0
 11
387.337424214
 21
504.1279566038
 31
0.0
  0
SPLINE
  5
1B5
330
1F
100
AcDbEntity
  8
0
  6
Continuous
 62
     7
370
    25
100
AcDbSpline
210
0.0
220
0.0
230
1.0
 70
    24
 71
     3
 72
    20
 73
    16
 74
     0
 42
0.000000001
 43
0.00000001
 40
0.0
 40
0.0
 40
0.0
 40
0.0
 40
0.2500000000000033
 40
0.2500000000000033
 40
0.3750000000000028
 40
0.3750000000000028
 40
0.5000000000000023
 40
0.5000000000000023
 40
0.6250000000000018
 40
0.6250000000000018
 40
0.7500000000000012
 40
0.7500000000000012
 40
0.8750000000000007
 40
0.8750000000000007
 40
1.0
 40
1.0
 40
1.0
 40
1.0
 10
379.6306174610645
 20
501.3683481000627
 30
0.0
 10
379.6306174610645
 20
501.7565901620846
 30
0.0
 10
379.6306174610645
 20
502.1441916751406
 30
0.0
 10
379.6306174610645
 20
502.714919224041
 30
0.0
 10
379.6306174610645
 20
502.9014146357541
 30
0.0
 10
379.6306174610645
 20
503.2511577864763
 30
0.0
 10
379.6306174610645
 20
503.4143570640593
 30
0.0
 10
379.6306174610645
 20
503.6878426461957
 30
0.0
 10
379.6306174610645
 20
503.8009774129258
 30
0.0
 10
379.6306174610645
 20
503.9723131790782
 30
0.0
 10
379.6306174610645
 20
504.0335283341441
 30
0.0
 10
379.6306174610645
 20
504.1180803744431
 30
0.0
 10
379.6306174610645
 20
504.1422269016477
 30
0.0
 10
379.6306174610645
 20
504.1676403445072
 30
0.0
 10
379.6306174610645
 20
504.1683097183556
 30
0.0
 10
379.6306174610645
 20
504.1683097183556
 30
0.0
  0
LINE
  5
1B6
330
1F
100
AcDbEntity
  8
0
  6
Continuous
 62
     7
370
    25
100
AcDbLine
 10
387.337424214
 20
434.114414192
 30
0.0
 11
379.6306174611
 21
434.0740610775
 31
0.0
  0
SPLINE
  5
1B7
330
1F
100
AcDbEntity
  8
0
  6
Continuous
 62
     7
370
    25
100
AcDbSpline
210
0.0
220
0.0
230
1.0
 70
    24
 71
     3
 72
    20
 73
    16
 74
     0
 42
0.000000001
 43
0.00000001
 40
0.0
 40
0.0
 40
0.0
 40
0.0
 40
0.2500000000000072
 40
0.2500000000000072
 40
0.3750000000000059
 40
0.3750000000000059
 40
0.5000000000000048
 40
0.5000000000000048
 40
0.6250000000000036
 40
0.6250000000000036
 40
0.7500000000000023
 40
0.7500000000000023
 40
0.8750000000000012
 40
0.8750000000000012
 40
1.0
 40
1.0
 40
1.0
 40
1.0
 10
379.6306174610645
 20
434.0740610774531
 30
0.0
 10
379.6306174610645
 20
434.0740610774531
 30
0.0
 10
379.6306174610645
 20
434.0810486495661
 30
0.0
 10
379.6306174610645
 20
434.2079775935144
 30
0.0
 10
379.6306174610645
 20
434.2684953061098
 30
0.0
 10
379.6306174610645
 20
434.4391065065803
 30
0.0
 10
379.6306174610645
 20
434.5507510666448
 30
0.0
 10
379.6306174610645
 20
434.8232147320505
 30
0.0
 10
379.6306174610645
 20
434.9874804872924
 30
0.0
 10
379.6306174610645
 20
435.3368193324116
 30
0.0
 10
379.6306174610645
 20
435.524785405643
 30
0.0
 10
379.6306174610645
 20
435.9025484931082
 30
0.0
 10
379.6306174610645
 20
436.0948284292311
 30
0.0
 10
379.6306174610645
 20
436.4836771085619
 30
0.0
 10
379.6306174610645
 20
436.6789977549059
 30
0.0
 10
379.6306174610645
 20
436.8740226957459
 30
0.0
  0
LINE
  5
1B8
330
1F
100
AcDbEntity
  8
0
  6
Continuous
 62
     7
370
    25
100
AcDbLine
 10
379.6306174611
 20
501.3683481001
 30
0.0
 11
379.6306174611
 21
436.8740226957
 31
0.0
  0
LINE
  5
1B9
330
1F
100
AcDbEntity
  8
0
  6
Continuous
 62
     7
370
    25
100
AcDbLine
 10
388.6306174611
 20
501.3279949855
 30
0.0
 11
388.6306174611
 21
436.9143758103
 31
0.0
  0
SPLINE
  5
1BA
330
1F
100
AcDbEntity
  8
0
  6
Continuous
 62
     7
370
    25
100
AcDbSpline
210
0.0
220
0.0
230
1.0
 70
     8
 71
     3
 72
    18
 73
    14
 74
     0
 42
0.000000001
 43
0.00000001
 40
0.0
 40
0.0
 40
0.0
 40
0.0
 40
0.1250000000000008
 40
0.1250000000000008
 40
0.2500000000000017
 40
0.2500000000000017
 40
0.5000000000000011
 40
0.5000000000000011
 40
0.7500000000000006
 40
0.7500000000000006
 40
0.8750000000000003
 40
0.8750000000000003
 40
1.0
 40
1.0
 40
1.0
 40
1.0
 10
387.3374242140454
 20
504.1279566037907
 30
0.0
 10
387.4281312869612
 20
504.1274816583272
 30
0.0
 10
387.5193340768041
 20
504.1267446131238
 30
0.0
 10
387.7033469015371
 20
504.1134973983736
 30
0.0
 10
387.795944923969
 20
504.1010428745803
 30
0.0
 10
388.0643160652514
 20
504.0372463219478
 30
0.0
 10
388.227710337965
 20
503.9586632366216
 30
0.0
 10
388.4659879204715
 20
503.7191347579143
 30
0.0
 10
388.543714402098
 20
503.5553312667763
 30
0.0
 10
388.6061048986339
 20
503.286629767817
 30
0.0
 10
388.6180744118074
 20
503.1939678032597
 30
0.0
 10
388.6303579604732
 20
503.0098881389917
 30
0.0
 10
388.6306174610645
 20
502.918682740192
 30
0.0
 10
388.6306174610645
 20
502.8279744238691
 30
0.0
  0
SPLINE
  5
1BB
330
1F
100
AcDbEntity
  8
0
  6
Continuous
 62
     7
370
    25
100
AcDbSpline
210
0.0
220
0.0
230
1.0
 70
    24
 71
     3
 72
    17
 73
    13
 74
     0
 42
0.000000001
 43
0.00000001
 40
0.0
 40
0.0
 40
0.0
 40
0.0
 40
0.1245339563132488
 40
0.249201496697417
 40
0.3740239277371787
 40
0.4448755394589851
 40
0.4992320281859811
 40
0.5534588052603544
 40
0.6247205831073467
 40
0.7500823055543829
 40
0.8749477766097835
 40
1.0
 40
1.0
 40
1.0
 40
1.0
 10
388.6306174610645
 20
502.8279744238691
 30
0.0
 10
388.6306174610645
 20
502.8280039646258
 30
0.0
 10
388.6306174610645
 20
502.8280630778269
 30
0.0
 10
388.6306174610645
 20
502.8104128411588
 30
0.0
 10
388.6306174610645
 20
502.7614683694689
 30
0.0
 10
388.6306174610645
 20
502.6879043416248
 30
0.0
 10
388.6306174610645
 20
502.6026530009468
 30
0.0
 10
388.6306174610645
 20
502.4677015451604
 30
0.0
 10
388.6306174610645
 20
502.2610670030475
 30
0.0
 10
388.6306174610645
 20
501.9830410567905
 30
0.0
 10
388.6306174610645
 20
501.655532181656
 30
0.0
 10
388.6306174610645
 20
501.4372284271452
 30
0.0
 10
388.6306174610645
 20
501.3279949855653
 30
0.0
  0
SPLINE
  5
1BC
330
1F
100
AcDbEntity
  8
0
  6
Continuous
 62
     7
370
    25
100
AcDbSpline
210
0.0
220
0.0
230
1.0
 70
    24
 71
     3
 72
    17
 73
    13
 74
     0
 42
0.000000001
 43
0.00000001
 40
0.0
 40
0.0
 40
0.0
 40
0.0
 40
0.1245339562918127
 40
0.2492014966524621
 40
0.3740239276891069
 40
0.4448755393948661
 40
0.4992320281189066
 40
0.5534588052018496
 40
0.6247205830628284
 40
0.7500823055262695
 40
0.8749477765954454
 40
1.0
 40
1.0
 40
1.0
 40
1.0
 10
388.6306174610645
 20
436.9143758102433
 30
0.0
 10
388.6306174610645
 20
436.8055944398031
 30
0.0
 10
388.6306174610645
 20
436.5879150122093
 30
0.0
 10
388.6306174610645
 20
436.2615104558598
 30
0.0
 10
388.6306174610645
 20
435.9843970011175
 30
0.0
 10
388.6306174610645
 20
435.7783361499697
 30
0.0
 10
388.6306174610645
 20
435.6428475784596
 30
0.0
 10
388.6306174610645
 20
435.5559766431668
 30
0.0
 10
388.6306174610645
 20
435.4816277940562
 30
0.0
 10
388.6306174610645
 20
435.4321348208466
 30
0.0
 10
388.6306174610645
 20
435.4143092564111
 30
0.0
 10
388.6306174610645
 20
435.4143673189675
 30
0.0
 10
388.6306174610645
 20
435.4143963719395
 30
0.0
  0
SPLINE
  5
1BD
330
1F
100
AcDbEntity
  8
0
  6
Continuous
 62
     7
370
    25
100
AcDbSpline
210
0.0
220
0.0
230
1.0
 70
     8
 71
     3
 72
    18
 73
    14
 74
     0
 42
0.000000001
 43
0.00000001
 40
0.0
 40
0.0
 40
0.0
 40
0.0
 40
0.1250000000000008
 40
0.1250000000000008
 40
0.2500000000000017
 40
0.2500000000000017
 40
0.5000000000000011
 40
0.5000000000000011
 40
0.7500000000000006
 40
0.7500000000000006
 40
0.8750000000000002
 40
0.8750000000000002
 40
1.0
 40
1.0
 40
1.0
 40
1.0
 10
387.3374242140454
 20
434.1144141920179
 30
0.0
 10
387.4281312869612
 20
434.1148891374814
 30
0.0
 10
387.5193340768041
 20
434.1156261826848
 30
0.0
 10
387.7033469015371
 20
434.128873397435
 30
0.0
 10
387.795944923969
 20
434.1413279212283
 30
0.0
 10
388.0643160652514
 20
434.2051244738608
 30
0.0
 10
388.227710337965
 20
434.283707559187
 30
0.0
 10
388.4659879204715
 20
434.5232360378943
 30
0.0
 10
388.543714402098
 20
434.6870395290323
 30
0.0
 10
388.6061048986339
 20
434.9557410279916
 30
0.0
 10
388.6180744118074
 20
435.0484029925489
 30
0.0
 10
388.6303579604732
 20
435.2324826568169
 30
0.0
 10
388.6306174610645
 20
435.3236880556166
 30
0.0
 10
388.6306174610645
 20
435.4143963719395
 30
0.0
  0
LINE
  5
1BE
330
1F
100
AcDbEntity
  8
0
  6
Continuous
 62
     7
370
    25
100
AcDbLine
 10
630.6324530364
 20
480.6072939907
 30
0.0
 11
630.6324530364
 21
470.1114137254
 31
0.0
  0
SPLINE
  5
1BF
330
1F
100
AcDbEntity
  8
0
  6
Continuous
 62
     7
370
    25
100
AcDbSpline
210
0.0
220
0.0
230
1.0
 70
     8
 71
     3
 72
    27
 73
    23
 74
     0
 42
0.000000001
 43
0.00000001
 40
-0.2542154615671169
 40
-0.2542154615671169
 40
-0.2542154615671169
 40
-0.2542154615671169
 40
-0.15
 40
-0.15
 40
-0.15
 40
0.0
 40
0.0
 40
0.0
 40
0.0293308144230906
 40
0.0586616288461812
 40
0.0879924432692718
 40
0.1173232576923624
 40
0.1173232576923624
 40
0.1606756052632727
 40
0.2040279528341829
 40
0.2473803004050932
 40
0.2907326479760034
 40
0.2907326479760034
 40
0.4680494859820026
 40
0.6453663239880018
 40
0.8226831619940008
 40
0.9999999649831142
 40
0.9999999649831142
 40
0.9999999649831142
 40
0.9999999649831142
 10
388.6306174610645
 20
455.8711853979044
 30
0.0
 10
393.9602097570328
 20
455.8711853979044
 30
0.0
 10
399.2898020530012
 20
455.8711853979044
 30
0.0
 10
404.6193943489694
 20
455.8711853979044
 30
0.0
 10
412.290413911459
 20
455.8711853979044
 30
0.0
 10
419.9614334739488
 20
455.8711853979044
 30
0.0
 10
427.6324530364384
 20
455.8711853979044
 30
0.0
 10
429.1324347112603
 20
455.8711853979044
 30
0.0
 10
432.1323980609005
 20
455.8711853979043
 30
0.0
 10
436.6323637005083
 20
455.8711853979043
 30
0.0
 10
441.1323705713669
 20
455.8711853979044
 30
0.0
 10
444.1324163847389
 20
455.8711853979044
 30
0.0
 10
447.8495790035325
 20
455.8711853979044
 30
0.0
 10
452.2839043776121
 20
455.8957639961716
 30
0.0
 10
458.9346715679522
 20
456.0063679839604
 30
0.0
 10
465.5837736990157
 20
456.1906932700754
 30
0.0
 10
470.0147757627027
 20
456.36270520356
 30
0.0
 10
481.2889619451142
 20
456.8629672221809
 30
0.0
 10
499.4074591543929
 20
457.6669273343913
 30
0.0
 10
526.5850819336443
 20
458.8728620433702
 30
0.0
 10
553.7626226907998
 20
460.0787931128375
 30
0.0
 10
571.8809558550801
 20
460.8827459459872
 30
0.0
 10
580.9401224372214
 20
461.2847223625622
 30
0.0
  0
SPLINE
  5
1C0
330
1F
100
AcDbEntity
  8
0
  6
Continuous
 62
     7
370
    25
100
AcDbSpline
210
0.0
220
0.0
230
1.0
 70
     8
 71
     3
 72
     8
 73
     4
 74
     0
 42
0.000000001
 43
0.00000001
 40
0.0727793026364925
 40
0.0727793026364925
 40
0.0727793026364925
 40
0.0727793026364925
 40
1.0
 40
1.0
 40
1.0
 40
1.0
 10
629.9418266190837
 20
469.1211512900786
 30
0.0
 10
627.0065718103654
 20
468.0685821217946
 30
0.0
 10
624.040939264734
 20
467.1338251322216
 30
0.0
 10
621.0308332710466
 20
466.3123898395774
 30
0.0
  0
SPLINE
  5
1C1
330
1F
100
AcDbEntity
  8
0
  6
Continuous
 62
     7
370
    25
100
AcDbSpline
210
0.0
220
0.0
230
1.0
 70
    24
 71
     3
 72
    18
 73
    14
 74
     0
 42
0.000000001
 43
0.00000001
 40
-0.0000021263988984
 40
-0.0000021263988984
 40
-0.0000021263988984
 40
-0.0000021263988984
 40
0.0
 40
0.0
 40
0.0
 40
0.4275885759528201
 40
0.4413627440184678
 40
0.4674703602842568
 40
0.5038751990645237
 40
0.5336694441824861
 40
0.5666506397578235
 40
0.5795963365626782
 40
1.0
 40
1.0
 40
1.0
 40
1.0
 10
608.7206930173197
 20
464.1417799765421
 30
0.0
 10
608.7207074643444
 20
464.1417825239423
 30
0.0
 10
608.7207219113692
 20
464.1417850713425
 30
0.0
 10
608.7207363583939
 20
464.1417876187428
 30
0.0
 10
611.6258275582129
 20
464.6540335786891
 30
0.0
 10
614.3832861742849
 20
465.140247930889
 30
0.0
 10
616.6662728396066
 20
465.5428000765826
 30
0.0
 10
617.0292547367746
 20
465.606803578562
 30
0.0
 10
617.4496556163051
 20
465.6809315963367
 30
0.0
 10
617.8789497365495
 20
465.7566277323953
 30
0.0
 10
618.1898768482447
 20
465.8114525712208
 30
0.0
 10
620.0259247709217
 20
466.1351973578623
 30
0.0
 10
621.0308332710506
 20
466.3123898395785
 30
0.0
 10
621.0308332710506
 20
466.3123898395784
 30
0.0
  0
SPLINE
  5
1C2
330
1F
100
AcDbEntity
  8
0
  6
Continuous
 62
     7
370
    25
100
AcDbSpline
210
0.0
220
0.0
230
1.0
 70
    24
 71
     3
 72
    16
 73
    12
 74
     0
 42
0.000000001
 43
0.00000001
 40
0.0
 40
0.0
 40
0.0
 40
0.0
 40
0.1171350907593814
 40
0.2376010861156715
 40
0.3547982901767397
 40
0.4754836478614788
 40
0.5911275690761963
 40
0.7100970292795831
 40
0.8259647078090714
 40
0.9451850720792144
 40
1.0
 40
1.0
 40
1.0
 40
1.0
 10
608.7206862424358
 20
464.1417787819452
 30
0.0
 10
608.0297617779642
 20
464.0199501572274
 30
0.0
 10
606.6282654192038
 20
463.7728285358133
 30
0.0
 10
604.5954385012747
 20
463.414386303072
 30
0.0
 10
602.6634940921053
 20
463.0737323785065
 30
0.0
 10
600.9311290437996
 20
462.7682696800539
 30
0.0
 10
599.4193461505081
 20
462.5017015669932
 30
0.0
 10
598.1796288746905
 20
462.2831059628161
 30
0.0
 10
597.2606323599981
 20
462.1210620820988
 30
0.0
 10
596.689826507988
 20
462.0204136096432
 30
0.0
 10
596.6091465068349
 20
462.0061875486363
 30
0.0
 10
596.5837351756493
 20
462.0017068453326
 30
0.0
  0
LWPOLYLINE
  5
1C3
330
1F
100
AcDbEntity
  8
0
  6
Continuous
 62
     7
370
    25
100
AcDbPolyline
 90
        3
 70
   128
 43
0.0
 10
580.9401217238
 20
461.2845286436
 10
588.675381037
 20
461.6279798238
 10
591.3965892152
 20
461.7487387334
  0
LINE
  5
1C4
330
1F
100
AcDbEntity
  8
0
  6
Continuous
 62
     7
370
    25
100
AcDbLine
 10
596.0467985268
 20
461.9551008229
 30
0.0
 11
596.410639672
 21
461.9712469819
 31
0.0
  0
LINE
  5
1C5
330
1F
100
AcDbEntity
  8
0
  6
Continuous
 62
     7
370
    25
100
AcDbLine
 10
619.338410622
 20
481.7627178967
 30
0.0
 11
619.5421818779
 21
481.7595514808
 31
0.0
  0
LWPOLYLINE
  5
1C6
330
1F
100
AcDbEntity
  8
0
  6
Continuous
 62
     7
370
    25
100
AcDbPolyline
 90
        3
 70
   128
 43
0.0
 10
619.3384110408
 20
481.7627178952
 10
608.837681878
 20
481.7972868054
 10
600.4711713224
 20
481.8243870043
  0
SPLINE
  5
1C7
330
1F
100
AcDbEntity
  8
0
  6
Continuous
 62
     7
370
    25
100
AcDbSpline
210
0.0
220
0.0
230
1.0
 70
     8
 71
     3
 72
    16
 73
    12
 74
     0
 42
0.000000001
 43
0.00000001
 40
0.0
 40
0.0
 40
0.0
 40
0.0
 40
0.032166118460524
 40
0.0828017397943775
 40
0.1327759010319996
 40
0.1825007476493873
 40
0.2324877990091057
 40
0.3704486503825062
 40
0.5080284517708415
 40
0.7539188332900413
 40
1.0
 40
1.0
 40
1.0
 40
1.0
 10
594.9623106957914
 20
481.8425433517685
 30
0.0
 10
592.7500170764542
 20
481.8498752639625
 30
0.0
 10
587.0551502605551
 20
481.8687490079747
 30
0.0
 10
577.9232053967096
 20
481.8995582357031
 30
0.0
 10
567.583620948122
 20
481.9342198084198
 30
0.0
 10
557.2886424932757
 20
481.9685128295541
 30
0.0
 10
540.9421846254118
 20
482.0208001219277
 30
0.0
 10
518.5533346511234
 20
482.099976281042
 30
0.0
 10
482.6907646680314
 20
482.2048588255619
 30
0.0
 10
439.3921296998815
 20
482.4028734382908
 30
0.0
 10
405.555495458052
 20
482.3817508084655
 30
0.0
 10
388.6306174610645
 20
482.3711853979045
 30
0.0
  0
ARC
  5
1C8
330
1F
100
AcDbEntity
  8
0
  6
Continuous
 62
     7
370
    25
100
AcDbCircle
 10
629.5899212394
 20
470.1024948342
 30
0.0
 40
1.042531797086231
100
AcDbArc
 50
289.7276052245
 51
0.0000000685
  0
ARC
  5
1C9
330
1F
100
AcDbEntity
  8
0
  6
Continuous
 62
     7
370
    25
100
AcDbCircle
 10
629.5669888559
 20
480.6150316231
 30
0.0
 40
1.06546418057585
100
AcDbArc
 50
19.8483732748
 51
73.3806362405
  0
LINE
  5
1CA
330
1F
100
AcDbEntity
  8
0
  6
Continuous
 62
     7
370
    25
100
AcDbLine
 10
630.6324530364
 20
480.6142620703
 30
0.0
 11
630.6324530364
 21
480.6119387812
 31
0.0
  0
LINE
  5
1CB
330
1F
100
AcDbEntity
  8
0
  6
Continuous
 62
     7
370
    25
100
AcDbLine
 10
621.6971866058
 20
459.6539270452
 30
0.0
 11
614.602465636
 21
458.4029363176
 31
0.0
  0
LINE
  5
1CC
330
1F
100
AcDbEntity
  8
0
  6
Continuous
 62
     7
370
    25
100
AcDbLine
 10
614.602465636
 20
458.4029363176
 30
0.0
 11
614.0081287474
 21
461.7735883083
 31
0.0
  0
LINE
  5
1CD
330
1F
100
AcDbEntity
  8
0
  6
Continuous
 62
     7
370
    25
100
AcDbLine
 10
604.5621846148
 20
460.1080134995
 30
0.0
 11
605.1565215034
 21
456.7373615088
 31
0.0
  0
LINE
  5
1CE
330
1F
100
AcDbEntity
  8
0
  6
Continuous
 62
     7
370
    25
100
AcDbLine
 10
605.1565215034
 20
456.7373615088
 30
0.0
 11
598.0618005335
 21
455.4863707812
 31
0.0
  0
LINE
  5
1CF
330
1F
100
AcDbEntity
  8
0
  6
Continuous
 62
     7
370
    25
100
AcDbLine
 10
604.5621846148
 20
460.1080134995
 30
0.0
 11
614.0081287474
 21
461.7735883083
 31
0.0
  0
SPLINE
  5
1D0
330
1F
100
AcDbEntity
  8
0
  6
Continuous
 62
     7
370
    25
100
AcDbSpline
210
0.0
220
0.0
230
1.0
 70
     8
 71
     3
 72
    10
 73
     6
 74
     0
 42
0.000000001
 43
0.00000001
 40
0.0
 40
0.0
 40
0.0
 40
0.0
 40
0.5
 40
0.5
 40
1.0
 40
1.0
 40
1.0
 40
1.0
 10
609.9797493917723
 20
457.00156989188
 30
0.0
 10
610.7748584048958
 20
457.1417690634981
 30
0.0
 10
611.5700879271218
 20
457.3357701660966
 30
0.0
 10
613.112662870428
 20
457.8098887487529
 30
0.0
 10
613.8648685897152
 20
458.0899512580451
 30
0.0
 10
614.6024656359508
 20
458.4029363176024
 30
0.0
  0
SPLINE
  5
1D1
330
1F
100
AcDbEntity
  8
0
  6
Continuous
 62
     7
370
    25
100
AcDbSpline
210
0.0
220
0.0
230
1.0
 70
     8
 71
     3
 72
     8
 73
     4
 74
     0
 42
0.000000001
 43
0.00000001
 40
0.0
 40
0.0
 40
0.0
 40
0.0
 40
1.0
 40
1.0
 40
1.0
 40
1.0
 10
605.1565215033534
 20
456.7373615087607
 30
0.0
 10
606.7766304045172
 20
456.6526536104706
 30
0.0
 10
608.3858192520331
 20
456.7205170028795
 30
0.0
 10
609.9797493917723
 20
457.00156989188
 30
0.0
  0
LINE
  5
1D2
330
1F
100
AcDbEntity
  8
0
  6
Continuous
 62
     7
370
    25
100
AcDbLine
 10
620.8126346749
 20
458.9116998462
 30
0.0
 11
609.9797493918
 21
457.0015698919
 31
0.0
  0
LINE
  5
1D3
330
1F
100
AcDbEntity
  8
0
  6
Continuous
 62
     7
370
    25
100
AcDbLine
 10
609.9797493918
 20
457.0015698919
 30
0.0
 11
599.1468641086
 21
455.0914399375
 31
0.0
  0
LINE
  5
1D4
330
1F
100
AcDbEntity
  8
0
  6
Continuous
 62
     7
370
    25
100
AcDbLine
 10
630.6324530364
 20
480.6142555139
 30
0.0
 11
630.6324530364
 21
480.6150316231
 31
0.0
  0
LINE
  5
1D5
330
1F
100
AcDbEntity
  8
0
  6
Continuous
 62
     7
370
    25
100
AcDbLine
 10
430.9104153496
 20
492.1211853979
 30
0.0
 11
427.9572930157
 21
482.3772274098
 31
0.0
  0
SPLINE
  5
1D6
330
1F
100
AcDbEntity
  8
0
  6
Continuous
 62
     7
370
    18
100
AcDbSpline
210
0.0
220
0.0
230
1.0
 70
    24
 71
     3
 72
    11
 73
     7
 74
     0
 42
0.000000001
 43
0.00000001
 40
0.0
 40
0.0
 40
0.0
 40
0.0
 40
0.1444779697557041
 40
0.4476967349965246
 40
0.7509155002373449
 40
1.0
 40
1.0
 40
1.0
 40
1.0
 10
455.5297838961211
 20
490.3534706083267
 30
0.0
 10
455.5297838961211
 20
490.284075603704
 30
0.0
 10
455.5297838961211
 20
490.0690399339253
 30
0.0
 10
455.5297838961211
 20
488.4040965689367
 30
0.0
 10
455.5297838961211
 20
485.7947324437379
 30
0.0
 10
455.5297838961211
 20
483.3895178615654
 30
0.0
 10
455.5297838961211
 20
482.3047846923373
 30
0.0
  0
LINE
  5
1D7
330
1F
100
AcDbEntity
  8
0
  6
Continuous
 62
     7
370
    25
100
AcDbLine
 10
427.7857181981
 20
482.3848222619
 30
0.0
 11
430.719154394
 21
491.9796597242
 31
0.0
  0
LINE
  5
1D8
330
1F
100
AcDbEntity
  8
0
  6
Continuous
 62
     7
370
    25
100
AcDbLine
 10
423.7306174611
 20
455.8676571627
 30
0.0
 11
423.7306174611
 21
455.2429245283
 31
0.0
  0
SPLINE
  5
1D9
330
1F
100
AcDbEntity
  8
0
  6
Continuous
 62
     7
370
    18
100
AcDbSpline
210
0.0
220
0.0
230
1.0
 70
     8
 71
     3
 72
    11
 73
     7
 74
     0
 42
0.000000001
 43
0.00000001
 40
0.0
 40
0.0
 40
0.0
 40
0.0
 40
0.1598002105011534
 40
0.3724951098214125
 40
0.6879113381961733
 40
1.0
 40
1.0
 40
1.0
 40
1.0
 10
455.5297164982292
 20
455.9883712247228
 30
0.0
 10
455.5297483385941
 20
454.726868530566
 30
0.0
 10
455.5298225586479
 20
451.7862992839657
 30
0.0
 10
455.5299298784445
 20
446.2542213076098
 30
0.0
 10
455.529571085607
 20
439.3910869892666
 30
0.0
 10
455.5297872007989
 20
434.2130772425568
 30
0.0
 10
455.5298946853812
 20
431.6378014830358
 30
0.0
  0
SPLINE
  5
1DA
330
1F
100
AcDbEntity
  8
0
  6
Continuous
 62
     7
370
    25
100
AcDbSpline
210
0.0
220
0.0
230
1.0
 70
    24
 71
     3
 72
    10
 73
     6
 74
     0
 42
0.000000001
 43
0.00000001
 40
0.0
 40
0.0
 40
0.0
 40
0.0
 40
0.5
 40
0.5
 40
1.0
 40
1.0
 40
1.0
 40
1.0
 10
455.5300350119161
 20
384.5711856402751
 30
0.0
 10
455.528685480625
 20
384.5711843377356
 30
0.0
 10
455.5302214077923
 20
384.5711858201805
 30
0.0
 10
455.5299014406158
 20
384.5711855113549
 30
0.0
 10
455.5296796185058
 20
384.5711852972569
 30
0.0
 10
455.5297196511087
 20
384.5711853358955
 30
0.0
  0
SPLINE
  5
1DB
330
1F
100
AcDbEntity
  8
0
  6
Continuous
 62
     7
370
    25
100
AcDbSpline
210
0.0
220
0.0
230
1.0
 70
     8
 71
     3
 72
     8
 73
     4
 74
     0
 42
0.000000001
 43
0.00000001
 40
0.0
 40
0.0
 40
0.0
 40
0.0
 40
1.0
 40
1.0
 40
1.0
 40
1.0
 10
436.7142680648649
 20
445.8611968467535
 30
0.0
 10
436.6015882862265
 20
445.898580596421
 30
0.0
 10
436.4845023249676
 20
445.9353699206973
 30
0.0
 10
436.362736285717
 20
445.9711853979043
 30
0.0
  0
SPLINE
  5
1DC
330
1F
100
AcDbEntity
  8
0
  6
Continuous
 62
     7
370
    25
100
AcDbSpline
210
0.0
220
0.0
230
1.0
 70
     8
 71
     3
 72
    17
 73
    13
 74
     0
 42
0.000000001
 43
0.00000001
 40
0.0
 40
0.0
 40
0.0
 40
0.0
 40
0.2500000000000039
 40
0.2500000000000039
 40
0.3750000000000035
 40
0.3750000000000035
 40
0.5000000000000031
 40
0.6250000000000027
 40
0.6250000000000027
 40
0.7500000000000023
 40
0.7500000000000023
 40
1.0
 40
1.0
 40
1.0
 40
1.0
 10
436.3627362857171
 20
445.9711853979043
 30
0.0
 10
436.0735675329482
 20
446.0504240761271
 30
0.0
 10
435.7730614716019
 20
446.1204102699064
 30
0.0
 10
435.3045337638987
 20
446.2083059176102
 30
0.0
 10
435.1442440989883
 20
446.2349134333069
 30
0.0
 10
434.8231775162135
 20
446.281090313371
 30
0.0
 10
434.502803712569
 20
446.3201742919634
 30
0.0
 10
434.1838295869497
 20
446.3456221747334
 30
0.0
 10
433.8656193442988
 20
446.3645070394914
 30
0.0
 10
433.70609787679
 20
446.3706465172729
 30
0.0
 10
433.2419541874863
 20
446.3795567531595
 30
0.0
 10
432.9476991818072
 20
446.3732187693948
 30
0.0
 10
432.6688164297565
 20
446.3583357049003
 30
0.0
  0
LINE
  5
1DD
330
1F
100
AcDbEntity
  8
0
  6
Continuous
 62
     7
370
    25
100
AcDbLine
 10
423.7306174611
 20
446.3211853979
 30
0.0
 11
423.7306174611
 21
455.2429245283
 31
0.0
  0
SPLINE
  5
1DE
330
1F
100
AcDbEntity
  8
0
  6
Continuous
 62
     7
370
    25
100
AcDbSpline
210
0.0
220
0.0
230
1.0
 70
    24
 71
     3
 72
     8
 73
     4
 74
     0
 42
0.000000001
 43
0.00000001
 40
0.0
 40
0.0
 40
0.0
 40
0.0
 40
1.0
 40
1.0
 40
1.0
 40
1.0
 10
450.6291056819078
 20
426.3088647937714
 30
0.0
 10
450.6184921763357
 20
427.8291127827547
 30
0.0
 10
450.6078786510878
 20
429.349363590031
 30
0.0
 10
450.5972685821528
 20
430.8691193249985
 30
0.0
  0
LINE
  5
1DF
330
1F
100
AcDbEntity
  8
0
  6
Continuous
 62
     7
370
    25
100
AcDbLine
 10
450.9118845731
 20
385.8044303509
 30
0.0
 11
450.6291056819
 21
426.3088647938
 31
0.0
  0
ARC
  5
1E0
330
1F
100
AcDbEntity
  8
0
  6
Continuous
 62
     7
370
    25
100
AcDbCircle
 10
452.4201818703
 20
384.6211853979
 30
0.0
 40
1.5
100
AcDbArc
 50
180.4
 51
270.0
  0
SPLINE
  5
1E1
330
1F
100
AcDbEntity
  8
0
  6
Continuous
 62
     7
370
    25
100
AcDbSpline
210
0.0
220
0.0
230
1.0
 70
    24
 71
     3
 72
    26
 73
    22
 74
     0
 42
0.000000001
 43
0.00000001
 40
0.0
 40
0.0
 40
0.0
 40
0.0
 40
0.2499999999999991
 40
0.2499999999999991
 40
0.3749999999999987
 40
0.3749999999999987
 40
0.4375000000000006
 40
0.4375000000000006
 40
0.4687499999999982
 40
0.4687499999999982
 40
0.4999999999999958
 40
0.4999999999999958
 40
0.5312499999999934
 40
0.5312499999999934
 40
0.562499999999991
 40
0.562499999999991
 40
0.6249999999999897
 40
0.6249999999999897
 40
0.7499999999999869
 40
0.7499999999999869
 40
1.0
 40
1.0
 40
1.0
 40
1.0
 10
450.9202184241931
 20
384.6107135074565
 30
0.0
 10
450.9202184241931
 20
384.6107135074565
 30
0.0
 10
450.9202238800941
 20
384.6099320199148
 30
0.0
 10
450.9200583777813
 20
384.6336380948271
 30
0.0
 10
450.9199743198656
 20
384.645678308712
 30
0.0
 10
450.9197638055475
 20
384.6758317737114
 30
0.0
 10
450.9196792407864
 20
384.6879445866952
 30
0.0
 10
450.9195171755113
 20
384.7111583502166
 30
0.0
 10
450.9194574516289
 20
384.719713027224
 30
0.0
 10
450.919318074649
 20
384.7396769846646
 30
0.0
 10
450.9192477754289
 20
384.7497464425889
 30
0.0
 10
450.9190123160231
 20
384.7834729701451
 30
0.0
 10
450.9188708701747
 20
384.8037332663528
 30
0.0
 10
450.9185901842253
 20
384.8439379138416
 30
0.0
 10
450.9184465646262
 20
384.8645095718303
 30
0.0
 10
450.9180098659358
 20
384.9270610352871
 30
0.0
 10
450.9177104931593
 20
384.9699423300758
 30
0.0
 10
450.9168007038788
 20
385.1002579279532
 30
0.0
 10
450.9161899844365
 20
385.1877356230163
 30
0.0
 10
450.9143517426855
 20
385.4510400803624
 30
0.0
 10
450.9131179719773
 20
385.6277618454063
 30
0.0
 10
450.9118845730973
 20
385.8044303508588
 30
0.0
  0
LINE
  5
1E2
330
1F
100
AcDbEntity
  8
0
  6
Continuous
 62
     7
370
    25
100
AcDbLine
 10
454.0306174611
 20
383.1211853979
 30
0.0
 11
452.4201818703
 21
383.1211853979
 31
0.0
  0
ARC
  5
1E3
330
1F
100
AcDbEntity
  8
0
  6
Continuous
 62
     7
370
    25
100
AcDbCircle
 10
454.0306174611
 20
384.6211853979
 30
0.0
 40
1.5
100
AcDbArc
 50
270.0
 51
358.0897868283
  0
SPLINE
  5
1E4
330
1F
100
AcDbEntity
  8
0
  6
Continuous
 62
     7
370
    25
100
AcDbSpline
210
0.0
220
0.0
230
1.0
 70
     8
 71
     3
 72
    16
 73
    12
 74
     0
 42
0.000000001
 43
0.00000001
 40
0.0
 40
0.0
 40
0.0
 40
0.0
 40
0.2500000000000032
 40
0.2500000000000032
 40
0.3750000000000041
 40
0.3750000000000041
 40
0.5000000000000051
 40
0.5000000000000051
 40
0.7500000000000026
 40
0.7500000000000026
 40
1.0
 40
1.0
 40
1.0
 40
1.0
 10
430.7306174610645
 20
446.1225044268742
 30
0.0
 10
430.7306174610645
 20
446.122504122298
 30
0.0
 10
430.7749587002041
 20
446.1304229011081
 30
0.0
 10
430.9060854278645
 20
446.1524743662031
 30
0.0
 10
430.9612174665089
 20
446.1615970738807
 30
0.0
 10
431.0908241218556
 20
446.1822839336569
 30
0.0
 10
431.1653499056012
 20
446.1938603794961
 30
0.0
 10
431.4175512417633
 20
446.23123709967
 30
0.0
 10
431.627143784337
 20
446.2602839107085
 30
0.0
 10
432.1039360768984
 20
446.3151635366751
 30
0.0
 10
432.3729128303089
 20
446.3412989280255
 30
0.0
 10
432.6700097213101
 20
446.3581392508201
 30
0.0
  0
LINE
  5
1E5
330
1F
100
AcDbEntity
  8
0
  6
Continuous
 62
     7
370
    25
100
AcDbLine
 10
430.7306174611
 20
445.9711853979
 30
0.0
 11
436.3627362857
 21
445.9711853979
 31
0.0
  0
SPLINE
  5
1E6
330
1F
100
AcDbEntity
  8
0
  6
Continuous
 62
     7
370
    25
100
AcDbSpline
210
0.0
220
0.0
230
1.0
 70
     8
 71
     3
 72
    10
 73
     6
 74
     0
 42
0.000000001
 43
0.00000001
 40
0.0
 40
0.0
 40
0.0
 40
0.0
 40
0.5
 40
0.5
 40
1.0
 40
1.0
 40
1.0
 40
1.0
 10
436.7128812921506
 20
445.8618102315765
 30
0.0
 10
436.9714840753278
 20
445.776191468997
 30
0.0
 10
437.2016373498984
 20
445.6891934559955
 30
0.0
 10
437.6113880712299
 20
445.5216565036424
 30
0.0
 10
437.7916733482397
 20
445.4406249490625
 30
0.0
 10
437.9400328039173
 20
445.3706380279831
 30
0.0
  0
SPLINE
  5
1E7
330
1F
100
AcDbEntity
  8
0
  6
Continuous
 62
     7
370
    25
100
AcDbSpline
210
0.0
220
0.0
230
1.0
 70
     8
 71
     3
 72
    16
 73
    12
 74
     0
 42
0.000000001
 43
0.00000001
 40
0.0
 40
0.0
 40
0.0
 40
0.0
 40
0.5000000000000181
 40
0.5000000000000181
 40
0.7500000000000195
 40
0.7500000000000195
 40
0.8750000000000095
 40
0.8750000000000095
 40
0.9375000000000049
 40
0.9375000000000049
 40
1.0
 40
1.0
 40
1.0
 40
1.0
 10
437.9400328039171
 20
445.3706380279831
 30
0.0
 10
438.015569473112
 20
445.3350044454697
 30
0.0
 10
438.0736415575415
 20
445.3044853378369
 30
0.0
 10
438.1329167923503
 20
445.2688985939408
 30
0.0
 10
438.1481091152943
 20
445.2586946506818
 30
0.0
 10
438.1607665140116
 20
445.2471127671126
 30
0.0
 10
438.1633517623147
 20
445.2438583396752
 30
0.0
 10
438.1627351735026
 20
445.2405011655016
 30
0.0
 10
438.1617979352067
 20
445.2396310584827
 30
0.0
 10
438.1569061799055
 20
445.2388504519282
 30
0.0
 10
438.1535397808991
 20
445.2387436680513
 30
0.0
 10
438.1444869151444
 20
445.2404629519182
 30
0.0
  0
SPLINE
  5
1E8
330
1F
100
AcDbEntity
  8
0
  6
Continuous
 62
     7
370
    25
100
AcDbSpline
210
0.0
220
0.0
230
1.0
 70
     8
 71
     3
 72
     8
 73
     4
 74
     0
 42
0.000000001
 43
0.00000001
 40
0.0
 40
0.0
 40
0.0
 40
0.0
 40
1.0
 40
1.0
 40
1.0
 40
1.0
 10
428.1943727817232
 20
446.1212803631733
 30
0.0
 10
429.0398904545663
 20
446.1231877710412
 30
0.0
 10
429.8855683500991
 20
446.127432563542
 30
0.0
 10
430.7306174610645
 20
446.1225044268742
 30
0.0
  0
SPLINE
  5
1E9
330
1F
100
AcDbEntity
  8
0
  6
Continuous
 62
     8
370
    18
100
AcDbSpline
210
0.0
220
0.0
230
1.0
 70
     8
 71
     3
 72
    11
 73
     7
 74
     0
 42
0.000000001
 43
0.00000001
 40
0.0
 40
0.0
 40
0.0
 40
0.0
 40
0.2536467682205594
 40
0.5048623551939138
 40
0.7536467645434923
 40
0.9999999999999999
 40
0.9999999999999999
 40
0.9999999999999999
 40
0.9999999999999999
 10
388.6306174610644
 20
468.7661927073814
 30
0.0
 10
404.8864219207534
 20
468.8512698865915
 30
0.0
 10
437.2422204300959
 20
469.0206087879724
 30
0.0
 10
485.5421638302745
 20
469.2807505894455
 30
0.0
 10
533.3746500726166
 20
469.5433445560261
 30
0.0
 10
565.1071360739348
 20
469.72261763705
 30
0.0
 10
580.8954742815148
 20
469.8118140534481
 30
0.0
  0
LINE
  5
1EA
330
1F
100
AcDbEntity
  8
0
  6
Continuous
 62
     8
370
    18
100
AcDbLine
 10
580.8388765654
 20
480.6210828184
 30
0.0
 11
388.6306174611
 21
480.6488762335
 31
0.0
  0
LINE
  5
1EB
330
1F
100
AcDbEntity
  8
0
  6
Continuous
 62
     8
370
    18
100
AcDbLine
 10
608.7207363584
 20
469.9422469931
 30
0.0
 11
627.1333693343
 21
470.0838693692
 31
0.0
  0
LINE
  5
1EC
330
1F
100
AcDbEntity
  8
0
  6
Continuous
 62
     8
370
    18
100
AcDbLine
 10
626.2924809916
 20
480.6133336169
 30
0.0
 11
608.7207326261
 21
480.6166674991
 31
0.0
  0
LINE
  5
1ED
330
1F
100
AcDbEntity
  8
0
  6
Continuous
 62
     8
370
    18
100
AcDbLine
 10
627.1333693343
 20
480.6129645702
 30
0.0
 11
626.290461776
 21
480.6143848417
 31
0.0
  0
SPLINE
  5
1EE
330
1F
100
AcDbEntity
  8
0
  6
Continuous
 62
     8
370
    18
100
AcDbSpline
210
0.0
220
0.0
230
1.0
 70
     8
 71
     3
 72
    16
 73
    12
 74
     0
 42
0.000000001
 43
0.00000001
 40
0.0
 40
0.0
 40
0.0
 40
0.0
 40
0.092133332425557
 40
0.2088699081380407
 40
0.328695226088914
 40
0.4260794043084362
 40
0.5031619528113277
 40
0.6144194675182165
 40
0.7938082844378739
 40
0.9056699020004776
 40
1.0
 40
1.0
 40
1.0
 40
1.0
 10
627.1333693342852
 20
470.0838693692275
 30
0.0
 10
627.3120942484259
 20
470.0859336358283
 30
0.0
 10
627.7172706966855
 20
470.0906134098465
 30
0.0
 10
628.3540759938433
 20
470.1042255513784
 30
0.0
 10
628.9872087964592
 20
470.1178555667799
 30
0.0
 10
629.5051476956049
 20
470.1273894335599
 30
0.0
 10
629.9395791531031
 20
470.1335438659183
 30
0.0
 10
630.3559864232523
 20
470.1295932069613
 30
0.0
 10
630.5700846519884
 20
470.1210800940806
 30
0.0
 10
630.6319273317508
 20
470.1130565682507
 30
0.0
 10
630.6322880242083
 20
470.1119293935668
 30
0.0
 10
630.6324530364384
 20
470.1114137254272
 30
0.0
  0
SPLINE
  5
1EF
330
1F
100
AcDbEntity
  8
0
  6
Continuous
 62
     8
370
    18
100
AcDbSpline
210
0.0
220
0.0
230
1.0
 70
     8
 71
     3
 72
    22
 73
    18
 74
     0
 42
0.000000001
 43
0.00000001
 40
0.0
 40
0.0
 40
0.0
 40
0.0
 40
0.125
 40
0.125
 40
0.25
 40
0.25
 40
0.375
 40
0.375
 40
0.5
 40
0.5
 40
0.625
 40
0.625
 40
0.75
 40
0.75
 40
0.875
 40
0.875
 40
1.0
 40
1.0
 40
1.0
 40
1.0
 10
630.6324530364384
 20
480.611938781219
 30
0.0
 10
630.6324530364384
 20
480.6119815224255
 30
0.0
 10
630.6317462593969
 20
480.612024263632
 30
0.0
 10
630.5984342078806
 20
480.6121097460451
 30
0.0
 10
630.5659782064195
 20
480.6121524872516
 30
0.0
 10
630.453257043494
 20
480.6122379696646
 30
0.0
 10
630.3731411550433
 20
480.6122807108711
 30
0.0
 10
630.1589870999105
 20
480.6123661932842
 30
0.0
 10
630.0250982062423
 20
480.6124089344906
 30
0.0
 10
629.7026043763792
 20
480.6124944169037
 30
0.0
 10
629.5131544220224
 20
480.6125371581102
 30
0.0
 10
629.0901674146468
 20
480.6126226405232
 30
0.0
 10
628.8572053898957
 20
480.6126653817298
 30
0.0
 10
628.3732256452049
 20
480.6127508641428
 30
0.0
 10
628.1227829535329
 20
480.6127936053492
 30
0.0
 10
627.6251847971828
 20
480.6128790877623
 30
0.0
 10
627.3786043607726
 20
480.6129218289689
 30
0.0
 10
627.1333693342854
 20
480.6129645701753
 30
0.0
  0
LINE
  5
1F0
330
1F
100
AcDbEntity
  8
0
  6
Continuous
 62
     8
370
    18
100
AcDbLine
 10
580.8954747749
 20
469.8117198271
 30
0.0
 11
608.7102860761
 21
469.9420379528
 31
0.0
  0
LINE
  5
1F1
330
1F
100
AcDbEntity
  8
0
  6
Continuous
 62
     8
370
    18
100
AcDbLine
 10
608.7207326261
 20
480.6166674991
 30
0.0
 11
580.8388765654
 21
480.6210828184
 31
0.0
  0
SPLINE
  5
1F2
330
1F
100
AcDbEntity
  8
0
  6
Continuous
 62
     8
370
    18
100
AcDbSpline
210
0.0
220
0.0
230
1.0
 70
     8
 71
     3
 72
    16
 73
    12
 74
     0
 42
0.000000001
 43
0.00000001
 40
0.0
 40
0.0
 40
0.0
 40
0.0
 40
0.2043305143287009
 40
0.3999970928128102
 40
0.4676106263371815
 40
0.5412573150862267
 40
0.6209364174699814
 40
0.7066486244032988
 40
0.7983981664851024
 40
0.8961822673388162
 40
1.0
 40
1.0
 40
1.0
 40
1.0
 10
580.900846460301
 20
468.7850125986679
 30
0.0
 10
567.8053349117665
 20
468.7025348778433
 30
0.0
 10
542.1695821436612
 20
468.5410766215468
 30
0.0
 10
512.2004442958887
 20
468.3592545434574
 30
0.0
 10
490.6068218460786
 20
468.2281564672933
 30
0.0
 10
476.446840133876
 20
468.140228596055
 30
0.0
 10
461.1269170117361
 20
468.0443255730829
 30
0.0
 10
444.64667413529
 20
467.9598222347955
 30
0.0
 10
427.0060540741513
 20
467.8741141324979
 30
0.0
 10
408.2050596886523
 20
467.7792041750881
 30
0.0
 10
395.284330650849
 20
467.7130831458365
 30
0.0
 10
388.630617390175
 20
467.67903318102
 30
0.0
  0
SPLINE
  5
1F3
330
1F
100
AcDbEntity
  8
0
  6
Continuous
 62
     8
370
    18
100
AcDbSpline
210
0.0
220
0.0
230
1.0
 70
     8
 71
     3
 72
    16
 73
    12
 74
     0
 42
0.000000001
 43
0.00000001
 40
0.0
 40
0.0
 40
0.0
 40
0.0
 40
0.2499999999999999
 40
0.2499999999999999
 40
0.5
 40
0.5
 40
0.75
 40
0.75
 40
0.875
 40
0.875
 40
1.0
 40
1.0
 40
1.0
 40
1.0
 10
388.6306174610645
 20
481.7357906176275
 30
0.0
 10
404.6487836651028
 20
481.7358708217258
 30
0.0
 10
420.6674162581315
 20
481.7378109469436
 30
0.0
 10
452.7024320912517
 20
481.7331437015977
 30
0.0
 10
468.7187597078241
 20
481.7258560041125
 30
0.0
 10
500.75518781462
 20
481.7163097126726
 30
0.0
 10
516.7689030817318
 20
481.7114836749357
 30
0.0
 10
540.7986361654271
 20
481.704114799458
 30
0.0
 10
548.8097116443803
 20
481.7017165658856
 30
0.0
 10
564.8230861542856
 20
481.6968544281443
 30
0.0
 10
572.8266829371594
 20
481.6943966143267
 30
0.0
 10
580.8389411269382
 20
481.6919063178051
 30
0.0
  0
LWPOLYLINE
  5
1F4
330
1F
100
AcDbEntity
  8
0
  6
Continuous
 62
     8
370
    18
100
AcDbPolyline
 90
        9
 70
   128
 43
0.0
 10
580.8389411269
 20
481.6919063178
 10
580.8389874291
 20
481.667855796
 10
580.8390190608
 20
481.6045555828
 10
580.8390348359
 20
481.5043791763
 10
580.839034163
 20
481.3710827807
 10
580.8390170672
 20
481.2096644641
 10
580.8389841895
 20
481.0261767508
 10
580.8389367628
 20
480.8274996772
 10
580.8388765654
 20
480.6210828184
  0
SPLINE
  5
1F5
330
1F
100
AcDbEntity
  8
0
  6
Continuous
 62
     8
370
    18
100
AcDbSpline
210
0.0
220
0.0
230
1.0
 70
     8
 71
     3
 72
    13
 73
     9
 74
     0
 42
0.000000001
 43
0.00000001
 40
0.0
 40
0.0
 40
0.0
 40
0.0
 40
0.1073716779534739
 40
0.2265434756302797
 40
0.3575160807849816
 40
0.5002903411992965
 40
0.8124436841281637
 40
1.0
 40
1.0
 40
1.0
 40
1.0
 10
608.7207359045904
 20
468.8957484566752
 30
0.0
 10
607.7250730012028
 20
468.8880020194338
 30
0.0
 10
605.6243240980579
 20
468.8716578134955
 30
0.0
 10
602.3089743845906
 20
468.8537685664133
 30
0.0
 10
598.6653036405775
 20
468.84001630721
 30
0.0
 10
593.2320465819662
 20
468.8284958460586
 30
0.0
 10
587.274061262588
 20
468.8193087256275
 30
0.0
 10
582.6401128116654
 20
468.7942870437698
 30
0.0
 10
580.9008502537213
 20
468.7848956414156
 30
0.0
  0
SPLINE
  5
1F6
330
1F
100
AcDbEntity
  8
0
  6
Continuous
 62
     8
370
    18
100
AcDbSpline
210
0.0
220
0.0
230
1.0
 70
     8
 71
     3
 72
    10
 73
     6
 74
     0
 42
0.000000001
 43
0.00000001
 40
0.0
 40
0.0
 40
0.0
 40
0.0
 40
0.5
 40
0.5
 40
1.0
 40
1.0
 40
1.0
 40
1.0
 10
580.8389411269382
 20
481.6919063178051
 30
0.0
 10
585.4882455389132
 20
481.6904283588352
 30
0.0
 10
590.1400871073837
 20
481.6889477892917
 30
0.0
 10
599.4375829589047
 20
481.6860384269893
 30
0.0
 10
604.0814118367388
 20
481.6846202947974
 30
0.0
 10
608.7207845664465
 20
481.6832316961581
 30
0.0
  0
LWPOLYLINE
  5
1F7
330
1F
100
AcDbEntity
  8
0
  6
Continuous
 62
     8
370
    18
100
AcDbPolyline
 90
        9
 70
   128
 43
0.0
 10
608.7207845664
 20
481.6832316962
 10
608.720831754
 20
481.6607205466
 10
608.7208647476
 20
481.5986535159
 10
608.7208822973
 20
481.4993821282
 10
608.7208837382
 20
481.3666674637
 10
608.7208690157
 20
481.2055376631
 10
608.7208386876
 20
481.0220974268
 10
608.7207939029
 20
480.8232967277
 10
608.7207326261
 20
480.6166674991
  0
SPLINE
  5
1F8
330
1F
100
AcDbEntity
  8
0
  6
Continuous
 62
     8
370
    18
100
AcDbSpline
210
0.0
220
0.0
230
1.0
 70
     8
 71
     3
 72
    17
 73
    13
 74
     0
 42
0.000000001
 43
0.00000001
 40
0.0
 40
0.0
 40
0.0
 40
0.0
 40
0.1013633771746835
 40
0.184490974720354
 40
0.2495775742541657
 40
0.3463583534454859
 40
0.4288178211139194
 40
0.5004888050303103
 40
0.6111399394795667
 40
0.7503099099639956
 40
0.85467438918396
 40
1.0
 40
1.0
 40
1.0
 40
1.0
 10
627.1351528258027
 20
481.6753182139822
 30
0.0
 10
627.2755936643914
 20
481.675053175992
 30
0.0
 10
627.531209330759
 20
481.6745707816748
 30
0.0
 10
627.8767370867299
 20
481.6739976649164
 30
0.0
 10
628.2144206716279
 20
481.6735013730082
 30
0.0
 10
628.5460957867617
 20
481.6731104651028
 30
0.0
 10
628.8699468851823
 20
481.6728266361704
 30
0.0
 10
629.1715102446448
 20
481.6726860751313
 30
0.0
 10
629.4060208643263
 20
481.6728353782939
 30
0.0
 10
629.5233778855742
 20
481.6731842935565
 30
0.0
 10
629.5687957442045
 20
481.6736942960908
 30
0.0
 10
629.5717417788078
 20
481.6740514692348
 30
0.0
 10
629.5734564414846
 20
481.6742593525565
 30
0.0
  0
ARC
  5
1F9
330
1F
100
AcDbEntity
  8
0
  6
Continuous
 62
     8
370
    18
100
AcDbCircle
 10
629.5701269627
 20
480.6119384964
 30
0.0
 40
1.062326073744053
100
AcDbArc
 50
0.0000153641
 51
89.8204267036
  0
SPLINE
  5
1FA
330
1F
100
AcDbEntity
  8
0
  6
Continuous
 62
     8
370
    18
100
AcDbSpline
210
0.0
220
0.0
230
1.0
 70
     8
 71
     3
 72
    17
 73
    13
 74
     0
 42
0.000000001
 43
0.00000001
 40
0.0
 40
0.0
 40
0.0
 40
0.0
 40
0.0117953204103733
 40
0.0430807758439715
 40
0.093855055084766
 40
0.1640517278709969
 40
0.226673090047167
 40
0.2862408455259102
 40
0.3959126070769364
 40
0.5003028279328415
 40
0.7502095136946998
 40
1.0
 40
1.0
 40
1.0
 40
1.0
 10
627.1628453061065
 20
469.1162481741963
 30
0.0
 10
627.0904401656695
 20
469.1151755020513
 30
0.0
 10
626.8259904079183
 20
469.1112577154524
 30
0.0
 10
626.2492889125004
 20
469.1037537376757
 30
0.0
 10
625.3139484460189
 20
469.0910963817246
 30
0.0
 10
624.1860220821079
 20
469.0757936086599
 30
0.0
 10
623.0041022496773
 20
469.0596609095824
 30
0.0
 10
621.5796621999317
 20
469.0409346400363
 30
0.0
 10
619.8986186680013
 20
469.0193216593911
 30
0.0
 10
617.0482145256852
 20
468.9834252806675
 30
0.0
 10
613.3369520605676
 20
468.9393168351081
 30
0.0
 10
610.2668957284421
 20
468.9104352229621
 30
0.0
 10
608.7322245174489
 20
468.8959977749506
 30
0.0
  0
SPLINE
  5
1FB
330
1F
100
AcDbEntity
  8
0
  6
Continuous
 62
     8
370
    18
100
AcDbSpline
210
0.0
220
0.0
230
1.0
 70
     8
 71
     3
 72
    15
 73
    11
 74
     0
 42
0.000000001
 43
0.00000001
 40
0.0
 40
0.0
 40
0.0
 40
0.0
 40
0.1024824867629574
 40
0.2388236764944092
 40
0.395100658770091
 40
0.4976047488058966
 40
0.6038706316132225
 40
0.7581901384682613
 40
0.9007298936205068
 40
1.0
 40
1.0
 40
1.0
 40
1.0
 10
629.9176571038638
 20
469.1476521191516
 30
0.0
 10
629.9151218944639
 20
469.1501068496303
 30
0.0
 10
629.909213879849
 20
469.1558273173534
 30
0.0
 10
629.8502259876173
 20
469.1720675588172
 30
0.0
 10
629.6771452157924
 20
469.1869919541539
 30
0.0
 10
629.3695188695218
 20
469.1941505550234
 30
0.0
 10
628.894611645518
 20
469.1799923843184
 30
0.0
 10
628.2945588484496
 20
469.1565221729239
 30
0.0
 10
627.6873631773439
 20
469.1316597948166
 30
0.0
 10
627.3155043590342
 20
469.12073367133
 30
0.0
 10
627.1628453060994
 20
469.1162481741961
 30
0.0
  0
ARC
  5
1FC
330
1F
100
AcDbEntity
  8
0
  6
Continuous
 62
     8
370
    18
100
AcDbCircle
 10
629.6252812478
 20
470.1114526027
 30
0.0
 40
1.007171789394996
100
AcDbArc
 50
286.875553948
 51
359.9977883562
  0
LINE
  5
1FD
330
1F
100
AcDbEntity
  8
0
  6
Continuous
 62
     8
370
    18
100
AcDbLine
 10
626.2924605252
 20
481.6770372225
 30
0.0
 11
627.1351528258
 21
481.675318214
 31
0.0
  0
SPLINE
  5
1FE
330
1F
100
AcDbEntity
  8
0
  6
Continuous
 62
     8
370
    18
100
AcDbSpline
210
0.0
220
0.0
230
1.0
 70
     8
 71
     3
 72
    11
 73
     7
 74
     0
 42
0.000000001
 43
0.00000001
 40
0.0
 40
0.0
 40
0.0
 40
0.0
 40
0.4022371812388782
 40
0.7037011773803079
 40
0.9030951424435054
 40
1.0
 40
1.0
 40
1.0
 40
1.0
 10
608.7207845664466
 20
481.6832316961581
 30
0.0
 10
611.0768539720978
 20
481.6825177096979
 30
0.0
 10
615.1987225911049
 20
481.6812686130553
 30
0.0
 10
620.4885163699226
 20
481.6795234805301
 30
0.0
 10
623.9898687642291
 20
481.6782213575926
 30
0.0
 10
625.7253967819354
 20
481.67707799996
 30
0.0
 10
626.2930031391061
 20
481.6767040635821
 30
0.0
  0
SPLINE
  5
1FF
330
1F
100
AcDbEntity
  8
0
  6
Continuous
 62
     8
370
    18
100
AcDbSpline
210
0.0
220
0.0
230
1.0
 70
     8
 71
     3
 72
    16
 73
    12
 74
     0
 42
0.000000001
 43
0.00000001
 40
0.0
 40
0.0
 40
0.0
 40
0.0
 40
0.237077181085075
 40
0.4996869929446803
 40
0.5946279517368549
 40
0.699540982840362
 40
0.8009646074506522
 40
0.8817948095758572
 40
0.9419599926250767
 40
0.9813843223822942
 40
1.0
 40
1.0
 40
1.0
 40
1.0
 10
629.9418266190837
 20
469.1211512900786
 30
0.0
 10
629.9416472910027
 20
469.1215754067664
 30
0.0
 10
629.9412693216464
 20
469.122469316469
 30
0.0
 10
629.9368529142916
 20
469.1269945398645
 30
0.0
 10
629.9332634212753
 20
469.1315020441649
 30
0.0
 10
629.930805722974
 20
469.134741211843
 30
0.0
 10
629.9277932223196
 20
469.1379649650271
 30
0.0
 10
629.9259597806566
 20
469.1407022306886
 30
0.0
 10
629.9239572681973
 20
469.1433702202739
 30
0.0
 10
629.9271335683518
 20
469.1449466144032
 30
0.0
 10
629.9199584440438
 20
469.1469950928112
 30
0.0
 10
629.9176571038643
 20
469.1476521191517
 30
0.0
  0
LINE
  5
200
330
1F
100
AcDbEntity
  8
0
  6
Continuous
 62
     8
370
    18
100
AcDbLine
 10
619.5411952614
 20
481.7595667266
 30
0.0
 11
619.338410622
 21
481.7627178967
 31
0.0
  0
LINE
  5
201
330
1F
100
AcDbEntity
  8
0
  6
Continuous
 62
     8
370
    18
100
AcDbLine
 10
629.5734564415
 20
481.6742593526
 30
0.0
 11
629.5764428466
 21
481.6801898209
 31
0.0
  0
SPLINE
  5
202
330
1F
100
AcDbEntity
  8
0
  6
Continuous
 62
     8
370
    18
100
AcDbSpline
210
0.0
220
0.0
230
1.0
 70
     8
 71
     3
 72
    12
 73
     8
 74
     0
 42
0.000000001
 43
0.00000001
 40
0.0
 40
0.0
 40
0.0
 40
0.0
 40
0.1776000450956903
 40
0.4749031270743987
 40
0.6502159637282536
 40
0.823563714438912
 40
0.9999999999999999
 40
0.9999999999999999
 40
0.9999999999999999
 40
0.9999999999999999
 10
619.5421818778763
 20
481.759551480838
 30
0.0
 10
619.6106077063607
 20
481.7584890877849
 30
0.0
 10
619.7935786053963
 20
481.7556482451332
 30
0.0
 10
620.9988635434445
 20
481.7368965968305
 30
0.0
 10
622.6309477439721
 20
481.7145497983125
 30
0.0
 10
624.2735701257608
 20
481.6941996300154
 30
0.0
 10
625.614978297042
 20
481.6825770933191
 30
0.0
 10
626.2916045881809
 20
481.6767145124381
 30
0.0
  0
LINE
  5
203
330
1F
100
AcDbEntity
  8
0
  6
Continuous
 62
     8
370
    18
100
AcDbLine
 10
454.0306174611
 20
482.3521235557
 30
0.0
 11
454.0306174611
 21
492.1211853979
 31
0.0
  0
LINE
  5
204
330
1F
100
AcDbEntity
  8
0
  6
Continuous
 62
     8
370
    18
100
AcDbLine
 10
423.9306174611
 20
455.1211853979
 30
0.0
 11
423.9306174611
 21
455.8233464801
 31
0.0
  0
LWPOLYLINE
  5
205
330
1F
100
AcDbEntity
  8
0
  6
Continuous
 62
     8
370
    18
100
AcDbPolyline
 90
        9
 70
   128
 43
0.0
 10
423.7306174611
 20
455.2429245283
 10
423.734460405
 20
455.2191744022
 10
423.7458415546
 20
455.1963369801
 10
423.7643235386
 20
455.1752898913
 10
423.7891961048
 20
455.1568419637
 10
423.8195034145
 20
455.1417021408
 10
423.8540807746
 20
455.1304522374
 10
423.8915993967
 20
455.1235245812
 10
423.9306174611
 20
455.1211853979
  0
LINE
  5
206
330
1F
100
AcDbEntity
  8
0
  6
Continuous
 62
     8
370
    18
100
AcDbLine
 10
415.682193589
 20
491.4304267182
 30
0.0
 11
415.682193589
 21
482.4672043321
 31
0.0
  0
LINE
  5
207
330
1F
100
AcDbEntity
  8
0
  6
Continuous
 62
     8
370
    18
100
AcDbLine
 10
415.682193589
 20
455.7929442298
 30
0.0
 11
415.682193589
 21
446.8119440776
 31
0.0
  0
SPLINE
  5
208
330
1F
100
AcDbEntity
  8
0
  6
Continuous
 62
     8
370
    18
100
AcDbSpline
210
0.0
220
0.0
230
1.0
 70
    24
 71
     3
 72
    12
 73
     8
 74
     0
 42
0.000000001
 43
0.00000001
 40
0.0
 40
0.0
 40
0.0
 40
0.0
 40
0.1875405445562195
 40
0.3885623503660739
 40
0.5903154570199171
 40
0.7947998536840208
 40
1.0
 40
1.0
 40
1.0
 40
1.0
 10
454.0306174610486
 20
455.9427042360994
 30
0.0
 10
454.0306174610478
 20
454.4615887238284
 30
0.0
 10
454.0306174610464
 20
451.3928884277218
 30
0.0
 10
454.0306174610441
 20
446.6435419059108
 30
0.0
 10
454.0306174610424
 20
441.700708693879
 30
0.0
 10
454.0306174610452
 20
436.6767798139783
 30
0.0
 10
454.0306174610494
 20
433.2971822774762
 30
0.0
 10
454.0306174610515
 20
431.6044313039227
 30
0.0
  0
LINE
  5
209
330
1F
100
AcDbEntity
  8
0
  6
Continuous
 62
     8
370
    18
100
AcDbLine
 10
415.7436974631
 20
491.3596746044
 30
0.0
 11
415.7436974631
 21
482.4679354654
 31
0.0
  0
LINE
  5
20A
330
1F
100
AcDbEntity
  8
0
  6
Continuous
 62
     8
370
    18
100
AcDbLine
 10
415.7436974631
 20
455.7910277828
 30
0.0
 11
415.7436974631
 21
446.8826961914
 31
0.0
  0
SPLINE
  5
20B
330
1F
100
AcDbEntity
  8
0
  6
Continuous
 62
     8
370
    18
100
AcDbSpline
210
0.0
220
0.0
230
1.0
 70
     8
 71
     3
 72
    65
 73
    61
 74
     0
 42
0.000000001
 43
0.00000001
 40
0.0
 40
0.0
 40
0.0
 40
0.0
 40
0.0736009160735806
 40
0.1099455602700334
 40
0.1212862546867691
 40
0.1447299607396531
 40
0.1775652142682242
 40
0.1887427763373308
 40
0.2113286728618319
 40
0.2453600237466763
 40
0.2578026137967949
 40
0.2781513789881151
 40
0.2982917346572941
 40
0.304746867358668
 40
0.3176269717187034
 40
0.3308350742780862
 40
0.3374752025526594
 40
0.3508335858566413
 40
0.369665756545721
 40
0.3758795492880124
 40
0.4144224610312808
 40
0.4336827036162356
 40
0.4400137021799707
 40
0.4542886915188109
 40
0.4680724240113813
 40
0.4716378718618489
 40
0.4787792289382361
 40
0.4891332340738184
 40
0.4962812546286136
 40
0.5010230082992079
 40
0.505523848645115
 40
0.5103425564182256
 40
0.5242854797710045
 40
0.5312951562265994
 40
0.5336794612152533
 40
0.5427739517770076
 40
0.5524753330292479
 40
0.5571527235990307
 40
0.5660635891302571
 40
0.5758355621288646
 40
0.5806196614422766
 40
0.594585828805986
 40
0.6042073919446712
 40
0.6091971606939175
 40
0.6315105655733206
 40
0.65083027182927
 40
0.6618527447002143
 40
0.6832316447832909
 40
0.7022493974557532
 40
0.7128992928249777
 40
0.7355657214714592
 40
0.7568029809110461
 40
0.7780000480901629
 40
0.8300077731965633
 40
0.8494456883823935
 40
0.8554657945140137
 40
0.8807402379906777
 40
0.9326175262693015
 40
0.9588115888212762
 40
1.0
 40
1.0
 40
1.0
 40
1.0
 10
455.530130274158
 20
385.8146407795302
 30
0.0
 10
455.530141485985
 20
385.7603930028697
 30
0.0
 10
455.5301582342902
 20
385.6793572968414
 30
0.0
 10
455.530220331832
 20
385.5899715431627
 30
0.0
 10
455.5302647226125
 20
385.5375594840767
 30
0.0
 10
455.5303120332379
 20
385.4877411695514
 30
0.0
 10
455.5303635395605
 20
385.4380624827515
 30
0.0
 10
455.5304123558848
 20
385.3890458293778
 30
0.0
 10
455.5304584111175
 20
385.3391760490662
 30
0.0
 10
455.530493300797
 20
385.2884409288375
 30
0.0
 10
455.5305075361305
 20
385.2394333073957
 30
0.0
 10
455.5305065860559
 20
385.2006682736538
 30
0.0
 10
455.5304898167639
 20
385.1663696063229
 30
0.0
 10
455.5304654104394
 20
385.1375877559929
 30
0.0
 10
455.5304388766145
 20
385.1138988387422
 30
0.0
 10
455.5304026744315
 20
385.0901369503757
 30
0.0
 10
455.5303579737424
 20
385.0660839957123
 30
0.0
 10
455.530295835461
 20
385.038027488866
 30
0.0
 10
455.5302176806468
 20
385.010408347178
 30
0.0
 10
455.530064553858
 20
384.9648863236243
 30
0.0
 10
455.5298693420038
 20
384.9194454667887
 30
0.0
 10
455.5296248776531
 20
384.8748488615508
 30
0.0
 10
455.5294636760511
 20
384.8474934079148
 30
0.0
 10
455.5293210817286
 20
384.8242020877537
 30
0.0
 10
455.5291845748729
 20
384.8032155480299
 30
0.0
 10
455.5290763318955
 20
384.7871978430109
 30
0.0
 10
455.5289854769127
 20
384.773606360501
 30
0.0
 10
455.5288988235289
 20
384.7583332851447
 30
0.0
 10
455.5288557036793
 20
384.7455599044232
 30
0.0
 10
455.5288506355491
 20
384.7369275847977
 30
0.0
 10
455.5288594505191
 20
384.7299703826606
 30
0.0
 10
455.5288943212616
 20
384.7192031365323
 30
0.0
 10
455.5289709130145
 20
384.7088075501819
 30
0.0
 10
455.5290621082011
 20
384.7006362138661
 30
0.0
 10
455.5291391247391
 20
384.6945129917571
 30
0.0
 10
455.5292332650325
 20
384.6879702876085
 30
0.0
 10
455.5293381875391
 20
384.6812727899064
 30
0.0
 10
455.5294380823547
 20
384.6748966568291
 30
0.0
 10
455.5295297708126
 20
384.6686110568544
 30
0.0
 10
455.5296190604961
 20
384.662718222533
 30
0.0
 10
455.5297234799924
 20
384.6558998545077
 30
0.0
 10
455.5298221272581
 20
384.6495504393988
 30
0.0
 10
455.5299141567897
 20
384.6436528121083
 30
0.0
 10
455.5300264477912
 20
384.6363890208732
 30
0.0
 10
455.5301526224071
 20
384.6280356799695
 30
0.0
 10
455.5302676089563
 20
384.6198183215091
 30
0.0
 10
455.530360468712
 20
384.6124931967412
 30
0.0
 10
455.530433806854
 20
384.606008858123
 30
0.0
 10
455.5304850801085
 20
384.6004578123146
 30
0.0
 10
455.5305233224022
 20
384.595384802129
 30
0.0
 10
455.5305466185483
 20
384.5907561320789
 30
0.0
 10
455.5305520925888
 20
384.5861568062971
 30
0.0
 10
455.5305316980528
 20
384.5805850523384
 30
0.0
 10
455.5304753789386
 20
384.576859470676
 30
0.0
 10
455.5304137251275
 20
384.5747650880298
 30
0.0
 10
455.5303713615065
 20
384.5736098302764
 30
0.0
 10
455.5302996773311
 20
384.5721658120148
 30
0.0
 10
455.5302087326654
 20
384.5713957552812
 30
0.0
 10
455.5301127207633
 20
384.5711500991143
 30
0.0
 10
455.5300644935879
 20
384.5711721963485
 30
0.0
 10
455.5300350141012
 20
384.5711857035695
 30
0.0
  0
LINE
  5
20C
330
1F
100
AcDbEntity
  8
0
  6
Continuous
 62
     8
370
    18
100
AcDbLine
 10
455.5297838961
 20
426.3190748861
 30
0.0
 11
455.5297838961
 21
385.8146404431
 31
0.0
  0
SPLINE
  5
20D
330
1F
100
AcDbEntity
  8
0
  6
Continuous
 62
     8
370
    18
100
AcDbSpline
210
0.0
220
0.0
230
1.0
 70
     8
 71
     3
 72
    12
 73
     8
 74
     0
 42
0.000000001
 43
0.00000001
 40
0.0
 40
0.0
 40
0.0
 40
0.0
 40
0.1999975921096629
 40
0.3999984185790549
 40
0.6000006443274957
 40
0.8000011564866614
 40
1.0
 40
1.0
 40
1.0
 40
1.0
 10
455.5298946853812
 20
431.6378014830358
 30
0.0
 10
455.529866446003
 20
431.2832739170911
 30
0.0
 10
455.5298099667899
 20
430.5742130517843
 30
0.0
 10
455.5297072864055
 20
429.5104725656005
 30
0.0
 10
455.5296149529076
 20
428.4466887267048
 30
0.0
 10
455.5295438532605
 20
427.3828823175148
 30
0.0
 10
455.5295421641529
 20
426.6736762223296
 30
0.0
 10
455.5295413196027
 20
426.3190746540066
 30
0.0
  0
SPLINE
  5
20E
330
1F
100
AcDbEntity
  8
0
  6
Continuous
 62
     8
370
    18
100
AcDbSpline
210
0.0
220
0.0
230
1.0
 70
     8
 71
     3
 72
     8
 73
     4
 74
     0
 42
0.000000001
 43
0.00000001
 40
0.0
 40
0.0
 40
0.0
 40
0.0
 40
1.0
 40
1.0
 40
1.0
 40
1.0
 10
431.6584451592254
 20
446.3779110743016
 30
0.0
 10
431.6466063827087
 20
446.3779741205656
 30
0.0
 10
431.6347639762348
 20
446.3780331056201
 30
0.0
 10
431.6229181568754
 20
446.3780882723261
 30
0.0
  0
SPLINE
  5
20F
330
1F
100
AcDbEntity
  8
0
  6
Continuous
 62
     8
370
    18
100
AcDbSpline
210
0.0
220
0.0
230
1.0
 70
     8
 71
     3
 72
    25
 73
    21
 74
     0
 42
0.000000001
 43
0.00000001
 40
0.0
 40
0.0
 40
0.0
 40
0.0
 40
0.0344816234210446
 40
0.0692254048785985
 40
0.1040273775755025
 40
0.1388487605605632
 40
0.1907858958830817
 40
0.2420409700568495
 40
0.2676656901353692
 40
0.3968736403236367
 40
0.4997240909487109
 40
0.5491753706665122
 40
0.6471296674238534
 40
0.6958259450493665
 40
0.7454179200298464
 40
0.8191125742051493
 40
0.8562646581800973
 40
0.8931431689269465
 40
0.9466799412860348
 40
1.0
 40
1.0
 40
1.0
 40
1.0
 10
431.622918159506
 20
446.3780883851825
 30
0.0
 10
431.5609630024965
 20
446.378170528198
 30
0.0
 10
431.4365816537436
 20
446.3783354387488
 30
0.0
 10
431.2502320388048
 20
446.3760761042076
 30
0.0
 10
431.0644230876945
 20
446.3722146451756
 30
0.0
 10
430.8499958121301
 20
446.3658469633648
 30
0.0
 10
430.6102162725447
 20
446.3562880146184
 30
0.0
 10
430.3920241710332
 20
446.3451015209217
 30
0.0
 10
430.0515228341102
 20
446.3249133568927
 30
0.0
 10
429.6478756178718
 20
446.2941681903983
 30
0.0
 10
429.2620320351369
 20
446.2564470035074
 30
0.0
 10
428.9572721571822
 20
446.2229864788706
 30
0.0
 10
428.7489218979578
 20
446.1976588771867
 30
0.0
 10
428.5751664227811
 20
446.175037431138
 30
0.0
 10
428.4438918972967
 20
446.1572435602072
 30
0.0
 10
428.34702828043
 20
446.1435441675198
 30
0.0
 10
428.2799899874724
 20
446.1338483774772
 30
0.0
 10
428.2353508663517
 20
446.1273129066695
 30
0.0
 10
428.2015645264827
 20
446.1223138929322
 30
0.0
 10
428.1969572202607
 20
446.1216248365951
 30
0.0
 10
428.1946582391305
 20
446.1212810071554
 30
0.0
  0
SPLINE
  5
210
330
1F
100
AcDbEntity
  8
0
  6
Continuous
 62
     8
370
    18
100
AcDbSpline
210
0.0
220
0.0
230
1.0
 70
     8
 71
     3
 72
     9
 73
     5
 74
     0
 42
0.000000001
 43
0.00000001
 40
0.0
 40
0.0
 40
0.0
 40
0.0
 40
0.4998653183765818
 40
1.0
 40
1.0
 40
1.0
 40
1.0
 10
431.6569546119095
 20
446.3776007186913
 30
0.0
 10
431.8256984009493
 20
446.376787264393
 30
0.0
 10
432.1632769102723
 20
446.3751599174489
 30
0.0
 10
432.5006725113209
 20
446.3639295260755
 30
0.0
 10
432.6694157528326
 20
446.3583128178614
 30
0.0
  0
SPLINE
  5
211
330
1F
100
AcDbEntity
  8
0
  6
Continuous
 62
     8
370
    18
100
AcDbSpline
210
0.0
220
0.0
230
1.0
 70
     8
 71
     3
 72
    27
 73
    23
 74
     0
 42
0.000000001
 43
0.00000001
 40
0.0
 40
0.0
 40
0.0
 40
0.0
 40
0.0604321750488524
 40
0.1209472847794314
 40
0.2616532968699727
 40
0.3444461829975424
 40
0.3819373252617271
 40
0.3986597332798097
 40
0.4060634585227012
 40
0.4119007714557837
 40
0.4119800115605259
 40
0.4126343225845331
 40
0.4144786524816911
 40
0.4214980110176007
 40
0.4488431133704794
 40
0.5231736048656186
 40
0.6019768111695643
 40
0.6616975518536464
 40
0.7118940331261184
 40
0.8269771754589585
 40
0.9444372851462925
 40
1.0
 40
1.0
 40
1.0
 40
1.0
 10
436.7135425064176
 20
445.8613532357237
 30
0.0
 10
437.1709649783558
 20
445.7535036595773
 30
0.0
 10
438.0864376703996
 20
445.5376564988725
 30
0.0
 10
440.018943798308
 20
444.8978807978077
 30
0.0
 10
442.0290177491216
 20
443.9509928370407
 30
0.0
 10
443.7094512655578
 20
442.8060599430203
 30
0.0
 10
444.5347382910788
 20
442.1321936912741
 30
0.0
 10
444.8934537517591
 20
441.8147560789484
 30
0.0
 10
445.0651361147334
 20
441.6573608373087
 30
0.0
 10
445.1407559798482
 20
441.586633270203
 30
0.0
 10
445.1779245422788
 20
441.5516014321672
 30
0.0
 10
445.1925042713544
 20
441.5378555555556
 30
0.0
 10
445.2462373956034
 20
441.4869995409429
 30
0.0
 10
445.4493864552929
 20
441.2921956350879
 30
0.0
 10
446.0441794625398
 20
440.6918744658744
 30
0.0
 10
446.9553090104083
 20
439.6211273310325
 30
0.0
 10
447.8823956501196
 20
438.2463061337196
 30
0.0
 10
448.5802408005538
 20
436.9542771485042
 30
0.0
 10
449.2976477218598
 20
435.3575193177247
 30
0.0
 10
449.9676875555485
 20
433.2592104307492
 30
0.0
 10
450.4223448079139
 20
431.055149510275
 30
0.0
 10
450.4874744656687
 20
429.7108633056164
 30
0.0
 10
450.5083895132178
 20
429.2791734908804
 30
0.0
  0
SPLINE
  5
212
330
1F
100
AcDbEntity
  8
0
  6
Continuous
 62
     8
370
    18
100
AcDbSpline
210
0.0
220
0.0
230
1.0
 70
    24
 71
     3
 72
    10
 73
     6
 74
     0
 42
0.000000001
 43
0.00000001
 40
0.0
 40
0.0
 40
0.0
 40
0.0
 40
0.5
 40
0.5
 40
1.0
 40
1.0
 40
1.0
 40
1.0
 10
454.0306174610579
 20
431.6044313039227
 30
0.0
 10
454.0306174610579
 20
430.7178972719462
 30
0.0
 10
454.0306174610579
 20
429.8364999650061
 30
0.0
 10
454.0306174610579
 20
428.0741327392651
 30
0.0
 10
454.0306174610579
 20
427.1930371875691
 30
0.0
 10
454.0306174610579
 20
426.3114827385
 30
0.0
  0
LINE
  5
213
330
1F
100
AcDbEntity
  8
0
  6
Continuous
 62
     8
370
    18
100
AcDbLine
 10
454.0306174611
 20
426.3114827385
 30
0.0
 11
454.0306174611
 21
385.8070482956
 31
0.0
  0
SPLINE
  5
214
330
1F
100
AcDbEntity
  8
0
  6
Continuous
 62
     8
370
    18
100
AcDbSpline
210
0.0
220
0.0
230
1.0
 70
    24
 71
     3
 72
    22
 73
    18
 74
     0
 42
0.000000001
 43
0.00000001
 40
0.0
 40
0.0
 40
0.0
 40
0.0
 40
0.125
 40
0.125
 40
0.25
 40
0.25
 40
0.375
 40
0.375
 40
0.5
 40
0.5
 40
0.625
 40
0.625
 40
0.75
 40
0.75
 40
0.875
 40
0.875
 40
1.0
 40
1.0
 40
1.0
 40
1.0
 10
454.0306174610642
 20
385.8070482955586
 30
0.0
 10
454.0306174610642
 20
385.6186566825796
 30
0.0
 10
454.0306174610643
 20
385.4292355036752
 30
0.0
 10
454.0306174610642
 20
385.0470550215372
 30
0.0
 10
454.0306174610642
 20
384.8547360518709
 30
0.0
 10
454.0306174610642
 20
384.4831452408646
 30
0.0
 10
454.0306174610642
 20
384.3043137330917
 30
0.0
 10
454.0306174610642
 20
383.9796566695109
 30
0.0
 10
454.0306174610642
 20
383.8342714472701
 30
0.0
 10
454.0306174610642
 20
383.5868293423595
 30
0.0
 10
454.0306174610642
 20
383.4841265949343
 30
0.0
 10
454.0306174610642
 20
383.3198967642809
 30
0.0
 10
454.0306174610642
 20
383.2584829458474
 30
0.0
 10
454.0306174610642
 20
383.1720961044899
 30
0.0
 10
454.0306174610642
 20
383.1472363463606
 30
0.0
 10
454.0306174610642
 20
383.1217243606699
 30
0.0
 10
454.0306174610642
 20
383.1211853979034
 30
0.0
 10
454.0306174610642
 20
383.1211853979034
 30
0.0
  0
LINE
  5
215
330
1F
100
AcDbEntity
  8
0
  6
Continuous
 62
     8
370
    18
100
AcDbLine
 10
430.949198828
 20
445.370638028
 30
0.0
 11
437.9400328039
 21
445.370638028
 31
0.0
  0
LINE
  5
216
330
1F
100
AcDbEntity
  8
0
  6
Continuous
 62
     8
370
    18
100
AcDbLine
 10
438.0554711918
 20
445.2404629519
 30
0.0
 11
439.1462814077
 21
444.8408045202
 31
0.0
  0
LINE
  5
217
330
1F
100
AcDbEntity
  8
0
  6
Continuous
 62
     8
370
    18
100
AcDbLine
 10
450.2627573444
 20
431.217293249
 30
0.0
 11
450.4985498065
 21
429.2731231461
 31
0.0
  0
ENDSEC
  0
SECTION
  2
OBJECTS
  0
DICTIONARY
  5
C
330
0
100
AcDbDictionary
281
     1
  3
ACAD_GROUP
350
D
  3
ACAD_LAYOUT
350
1A
  3
ACAD_MLINESTYLE
350
17
  3
ACAD_PLOTSETTINGS
350
19
  3
ACAD_PLOTSTYLENAME
350
E
  3
ACAD_SCALELIST
350
47
  0
DICTIONARY
  5
D
102
{ACAD_REACTORS
330
C
102
}
330
C
100
AcDbDictionary
281
     1
  0
DICTIONARY
  5
1A
102
{ACAD_REACTORS
330
C
102
}
330
C
100
AcDbDictionary
281
     1
  3
Layout1
350
1E
  3
Layout2
350
26
  3
Model
350
22
  0
DICTIONARY
  5
17
102
{ACAD_REACTORS
330
C
102
}
330
C
100
AcDbDictionary
281
     1
  3
Standard
350
18
  0
DICTIONARY
  5
19
102
{ACAD_REACTORS
330
C
102
}
330
C
100
AcDbDictionary
281
     1
  0
ACDBDICTIONARYWDFLT
  5
E
102
{ACAD_REACTORS
330
C
102
}
330
C
100
AcDbDictionary
281
     1
  3
Normal
350
F
100
AcDbDictionaryWithDefault
340
F
  0
DICTIONARY
  5
47
102
{ACAD_REACTORS
330
C
102
}
330
C
100
AcDbDictionary
281
     1
  3
A0
350
48
  3
A1
350
49
  3
A2
350
4A
  3
A3
350
4B
  3
A4
350
4C
  3
A5
350
4D
  3
A6
350
4E
  3
A7
350
4F
  3
A8
350
50
  3
A9
350
51
  3
B0
350
52
  3
B1
350
53
  3
B2
350
54
  3
B3
350
55
  3
B4
350
56
  3
B5
350
57
  3
B6
350
58
  3
B7
350
59
  3
B8
350
5A
  3
B9
350
5B
  3
C0
350
5C
  3
C1
350
5D
  3
C2
350
5E
  3
C3
350
5F
  3
C4
350
60
  3
C5
350
61
  3
C6
350
62
  3
C7
350
63
  3
C8
350
64
  3
C9
350
65
  3
D0
350
66
  3
D1
350
67
  3
D2
350
68
  0
LAYOUT
  5
1E
102
{ACAD_REACTORS
330
1A
102
}
330
1A
100
AcDbPlotSettings
  1

  2
none_device
  4

  6

 40
0.0
 41
0.0
 42
0.0
 43
0.0
 44
0.0
 45
0.0
 46
0.0
 47
0.0
 48
0.0
 49
0.0
140
0.0
141
0.0
142
1.0
143
1.0
 70
   688
 72
     1
 73
     0
 74
     5
  7

 75
    16
147
1.0
148
0.0
149
0.0
100
AcDbLayout
  1
Layout1
 70
     1
 71
     1
 10
0.0
 20
0.0
 11
420.0
 21
297.0
 12
0.0
 22
0.0
 32
0.0
 14
1.0000000000E+20
 24
1.0000000000E+20
 34
1.0000000000E+20
 15
-1.0000000000E+20
 25
-1.0000000000E+20
 35
-1.0000000000E+20
146
0.0
 13
0.0
 23
0.0
 33
0.0
 16
1.0
 26
0.0
 36
0.0
 17
0.0
 27
1.0
 37
0.0
 76
     0
330
1B
  0
LAYOUT
  5
26
102
{ACAD_REACTORS
330
1A
102
}
330
1A
100
AcDbPlotSettings
  1

  2
none_device
  4

  6

 40
0.0
 41
0.0
 42
0.0
 43
0.0
 44
0.0
 45
0.0
 46
0.0
 47
0.0
 48
0.0
 49
0.0
140
0.0
141
0.0
142
1.0
143
1.0
 70
   688
 72
     1
 73
     0
 74
     5
  7

 75
    16
147
1.0
148
0.0
149
0.0
100
AcDbLayout
  1
Layout2
 70
     1
 71
     2
 10
0.0
 20
0.0
 11
0.0
 21
0.0
 12
0.0
 22
0.0
 32
0.0
 14
0.0
 24
0.0
 34
0.0
 15
0.0
 25
0.0
 35
0.0
146
0.0
 13
0.0
 23
0.0
 33
0.0
 16
1.0
 26
0.0
 36
0.0
 17
0.0
 27
1.0
 37
0.0
 76
     0
330
23
  0
LAYOUT
  5
22
102
{ACAD_REACTORS
330
1A
102
}
330
1A
100
AcDbPlotSettings
  1

  2
none_device
  4
Letter_(8.50_x_11.00_Inches)
  6

 40
6.35
 41
6.35
 42
6.35000508
 43
6.35000508
 44
215.9
 45
279.4
 46
0.0
 47
0.0
 48
0.0
 49
0.0
140
0.0
141
0.0
142
1.0
143
1.0
 70
  1712
 72
     1
 73
     0
 74
     0
  7

 75
     0
147
1.0
148
0.0
149
0.0
100
AcDbLayout
  1
Model
 70
     1
 71
     0
 10
0.0
 20
0.0
 11
841.0
 21
594.0
 12
0.0
 22
0.0
 32
0.0
 14
0.0
 24
0.0
 34
0.0
 15
841.0
 25
594.0
 35
0.0
146
0.0
 13
0.0
 23
0.0
 33
0.0
 16
1.0
 26
0.0
 36
0.0
 17
0.0
 27
1.0
 37
0.0
 76
     0
330
1F
331
29
  0
MLINESTYLE
  5
18
102
{ACAD_REACTORS
330
17
102
}
330
17
100
AcDbMlineStyle
  2
Standard
 70
     0
  3

 62
   256
 51
90.0
 52
90.0
 71
     2
 49
0.5
 62
   256
  6
BYLAYER
 49
-0.5
 62
   256
  6
BYLAYER
  0
ACDBPLACEHOLDER
  5
F
102
{ACAD_REACTORS
330
E
102
}
330
E
  0
SCALE
  5
48
102
{ACAD_REACTORS
330
47
102
}
330
47
100
AcDbScale
 70
     0
300
1:1
140
1.0
141
1.0
290
     1
  0
SCALE
  5
49
102
{ACAD_REACTORS
330
47
102
}
330
47
100
AcDbScale
 70
     0
300
1:2
140
1.0
141
2.0
290
     0
  0
SCALE
  5
4A
102
{ACAD_REACTORS
330
47
102
}
330
47
100
AcDbScale
 70
     0
300
1:4
140
1.0
141
4.0
290
     0
  0
SCALE
  5
4B
102
{ACAD_REACTORS
330
47
102
}
330
47
100
AcDbScale
 70
     0
300
1:5
140
1.0
141
5.0
290
     0
  0
SCALE
  5
4C
102
{ACAD_REACTORS
330
47
102
}
330
47
100
AcDbScale
 70
     0
300
1:8
140
1.0
141
8.0
290
     0
  0
SCALE
  5
4D
102
{ACAD_REACTORS
330
47
102
}
330
47
100
AcDbScale
 70
     0
300
1:10
140
1.0
141
10.0
290
     0
  0
SCALE
  5
4E
102
{ACAD_REACTORS
330
47
102
}
330
47
100
AcDbScale
 70
     0
300
1:16
140
1.0
141
16.0
290
     0
  0
SCALE
  5
4F
102
{ACAD_REACTORS
330
47
102
}
330
47
100
AcDbScale
 70
     0
300
1:20
140
1.0
141
20.0
290
     0
  0
SCALE
  5
50
102
{ACAD_REACTORS
330
47
102
}
330
47
100
AcDbScale
 70
     0
300
1:30
140
1.0
141
30.0
290
     0
  0
SCALE
  5
51
102
{ACAD_REACTORS
330
47
102
}
330
47
100
AcDbScale
 70
     0
300
1:40
140
1.0
141
40.0
290
     0
  0
SCALE
  5
52
102
{ACAD_REACTORS
330
47
102
}
330
47
100
AcDbScale
 70
     0
300
1:50
140
1.0
141
50.0
290
     0
  0
SCALE
  5
53
102
{ACAD_REACTORS
330
47
102
}
330
47
100
AcDbScale
 70
     0
300
1:100
140
1.0
141
100.0
290
     0
  0
SCALE
  5
54
102
{ACAD_REACTORS
330
47
102
}
330
47
100
AcDbScale
 70
     0
300
2:1
140
2.0
141
1.0
290
     0
  0
SCALE
  5
55
102
{ACAD_REACTORS
330
47
102
}
330
47
100
AcDbScale
 70
     0
300
4:1
140
4.0
141
1.0
290
     0
  0
SCALE
  5
56
102
{ACAD_REACTORS
330
47
102
}
330
47
100
AcDbScale
 70
     0
300
8:1
140
8.0
141
1.0
290
     0
  0
SCALE
  5
57
102
{ACAD_REACTORS
330
47
102
}
330
47
100
AcDbScale
 70
     0
300
10:1
140
10.0
141
1.0
290
     0
  0
SCALE
  5
58
102
{ACAD_REACTORS
330
47
102
}
330
47
100
AcDbScale
 70
     0
300
100:1
140
100.0
141
1.0
290
     0
  0
SCALE
  5
59
102
{ACAD_REACTORS
330
47
102
}
330
47
100
AcDbScale
 70
     0
300
1/128" = 1'-0"
140
0.0078125
141
12.0
290
     0
  0
SCALE
  5
5A
102
{ACAD_REACTORS
330
47
102
}
330
47
100
AcDbScale
 70
     0
300
1/64" = 1'-0"
140
0.015625
141
12.0
290
     0
  0
SCALE
  5
5B
102
{ACAD_REACTORS
330
47
102
}
330
47
100
AcDbScale
 70
     0
300
1/32" = 1'-0"
140
0.03125
141
12.0
290
     0
  0
SCALE
  5
5C
102
{ACAD_REACTORS
330
47
102
}
330
47
100
AcDbScale
 70
     0
300
1/16" = 1'-0"
140
0.0625
141
12.0
290
     0
  0
SCALE
  5
5D
102
{ACAD_REACTORS
330
47
102
}
330
47
100
AcDbScale
 70
     0
300
3/32" = 1'-0"
140
0.09375
141
12.0
290
     0
  0
SCALE
  5
5E
102
{ACAD_REACTORS
330
47
102
}
330
47
100
AcDbScale
 70
     0
300
1/8" = 1'-0"
140
0.125
141
12.0
290
     0
  0
SCALE
  5
5F
102
{ACAD_REACTORS
330
47
102
}
330
47
100
AcDbScale
 70
     0
300
3/16" = 1'-0"
140
0.1875
141
12.0
290
     0
  0
SCALE
  5
60
102
{ACAD_REACTORS
330
47
102
}
330
47
100
AcDbScale
 70
     0
300
1/4" = 1'-0"
140
0.25
141
12.0
290
     0
  0
SCALE
  5
61
102
{ACAD_REACTORS
330
47
102
}
330
47
100
AcDbScale
 70
     0
300
3/8" = 1'-0"
140
0.375
141
12.0
290
     0
  0
SCALE
  5
62
102
{ACAD_REACTORS
330
47
102
}
330
47
100
AcDbScale
 70
     0
300
1/2" = 1'-0"
140
0.5
141
12.0
290
     0
  0
SCALE
  5
63
102
{ACAD_REACTORS
330
47
102
}
330
47
100
AcDbScale
 70
     0
300
3/4" = 1'-0"
140
0.75
141
12.0
290
     0
  0
SCALE
  5
64
102
{ACAD_REACTORS
330
47
102
}
330
47
100
AcDbScale
 70
     0
300
1" = 1'-0"
140
1.0
141
12.0
290
     0
  0
SCALE
  5
65
102
{ACAD_REACTORS
330
47
102
}
330
47
100
AcDbScale
 70
     0
300
1-1/2" = 1'-0"
140
1.5
141
12.0
290
     0
  0
SCALE
  5
66
102
{ACAD_REACTORS
330
47
102
}
330
47
100
AcDbScale
 70
     0
300
3" = 1'-0"
140
3.0
141
12.0
290
     0
  0
SCALE
  5
67
102
{ACAD_REACTORS
330
47
102
}
330
47
100
AcDbScale
 70
     0
300
6" = 1'-0"
140
6.0
141
12.0
290
     0
  0
SCALE
  5
68
102
{ACAD_REACTORS
330
47
102
}
330
47
100
AcDbScale
 70
     0
300
1'-0" = 1'-0"
140
12.0
141
12.0
290
     0
  0
ENDSEC
  0
EOF
