  0
SECTION
  2
HEADER
  9
$ACADVER
  1
AC1015
  9
$ACADMAINTVER
 70
     6
  9
$DWGCODEPAGE
  3
ANSI_1252
  9
$INSBASE
 10
0.0
 20
0.0
 30
0.0
  9
$EXTMIN
 10
0.0
 20
0.0
 30
0.0
  9
$EXTMAX
 10
841.0
 20
594.0
 30
0.0
  9
$LIMMIN
 10
0.0
 20
0.0
  9
$LIMMAX
 10
841.0
 20
594.0
  9
$ORTHOMODE
 70
     0
  9
$REGENMODE
 70
     1
  9
$FILLMODE
 70
     1
  9
$QTEXTMODE
 70
     0
  9
$MIRRTEXT
 70
     1
  9
$LTSCALE
 40
1.0
  9
$ATTMODE
 70
     1
  9
$TEXTSIZE
 40
10.0
  9
$TRACEWID
 40
1.0
  9
$TEXTSTYLE
  7
Standard
  9
$CLAYER
  8
0
  9
$CELTYPE
  6
ByLayer
  9
$CECOLOR
 62
   256
  9
$CELTSCALE
 40
1.0
  9
$DISPSILH
 70
     0
  9
$DIMSCALE
 40
1.0
  9
$DIMASZ
 40
2.5
  9
$DIMEXO
 40
0.0
  9
$DIMDLI
 40
3.75
  9
$DIMRND
 40
0.0
  9
$DIMDLE
 40
0.0
  9
$DIMEXE
 40
1.0
  9
$DIMTP
 40
0.0
  9
$DIMTM
 40
0.0
  9
$DIMTXT
 40
3.5
  9
$DIMCEN
 40
2.5
  9
$DIMTSZ
 40
0.0
  9
$DIMTOL
 70
     0
  9
$DIMLIM
 70
     0
  9
$DIMTIH
 70
     1
  9
$DIMTOH
 70
     1
  9
$DIMSE1
 70
     0
  9
$DIMSE2
 70
     0
  9
$DIMTAD
 70
     1
  9
$DIMZIN
 70
     0
  9
$DIMBLK
  1

  9
$DIMASO
 70
     1
  9
$DIMSHO
 70
     1
  9
$DIMPOST
  1

  9
$DIMAPOST
  1

  9
$DIMALT
 70
     0
  9
$DIMALTD
 70
     3
  9
$DIMALTF
 40
0.0393700787
  9
$DIMLFAC
 40
1.0
  9
$DIMTOFL
 70
     1
  9
$DIMTVP
 40
0.0
  9
$DIMTIX
 70
     0
  9
$DIMSOXD
 70
     0
  9
$DIMSAH
 70
     0
  9
$DIMBLK1
  1

  9
$DIMBLK2
  1

  9
$DIMSTYLE
  2
ISO-25
  9
$DIMCLRD
 70
     0
  9
$DIMCLRE
 70
     0
  9
$DIMCLRT
 70
     0
  9
$DIMTFAC
 40
1.0
  9
$DIMGAP
 40
1.5
  9
$DIMJUST
 70
     0
  9
$DIMSD1
 70
     0
  9
$DIMSD2
 70
     0
  9
$DIMTOLJ
 70
     0
  9
$DIMTZIN
 70
     0
  9
$DIMALTZ
 70
     0
  9
$DIMALTTZ
 70
     0
  9
$DIMUPT
 70
     0
  9
$DIMDEC
 70
     2
  9
$DIMTDEC
 70
     2
  9
$DIMALTU
 70
     2
  9
$DIMALTTD
 70
     3
  9
$DIMTXSTY
  7
Standard
  9
$DIMAUNIT
 70
     0
  9
$DIMADEC
 70
     2
  9
$DIMALTRND
 40
0.0
  9
$DIMAZIN
 70
     0
  9
$DIMDSEP
 70
    44
  9
$DIMATFIT
 70
     3
  9
$DIMFRAC
 70
     0
  9
$DIMLDRBLK
  1

  9
$DIMLUNIT
 70
     2
  9
$DIMLWD
 70
    -2
  9
$DIMLWE
 70
    -2
  9
$DIMTMOVE
 70
     0
  9
$LUNITS
 70
     2
  9
$LUPREC
 70
     2
  9
$SKETCHINC
 40
1.0
  9
$FILLETRAD
 40
10.0
  9
$AUNITS
 70
     0
  9
$AUPREC
 70
     2
  9
$MENU
  1
.
  9
$ELEVATION
 40
0.0
  9
$PELEVATION
 40
0.0
  9
$THICKNESS
 40
0.0
  9
$LIMCHECK
 70
     0
  9
$CHAMFERA
 40
0.0
  9
$CHAMFERB
 40
0.0
  9
$CHAMFERC
 40
0.0
  9
$CHAMFERD
 40
0.0
  9
$SKPOLY
 70
     0
  9
$TDCREATE
 40
2457722.626222535
  9
$TDUCREATE
 40
2457722.584555868
  9
$TDUPDATE
 40
2457722.626223611
  9
$TDUUPDATE
 40
2457722.584556945
  9
$TDINDWG
 40
0.0000000116
  9
$TDUSRTIMER
 40
0.0000000116
  9
$USRTIMER
 70
     1
  9
$ANGBASE
 50
0.0
  9
$ANGDIR
 70
     0
  9
$PDMODE
 70
     0
  9
$PDSIZE
 40
-1.0
  9
$PLINEWID
 40
0.0
  9
$SPLFRAME
 70
     0
  9
$SPLINETYPE
 70
     6
  9
$SPLINESEGS
 70
     8
  9
$HANDSEED
  5
456
  9
$SURFTAB1
 70
     6
  9
$SURFTAB2
 70
     6
  9
$SURFTYPE
 70
     6
  9
$SURFU
 70
     6
  9
$SURFV
 70
     6
  9
$UCSBASE
  2

  9
$UCSNAME
  2

  9
$UCSORG
 10
0.0
 20
0.0
 30
0.0
  9
$UCSXDIR
 10
1.0
 20
0.0
 30
0.0
  9
$UCSYDIR
 10
0.0
 20
1.0
 30
0.0
  9
$UCSORTHOREF
  2

  9
$UCSORTHOVIEW
 70
     0
  9
$UCSORGTOP
 10
0.0
 20
0.0
 30
0.0
  9
$UCSORGBOTTOM
 10
0.0
 20
0.0
 30
0.0
  9
$UCSORGLEFT
 10
0.0
 20
0.0
 30
0.0
  9
$UCSORGRIGHT
 10
0.0
 20
0.0
 30
0.0
  9
$UCSORGFRONT
 10
0.0
 20
0.0
 30
0.0
  9
$UCSORGBACK
 10
0.0
 20
0.0
 30
0.0
  9
$PUCSBASE
  2

  9
$PUCSNAME
  2

  9
$PUCSORG
 10
0.0
 20
0.0
 30
0.0
  9
$PUCSXDIR
 10
1.0
 20
0.0
 30
0.0
  9
$PUCSYDIR
 10
0.0
 20
1.0
 30
0.0
  9
$PUCSORTHOREF
  2

  9
$PUCSORTHOVIEW
 70
     0
  9
$PUCSORGTOP
 10
0.0
 20
0.0
 30
0.0
  9
$PUCSORGBOTTOM
 10
0.0
 20
0.0
 30
0.0
  9
$PUCSORGLEFT
 10
0.0
 20
0.0
 30
0.0
  9
$PUCSORGRIGHT
 10
0.0
 20
0.0
 30
0.0
  9
$PUCSORGFRONT
 10
0.0
 20
0.0
 30
0.0
  9
$PUCSORGBACK
 10
0.0
 20
0.0
 30
0.0
  9
$USERI1
 70
     0
  9
$USERI2
 70
     0
  9
$USERI3
 70
     0
  9
$USERI4
 70
     0
  9
$USERI5
 70
     0
  9
$USERR1
 40
0.0
  9
$USERR2
 40
0.0
  9
$USERR3
 40
0.0
  9
$USERR4
 40
0.0
  9
$USERR5
 40
0.0
  9
$WORLDVIEW
 70
     1
  9
$SHADEDGE
 70
     3
  9
$SHADEDIF
 70
    70
  9
$TILEMODE
 70
     1
  9
$MAXACTVP
 70
    64
  9
$PINSBASE
 10
0.0
 20
0.0
 30
0.0
  9
$PLIMCHECK
 70
     0
  9
$PEXTMIN
 10
1.0000000000E+20
 20
1.0000000000E+20
 30
1.0000000000E+20
  9
$PEXTMAX
 10
-1.0000000000E+20
 20
-1.0000000000E+20
 30
-1.0000000000E+20
  9
$PLIMMIN
 10
0.0
 20
0.0
  9
$PLIMMAX
 10
420.0
 20
297.0
  9
$UNITMODE
 70
     0
  9
$VISRETAIN
 70
     1
  9
$PLINEGEN
 70
     0
  9
$PSLTSCALE
 70
     1
  9
$TREEDEPTH
 70
  3020
  9
$CMLSTYLE
  2
Standard
  9
$CMLJUST
 70
     0
  9
$CMLSCALE
 40
20.0
  9
$PROXYGRAPHICS
 70
     1
  9
$MEASUREMENT
 70
     1
  9
$CELWEIGHT
370
    -1
  9
$ENDCAPS
280
     0
  9
$JOINSTYLE
280
     0
  9
$LWDISPLAY
290
     1
  9
$INSUNITS
 70
     4
  9
$HYPERLINKBASE
  1

  9
$STYLESHEET
  1

  9
$XEDIT
290
     1
  9
$CEPSNTYPE
380
     0
  9
$PSTYLEMODE
290
     1
  9
$FINGERPRINTGUID
  2
{AF0CF158-EA3B-46A4-A9E7-C4119C66B909}
  9
$VERSIONGUID
  2
{FAEB1C32-E019-11D5-929B-00C0DF256EC4}
  9
$EXTNAMES
290
     1
  9
$PSVPSCALE
 40
0.0
  9
$OLESTARTUP
290
     0
  0
ENDSEC
  0
SECTION
  2
CLASSES
  0
CLASS
  1
ACDBDICTIONARYWDFLT
  2
AcDbDictionaryWithDefault
  3
ObjectDBX Classes
 90
        0
280
     0
281
     0
  0
CLASS
  1
VISUALSTYLE
  2
AcDbVisualStyle
  3
ObjectDBX Classes
 90
     4095
280
     0
281
     0
  0
CLASS
  1
MATERIAL
  2
AcDbMaterial
  3
ObjectDBX Classes
 90
     1153
280
     0
281
     0
  0
CLASS
  1
SCALE
  2
AcDbScale
  3
ObjectDBX Classes
 90
     1153
280
     0
281
     0
  0
CLASS
  1
TABLESTYLE
  2
AcDbTableStyle
  3
ObjectDBX Classes
 90
     4095
280
     0
281
     0
  0
CLASS
  1
MLEADERSTYLE
  2
AcDbMLeaderStyle
  3
ACDB_MLEADERSTYLE_CLASS
 90
     4095
280
     0
281
     0
  0
CLASS
  1
SUN
  2
AcDbSun
  3
SCENEOE
 90
     1153
280
     0
281
     0
  0
CLASS
  1
ACDBPLACEHOLDER
  2
AcDbPlaceHolder
  3
ObjectDBX Classes
 90
        0
280
     0
281
     0
  0
CLASS
  1
LAYOUT
  2
AcDbLayout
  3
ObjectDBX Classes
 90
        0
280
     0
281
     0
  0
ENDSEC
  0
SECTION
  2
TABLES
  0
TABLE
  2
VPORT
  5
8
330
0
100
AcDbSymbolTable
 70
     1
  0
VPORT
  5
29
330
8
100
AcDbSymbolTableRecord
100
AcDbViewportTableRecord
  2
*Active
 70
     0
 10
0.0
 20
0.0
 11
1.0
 21
1.0
 12
420.5
 22
297.0
 13
0.0
 23
0.0
 14
10.0
 24
10.0
 15
10.0
 25
10.0
 16
0.0
 26
0.0
 36
1.0
 17
0.0
 27
0.0
 37
0.0
 40
594.0
 41
1.4158249158
 42
50.0
 43
0.0
 44
0.0
 50
0.0
 51
0.0
 71
     0
 72
  2000
 73
     1
 74
     3
 75
     0
 76
     0
 77
     0
 78
     0
281
     0
 65
     1
110
0.0
120
0.0
130
0.0
111
1.0
121
0.0
131
0.0
112
0.0
122
1.0
132
0.0
 79
     0
146
0.0
  0
ENDTAB
  0
TABLE
  2
LTYPE
  5
5
330
0
100
AcDbSymbolTable
 70
     6
  0
LTYPE
  5
14
330
5
100
AcDbSymbolTableRecord
100
AcDbLinetypeTableRecord
  2
ByBlock
 70
     0
  3

 72
    65
 73
     0
 40
0.0
  0
LTYPE
  5
15
330
5
100
AcDbSymbolTableRecord
100
AcDbLinetypeTableRecord
  2
ByLayer
 70
     0
  3

 72
    65
 73
     0
 40
0.0
  0
LTYPE
  5
16
330
5
100
AcDbSymbolTableRecord
100
AcDbLinetypeTableRecord
  2
Continuous
 70
     0
  3
Solid line
 72
    65
 73
     0
 40
0.0
  0
LTYPE
  5
6E
330
5
100
AcDbSymbolTableRecord
100
AcDbLinetypeTableRecord
  2
HIDDEN
 70
     0
  3
Hidden __ __ __ __ __ __ __ __ __ __ __ __ __ __
 72
    65
 73
     2
 40
1.905
 49
1.27
 74
     0
 49
-0.635
 74
     0
  0
LTYPE
  5
6F
330
5
100
AcDbSymbolTableRecord
100
AcDbLinetypeTableRecord
  2
PHANTOM
 70
     0
  3
Phantom ______  __  __  ______  __  __  ______
 72
    65
 73
     6
 40
12.7
 49
6.35
 74
     0
 49
-1.27
 74
     0
 49
1.27
 74
     0
 49
-1.27
 74
     0
 49
1.27
 74
     0
 49
-1.27
 74
     0
  0
LTYPE
  5
70
330
5
100
AcDbSymbolTableRecord
100
AcDbLinetypeTableRecord
  2
CENTER
 70
     0
  3
Center ____ _ ____ _ ____ _ ____ _ ____ _ ____
 72
    65
 73
     4
 40
10.16
 49
6.35
 74
     0
 49
-1.27
 74
     0
 49
1.27
 74
     0
 49
-1.27
 74
     0
  0
LTYPE
  5
71
330
5
100
AcDbSymbolTableRecord
100
AcDbLinetypeTableRecord
  2
CENTERX2
 70
     0
  3
Center (2x) ________  __  ________  __  _____
 72
    65
 73
     4
 40
20.32
 49
12.7
 74
     0
 49
-2.54
 74
     0
 49
2.54
 74
     0
 49
-2.54
 74
     0
  0
LTYPE
  5
72
330
5
100
AcDbSymbolTableRecord
100
AcDbLinetypeTableRecord
  2
DOT2
 70
     0
  3
Dot (.5x) ........................................
 72
    65
 73
     2
 40
0.635
 49
0.0
 74
     0
 49
-0.635
 74
     0
  0
ENDTAB
  0
TABLE
  2
LAYER
  5
2
330
0
100
AcDbSymbolTable
 70
     1
  0
LAYER
  5
10
330
2
100
AcDbSymbolTableRecord
100
AcDbLayerTableRecord
  2
0
 70
     0
 62
     7
  6
Continuous
370
    -3
390
F
  0
ENDTAB
  0
TABLE
  2
STYLE
  5
3
330
0
100
AcDbSymbolTable
 70
     3
  0
STYLE
  5
11
330
3
100
AcDbSymbolTableRecord
100
AcDbTextStyleTableRecord
  2
Standard
 70
     0
 40
0.0
 41
1.0
 50
0.0
 71
     0
 42
10.0
  3
txt
  4

  0
STYLE
  5
76
330
3
100
AcDbSymbolTableRecord
100
AcDbTextStyleTableRecord
  2
SLDTEXTSTYLE0
 70
     0
 40
0.0
 41
0.96
 50
0.0
 71
     0
 42
10.0
  3
ISOCP3
  4

  0
STYLE
  5
8D
330
3
100
AcDbSymbolTableRecord
100
AcDbTextStyleTableRecord
  2
SLDTEXTSTYLE1
 70
     0
 40
0.0
 41
0.605
 50
0.0
 71
     0
 42
10.0
  3
TXT
  4

  0
ENDTAB
  0
TABLE
  2
VIEW
  5
6
330
0
100
AcDbSymbolTable
 70
     0
  0
ENDTAB
  0
TABLE
  2
UCS
  5
7
330
0
100
AcDbSymbolTable
 70
     0
  0
ENDTAB
  0
TABLE
  2
APPID
  5
9
330
0
100
AcDbSymbolTable
 70
     1
  0
APPID
  5
12
330
9
100
AcDbSymbolTableRecord
100
AcDbRegAppTableRecord
  2
ACAD
 70
     0
  0
ENDTAB
  0
TABLE
  2
DIMSTYLE
  5
A
330
0
100
AcDbSymbolTable
 70
     2
100
AcDbDimStyleTable
  0
DIMSTYLE
105
27
330
A
100
AcDbSymbolTableRecord
100
AcDbDimStyleTableRecord
  2
ISO-25
 70
     0
 41
2.5
 42
0.625
 43
3.75
 44
1.25
 73
     0
 74
     0
 77
     1
 78
     8
140
2.5
141
2.5
143
0.0393700787
147
0.625
171
     3
172
     1
178
     0
271
     2
272
     2
274
     3
278
    44
283
     0
284
     8
340
11
  0
DIMSTYLE
105
77
102
{ACAD_REACTORS
330
75
330
82
102
}
330
A
100
AcDbSymbolTableRecord
100
AcDbDimStyleTableRecord
  2
SLDDIMSTYLE0
 70
     0
 41
2.5
 44
0.0
 45
0.000000001
 73
     0
 74
     0
 77
     1
 78
    12
 79
     3
140
6.0
147
1.5
173
     1
178
     0
271
     2
272
     2
276
     2
284
    12
340
76
  0
ENDTAB
  0
TABLE
  2
BLOCK_RECORD
  5
1
330
0
100
AcDbSymbolTable
 70
     3
  0
BLOCK_RECORD
  5
1F
330
1
100
AcDbSymbolTableRecord
100
AcDbBlockTableRecord
  2
*Model_Space
340
22
  0
BLOCK_RECORD
  5
1B
330
1
100
AcDbSymbolTableRecord
100
AcDbBlockTableRecord
  2
*Paper_Space
340
1E
  0
BLOCK_RECORD
  5
23
330
1
100
AcDbSymbolTableRecord
100
AcDbBlockTableRecord
  2
*Paper_Space0
340
26
  0
BLOCK_RECORD
  5
78
330
1
100
AcDbSymbolTableRecord
100
AcDbBlockTableRecord
  2
_D
340
0
  0
BLOCK_RECORD
  5
83
330
1
100
AcDbSymbolTableRecord
100
AcDbBlockTableRecord
  2
_D_1
340
0
  0
ENDTAB
  0
ENDSEC
  0
SECTION
  2
BLOCKS
  0
BLOCK
  5
20
330
1F
100
AcDbEntity
  8
0
100
AcDbBlockBegin
  2
*Model_Space
 70
     0
 10
0.0
 20
0.0
 30
0.0
  3
*Model_Space
  1

  0
ENDBLK
  5
21
330
1F
100
AcDbEntity
  8
0
100
AcDbBlockEnd
  0
BLOCK
  5
1C
330
1B
100
AcDbEntity
 67
     1
  8
0
100
AcDbBlockBegin
  2
*Paper_Space
 70
     0
 10
0.0
 20
0.0
 30
0.0
  3
*Paper_Space
  1

  0
ENDBLK
  5
1D
330
1B
100
AcDbEntity
 67
     1
  8
0
100
AcDbBlockEnd
  0
BLOCK
  5
24
330
23
100
AcDbEntity
  8
0
100
AcDbBlockBegin
  2
*Paper_Space0
 70
     0
 10
0.0
 20
0.0
 30
0.0
  3
*Paper_Space0
  1

  0
ENDBLK
  5
25
330
23
100
AcDbEntity
  8
0
100
AcDbBlockEnd
  0
BLOCK
  5
79
330
78
100
AcDbEntity
  8
0
100
AcDbBlockBegin
  2
_D
 70
     0
 10
0.0
 20
0.0
 30
0.0
  3
_D
  1

  0
SOLID
  5
7B
330
78
100
AcDbEntity
  8
0
  6
Continuous
 62
     7
370
    18
100
AcDbTrace
 10
42.7614395004
 20
152.0299240879
 30
0.0
 11
42.4614395004
 21
149.5299240879
 31
0.0
 12
43.0614395004
 22
149.5299240879
 32
0.0
 13
43.0614395004
 23
149.5299240879
 33
0.0
  0
SOLID
  5
7C
330
78
100
AcDbEntity
  8
0
  6
Continuous
 62
     7
370
    18
100
AcDbTrace
 10
42.7614395004
 20
52.0299240879
 30
0.0
 11
43.0614395004
 21
54.5299240879
 31
0.0
 12
42.4614395004
 22
54.5299240879
 32
0.0
 13
42.4614395004
 23
54.5299240879
 33
0.0
  0
LINE
  5
7D
330
78
100
AcDbEntity
  8
0
  6
Continuous
 62
     7
370
    18
100
AcDbLine
 10
56.6850079902
 20
152.0299240879
 30
0.0
 11
41.7614395004
 21
152.0299240879
 31
0.0
  0
LINE
  5
7E
330
78
100
AcDbEntity
  8
0
  6
Continuous
 62
     7
370
    18
100
AcDbLine
 10
56.6850079902
 20
52.0299240879
 30
0.0
 11
41.7614395004
 21
52.0299240879
 31
0.0
  0
LINE
  5
7F
330
78
100
AcDbEntity
  8
0
  6
Continuous
 62
     7
370
    18
100
AcDbLine
 10
42.7614395004
 20
152.0299240879
 30
0.0
 11
42.7614395004
 21
52.0299240879
 31
0.0
  0
MTEXT
  5
80
330
78
100
AcDbEntity
  8
0
  6
Continuous
 62
     7
370
    18
100
AcDbMText
 10
35.0270332946
 20
94.3680541463
 30
0.0
 40
6.0
 41
0.0
 71
     1
 72
     1
  1
100
  7
SLDTEXTSTYLE0
 11
-7.044195017643634E-15
 21
1.0
 31
0.0
 73
     1
 44
1.0
  0
MTEXT
  5
81
330
78
100
AcDbEntity
  8
0
  6
Continuous
 62
     7
370
    18
100
AcDbMText
 10
35.0270332946
 20
105.7430548466
 30
0.0
 40
6.0
 41
0.0
 71
     1
 72
     1
  1
mm
  7
SLDTEXTSTYLE0
 11
-7.044195017643634E-15
 21
1.0
 31
0.0
 73
     1
 44
1.0
  0
ENDBLK
  5
7A
330
78
100
AcDbEntity
  8
0
100
AcDbBlockEnd
  0
BLOCK
  5
84
330
83
100
AcDbEntity
  8
0
100
AcDbBlockBegin
  2
_D_1
 70
     0
 10
0.0
 20
0.0
 30
0.0
  3
_D_1
  1

  0
SOLID
  5
86
330
83
100
AcDbEntity
  8
0
  6
Continuous
 62
     7
370
    18
100
AcDbTrace
 10
56.6850079902
 20
38.4602342313
 30
0.0
 11
59.1850079902
 21
38.1602342313
 31
0.0
 12
59.1850079902
 22
38.7602342313
 32
0.0
 13
59.1850079902
 23
38.7602342313
 33
0.0
  0
SOLID
  5
87
330
83
100
AcDbEntity
  8
0
  6
Continuous
 62
     7
370
    18
100
AcDbTrace
 10
156.6850079902
 20
38.4602342313
 30
0.0
 11
154.1850079902
 21
38.7602342313
 31
0.0
 12
154.1850079902
 22
38.1602342313
 32
0.0
 13
154.1850079902
 23
38.1602342313
 33
0.0
  0
LINE
  5
88
330
83
100
AcDbEntity
  8
0
  6
Continuous
 62
     7
370
    18
100
AcDbLine
 10
56.6850079902
 20
52.0299240879
 30
0.0
 11
56.6850079902
 21
37.4602342313
 31
0.0
  0
LINE
  5
89
330
83
100
AcDbEntity
  8
0
  6
Continuous
 62
     7
370
    18
100
AcDbLine
 10
156.6850079902
 20
52.0299240879
 30
0.0
 11
156.6850079902
 21
37.4602342313
 31
0.0
  0
LINE
  5
8A
330
83
100
AcDbEntity
  8
0
  6
Continuous
 62
     7
370
    18
100
AcDbLine
 10
56.6850079902
 20
38.4602342313
 30
0.0
 11
156.6850079902
 21
38.4602342313
 31
0.0
  0
MTEXT
  5
8B
330
83
100
AcDbEntity
  8
0
  6
Continuous
 62
     7
370
    18
100
AcDbMText
 10
93.9626484861
 20
46.1946404371
 30
0.0
 40
6.0
 41
0.0
 71
     1
 72
     1
  1
100
  7
SLDTEXTSTYLE0
 73
     1
 44
1.0
  0
MTEXT
  5
8C
330
83
100
AcDbEntity
  8
0
  6
Continuous
 62
     7
370
    18
100
AcDbMText
 10
105.3376491864
 20
46.1946404371
 30
0.0
 40
6.0
 41
0.0
 71
     1
 72
     1
  1
mm
  7
SLDTEXTSTYLE0
 73
     1
 44
1.0
  0
ENDBLK
  5
85
330
83
100
AcDbEntity
  8
0
100
AcDbBlockEnd
  0
ENDSEC
  0
SECTION
  2
ENTITIES
  0
LINE
  5
73
330
1F
100
AcDbEntity
  8
0
  6
Continuous
 62
     7
370
    18
100
AcDbLine
 10
56.6850079902
 20
152.0299240879
 30
0.0
 11
56.6850079902
 21
52.0299240879
 31
0.0
  0
LINE
  5
74
330
1F
100
AcDbEntity
  8
0
  6
Continuous
 62
     7
370
    18
100
AcDbLine
 10
56.6850079902
 20
52.0299240879
 30
0.0
 11
156.6850079902
 21
52.0299240879
 31
0.0
  0
DIMENSION
  5
75
330
1F
100
AcDbEntity
  8
0
  6
Continuous
 62
     7
370
    18
100
AcDbDimension
  2
_D
 10
42.7614395004
 20
52.0299240879
 30
0.0
 11
42.7614395004
 21
105.4472211621
 31
0.0
 70
   160
  1
<>mm
 71
     2
 42
-1.0
  3
SLDDIMSTYLE0
100
AcDbAlignedDimension
 13
56.6850079902
 23
152.0299240879
 33
0.0
 14
56.6850079902
 24
52.0299240879
 34
0.0
 50
90.0
100
AcDbRotatedDimension
  0
DIMENSION
  5
82
330
1F
100
AcDbEntity
  8
0
  6
Continuous
 62
     7
370
    18
100
AcDbDimension
  2
_D_1
 10
156.6850079902
 20
38.4602342313
 30
0.0
 11
105.0418155019
 21
38.4602342313
 31
0.0
 70
   160
  1
<>mm
 71
     2
 42
-1.0
  3
SLDDIMSTYLE0
100
AcDbAlignedDimension
 13
56.6850079902
 23
52.0299240879
 33
0.0
 14
156.6850079902
 24
52.0299240879
 34
0.0
100
AcDbRotatedDimension
  0
MTEXT
  5
8E
330
1F
100
AcDbEntity
  8
0
  6
Continuous
 62
     7
370
     0
100
AcDbMText
 10
664.658399795
 20
48.4342449499
 30
0.0
 40
10.0
 41
0.0
 71
     1
 72
     1
  1
KLUDI GmbH & Co KG
  7
SLDTEXTSTYLE1
 73
     1
 44
1.0
  0
MTEXT
  5
8F
330
1F
100
AcDbEntity
  8
0
  6
Continuous
 62
     7
370
     0
100
AcDbMText
 10
352.8258972247
 20
48.4342449499
 30
0.0
 40
10.0
 41
0.0
 71
     1
 72
     1
  1
29 747
  7
SLDTEXTSTYLE1
 73
     1
 44
1.0
  0
LINE
  5
90
330
1F
100
AcDbEntity
  8
0
  6
Continuous
 62
     7
370
    25
100
AcDbLine
 10
154.5047267635
 20
339.9514112248
 30
0.0
 11
154.5047267635
 21
322.9514103009
 31
0.0
  0
ARC
  5
91
330
1F
100
AcDbEntity
  8
0
  6
Continuous
 62
     7
370
    25
100
AcDbCircle
 10
155.5047273094
 20
322.9514112903
 30
0.0
 40
1.0
100
AcDbArc
 50
180.0
 51
270.0
  0
ARC
  5
92
330
1F
100
AcDbEntity
  8
0
  6
Continuous
 62
     7
370
    25
100
AcDbCircle
 10
155.5047273094
 20
339.9514112903
 30
0.0
 40
1.0
100
AcDbArc
 50
90.0
 51
180.0
  0
LINE
  5
93
330
1F
100
AcDbEntity
  8
0
  6
Continuous
 62
     7
370
    25
100
AcDbLine
 10
154.6233865727
 20
364.6514111756
 30
0.0
 11
154.6233865727
 21
353.1484029814
 31
0.0
  0
LINE
  5
94
330
1F
100
AcDbEntity
  8
0
  6
Continuous
 62
     7
370
    25
100
AcDbLine
 10
200.6233866621
 20
353.1484029814
 30
0.0
 11
200.6233866621
 21
364.6514111756
 31
0.0
  0
ARC
  5
95
330
1F
100
AcDbEntity
  8
0
  6
Continuous
 62
     7
370
    25
100
AcDbCircle
 10
173.3733870968
 20
322.9514112903
 30
0.0
 40
1.0
100
AcDbArc
 50
270.0
 51
0.0
  0
LINE
  5
96
330
1F
100
AcDbEntity
  8
0
  6
Continuous
 62
     7
370
    25
100
AcDbLine
 10
174.3733871324
 20
322.9514103009
 30
0.0
 11
174.3733871324
 21
324.5484534277
 31
0.0
  0
LINE
  5
97
330
1F
100
AcDbEntity
  8
0
  6
Continuous
 62
     7
370
    25
100
AcDbLine
 10
199.6233864982
 20
373.9014112948
 30
0.0
 11
198.3733876903
 21
375.1514112669
 31
0.0
  0
LINE
  5
98
330
1F
100
AcDbEntity
  8
0
  6
Continuous
 62
     7
370
    25
100
AcDbLine
 10
156.8733874072
 20
375.1514112669
 30
0.0
 11
155.6233867366
 21
373.9014112948
 31
0.0
  0
LINE
  5
99
330
1F
100
AcDbEntity
  8
0
  6
Continuous
 62
     7
370
    25
100
AcDbLine
 10
155.6233867366
 20
373.9014112948
 30
0.0
 11
155.6233867366
 21
368.4014113246
 31
0.0
  0
LINE
  5
9A
330
1F
100
AcDbEntity
  8
0
  6
Continuous
 62
     7
370
    25
100
AcDbLine
 10
199.6233864982
 20
368.4014113246
 30
0.0
 11
199.6233864982
 21
373.9014112948
 31
0.0
  0
LINE
  5
9B
330
1F
100
AcDbEntity
  8
0
  6
Continuous
 62
     7
370
    25
100
AcDbLine
 10
155.6233867366
 20
368.4014113246
 30
0.0
 11
156.8733874072
 21
367.1514115854
 31
0.0
  0
LINE
  5
9C
330
1F
100
AcDbEntity
  8
0
  6
Continuous
 62
     7
370
    25
100
AcDbLine
 10
198.3733876903
 20
367.1514115854
 30
0.0
 11
199.6233864982
 21
368.4014113246
 31
0.0
  0
LINE
  5
9D
330
1F
100
AcDbEntity
  8
0
  6
Continuous
 62
     7
370
    25
100
AcDbLine
 10
156.8733874072
 20
367.1514115854
 30
0.0
 11
156.8733874072
 21
364.6514111756
 31
0.0
  0
LINE
  5
9E
330
1F
100
AcDbEntity
  8
0
  6
Continuous
 62
     7
370
    25
100
AcDbLine
 10
198.3733876903
 20
364.6514111756
 30
0.0
 11
198.3733876903
 21
367.1514115854
 31
0.0
  0
LINE
  5
9F
330
1F
100
AcDbEntity
  8
0
  6
Continuous
 62
     7
370
    25
100
AcDbLine
 10
156.8733874072
 20
377.8784336032
 30
0.0
 11
156.8733874072
 21
375.1514112669
 31
0.0
  0
LINE
  5
A0
330
1F
100
AcDbEntity
  8
0
  6
Continuous
 62
     7
370
    25
100
AcDbLine
 10
198.3733876903
 20
375.1514112669
 30
0.0
 11
198.3733876903
 21
377.8784336032
 31
0.0
  0
LINE
  5
A1
330
1F
100
AcDbEntity
  8
0
  6
Continuous
 62
     7
370
    25
100
AcDbLine
 10
156.8733874072
 20
379.3784336745
 30
0.0
 11
157.6233870644
 21
378.628433668
 31
0.0
  0
LINE
  5
A2
330
1F
100
AcDbEntity
  8
0
  6
Continuous
 62
     7
370
    25
100
AcDbLine
 10
197.6233861704
 20
378.628433668
 30
0.0
 11
198.3733876903
 21
379.3784336745
 31
0.0
  0
LINE
  5
A3
330
1F
100
AcDbEntity
  8
0
  6
Continuous
 62
     7
370
    25
100
AcDbLine
 10
156.8733874072
 20
379.8784335236
 30
0.0
 11
156.8733874072
 21
379.3784336745
 31
0.0
  0
LINE
  5
A4
330
1F
100
AcDbEntity
  8
0
  6
Continuous
 62
     7
370
    25
100
AcDbLine
 10
198.3733876903
 20
379.3784336745
 30
0.0
 11
198.3733876903
 21
379.8784335236
 31
0.0
  0
LINE
  5
A5
330
1F
100
AcDbEntity
  8
0
  6
Continuous
 62
     7
370
    25
100
AcDbLine
 10
198.3733876903
 20
377.8784336032
 30
0.0
 11
197.6233861704
 21
378.628433668
 31
0.0
  0
LINE
  5
A6
330
1F
100
AcDbEntity
  8
0
  6
Continuous
 62
     7
370
    25
100
AcDbLine
 10
157.6233870644
 20
378.628433668
 30
0.0
 11
156.8733874072
 21
377.8784336032
 31
0.0
  0
LINE
  5
A7
330
1F
100
AcDbEntity
  8
0
  6
Continuous
 62
     7
370
    25
100
AcDbLine
 10
198.3733876903
 20
379.8784335236
 30
0.0
 11
197.6233861704
 21
380.151411388
 31
0.0
  0
LINE
  5
A8
330
1F
100
AcDbEntity
  8
0
  6
Continuous
 62
     7
370
    25
100
AcDbLine
 10
157.6233870644
 20
380.151411388
 30
0.0
 11
156.8733874072
 21
379.8784335236
 31
0.0
  0
LINE
  5
A9
330
1F
100
AcDbEntity
  8
0
  6
Continuous
 62
     7
370
    25
100
AcDbLine
 10
186.3790593405
 20
327.1514106168
 30
0.0
 11
196.1586132009
 21
327.1514106168
 31
0.0
  0
SPLINE
  5
AA
330
1F
100
AcDbEntity
  8
0
  6
Continuous
 62
     7
370
    25
100
AcDbSpline
210
0.0
220
0.0
230
1.0
 70
     8
 71
     3
 72
    10
 73
     6
 74
     0
 42
0.000000001
 43
0.00000001
 40
0.0
 40
0.0
 40
0.0
 40
0.0
 40
0.0869496142796226
 40
0.869067196187227
 40
0.9999999999999999
 40
0.9999999999999999
 40
0.9999999999999999
 40
0.9999999999999999
 10
185.6668304015176
 20
326.8056477977791
 30
0.0
 10
185.683695597965
 20
326.8188066130737
 30
0.0
 10
185.8522643617382
 20
326.9503298499274
 30
0.0
 10
186.0747496755619
 20
327.0743138103074
 30
0.0
 10
186.2937356395036
 20
327.1253141739942
 30
0.0
 10
186.3251385573523
 20
327.132627703146
 30
0.0
  0
SPLINE
  5
AB
330
1F
100
AcDbEntity
  8
0
  6
Continuous
 62
     7
370
    25
100
AcDbSpline
210
0.0
220
0.0
230
1.0
 70
     8
 71
     3
 72
    10
 73
     6
 74
     0
 42
0.000000001
 43
0.00000001
 40
0.0
 40
0.0
 40
0.0
 40
0.0
 40
0.1469731167996511
 40
0.9974258838171879
 40
1.0
 40
1.0
 40
1.0
 40
1.0
 10
186.3336750600712
 20
327.1457481755772
 30
0.0
 10
186.3310178508916
 20
327.1446175260537
 30
0.0
 10
186.3129848304856
 20
327.1369444282459
 30
0.0
 10
186.3829968799846
 20
327.1517027277974
 30
0.0
 10
186.3897333893127
 20
327.1516900518545
 30
0.0
 10
186.3897537175791
 20
327.1516900136032
 30
0.0
  0
SPLINE
  5
AC
330
1F
100
AcDbEntity
  8
0
  6
Continuous
 62
     7
370
    25
100
AcDbSpline
210
0.0
220
0.0
230
1.0
 70
     8
 71
     3
 72
    15
 73
    11
 74
     0
 42
0.000000001
 43
0.00000001
 40
0.0
 40
0.0
 40
0.0
 40
0.0
 40
0.0665672232330775
 40
0.2285473021172606
 40
0.3943785988612492
 40
0.5631318556441172
 40
0.7111615418965063
 40
0.8437496718417419
 40
0.9628201365375526
 40
1.0
 40
1.0
 40
1.0
 40
1.0
 10
202.6029835749643
 20
351.1561121418038
 30
0.0
 10
202.5333850670473
 20
351.1533696809659
 30
0.0
 10
202.2944303616646
 20
351.1439539055251
 30
0.0
 10
201.8896417437141
 20
351.2579279131103
 30
0.0
 10
201.4277340693876
 20
351.5003479293608
 30
0.0
 10
201.0570915657412
 20
351.8516575274203
 30
0.0
 10
200.8020254739418
 20
352.2508260690636
 30
0.0
 10
200.6634580552782
 20
352.6459708807677
 30
0.0
 10
200.608559666698
 20
352.9460470529501
 30
0.0
 10
200.6158708894596
 20
353.1084497244114
 30
0.0
 10
200.6176105994956
 20
353.1470935418167
 30
0.0
  0
SPLINE
  5
AD
330
1F
100
AcDbEntity
  8
0
  6
Continuous
 62
     7
370
    25
100
AcDbSpline
210
0.0
220
0.0
230
1.0
 70
     8
 71
     3
 72
    14
 73
    10
 74
     0
 42
0.000000001
 43
0.00000001
 40
0.0
 40
0.0
 40
0.0
 40
0.0
 40
0.1651342159107477
 40
0.3083805610121882
 40
0.4680807488595546
 40
0.6333652530662301
 40
0.8099381706824795
 40
0.9636384949190706
 40
1.0
 40
1.0
 40
1.0
 40
1.0
 10
154.6332436908262
 20
353.1461380048552
 30
0.0
 10
154.6216516043281
 20
352.9736532380372
 30
0.0
 10
154.6000039153991
 20
352.6515458609317
 30
0.0
 10
154.4154280832855
 20
352.1926835968455
 30
0.0
 10
154.1363272037974
 20
351.7877454576299
 30
0.0
 10
153.7345551421444
 20
351.4412755352656
 30
0.0
 10
153.2615521230609
 20
351.2252169964049
 30
0.0
 10
152.8814525778326
 20
351.1363162428527
 30
0.0
 10
152.6834993343615
 20
351.1490712044672
 30
0.0
 10
152.6456280905979
 20
351.1515114082852
 30
0.0
  0
LINE
  5
AE
330
1F
100
AcDbEntity
  8
0
  6
Continuous
 62
     7
370
    25
100
AcDbLine
 10
152.6458162178
 20
351.1514108254
 30
0.0
 11
151.6233879436
 21
351.1514108254
 31
0.0
  0
LINE
  5
AF
330
1F
100
AcDbEntity
  8
0
  6
Continuous
 62
     7
370
    25
100
AcDbLine
 10
151.6233879436
 20
324.1514119877
 30
0.0
 11
154.5047267635
 21
324.1514119877
 31
0.0
  0
LINE
  5
B0
330
1F
100
AcDbEntity
  8
0
  6
Continuous
 62
     7
370
    25
100
AcDbLine
 10
196.6233878691
 20
324.1514119877
 30
0.0
 11
203.6233871538
 21
324.1514119877
 31
0.0
  0
LINE
  5
B1
330
1F
100
AcDbEntity
  8
0
  6
Continuous
 62
     7
370
    25
100
AcDbLine
 10
203.6233871538
 20
351.1514108254
 30
0.0
 11
202.6018771637
 21
351.1514108254
 31
0.0
  0
LINE
  5
B2
330
1F
100
AcDbEntity
  8
0
  6
Continuous
 62
     7
370
    25
100
AcDbLine
 10
151.6233879436
 20
351.1514108254
 30
0.0
 11
151.1233869303
 21
350.6514116748
 31
0.0
  0
LINE
  5
B3
330
1F
100
AcDbEntity
  8
0
  6
Continuous
 62
     7
370
    25
100
AcDbLine
 10
151.1233869303
 20
324.651413001
 30
0.0
 11
151.6233879436
 21
324.1514119877
 31
0.0
  0
LINE
  5
B4
330
1F
100
AcDbEntity
  8
0
  6
Continuous
 62
     7
370
    25
100
AcDbLine
 10
203.6233871538
 20
324.1514119877
 30
0.0
 11
204.1233863045
 21
324.651413001
 31
0.0
  0
LINE
  5
B5
330
1F
100
AcDbEntity
  8
0
  6
Continuous
 62
     7
370
    25
100
AcDbLine
 10
204.1233863045
 20
350.6514116748
 30
0.0
 11
203.6233871538
 21
351.1514108254
 31
0.0
  0
LINE
  5
B6
330
1F
100
AcDbEntity
  8
0
  6
Continuous
 62
     7
370
    25
100
AcDbLine
 10
216.6233874221
 20
325.6514113023
 30
0.0
 11
223.6233867068
 21
325.6514113023
 31
0.0
  0
LINE
  5
B7
330
1F
100
AcDbEntity
  8
0
  6
Continuous
 62
     7
370
    25
100
AcDbLine
 10
223.6233867068
 20
349.6514115109
 30
0.0
 11
216.6233874221
 21
349.6514115109
 31
0.0
  0
LINE
  5
B8
330
1F
100
AcDbEntity
  8
0
  6
Continuous
 62
     7
370
    25
100
AcDbLine
 10
216.1233864088
 20
325.9014118089
 30
0.0
 11
216.6233874221
 21
325.9014118089
 31
0.0
  0
LINE
  5
B9
330
1F
100
AcDbEntity
  8
0
  6
Continuous
 62
     7
370
    25
100
AcDbLine
 10
216.6233874221
 20
349.4014110043
 30
0.0
 11
216.1233864088
 21
349.4014110043
 31
0.0
  0
LINE
  5
BA
330
1F
100
AcDbEntity
  8
0
  6
Continuous
 62
     7
370
    25
100
AcDbLine
 10
223.6233867068
 20
325.9014118089
 30
0.0
 11
224.1233877201
 21
325.9014118089
 31
0.0
  0
LINE
  5
BB
330
1F
100
AcDbEntity
  8
0
  6
Continuous
 62
     7
370
    25
100
AcDbLine
 10
224.1233877201
 20
349.4014110043
 30
0.0
 11
223.6233867068
 21
349.4014110043
 31
0.0
  0
LINE
  5
BC
330
1F
100
AcDbEntity
  8
0
  6
Continuous
 62
     7
370
    25
100
AcDbLine
 10
204.1233863045
 20
327.1539102866
 30
0.0
 11
216.1233864088
 21
327.1539102866
 31
0.0
  0
LINE
  5
BD
330
1F
100
AcDbEntity
  8
0
  6
Continuous
 62
     7
370
    25
100
AcDbLine
 10
216.1233864088
 20
348.1489106639
 30
0.0
 11
204.1233863045
 21
348.1489106639
 31
0.0
  0
LINE
  5
BE
330
1F
100
AcDbEntity
  8
0
  6
Continuous
 62
     7
370
    25
100
AcDbLine
 10
151.1233869303
 20
348.1489106639
 30
0.0
 11
133.6233868558
 21
348.1489106639
 31
0.0
  0
LINE
  5
BF
330
1F
100
AcDbEntity
  8
0
  6
Continuous
 62
     7
370
    25
100
AcDbLine
 10
133.6233868558
 20
327.1539102866
 30
0.0
 11
151.1233869303
 21
327.1539102866
 31
0.0
  0
LINE
  5
C0
330
1F
100
AcDbEntity
  8
0
  6
Continuous
 62
     7
370
    25
100
AcDbLine
 10
133.6233868558
 20
348.1489106639
 30
0.0
 11
132.6233885546
 21
347.1489105
 31
0.0
  0
LINE
  5
C1
330
1F
100
AcDbEntity
  8
0
  6
Continuous
 62
     7
370
    25
100
AcDbLine
 10
132.6233885546
 20
328.1539123132
 30
0.0
 11
133.6233868558
 21
327.1539102866
 31
0.0
  0
LINE
  5
C2
330
1F
100
AcDbEntity
  8
0
  6
Continuous
 62
     7
370
    25
100
AcDbLine
 10
167.6233868409
 20
384.6514111943
 30
0.0
 11
167.6233868409
 21
382.1514112501
 31
0.0
  0
LINE
  5
C3
330
1F
100
AcDbEntity
  8
0
  6
Continuous
 62
     7
370
    25
100
AcDbLine
 10
187.6233873252
 20
382.1514112501
 30
0.0
 11
187.6233873252
 21
384.6514111943
 31
0.0
  0
ARC
  5
C4
330
1F
100
AcDbEntity
  8
0
  6
Continuous
 62
     7
370
    25
100
AcDbCircle
 10
196.6233870968
 20
325.1514112903
 30
0.0
 40
1.0
100
AcDbArc
 50
180.0
 51
270.0
  0
ARC
  5
C5
330
1F
100
AcDbEntity
  8
0
  6
Continuous
 62
     7
370
    25
100
AcDbCircle
 10
193.6233870968
 20
325.6514112903
 30
0.0
 40
2.000000000000028
100
AcDbArc
 50
0.0
 51
48.5903778907
  0
LINE
  5
C6
330
1F
100
AcDbEntity
  8
0
  6
Continuous
 62
     7
370
    25
100
AcDbLine
 10
164.0349366997
 20
382.1514112501
 30
0.0
 11
162.6233869527
 21
380.7398612703
 31
0.0
  0
LINE
  5
C7
330
1F
100
AcDbEntity
  8
0
  6
Continuous
 62
     7
370
    25
100
AcDbLine
 10
192.6233872134
 20
380.7398612703
 30
0.0
 11
191.2118374665
 21
382.1514112501
 31
0.0
  0
ARC
  5
C8
330
1F
100
AcDbEntity
  8
0
  6
Continuous
 62
     7
370
    25
100
AcDbCircle
 10
173.04171711
 20
387.5330812771
 30
0.0
 40
1.381669986733016
100
AcDbArc
 50
270.0
 51
15.4610483416
  0
ARC
  5
C9
330
1F
100
AcDbEntity
  8
0
  6
Continuous
 62
     7
370
    25
100
AcDbCircle
 10
182.2050570835
 20
387.5330812771
 30
0.0
 40
1.381669986733016
100
AcDbArc
 50
164.5389516584
 51
270.0
  0
LINE
  5
CA
330
1F
100
AcDbEntity
  8
0
  6
Continuous
 62
     7
370
    25
100
AcDbLine
 10
173.2233871069
 20
386.1514109745
 30
0.0
 11
173.2233871069
 21
384.6514111943
 31
0.0
  0
LINE
  5
CB
330
1F
100
AcDbEntity
  8
0
  6
Continuous
 62
     7
370
    25
100
AcDbLine
 10
182.0233870592
 20
384.6514111943
 30
0.0
 11
182.0233870592
 21
386.1514109745
 31
0.0
  0
LINE
  5
CC
330
1F
100
AcDbEntity
  8
0
  6
Continuous
 62
     7
370
    25
100
AcDbLine
 10
180.9484023895
 20
427.176397629
 30
0.0
 11
180.4233869832
 21
427.7014102413
 31
0.0
  0
LINE
  5
CD
330
1F
100
AcDbEntity
  8
0
  6
Continuous
 62
     7
370
    25
100
AcDbLine
 10
174.8233870665
 20
427.7014102413
 30
0.0
 11
174.2983715438
 21
427.176397629
 31
0.0
  0
LINE
  5
CE
330
1F
100
AcDbEntity
  8
0
  6
Continuous
 62
     7
370
    25
100
AcDbLine
 10
174.2983871434
 20
417.7014123275
 30
0.0
 11
174.2983871434
 21
415.9514125063
 31
0.0
  0
LINE
  5
CF
330
1F
100
AcDbEntity
  8
0
  6
Continuous
 62
     7
370
    25
100
AcDbLine
 10
180.9483870227
 20
415.9514125063
 30
0.0
 11
180.9483870227
 21
417.7014123275
 31
0.0
  0
LINE
  5
D0
330
1F
100
AcDbEntity
  8
0
  6
Continuous
 62
     7
370
    25
100
AcDbLine
 10
162.6233869527
 20
380.7398612703
 30
0.0
 11
162.6233869527
 21
380.151411388
 31
0.0
  0
LINE
  5
D1
330
1F
100
AcDbEntity
  8
0
  6
Continuous
 62
     7
370
    25
100
AcDbLine
 10
192.6233872134
 20
380.151411388
 30
0.0
 11
192.6233872134
 21
380.7398612703
 31
0.0
  0
LINE
  5
D2
330
1F
100
AcDbEntity
  8
0
  6
Continuous
 62
     7
370
    25
100
AcDbLine
 10
200.7420464713
 20
322.9514103009
 30
0.0
 11
200.7420464713
 21
324.1514119877
 31
0.0
  0
ARC
  5
D3
330
1F
100
AcDbEntity
  8
0
  6
Continuous
 62
     7
370
    25
100
AcDbCircle
 10
199.7420468841
 20
322.9514112903
 30
0.0
 40
1.0
100
AcDbArc
 50
270.0
 51
0.0
  0
ARC
  5
D4
330
1F
100
AcDbEntity
  8
0
  6
Continuous
 62
     7
370
    25
100
AcDbCircle
 10
181.8733870968
 20
322.9514112903
 30
0.0
 40
1.0
100
AcDbArc
 50
180.0
 51
270.0
  0
LINE
  5
D5
330
1F
100
AcDbEntity
  8
0
  6
Continuous
 62
     7
370
    25
100
AcDbLine
 10
180.8733871501
 20
324.5484534277
 30
0.0
 11
180.8733871501
 21
322.9514103009
 31
0.0
  0
CIRCLE
  5
D6
330
1F
100
AcDbEntity
  8
0
  6
Continuous
 62
     7
370
    25
100
AcDbCircle
 10
177.6233870968
 20
337.6514112903
 30
0.0
 40
9.497500000000002
  0
CIRCLE
  5
D7
330
1F
100
AcDbEntity
  8
0
  6
Continuous
 62
     7
370
    25
100
AcDbCircle
 10
177.6233870968
 20
337.6514112903
 30
0.0
 40
10.49750000000003
  0
CIRCLE
  5
D8
330
1F
100
AcDbEntity
  8
0
  6
Continuous
 62
     7
370
    25
100
AcDbCircle
 10
177.6233870968
 20
337.6514112903
 30
0.0
 40
13.0
  0
CIRCLE
  5
D9
330
1F
100
AcDbEntity
  8
0
  6
Continuous
 62
     7
370
    25
100
AcDbCircle
 10
177.6233870968
 20
337.6514112903
 30
0.0
 40
13.50000000000003
  0
LINE
  5
DA
330
1F
100
AcDbEntity
  8
0
  6
Continuous
 62
     7
370
    25
100
AcDbLine
 10
155.5047269274
 20
321.9514119997
 30
0.0
 11
159.6303164322
 21
321.9514119997
 31
0.0
  0
LINE
  5
DB
330
1F
100
AcDbEntity
  8
0
  6
Continuous
 62
     7
370
    25
100
AcDbLine
 10
155.5047269274
 20
340.9514095261
 30
0.0
 11
159.6303164322
 21
340.9514095261
 31
0.0
  0
SPLINE
  5
DC
330
1F
100
AcDbEntity
  8
0
  6
Continuous
 62
     7
370
    25
100
AcDbSpline
210
0.0
220
0.0
230
1.0
 70
     8
 71
     3
 72
     9
 73
     5
 74
     0
 42
0.000000001
 43
0.00000001
 40
0.0
 40
0.0
 40
0.0
 40
0.0
 40
0.1970740473867819
 40
1.0
 40
1.0
 40
1.0
 40
1.0
 10
154.6250983435886
 20
353.1484029813566
 30
0.0
 10
154.6244632875669
 20
353.1495188115975
 30
0.0
 10
154.6212408641677
 20
353.1551807962967
 30
0.0
 10
154.6238133091046
 20
353.1506672743259
 30
0.0
 10
154.6258787919061
 20
353.1470432503977
 30
0.0
  0
LINE
  5
DD
330
1F
100
AcDbEntity
  8
0
  6
Continuous
 62
     7
370
    25
100
AcDbLine
 10
177.6233870831
 20
364.6514111756
 30
0.0
 11
200.6233866621
 21
364.6514111756
 31
0.0
  0
LINE
  5
DE
330
1F
100
AcDbEntity
  8
0
  6
Continuous
 62
     7
370
    25
100
AcDbLine
 10
154.6233865727
 20
364.6514111756
 30
0.0
 11
177.6233870831
 21
364.6514111756
 31
0.0
  0
LINE
  5
DF
330
1F
100
AcDbEntity
  8
0
  6
Continuous
 62
     7
370
    25
100
AcDbLine
 10
159.6303164322
 20
340.9514095261
 30
0.0
 11
160.9730433036
 21
340.9514095261
 31
0.0
  0
LINE
  5
E0
330
1F
100
AcDbEntity
  8
0
  6
Continuous
 62
     7
370
    25
100
AcDbLine
 10
160.9730433036
 20
321.9514119997
 30
0.0
 11
159.6303164322
 21
321.9514119997
 31
0.0
  0
ARC
  5
E1
330
1F
100
AcDbEntity
  8
0
  6
Continuous
 62
     7
370
    25
100
AcDbCircle
 10
163.0576739319
 20
342.9514112903
 30
0.0
 40
2.000000000000013
100
AcDbArc
 50
270.0
 51
340.0051618474
  0
LINE
  5
E2
330
1F
100
AcDbEntity
  8
0
  6
Continuous
 62
     7
370
    25
100
AcDbLine
 10
173.3733870849
 20
321.9514119997
 30
0.0
 11
172.6233871948
 21
321.9514119997
 31
0.0
  0
LINE
  5
E3
330
1F
100
AcDbEntity
  8
0
  6
Continuous
 62
     7
370
    25
100
AcDbLine
 10
160.9730433036
 20
340.9514095261
 30
0.0
 11
163.0576738451
 21
340.9514095261
 31
0.0
  0
LINE
  5
E4
330
1F
100
AcDbEntity
  8
0
  6
Continuous
 62
     7
370
    25
100
AcDbLine
 10
172.6233871948
 20
321.9514119997
 30
0.0
 11
160.9730433036
 21
321.9514119997
 31
0.0
  0
LINE
  5
E5
330
1F
100
AcDbEntity
  8
0
  6
Continuous
 62
     7
370
    25
100
AcDbLine
 10
177.6233870831
 20
373.9014112948
 30
0.0
 11
199.6233864982
 21
373.9014112948
 31
0.0
  0
LINE
  5
E6
330
1F
100
AcDbEntity
  8
0
  6
Continuous
 62
     7
370
    25
100
AcDbLine
 10
155.6233867366
 20
373.9014112948
 30
0.0
 11
177.6233870831
 21
373.9014112948
 31
0.0
  0
LINE
  5
E7
330
1F
100
AcDbEntity
  8
0
  6
Continuous
 62
     7
370
    25
100
AcDbLine
 10
177.6233870831
 20
375.1514112669
 30
0.0
 11
198.3733876903
 21
375.1514112669
 31
0.0
  0
LINE
  5
E8
330
1F
100
AcDbEntity
  8
0
  6
Continuous
 62
     7
370
    25
100
AcDbLine
 10
156.8733874072
 20
375.1514112669
 30
0.0
 11
177.6233870831
 21
375.1514112669
 31
0.0
  0
LINE
  5
E9
330
1F
100
AcDbEntity
  8
0
  6
Continuous
 62
     7
370
    25
100
AcDbLine
 10
177.6233870831
 20
368.4014113246
 30
0.0
 11
199.6233864982
 21
368.4014113246
 31
0.0
  0
LINE
  5
EA
330
1F
100
AcDbEntity
  8
0
  6
Continuous
 62
     7
370
    25
100
AcDbLine
 10
155.6233867366
 20
368.4014113246
 30
0.0
 11
177.6233870831
 21
368.4014113246
 31
0.0
  0
LINE
  5
EB
330
1F
100
AcDbEntity
  8
0
  6
Continuous
 62
     7
370
    25
100
AcDbLine
 10
177.6233870831
 20
367.1514115854
 30
0.0
 11
198.3733876903
 21
367.1514115854
 31
0.0
  0
LINE
  5
EC
330
1F
100
AcDbEntity
  8
0
  6
Continuous
 62
     7
370
    25
100
AcDbLine
 10
156.8733874072
 20
367.1514115854
 30
0.0
 11
177.6233870831
 21
367.1514115854
 31
0.0
  0
LINE
  5
ED
330
1F
100
AcDbEntity
  8
0
  6
Continuous
 62
     7
370
    25
100
AcDbLine
 10
177.6233870831
 20
377.8784336032
 30
0.0
 11
198.3733876903
 21
377.8784336032
 31
0.0
  0
LINE
  5
EE
330
1F
100
AcDbEntity
  8
0
  6
Continuous
 62
     7
370
    25
100
AcDbLine
 10
156.8733874072
 20
377.8784336032
 30
0.0
 11
177.6233870831
 21
377.8784336032
 31
0.0
  0
LINE
  5
EF
330
1F
100
AcDbEntity
  8
0
  6
Continuous
 62
     7
370
    25
100
AcDbLine
 10
177.6233870831
 20
378.628433668
 30
0.0
 11
197.6233861704
 21
378.628433668
 31
0.0
  0
LINE
  5
F0
330
1F
100
AcDbEntity
  8
0
  6
Continuous
 62
     7
370
    25
100
AcDbLine
 10
157.6233870644
 20
378.628433668
 30
0.0
 11
177.6233870831
 21
378.628433668
 31
0.0
  0
LINE
  5
F1
330
1F
100
AcDbEntity
  8
0
  6
Continuous
 62
     7
370
    25
100
AcDbLine
 10
177.6233870831
 20
379.3784336745
 30
0.0
 11
198.3733876903
 21
379.3784336745
 31
0.0
  0
LINE
  5
F2
330
1F
100
AcDbEntity
  8
0
  6
Continuous
 62
     7
370
    25
100
AcDbLine
 10
156.8733874072
 20
379.3784336745
 30
0.0
 11
177.6233870831
 21
379.3784336745
 31
0.0
  0
LINE
  5
F3
330
1F
100
AcDbEntity
  8
0
  6
Continuous
 62
     7
370
    25
100
AcDbLine
 10
177.6233870831
 20
379.8784335236
 30
0.0
 11
198.3733876903
 21
379.8784335236
 31
0.0
  0
LINE
  5
F4
330
1F
100
AcDbEntity
  8
0
  6
Continuous
 62
     7
370
    25
100
AcDbLine
 10
156.8733874072
 20
379.8784335236
 30
0.0
 11
177.6233870831
 21
379.8784335236
 31
0.0
  0
LINE
  5
F5
330
1F
100
AcDbEntity
  8
0
  6
Continuous
 62
     7
370
    25
100
AcDbLine
 10
177.6233870831
 20
380.151411388
 30
0.0
 11
197.6233861704
 21
380.151411388
 31
0.0
  0
LINE
  5
F6
330
1F
100
AcDbEntity
  8
0
  6
Continuous
 62
     7
370
    25
100
AcDbLine
 10
157.6233870644
 20
380.151411388
 30
0.0
 11
177.6233870831
 21
380.151411388
 31
0.0
  0
LINE
  5
F7
330
1F
100
AcDbEntity
  8
0
  6
Continuous
 62
     7
370
    25
100
AcDbLine
 10
202.603298362
 20
351.1231619491
 30
0.0
 11
202.6018771637
 21
351.1211633309
 31
0.0
  0
SPLINE
  5
F8
330
1F
100
AcDbEntity
  8
0
  6
Continuous
 62
     7
370
    25
100
AcDbSpline
210
0.0
220
0.0
230
1.0
 70
     8
 71
     3
 72
    10
 73
     6
 74
     0
 42
0.000000001
 43
0.00000001
 40
0.0
 40
0.0
 40
0.0
 40
0.0
 40
0.5834093631040362
 40
0.9950194804427802
 40
1.0
 40
1.0
 40
1.0
 40
1.0
 10
155.2560842890518
 20
340.9009206666508
 30
0.0
 10
155.3949869329563
 20
341.1873693278785
 30
0.0
 10
155.631888918613
 20
341.6759147919961
 30
0.0
 10
155.9811441855231
 20
342.0911634761899
 30
0.0
 10
156.1217072581292
 20
342.2654559461947
 30
0.0
 10
156.1233877498882
 20
342.2675396873512
 30
0.0
  0
LINE
  5
F9
330
1F
100
AcDbEntity
  8
0
  6
Continuous
 62
     7
370
    25
100
AcDbLine
 10
152.6442683596
 20
351.1221672966
 30
0.0
 11
152.6458162178
 21
351.1200084909
 31
0.0
  0
LINE
  5
FA
330
1F
100
AcDbEntity
  8
0
  6
Continuous
 62
     7
370
    25
100
AcDbLine
 10
151.6233879436
 20
351.1514108254
 30
0.0
 11
151.6233879436
 21
324.1514119877
 31
0.0
  0
LINE
  5
FB
330
1F
100
AcDbEntity
  8
0
  6
Continuous
 62
     7
370
    25
100
AcDbLine
 10
203.6233871538
 20
337.6514095439
 30
0.0
 11
203.6233871538
 21
351.1514108254
 31
0.0
  0
LINE
  5
FC
330
1F
100
AcDbEntity
  8
0
  6
Continuous
 62
     7
370
    25
100
AcDbLine
 10
203.6233871538
 20
324.1514119877
 30
0.0
 11
203.6233871538
 21
337.6514095439
 31
0.0
  0
LINE
  5
FD
330
1F
100
AcDbEntity
  8
0
  6
Continuous
 62
     7
370
    25
100
AcDbLine
 10
151.1233869303
 20
350.6514116748
 30
0.0
 11
151.1233869303
 21
324.651413001
 31
0.0
  0
LINE
  5
FE
330
1F
100
AcDbEntity
  8
0
  6
Continuous
 62
     7
370
    25
100
AcDbLine
 10
204.1233863045
 20
337.6514095439
 30
0.0
 11
204.1233863045
 21
350.6514116748
 31
0.0
  0
LINE
  5
FF
330
1F
100
AcDbEntity
  8
0
  6
Continuous
 62
     7
370
    25
100
AcDbLine
 10
204.1233863045
 20
324.651413001
 30
0.0
 11
204.1233863045
 21
337.6514095439
 31
0.0
  0
LINE
  5
100
330
1F
100
AcDbEntity
  8
0
  6
Continuous
 62
     7
370
    25
100
AcDbLine
 10
186.0455443446
 20
380.151411388
 30
0.0
 11
186.0455443446
 21
380.7398612703
 31
0.0
  0
LINE
  5
101
330
1F
100
AcDbEntity
  8
0
  6
Continuous
 62
     7
370
    25
100
AcDbLine
 10
184.1617488597
 20
380.151411388
 30
0.0
 11
184.1617488597
 21
380.7398612703
 31
0.0
  0
LINE
  5
102
330
1F
100
AcDbEntity
  8
0
  6
Continuous
 62
     7
370
    25
100
AcDbLine
 10
184.1617488597
 20
380.7398612703
 30
0.0
 11
186.0455443446
 21
380.7398612703
 31
0.0
  0
LINE
  5
103
330
1F
100
AcDbEntity
  8
0
  6
Continuous
 62
     7
370
    25
100
AcDbLine
 10
188.5407503057
 20
382.1514112501
 30
0.0
 11
179.1713353075
 21
382.1514112501
 31
0.0
  0
SPLINE
  5
104
330
1F
100
AcDbEntity
  8
0
  6
Continuous
 62
     7
370
    25
100
AcDbSpline
210
0.0
220
0.0
230
1.0
 70
     8
 71
     3
 72
    12
 73
     8
 74
     0
 42
0.000000001
 43
0.00000001
 40
0.0
 40
0.0
 40
0.0
 40
0.0
 40
0.2499999999999999
 40
0.2499999999999999
 40
0.4999999999999999
 40
0.4999999999999999
 40
1.0
 40
1.0
 40
1.0
 40
1.0
 10
186.0455438909962
 20
380.7398612903223
 30
0.0
 10
186.2443050564014
 20
380.9131376015225
 30
0.0
 10
186.4460756101607
 20
381.076289642709
 30
0.0
 10
186.856959412438
 20
381.3778912222419
 30
0.0
 10
187.0644693619373
 20
381.515051586967
 30
0.0
 10
187.6897763297697
 20
381.8771485773556
 30
0.0
 10
188.1120036972438
 20
382.0537286454689
 30
0.0
 10
188.5407505418757
 20
382.1514112903223
 30
0.0
  0
SPLINE
  5
105
330
1F
100
AcDbEntity
  8
0
  6
Continuous
 62
     7
370
    25
100
AcDbSpline
210
0.0
220
0.0
230
1.0
 70
     8
 71
     3
 72
     8
 73
     4
 74
     0
 42
0.000000001
 43
0.00000001
 40
0.0
 40
0.0
 40
0.0
 40
0.0
 40
1.0
 40
1.0
 40
1.0
 40
1.0
 10
179.1713352065713
 20
382.1514112903223
 30
0.0
 10
180.9100241017286
 20
381.9533460077637
 30
0.0
 10
182.5610106304451
 20
381.4376081417076
 30
0.0
 10
184.1617485083302
 20
380.7398612903223
 30
0.0
  0
LINE
  5
106
330
1F
100
AcDbEntity
  8
0
  6
Continuous
 62
     7
370
    25
100
AcDbLine
 10
176.0754389896
 20
382.1514112501
 30
0.0
 11
179.1713353075
 21
382.1514112501
 31
0.0
  0
LINE
  5
107
330
1F
100
AcDbEntity
  8
0
  6
Continuous
 62
     7
370
    25
100
AcDbLine
 10
171.0850257721
 20
380.151411388
 30
0.0
 11
171.0850257721
 21
380.7398612703
 31
0.0
  0
SPLINE
  5
108
330
1F
100
AcDbEntity
  8
0
  6
Continuous
 62
     7
370
    25
100
AcDbSpline
210
0.0
220
0.0
230
1.0
 70
     8
 71
     3
 72
    12
 73
     8
 74
     0
 42
0.000000001
 43
0.00000001
 40
0.0
 40
0.0
 40
0.0
 40
0.0
 40
0.2499999999999999
 40
0.2499999999999999
 40
0.4999999999999999
 40
0.4999999999999999
 40
1.0
 40
1.0
 40
1.0
 40
1.0
 10
171.0850256852182
 20
380.7398612903223
 30
0.0
 10
171.4796839126361
 20
380.9118891653158
 30
0.0
 10
171.8799296259692
 20
381.073782646986
 30
0.0
 10
172.6939516795675
 20
381.3730282159809
 30
0.0
 10
173.1089373970191
 20
381.510731394666
 30
0.0
 10
174.370514293258
 20
381.8768451212634
 30
0.0
 10
175.2187356097297
 20
382.0538186750154
 30
0.0
 10
176.0754389869772
 20
382.1514112903223
 30
0.0
  0
LINE
  5
109
330
1F
100
AcDbEntity
  8
0
  6
Continuous
 62
     7
370
    25
100
AcDbLine
 10
169.2012302872
 20
380.7398612703
 30
0.0
 11
171.0850257721
 21
380.7398612703
 31
0.0
  0
SPLINE
  5
10A
330
1F
100
AcDbEntity
  8
0
  6
Continuous
 62
     7
370
    25
100
AcDbSpline
210
0.0
220
0.0
230
1.0
 70
     8
 71
     3
 72
    10
 73
     6
 74
     0
 42
0.000000001
 43
0.00000001
 40
0.0
 40
0.0
 40
0.0
 40
0.0
 40
0.5
 40
0.5
 40
1.0
 40
1.0
 40
1.0
 40
1.0
 10
166.7060236516727
 20
382.1514112903223
 30
0.0
 10
167.1385121610045
 20
382.0528761710808
 30
0.0
 10
167.561365986909
 20
381.874913170203
 30
0.0
 10
168.3918420566813
 20
381.3934187152371
 30
0.0
 10
168.8006492179337
 20
381.0890804777715
 30
0.0
 10
169.2012303025522
 20
380.7398612903223
 30
0.0
  0
LINE
  5
10B
330
1F
100
AcDbEntity
  8
0
  6
Continuous
 62
     7
370
    25
100
AcDbLine
 10
176.0754389896
 20
382.1514112501
 30
0.0
 11
166.7060238604
 21
382.1514112501
 31
0.0
  0
LINE
  5
10C
330
1F
100
AcDbEntity
  8
0
  6
Continuous
 62
     7
370
    25
100
AcDbLine
 10
169.2012302872
 20
380.151411388
 30
0.0
 11
169.2012302872
 21
380.7398612703
 31
0.0
  0
SPLINE
  5
10D
330
1F
100
AcDbEntity
  8
0
  6
Continuous
 62
     7
370
    25
100
AcDbSpline
210
0.0
220
0.0
230
1.0
 70
     8
 71
     3
 72
    10
 73
     6
 74
     0
 42
0.000000001
 43
0.00000001
 40
0.0
 40
0.0
 40
0.0
 40
0.0
 40
0.5000000000000002
 40
0.5000000000000002
 40
1.0
 40
1.0
 40
1.0
 40
1.0
 10
190.0886986516728
 20
382.1514112903223
 30
0.0
 10
190.5211871610045
 20
382.0528761710808
 30
0.0
 10
190.944040986909
 20
381.874913170203
 30
0.0
 10
191.7745170566813
 20
381.3934187152371
 30
0.0
 10
192.1833242179337
 20
381.0890804777715
 30
0.0
 10
192.5839053025522
 20
380.7398612903223
 30
0.0
  0
LINE
  5
10E
330
1F
100
AcDbEntity
  8
0
  6
Continuous
 62
     7
370
    25
100
AcDbLine
 10
192.5839047242
 20
380.151411388
 30
0.0
 11
192.5839047242
 21
380.7398612703
 31
0.0
  0
LINE
  5
10F
330
1F
100
AcDbEntity
  8
0
  6
Continuous
 62
     7
370
    25
100
AcDbLine
 10
188.5407503057
 20
382.1514112501
 30
0.0
 11
190.0886987631
 21
382.1514112501
 31
0.0
  0
LINE
  5
110
330
1F
100
AcDbEntity
  8
0
  6
Continuous
 62
     7
370
    25
100
AcDbLine
 10
162.6628685106
 20
380.151411388
 30
0.0
 11
162.6628685106
 21
380.7398612703
 31
0.0
  0
SPLINE
  5
111
330
1F
100
AcDbEntity
  8
0
  6
Continuous
 62
     7
370
    25
100
AcDbSpline
210
0.0
220
0.0
230
1.0
 70
     8
 71
     3
 72
    12
 73
     8
 74
     0
 42
0.000000001
 43
0.00000001
 40
0.0
 40
0.0
 40
0.0
 40
0.0
 40
0.2500000000000001
 40
0.2500000000000001
 40
0.5000000000000002
 40
0.5000000000000002
 40
1.0
 40
1.0
 40
1.0
 40
1.0
 10
162.6628688909962
 20
380.7398612903223
 30
0.0
 10
162.8616300564014
 20
380.9131376015225
 30
0.0
 10
163.0634006101607
 20
381.076289642709
 30
0.0
 10
163.474284412438
 20
381.3778912222419
 30
0.0
 10
163.6817943619373
 20
381.515051586967
 30
0.0
 10
164.3071013297696
 20
381.8771485773556
 30
0.0
 10
164.7293286972438
 20
382.0537286454689
 30
0.0
 10
165.1580755418757
 20
382.1514112903223
 30
0.0
  0
LINE
  5
112
330
1F
100
AcDbEntity
  8
0
  6
Continuous
 62
     7
370
    25
100
AcDbLine
 10
165.1580754031
 20
382.1514112501
 30
0.0
 11
166.7060238604
 21
382.1514112501
 31
0.0
  0
LINE
  5
113
330
1F
100
AcDbEntity
  8
0
  6
Continuous
 62
     7
370
    25
100
AcDbLine
 10
223.6233867068
 20
325.6514113023
 30
0.0
 11
223.6233867068
 21
349.6514115109
 31
0.0
  0
LINE
  5
114
330
1F
100
AcDbEntity
  8
0
  6
Continuous
 62
     7
370
    25
100
AcDbLine
 10
216.6233874221
 20
325.6514113023
 30
0.0
 11
216.6233874221
 21
349.6514115109
 31
0.0
  0
LINE
  5
115
330
1F
100
AcDbEntity
  8
0
  6
Continuous
 62
     7
370
    25
100
AcDbLine
 10
216.1233864088
 20
325.9014118089
 30
0.0
 11
216.1233864088
 21
349.4014110043
 31
0.0
  0
LINE
  5
116
330
1F
100
AcDbEntity
  8
0
  6
Continuous
 62
     7
370
    25
100
AcDbLine
 10
224.1233877201
 20
325.9014118089
 30
0.0
 11
224.1233877201
 21
349.4014110043
 31
0.0
  0
LINE
  5
117
330
1F
100
AcDbEntity
  8
0
  6
Continuous
 62
     7
370
    25
100
AcDbLine
 10
133.6233868558
 20
348.1489106639
 30
0.0
 11
133.6233868558
 21
327.1539102866
 31
0.0
  0
LINE
  5
118
330
1F
100
AcDbEntity
  8
0
  6
Continuous
 62
     7
370
    25
100
AcDbLine
 10
132.6233885546
 20
347.1489105
 30
0.0
 11
132.6233885546
 21
328.1539123132
 31
0.0
  0
LINE
  5
119
330
1F
100
AcDbEntity
  8
0
  6
Continuous
 62
     7
370
    25
100
AcDbLine
 10
177.6233870831
 20
384.6514111943
 30
0.0
 11
187.6233873252
 21
384.6514111943
 31
0.0
  0
LINE
  5
11A
330
1F
100
AcDbEntity
  8
0
  6
Continuous
 62
     7
370
    25
100
AcDbLine
 10
167.6233868409
 20
384.6514111943
 30
0.0
 11
177.6233870831
 21
384.6514111943
 31
0.0
  0
LINE
  5
11B
330
1F
100
AcDbEntity
  8
0
  6
Continuous
 62
     7
370
    25
100
AcDbLine
 10
195.6233877052
 20
325.151410289
 30
0.0
 11
195.6233877052
 21
326.9999738409
 31
0.0
  0
LINE
  5
11C
330
1F
100
AcDbEntity
  8
0
  6
Continuous
 62
     7
370
    25
100
AcDbLine
 10
162.6233869527
 20
380.7398612703
 30
0.0
 11
162.6628685106
 21
380.7398612703
 31
0.0
  0
LINE
  5
11D
330
1F
100
AcDbEntity
  8
0
  6
Continuous
 62
     7
370
    25
100
AcDbLine
 10
165.1580754031
 20
382.1514112501
 30
0.0
 11
164.0349366997
 21
382.1514112501
 31
0.0
  0
LINE
  5
11E
330
1F
100
AcDbEntity
  8
0
  6
Continuous
 62
     7
370
    25
100
AcDbLine
 10
192.5839047242
 20
380.7398612703
 30
0.0
 11
192.6233872134
 21
380.7398612703
 31
0.0
  0
LINE
  5
11F
330
1F
100
AcDbEntity
  8
0
  6
Continuous
 62
     7
370
    25
100
AcDbLine
 10
191.2118374665
 20
382.1514112501
 30
0.0
 11
190.0886987631
 21
382.1514112501
 31
0.0
  0
LINE
  5
120
330
1F
100
AcDbEntity
  8
0
  6
Continuous
 62
     7
370
    25
100
AcDbLine
 10
177.6233870831
 20
386.1514109745
 30
0.0
 11
182.2050568942
 21
386.1514109745
 31
0.0
  0
LINE
  5
121
330
1F
100
AcDbEntity
  8
0
  6
Continuous
 62
     7
370
    25
100
AcDbLine
 10
173.0417170391
 20
386.1514109745
 30
0.0
 11
177.6233870831
 21
386.1514109745
 31
0.0
  0
LINE
  5
122
330
1F
100
AcDbEntity
  8
0
  6
Continuous
 62
     7
370
    25
100
AcDbLine
 10
176.8838120686
 20
426.7014119401
 30
0.0
 11
176.8838120686
 21
417.7014123275
 31
0.0
  0
LINE
  5
123
330
1F
100
AcDbEntity
  8
0
  6
Continuous
 62
     7
370
    25
100
AcDbLine
 10
176.8838120686
 20
426.7014119401
 30
0.0
 11
177.1749547977
 21
426.7014119401
 31
0.0
  0
LINE
  5
124
330
1F
100
AcDbEntity
  8
0
  6
Continuous
 62
     7
370
    25
100
AcDbLine
 10
177.1749547977
 20
426.7014119401
 30
0.0
 11
177.1749547977
 21
417.7014123275
 31
0.0
  0
LINE
  5
125
330
1F
100
AcDbEntity
  8
0
  6
Continuous
 62
     7
370
    25
100
AcDbLine
 10
177.1749547977
 20
417.7014123275
 30
0.0
 11
176.8838120686
 21
417.7014123275
 31
0.0
  0
SPLINE
  5
126
330
1F
100
AcDbEntity
  8
0
  6
Continuous
 62
     7
370
    25
100
AcDbSpline
210
0.0
220
0.0
230
1.0
 70
     8
 71
     3
 72
     8
 73
     4
 74
     0
 42
0.000000001
 43
0.00000001
 40
0.0
 40
0.0
 40
0.0
 40
0.0
 40
1.0
 40
1.0
 40
1.0
 40
1.0
 10
181.3968349174975
 20
426.7014112903223
 30
0.0
 10
181.2499396156923
 20
426.8646150685426
 30
0.0
 10
181.1009444740651
 20
427.0238539130314
 30
0.0
 10
180.9484025989938
 20
427.1763957881027
 30
0.0
  0
LINE
  5
127
330
1F
100
AcDbEntity
  8
0
  6
Continuous
 62
     7
370
    25
100
AcDbLine
 10
181.3507225659
 20
426.7014119401
 30
0.0
 11
181.3968351405
 21
426.7014119401
 31
0.0
  0
SPLINE
  5
128
330
1F
100
AcDbEntity
  8
0
  6
Continuous
 62
     7
370
    25
100
AcDbSpline
210
0.0
220
0.0
230
1.0
 70
     8
 71
     3
 72
     8
 73
     4
 74
     0
 42
0.000000001
 43
0.00000001
 40
0.0
 40
0.0
 40
0.0
 40
0.0
 40
1.0
 40
1.0
 40
1.0
 40
1.0
 10
180.7856647569426
 20
427.1763957881027
 30
0.0
 10
180.9778787401166
 20
427.0238539073739
 30
0.0
 10
181.1656235699553
 20
426.8646150634424
 30
0.0
 10
181.3507224428174
 20
426.7014112903223
 30
0.0
  0
SPLINE
  5
129
330
1F
100
AcDbEntity
  8
0
  6
Continuous
 62
     7
370
    25
100
AcDbSpline
210
0.0
220
0.0
230
1.0
 70
     8
 71
     3
 72
     8
 73
     4
 74
     0
 42
0.000000001
 43
0.00000001
 40
0.0
 40
0.0
 40
0.0
 40
0.0
 40
1.0
 40
1.0
 40
1.0
 40
1.0
 10
181.0735760283282
 20
426.7014112903223
 30
0.0
 10
180.9792634419322
 20
426.8646150634424
 30
0.0
 10
180.8836026731184
 20
427.0238539073739
 30
0.0
 10
180.7856647569426
 20
427.1763957881027
 30
0.0
  0
LINE
  5
12A
330
1F
100
AcDbEntity
  8
0
  6
Continuous
 62
     7
370
    25
100
AcDbLine
 10
180.9397522655
 20
426.7014119401
 30
0.0
 11
181.0735758689
 21
426.7014119401
 31
0.0
  0
SPLINE
  5
12B
330
1F
100
AcDbEntity
  8
0
  6
Continuous
 62
     7
370
    25
100
AcDbSpline
210
0.0
220
0.0
230
1.0
 70
     8
 71
     3
 72
     8
 73
     4
 74
     0
 42
0.000000001
 43
0.00000001
 40
0.0
 40
0.0
 40
0.0
 40
0.0
 40
1.0
 40
1.0
 40
1.0
 40
1.0
 10
180.31338114463
 20
427.1763957881027
 30
0.0
 10
180.5264519870207
 20
427.0238539068886
 30
0.0
 10
180.7345687339701
 20
426.8646150630048
 30
0.0
 10
180.9397524145943
 20
426.7014112903223
 30
0.0
  0
SPLINE
  5
12C
330
1F
100
AcDbEntity
  8
0
  6
Continuous
 62
     7
370
    25
100
AcDbSpline
210
0.0
220
0.0
230
1.0
 70
     8
 71
     3
 72
     8
 73
     4
 74
     0
 42
0.000000001
 43
0.00000001
 40
0.0
 40
0.0
 40
0.0
 40
0.0
 40
1.0
 40
1.0
 40
1.0
 40
1.0
 10
180.31338114463
 20
427.1763957881027
 30
0.0
 10
180.106997619135
 20
427.176423275291
 30
0.0
 10
179.8617979617993
 20
427.176423275291
 30
0.0
 10
179.5777821726227
 20
427.1763957881027
 30
0.0
  0
SPLINE
  5
12D
330
1F
100
AcDbEntity
  8
0
  6
Continuous
 62
     7
370
    25
100
AcDbSpline
210
0.0
220
0.0
230
1.0
 70
     8
 71
     3
 72
     8
 73
     4
 74
     0
 42
0.000000001
 43
0.00000001
 40
0.0
 40
0.0
 40
0.0
 40
0.0
 40
1.0
 40
1.0
 40
1.0
 40
1.0
 10
179.4785747095941
 20
426.7014112903223
 30
0.0
 10
179.5110726120135
 20
426.8646150630048
 30
0.0
 10
179.5440350665012
 20
427.0238539068886
 30
0.0
 10
179.5777821726228
 20
427.1763957881027
 30
0.0
  0
LINE
  5
12E
330
1F
100
AcDbEntity
  8
0
  6
Continuous
 62
     7
370
    25
100
AcDbLine
 10
179.2159309905
 20
426.7014119401
 30
0.0
 11
179.4785746668
 21
426.7014119401
 31
0.0
  0
SPLINE
  5
12F
330
1F
100
AcDbEntity
  8
0
  6
Continuous
 62
     7
370
    25
100
AcDbSpline
210
0.0
220
0.0
230
1.0
 70
     8
 71
     3
 72
     8
 73
     4
 74
     0
 42
0.000000001
 43
0.00000001
 40
0.0
 40
0.0
 40
0.0
 40
0.0
 40
1.0
 40
1.0
 40
1.0
 40
1.0
 10
178.6508733935202
 20
427.1763957881027
 30
0.0
 10
178.8430873766943
 20
427.0238539073739
 30
0.0
 10
179.0308322065329
 20
426.8646150634424
 30
0.0
 10
179.2159310793951
 20
426.7014112903223
 30
0.0
  0
SPLINE
  5
130
330
1F
100
AcDbEntity
  8
0
  6
Continuous
 62
     7
370
    25
100
AcDbSpline
210
0.0
220
0.0
230
1.0
 70
     8
 71
     3
 72
     8
 73
     4
 74
     0
 42
0.000000001
 43
0.00000001
 40
0.0
 40
0.0
 40
0.0
 40
0.0
 40
1.0
 40
1.0
 40
1.0
 40
1.0
 10
178.3629621221346
 20
426.7014112903223
 30
0.0
 10
178.4572747085306
 20
426.8646150634424
 30
0.0
 10
178.5529354773444
 20
427.0238539073739
 30
0.0
 10
178.6508733935202
 20
427.1763957881027
 30
0.0
  0
LINE
  5
131
330
1F
100
AcDbEntity
  8
0
  6
Continuous
 62
     7
370
    25
100
AcDbLine
 10
178.0718193684
 20
426.7014119401
 30
0.0
 11
178.3629622139
 21
426.7014119401
 31
0.0
  0
SPLINE
  5
132
330
1F
100
AcDbEntity
  8
0
  6
Continuous
 62
     7
370
    25
100
AcDbSpline
210
0.0
220
0.0
230
1.0
 70
     8
 71
     3
 72
     8
 73
     4
 74
     0
 42
0.000000001
 43
0.00000001
 40
0.0
 40
0.0
 40
0.0
 40
0.0
 40
1.0
 40
1.0
 40
1.0
 40
1.0
 10
177.6233870967742
 20
427.1763957881027
 30
0.0
 10
177.7759289718455
 20
427.0238539130314
 30
0.0
 10
177.9249241134727
 20
426.8646150685426
 30
0.0
 10
178.0718194152779
 20
426.7014112903223
 30
0.0
  0
SPLINE
  5
133
330
1F
100
AcDbEntity
  8
0
  6
Continuous
 62
     7
370
    25
100
AcDbSpline
210
0.0
220
0.0
230
1.0
 70
     8
 71
     3
 72
     8
 73
     4
 74
     0
 42
0.000000001
 43
0.00000001
 40
0.0
 40
0.0
 40
0.0
 40
0.0
 40
1.0
 40
1.0
 40
1.0
 40
1.0
 10
177.1749547782705
 20
426.7014112903223
 30
0.0
 10
177.3218500800758
 20
426.8646150685426
 30
0.0
 10
177.4708452217029
 20
427.0238539130314
 30
0.0
 10
177.6233870967742
 20
427.1763957881027
 30
0.0
  0
SPLINE
  5
134
330
1F
100
AcDbEntity
  8
0
  6
Continuous
 62
     7
370
    25
100
AcDbSpline
210
0.0
220
0.0
230
1.0
 70
     8
 71
     3
 72
     8
 73
     4
 74
     0
 42
0.000000001
 43
0.00000001
 40
0.0
 40
0.0
 40
0.0
 40
0.0
 40
1.0
 40
1.0
 40
1.0
 40
1.0
 10
176.5959008000282
 20
427.1763957881026
 30
0.0
 10
176.6938387162041
 20
427.0238539073739
 30
0.0
 10
176.7894994850178
 20
426.8646150634424
 30
0.0
 10
176.8838120714138
 20
426.7014112903223
 30
0.0
  0
SPLINE
  5
135
330
1F
100
AcDbEntity
  8
0
  6
Continuous
 62
     7
370
    25
100
AcDbSpline
210
0.0
220
0.0
230
1.0
 70
     8
 71
     3
 72
     8
 73
     4
 74
     0
 42
0.000000001
 43
0.00000001
 40
0.0
 40
0.0
 40
0.0
 40
0.0
 40
1.0
 40
1.0
 40
1.0
 40
1.0
 10
176.0308431141534
 20
426.7014112903223
 30
0.0
 10
176.2159419870155
 20
426.8646150634424
 30
0.0
 10
176.4036868168541
 20
427.0238539073739
 30
0.0
 10
176.5959008000282
 20
427.1763957881026
 30
0.0
  0
LINE
  5
136
330
1F
100
AcDbEntity
  8
0
  6
Continuous
 62
     7
370
    25
100
AcDbLine
 10
175.7681994848
 20
426.7014119401
 30
0.0
 11
176.0308431174
 21
426.7014119401
 31
0.0
  0
SPLINE
  5
137
330
1F
100
AcDbEntity
  8
0
  6
Continuous
 62
     7
370
    25
100
AcDbSpline
210
0.0
220
0.0
230
1.0
 70
     8
 71
     3
 72
     8
 73
     4
 74
     0
 42
0.000000001
 43
0.00000001
 40
0.0
 40
0.0
 40
0.0
 40
0.0
 40
1.0
 40
1.0
 40
1.0
 40
1.0
 10
175.6689920209257
 20
427.1763957881027
 30
0.0
 10
175.7027391270472
 20
427.0238539068886
 30
0.0
 10
175.7357015815349
 20
426.8646150630048
 30
0.0
 10
175.7681994839543
 20
426.7014112903223
 30
0.0
  0
SPLINE
  5
138
330
1F
100
AcDbEntity
  8
0
  6
Continuous
 62
     7
370
    25
100
AcDbSpline
210
0.0
220
0.0
230
1.0
 70
     8
 71
     3
 72
     8
 73
     4
 74
     0
 42
0.000000001
 43
0.00000001
 40
0.0
 40
0.0
 40
0.0
 40
0.0
 40
1.0
 40
1.0
 40
1.0
 40
1.0
 10
175.0426207509614
 20
426.7014112903223
 30
0.0
 10
175.2478044315856
 20
426.8646150630048
 30
0.0
 10
175.455921178535
 20
427.0238539068886
 30
0.0
 10
175.6689920209257
 20
427.1763957881027
 30
0.0
  0
LINE
  5
139
330
1F
100
AcDbEntity
  8
0
  6
Continuous
 62
     7
370
    25
100
AcDbLine
 10
174.8341856353
 20
426.7014119401
 30
0.0
 11
175.0426207498
 21
426.7014119401
 31
0.0
  0
SPLINE
  5
13A
330
1F
100
AcDbEntity
  8
0
  6
Continuous
 62
     7
370
    25
100
AcDbSpline
210
0.0
220
0.0
230
1.0
 70
     8
 71
     3
 72
     8
 73
     4
 74
     0
 42
0.000000001
 43
0.00000001
 40
0.0
 40
0.0
 40
0.0
 40
0.0
 40
1.0
 40
1.0
 40
1.0
 40
1.0
 10
174.9333930489184
 20
427.1763957881027
 30
0.0
 10
174.8996459427968
 20
427.0238539068886
 30
0.0
 10
174.8666834883091
 20
426.8646150630048
 30
0.0
 10
174.8341855858897
 20
426.7014112903223
 30
0.0
  0
SPLINE
  5
13B
330
1F
100
AcDbEntity
  8
0
  6
Continuous
 62
     7
370
    25
100
AcDbSpline
210
0.0
220
0.0
230
1.0
 70
     8
 71
     3
 72
     8
 73
     4
 74
     0
 42
0.000000001
 43
0.00000001
 40
0.0
 40
0.0
 40
0.0
 40
0.0
 40
1.0
 40
1.0
 40
1.0
 40
1.0
 10
174.3070217789542
 20
426.7014112903223
 30
0.0
 10
174.5122054595784
 20
426.8646150630048
 30
0.0
 10
174.7203222065277
 20
427.0238539068886
 30
0.0
 10
174.9333930489184
 20
427.1763957881027
 30
0.0
  0
LINE
  5
13C
330
1F
100
AcDbEntity
  8
0
  6
Continuous
 62
     7
370
    25
100
AcDbLine
 10
174.1731981809
 20
426.7014119401
 30
0.0
 11
174.3070217842
 21
426.7014119401
 31
0.0
  0
SPLINE
  5
13D
330
1F
100
AcDbEntity
  8
0
  6
Continuous
 62
     7
370
    25
100
AcDbSpline
210
0.0
220
0.0
230
1.0
 70
     8
 71
     3
 72
     8
 73
     4
 74
     0
 42
0.000000001
 43
0.00000001
 40
0.0
 40
0.0
 40
0.0
 40
0.0
 40
1.0
 40
1.0
 40
1.0
 40
1.0
 10
174.4611094366058
 20
427.1763957881027
 30
0.0
 10
174.3631715204299
 20
427.023853907374
 30
0.0
 10
174.2675107516162
 20
426.8646150634424
 30
0.0
 10
174.1731981652202
 20
426.7014112903223
 30
0.0
  0
SPLINE
  5
13E
330
1F
100
AcDbEntity
  8
0
  6
Continuous
 62
     7
370
    25
100
AcDbSpline
210
0.0
220
0.0
230
1.0
 70
     8
 71
     3
 72
     8
 73
     4
 74
     0
 42
0.000000001
 43
0.00000001
 40
0.0
 40
0.0
 40
0.0
 40
0.0
 40
1.0
 40
1.0
 40
1.0
 40
1.0
 10
173.896051750731
 20
426.7014112903223
 30
0.0
 10
174.0811506235931
 20
426.8646150634424
 30
0.0
 10
174.2688954534318
 20
427.023853907374
 30
0.0
 10
174.4611094366058
 20
427.1763957881027
 30
0.0
  0
LINE
  5
13F
330
1F
100
AcDbEntity
  8
0
  6
Continuous
 62
     7
370
    25
100
AcDbLine
 10
173.8499392584
 20
426.7014119401
 30
0.0
 11
173.8960518331
 21
426.7014119401
 31
0.0
  0
SPLINE
  5
140
330
1F
100
AcDbEntity
  8
0
  6
Continuous
 62
     7
370
    25
100
AcDbSpline
210
0.0
220
0.0
230
1.0
 70
     8
 71
     3
 72
     8
 73
     4
 74
     0
 42
0.000000001
 43
0.00000001
 40
0.0
 40
0.0
 40
0.0
 40
0.0
 40
1.0
 40
1.0
 40
1.0
 40
1.0
 10
174.2983715945546
 20
427.1763957881027
 30
0.0
 10
174.1458297194833
 20
427.0238539130314
 30
0.0
 10
173.9968345778561
 20
426.8646150685426
 30
0.0
 10
173.8499392760509
 20
426.7014112903223
 30
0.0
  0
LINE
  5
141
330
1F
100
AcDbEntity
  8
0
  6
Continuous
 62
     7
370
    25
100
AcDbLine
 10
177.6233870831
 20
427.7014102413
 30
0.0
 11
180.4233869832
 21
427.7014102413
 31
0.0
  0
LINE
  5
142
330
1F
100
AcDbEntity
  8
0
  6
Continuous
 62
     7
370
    25
100
AcDbLine
 10
174.8233870665
 20
427.7014102413
 30
0.0
 11
177.6233870831
 21
427.7014102413
 31
0.0
  0
LINE
  5
143
330
1F
100
AcDbEntity
  8
0
  6
Continuous
 62
     7
370
    25
100
AcDbLine
 10
177.6233870831
 20
427.176397629
 30
0.0
 11
177.6233870831
 21
417.7014123275
 31
0.0
  0
LINE
  5
144
330
1F
100
AcDbEntity
  8
0
  6
Continuous
 62
     7
370
    25
100
AcDbLine
 10
177.6233870831
 20
417.7014123275
 30
0.0
 11
177.1749547977
 21
417.7014123275
 31
0.0
  0
LINE
  5
145
330
1F
100
AcDbEntity
  8
0
  6
Continuous
 62
     7
370
    25
100
AcDbLine
 10
177.6233870831
 20
415.9514125063
 30
0.0
 11
177.6233870831
 21
387.901411727
 31
0.0
  0
LINE
  5
146
330
1F
100
AcDbEntity
  8
0
  6
Continuous
 62
     7
370
    25
100
AcDbLine
 10
177.1749547977
 20
415.9514125063
 30
0.0
 11
177.1749547977
 21
387.901411727
 31
0.0
  0
LINE
  5
147
330
1F
100
AcDbEntity
  8
0
  6
Continuous
 62
     7
370
    25
100
AcDbLine
 10
177.1749547977
 20
415.9514125063
 30
0.0
 11
177.6233870831
 21
415.9514125063
 31
0.0
  0
LINE
  5
148
330
1F
100
AcDbEntity
  8
0
  6
Continuous
 62
     7
370
    25
100
AcDbLine
 10
177.1749547977
 20
387.901411727
 30
0.0
 11
177.6233870831
 21
387.901411727
 31
0.0
  0
LINE
  5
149
330
1F
100
AcDbEntity
  8
0
  6
Continuous
 62
     7
370
    25
100
AcDbLine
 10
176.8838120686
 20
415.9514125063
 30
0.0
 11
176.8838120686
 21
387.901411727
 31
0.0
  0
LINE
  5
14A
330
1F
100
AcDbEntity
  8
0
  6
Continuous
 62
     7
370
    25
100
AcDbLine
 10
176.8838120686
 20
415.9514125063
 30
0.0
 11
177.1749547977
 21
415.9514125063
 31
0.0
  0
LINE
  5
14B
330
1F
100
AcDbEntity
  8
0
  6
Continuous
 62
     7
370
    25
100
AcDbLine
 10
176.8838120686
 20
387.901411727
 30
0.0
 11
177.1749547977
 21
387.901411727
 31
0.0
  0
LINE
  5
14C
330
1F
100
AcDbEntity
  8
0
  6
Continuous
 62
     7
370
    25
100
AcDbLine
 10
178.0718193684
 20
426.7014119401
 30
0.0
 11
178.0718193684
 21
417.7014123275
 31
0.0
  0
LINE
  5
14D
330
1F
100
AcDbEntity
  8
0
  6
Continuous
 62
     7
370
    25
100
AcDbLine
 10
178.3629622139
 20
426.7014119401
 30
0.0
 11
178.3629622139
 21
417.7014123275
 31
0.0
  0
LINE
  5
14E
330
1F
100
AcDbEntity
  8
0
  6
Continuous
 62
     7
370
    25
100
AcDbLine
 10
178.3629622139
 20
417.7014123275
 30
0.0
 11
178.0718193684
 21
417.7014123275
 31
0.0
  0
LINE
  5
14F
330
1F
100
AcDbEntity
  8
0
  6
Continuous
 62
     7
370
    25
100
AcDbLine
 10
178.0718193684
 20
417.7014123275
 30
0.0
 11
177.6233870831
 21
417.7014123275
 31
0.0
  0
LINE
  5
150
330
1F
100
AcDbEntity
  8
0
  6
Continuous
 62
     7
370
    25
100
AcDbLine
 10
178.3629622139
 20
415.9514125063
 30
0.0
 11
178.3629622139
 21
387.901411727
 31
0.0
  0
LINE
  5
151
330
1F
100
AcDbEntity
  8
0
  6
Continuous
 62
     7
370
    25
100
AcDbLine
 10
178.0718193684
 20
415.9514125063
 30
0.0
 11
178.0718193684
 21
387.901411727
 31
0.0
  0
LINE
  5
152
330
1F
100
AcDbEntity
  8
0
  6
Continuous
 62
     7
370
    25
100
AcDbLine
 10
178.0718193684
 20
415.9514125063
 30
0.0
 11
178.3629622139
 21
415.9514125063
 31
0.0
  0
LINE
  5
153
330
1F
100
AcDbEntity
  8
0
  6
Continuous
 62
     7
370
    25
100
AcDbLine
 10
178.0718193684
 20
387.901411727
 30
0.0
 11
178.3629622139
 21
387.901411727
 31
0.0
  0
LINE
  5
154
330
1F
100
AcDbEntity
  8
0
  6
Continuous
 62
     7
370
    25
100
AcDbLine
 10
177.6233870831
 20
415.9514125063
 30
0.0
 11
178.0718193684
 21
415.9514125063
 31
0.0
  0
LINE
  5
155
330
1F
100
AcDbEntity
  8
0
  6
Continuous
 62
     7
370
    25
100
AcDbLine
 10
177.6233870831
 20
387.901411727
 30
0.0
 11
178.0718193684
 21
387.901411727
 31
0.0
  0
LINE
  5
156
330
1F
100
AcDbEntity
  8
0
  6
Continuous
 62
     7
370
    25
100
AcDbLine
 10
176.595900796
 20
427.176397629
 30
0.0
 11
176.595900796
 21
417.7014123275
 31
0.0
  0
LINE
  5
157
330
1F
100
AcDbEntity
  8
0
  6
Continuous
 62
     7
370
    25
100
AcDbLine
 10
176.8838120686
 20
417.7014123275
 30
0.0
 11
176.595900796
 21
417.7014123275
 31
0.0
  0
LINE
  5
158
330
1F
100
AcDbEntity
  8
0
  6
Continuous
 62
     7
370
    25
100
AcDbLine
 10
176.595900796
 20
415.9514125063
 30
0.0
 11
176.595900796
 21
387.901411727
 31
0.0
  0
LINE
  5
159
330
1F
100
AcDbEntity
  8
0
  6
Continuous
 62
     7
370
    25
100
AcDbLine
 10
176.595900796
 20
415.9514125063
 30
0.0
 11
176.8838120686
 21
415.9514125063
 31
0.0
  0
LINE
  5
15A
330
1F
100
AcDbEntity
  8
0
  6
Continuous
 62
     7
370
    25
100
AcDbLine
 10
176.595900796
 20
387.901411727
 30
0.0
 11
176.8838120686
 21
387.901411727
 31
0.0
  0
LINE
  5
15B
330
1F
100
AcDbEntity
  8
0
  6
Continuous
 62
     7
370
    25
100
AcDbLine
 10
178.6508733701
 20
427.176397629
 30
0.0
 11
178.6508733701
 21
417.7014123275
 31
0.0
  0
LINE
  5
15C
330
1F
100
AcDbEntity
  8
0
  6
Continuous
 62
     7
370
    25
100
AcDbLine
 10
178.6508733701
 20
417.7014123275
 30
0.0
 11
178.3629622139
 21
417.7014123275
 31
0.0
  0
LINE
  5
15D
330
1F
100
AcDbEntity
  8
0
  6
Continuous
 62
     7
370
    25
100
AcDbLine
 10
178.6508733701
 20
415.9514125063
 30
0.0
 11
178.6508733701
 21
387.901411727
 31
0.0
  0
LINE
  5
15E
330
1F
100
AcDbEntity
  8
0
  6
Continuous
 62
     7
370
    25
100
AcDbLine
 10
178.3629622139
 20
415.9514125063
 30
0.0
 11
178.6508733701
 21
415.9514125063
 31
0.0
  0
LINE
  5
15F
330
1F
100
AcDbEntity
  8
0
  6
Continuous
 62
     7
370
    25
100
AcDbLine
 10
178.3629622139
 20
387.901411727
 30
0.0
 11
178.6508733701
 21
387.901411727
 31
0.0
  0
LINE
  5
160
330
1F
100
AcDbEntity
  8
0
  6
Continuous
 62
     7
370
    25
100
AcDbLine
 10
175.7681994848
 20
426.7014119401
 30
0.0
 11
175.7681994848
 21
417.7014123275
 31
0.0
  0
LINE
  5
161
330
1F
100
AcDbEntity
  8
0
  6
Continuous
 62
     7
370
    25
100
AcDbLine
 10
176.0308431174
 20
426.7014119401
 30
0.0
 11
176.0308431174
 21
417.7014123275
 31
0.0
  0
LINE
  5
162
330
1F
100
AcDbEntity
  8
0
  6
Continuous
 62
     7
370
    25
100
AcDbLine
 10
176.0308431174
 20
417.7014123275
 30
0.0
 11
175.7681994848
 21
417.7014123275
 31
0.0
  0
LINE
  5
163
330
1F
100
AcDbEntity
  8
0
  6
Continuous
 62
     7
370
    25
100
AcDbLine
 10
176.595900796
 20
417.7014123275
 30
0.0
 11
176.0308431174
 21
417.7014123275
 31
0.0
  0
LINE
  5
164
330
1F
100
AcDbEntity
  8
0
  6
Continuous
 62
     7
370
    25
100
AcDbLine
 10
176.0308431174
 20
415.9514125063
 30
0.0
 11
176.0308431174
 21
387.901411727
 31
0.0
  0
LINE
  5
165
330
1F
100
AcDbEntity
  8
0
  6
Continuous
 62
     7
370
    25
100
AcDbLine
 10
176.0308431174
 20
415.9514125063
 30
0.0
 11
176.595900796
 21
415.9514125063
 31
0.0
  0
LINE
  5
166
330
1F
100
AcDbEntity
  8
0
  6
Continuous
 62
     7
370
    25
100
AcDbLine
 10
176.0308431174
 20
387.901411727
 30
0.0
 11
176.595900796
 21
387.901411727
 31
0.0
  0
LINE
  5
167
330
1F
100
AcDbEntity
  8
0
  6
Continuous
 62
     7
370
    25
100
AcDbLine
 10
175.7681994848
 20
415.9514125063
 30
0.0
 11
175.7681994848
 21
387.901411727
 31
0.0
  0
LINE
  5
168
330
1F
100
AcDbEntity
  8
0
  6
Continuous
 62
     7
370
    25
100
AcDbLine
 10
175.7681994848
 20
415.9514125063
 30
0.0
 11
176.0308431174
 21
415.9514125063
 31
0.0
  0
LINE
  5
169
330
1F
100
AcDbEntity
  8
0
  6
Continuous
 62
     7
370
    25
100
AcDbLine
 10
175.7681994848
 20
387.901411727
 30
0.0
 11
176.0308431174
 21
387.901411727
 31
0.0
  0
LINE
  5
16A
330
1F
100
AcDbEntity
  8
0
  6
Continuous
 62
     7
370
    25
100
AcDbLine
 10
179.2159309905
 20
426.7014119401
 30
0.0
 11
179.2159309905
 21
417.7014123275
 31
0.0
  0
LINE
  5
16B
330
1F
100
AcDbEntity
  8
0
  6
Continuous
 62
     7
370
    25
100
AcDbLine
 10
179.4785746668
 20
426.7014119401
 30
0.0
 11
179.4785746668
 21
417.7014123275
 31
0.0
  0
LINE
  5
16C
330
1F
100
AcDbEntity
  8
0
  6
Continuous
 62
     7
370
    25
100
AcDbLine
 10
179.4785746668
 20
417.7014123275
 30
0.0
 11
179.2159309905
 21
417.7014123275
 31
0.0
  0
LINE
  5
16D
330
1F
100
AcDbEntity
  8
0
  6
Continuous
 62
     7
370
    25
100
AcDbLine
 10
179.2159309905
 20
417.7014123275
 30
0.0
 11
178.6508733701
 21
417.7014123275
 31
0.0
  0
LINE
  5
16E
330
1F
100
AcDbEntity
  8
0
  6
Continuous
 62
     7
370
    25
100
AcDbLine
 10
179.4785746668
 20
415.9514125063
 30
0.0
 11
179.4785746668
 21
387.901411727
 31
0.0
  0
LINE
  5
16F
330
1F
100
AcDbEntity
  8
0
  6
Continuous
 62
     7
370
    25
100
AcDbLine
 10
179.2159309905
 20
415.9514125063
 30
0.0
 11
179.2159309905
 21
387.901411727
 31
0.0
  0
LINE
  5
170
330
1F
100
AcDbEntity
  8
0
  6
Continuous
 62
     7
370
    25
100
AcDbLine
 10
179.2159309905
 20
415.9514125063
 30
0.0
 11
179.4785746668
 21
415.9514125063
 31
0.0
  0
LINE
  5
171
330
1F
100
AcDbEntity
  8
0
  6
Continuous
 62
     7
370
    25
100
AcDbLine
 10
179.2159309905
 20
387.901411727
 30
0.0
 11
179.4785746668
 21
387.901411727
 31
0.0
  0
LINE
  5
172
330
1F
100
AcDbEntity
  8
0
  6
Continuous
 62
     7
370
    25
100
AcDbLine
 10
178.6508733701
 20
415.9514125063
 30
0.0
 11
179.2159309905
 21
415.9514125063
 31
0.0
  0
LINE
  5
173
330
1F
100
AcDbEntity
  8
0
  6
Continuous
 62
     7
370
    25
100
AcDbLine
 10
178.6508733701
 20
387.901411727
 30
0.0
 11
179.2159309905
 21
387.901411727
 31
0.0
  0
LINE
  5
174
330
1F
100
AcDbEntity
  8
0
  6
Continuous
 62
     7
370
    25
100
AcDbLine
 10
175.668992021
 20
427.176397629
 30
0.0
 11
175.668992021
 21
417.7014123275
 31
0.0
  0
LINE
  5
175
330
1F
100
AcDbEntity
  8
0
  6
Continuous
 62
     7
370
    25
100
AcDbLine
 10
175.7681994848
 20
417.7014123275
 30
0.0
 11
175.668992021
 21
417.7014123275
 31
0.0
  0
LINE
  5
176
330
1F
100
AcDbEntity
  8
0
  6
Continuous
 62
     7
370
    25
100
AcDbLine
 10
175.668992021
 20
415.9514125063
 30
0.0
 11
175.668992021
 21
387.901411727
 31
0.0
  0
LINE
  5
177
330
1F
100
AcDbEntity
  8
0
  6
Continuous
 62
     7
370
    25
100
AcDbLine
 10
175.668992021
 20
415.9514125063
 30
0.0
 11
175.7681994848
 21
415.9514125063
 31
0.0
  0
LINE
  5
178
330
1F
100
AcDbEntity
  8
0
  6
Continuous
 62
     7
370
    25
100
AcDbLine
 10
175.668992021
 20
387.901411727
 30
0.0
 11
175.7681994848
 21
387.901411727
 31
0.0
  0
LINE
  5
179
330
1F
100
AcDbEntity
  8
0
  6
Continuous
 62
     7
370
    25
100
AcDbLine
 10
179.5777821742
 20
427.176397629
 30
0.0
 11
179.5777821742
 21
417.7014123275
 31
0.0
  0
LINE
  5
17A
330
1F
100
AcDbEntity
  8
0
  6
Continuous
 62
     7
370
    25
100
AcDbLine
 10
179.5777821742
 20
417.7014123275
 30
0.0
 11
179.4785746668
 21
417.7014123275
 31
0.0
  0
LINE
  5
17B
330
1F
100
AcDbEntity
  8
0
  6
Continuous
 62
     7
370
    25
100
AcDbLine
 10
179.5777821742
 20
415.9514125063
 30
0.0
 11
179.5777821742
 21
387.901411727
 31
0.0
  0
LINE
  5
17C
330
1F
100
AcDbEntity
  8
0
  6
Continuous
 62
     7
370
    25
100
AcDbLine
 10
179.4785746668
 20
415.9514125063
 30
0.0
 11
179.5777821742
 21
415.9514125063
 31
0.0
  0
LINE
  5
17D
330
1F
100
AcDbEntity
  8
0
  6
Continuous
 62
     7
370
    25
100
AcDbLine
 10
179.4785746668
 20
387.901411727
 30
0.0
 11
179.5777821742
 21
387.901411727
 31
0.0
  0
LINE
  5
17E
330
1F
100
AcDbEntity
  8
0
  6
Continuous
 62
     7
370
    25
100
AcDbLine
 10
174.8341856353
 20
426.7014119401
 30
0.0
 11
174.8341856353
 21
417.7014123275
 31
0.0
  0
LINE
  5
17F
330
1F
100
AcDbEntity
  8
0
  6
Continuous
 62
     7
370
    25
100
AcDbLine
 10
175.0426207498
 20
426.7014119401
 30
0.0
 11
175.0426207498
 21
417.7014123275
 31
0.0
  0
LINE
  5
180
330
1F
100
AcDbEntity
  8
0
  6
Continuous
 62
     7
370
    25
100
AcDbLine
 10
175.0426207498
 20
417.7014123275
 30
0.0
 11
174.8341856353
 21
417.7014123275
 31
0.0
  0
LINE
  5
181
330
1F
100
AcDbEntity
  8
0
  6
Continuous
 62
     7
370
    25
100
AcDbLine
 10
175.668992021
 20
417.7014123275
 30
0.0
 11
175.0426207498
 21
417.7014123275
 31
0.0
  0
LINE
  5
182
330
1F
100
AcDbEntity
  8
0
  6
Continuous
 62
     7
370
    25
100
AcDbLine
 10
175.0426207498
 20
415.9514125063
 30
0.0
 11
175.0426207498
 21
387.901411727
 31
0.0
  0
LINE
  5
183
330
1F
100
AcDbEntity
  8
0
  6
Continuous
 62
     7
370
    25
100
AcDbLine
 10
175.0426207498
 20
415.9514125063
 30
0.0
 11
175.668992021
 21
415.9514125063
 31
0.0
  0
LINE
  5
184
330
1F
100
AcDbEntity
  8
0
  6
Continuous
 62
     7
370
    25
100
AcDbLine
 10
175.0426207498
 20
387.901411727
 30
0.0
 11
175.668992021
 21
387.901411727
 31
0.0
  0
LINE
  5
185
330
1F
100
AcDbEntity
  8
0
  6
Continuous
 62
     7
370
    25
100
AcDbLine
 10
174.8341856353
 20
415.9514125063
 30
0.0
 11
174.8341856353
 21
387.901411727
 31
0.0
  0
LINE
  5
186
330
1F
100
AcDbEntity
  8
0
  6
Continuous
 62
     7
370
    25
100
AcDbLine
 10
174.8341856353
 20
415.9514125063
 30
0.0
 11
175.0426207498
 21
415.9514125063
 31
0.0
  0
LINE
  5
187
330
1F
100
AcDbEntity
  8
0
  6
Continuous
 62
     7
370
    25
100
AcDbLine
 10
174.8341856353
 20
387.901411727
 30
0.0
 11
175.0426207498
 21
387.901411727
 31
0.0
  0
LINE
  5
188
330
1F
100
AcDbEntity
  8
0
  6
Continuous
 62
     7
370
    25
100
AcDbLine
 10
180.3133810234
 20
427.176397629
 30
0.0
 11
180.3133810234
 21
417.7014123275
 31
0.0
  0
LINE
  5
189
330
1F
100
AcDbEntity
  8
0
  6
Continuous
 62
     7
370
    25
100
AcDbLine
 10
179.9745169763
 20
417.7014123275
 30
0.0
 11
180.3133810234
 21
417.7014123275
 31
0.0
  0
LINE
  5
18A
330
1F
100
AcDbEntity
  8
0
  6
Continuous
 62
     7
370
    25
100
AcDbLine
 10
179.5777821742
 20
417.7014123275
 30
0.0
 11
179.9745169763
 21
417.7014123275
 31
0.0
  0
LINE
  5
18B
330
1F
100
AcDbEntity
  8
0
  6
Continuous
 62
     7
370
    25
100
AcDbLine
 10
180.3133810234
 20
415.9514125063
 30
0.0
 11
180.3133810234
 21
387.901411727
 31
0.0
  0
LINE
  5
18C
330
1F
100
AcDbEntity
  8
0
  6
Continuous
 62
     7
370
    25
100
AcDbLine
 10
180.3133810234
 20
415.9514125063
 30
0.0
 11
179.9745169763
 21
415.9514125063
 31
0.0
  0
LINE
  5
18D
330
1F
100
AcDbEntity
  8
0
  6
Continuous
 62
     7
370
    25
100
AcDbLine
 10
179.9745169763
 20
415.9514125063
 30
0.0
 11
179.5777821742
 21
415.9514125063
 31
0.0
  0
LINE
  5
18E
330
1F
100
AcDbEntity
  8
0
  6
Continuous
 62
     7
370
    25
100
AcDbLine
 10
179.5777821742
 20
387.901411727
 30
0.0
 11
180.3133810234
 21
387.901411727
 31
0.0
  0
LINE
  5
18F
330
1F
100
AcDbEntity
  8
0
  6
Continuous
 62
     7
370
    25
100
AcDbLine
 10
174.3070217842
 20
415.9514125063
 30
0.0
 11
174.3070217842
 21
387.901411727
 31
0.0
  0
LINE
  5
190
330
1F
100
AcDbEntity
  8
0
  6
Continuous
 62
     7
370
    25
100
AcDbLine
 10
174.3070217842
 20
415.9514125063
 30
0.0
 11
174.8341856353
 21
415.9514125063
 31
0.0
  0
LINE
  5
191
330
1F
100
AcDbEntity
  8
0
  6
Continuous
 62
     7
370
    25
100
AcDbLine
 10
174.3070217842
 20
387.901411727
 30
0.0
 11
174.8341856353
 21
387.901411727
 31
0.0
  0
LINE
  5
192
330
1F
100
AcDbEntity
  8
0
  6
Continuous
 62
     7
370
    25
100
AcDbLine
 10
174.3070217842
 20
426.7014119401
 30
0.0
 11
174.3070217842
 21
417.7014123275
 31
0.0
  0
LINE
  5
193
330
1F
100
AcDbEntity
  8
0
  6
Continuous
 62
     7
370
    25
100
AcDbLine
 10
174.8341856353
 20
417.7014123275
 30
0.0
 11
174.3070217842
 21
417.7014123275
 31
0.0
  0
LINE
  5
194
330
1F
100
AcDbEntity
  8
0
  6
Continuous
 62
     7
370
    25
100
AcDbLine
 10
180.9397522655
 20
415.9514125063
 30
0.0
 11
180.9397522655
 21
387.901411727
 31
0.0
  0
LINE
  5
195
330
1F
100
AcDbEntity
  8
0
  6
Continuous
 62
     7
370
    25
100
AcDbLine
 10
180.3133810234
 20
415.9514125063
 30
0.0
 11
180.9397522655
 21
415.9514125063
 31
0.0
  0
LINE
  5
196
330
1F
100
AcDbEntity
  8
0
  6
Continuous
 62
     7
370
    25
100
AcDbLine
 10
180.3133810234
 20
387.901411727
 30
0.0
 11
180.9397522655
 21
387.901411727
 31
0.0
  0
LINE
  5
197
330
1F
100
AcDbEntity
  8
0
  6
Continuous
 62
     7
370
    25
100
AcDbLine
 10
180.9397522655
 20
426.7014119401
 30
0.0
 11
180.9397522655
 21
417.7014123275
 31
0.0
  0
LINE
  5
198
330
1F
100
AcDbEntity
  8
0
  6
Continuous
 62
     7
370
    25
100
AcDbLine
 10
180.9397522655
 20
417.7014123275
 30
0.0
 11
180.3133810234
 21
417.7014123275
 31
0.0
  0
LINE
  5
199
330
1F
100
AcDbEntity
  8
0
  6
Continuous
 62
     7
370
    25
100
AcDbLine
 10
174.1731981809
 20
415.9514125063
 30
0.0
 11
174.1731981809
 21
387.901411727
 31
0.0
  0
LINE
  5
19A
330
1F
100
AcDbEntity
  8
0
  6
Continuous
 62
     7
370
    25
100
AcDbLine
 10
174.1731981809
 20
415.9514125063
 30
0.0
 11
174.3070217842
 21
415.9514125063
 31
0.0
  0
LINE
  5
19B
330
1F
100
AcDbEntity
  8
0
  6
Continuous
 62
     7
370
    25
100
AcDbLine
 10
174.1731981809
 20
387.901411727
 30
0.0
 11
174.3070217842
 21
387.901411727
 31
0.0
  0
LINE
  5
19C
330
1F
100
AcDbEntity
  8
0
  6
Continuous
 62
     7
370
    25
100
AcDbLine
 10
174.1731981809
 20
426.7014119401
 30
0.0
 11
174.1731981809
 21
417.7014123275
 31
0.0
  0
LINE
  5
19D
330
1F
100
AcDbEntity
  8
0
  6
Continuous
 62
     7
370
    25
100
AcDbLine
 10
174.3070217842
 20
417.7014123275
 30
0.0
 11
174.1731981809
 21
417.7014123275
 31
0.0
  0
LINE
  5
19E
330
1F
100
AcDbEntity
  8
0
  6
Continuous
 62
     7
370
    25
100
AcDbLine
 10
181.0735758689
 20
426.7014119401
 30
0.0
 11
181.0735758689
 21
417.7014123275
 31
0.0
  0
LINE
  5
19F
330
1F
100
AcDbEntity
  8
0
  6
Continuous
 62
     7
370
    25
100
AcDbLine
 10
181.0735758689
 20
417.7014123275
 30
0.0
 11
180.9397522655
 21
417.7014123275
 31
0.0
  0
LINE
  5
1A0
330
1F
100
AcDbEntity
  8
0
  6
Continuous
 62
     7
370
    25
100
AcDbLine
 10
181.0735758689
 20
415.9514125063
 30
0.0
 11
181.0735758689
 21
387.901411727
 31
0.0
  0
LINE
  5
1A1
330
1F
100
AcDbEntity
  8
0
  6
Continuous
 62
     7
370
    25
100
AcDbLine
 10
180.9397522655
 20
415.9514125063
 30
0.0
 11
181.0735758689
 21
415.9514125063
 31
0.0
  0
LINE
  5
1A2
330
1F
100
AcDbEntity
  8
0
  6
Continuous
 62
     7
370
    25
100
AcDbLine
 10
180.9397522655
 20
387.901411727
 30
0.0
 11
181.0735758689
 21
387.901411727
 31
0.0
  0
LINE
  5
1A3
330
1F
100
AcDbEntity
  8
0
  6
Continuous
 62
     7
370
    25
100
AcDbLine
 10
173.8960518331
 20
415.9514125063
 30
0.0
 11
173.8960518331
 21
387.901411727
 31
0.0
  0
LINE
  5
1A4
330
1F
100
AcDbEntity
  8
0
  6
Continuous
 62
     7
370
    25
100
AcDbLine
 10
173.8960518331
 20
415.9514125063
 30
0.0
 11
174.1731981809
 21
415.9514125063
 31
0.0
  0
LINE
  5
1A5
330
1F
100
AcDbEntity
  8
0
  6
Continuous
 62
     7
370
    25
100
AcDbLine
 10
173.8960518331
 20
387.901411727
 30
0.0
 11
174.1731981809
 21
387.901411727
 31
0.0
  0
LINE
  5
1A6
330
1F
100
AcDbEntity
  8
0
  6
Continuous
 62
     7
370
    25
100
AcDbLine
 10
173.8960518331
 20
426.7014119401
 30
0.0
 11
173.8960518331
 21
417.7014123275
 31
0.0
  0
LINE
  5
1A7
330
1F
100
AcDbEntity
  8
0
  6
Continuous
 62
     7
370
    25
100
AcDbLine
 10
174.1731981809
 20
417.7014123275
 30
0.0
 11
173.8960518331
 21
417.7014123275
 31
0.0
  0
LINE
  5
1A8
330
1F
100
AcDbEntity
  8
0
  6
Continuous
 62
     7
370
    25
100
AcDbLine
 10
181.3507225659
 20
415.9514125063
 30
0.0
 11
181.3507225659
 21
387.901411727
 31
0.0
  0
LINE
  5
1A9
330
1F
100
AcDbEntity
  8
0
  6
Continuous
 62
     7
370
    25
100
AcDbLine
 10
181.0735758689
 20
415.9514125063
 30
0.0
 11
181.3507225659
 21
415.9514125063
 31
0.0
  0
LINE
  5
1AA
330
1F
100
AcDbEntity
  8
0
  6
Continuous
 62
     7
370
    25
100
AcDbLine
 10
181.0735758689
 20
387.901411727
 30
0.0
 11
181.3507225659
 21
387.901411727
 31
0.0
  0
LINE
  5
1AB
330
1F
100
AcDbEntity
  8
0
  6
Continuous
 62
     7
370
    25
100
AcDbLine
 10
181.3507225659
 20
426.7014119401
 30
0.0
 11
181.3507225659
 21
417.7014123275
 31
0.0
  0
LINE
  5
1AC
330
1F
100
AcDbEntity
  8
0
  6
Continuous
 62
     7
370
    25
100
AcDbLine
 10
181.3507225659
 20
417.7014123275
 30
0.0
 11
181.0735758689
 21
417.7014123275
 31
0.0
  0
LINE
  5
1AD
330
1F
100
AcDbEntity
  8
0
  6
Continuous
 62
     7
370
    25
100
AcDbLine
 10
173.8499392584
 20
415.9514125063
 30
0.0
 11
173.8499392584
 21
387.901411727
 31
0.0
  0
LINE
  5
1AE
330
1F
100
AcDbEntity
  8
0
  6
Continuous
 62
     7
370
    25
100
AcDbLine
 10
173.8499392584
 20
415.9514125063
 30
0.0
 11
173.8960518331
 21
415.9514125063
 31
0.0
  0
LINE
  5
1AF
330
1F
100
AcDbEntity
  8
0
  6
Continuous
 62
     7
370
    25
100
AcDbLine
 10
173.8499392584
 20
387.901411727
 30
0.0
 11
173.8960518331
 21
387.901411727
 31
0.0
  0
LINE
  5
1B0
330
1F
100
AcDbEntity
  8
0
  6
Continuous
 62
     7
370
    25
100
AcDbLine
 10
173.8499392584
 20
426.7014119401
 30
0.0
 11
173.8499392584
 21
417.7014123275
 31
0.0
  0
LINE
  5
1B1
330
1F
100
AcDbEntity
  8
0
  6
Continuous
 62
     7
370
    25
100
AcDbLine
 10
173.8960518331
 20
417.7014123275
 30
0.0
 11
173.8499392584
 21
417.7014123275
 31
0.0
  0
LINE
  5
1B2
330
1F
100
AcDbEntity
  8
0
  6
Continuous
 62
     7
370
    25
100
AcDbLine
 10
181.3968351405
 20
426.7014119401
 30
0.0
 11
181.3968351405
 21
417.7014123275
 31
0.0
  0
LINE
  5
1B3
330
1F
100
AcDbEntity
  8
0
  6
Continuous
 62
     7
370
    25
100
AcDbLine
 10
181.3968351405
 20
417.7014123275
 30
0.0
 11
181.3507225659
 21
417.7014123275
 31
0.0
  0
LINE
  5
1B4
330
1F
100
AcDbEntity
  8
0
  6
Continuous
 62
     7
370
    25
100
AcDbLine
 10
181.3968351405
 20
415.9514125063
 30
0.0
 11
181.3968351405
 21
387.901411727
 31
0.0
  0
LINE
  5
1B5
330
1F
100
AcDbEntity
  8
0
  6
Continuous
 62
     7
370
    25
100
AcDbLine
 10
181.3507225659
 20
415.9514125063
 30
0.0
 11
181.3968351405
 21
415.9514125063
 31
0.0
  0
LINE
  5
1B6
330
1F
100
AcDbEntity
  8
0
  6
Continuous
 62
     7
370
    25
100
AcDbLine
 10
181.3507225659
 20
387.901411727
 30
0.0
 11
181.3968351405
 21
387.901411727
 31
0.0
  0
LINE
  5
1B7
330
1F
100
AcDbEntity
  8
0
  6
Continuous
 62
     7
370
    25
100
AcDbLine
 10
200.1233875115
 20
324.1514119877
 30
0.0
 11
200.1233875115
 21
322.9514103009
 31
0.0
  0
LINE
  5
1B8
330
1F
100
AcDbEntity
  8
0
  6
Continuous
 62
     7
370
    25
100
AcDbLine
 10
196.6233878691
 20
324.1514119877
 30
0.0
 11
196.6233878691
 21
322.9514103009
 31
0.0
  0
LINE
  5
1B9
330
1F
100
AcDbEntity
  8
0
  6
Continuous
 62
     7
370
    25
100
AcDbLine
 10
199.1233873476
 20
321.9514119997
 30
0.0
 11
197.6233861704
 21
321.9514119997
 31
0.0
  0
ARC
  5
1BA
330
1F
100
AcDbEntity
  8
0
  6
Continuous
 62
     7
370
    25
100
AcDbCircle
 10
197.6233870968
 20
322.9514112903
 30
0.0
 40
1.0
100
AcDbArc
 50
180.0
 51
270.0
  0
ARC
  5
1BB
330
1F
100
AcDbEntity
  8
0
  6
Continuous
 62
     7
370
    25
100
AcDbCircle
 10
199.1233870968
 20
322.9514112903
 30
0.0
 40
1.0
100
AcDbArc
 50
270.0
 51
0.0
  0
LINE
  5
1BC
330
1F
100
AcDbEntity
  8
0
  6
Continuous
 62
     7
370
    25
100
AcDbLine
 10
197.6233861704
 20
321.9514119997
 30
0.0
 11
195.4240902622
 21
321.9514119997
 31
0.0
  0
LINE
  5
1BD
330
1F
100
AcDbEntity
  8
0
  6
Continuous
 62
     7
370
    25
100
AcDbLine
 10
195.4240902622
 20
321.9514119997
 30
0.0
 11
191.5915656198
 21
321.9514119997
 31
0.0
  0
LINE
  5
1BE
330
1F
100
AcDbEntity
  8
0
  6
Continuous
 62
     7
370
    25
100
AcDbLine
 10
199.7420463074
 20
321.9514119997
 30
0.0
 11
199.4406479705
 21
321.9514119997
 31
0.0
  0
LINE
  5
1BF
330
1F
100
AcDbEntity
  8
0
  6
Continuous
 62
     7
370
    25
100
AcDbLine
 10
199.4406479705
 20
321.9514119997
 30
0.0
 11
199.1233873476
 21
321.9514119997
 31
0.0
  0
LINE
  5
1C0
330
1F
100
AcDbEntity
  8
0
  6
Continuous
 62
     7
370
    25
100
AcDbLine
 10
191.5915656198
 20
321.9514119997
 30
0.0
 11
188.7003938962
 21
321.9514119997
 31
0.0
  0
LINE
  5
1C1
330
1F
100
AcDbEntity
  8
0
  6
Continuous
 62
     7
370
    25
100
AcDbLine
 10
188.7003938962
 20
321.9514119997
 30
0.0
 11
182.6233869713
 21
321.9514119997
 31
0.0
  0
LINE
  5
1C2
330
1F
100
AcDbEntity
  8
0
  6
Continuous
 62
     7
370
    25
100
AcDbLine
 10
182.6233869713
 20
321.9514119997
 30
0.0
 11
181.873387314
 21
321.9514119997
 31
0.0
  0
SPLINE
  5
1C3
330
1F
100
AcDbEntity
  8
0
  6
Continuous
 62
     8
370
    18
100
AcDbSpline
210
0.0
220
0.0
230
1.0
 70
     8
 71
     3
 72
    60
 73
    56
 74
     0
 42
0.000000001
 43
0.00000001
 40
0.0
 40
0.0
 40
0.0
 40
0.0
 40
0.0625000000000003
 40
0.0625000000000003
 40
0.0937500000000003
 40
0.0937500000000003
 40
0.1250000000000003
 40
0.1250000000000003
 40
0.1875000000000005
 40
0.1875000000000005
 40
0.2500000000000007
 40
0.2500000000000007
 40
0.2812500000000008
 40
0.2812500000000008
 40
0.3125000000000009
 40
0.3125000000000009
 40
0.3437500000000009
 40
0.3437500000000009
 40
0.359375000000001
 40
0.359375000000001
 40
0.375000000000001
 40
0.375000000000001
 40
0.4062500000000011
 40
0.4062500000000011
 40
0.4375000000000012
 40
0.4375000000000012
 40
0.4687500000000012
 40
0.4687500000000012
 40
0.5000000000000013
 40
0.5000000000000013
 40
0.5312500000000013
 40
0.5312500000000013
 40
0.5625000000000013
 40
0.5625000000000013
 40
0.6250000000000013
 40
0.6250000000000013
 40
0.6562500000000012
 40
0.6562500000000012
 40
0.6875000000000011
 40
0.6875000000000011
 40
0.7187500000000011
 40
0.7187500000000011
 40
0.750000000000001
 40
0.750000000000001
 40
0.8125000000000009
 40
0.8125000000000009
 40
0.8437500000000008
 40
0.8437500000000008
 40
0.8750000000000006
 40
0.8750000000000006
 40
0.9062500000000003
 40
0.9062500000000003
 40
0.9375000000000001
 40
0.9375000000000001
 40
1.0
 40
1.0
 40
1.0
 40
1.0
 10
164.222930985134
 20
342.9514112903223
 30
0.0
 10
164.5552070418064
 20
343.943994910714
 30
0.0
 10
164.9726128640803
 20
344.8796039809624
 30
0.0
 10
165.7242564389728
 20
346.2092408260904
 30
0.0
 10
165.9971063696016
 20
346.6416175554306
 30
0.0
 10
166.5818099758008
 20
347.4739896548246
 30
0.0
 10
166.8922914200654
 20
347.8724168492719
 30
0.0
 10
167.879287718819
 20
349.0165009104564
 30
0.0
 10
168.6111452397619
 20
349.7123356739874
 30
0.0
 10
170.2439096243254
 20
350.9588025455712
 30
0.0
 10
171.1203043142174
 20
351.4907942541107
 30
0.0
 10
172.5372705353284
 20
352.1427095538874
 30
0.0
 10
173.0302094323602
 20
352.3362909447331
 30
0.0
 10
174.02973826216
 20
352.6618629704108
 30
0.0
 10
174.5376717958208
 20
352.7949247748656
 30
0.0
 10
175.57037640178
 20
353.0005426303302
 30
0.0
 10
176.0951435093235
 20
353.073111751256
 30
0.0
 10
176.8957425963021
 20
353.1339499037206
 30
0.0
 10
177.165190286539
 20
353.1461322025239
 30
0.0
 10
177.6997565798769
 20
353.1539120333802
 30
0.0
 10
177.9659678942693
 20
353.1496228748302
 30
0.0
 10
178.7614557042597
 20
353.1127386038866
 30
0.0
 10
179.2875942779626
 20
353.0562004021681
 30
0.0
 10
180.3316579629067
 20
352.8801316772719
 30
0.0
 10
180.8518973034369
 20
352.7598280687072
 30
0.0
 10
181.8705390121919
 20
352.459088498134
 30
0.0
 10
182.3657310063408
 20
352.2797379601155
 30
0.0
 10
183.3177489391721
 20
351.8728349955332
 30
0.0
 10
183.7767282218884
 20
351.6446451150169
 30
0.0
 10
184.663458767288
 20
351.1417233852998
 30
0.0
 10
185.0911994367701
 20
350.8669801268626
 30
0.0
 10
185.9169931881149
 20
350.2717743953921
 30
0.0
 10
186.3171537113681
 20
349.94923252075
 30
0.0
 10
187.4521832032796
 20
348.9319180521352
 30
0.0
 10
188.1264663074581
 20
348.1871068866051
 30
0.0
 10
189.0282571642456
 20
346.9705085454477
 30
0.0
 10
189.3113418592774
 20
346.5465612638833
 30
0.0
 10
189.835812491711
 20
345.6710031956163
 30
0.0
 10
190.0762427877863
 20
345.2213939083903
 30
0.0
 10
190.5148199970125
 20
344.2976164538597
 30
0.0
 10
190.7129665960906
 20
343.8234507174627
 30
0.0
 10
191.0665063819723
 20
342.8486614521929
 30
0.0
 10
191.2221946642725
 20
342.3461058787355
 30
0.0
 10
191.6148998454278
 20
340.8249141892346
 30
0.0
 10
191.7818937955873
 20
339.7853384813931
 30
0.0
 10
191.8834895831343
 20
338.1834167161164
 30
0.0
 10
191.8917058722403
 20
337.6486738589598
 30
0.0
 10
191.8582677091149
 20
336.5902494379638
 30
0.0
 10
191.816748175177
 20
336.064552849144
 30
0.0
 10
191.6847539439017
 20
335.0199890859327
 30
0.0
 10
191.5942818326736
 20
334.5011213928061
 30
0.0
 10
191.3634040716853
 20
333.4701192468983
 30
0.0
 10
191.2242790185996
 20
332.9643073232023
 30
0.0
 10
190.7422618757741
 20
331.4865924891043
 30
0.0
 10
190.3342771908763
 20
330.5479785726853
 30
0.0
 10
189.837231700338
 20
329.6514112903222
 30
0.0
  0
LWPOLYLINE
  5
1C4
330
1F
100
AcDbEntity
  8
0
  6
Continuous
 62
     8
370
    18
100
AcDbPolyline
 90
        9
 70
   128
 43
0.0
 10
189.8372314234
 20
329.6514119579
 10
189.6581688259
 20
329.8100832476
 10
189.5024749745
 20
329.9657705798
 10
189.3730816726
 20
330.1155384256
 10
189.27242526
 20
330.2565667405
 10
189.2024009783
 20
330.3861993923
 10
189.1643275801
 20
330.5019963159
 10
189.1589203213
 20
330.6017819418
 10
189.1862835098
 20
330.6836675479
  0
LWPOLYLINE
  5
1C5
330
1F
100
AcDbEntity
  8
0
  6
Continuous
 62
     8
370
    18
100
AcDbPolyline
 90
        9
 70
   128
 43
0.0
 10
164.2229306806
 20
342.9514098539
 10
164.3973785747
 20
342.8503911569
 10
164.5512777675
 20
342.7509221806
 10
164.6822682876
 20
342.6545265688
 10
164.7883403409
 20
342.5626869871
 10
164.8678669069
 20
342.4768078699
 10
164.9196288843
 20
342.3982079699
 10
164.9428327862
 20
342.3280942812
 10
164.9371209849
 20
342.2675396874
  0
LINE
  5
1C6
330
1F
100
AcDbEntity
  8
0
  6
Continuous
 62
     8
370
    18
100
AcDbLine
 10
160.0778932978
 20
339.9514112248
 30
0.0
 11
154.5047267635
 21
339.9514112248
 31
0.0
  0
LINE
  5
1C7
330
1F
100
AcDbEntity
  8
0
  6
Continuous
 62
     8
370
    18
100
AcDbLine
 10
160.0778932978
 20
322.9514103009
 30
0.0
 11
160.0778932978
 21
339.9514112248
 31
0.0
  0
LINE
  5
1C8
330
1F
100
AcDbEntity
  8
0
  6
Continuous
 62
     8
370
    18
100
AcDbLine
 10
154.5047267635
 20
322.9514103009
 30
0.0
 11
160.0778932978
 21
322.9514103009
 31
0.0
  0
LWPOLYLINE
  5
1C9
330
1F
100
AcDbEntity
  8
0
  6
Continuous
 62
     8
370
    18
100
AcDbPolyline
 90
        9
 70
   128
 43
0.0
 10
160.0778932978
 20
322.9514103009
 10
160.0692934651
 20
322.7563205733
 10
160.0438236553
 20
322.5687261297
 10
160.0024617572
 20
322.3958428576
 10
159.9468003322
 20
322.2443054988
 10
159.878977697
 20
322.1199404075
 10
159.8015978296
 20
322.0275308563
 10
159.7176353742
 20
321.970627047
 10
159.6303164322
 20
321.9514119997
  0
LWPOLYLINE
  5
1CA
330
1F
100
AcDbEntity
  8
0
  6
Continuous
 62
     8
370
    18
100
AcDbPolyline
 90
        9
 70
   128
 43
0.0
 10
160.0778932978
 20
339.9514112248
 10
160.0692934651
 20
340.1465009524
 10
160.0438236553
 20
340.334095396
 10
160.0024617572
 20
340.5069823935
 10
159.9468003322
 20
340.6585197522
 10
159.878977697
 20
340.7828811183
 10
159.8015978296
 20
340.8752906694
 10
159.7176353742
 20
340.932198204
 10
159.6303164322
 20
340.9514095261
  0
SPLINE
  5
1CB
330
1F
100
AcDbEntity
  8
0
  6
Continuous
 62
     8
370
    18
100
AcDbSpline
210
0.0
220
0.0
230
1.0
 70
     8
 71
     3
 72
    14
 73
    10
 74
     0
 42
0.000000001
 43
0.00000001
 40
0.0
 40
0.0
 40
0.0
 40
0.0
 40
0.2499999999999992
 40
0.2499999999999992
 40
0.4999999999999994
 40
0.4999999999999994
 40
0.7499999999999997
 40
0.7499999999999997
 40
1.0
 40
1.0
 40
1.0
 40
1.0
 10
160.3070844970535
 20
342.9514112903223
 30
0.0
 10
160.4764641055965
 20
342.9514112903223
 30
0.0
 10
160.6489241106088
 20
342.9268689060396
 30
0.0
 10
160.9999057440521
 20
342.8796862901168
 30
0.0
 10
161.1784366867642
 20
342.8592852162148
 30
0.0
 10
161.5415625877926
 20
342.8592941717872
 30
0.0
 10
161.7261574934303
 20
342.8797016805
 30
0.0
 10
162.101425064848
 20
342.9268785894885
 30
0.0
 10
162.2920980297702
 20
342.9514112903223
 30
0.0
 10
162.4858290283503
 20
342.9514112903223
 30
0.0
  0
LINE
  5
1CC
330
1F
100
AcDbEntity
  8
0
  6
Continuous
 62
     8
370
    18
100
AcDbLine
 10
158.9303995777
 20
342.9514098539
 30
0.0
 11
160.3070843328
 21
342.9514098539
 31
0.0
  0
SPLINE
  5
1CD
330
1F
100
AcDbEntity
  8
0
  6
Continuous
 62
     8
370
    18
100
AcDbSpline
210
0.0
220
0.0
230
1.0
 70
     8
 71
     3
 72
    16
 73
    12
 74
     0
 42
0.000000001
 43
0.00000001
 40
0.0
 40
0.0
 40
0.0
 40
0.0
 40
0.0267194462795717
 40
0.1386631008179094
 40
0.2542038760683753
 40
0.3695399509560348
 40
0.4877351231821943
 40
0.620708438587215
 40
0.7567827949792242
 40
0.8772715917653695
 40
1.0
 40
1.0
 40
1.0
 40
1.0
 10
154.6258787919061
 20
353.1470432503977
 30
0.0
 10
154.6277428274868
 20
353.1437724224314
 30
0.0
 10
154.6374164169376
 20
353.1267981504607
 30
0.0
 10
154.7597836250037
 20
352.9123071141992
 30
0.0
 10
155.0893886768892
 20
352.3243528280184
 30
0.0
 10
155.5755436199218
 20
351.4285312217644
 30
0.0
 10
156.1982289246363
 20
350.2217336463785
 30
0.0
 10
156.9334854499853
 20
348.6873041907325
 30
0.0
 10
157.6880913922
 20
346.9040946107046
 30
0.0
 10
158.3890277731191
 20
344.9875728959086
 30
0.0
 10
158.7488378990541
 20
343.6342846855636
 30
0.0
 10
158.9303995777147
 20
342.9514098538914
 30
0.0
  0
SPLINE
  5
1CE
330
1F
100
AcDbEntity
  8
0
  6
Continuous
 62
     8
370
    18
100
AcDbSpline
210
0.0
220
0.0
230
1.0
 70
     8
 71
     3
 72
    21
 73
    17
 74
     0
 42
0.000000001
 43
0.00000001
 40
0.0
 40
0.0
 40
0.0
 40
0.0
 40
0.0706226640446162
 40
0.1427853753967812
 40
0.214649937021774
 40
0.2887507922820958
 40
0.3526384582577314
 40
0.4180268975940233
 40
0.4833451796596524
 40
0.5498517137927236
 40
0.6270507222873825
 40
0.7060548599367401
 40
0.7883796412804265
 40
0.87385025478275
 40
0.9365278784627391
 40
1.0
 40
1.0
 40
1.0
 40
1.0
 10
197.1124104518669
 20
329.6514119579354
 30
0.0
 10
196.8974781100343
 20
330.3080898331773
 30
0.0
 10
196.4629264610893
 20
331.6357655616369
 30
0.0
 10
195.9730643319191
 20
333.8249251556664
 30
0.0
 10
195.6782330512075
 20
336.1469364295694
 30
0.0
 10
195.6439667889691
 20
338.4323008516189
 30
0.0
 10
195.8425751150377
 20
340.61927222039
 30
0.0
 10
196.2159032087278
 20
342.64144084664
 30
0.0
 10
196.7391212264468
 20
344.581110605445
 30
0.0
 10
197.3967027915227
 20
346.4936859611348
 30
0.0
 10
198.1580436379703
 20
348.3423363490724
 30
0.0
 10
198.9680091243768
 20
350.0663088385671
 30
0.0
 10
199.7227905670786
 20
351.5303892493085
 30
0.0
 10
200.2589145744557
 20
352.5075588928419
 30
0.0
 10
200.5699824468825
 20
353.0580996393518
 30
0.0
 10
200.6043731200973
 20
353.1181757465073
 30
0.0
 10
200.6216767538564
 20
353.1484029813566
 30
0.0
  0
LINE
  5
1CF
330
1F
100
AcDbEntity
  8
0
  6
Continuous
 62
     8
370
    18
100
AcDbLine
 10
189.8372314234
 20
329.6514119579
 30
0.0
 11
197.1124104519
 21
329.6514119579
 31
0.0
  0
LINE
  5
1D0
330
1F
100
AcDbEntity
  8
0
  6
Continuous
 62
     8
370
    18
100
AcDbLine
 10
162.4858287458
 20
342.9514098539
 30
0.0
 11
164.2229306806
 21
342.9514098539
 31
0.0
  0
LINE
  5
1D1
330
1F
100
AcDbEntity
  8
0
  6
Continuous
 62
     8
370
    18
100
AcDbLine
 10
160.0778932978
 20
322.9514103009
 30
0.0
 11
160.9730433036
 21
322.9514103009
 31
0.0
  0
LINE
  5
1D2
330
1F
100
AcDbEntity
  8
0
  6
Continuous
 62
     8
370
    18
100
AcDbLine
 10
160.9730433036
 20
339.9514112248
 30
0.0
 11
160.0778932978
 21
339.9514112248
 31
0.0
  0
LINE
  5
1D3
330
1F
100
AcDbEntity
  8
0
  6
Continuous
 62
     8
370
    18
100
AcDbLine
 10
160.9730433036
 20
339.9514112248
 30
0.0
 11
160.9730433036
 21
322.9514103009
 31
0.0
  0
LINE
  5
1D4
330
1F
100
AcDbEntity
  8
0
  6
Continuous
 62
     8
370
    18
100
AcDbLine
 10
160.9730433036
 20
339.9514112248
 30
0.0
 11
160.9730433036
 21
340.9514095261
 31
0.0
  0
LINE
  5
1D5
330
1F
100
AcDbEntity
  8
0
  6
Continuous
 62
     8
370
    18
100
AcDbLine
 10
160.9730433036
 20
322.9514103009
 30
0.0
 11
160.9730433036
 21
321.9514119997
 31
0.0
  0
ARC
  5
1D6
330
1F
100
AcDbEntity
  8
0
  6
Continuous
 62
     8
370
    18
100
AcDbCircle
 10
163.0576739319
 20
342.9514112903
 30
0.0
 40
3.000000000000005
100
AcDbArc
 50
270.0
 51
296.0951641829
  0
LINE
  5
1D7
330
1F
100
AcDbEntity
  8
0
  6
Continuous
 62
     8
370
    18
100
AcDbLine
 10
163.0576738451
 20
339.9514112248
 30
0.0
 11
163.0576738451
 21
340.9514095261
 31
0.0
  0
LINE
  5
1D8
330
1F
100
AcDbEntity
  8
0
  6
Continuous
 62
     8
370
    18
100
AcDbLine
 10
172.6233871948
 20
325.111475177
 30
0.0
 11
172.6233871948
 21
322.9514103009
 31
0.0
  0
LINE
  5
1D9
330
1F
100
AcDbEntity
  8
0
  6
Continuous
 62
     8
370
    18
100
AcDbLine
 10
160.9730433036
 20
322.9514103009
 30
0.0
 11
172.6233871948
 21
322.9514103009
 31
0.0
  0
LINE
  5
1DA
330
1F
100
AcDbEntity
  8
0
  6
Continuous
 62
     8
370
    18
100
AcDbLine
 10
163.0576738451
 20
339.9514112248
 30
0.0
 11
160.9730433036
 21
339.9514112248
 31
0.0
  0
LINE
  5
1DB
330
1F
100
AcDbEntity
  8
0
  6
Continuous
 62
     8
370
    18
100
AcDbLine
 10
172.6233871948
 20
322.9514103009
 30
0.0
 11
174.3733871324
 21
322.9514103009
 31
0.0
  0
LINE
  5
1DC
330
1F
100
AcDbEntity
  8
0
  6
Continuous
 62
     8
370
    18
100
AcDbLine
 10
172.6233871948
 20
322.9514103009
 30
0.0
 11
172.6233871948
 21
321.9514119997
 31
0.0
  0
SPLINE
  5
1DD
330
1F
100
AcDbEntity
  8
0
  6
Continuous
 62
     8
370
    18
100
AcDbSpline
210
0.0
220
0.0
230
1.0
 70
     8
 71
     3
 72
    16
 73
    12
 74
     0
 42
0.000000001
 43
0.00000001
 40
0.0
 40
0.0
 40
0.0
 40
0.0
 40
0.25
 40
0.25
 40
0.5
 40
0.5
 40
0.75
 40
0.75
 40
0.875
 40
0.875
 40
1.0
 40
1.0
 40
1.0
 40
1.0
 10
189.837231700338
 20
329.6514112903222
 30
0.0
 10
189.6236041480838
 20
329.4373335520687
 30
0.0
 10
189.3987534924432
 20
329.2236193993638
 30
0.0
 10
188.9228279983642
 20
328.8010338672006
 30
0.0
 10
188.6683539609875
 20
328.5896654699918
 30
0.0
 10
188.1502792573499
 20
328.1889325742202
 30
0.0
 10
187.8855052420639
 20
327.9985374626952
 30
0.0
 10
187.4866380468913
 20
327.7269322972645
 30
0.0
 10
187.3574365768525
 20
327.6414345602811
 30
0.0
 10
187.1135460123452
 20
327.4808750983738
 30
0.0
 10
186.9977765133486
 20
327.4052112179244
 30
0.0
 10
186.9080110856328
 20
327.3423305408819
 30
0.0
  0
SPLINE
  5
1DE
330
1F
100
AcDbEntity
  8
0
  6
Continuous
 62
     8
370
    18
100
AcDbSpline
210
0.0
220
0.0
230
1.0
 70
     8
 71
     3
 72
    12
 73
     8
 74
     0
 42
0.000000001
 43
0.00000001
 40
0.0
 40
0.0
 40
0.0
 40
0.0
 40
0.4999999999999983
 40
0.4999999999999983
 40
0.7499999999999991
 40
0.7499999999999991
 40
1.0
 40
1.0
 40
1.0
 40
1.0
 10
185.6567386446228
 20
326.8017448019605
 30
0.0
 10
185.8467866202895
 20
326.9424608508026
 30
0.0
 10
186.0568207083105
 20
327.0490718048599
 30
0.0
 10
186.3809390127225
 20
327.1722499702267
 30
0.0
 10
186.4890183713286
 20
327.2070383610243
 30
0.0
 10
186.7014061064545
 20
327.2738441121217
 30
0.0
 10
186.805523060755
 20
327.3062713403634
 30
0.0
 10
186.9080110856329
 20
327.3423305408819
 30
0.0
  0
LWPOLYLINE
  5
1DF
330
1F
100
AcDbEntity
  8
0
  6
Continuous
 62
     8
370
    18
100
AcDbPolyline
 90
        9
 70
   128
 43
0.0
 10
164.2229306806
 20
342.9514098539
 10
164.2005407546
 20
342.5612303986
 10
164.1342315186
 20
342.1860452368
 10
164.0265501399
 20
341.8402712419
 10
163.8816354159
 20
341.5371965243
 10
163.7050557245
 20
341.2884737923
 10
163.5035985444
 20
341.1036509647
 10
163.2850040976
 20
340.9898396208
 10
163.0576738451
 20
340.9514095261
  0
LWPOLYLINE
  5
1E0
330
1F
100
AcDbEntity
  8
0
  6
Continuous
 62
     8
370
    18
100
AcDbPolyline
 90
        9
 70
   128
 43
0.0
 10
162.4858287458
 20
342.9514098539
 10
162.4605368186
 20
342.5612303986
 10
162.3856305439
 20
342.1860452368
 10
162.2639905025
 20
341.8402712419
 10
162.1002910022
 20
341.5371965243
 10
161.9008221958
 20
341.2884737923
 10
161.6732497994
 20
341.1036509647
 10
161.426318932
 20
340.9898396208
 10
161.1695197705
 20
340.9514095261
  0
SPLINE
  5
1E1
330
1F
100
AcDbEntity
  8
0
  6
Continuous
 62
     8
370
    18
100
AcDbSpline
210
0.0
220
0.0
230
1.0
 70
     8
 71
     3
 72
    16
 73
    12
 74
     0
 42
0.000000001
 43
0.00000001
 40
0.0
 40
0.0
 40
0.0
 40
0.0
 40
0.1250000000000007
 40
0.1250000000000007
 40
0.2500000000000014
 40
0.2500000000000014
 40
0.500000000000001
 40
0.500000000000001
 40
0.7500000000000006
 40
0.7500000000000006
 40
1.0
 40
1.0
 40
1.0
 40
1.0
 10
196.9689312589188
 20
327.3423305408817
 30
0.0
 10
197.093194308141
 20
327.4048419651392
 30
0.0
 10
197.1935434547145
 20
327.4814450362802
 30
0.0
 10
197.3463997720911
 20
327.642000209834
 30
0.0
 10
197.4023198438967
 20
327.7274910558756
 30
0.0
 10
197.5292956161064
 20
327.9990664309136
 30
0.0
 10
197.5564963051254
 20
328.189391218133
 30
0.0
 10
197.5424680961416
 20
328.5900165167093
 30
0.0
 10
197.4981631945438
 20
328.8013169386341
 30
0.0
 10
197.3501881594284
 20
329.2237632371186
 30
0.0
 10
197.2462457644572
 20
329.4374056411603
 30
0.0
 10
197.1124096479439
 20
329.6514112903222
 30
0.0
  0
SPLINE
  5
1E2
330
1F
100
AcDbEntity
  8
0
  6
Continuous
 62
     8
370
    18
100
AcDbSpline
210
0.0
220
0.0
230
1.0
 70
     8
 71
     3
 72
    14
 73
    10
 74
     0
 42
0.000000001
 43
0.00000001
 40
0.0
 40
0.0
 40
0.0
 40
0.0
 40
0.3196802464893079
 40
0.6999139192229756
 40
0.724830490112409
 40
0.8687554705531229
 40
0.9051977342961177
 40
0.983212262074025
 40
1.0
 40
1.0
 40
1.0
 40
1.0
 10
196.1546811569707
 20
327.1772678567925
 30
0.0
 10
196.2461355366239
 20
327.1700992334124
 30
0.0
 10
196.4463674683622
 20
327.1544041151168
 30
0.0
 10
196.6559782673394
 20
327.2141927202883
 30
0.0
 10
196.7999350290631
 20
327.2641069888776
 30
0.0
 10
196.8518051221223
 20
327.2849294540642
 30
0.0
 10
196.9136679068778
 20
327.3135202278741
 30
0.0
 10
196.9440329100267
 20
327.3287956003145
 30
0.0
 10
196.965185212267
 20
327.3402953503636
 30
0.0
 10
196.9689308960216
 20
327.342331744627
 30
0.0
  0
SPLINE
  5
1E3
330
1F
100
AcDbEntity
  8
0
  6
Continuous
 62
     8
370
    18
100
AcDbSpline
210
0.0
220
0.0
230
1.0
 70
     8
 71
     3
 72
    14
 73
    10
 74
     0
 42
0.000000001
 43
0.00000001
 40
0.0
 40
0.0
 40
0.0
 40
0.0
 40
0.0161218536004119
 40
0.0910405029433447
 40
0.1260341949328106
 40
0.2642473268038717
 40
0.288174233525239
 40
0.6533113701048975
 40
1.0
 40
1.0
 40
1.0
 40
1.0
 10
186.9080114472883
 20
327.342331744627
 30
0.0
 10
186.9044117245853
 20
327.3402953478792
 30
0.0
 10
186.8840840021374
 20
327.328795765467
 30
0.0
 10
186.8567041858771
 20
327.3135212415166
 30
0.0
 10
186.8044513919212
 20
327.2849275172851
 30
0.0
 10
186.7650880228916
 20
327.2641126344128
 30
0.0
 10
186.6647336606076
 20
327.2141747287213
 30
0.0
 10
186.5464058536984
 20
327.1523356510395
 30
0.0
 10
186.4196931760436
 20
327.1696380728714
 30
0.0
 10
186.3579788539784
 20
327.1780650689163
 30
0.0
  0
SPLINE
  5
1E4
330
1F
100
AcDbEntity
  8
0
  6
Continuous
 62
     8
370
    18
100
AcDbSpline
210
0.0
220
0.0
230
1.0
 70
     8
 71
     3
 72
    11
 73
     7
 74
     0
 42
0.000000001
 43
0.00000001
 40
0.0
 40
0.0
 40
0.0
 40
0.0
 40
0.5728882641108697
 40
0.8565379708334226
 40
0.9705950653534186
 40
1.0
 40
1.0
 40
1.0
 40
1.0
 10
186.3229723010437
 20
327.1413858606377
 30
0.0
 10
186.4347096384563
 20
327.1775084093293
 30
0.0
 10
186.6017706139542
 20
327.231516034369
 30
0.0
 10
186.7909757137326
 20
327.2978325152508
 30
0.0
 10
186.8742599739348
 20
327.3292383902237
 30
0.0
 10
186.9022702701061
 20
327.3401045450393
 30
0.0
 10
186.9080114472883
 20
327.342331744627
 30
0.0
  0
ARC
  5
1E5
330
1F
100
AcDbEntity
  8
0
  6
Continuous
 62
     8
370
    18
100
AcDbCircle
 10
158.5136442425
 20
342.7348273146
 30
0.0
 40
1.8064704132388
100
AcDbArc
 50
279.1631610399
 51
6.8859076058
  0
ARC
  5
1E6
330
1F
100
AcDbEntity
  8
0
  6
Continuous
 62
     8
370
    18
100
AcDbCircle
 10
157.0960869771
 20
342.7816820939
 30
0.0
 40
1.842148264755791
100
AcDbArc
 50
276.509362834
 51
5.2864886791
  0
SPLINE
  5
1E7
330
1F
100
AcDbEntity
  8
0
  6
Continuous
 62
     8
370
    18
100
AcDbSpline
210
0.0
220
0.0
230
1.0
 70
     8
 71
     3
 72
    23
 73
    19
 74
     0
 42
0.000000001
 43
0.00000001
 40
0.0
 40
0.0
 40
0.0
 40
0.0
 40
0.0426499514757899
 40
0.1092629540190126
 40
0.1313345461241774
 40
0.2163948798244784
 40
0.3048219520533461
 40
0.3832811452902243
 40
0.4635698448078329
 40
0.5282640492426365
 40
0.594177594907282
 40
0.6557711060076263
 40
0.7191026228285904
 40
0.7836526066854431
 40
0.8506115605674871
 40
0.8594701229781466
 40
0.9288035010613626
 40
0.9999999999999999
 40
0.9999999999999999
 40
0.9999999999999999
 40
0.9999999999999999
 10
202.6018771637456
 20
351.1211633308687
 30
0.0
 10
202.6023399003182
 20
351.1218332986852
 30
0.0
 10
202.6035253639144
 20
351.1235496584977
 30
0.0
 10
202.4343173814476
 20
350.8850536671519
 30
0.0
 10
202.1328709053519
 20
350.4524780192813
 30
0.0
 10
201.656102512213
 20
349.7567084970989
 30
0.0
 10
200.8482194122594
 20
348.5039766006414
 30
0.0
 10
199.9573028790792
 20
346.987043965108
 30
0.0
 10
199.1350541477054
 20
345.3933291482655
 30
0.0
 10
198.4111922906713
 20
343.7120081057849
 30
0.0
 10
197.845083692106
 20
342.0409092915888
 30
0.0
 10
197.4316838865444
 20
340.2640494512149
 30
0.0
 10
197.2178513697944
 20
338.416348662397
 30
0.0
 10
197.2417055214333
 20
336.487968066111
 30
0.0
 10
197.4365858587396
 20
335.1279782702608
 30
0.0
 10
197.7234859039408
 20
333.7688772076746
 30
0.0
 10
198.1027168047349
 20
332.4068794933387
 30
0.0
 10
198.5702437881777
 20
331.2631260914449
 30
0.0
 10
198.8071064759271
 20
330.6836675478974
 30
0.0
  0
ARC
  5
1E8
330
1F
100
AcDbEntity
  8
0
  6
Continuous
 62
     8
370
    18
100
AcDbCircle
 10
199.5792599746
 20
327.5087381946
 30
0.0
 40
3.267475696003467
100
AcDbArc
 50
103.6691498316
 51
139.0228393304
  0
LINE
  5
1E9
330
1F
100
AcDbEntity
  8
0
  6
Continuous
 62
     8
370
    18
100
AcDbLine
 10
156.1233877499
 20
342.2675396874
 30
0.0
 11
156.1233877499
 21
340.9514095261
 31
0.0
  0
LINE
  5
1EA
330
1F
100
AcDbEntity
  8
0
  6
Continuous
 62
     8
370
    18
100
AcDbLine
 10
157.3049231727
 20
342.2675396874
 30
0.0
 11
157.3049231727
 21
340.9514095261
 31
0.0
  0
LINE
  5
1EB
330
1F
100
AcDbEntity
  8
0
  6
Continuous
 62
     8
370
    18
100
AcDbLine
 10
156.1233877499
 20
342.2675396874
 30
0.0
 11
157.3049231727
 21
342.2675396874
 31
0.0
  0
ARC
  5
1EC
330
1F
100
AcDbEntity
  8
0
  6
Continuous
 62
     8
370
    18
100
AcDbCircle
 10
156.4160707989
 20
346.6539490994
 30
0.0
 40
4.475560978487284
100
AcDbArc
 50
281.4551806717
 51
304.1797310319
  0
SPLINE
  5
1ED
330
1F
100
AcDbEntity
  8
0
  6
Continuous
 62
     8
370
    18
100
AcDbSpline
210
0.0
220
0.0
230
1.0
 70
     8
 71
     3
 72
    16
 73
    12
 74
     0
 42
0.000000001
 43
0.00000001
 40
0.0
 40
0.0
 40
0.0
 40
0.0
 40
0.1175784823984181
 40
0.2352422303058239
 40
0.3784426641773864
 40
0.5215989724412033
 40
0.629313622570564
 40
0.7369715462486625
 40
0.8521925061988619
 40
0.967352235163057
 40
1.0
 40
1.0
 40
1.0
 40
1.0
 10
157.3049231726901
 20
342.2675396873512
 30
0.0
 10
157.107397638724
 20
342.8623401454388
 30
0.0
 10
156.7122033293172
 20
344.0523723987325
 30
0.0
 10
155.9315335625856
 20
345.7594173522006
 30
0.0
 10
155.0691528067872
 20
347.3836324746917
 30
0.0
 10
154.2576476913505
 20
348.7226951993269
 30
0.0
 10
153.6140232103755
 20
349.7168977452743
 30
0.0
 10
153.1201703090883
 20
350.444562266168
 30
0.0
 10
152.7826442125729
 20
350.928456866877
 30
0.0
 10
152.6156936718112
 20
351.1620714273079
 30
0.0
 10
152.6390986588747
 20
351.1293867075822
 30
0.0
 10
152.6442683596389
 20
351.1221672966042
 30
0.0
  0
LINE
  5
1EE
330
1F
100
AcDbEntity
  8
0
  6
Continuous
 62
     8
370
    18
100
AcDbLine
 10
196.6233878691
 20
326.8017436935
 30
0.0
 11
196.6233878691
 21
324.1514119877
 31
0.0
  0
SPLINE
  5
1EF
330
1F
100
AcDbEntity
  8
0
  6
Continuous
 62
     8
370
    18
100
AcDbSpline
210
0.0
220
0.0
230
1.0
 70
     8
 71
     3
 72
    20
 73
    16
 74
     0
 42
0.000000001
 43
0.00000001
 40
0.0
 40
0.0
 40
0.0
 40
0.0
 40
0.2500000000000015
 40
0.2500000000000015
 40
0.3750000000000012
 40
0.3750000000000012
 40
0.500000000000001
 40
0.500000000000001
 40
0.6250000000000008
 40
0.6250000000000008
 40
0.7500000000000004
 40
0.7500000000000004
 40
0.8750000000000002
 40
0.8750000000000002
 40
1.0
 40
1.0
 40
1.0
 40
1.0
 10
198.807107261089
 20
330.6836693548384
 30
0.0
 10
198.9962258582534
 20
330.2475066254621
 30
0.0
 10
199.1038366046094
 20
329.8125950207297
 30
0.0
 10
199.13098959299
 20
329.1684717747628
 30
0.0
 10
199.1166711290121
 20
328.9581001637017
 30
0.0
 10
199.0401114745623
 20
328.5570723675233
 30
0.0
 10
198.9782215162136
 20
328.3653234914805
 30
0.0
 10
198.8004206615346
 20
327.9991977556662
 30
0.0
 10
198.6848499109864
 20
327.8271606949992
 30
0.0
 10
198.4025747691475
 20
327.5174780140999
 30
0.0
 10
198.2364191286487
 20
327.3792953048879
 30
0.0
 10
197.8443275512269
 20
327.1376748348409
 30
0.0
 10
197.6267063738733
 20
327.0394807175902
 30
0.0
 10
197.1451744571458
 20
326.8858821515495
 30
0.0
 10
196.8883759699261
 20
326.8332319993371
 30
0.0
 10
196.623387096774
 20
326.8017448019637
 30
0.0
  0
SPLINE
  5
1F0
330
1F
100
AcDbEntity
  8
0
  6
Continuous
 62
     8
370
    18
100
AcDbSpline
210
0.0
220
0.0
230
1.0
 70
     8
 71
     3
 72
    12
 73
     8
 74
     0
 42
0.000000001
 43
0.00000001
 40
0.0
 40
0.0
 40
0.0
 40
0.0
 40
0.2499999999999996
 40
0.2499999999999996
 40
0.4999999999999991
 40
0.4999999999999991
 40
1.0
 40
1.0
 40
1.0
 40
1.0
 10
196.9689312589188
 20
327.3423305408817
 30
0.0
 10
196.921682409283
 20
327.3062323302173
 30
0.0
 10
196.8755861289111
 20
327.2737736875848
 30
0.0
 10
196.7966477588348
 20
327.2069053799679
 30
0.0
 10
196.7636517025402
 20
327.172083677394
 30
0.0
 10
196.6815943450862
 20
327.0488054505818
 30
0.0
 10
196.6488032330675
 20
326.9427403579977
 30
0.0
 10
196.6233870967743
 20
326.8017448019641
 30
0.0
  0
ARC
  5
1F1
330
1F
100
AcDbEntity
  8
0
  6
Continuous
 62
     8
370
    18
100
AcDbCircle
 10
195.6920123173
 20
326.7377107436
 30
0.0
 40
0.4768308883234622
100
AcDbArc
 50
20.159523161
 51
61.2594613908
  0
SPLINE
  5
1F2
330
1F
100
AcDbEntity
  8
0
  6
Continuous
 62
     8
370
    18
100
AcDbSpline
210
0.0
220
0.0
230
1.0
 70
     8
 71
     3
 72
    14
 73
    10
 74
     0
 42
0.000000001
 43
0.00000001
 40
0.0
 40
0.0
 40
0.0
 40
0.0
 40
0.25
 40
0.25
 40
0.5
 40
0.5
 40
0.75
 40
0.75
 40
1.0
 40
1.0
 40
1.0
 40
1.0
 10
196.1396305911555
 20
326.9020418275127
 30
0.0
 10
196.2164623173215
 20
326.9294899169622
 30
0.0
 10
196.2907370933695
 20
326.9649483205235
 30
0.0
 10
196.4337773736199
 20
327.038397591248
 30
0.0
 10
196.5027684311791
 20
327.0763421280128
 30
0.0
 10
196.6387380801682
 20
327.1501741387937
 30
0.0
 10
196.7058876407038
 20
327.186100747562
 30
0.0
 10
196.8395507561754
 20
327.2601950056959
 30
0.0
 10
196.9061302311424
 20
327.2987722158627
 30
0.0
 10
196.96893125892
 20
327.3423305408824
 30
0.0
  0
ARC
  5
1F3
330
1F
100
AcDbEntity
  8
0
  6
Continuous
 62
     8
370
    18
100
AcDbCircle
 10
196.6190804686
 20
327.9977255819
 30
0.0
 40
1.195989644980833
100
AcDbArc
 50
246.3667365123
 51
270.2063532931
  0
SPLINE
  5
1F4
330
1F
100
AcDbEntity
  8
0
  6
Continuous
 62
     8
370
    18
100
AcDbSpline
210
0.0
220
0.0
230
1.0
 70
     8
 71
     3
 72
    14
 73
    10
 74
     0
 42
0.000000001
 43
0.00000001
 40
0.0
 40
0.0
 40
0.0
 40
0.0
 40
0.25
 40
0.25
 40
0.5
 40
0.5
 40
0.75
 40
0.75
 40
1.0
 40
1.0
 40
1.0
 40
1.0
 10
196.1396305911557
 20
326.9020418275124
 30
0.0
 10
196.044769600586
 20
326.9001648461602
 30
0.0
 10
195.9616592769825
 20
326.9076937255234
 30
0.0
 10
195.8242113749212
 20
326.9317028140235
 30
0.0
 10
195.7702325231826
 20
326.9478103778945
 30
0.0
 10
195.6886821872214
 20
326.9768458399047
 30
0.0
 10
195.6619720618597
 20
326.9892696899655
 30
0.0
 10
195.6295410241308
 20
327.0028393280692
 30
0.0
 10
195.6233870967742
 20
327.0042187869188
 30
0.0
 10
195.6233870967741
 20
326.999974967435
 30
0.0
  0
LINE
  5
1F5
330
1F
100
AcDbEntity
  8
0
  6
Continuous
 62
     8
370
    18
100
AcDbLine
 10
196.6233878691
 20
322.9514103009
 30
0.0
 11
200.1233875115
 21
322.9514103009
 31
0.0
  0
LINE
  5
1F6
330
1F
100
AcDbEntity
  8
0
  6
Continuous
 62
     8
370
    18
100
AcDbLine
 10
195.1571899761
 20
322.9514103009
 30
0.0
 11
196.6233878691
 21
322.9514103009
 31
0.0
  0
LINE
  5
1F7
330
1F
100
AcDbEntity
  8
0
  6
Continuous
 62
     8
370
    18
100
AcDbLine
 10
195.1571899761
 20
322.9514103009
 30
0.0
 11
195.1571899761
 21
326.9349414482
 31
0.0
  0
ARC
  5
1F8
330
1F
100
AcDbEntity
  8
0
  6
Continuous
 62
     8
370
    18
100
AcDbCircle
 10
196.2940335656
 20
322.7192176031
 30
0.0
 40
1.160313231831359
100
AcDbArc
 50
168.4564865824
 51
221.4313883172
  0
LINE
  5
1F9
330
1F
100
AcDbEntity
  8
0
  6
Continuous
 62
     8
370
    18
100
AcDbLine
 10
190.6278414015
 20
322.9514103009
 30
0.0
 11
195.1571899761
 21
322.9514103009
 31
0.0
  0
ARC
  5
1FA
330
1F
100
AcDbEntity
  8
0
  6
Continuous
 62
     8
370
    18
100
AcDbCircle
 10
191.6100421814
 20
322.9336004638
 30
0.0
 40
0.9823622358360737
100
AcDbArc
 50
178.9611933639
 51
268.9223003618
  0
LINE
  5
1FB
330
1F
100
AcDbEntity
  8
0
  6
Continuous
 62
     8
370
    18
100
AcDbLine
 10
190.6278414015
 20
327.1514106168
 30
0.0
 11
190.6278414015
 21
322.9514103009
 31
0.0
  0
LINE
  5
1FC
330
1F
100
AcDbEntity
  8
0
  6
Continuous
 62
     8
370
    18
100
AcDbLine
 10
200.1233875115
 20
322.9514103009
 30
0.0
 11
200.3348945935
 21
322.9514103009
 31
0.0
  0
ARC
  5
1FD
330
1F
100
AcDbEntity
  8
0
  6
Continuous
 62
     8
370
    18
100
AcDbCircle
 10
199.3846485835
 20
322.9013276886
 30
0.0
 40
0.9515648939631708
100
AcDbArc
 50
273.3737934821
 51
3.0169763533
  0
LINE
  5
1FE
330
1F
100
AcDbEntity
  8
0
  6
Continuous
 62
     8
370
    18
100
AcDbLine
 10
200.3348945935
 20
324.1514119877
 30
0.0
 11
200.3348945935
 21
322.9514103009
 31
0.0
  0
LINE
  5
1FF
330
1F
100
AcDbEntity
  8
0
  6
Continuous
 62
     8
370
    18
100
AcDbLine
 10
188.7003938962
 20
322.9514103009
 30
0.0
 11
190.6278414015
 21
322.9514103009
 31
0.0
  0
LINE
  5
200
330
1F
100
AcDbEntity
  8
0
  6
Continuous
 62
     8
370
    18
100
AcDbLine
 10
188.7003938962
 20
322.9514103009
 30
0.0
 11
188.7003938962
 21
327.1514106168
 31
0.0
  0
LINE
  5
201
330
1F
100
AcDbEntity
  8
0
  6
Continuous
 62
     8
370
    18
100
AcDbLine
 10
188.7003938962
 20
322.9514103009
 30
0.0
 11
188.7003938962
 21
321.9514119997
 31
0.0
  0
LINE
  5
202
330
1F
100
AcDbEntity
  8
0
  6
Continuous
 62
     8
370
    18
100
AcDbLine
 10
200.3348945935
 20
322.9514103009
 30
0.0
 11
200.7420464713
 21
322.9514103009
 31
0.0
  0
LINE
  5
203
330
1F
100
AcDbEntity
  8
0
  6
Continuous
 62
     8
370
    18
100
AcDbLine
 10
182.6233869713
 20
322.9514103009
 30
0.0
 11
188.7003938962
 21
322.9514103009
 31
0.0
  0
LINE
  5
204
330
1F
100
AcDbEntity
  8
0
  6
Continuous
 62
     8
370
    18
100
AcDbLine
 10
182.6233869713
 20
322.9514103009
 30
0.0
 11
182.6233869713
 21
321.9514119997
 31
0.0
  0
LINE
  5
205
330
1F
100
AcDbEntity
  8
0
  6
Continuous
 62
     8
370
    18
100
AcDbLine
 10
180.8733871501
 20
322.9514103009
 30
0.0
 11
182.6233869713
 21
322.9514103009
 31
0.0
  0
LINE
  5
206
330
1F
100
AcDbEntity
  8
0
  6
Continuous
 62
     8
370
    18
100
AcDbLine
 10
182.6233869713
 20
325.111475177
 30
0.0
 11
182.6233869713
 21
322.9514103009
 31
0.0
  0
SPLINE
  5
207
330
1F
100
AcDbEntity
  8
0
  6
Continuous
 62
     7
370
    25
100
AcDbSpline
210
0.0
220
0.0
230
1.0
 70
     8
 71
     3
 72
    14
 73
    10
 74
     0
 42
0.000000001
 43
0.00000001
 40
0.0
 40
0.0
 40
0.0
 40
0.0
 40
0.0806866415144889
 40
0.2179629102537864
 40
0.3236167537537176
 40
0.4747930579701943
 40
0.6378458526397607
 40
0.8510355794674825
 40
1.0
 40
1.0
 40
1.0
 40
1.0
 10
195.8332426209228
 20
144.8945356905159
 30
0.0
 10
195.8372510577883
 20
144.8989244205785
 30
0.0
 10
195.8480792512585
 20
144.9107799193181
 30
0.0
 10
195.9102082368974
 20
144.9732333135641
 30
0.0
 10
196.0535414391544
 20
145.0961249185634
 30
0.0
 10
196.2742762739479
 20
145.2466315080034
 30
0.0
 10
196.5875242234315
 20
145.3913674123726
 30
0.0
 10
196.9271596014283
 20
145.4880056091597
 30
0.0
 10
197.1685195903962
 20
145.4873262696588
 30
0.0
 10
197.2677978981511
 20
145.4870468377765
 30
0.0
  0
SPLINE
  5
208
330
1F
100
AcDbEntity
  8
0
  6
Continuous
 62
     7
370
    25
100
AcDbSpline
210
0.0
220
0.0
230
1.0
 70
     8
 71
     3
 72
    14
 73
    10
 74
     0
 42
0.000000001
 43
0.00000001
 40
0.0
 40
0.0
 40
0.0
 40
0.0
 40
0.0806867395410832
 40
0.2179626575380759
 40
0.3236164406022492
 40
0.4747933651163464
 40
0.6378450477887299
 40
0.8510356646776119
 40
1.0
 40
1.0
 40
1.0
 40
1.0
 10
159.4135324765222
 20
173.0811261012848
 30
0.0
 10
159.4095232137639
 20
173.076737011228
 30
0.0
 10
159.3986928149829
 20
173.0648805681693
 30
0.0
 10
159.3365674253854
 20
173.0024275835214
 30
0.0
 10
159.193233313746
 20
172.8795355345209
 30
0.0
 10
158.9724976621276
 20
172.7290301366888
 30
0.0
 10
158.6592497284338
 20
172.5842939579664
 30
0.0
 10
158.319614293932
 20
172.4876552054839
 30
0.0
 10
158.0782536403524
 20
172.4883345780142
 30
0.0
 10
157.9789753366487
 20
172.4886140227016
 30
0.0
  0
SPLINE
  5
209
330
1F
100
AcDbEntity
  8
0
  6
Continuous
 62
     7
370
    25
100
AcDbSpline
210
0.0
220
0.0
230
1.0
 70
     8
 71
     3
 72
    15
 73
    11
 74
     0
 42
0.000000001
 43
0.00000001
 40
0.0
 40
0.0
 40
0.0
 40
0.0
 40
0.0725535936812234
 40
0.2670499796763333
 40
0.4399619263937667
 40
0.5885808034792819
 40
0.7087883294480026
 40
0.8022265622256656
 40
0.8955541187993935
 40
0.9999999999999999
 40
0.9999999999999999
 40
0.9999999999999999
 40
0.9999999999999999
 10
164.1232232857721
 20
178.6088133603033
 30
0.0
 10
164.1256010219418
 20
178.5618242817633
 30
0.0
 10
164.134352819938
 20
178.3888703061927
 30
0.0
 10
164.0728528566822
 20
178.1071819391098
 30
0.0
 10
163.9616542138006
 20
177.7945354041764
 30
0.0
 10
163.8253072682336
 20
177.5503210210694
 30
0.0
 10
163.6999194155251
 20
177.3798098540195
 30
0.0
 10
163.6121147478464
 20
177.2796365644809
 30
0.0
 10
163.5558347744113
 20
177.221758021657
 30
0.0
 10
163.53868989192
 20
177.2056312766834
 30
0.0
 10
163.5296355296151
 20
177.1971146017011
 30
0.0
  0
SPLINE
  5
20A
330
1F
100
AcDbEntity
  8
0
  6
Continuous
 62
     7
370
    25
100
AcDbSpline
210
0.0
220
0.0
230
1.0
 70
     8
 71
     3
 72
    15
 73
    11
 74
     0
 42
0.000000001
 43
0.00000001
 40
0.0
 40
0.0
 40
0.0
 40
0.0
 40
0.0725535940340338
 40
0.2670499809749322
 40
0.4399628165754218
 40
0.5885808888143047
 40
0.7087881724110396
 40
0.80222640564307
 40
0.895553962670627
 40
0.9999999999999999
 40
0.9999999999999999
 40
0.9999999999999999
 40
0.9999999999999999
 10
191.1235508803503
 20
139.3668475001749
 30
0.0
 10
191.1211731364589
 20
139.4138365827638
 30
0.0
 10
191.112421310041
 20
139.5867905732375
 30
0.0
 10
191.1739218676514
 20
139.8684792623328
 30
0.0
 10
191.285118883097
 20
140.1811267165327
 30
0.0
 10
191.4214676721195
 20
140.4253397824766
 30
0.0
 10
191.5468536237042
 20
140.5958512127756
 30
0.0
 10
191.6346586500638
 20
140.6960242643687
 30
0.0
 10
191.6909380426976
 20
140.7539028849939
 30
0.0
 10
191.7080844132828
 20
140.7700295958332
 30
0.0
 10
191.7171395678298
 20
140.778546258777
 30
0.0
  0
LINE
  5
20B
330
1F
100
AcDbEntity
  8
0
  6
Continuous
 62
     7
370
    25
100
AcDbLine
 10
191.1233869676
 20
184.9878309667
 30
0.0
 11
190.6233868856
 21
185.4878301173
 31
0.0
  0
LINE
  5
20C
330
1F
100
AcDbEntity
  8
0
  6
Continuous
 62
     7
370
    25
100
AcDbLine
 10
164.6233872805
 20
185.4878301173
 30
0.0
 11
164.1233871985
 21
184.9878309667
 31
0.0
  0
LINE
  5
20D
330
1F
100
AcDbEntity
  8
0
  6
Continuous
 62
     7
370
    25
100
AcDbLine
 10
191.1233869676
 20
181.4878313243
 30
0.0
 11
191.1233869676
 21
184.9878309667
 31
0.0
  0
LINE
  5
20E
330
1F
100
AcDbEntity
  8
0
  6
Continuous
 62
     7
370
    25
100
AcDbLine
 10
164.1233871985
 20
184.9878309667
 30
0.0
 11
164.1233871985
 21
178.6134774238
 31
0.0
  0
LINE
  5
20F
330
1F
100
AcDbEntity
  8
0
  6
Continuous
 62
     7
370
    25
100
AcDbLine
 10
203.6233871538
 20
145.4878310114
 30
0.0
 11
204.1233863045
 21
145.9878310933
 31
0.0
  0
LINE
  5
210
330
1F
100
AcDbEntity
  8
0
  6
Continuous
 62
     7
370
    25
100
AcDbLine
 10
204.1233863045
 20
171.9878306985
 30
0.0
 11
203.6233871538
 21
172.4878307804
 31
0.0
  0
LINE
  5
211
330
1F
100
AcDbEntity
  8
0
  6
Continuous
 62
     7
370
    25
100
AcDbLine
 10
151.6233879436
 20
172.4878307804
 30
0.0
 11
151.1233869303
 21
171.9878306985
 31
0.0
  0
LINE
  5
212
330
1F
100
AcDbEntity
  8
0
  6
Continuous
 62
     7
370
    25
100
AcDbLine
 10
151.1233869303
 20
145.9878310933
 30
0.0
 11
151.6233879436
 21
145.4878310114
 31
0.0
  0
LINE
  5
213
330
1F
100
AcDbEntity
  8
0
  6
Continuous
 62
     7
370
    25
100
AcDbLine
 10
157.9789716114
 20
172.4878307804
 30
0.0
 11
151.6233879436
 21
172.4878307804
 31
0.0
  0
LINE
  5
214
330
1F
100
AcDbEntity
  8
0
  6
Continuous
 62
     7
370
    25
100
AcDbLine
 10
151.6233879436
 20
145.4878310114
 30
0.0
 11
155.123387586
 21
145.4878310114
 31
0.0
  0
LINE
  5
215
330
1F
100
AcDbEntity
  8
0
  6
Continuous
 62
     7
370
    25
100
AcDbLine
 10
197.2678034861
 20
145.4878310114
 30
0.0
 11
203.6233871538
 21
145.4878310114
 31
0.0
  0
LINE
  5
216
330
1F
100
AcDbEntity
  8
0
  6
Continuous
 62
     7
370
    25
100
AcDbLine
 10
203.6233871538
 20
172.4878307804
 30
0.0
 11
200.1233875115
 21
172.4878307804
 31
0.0
  0
LINE
  5
217
330
1F
100
AcDbEntity
  8
0
  6
Continuous
 62
     7
370
    25
100
AcDbLine
 10
164.1233871985
 20
136.4878313988
 30
0.0
 11
164.1233871985
 21
132.9878298938
 31
0.0
  0
LINE
  5
218
330
1F
100
AcDbEntity
  8
0
  6
Continuous
 62
     7
370
    25
100
AcDbLine
 10
191.1233869676
 20
132.9878298938
 30
0.0
 11
191.1233869676
 21
139.3621834367
 31
0.0
  0
LINE
  5
219
330
1F
100
AcDbEntity
  8
0
  6
Continuous
 62
     7
370
    25
100
AcDbLine
 10
164.1233871985
 20
132.9878298938
 30
0.0
 11
164.6233872805
 21
132.4878307432
 31
0.0
  0
LINE
  5
21A
330
1F
100
AcDbEntity
  8
0
  6
Continuous
 62
     7
370
    25
100
AcDbLine
 10
190.6233868856
 20
132.4878307432
 30
0.0
 11
191.1233869676
 21
132.9878298938
 31
0.0
  0
LINE
  5
21B
330
1F
100
AcDbEntity
  8
0
  6
Continuous
 62
     7
370
    25
100
AcDbLine
 10
216.6233874221
 20
146.9878303259
 30
0.0
 11
223.6233867068
 21
146.9878303259
 31
0.0
  0
LINE
  5
21C
330
1F
100
AcDbEntity
  8
0
  6
Continuous
 62
     7
370
    25
100
AcDbLine
 10
223.6233867068
 20
170.9878305345
 30
0.0
 11
216.6233874221
 21
170.9878305345
 31
0.0
  0
LINE
  5
21D
330
1F
100
AcDbEntity
  8
0
  6
Continuous
 62
     7
370
    25
100
AcDbLine
 10
216.1233864088
 20
147.2378308326
 30
0.0
 11
216.6233874221
 21
147.2378308326
 31
0.0
  0
LINE
  5
21E
330
1F
100
AcDbEntity
  8
0
  6
Continuous
 62
     7
370
    25
100
AcDbLine
 10
216.6233874221
 20
170.7378309592
 30
0.0
 11
216.1233864088
 21
170.7378309592
 31
0.0
  0
LINE
  5
21F
330
1F
100
AcDbEntity
  8
0
  6
Continuous
 62
     7
370
    25
100
AcDbLine
 10
223.6233867068
 20
147.2378308326
 30
0.0
 11
224.1233877201
 21
147.2378308326
 31
0.0
  0
LINE
  5
220
330
1F
100
AcDbEntity
  8
0
  6
Continuous
 62
     7
370
    25
100
AcDbLine
 10
224.1233877201
 20
170.7378309592
 30
0.0
 11
223.6233867068
 21
170.7378309592
 31
0.0
  0
LINE
  5
221
330
1F
100
AcDbEntity
  8
0
  6
Continuous
 62
     7
370
    25
100
AcDbLine
 10
188.120886806
 20
202.9878301918
 30
0.0
 11
187.1208866421
 21
203.9878322184
 31
0.0
  0
LINE
  5
222
330
1F
100
AcDbEntity
  8
0
  6
Continuous
 62
     7
370
    25
100
AcDbLine
 10
168.1258870583
 20
203.9878322184
 30
0.0
 11
167.1258873601
 21
202.9878301918
 31
0.0
  0
LINE
  5
223
330
1F
100
AcDbEntity
  8
0
  6
Continuous
 62
     7
370
    25
100
AcDbLine
 10
188.120886806
 20
185.4878301173
 30
0.0
 11
188.120886806
 21
202.9878301918
 31
0.0
  0
LINE
  5
224
330
1F
100
AcDbEntity
  8
0
  6
Continuous
 62
     7
370
    25
100
AcDbLine
 10
167.1258873601
 20
202.9878301918
 30
0.0
 11
167.1258873601
 21
185.4878301173
 31
0.0
  0
LINE
  5
225
330
1F
100
AcDbEntity
  8
0
  6
Continuous
 62
     7
370
    25
100
AcDbLine
 10
151.1233869303
 20
169.4853306189
 30
0.0
 11
133.6233868558
 21
169.4853306189
 31
0.0
  0
LINE
  5
226
330
1F
100
AcDbEntity
  8
0
  6
Continuous
 62
     7
370
    25
100
AcDbLine
 10
133.6233868558
 20
148.4903302416
 30
0.0
 11
151.1233869303
 21
148.4903302416
 31
0.0
  0
LINE
  5
227
330
1F
100
AcDbEntity
  8
0
  6
Continuous
 62
     7
370
    25
100
AcDbLine
 10
133.6233868558
 20
169.4853306189
 30
0.0
 11
132.6233885546
 21
168.485330455
 31
0.0
  0
LINE
  5
228
330
1F
100
AcDbEntity
  8
0
  6
Continuous
 62
     7
370
    25
100
AcDbLine
 10
132.6233885546
 20
149.4903304055
 30
0.0
 11
133.6233868558
 21
148.4903302416
 31
0.0
  0
LINE
  5
229
330
1F
100
AcDbEntity
  8
0
  6
Continuous
 62
     7
370
    25
100
AcDbLine
 10
204.1233863045
 20
148.4903302416
 30
0.0
 11
216.1233864088
 21
148.4903302416
 31
0.0
  0
LINE
  5
22A
330
1F
100
AcDbEntity
  8
0
  6
Continuous
 62
     7
370
    25
100
AcDbLine
 10
216.1233864088
 20
169.4853306189
 30
0.0
 11
204.1233863045
 21
169.4853306189
 31
0.0
  0
LINE
  5
22B
330
1F
100
AcDbEntity
  8
0
  6
Continuous
 62
     7
370
    25
100
AcDbLine
 10
167.1258873601
 20
132.4878307432
 30
0.0
 11
167.1258873601
 21
114.9878306687
 31
0.0
  0
LINE
  5
22C
330
1F
100
AcDbEntity
  8
0
  6
Continuous
 62
     7
370
    25
100
AcDbLine
 10
188.120886806
 20
114.9878306687
 30
0.0
 11
188.120886806
 21
132.4878307432
 31
0.0
  0
LINE
  5
22D
330
1F
100
AcDbEntity
  8
0
  6
Continuous
 62
     7
370
    25
100
AcDbLine
 10
167.1258873601
 20
114.9878306687
 30
0.0
 11
168.1258870583
 21
113.9878323674
 31
0.0
  0
LINE
  5
22E
330
1F
100
AcDbEntity
  8
0
  6
Continuous
 62
     7
370
    25
100
AcDbLine
 10
187.1208866421
 20
113.9878323674
 30
0.0
 11
188.120886806
 21
114.9878306687
 31
0.0
  0
ARC
  5
22F
330
1F
100
AcDbEntity
  8
0
  6
Continuous
 62
     7
370
    25
100
AcDbCircle
 10
177.6233870968
 20
158.9878306452
 30
0.0
 40
3.799999999999986
100
AcDbArc
 50
78.7771816359
 51
83.2228183641
  0
SPLINE
  5
230
330
1F
100
AcDbEntity
  8
0
  6
Continuous
 62
     7
370
    25
100
AcDbSpline
210
0.0
220
0.0
230
1.0
 70
    24
 71
     3
 72
     8
 73
     4
 74
     0
 42
0.000000001
 43
0.00000001
 40
0.0
 40
0.0
 40
0.0
 40
0.0
 40
1.0
 40
1.0
 40
1.0
 40
1.0
 10
178.6508733935202
 20
162.1501083053296
 30
0.0
 10
178.5529354773443
 20
162.3423222885037
 30
0.0
 10
178.4572747085305
 20
162.5300671183423
 30
0.0
 10
178.3629621221345
 20
162.7151659912045
 30
0.0
  0
SPLINE
  5
231
330
1F
100
AcDbEntity
  8
0
  6
Continuous
 62
     7
370
    25
100
AcDbSpline
210
0.0
220
0.0
230
1.0
 70
    24
 71
     3
 72
     8
 73
     4
 74
     0
 42
0.000000001
 43
0.00000001
 40
0.0
 40
0.0
 40
0.0
 40
0.0
 40
1.0
 40
1.0
 40
1.0
 40
1.0
 10
179.215931079395
 20
162.4380195767153
 30
0.0
 10
179.0308322065329
 20
162.3437069903193
 30
0.0
 10
178.8430873766943
 20
162.2480462215055
 30
0.0
 10
178.6508733935202
 20
162.1501083053296
 30
0.0
  0
ARC
  5
232
330
1F
100
AcDbEntity
  8
0
  6
Continuous
 62
     7
370
    25
100
AcDbCircle
 10
177.6233870968
 20
158.9878306452
 30
0.0
 40
3.799999999999986
100
AcDbArc
 50
60.7771816359
 51
65.2228183641
  0
SPLINE
  5
233
330
1F
100
AcDbEntity
  8
0
  6
Continuous
 62
     7
370
    25
100
AcDbSpline
210
0.0
220
0.0
230
1.0
 70
    24
 71
     3
 72
     8
 73
     4
 74
     0
 42
0.000000001
 43
0.00000001
 40
0.0
 40
0.0
 40
0.0
 40
0.0
 40
1.0
 40
1.0
 40
1.0
 40
1.0
 10
179.5777821726227
 20
161.677824693017
 30
0.0
 10
179.5440350665012
 20
161.8908955354078
 30
0.0
 10
179.5110726120134
 20
162.0990122823571
 30
0.0
 10
179.4785747095941
 20
162.3041959629813
 30
0.0
  0
SPLINE
  5
234
330
1F
100
AcDbEntity
  8
0
  6
Continuous
 62
     7
370
    25
100
AcDbSpline
210
0.0
220
0.0
230
1.0
 70
    24
 71
     3
 72
     8
 73
     4
 74
     0
 42
0.000000001
 43
0.00000001
 40
0.0
 40
0.0
 40
0.0
 40
0.0
 40
1.0
 40
1.0
 40
1.0
 40
1.0
 10
180.2041534425869
 20
161.7770321560457
 30
0.0
 10
179.9989697619627
 20
161.7445342536263
 30
0.0
 10
179.7908530150134
 20
161.7115717991386
 30
0.0
 10
179.5777821726227
 20
161.677824693017
 30
0.0
  0
ARC
  5
235
330
1F
100
AcDbEntity
  8
0
  6
Continuous
 62
     7
370
    25
100
AcDbCircle
 10
177.6233870968
 20
158.9878306452
 30
0.0
 40
3.799999999999975
100
AcDbArc
 50
42.7771816359
 51
47.2228183641
  0
SPLINE
  5
236
330
1F
100
AcDbEntity
  8
0
  6
Continuous
 62
     7
370
    25
100
AcDbSpline
210
0.0
220
0.0
230
1.0
 70
    24
 71
     3
 72
     8
 73
     4
 74
     0
 42
0.000000001
 43
0.00000001
 40
0.0
 40
0.0
 40
0.0
 40
0.0
 40
1.0
 40
1.0
 40
1.0
 40
1.0
 10
180.31338114463
 20
160.9422257210098
 30
0.0
 10
180.3471282507515
 20
161.1552965634005
 30
0.0
 10
180.3800907052392
 20
161.3634133103498
 30
0.0
 10
180.4125886076586
 20
161.568596990974
 30
0.0
  0
SPLINE
  5
237
330
1F
100
AcDbEntity
  8
0
  6
Continuous
 62
     7
370
    25
100
AcDbSpline
210
0.0
220
0.0
230
1.0
 70
    24
 71
     3
 72
     8
 73
     4
 74
     0
 42
0.000000001
 43
0.00000001
 40
0.0
 40
0.0
 40
0.0
 40
0.0
 40
1.0
 40
1.0
 40
1.0
 40
1.0
 10
180.9397524145942
 20
160.8430182579811
 30
0.0
 10
180.73456873397
 20
160.8755161604005
 30
0.0
 10
180.5264519870207
 20
160.9084786148883
 30
0.0
 10
180.31338114463
 20
160.9422257210098
 30
0.0
  0
ARC
  5
238
330
1F
100
AcDbEntity
  8
0
  6
Continuous
 62
     7
370
    25
100
AcDbCircle
 10
177.6233870968
 20
158.9878306452
 30
0.0
 40
3.799999999999977
100
AcDbArc
 50
24.7771816359
 51
29.2228183641
  0
SPLINE
  5
239
330
1F
100
AcDbEntity
  8
0
  6
Continuous
 62
     7
370
    25
100
AcDbSpline
210
0.0
220
0.0
230
1.0
 70
    24
 71
     3
 72
     8
 73
     4
 74
     0
 42
0.000000001
 43
0.00000001
 40
0.0
 40
0.0
 40
0.0
 40
0.0
 40
1.0
 40
1.0
 40
1.0
 40
1.0
 10
180.7856647569425
 20
160.0153169419073
 30
0.0
 10
180.8836026731184
 20
160.2075309250813
 30
0.0
 10
180.9792634419322
 20
160.39527575492
 30
0.0
 10
181.0735760283282
 20
160.5803746277821
 30
0.0
  0
SPLINE
  5
23A
330
1F
100
AcDbEntity
  8
0
  6
Continuous
 62
     7
370
    25
100
AcDbSpline
210
0.0
220
0.0
230
1.0
 70
    24
 71
     3
 72
     8
 73
     4
 74
     0
 42
0.000000001
 43
0.00000001
 40
0.0
 40
0.0
 40
0.0
 40
0.0
 40
1.0
 40
1.0
 40
1.0
 40
1.0
 10
181.3507224428174
 20
159.7274056705216
 30
0.0
 10
181.1656235699552
 20
159.8217182569176
 30
0.0
 10
180.9778787401166
 20
159.9173790257314
 30
0.0
 10
180.7856647569425
 20
160.0153169419073
 30
0.0
  0
ARC
  5
23B
330
1F
100
AcDbEntity
  8
0
  6
Continuous
 62
     7
370
    25
100
AcDbCircle
 10
177.6233870968
 20
158.9878306452
 30
0.0
 40
3.799999999999986
100
AcDbArc
 50
6.7771816359
 51
11.2228183641
  0
SPLINE
  5
23C
330
1F
100
AcDbEntity
  8
0
  6
Continuous
 62
     7
370
    25
100
AcDbSpline
210
0.0
220
0.0
230
1.0
 70
    24
 71
     3
 72
     8
 73
     4
 74
     0
 42
0.000000001
 43
0.00000001
 40
0.0
 40
0.0
 40
0.0
 40
0.0
 40
1.0
 40
1.0
 40
1.0
 40
1.0
 10
180.9484025989938
 20
158.9878306451613
 30
0.0
 10
181.1009444740651
 20
159.1403725202325
 30
0.0
 10
181.2499396156923
 20
159.2893676618597
 30
0.0
 10
181.3968349174975
 20
159.4362629636649
 30
0.0
  0
SPLINE
  5
23D
330
1F
100
AcDbEntity
  8
0
  6
Continuous
 62
     7
370
    25
100
AcDbSpline
210
0.0
220
0.0
230
1.0
 70
    24
 71
     3
 72
     8
 73
     4
 74
     0
 42
0.000000001
 43
0.00000001
 40
0.0
 40
0.0
 40
0.0
 40
0.0
 40
1.0
 40
1.0
 40
1.0
 40
1.0
 10
181.3968349174975
 20
158.5393983266576
 30
0.0
 10
181.2499396156923
 20
158.6862936284628
 30
0.0
 10
181.1009444740651
 20
158.83528877009
 30
0.0
 10
180.9484025989938
 20
158.9878306451613
 30
0.0
  0
ARC
  5
23E
330
1F
100
AcDbEntity
  8
0
  6
Continuous
 62
     7
370
    25
100
AcDbCircle
 10
177.6233870968
 20
158.9878306452
 30
0.0
 40
3.800000000000008
100
AcDbArc
 50
348.7771816359
 51
353.2228183641
  0
SPLINE
  5
23F
330
1F
100
AcDbEntity
  8
0
  6
Continuous
 62
     7
370
    25
100
AcDbSpline
210
0.0
220
0.0
230
1.0
 70
    24
 71
     3
 72
     8
 73
     4
 74
     0
 42
0.000000001
 43
0.00000001
 40
0.0
 40
0.0
 40
0.0
 40
0.0
 40
1.0
 40
1.0
 40
1.0
 40
1.0
 10
180.7856647569426
 20
157.9603443484152
 30
0.0
 10
180.9778787401166
 20
158.0582822645911
 30
0.0
 10
181.1656235699553
 20
158.1539430334049
 30
0.0
 10
181.3507224428174
 20
158.2482556198009
 30
0.0
  0
SPLINE
  5
240
330
1F
100
AcDbEntity
  8
0
  6
Continuous
 62
     7
370
    25
100
AcDbSpline
210
0.0
220
0.0
230
1.0
 70
    24
 71
     3
 72
     8
 73
     4
 74
     0
 42
0.000000001
 43
0.00000001
 40
0.0
 40
0.0
 40
0.0
 40
0.0
 40
1.0
 40
1.0
 40
1.0
 40
1.0
 10
181.0735760283282
 20
157.3952866625404
 30
0.0
 10
180.9792634419322
 20
157.5803855354025
 30
0.0
 10
180.8836026731184
 20
157.7681303652411
 30
0.0
 10
180.7856647569426
 20
157.9603443484152
 30
0.0
  0
ARC
  5
241
330
1F
100
AcDbEntity
  8
0
  6
Continuous
 62
     7
370
    25
100
AcDbCircle
 10
177.6233870968
 20
158.9878306452
 30
0.0
 40
3.800000000000025
100
AcDbArc
 50
330.7771816359
 51
335.2228183641
  0
SPLINE
  5
242
330
1F
100
AcDbEntity
  8
0
  6
Continuous
 62
     7
370
    25
100
AcDbSpline
210
0.0
220
0.0
230
1.0
 70
    24
 71
     3
 72
     8
 73
     4
 74
     0
 42
0.000000001
 43
0.00000001
 40
0.0
 40
0.0
 40
0.0
 40
0.0
 40
1.0
 40
1.0
 40
1.0
 40
1.0
 10
180.31338114463
 20
157.0334355693127
 30
0.0
 10
180.5264519870207
 20
157.0671826754342
 30
0.0
 10
180.7345687339701
 20
157.100145129922
 30
0.0
 10
180.9397524145943
 20
157.1326430323413
 30
0.0
  0
SPLINE
  5
243
330
1F
100
AcDbEntity
  8
0
  6
Continuous
 62
     7
370
    25
100
AcDbSpline
210
0.0
220
0.0
230
1.0
 70
     8
 71
     3
 72
     8
 73
     4
 74
     0
 42
0.000000001
 43
0.00000001
 40
0.0
 40
0.0
 40
0.0
 40
0.0
 40
1.0
 40
1.0
 40
1.0
 40
1.0
 10
180.31338114463
 20
157.0334355693127
 30
0.0
 10
180.106997619135
 20
156.7494197801362
 30
0.0
 10
179.8617979617993
 20
156.5042201228004
 30
0.0
 10
179.5777821726227
 20
156.2978365973054
 30
0.0
  0
SPLINE
  5
244
330
1F
100
AcDbEntity
  8
0
  6
Continuous
 62
     7
370
    25
100
AcDbSpline
210
0.0
220
0.0
230
1.0
 70
    24
 71
     3
 72
     8
 73
     4
 74
     0
 42
0.000000001
 43
0.00000001
 40
0.0
 40
0.0
 40
0.0
 40
0.0
 40
1.0
 40
1.0
 40
1.0
 40
1.0
 10
179.4785747095941
 20
155.6714653273412
 30
0.0
 10
179.5110726120135
 20
155.8766490079654
 30
0.0
 10
179.5440350665012
 20
156.0847657549147
 30
0.0
 10
179.5777821726228
 20
156.2978365973054
 30
0.0
  0
ARC
  5
245
330
1F
100
AcDbEntity
  8
0
  6
Continuous
 62
     7
370
    25
100
AcDbCircle
 10
177.6233870968
 20
158.9878306452
 30
0.0
 40
3.800000000000028
100
AcDbArc
 50
294.7771816359
 51
299.2228183641
  0
SPLINE
  5
246
330
1F
100
AcDbEntity
  8
0
  6
Continuous
 62
     7
370
    25
100
AcDbSpline
210
0.0
220
0.0
230
1.0
 70
    24
 71
     3
 72
     8
 73
     4
 74
     0
 42
0.000000001
 43
0.00000001
 40
0.0
 40
0.0
 40
0.0
 40
0.0
 40
1.0
 40
1.0
 40
1.0
 40
1.0
 10
178.6508733935202
 20
155.8255529849928
 30
0.0
 10
178.8430873766943
 20
155.727615068817
 30
0.0
 10
179.0308322065329
 20
155.6319543000032
 30
0.0
 10
179.2159310793951
 20
155.5376417136072
 30
0.0
  0
SPLINE
  5
247
330
1F
100
AcDbEntity
  8
0
  6
Continuous
 62
     7
370
    25
100
AcDbSpline
210
0.0
220
0.0
230
1.0
 70
    24
 71
     3
 72
     8
 73
     4
 74
     0
 42
0.000000001
 43
0.00000001
 40
0.0
 40
0.0
 40
0.0
 40
0.0
 40
1.0
 40
1.0
 40
1.0
 40
1.0
 10
178.3629621221346
 20
155.260495299118
 30
0.0
 10
178.4572747085306
 20
155.4455941719801
 30
0.0
 10
178.5529354773444
 20
155.6333390018188
 30
0.0
 10
178.6508733935202
 20
155.8255529849928
 30
0.0
  0
ARC
  5
248
330
1F
100
AcDbEntity
  8
0
  6
Continuous
 62
     7
370
    25
100
AcDbCircle
 10
177.6233870968
 20
158.9878306452
 30
0.0
 40
3.800000000000038
100
AcDbArc
 50
276.7771816359
 51
281.2228183641
  0
SPLINE
  5
249
330
1F
100
AcDbEntity
  8
0
  6
Continuous
 62
     7
370
    25
100
AcDbSpline
210
0.0
220
0.0
230
1.0
 70
    24
 71
     3
 72
     8
 73
     4
 74
     0
 42
0.000000001
 43
0.00000001
 40
0.0
 40
0.0
 40
0.0
 40
0.0
 40
1.0
 40
1.0
 40
1.0
 40
1.0
 10
177.6233870967742
 20
155.6628151429416
 30
0.0
 10
177.7759289718455
 20
155.5102732678703
 30
0.0
 10
177.9249241134727
 20
155.3612781262432
 30
0.0
 10
178.0718194152779
 20
155.2143828244379
 30
0.0
  0
SPLINE
  5
24A
330
1F
100
AcDbEntity
  8
0
  6
Continuous
 62
     7
370
    25
100
AcDbSpline
210
0.0
220
0.0
230
1.0
 70
    24
 71
     3
 72
     8
 73
     4
 74
     0
 42
0.000000001
 43
0.00000001
 40
0.0
 40
0.0
 40
0.0
 40
0.0
 40
1.0
 40
1.0
 40
1.0
 40
1.0
 10
177.1749547782705
 20
155.2143828244379
 30
0.0
 10
177.3218500800758
 20
155.3612781262431
 30
0.0
 10
177.4708452217029
 20
155.5102732678703
 30
0.0
 10
177.6233870967742
 20
155.6628151429416
 30
0.0
  0
ARC
  5
24B
330
1F
100
AcDbEntity
  8
0
  6
Continuous
 62
     7
370
    25
100
AcDbCircle
 10
177.6233870968
 20
158.9878306452
 30
0.0
 40
3.800000000000034
100
AcDbArc
 50
258.7771816359
 51
263.2228183641
  0
SPLINE
  5
24C
330
1F
100
AcDbEntity
  8
0
  6
Continuous
 62
     7
370
    25
100
AcDbSpline
210
0.0
220
0.0
230
1.0
 70
    24
 71
     3
 72
     8
 73
     4
 74
     0
 42
0.000000001
 43
0.00000001
 40
0.0
 40
0.0
 40
0.0
 40
0.0
 40
1.0
 40
1.0
 40
1.0
 40
1.0
 10
176.5959008000282
 20
155.8255529849928
 30
0.0
 10
176.6938387162041
 20
155.6333390018187
 30
0.0
 10
176.7894994850178
 20
155.4455941719801
 30
0.0
 10
176.8838120714138
 20
155.260495299118
 30
0.0
  0
SPLINE
  5
24D
330
1F
100
AcDbEntity
  8
0
  6
Continuous
 62
     7
370
    25
100
AcDbSpline
210
0.0
220
0.0
230
1.0
 70
    24
 71
     3
 72
     8
 73
     4
 74
     0
 42
0.000000001
 43
0.00000001
 40
0.0
 40
0.0
 40
0.0
 40
0.0
 40
1.0
 40
1.0
 40
1.0
 40
1.0
 10
176.0308431141534
 20
155.5376417136071
 30
0.0
 10
176.2159419870155
 20
155.6319543000032
 30
0.0
 10
176.4036868168541
 20
155.7276150688169
 30
0.0
 10
176.5959008000282
 20
155.8255529849928
 30
0.0
  0
ARC
  5
24E
330
1F
100
AcDbEntity
  8
0
  6
Continuous
 62
     7
370
    25
100
AcDbCircle
 10
177.6233870968
 20
158.9878306452
 30
0.0
 40
3.80000000000003
100
AcDbArc
 50
240.7771816359
 51
245.2228183641
  0
SPLINE
  5
24F
330
1F
100
AcDbEntity
  8
0
  6
Continuous
 62
     7
370
    25
100
AcDbSpline
210
0.0
220
0.0
230
1.0
 70
    24
 71
     3
 72
     8
 73
     4
 74
     0
 42
0.000000001
 43
0.00000001
 40
0.0
 40
0.0
 40
0.0
 40
0.0
 40
1.0
 40
1.0
 40
1.0
 40
1.0
 10
175.6689920209257
 20
156.2978365973054
 30
0.0
 10
175.7027391270472
 20
156.0847657549147
 30
0.0
 10
175.7357015815349
 20
155.8766490079654
 30
0.0
 10
175.7681994839543
 20
155.6714653273412
 30
0.0
  0
SPLINE
  5
250
330
1F
100
AcDbEntity
  8
0
  6
Continuous
 62
     7
370
    25
100
AcDbSpline
210
0.0
220
0.0
230
1.0
 70
    24
 71
     3
 72
     8
 73
     4
 74
     0
 42
0.000000001
 43
0.00000001
 40
0.0
 40
0.0
 40
0.0
 40
0.0
 40
1.0
 40
1.0
 40
1.0
 40
1.0
 10
175.0426207509614
 20
156.1986291342767
 30
0.0
 10
175.2478044315856
 20
156.2311270366961
 30
0.0
 10
175.455921178535
 20
156.2640894911838
 30
0.0
 10
175.6689920209257
 20
156.2978365973054
 30
0.0
  0
ARC
  5
251
330
1F
100
AcDbEntity
  8
0
  6
Continuous
 62
     7
370
    25
100
AcDbCircle
 10
177.6233870968
 20
158.9878306452
 30
0.0
 40
3.800000000000016
100
AcDbArc
 50
222.7771816359
 51
227.2228183641
  0
SPLINE
  5
252
330
1F
100
AcDbEntity
  8
0
  6
Continuous
 62
     7
370
    25
100
AcDbSpline
210
0.0
220
0.0
230
1.0
 70
    24
 71
     3
 72
     8
 73
     4
 74
     0
 42
0.000000001
 43
0.00000001
 40
0.0
 40
0.0
 40
0.0
 40
0.0
 40
1.0
 40
1.0
 40
1.0
 40
1.0
 10
174.9333930489184
 20
157.0334355693126
 30
0.0
 10
174.8996459427968
 20
156.820364726922
 30
0.0
 10
174.8666834883091
 20
156.6122479799726
 30
0.0
 10
174.8341855858897
 20
156.4070642993484
 30
0.0
  0
SPLINE
  5
253
330
1F
100
AcDbEntity
  8
0
  6
Continuous
 62
     7
370
    25
100
AcDbSpline
210
0.0
220
0.0
230
1.0
 70
    24
 71
     3
 72
     8
 73
     4
 74
     0
 42
0.000000001
 43
0.00000001
 40
0.0
 40
0.0
 40
0.0
 40
0.0
 40
1.0
 40
1.0
 40
1.0
 40
1.0
 10
174.3070217789542
 20
157.1326430323413
 30
0.0
 10
174.5122054595784
 20
157.1001451299219
 30
0.0
 10
174.7203222065277
 20
157.0671826754342
 30
0.0
 10
174.9333930489184
 20
157.0334355693126
 30
0.0
  0
ARC
  5
254
330
1F
100
AcDbEntity
  8
0
  6
Continuous
 62
     7
370
    25
100
AcDbCircle
 10
177.6233870968
 20
158.9878306452
 30
0.0
 40
3.800000000000014
100
AcDbArc
 50
204.7771816359
 51
209.2228183641
  0
SPLINE
  5
255
330
1F
100
AcDbEntity
  8
0
  6
Continuous
 62
     7
370
    25
100
AcDbSpline
210
0.0
220
0.0
230
1.0
 70
    24
 71
     3
 72
     8
 73
     4
 74
     0
 42
0.000000001
 43
0.00000001
 40
0.0
 40
0.0
 40
0.0
 40
0.0
 40
1.0
 40
1.0
 40
1.0
 40
1.0
 10
174.4611094366058
 20
157.9603443484152
 30
0.0
 10
174.3631715204299
 20
157.7681303652411
 30
0.0
 10
174.2675107516162
 20
157.5803855354025
 30
0.0
 10
174.1731981652202
 20
157.3952866625403
 30
0.0
  0
SPLINE
  5
256
330
1F
100
AcDbEntity
  8
0
  6
Continuous
 62
     7
370
    25
100
AcDbSpline
210
0.0
220
0.0
230
1.0
 70
    24
 71
     3
 72
     8
 73
     4
 74
     0
 42
0.000000001
 43
0.00000001
 40
0.0
 40
0.0
 40
0.0
 40
0.0
 40
1.0
 40
1.0
 40
1.0
 40
1.0
 10
173.896051750731
 20
158.2482556198009
 30
0.0
 10
174.0811506235931
 20
158.1539430334049
 30
0.0
 10
174.2688954534318
 20
158.0582822645911
 30
0.0
 10
174.4611094366058
 20
157.9603443484152
 30
0.0
  0
ARC
  5
257
330
1F
100
AcDbEntity
  8
0
  6
Continuous
 62
     7
370
    25
100
AcDbCircle
 10
177.6233870968
 20
158.9878306452
 30
0.0
 40
3.80000000000001
100
AcDbArc
 50
186.7771816359
 51
191.2228183641
  0
SPLINE
  5
258
330
1F
100
AcDbEntity
  8
0
  6
Continuous
 62
     7
370
    25
100
AcDbSpline
210
0.0
220
0.0
230
1.0
 70
    24
 71
     3
 72
     8
 73
     4
 74
     0
 42
0.000000001
 43
0.00000001
 40
0.0
 40
0.0
 40
0.0
 40
0.0
 40
1.0
 40
1.0
 40
1.0
 40
1.0
 10
174.2983715945546
 20
158.9878306451612
 30
0.0
 10
174.1458297194833
 20
158.83528877009
 30
0.0
 10
173.9968345778561
 20
158.6862936284627
 30
0.0
 10
173.8499392760509
 20
158.5393983266575
 30
0.0
  0
SPLINE
  5
259
330
1F
100
AcDbEntity
  8
0
  6
Continuous
 62
     7
370
    25
100
AcDbSpline
210
0.0
220
0.0
230
1.0
 70
    24
 71
     3
 72
     8
 73
     4
 74
     0
 42
0.000000001
 43
0.00000001
 40
0.0
 40
0.0
 40
0.0
 40
0.0
 40
1.0
 40
1.0
 40
1.0
 40
1.0
 10
173.8499392760509
 20
159.4362629636649
 30
0.0
 10
173.9968345778561
 20
159.2893676618596
 30
0.0
 10
174.1458297194833
 20
159.1403725202325
 30
0.0
 10
174.2983715945546
 20
158.9878306451612
 30
0.0
  0
ARC
  5
25A
330
1F
100
AcDbEntity
  8
0
  6
Continuous
 62
     7
370
    25
100
AcDbCircle
 10
177.6233870968
 20
158.9878306452
 30
0.0
 40
3.800000000000002
100
AcDbArc
 50
168.7771816359
 51
173.2228183641
  0
SPLINE
  5
25B
330
1F
100
AcDbEntity
  8
0
  6
Continuous
 62
     7
370
    25
100
AcDbSpline
210
0.0
220
0.0
230
1.0
 70
    24
 71
     3
 72
     8
 73
     4
 74
     0
 42
0.000000001
 43
0.00000001
 40
0.0
 40
0.0
 40
0.0
 40
0.0
 40
1.0
 40
1.0
 40
1.0
 40
1.0
 10
174.4611094366058
 20
160.0153169419072
 30
0.0
 10
174.2688954534318
 20
159.9173790257313
 30
0.0
 10
174.0811506235931
 20
159.8217182569176
 30
0.0
 10
173.8960517507309
 20
159.7274056705215
 30
0.0
  0
SPLINE
  5
25C
330
1F
100
AcDbEntity
  8
0
  6
Continuous
 62
     7
370
    25
100
AcDbSpline
210
0.0
220
0.0
230
1.0
 70
    24
 71
     3
 72
     8
 73
     4
 74
     0
 42
0.000000001
 43
0.00000001
 40
0.0
 40
0.0
 40
0.0
 40
0.0
 40
1.0
 40
1.0
 40
1.0
 40
1.0
 10
174.1731981652202
 20
160.5803746277821
 30
0.0
 10
174.2675107516162
 20
160.3952757549199
 30
0.0
 10
174.3631715204299
 20
160.2075309250813
 30
0.0
 10
174.4611094366058
 20
160.0153169419072
 30
0.0
  0
ARC
  5
25D
330
1F
100
AcDbEntity
  8
0
  6
Continuous
 62
     7
370
    25
100
AcDbCircle
 10
177.6233870968
 20
158.9878306452
 30
0.0
 40
3.799999999999986
100
AcDbArc
 50
150.7771816359
 51
155.2228183641
  0
SPLINE
  5
25E
330
1F
100
AcDbEntity
  8
0
  6
Continuous
 62
     7
370
    25
100
AcDbSpline
210
0.0
220
0.0
230
1.0
 70
    24
 71
     3
 72
     8
 73
     4
 74
     0
 42
0.000000001
 43
0.00000001
 40
0.0
 40
0.0
 40
0.0
 40
0.0
 40
1.0
 40
1.0
 40
1.0
 40
1.0
 10
174.9333930489184
 20
160.9422257210097
 30
0.0
 10
174.7203222065277
 20
160.9084786148882
 30
0.0
 10
174.5122054595783
 20
160.8755161604005
 30
0.0
 10
174.3070217789542
 20
160.8430182579811
 30
0.0
  0
SPLINE
  5
25F
330
1F
100
AcDbEntity
  8
0
  6
Continuous
 62
     7
370
    25
100
AcDbSpline
210
0.0
220
0.0
230
1.0
 70
     8
 71
     3
 72
     8
 73
     4
 74
     0
 42
0.000000001
 43
0.00000001
 40
0.0
 40
0.0
 40
0.0
 40
0.0
 40
1.0
 40
1.0
 40
1.0
 40
1.0
 10
174.9333930489184
 20
160.9422257210097
 30
0.0
 10
175.1397791820398
 20
161.2262389025598
 30
0.0
 10
175.3849788393756
 20
161.4714385598956
 30
0.0
 10
175.6689920209257
 20
161.677824693017
 30
0.0
  0
SPLINE
  5
260
330
1F
100
AcDbEntity
  8
0
  6
Continuous
 62
     7
370
    25
100
AcDbSpline
210
0.0
220
0.0
230
1.0
 70
    24
 71
     3
 72
     8
 73
     4
 74
     0
 42
0.000000001
 43
0.00000001
 40
0.0
 40
0.0
 40
0.0
 40
0.0
 40
1.0
 40
1.0
 40
1.0
 40
1.0
 10
175.7681994839543
 20
162.3041959629813
 30
0.0
 10
175.7357015815349
 20
162.0990122823571
 30
0.0
 10
175.7027391270472
 20
161.8908955354077
 30
0.0
 10
175.6689920209257
 20
161.677824693017
 30
0.0
  0
ARC
  5
261
330
1F
100
AcDbEntity
  8
0
  6
Continuous
 62
     7
370
    25
100
AcDbCircle
 10
177.6233870968
 20
158.9878306452
 30
0.0
 40
3.799999999999989
100
AcDbArc
 50
114.7771816359
 51
119.2228183641
  0
SPLINE
  5
262
330
1F
100
AcDbEntity
  8
0
  6
Continuous
 62
     7
370
    25
100
AcDbSpline
210
0.0
220
0.0
230
1.0
 70
    24
 71
     3
 72
     8
 73
     4
 74
     0
 42
0.000000001
 43
0.00000001
 40
0.0
 40
0.0
 40
0.0
 40
0.0
 40
1.0
 40
1.0
 40
1.0
 40
1.0
 10
176.5959008000282
 20
162.1501083053296
 30
0.0
 10
176.4036868168541
 20
162.2480462215055
 30
0.0
 10
176.2159419870155
 20
162.3437069903192
 30
0.0
 10
176.0308431141533
 20
162.4380195767152
 30
0.0
  0
SPLINE
  5
263
330
1F
100
AcDbEntity
  8
0
  6
Continuous
 62
     7
370
    25
100
AcDbSpline
210
0.0
220
0.0
230
1.0
 70
    24
 71
     3
 72
     8
 73
     4
 74
     0
 42
0.000000001
 43
0.00000001
 40
0.0
 40
0.0
 40
0.0
 40
0.0
 40
1.0
 40
1.0
 40
1.0
 40
1.0
 10
176.8838120714138
 20
162.7151659912045
 30
0.0
 10
176.7894994850178
 20
162.5300671183423
 30
0.0
 10
176.6938387162041
 20
162.3423222885037
 30
0.0
 10
176.5959008000282
 20
162.1501083053296
 30
0.0
  0
ARC
  5
264
330
1F
100
AcDbEntity
  8
0
  6
Continuous
 62
     7
370
    25
100
AcDbCircle
 10
177.6233870968
 20
158.9878306452
 30
0.0
 40
3.799999999999986
100
AcDbArc
 50
96.7771816359
 51
101.2228183641
  0
SPLINE
  5
265
330
1F
100
AcDbEntity
  8
0
  6
Continuous
 62
     7
370
    25
100
AcDbSpline
210
0.0
220
0.0
230
1.0
 70
    24
 71
     3
 72
     8
 73
     4
 74
     0
 42
0.000000001
 43
0.00000001
 40
0.0
 40
0.0
 40
0.0
 40
0.0
 40
1.0
 40
1.0
 40
1.0
 40
1.0
 10
177.6233870967742
 20
162.3128461473808
 30
0.0
 10
177.4708452217029
 20
162.4653880224521
 30
0.0
 10
177.3218500800758
 20
162.6143831640793
 30
0.0
 10
177.1749547782705
 20
162.7612784658845
 30
0.0
  0
SPLINE
  5
266
330
1F
100
AcDbEntity
  8
0
  6
Continuous
 62
     7
370
    25
100
AcDbSpline
210
0.0
220
0.0
230
1.0
 70
    24
 71
     3
 72
     8
 73
     4
 74
     0
 42
0.000000001
 43
0.00000001
 40
0.0
 40
0.0
 40
0.0
 40
0.0
 40
1.0
 40
1.0
 40
1.0
 40
1.0
 10
178.0718194152779
 20
162.7612784658845
 30
0.0
 10
177.9249241134726
 20
162.6143831640793
 30
0.0
 10
177.7759289718455
 20
162.4653880224521
 30
0.0
 10
177.6233870967742
 20
162.3128461473808
 30
0.0
  0
CIRCLE
  5
267
330
1F
100
AcDbEntity
  8
0
  6
Continuous
 62
     7
370
    25
100
AcDbCircle
 10
177.6233870968
 20
158.9878306452
 30
0.0
 40
2.800000000000011
  0
CIRCLE
  5
268
330
1F
100
AcDbEntity
  8
0
  6
Continuous
 62
     7
370
    25
100
AcDbCircle
 10
177.6233870968
 20
158.9878306452
 30
0.0
 40
4.581669986733004
  0
CIRCLE
  5
269
330
1F
100
AcDbEntity
  8
0
  6
Continuous
 62
     7
370
    25
100
AcDbCircle
 10
177.6233870968
 20
158.9878306452
 30
0.0
 40
10.00000000000003
  0
ARC
  5
26A
330
1F
100
AcDbEntity
  8
0
  6
Continuous
 62
     7
370
    25
100
AcDbCircle
 10
177.6233870968
 20
158.9878306452
 30
0.0
 40
14.99999999999999
100
AcDbArc
 50
55.841987921
 51
64.158012079
  0
SPLINE
  5
26B
330
1F
100
AcDbEntity
  8
0
  6
Continuous
 62
     7
370
    25
100
AcDbSpline
210
0.0
220
0.0
230
1.0
 70
    24
 71
     3
 72
    10
 73
     6
 74
     0
 42
0.000000001
 43
0.00000001
 40
0.0
 40
0.0
 40
0.0
 40
0.0
 40
0.5
 40
0.5
 40
1.0
 40
1.0
 40
1.0
 40
1.0
 10
188.5407505418757
 20
167.0783898847973
 30
0.0
 10
188.1082620325439
 20
167.8274819566497
 30
0.0
 10
187.6854082066394
 20
168.5598862672912
 30
0.0
 10
186.854932136867
 20
169.998313014607
 30
0.0
 10
186.4461249756147
 20
170.706387788394
 30
0.0
 10
186.0455438909962
 20
171.4002145795044
 30
0.0
  0
ARC
  5
26C
330
1F
100
AcDbEntity
  8
0
  6
Continuous
 62
     7
370
    25
100
AcDbCircle
 10
177.6233870968
 20
158.9878306452
 30
0.0
 40
13.58844999999996
100
AcDbArc
 50
36.5411320296
 51
83.4588679704
  0
SPLINE
  5
26D
330
1F
100
AcDbEntity
  8
0
  6
Continuous
 62
     7
370
    25
100
AcDbSpline
210
0.0
220
0.0
230
1.0
 70
    24
 71
     3
 72
    12
 73
     8
 74
     0
 42
0.000000001
 43
0.00000001
 40
0.0
 40
0.0
 40
0.0
 40
0.0
 40
0.25
 40
0.25
 40
0.5
 40
0.5
 40
1.0
 40
1.0
 40
1.0
 40
1.0
 10
184.1617485083302
 20
172.4878243507847
 30
0.0
 10
183.7670902809123
 20
172.4878243507847
 30
0.0
 10
183.3668445675792
 20
172.4878243507847
 30
0.0
 10
182.5528225139809
 20
172.4878243507847
 30
0.0
 10
182.1378367965293
 20
172.4878243507847
 30
0.0
 10
180.8762599002904
 20
172.4878243507847
 30
0.0
 10
180.0280385838186
 20
172.4878243507847
 30
0.0
 10
179.1713352065713
 20
172.4878243507847
 30
0.0
  0
ARC
  5
26E
330
1F
100
AcDbEntity
  8
0
  6
Continuous
 62
     7
370
    25
100
AcDbCircle
 10
177.6233870968
 20
158.9878306452
 30
0.0
 40
14.99999999999999
100
AcDbArc
 50
115.841987921
 51
124.158012079
  0
SPLINE
  5
26F
330
1F
100
AcDbEntity
  8
0
  6
Continuous
 62
     7
370
    25
100
AcDbSpline
210
0.0
220
0.0
230
1.0
 70
    24
 71
     3
 72
     8
 73
     4
 74
     0
 42
0.000000001
 43
0.00000001
 40
0.0
 40
0.0
 40
0.0
 40
0.0
 40
1.0
 40
1.0
 40
1.0
 40
1.0
 10
176.0754389869771
 20
172.4878243507847
 30
0.0
 10
174.3367500918198
 20
172.4878243507847
 30
0.0
 10
172.6857635631033
 20
172.4878243507847
 30
0.0
 10
171.0850256852182
 20
172.4878243507847
 30
0.0
  0
ARC
  5
270
330
1F
100
AcDbEntity
  8
0
  6
Continuous
 62
     7
370
    25
100
AcDbCircle
 10
177.6233870968
 20
158.9878306452
 30
0.0
 40
13.58844999999996
100
AcDbArc
 50
96.5411320296
 51
143.4588679704
  0
SPLINE
  5
271
330
1F
100
AcDbEntity
  8
0
  6
Continuous
 62
     7
370
    25
100
AcDbSpline
210
0.0
220
0.0
230
1.0
 70
    24
 71
     3
 72
    12
 73
     8
 74
     0
 42
0.000000001
 43
0.00000001
 40
0.0
 40
0.0
 40
0.0
 40
0.0
 40
0.2500000000000002
 40
0.2500000000000002
 40
0.5000000000000003
 40
0.5000000000000003
 40
1.0
 40
1.0
 40
1.0
 40
1.0
 10
169.2012303025522
 20
171.4002145795044
 30
0.0
 10
169.002469137147
 20
171.055950142451
 30
0.0
 10
168.8006985833877
 20
170.7064732918685
 30
0.0
 10
168.3898147811104
 20
169.9948016703173
 30
0.0
 10
168.1823048316111
 20
169.6353838947083
 30
0.0
 10
167.5569978637787
 20
168.5523204560959
 30
0.0
 10
167.1347704963046
 20
167.8210012032845
 30
0.0
 10
166.7060236516727
 20
167.0783898847973
 30
0.0
  0
ARC
  5
272
330
1F
100
AcDbEntity
  8
0
  6
Continuous
 62
     7
370
    25
100
AcDbCircle
 10
177.6233870968
 20
158.9878306452
 30
0.0
 40
15.0
100
AcDbArc
 50
175.841987921
 51
184.158012079
  0
ARC
  5
273
330
1F
100
AcDbEntity
  8
0
  6
Continuous
 62
     7
370
    25
100
AcDbCircle
 10
177.6233870968
 20
158.9878306452
 30
0.0
 40
13.58845
100
AcDbArc
 50
156.5411320296
 51
203.4588679704
  0
SPLINE
  5
274
330
1F
100
AcDbEntity
  8
0
  6
Continuous
 62
     7
370
    25
100
AcDbSpline
210
0.0
220
0.0
230
1.0
 70
    24
 71
     3
 72
    12
 73
     8
 74
     0
 42
0.000000001
 43
0.00000001
 40
0.0
 40
0.0
 40
0.0
 40
0.0
 40
0.2500000000000001
 40
0.2500000000000001
 40
0.5000000000000002
 40
0.5000000000000002
 40
1.0
 40
1.0
 40
1.0
 40
1.0
 10
162.6628688909962
 20
157.9002208738808
 30
0.0
 10
162.8616300564014
 20
157.5559564368275
 30
0.0
 10
163.0634006101607
 20
157.206479586245
 30
0.0
 10
163.474284412438
 20
156.4948079646937
 30
0.0
 10
163.6817943619373
 20
156.1353901890848
 30
0.0
 10
164.3071013297696
 20
155.0523267504723
 30
0.0
 10
164.7293286972438
 20
154.321007497661
 30
0.0
 10
165.1580755418757
 20
153.5783961791738
 30
0.0
  0
SPLINE
  5
275
330
1F
100
AcDbEntity
  8
0
  6
Continuous
 62
     7
370
    25
100
AcDbSpline
210
0.0
220
0.0
230
1.0
 70
    24
 71
     3
 72
    10
 73
     6
 74
     0
 42
0.000000001
 43
0.00000001
 40
0.0
 40
0.0
 40
0.0
 40
0.0
 40
0.5
 40
0.5
 40
1.0
 40
1.0
 40
1.0
 40
1.0
 10
165.1580755418756
 20
164.3972651111486
 30
0.0
 10
164.7255870325439
 20
163.6481730392962
 30
0.0
 10
164.3027332066394
 20
162.9157687286548
 30
0.0
 10
163.4722571368671
 20
161.477341981339
 30
0.0
 10
163.0634499756147
 20
160.7692672075519
 30
0.0
 10
162.6628688909962
 20
160.0754404164416
 30
0.0
  0
ARC
  5
276
330
1F
100
AcDbEntity
  8
0
  6
Continuous
 62
     7
370
    25
100
AcDbCircle
 10
177.6233870968
 20
158.9878306452
 30
0.0
 40
15.0
100
AcDbArc
 50
355.841987921
 51
4.158012079
  0
SPLINE
  5
277
330
1F
100
AcDbEntity
  8
0
  6
Continuous
 62
     7
370
    25
100
AcDbSpline
210
0.0
220
0.0
230
1.0
 70
    24
 71
     3
 72
    10
 73
     6
 74
     0
 42
0.000000001
 43
0.00000001
 40
0.0
 40
0.0
 40
0.0
 40
0.0
 40
0.5000000000000002
 40
0.5000000000000002
 40
1.0
 40
1.0
 40
1.0
 40
1.0
 10
190.0886986516728
 20
153.5783961791738
 30
0.0
 10
190.5211871610045
 20
154.3274882510262
 30
0.0
 10
190.944040986909
 20
155.0598925616677
 30
0.0
 10
191.7745170566813
 20
156.4983193089834
 30
0.0
 10
192.1833242179337
 20
157.2063940827705
 30
0.0
 10
192.5839053025522
 20
157.9002208738809
 30
0.0
  0
ARC
  5
278
330
1F
100
AcDbEntity
  8
0
  6
Continuous
 62
     7
370
    25
100
AcDbCircle
 10
177.6233870968
 20
158.9878306452
 30
0.0
 40
13.58844999999999
100
AcDbArc
 50
336.5411320296
 51
23.4588679704
  0
SPLINE
  5
279
330
1F
100
AcDbEntity
  8
0
  6
Continuous
 62
     7
370
    25
100
AcDbSpline
210
0.0
220
0.0
230
1.0
 70
    24
 71
     3
 72
    12
 73
     8
 74
     0
 42
0.000000001
 43
0.00000001
 40
0.0
 40
0.0
 40
0.0
 40
0.0
 40
0.2499999999999999
 40
0.2499999999999999
 40
0.4999999999999998
 40
0.4999999999999998
 40
1.0
 40
1.0
 40
1.0
 40
1.0
 10
192.5839053025522
 20
160.0754404164416
 30
0.0
 10
192.385144137147
 20
160.419704853495
 30
0.0
 10
192.1833735833877
 20
160.7691817040774
 30
0.0
 10
191.7724897811104
 20
161.4808533256287
 30
0.0
 10
191.5649798316111
 20
161.8402711012376
 30
0.0
 10
190.9396728637788
 20
162.9233345398501
 30
0.0
 10
190.5174454963046
 20
163.6546537926614
 30
0.0
 10
190.0886986516727
 20
164.3972651111486
 30
0.0
  0
ARC
  5
27A
330
1F
100
AcDbEntity
  8
0
  6
Continuous
 62
     7
370
    25
100
AcDbCircle
 10
177.6233870968
 20
158.9878306452
 30
0.0
 40
15.00000000000005
100
AcDbArc
 50
235.841987921
 51
244.158012079
  0
ARC
  5
27B
330
1F
100
AcDbEntity
  8
0
  6
Continuous
 62
     7
370
    25
100
AcDbCircle
 10
177.6233870968
 20
158.9878306452
 30
0.0
 40
13.58844999999999
100
AcDbArc
 50
216.5411320296
 51
263.4588679704
  0
SPLINE
  5
27C
330
1F
100
AcDbEntity
  8
0
  6
Continuous
 62
     7
370
    25
100
AcDbSpline
210
0.0
220
0.0
230
1.0
 70
    24
 71
     3
 72
    12
 73
     8
 74
     0
 42
0.000000001
 43
0.00000001
 40
0.0
 40
0.0
 40
0.0
 40
0.0
 40
0.2499999999999999
 40
0.2499999999999999
 40
0.4999999999999999
 40
0.4999999999999999
 40
1.0
 40
1.0
 40
1.0
 40
1.0
 10
171.0850256852182
 20
145.4878369395377
 30
0.0
 10
171.4796839126361
 20
145.4878369395377
 30
0.0
 10
171.8799296259692
 20
145.4878369395377
 30
0.0
 10
172.6939516795675
 20
145.4878369395377
 30
0.0
 10
173.1089373970191
 20
145.4878369395377
 30
0.0
 10
174.370514293258
 20
145.4878369395377
 30
0.0
 10
175.2187356097297
 20
145.4878369395377
 30
0.0
 10
176.0754389869772
 20
145.4878369395377
 30
0.0
  0
SPLINE
  5
27D
330
1F
100
AcDbEntity
  8
0
  6
Continuous
 62
     7
370
    25
100
AcDbSpline
210
0.0
220
0.0
230
1.0
 70
    24
 71
     3
 72
    10
 73
     6
 74
     0
 42
0.000000001
 43
0.00000001
 40
0.0
 40
0.0
 40
0.0
 40
0.0
 40
0.5
 40
0.5
 40
1.0
 40
1.0
 40
1.0
 40
1.0
 10
166.7060236516727
 20
150.8972714055251
 30
0.0
 10
167.1385121610045
 20
150.1481793336727
 30
0.0
 10
167.561365986909
 20
149.4157750230312
 30
0.0
 10
168.3918420566813
 20
147.9773482757155
 30
0.0
 10
168.8006492179337
 20
147.2692735019284
 30
0.0
 10
169.2012303025522
 20
146.575446710818
 30
0.0
  0
ARC
  5
27E
330
1F
100
AcDbEntity
  8
0
  6
Continuous
 62
     7
370
    25
100
AcDbCircle
 10
177.6233870968
 20
158.9878306452
 30
0.0
 40
13.58845
100
AcDbArc
 50
276.5411320296
 51
323.4588679704
  0
ARC
  5
27F
330
1F
100
AcDbEntity
  8
0
  6
Continuous
 62
     7
370
    25
100
AcDbCircle
 10
177.6233870968
 20
158.9878306452
 30
0.0
 40
15.00000000000005
100
AcDbArc
 50
295.841987921
 51
304.158012079
  0
SPLINE
  5
280
330
1F
100
AcDbEntity
  8
0
  6
Continuous
 62
     7
370
    25
100
AcDbSpline
210
0.0
220
0.0
230
1.0
 70
    24
 71
     3
 72
     8
 73
     4
 74
     0
 42
0.000000001
 43
0.00000001
 40
0.0
 40
0.0
 40
0.0
 40
0.0
 40
1.0
 40
1.0
 40
1.0
 40
1.0
 10
179.1713352065713
 20
145.4878369395377
 30
0.0
 10
180.9100241017286
 20
145.4878369395377
 30
0.0
 10
182.5610106304451
 20
145.4878369395377
 30
0.0
 10
184.1617485083302
 20
145.4878369395377
 30
0.0
  0
SPLINE
  5
281
330
1F
100
AcDbEntity
  8
0
  6
Continuous
 62
     7
370
    25
100
AcDbSpline
210
0.0
220
0.0
230
1.0
 70
    24
 71
     3
 72
    12
 73
     8
 74
     0
 42
0.000000001
 43
0.00000001
 40
0.0
 40
0.0
 40
0.0
 40
0.0
 40
0.2499999999999999
 40
0.2499999999999999
 40
0.4999999999999999
 40
0.4999999999999999
 40
1.0
 40
1.0
 40
1.0
 40
1.0
 10
186.0455438909962
 20
146.575446710818
 30
0.0
 10
186.2443050564014
 20
146.9197111478715
 30
0.0
 10
186.4460756101607
 20
147.2691879984539
 30
0.0
 10
186.856959412438
 20
147.9808596200052
 30
0.0
 10
187.0644693619373
 20
148.3402773956141
 30
0.0
 10
187.6897763297697
 20
149.4233408342266
 30
0.0
 10
188.1120036972438
 20
150.1546600870379
 30
0.0
 10
188.5407505418757
 20
150.8972714055251
 30
0.0
  0
CIRCLE
  5
282
330
1F
100
AcDbEntity
  8
0
  6
Continuous
 62
     7
370
    25
100
AcDbCircle
 10
177.6233870968
 20
158.9878306452
 30
0.0
 40
11.00000000000003
  0
LINE
  5
283
330
1F
100
AcDbEntity
  8
0
  6
Continuous
 62
     7
370
    25
100
AcDbLine
 10
176.0754389896
 20
145.4878365993
 30
0.0
 11
179.1713353075
 21
145.4878365993
 31
0.0
  0
LINE
  5
284
330
1F
100
AcDbEntity
  8
0
  6
Continuous
 62
     7
370
    25
100
AcDbLine
 10
188.5407503057
 20
150.8972710371
 30
0.0
 11
190.0886987631
 21
153.5783959925
 31
0.0
  0
LINE
  5
285
330
1F
100
AcDbEntity
  8
0
  6
Continuous
 62
     7
370
    25
100
AcDbLine
 10
165.1580754031
 20
153.5783959925
 30
0.0
 11
166.7060238604
 21
150.8972710371
 31
0.0
  0
LINE
  5
286
330
1F
100
AcDbEntity
  8
0
  6
Continuous
 62
     7
370
    25
100
AcDbLine
 10
166.7060238604
 20
167.0783898234
 30
0.0
 11
165.1580754031
 21
164.3972653337
 31
0.0
  0
LINE
  5
287
330
1F
100
AcDbEntity
  8
0
  6
Continuous
 62
     7
370
    25
100
AcDbLine
 10
190.0886987631
 20
164.3972653337
 30
0.0
 11
188.5407503057
 21
167.0783898234
 31
0.0
  0
LINE
  5
288
330
1F
100
AcDbEntity
  8
0
  6
Continuous
 62
     7
370
    25
100
AcDbLine
 10
179.1713353075
 20
172.4878242612
 30
0.0
 11
176.0754389896
 21
172.4878242612
 31
0.0
  0
CIRCLE
  5
289
330
1F
100
AcDbEntity
  8
0
  6
Continuous
 62
     7
370
    25
100
AcDbCircle
 10
177.6233870968
 20
158.9878306452
 30
0.0
 40
20.75000000000003
  0
CIRCLE
  5
28A
330
1F
100
AcDbEntity
  8
0
  6
Continuous
 62
     7
370
    25
100
AcDbCircle
 10
177.6233870968
 20
158.9878306452
 30
0.0
 40
20.00000000000003
  0
CIRCLE
  5
28B
330
1F
100
AcDbEntity
  8
0
  6
Continuous
 62
     7
370
    25
100
AcDbCircle
 10
177.6233870968
 20
158.9878306452
 30
0.0
 40
17.49999999999997
  0
CIRCLE
  5
28C
330
1F
100
AcDbEntity
  8
0
  6
Continuous
 62
     7
370
    25
100
AcDbCircle
 10
177.6233870968
 20
158.9878306452
 30
0.0
 40
22.00000000000003
  0
CIRCLE
  5
28D
330
1F
100
AcDbEntity
  8
0
  6
Continuous
 62
     7
370
    25
100
AcDbCircle
 10
177.6233870968
 20
158.9878306452
 30
0.0
 40
23.00000000000003
  0
LINE
  5
28E
330
1F
100
AcDbEntity
  8
0
  6
Continuous
 62
     7
370
    25
100
AcDbLine
 10
197.2666318823
 20
145.5189790949
 30
0.0
 11
197.2678034861
 21
145.5202754959
 31
0.0
  0
SPLINE
  5
28F
330
1F
100
AcDbEntity
  8
0
  6
Continuous
 62
     7
370
    25
100
AcDbSpline
210
0.0
220
0.0
230
1.0
 70
     8
 71
     3
 72
     9
 73
     5
 74
     0
 42
0.000000001
 43
0.00000001
 40
0.0
 40
0.0
 40
0.0
 40
0.0
 40
0.5194377738386673
 40
1.0
 40
1.0
 40
1.0
 40
1.0
 10
195.8199042190091
 20
144.9214211105999
 30
0.0
 10
195.7802698047581
 20
144.8695342181631
 30
0.0
 10
195.703967278744
 20
144.7696437306975
 30
0.0
 10
195.7092677261798
 20
144.777288822737
 30
0.0
 10
195.7118149209993
 20
144.7809627651866
 30
0.0
  0
LINE
  5
290
330
1F
100
AcDbEntity
  8
0
  6
Continuous
 62
     7
370
    25
100
AcDbLine
 10
157.9801432152
 20
172.4566817656
 30
0.0
 11
157.9789716114
 21
172.4553853646
 31
0.0
  0
LINE
  5
291
330
1F
100
AcDbEntity
  8
0
  6
Continuous
 62
     7
370
    25
100
AcDbLine
 10
164.1351330389
 20
178.6134774238
 30
0.0
 11
164.1301374246
 21
178.6089716851
 31
0.0
  0
LINE
  5
292
330
1F
100
AcDbEntity
  8
0
  6
Continuous
 62
     7
370
    25
100
AcDbLine
 10
191.1116411273
 20
139.3621834367
 30
0.0
 11
191.1166367416
 21
139.3666891753
 31
0.0
  0
LINE
  5
293
330
1F
100
AcDbEntity
  8
0
  6
Continuous
 62
     7
370
    25
100
AcDbLine
 10
190.6233868856
 20
185.4878301173
 30
0.0
 11
164.6233872805
 21
185.4878301173
 31
0.0
  0
LINE
  5
294
330
1F
100
AcDbEntity
  8
0
  6
Continuous
 62
     7
370
    25
100
AcDbLine
 10
191.1233869676
 20
184.9878309667
 30
0.0
 11
164.1233871985
 21
184.9878309667
 31
0.0
  0
SPLINE
  5
295
330
1F
100
AcDbEntity
  8
0
  6
Continuous
 62
     7
370
    25
100
AcDbSpline
210
0.0
220
0.0
230
1.0
 70
     8
 71
     3
 72
    12
 73
     8
 74
     0
 42
0.000000001
 43
0.00000001
 40
0.0
 40
0.0
 40
0.0
 40
0.0
 40
0.2499999999999994
 40
0.2499999999999994
 40
0.4999999999999989
 40
0.4999999999999989
 40
1.0
 40
1.0
 40
1.0
 40
1.0
 10
190.8695101398201
 20
181.4878306451612
 30
0.0
 10
190.8311154655015
 20
181.4878306451612
 30
0.0
 10
190.7896871969822
 20
181.4514262867364
 30
0.0
 10
190.7011353161246
 20
181.3312092408331
 30
0.0
 10
190.6554352683048
 20
181.2488608569757
 30
0.0
 10
190.5150401258232
 20
180.9650658249313
 30
0.0
 10
190.4164412825474
 20
180.7244551445104
 30
0.0
 10
190.309653401623
 20
180.4878306451612
 30
0.0
  0
LINE
  5
296
330
1F
100
AcDbEntity
  8
0
  6
Continuous
 62
     7
370
    25
100
AcDbLine
 10
204.1233863045
 20
145.9878310933
 30
0.0
 11
204.1233863045
 21
171.9878306985
 31
0.0
  0
LINE
  5
297
330
1F
100
AcDbEntity
  8
0
  6
Continuous
 62
     7
370
    25
100
AcDbLine
 10
203.6233871538
 20
145.4878310114
 30
0.0
 11
203.6233871538
 21
172.4878307804
 31
0.0
  0
LINE
  5
298
330
1F
100
AcDbEntity
  8
0
  6
Continuous
 62
     7
370
    25
100
AcDbLine
 10
151.1233869303
 20
171.9878306985
 30
0.0
 11
151.1233869303
 21
145.9878310933
 31
0.0
  0
LINE
  5
299
330
1F
100
AcDbEntity
  8
0
  6
Continuous
 62
     7
370
    25
100
AcDbLine
 10
151.6233879436
 20
172.4878307804
 30
0.0
 11
151.6233879436
 21
145.4878310114
 31
0.0
  0
SPLINE
  5
29A
330
1F
100
AcDbEntity
  8
0
  6
Continuous
 62
     7
370
    25
100
AcDbSpline
210
0.0
220
0.0
230
1.0
 70
     8
 71
     3
 72
    12
 73
     8
 74
     0
 42
0.000000001
 43
0.00000001
 40
0.0
 40
0.0
 40
0.0
 40
0.0
 40
0.25
 40
0.25
 40
0.5
 40
0.5
 40
1.0
 40
1.0
 40
1.0
 40
1.0
 10
155.1233870967743
 20
145.7417076021152
 30
0.0
 10
155.1233870967743
 20
145.7801022764338
 30
0.0
 10
155.1597914551991
 20
145.8215305449531
 30
0.0
 10
155.2800085011024
 20
145.9100824258108
 30
0.0
 10
155.3623568849598
 20
145.9557824736306
 30
0.0
 10
155.6461519170042
 20
146.0961776161121
 30
0.0
 10
155.8867625974174
 20
146.1947764593899
 30
0.0
 10
156.1233870967743
 20
146.3015643403123
 30
0.0
  0
SPLINE
  5
29B
330
1F
100
AcDbEntity
  8
0
  6
Continuous
 62
     7
370
    25
100
AcDbSpline
210
0.0
220
0.0
230
1.0
 70
     8
 71
     3
 72
    12
 73
     8
 74
     0
 42
0.000000001
 43
0.00000001
 40
0.0
 40
0.0
 40
0.0
 40
0.0
 40
0.2499999999999994
 40
0.2499999999999994
 40
0.4999999999999989
 40
0.4999999999999989
 40
1.0
 40
1.0
 40
1.0
 40
1.0
 10
200.1233870967741
 20
172.2339536882072
 30
0.0
 10
200.1233870967741
 20
172.1955590138886
 30
0.0
 10
200.0869827383493
 20
172.1541307453693
 30
0.0
 10
199.966765692446
 20
172.0655788645117
 30
0.0
 10
199.8844173085886
 20
172.0198788166918
 30
0.0
 10
199.6006222765442
 20
171.8794836742103
 30
0.0
 10
199.360011596125
 20
171.7808848309341
 30
0.0
 10
199.1233870967741
 20
171.6740969500101
 30
0.0
  0
SPLINE
  5
29C
330
1F
100
AcDbEntity
  8
0
  6
Continuous
 62
     7
370
    25
100
AcDbSpline
210
0.0
220
0.0
230
1.0
 70
     8
 71
     3
 72
    12
 73
     8
 74
     0
 42
0.000000001
 43
0.00000001
 40
0.0
 40
0.0
 40
0.0
 40
0.0
 40
0.2499999999999993
 40
0.2499999999999993
 40
0.4999999999999987
 40
0.4999999999999987
 40
1.0
 40
1.0
 40
1.0
 40
1.0
 10
164.3772640537284
 20
136.4878306451612
 30
0.0
 10
164.415658728047
 20
136.4878306451612
 30
0.0
 10
164.4570869965663
 20
136.524235003586
 30
0.0
 10
164.545638877424
 20
136.6444520494893
 30
0.0
 10
164.5913389252438
 20
136.7268004333467
 30
0.0
 10
164.7317340677253
 20
137.0105954653911
 30
0.0
 10
164.8303329110015
 20
137.2512061458106
 30
0.0
 10
164.9371207919255
 20
137.4878306451612
 30
0.0
  0
LINE
  5
29D
330
1F
100
AcDbEntity
  8
0
  6
Continuous
 62
     7
370
    25
100
AcDbLine
 10
164.1233871985
 20
132.9878298938
 30
0.0
 11
191.1233869676
 21
132.9878298938
 31
0.0
  0
LINE
  5
29E
330
1F
100
AcDbEntity
  8
0
  6
Continuous
 62
     7
370
    25
100
AcDbLine
 10
164.6233872805
 20
132.4878307432
 30
0.0
 11
190.6233868856
 21
132.4878307432
 31
0.0
  0
LINE
  5
29F
330
1F
100
AcDbEntity
  8
0
  6
Continuous
 62
     7
370
    25
100
AcDbLine
 10
216.6233874221
 20
146.9878303259
 30
0.0
 11
216.6233874221
 21
170.9878305345
 31
0.0
  0
LINE
  5
2A0
330
1F
100
AcDbEntity
  8
0
  6
Continuous
 62
     7
370
    25
100
AcDbLine
 10
223.6233867068
 20
146.9878303259
 30
0.0
 11
223.6233867068
 21
170.9878305345
 31
0.0
  0
LINE
  5
2A1
330
1F
100
AcDbEntity
  8
0
  6
Continuous
 62
     7
370
    25
100
AcDbLine
 10
216.1233864088
 20
147.2378308326
 30
0.0
 11
216.1233864088
 21
170.7378309592
 31
0.0
  0
LINE
  5
2A2
330
1F
100
AcDbEntity
  8
0
  6
Continuous
 62
     7
370
    25
100
AcDbLine
 10
224.1233877201
 20
147.2378308326
 30
0.0
 11
224.1233877201
 21
170.7378309592
 31
0.0
  0
LINE
  5
2A3
330
1F
100
AcDbEntity
  8
0
  6
Continuous
 62
     7
370
    25
100
AcDbLine
 10
187.1208866421
 20
203.9878322184
 30
0.0
 11
168.1258870583
 21
203.9878322184
 31
0.0
  0
LINE
  5
2A4
330
1F
100
AcDbEntity
  8
0
  6
Continuous
 62
     7
370
    25
100
AcDbLine
 10
188.120886806
 20
202.9878301918
 30
0.0
 11
167.1258873601
 21
202.9878301918
 31
0.0
  0
LINE
  5
2A5
330
1F
100
AcDbEntity
  8
0
  6
Continuous
 62
     7
370
    25
100
AcDbLine
 10
133.6233868558
 20
169.4853306189
 30
0.0
 11
133.6233868558
 21
148.4903302416
 31
0.0
  0
LINE
  5
2A6
330
1F
100
AcDbEntity
  8
0
  6
Continuous
 62
     7
370
    25
100
AcDbLine
 10
132.6233885546
 20
168.485330455
 30
0.0
 11
132.6233885546
 21
149.4903304055
 31
0.0
  0
LINE
  5
2A7
330
1F
100
AcDbEntity
  8
0
  6
Continuous
 62
     7
370
    25
100
AcDbLine
 10
167.1258873601
 20
114.9878306687
 30
0.0
 11
188.120886806
 21
114.9878306687
 31
0.0
  0
LINE
  5
2A8
330
1F
100
AcDbEntity
  8
0
  6
Continuous
 62
     7
370
    25
100
AcDbLine
 10
168.1258870583
 20
113.9878323674
 30
0.0
 11
187.1208866421
 21
113.9878323674
 31
0.0
  0
ARC
  5
2A9
330
1F
100
AcDbEntity
  8
0
  6
Continuous
 62
     7
370
    25
100
AcDbCircle
 10
196.8920468841
 20
178.2564904325
 30
0.0
 40
2.850000000000049
100
AcDbArc
 50
189.015337732
 51
260.984662268
  0
ARC
  5
2AA
330
1F
100
AcDbEntity
  8
0
  6
Continuous
 62
     7
370
    25
100
AcDbCircle
 10
158.3547273094
 20
139.7191708578
 30
0.0
 40
2.85000000000003
100
AcDbArc
 50
9.015337732
 51
80.984662268
  0
LINE
  5
2AB
330
1F
100
AcDbEntity
  8
0
  6
Continuous
 62
     7
370
    25
100
AcDbLine
 10
190.8695102964
 20
181.4878313243
 30
0.0
 11
192.189100321
 21
181.4878313243
 31
0.0
  0
LINE
  5
2AC
330
1F
100
AcDbEntity
  8
0
  6
Continuous
 62
     7
370
    25
100
AcDbLine
 10
200.1233875115
 20
173.5535441339
 30
0.0
 11
200.1233875115
 21
172.2339541092
 31
0.0
  0
LINE
  5
2AD
330
1F
100
AcDbEntity
  8
0
  6
Continuous
 62
     7
370
    25
100
AcDbLine
 10
155.123387586
 20
144.4221176579
 30
0.0
 11
155.123387586
 21
145.7417076826
 31
0.0
  0
LINE
  5
2AE
330
1F
100
AcDbEntity
  8
0
  6
Continuous
 62
     7
370
    25
100
AcDbLine
 10
164.3772638697
 20
136.4878313988
 30
0.0
 11
163.0576738451
 21
136.4878313988
 31
0.0
  0
ARC
  5
2AF
330
1F
100
AcDbEntity
  8
0
  6
Continuous
 62
     7
370
    25
100
AcDbCircle
 10
196.8920468841
 20
178.2564904325
 30
0.0
 40
2.850000000000059
100
AcDbArc
 50
333.4117688739
 51
116.5882311261
  0
ARC
  5
2B0
330
1F
100
AcDbEntity
  8
0
  6
Continuous
 62
     7
370
    25
100
AcDbCircle
 10
196.8920468841
 20
178.2564904325
 30
0.0
 40
3.850000000000037
100
AcDbArc
 50
333.4117688739
 51
116.5882311261
  0
LINE
  5
2B1
330
1F
100
AcDbEntity
  8
0
  6
Continuous
 62
     7
370
    25
100
AcDbLine
 10
192.189100321
 20
181.4878313243
 30
0.0
 11
194.2737299312
 21
181.4878313243
 31
0.0
  0
ARC
  5
2B2
330
1F
100
AcDbEntity
  8
0
  6
Continuous
 62
     7
370
    25
100
AcDbCircle
 10
196.8920468841
 20
178.2564904325
 30
0.0
 40
2.849999999999983
100
AcDbArc
 50
116.5882311261
 51
189.015337732
  0
ARC
  5
2B3
330
1F
100
AcDbEntity
  8
0
  6
Continuous
 62
     7
370
    25
100
AcDbCircle
 10
194.2737307116
 20
183.4878306452
 30
0.0
 40
2.0
100
AcDbArc
 50
270.0
 51
296.5882311261
  0
ARC
  5
2B4
330
1F
100
AcDbEntity
  8
0
  6
Continuous
 62
     7
370
    25
100
AcDbCircle
 10
202.1233870968
 20
175.63817426
 30
0.0
 40
2.0
100
AcDbArc
 50
153.4117688739
 51
180.0
  0
ARC
  5
2B5
330
1F
100
AcDbEntity
  8
0
  6
Continuous
 62
     7
370
    25
100
AcDbCircle
 10
196.8920468841
 20
178.2564904325
 30
0.0
 40
2.850000000000059
100
AcDbArc
 50
260.984662268
 51
333.4117688739
  0
LINE
  5
2B6
330
1F
100
AcDbEntity
  8
0
  6
Continuous
 62
     7
370
    25
100
AcDbLine
 10
200.1233875115
 20
175.6381737441
 30
0.0
 11
200.1233875115
 21
173.5535441339
 31
0.0
  0
ARC
  5
2B7
330
1F
100
AcDbEntity
  8
0
  6
Continuous
 62
     7
370
    25
100
AcDbCircle
 10
158.3547273094
 20
139.7191708578
 30
0.0
 40
2.850000000000033
100
AcDbArc
 50
80.984662268
 51
153.4117688739
  0
LINE
  5
2B8
330
1F
100
AcDbEntity
  8
0
  6
Continuous
 62
     7
370
    25
100
AcDbLine
 10
155.123387586
 20
142.3374871164
 30
0.0
 11
155.123387586
 21
144.4221176579
 31
0.0
  0
ARC
  5
2B9
330
1F
100
AcDbEntity
  8
0
  6
Continuous
 62
     7
370
    25
100
AcDbCircle
 10
153.1233870968
 20
142.3374870304
 30
0.0
 40
2.0
100
AcDbArc
 50
333.4117688739
 51
0.0
  0
ARC
  5
2BA
330
1F
100
AcDbEntity
  8
0
  6
Continuous
 62
     7
370
    25
100
AcDbCircle
 10
158.3547273094
 20
139.7191708578
 30
0.0
 40
2.850000000000008
100
AcDbArc
 50
296.5882311261
 51
9.015337732
  0
ARC
  5
2BB
330
1F
100
AcDbEntity
  8
0
  6
Continuous
 62
     7
370
    25
100
AcDbCircle
 10
158.3547273094
 20
139.7191708578
 30
0.0
 40
3.849999999999999
100
AcDbArc
 50
153.4117688739
 51
296.5882311261
  0
ARC
  5
2BC
330
1F
100
AcDbEntity
  8
0
  6
Continuous
 62
     7
370
    25
100
AcDbCircle
 10
158.3547273094
 20
139.7191708578
 30
0.0
 40
2.850000000000033
100
AcDbArc
 50
153.4117688739
 51
296.5882311261
  0
LINE
  5
2BD
330
1F
100
AcDbEntity
  8
0
  6
Continuous
 62
     7
370
    25
100
AcDbLine
 10
163.0576738451
 20
136.4878313988
 30
0.0
 11
160.9730433036
 21
136.4878313988
 31
0.0
  0
ARC
  5
2BE
330
1F
100
AcDbEntity
  8
0
  6
Continuous
 62
     7
370
    25
100
AcDbCircle
 10
160.973043482
 20
134.4878306452
 30
0.0
 40
2.000000000000021
100
AcDbArc
 50
90.0
 51
116.5882311261
  0
SPLINE
  5
2BF
330
1F
100
AcDbEntity
  8
0
  6
Continuous
 62
     8
370
    18
100
AcDbSpline
210
0.0
220
0.0
230
1.0
 70
     8
 71
     3
 72
    27
 73
    23
 74
     0
 42
0.000000001
 43
0.00000001
 40
0.0
 40
0.0
 40
0.0
 40
0.0
 40
0.0509765935367979
 40
0.1030386617973112
 40
0.1649623110092998
 40
0.228466253702898
 40
0.2751922830426818
 40
0.32280263757622
 40
0.3725227940270867
 40
0.4237180375017863
 40
0.4724529238737144
 40
0.5227036340174305
 40
0.539353734372347
 40
0.6035205187884695
 40
0.6702270626429824
 40
0.7294141586592285
 40
0.7899813754673493
 40
0.8387846059315852
 40
0.8885076682659924
 40
0.9349718352434356
 40
0.982747097928332
 40
1.0
 40
1.0
 40
1.0
 40
1.0
 10
197.9418519247548
 20
171.6740969940718
 30
0.0
 10
198.1372571467534
 20
171.4317205551312
 30
0.0
 10
198.5322284695902
 20
170.941806612537
 30
0.0
 10
199.3087093923421
 20
169.8531533195533
 30
0.0
 10
200.1745602237174
 20
168.4447492932549
 30
0.0
 10
200.9830573205055
 20
166.8153141239849
 30
0.0
 10
201.632371644506
 20
165.1315226260666
 30
0.0
 10
202.1199016154262
 20
163.4577679754456
 30
0.0
 10
202.474497668308
 20
161.6125828656004
 30
0.0
 10
202.6449487430444
 20
159.6717691013078
 30
0.0
 10
202.6129927212719
 20
157.7039899286956
 30
0.0
 10
202.435714477793
 20
156.2182043437813
 30
0.0
 10
202.1319320034085
 20
154.5928801972326
 30
0.0
 10
201.6564917002007
 20
152.8455741545421
 30
0.0
 10
200.8481066028577
 20
150.8478605432933
 30
0.0
 10
199.9573974664823
 20
149.1553956908746
 30
0.0
 10
199.1348000360661
 20
147.8677918014923
 30
0.0
 10
198.4119298109734
 20
146.8795516966112
 30
0.0
 10
197.8423358031748
 20
146.1750271625873
 30
0.0
 10
197.4413044791436
 20
145.7118618455651
 30
0.0
 10
197.2378150139634
 20
145.4871186314715
 30
0.0
 10
197.260589488498
 20
145.5122985123896
 30
0.0
 10
197.2666318822877
 20
145.5189790948924
 30
0.0
  0
ARC
  5
2C0
330
1F
100
AcDbEntity
  8
0
  6
Continuous
 62
     8
370
    18
100
AcDbCircle
 10
197.755420788
 20
173.4566539973
 30
0.0
 40
1.792279564849487
100
AcDbArc
 50
216.5906815471
 51
275.9706501848
  0
ARC
  5
2C1
330
1F
100
AcDbEntity
  8
0
  6
Continuous
 62
     8
370
    18
100
AcDbCircle
 10
157.4913528446
 20
144.519009607
 30
0.0
 40
1.792277609809787
100
AcDbArc
 50
36.5906187013
 51
95.9706096399
  0
SPLINE
  5
2C2
330
1F
100
AcDbEntity
  8
0
  6
Continuous
 62
     8
370
    18
100
AcDbSpline
210
0.0
220
0.0
230
1.0
 70
     8
 71
     3
 72
    27
 73
    23
 74
     0
 42
0.000000001
 43
0.00000001
 40
0.0
 40
0.0
 40
0.0
 40
0.0
 40
0.0509766078361884
 40
0.1030386640340629
 40
0.1649623274819634
 40
0.2284662444596435
 40
0.275192288475319
 40
0.3228026428093799
 40
0.3725227990519297
 40
0.4237180367571199
 40
0.472452924411716
 40
0.5227036343448923
 40
0.5393537261835568
 40
0.6035205218311291
 40
0.6702270406236428
 40
0.7294141701232842
 40
0.7899813691603709
 40
0.8387846158116845
 40
0.8885076551797693
 40
0.9349718322226718
 40
0.98274709768187
 40
1.0
 40
1.0
 40
1.0
 40
1.0
 10
157.3049231726901
 20
146.3015647977289
 30
0.0
 10
157.1095171940173
 20
146.5439412938826
 30
0.0
 10
156.7145444439391
 20
147.0338552253312
 30
0.0
 10
155.9380639147861
 20
148.1225073053444
 30
0.0
 10
155.0722124368907
 20
149.5309123012574
 30
0.0
 10
154.26371886202
 20
151.1603478609733
 30
0.0
 10
153.6144009053611
 20
152.8441383595564
 30
0.0
 10
153.1268719945045
 20
154.5178934093901
 30
0.0
 10
152.7722748110569
 20
156.3630783304859
 30
0.0
 10
152.6018272047531
 20
158.3038922825164
 30
0.0
 10
152.6337814964002
 20
160.2716714834082
 30
0.0
 10
152.8110625449464
 20
161.7574565388584
 30
0.0
 10
153.1148386332574
 20
163.3827818391257
 30
0.0
 10
153.5902858577227
 20
165.130086285471
 30
0.0
 10
154.3986651156194
 20
167.1278011209816
 30
0.0
 10
155.2893790254061
 20
168.8202654616828
 30
0.0
 10
156.1119717092281
 20
170.1078704358032
 30
0.0
 10
156.8348466391513
 20
171.0961098909611
 30
0.0
 10
157.4044361014464
 20
171.8006338803519
 30
0.0
 10
157.8054714919761
 20
172.2637983691236
 30
0.0
 10
158.0089600146725
 20
172.4885440266551
 30
0.0
 10
157.9861855943653
 20
172.4633627248541
 30
0.0
 10
157.9801432151573
 20
172.4566817655858
 30
0.0
  0
SPLINE
  5
2C3
330
1F
100
AcDbEntity
  8
0
  6
Continuous
 62
     8
370
    18
100
AcDbSpline
210
0.0
220
0.0
230
1.0
 70
     8
 71
     3
 72
    28
 73
    24
 74
     0
 42
0.000000001
 43
0.00000001
 40
0.0
 40
0.0
 40
0.0
 40
0.0
 40
0.0025929063869523
 40
0.0173087321052632
 40
0.0637243904925621
 40
0.1115451301134615
 40
0.1603100994437172
 40
0.2100678850177054
 40
0.2692602387910474
 40
0.3298174197086495
 40
0.3940770963067889
 40
0.4606838839834666
 40
0.5125530794714327
 40
0.5661817588844813
 40
0.576292800180076
 40
0.6259828816722659
 40
0.6772046463342688
 40
0.7280683393601498
 40
0.7801335478819427
 40
0.8379009397952796
 40
0.8969657659216121
 40
0.9479786608083435
 40
1.0
 40
1.0
 40
1.0
 40
1.0
 10
164.130137424566
 20
178.6089716851409
 30
0.0
 10
164.1281513023221
 20
178.6071802189646
 30
0.0
 10
164.1148931075718
 20
178.5952214346916
 30
0.0
 10
164.1720796000948
 20
178.6469501415995
 30
0.0
 10
164.3270912651315
 20
178.7873260123622
 30
0.0
 10
164.8056413688846
 20
179.2030477892577
 30
0.0
 10
165.5084274196719
 20
179.7709518841674
 30
0.0
 10
166.4879964781374
 20
180.4887511045267
 30
0.0
 10
167.7791804458107
 20
181.3147363669304
 30
0.0
 10
169.4469452457628
 20
182.1950948126002
 30
0.0
 10
171.4534953128385
 20
183.0111081608292
 30
0.0
 10
173.6134039836424
 20
183.6050287064969
 30
0.0
 10
175.7946521966055
 20
183.9367764098634
 30
0.0
 10
177.3094868590623
 20
184.0010326977579
 30
0.0
 10
178.7878445820988
 20
183.9658388802102
 30
0.0
 10
180.2288647232736
 20
183.8417513916077
 30
0.0
 10
182.116289266746
 20
183.4817244648155
 30
0.0
 10
183.9034388470631
 20
182.9548046065928
 30
0.0
 10
185.5981917883708
 20
182.2802777071945
 30
0.0
 10
187.1732929240665
 20
181.482707264856
 30
0.0
 10
188.4992077405032
 20
180.6648621830595
 30
0.0
 10
189.5711160763067
 20
179.9015076479298
 30
0.0
 10
190.0618730567861
 20
179.5059900795998
 30
0.0
 10
190.3096531812327
 20
179.306295737594
 30
0.0
  0
ARC
  5
2C4
330
1F
100
AcDbEntity
  8
0
  6
Continuous
 62
     8
370
    18
100
AcDbCircle
 10
192.092209084
 20
179.1198647295
 30
0.0
 40
1.792278456977994
100
AcDbArc
 50
174.029350245
 51
233.4093730549
  0
SPLINE
  5
2C5
330
1F
100
AcDbEntity
  8
0
  6
Continuous
 62
     8
370
    18
100
AcDbSpline
210
0.0
220
0.0
230
1.0
 70
     8
 71
     3
 72
    28
 73
    24
 74
     0
 42
0.000000001
 43
0.00000001
 40
0.0
 40
0.0
 40
0.0
 40
0.0
 40
0.0025929086145567
 40
0.0173087357673798
 40
0.0637243937978427
 40
0.1115451330511041
 40
0.1603101020064626
 40
0.2100678871979211
 40
0.269260240516202
 40
0.3298174292225013
 40
0.3940770957875447
 40
0.4606838775918753
 40
0.5125530697210318
 40
0.566181747609177
 40
0.5762927906683966
 40
0.625982865892831
 40
0.677204635810409
 40
0.7280683178999094
 40
0.7801335356264748
 40
0.8379009440801606
 40
0.896965752173176
 40
0.9479786466677286
 40
1.0
 40
1.0
 40
1.0
 40
1.0
 10
191.1166367415564
 20
139.3666891753372
 30
0.0
 10
191.1186228639909
 20
139.3684813217271
 30
0.0
 10
191.1318810514288
 20
139.3804446389629
 30
0.0
 10
191.0746945845569
 20
139.3287035514768
 30
0.0
 10
190.9196828949768
 20
139.1883376341914
 30
0.0
 10
190.4411327977164
 20
138.7726123000688
 30
0.0
 10
189.7383467508803
 20
138.2047091860494
 30
0.0
 10
188.7587776679025
 20
137.4869096958035
 30
0.0
 10
187.4675937498712
 20
136.6609244313428
 30
0.0
 10
185.7998284897406
 20
135.7805661745578
 30
0.0
 10
183.7932788388778
 20
134.9645527697558
 30
0.0
 10
181.6333705196197
 20
134.3706317197591
 30
0.0
 10
179.452121883288
 20
134.0388856938826
 30
0.0
 10
177.9372874710595
 20
133.9746334024145
 30
0.0
 10
176.4589296064395
 20
134.0098188693039
 30
0.0
 10
175.0179095906554
 20
134.1339108344409
 30
0.0
 10
173.1304850117204
 20
134.4939358898028
 30
0.0
 10
171.3433357062527
 20
135.0208566758869
 30
0.0
 10
169.6485820319283
 20
135.6953824316957
 30
0.0
 10
168.0734818905204
 20
136.4929564884964
 30
0.0
 10
166.747566140627
 20
137.3107982502407
 30
0.0
 10
165.6756579873096
 20
138.0741529928507
 30
0.0
 10
165.1849010977308
 20
138.4696719265312
 30
0.0
 10
164.9371209848897
 20
138.6693669855293
 30
0.0
  0
ARC
  5
2C6
330
1F
100
AcDbEntity
  8
0
  6
Continuous
 62
     8
370
    18
100
AcDbCircle
 10
163.1545657941
 20
138.8557966575
 30
0.0
 40
1.792277609809821
100
AcDbArc
 50
354.0293903601
 51
53.4093812987
  0
LINE
  5
2C7
330
1F
100
AcDbEntity
  8
0
  6
Continuous
 62
     8
370
    18
100
AcDbLine
 10
190.3096531812
 20
179.3062957376
 30
0.0
 11
190.3096531812
 21
180.4878311604
 31
0.0
  0
LINE
  5
2C8
330
1F
100
AcDbEntity
  8
0
  6
Continuous
 62
     8
370
    18
100
AcDbLine
 10
156.1233877499
 20
146.3015647977
 30
0.0
 11
157.3049231727
 21
146.3015647977
 31
0.0
  0
LINE
  5
2C9
330
1F
100
AcDbEntity
  8
0
  6
Continuous
 62
     8
370
    18
100
AcDbLine
 10
199.1233873476
 20
171.6740969941
 30
0.0
 11
197.9418519248
 21
171.6740969941
 31
0.0
  0
LINE
  5
2CA
330
1F
100
AcDbEntity
  8
0
  6
Continuous
 62
     8
370
    18
100
AcDbLine
 10
164.9371209849
 20
138.6693669855
 30
0.0
 11
164.9371209849
 21
137.4878315627
 31
0.0
  0
LWPOLYLINE
  5
2CB
330
1F
100
AcDbEntity
  8
0
  6
Continuous
 62
     8
370
    18
100
AcDbPolyline
 90
        9
 70
   128
 43
0.0
 10
196.4454549659
 20
175.4416982084
 10
196.1516953368
 20
175.184899047
 10
195.8692233373
 20
174.9379681796
 10
195.6088963259
 20
174.7103957832
 10
195.3807185699
 20
174.5109269768
 10
195.1934575398
 20
174.3472265452
 10
195.0543086339
 20
174.2255865037
 10
194.9686232317
 20
174.1506811604
 10
194.939688902
 20
174.1253883019
  0
LWPOLYLINE
  5
2CC
330
1F
100
AcDbEntity
  8
0
  6
Continuous
 62
     8
370
    18
100
AcDbPolyline
 90
        9
 70
   128
 43
0.0
 10
194.0772543956
 20
177.8098987788
 10
193.8204552341
 20
177.5161391496
 10
193.5735243667
 20
177.2336671501
 10
193.3459519703
 20
176.9733401388
 10
193.1464831639
 20
176.7451623827
 10
192.9827827323
 20
176.5579013526
 10
192.8611426909
 20
176.4187524467
 10
192.7862382788
 20
176.3330651819
 10
192.7609454204
 20
176.3041327148
  0
LWPOLYLINE
  5
2CD
330
1F
100
AcDbEntity
  8
0
  6
Continuous
 62
     8
370
    18
100
AcDbPolyline
 90
        9
 70
   128
 43
0.0
 10
162.4858287458
 20
141.6715281456
 10
162.4605368186
 20
141.6425956785
 10
162.3856305439
 20
141.5569084137
 10
162.2639905025
 20
141.4177613705
 10
162.1002910022
 20
141.2305003404
 10
161.9008221958
 20
141.0023207217
 10
161.6732497994
 20
140.7419937104
 10
161.426318932
 20
140.4595235735
 10
161.1695197705
 20
140.1657620817
  0
LWPOLYLINE
  5
2CE
330
1F
100
AcDbEntity
  8
0
  6
Continuous
 62
     8
370
    18
100
AcDbPolyline
 90
        9
 70
   128
 43
0.0
 10
160.3070843328
 20
143.8502725586
 10
160.2781518657
 20
143.8249797001
 10
160.1924646009
 20
143.7500743568
 10
160.0533175577
 20
143.6284343153
 10
159.8660565276
 20
143.464734815
 10
159.6378769089
 20
143.2652650773
 10
159.3775498975
 20
143.0376926809
 10
159.0950797606
 20
142.7907618135
 10
158.8013182689
 20
142.5339626521
  0
ARC
  5
2CF
330
1F
100
AcDbEntity
  8
0
  6
Continuous
 62
     8
370
    18
100
AcDbCircle
 10
177.6233870968
 20
158.9878306452
 30
0.0
 40
25.00000000000002
100
AcDbArc
 50
48.8407089928
 51
54.3643676366
  0
LWPOLYLINE
  5
2D0
330
1F
100
AcDbEntity
  8
0
  6
Continuous
 62
     8
370
    18
100
AcDbPolyline
 90
        9
 70
   128
 43
0.0
 10
192.189100321
 20
179.3062957376
 10
191.9617700685
 20
178.9891804009
 10
191.7431756217
 20
178.6842523515
 10
191.5417175103
 20
178.4032276272
 10
191.3651387502
 20
178.1569095701
 10
191.2202240262
 20
177.9547604173
 10
191.1125435788
 20
177.8045492619
 10
191.0462334115
 20
177.7120503038
 10
191.0238434855
 20
177.6808174699
  0
LINE
  5
2D1
330
1F
100
AcDbEntity
  8
0
  6
Continuous
 62
     8
370
    18
100
AcDbLine
 10
192.189100321
 20
179.3062957376
 30
0.0
 11
190.3096531812
 21
179.3062957376
 31
0.0
  0
ARC
  5
2D2
330
1F
100
AcDbEntity
  8
0
  6
Continuous
 62
     8
370
    18
100
AcDbCircle
 10
177.6233870968
 20
158.9878306452
 30
0.0
 40
24.99999999999999
100
AcDbArc
 50
35.6356323634
 51
41.1592910072
  0
LWPOLYLINE
  5
2D3
330
1F
100
AcDbEntity
  8
0
  6
Continuous
 62
     8
370
    18
100
AcDbPolyline
 90
        9
 70
   128
 43
0.0
 10
197.9418519248
 20
173.5535441339
 10
197.6247365881
 20
173.3262138813
 10
197.3198085387
 20
173.1076194346
 10
197.0387856771
 20
172.9061613232
 10
196.7924657572
 20
172.729582563
 10
196.5903166045
 20
172.5846678391
 10
196.4401073117
 20
172.4769864604
 10
196.3476083536
 20
172.4106772244
 10
196.3163736571
 20
172.388286367
  0
LINE
  5
2D4
330
1F
100
AcDbEntity
  8
0
  6
Continuous
 62
     8
370
    18
100
AcDbLine
 10
197.9418519248
 20
171.6740969941
 30
0.0
 11
197.9418519248
 21
173.5535441339
 31
0.0
  0
LWPOLYLINE
  5
2D5
330
1F
100
AcDbEntity
  8
0
  6
Continuous
 62
     8
370
    18
100
AcDbPolyline
 90
        9
 70
   128
 43
0.0
 10
158.9303995777
 20
145.5873744934
 10
158.8991667439
 20
145.5649845674
 10
158.8066677857
 20
145.4986744001
 10
158.6564566303
 20
145.3909930214
 10
158.4543093402
 20
145.2460782975
 10
158.2079894204
 20
145.0694995373
 10
157.9269665588
 20
144.8680423572
 10
157.6220366467
 20
144.6494479105
 10
157.3049231727
 20
144.4221176579
  0
LINE
  5
2D6
330
1F
100
AcDbEntity
  8
0
  6
Continuous
 62
     8
370
    18
100
AcDbLine
 10
157.3049231727
 20
146.3015647977
 30
0.0
 11
157.3049231727
 21
144.4221176579
 31
0.0
  0
ARC
  5
2D7
330
1F
100
AcDbEntity
  8
0
  6
Continuous
 62
     8
370
    18
100
AcDbCircle
 10
177.6233870968
 20
158.9878306452
 30
0.0
 40
25.00000000000001
100
AcDbArc
 50
215.6356323634
 51
221.1592910072
  0
LINE
  5
2D8
330
1F
100
AcDbEntity
  8
0
  6
Continuous
 62
     8
370
    18
100
AcDbLine
 10
163.0576738451
 20
138.6693669855
 30
0.0
 11
164.9371209849
 21
138.6693669855
 31
0.0
  0
LWPOLYLINE
  5
2D9
330
1F
100
AcDbEntity
  8
0
  6
Continuous
 62
     8
370
    18
100
AcDbPolyline
 90
        9
 70
   128
 43
0.0
 10
164.2229306806
 20
140.2948433906
 10
164.2005407546
 20
140.2636105567
 10
164.1342315186
 20
140.1711115986
 10
164.0265501399
 20
140.0209004432
 10
163.8816354159
 20
139.8187512904
 10
163.7050557245
 20
139.5724332332
 10
163.5035985444
 20
139.291408509
 10
163.2850040976
 20
138.9864804595
 10
163.0576738451
 20
138.6693669855
  0
ARC
  5
2DA
330
1F
100
AcDbEntity
  8
0
  6
Continuous
 62
     8
370
    18
100
AcDbCircle
 10
177.6233870968
 20
158.9878306452
 30
0.0
 40
25.00000000000003
100
AcDbArc
 50
228.8407089928
 51
234.3643676366
  0
LINE
  5
2DB
330
1F
100
AcDbEntity
  8
0
  6
Continuous
 62
     8
370
    18
100
AcDbLine
 10
192.189100321
 20
180.4878311604
 30
0.0
 11
192.189100321
 21
181.4878313243
 31
0.0
  0
LINE
  5
2DC
330
1F
100
AcDbEntity
  8
0
  6
Continuous
 62
     8
370
    18
100
AcDbLine
 10
192.189100321
 20
180.4878311604
 30
0.0
 11
190.3096531812
 21
180.4878311604
 31
0.0
  0
LINE
  5
2DD
330
1F
100
AcDbEntity
  8
0
  6
Continuous
 62
     8
370
    18
100
AcDbLine
 10
192.189100321
 20
180.4878311604
 30
0.0
 11
192.189100321
 21
179.3062957376
 31
0.0
  0
LINE
  5
2DE
330
1F
100
AcDbEntity
  8
0
  6
Continuous
 62
     8
370
    18
100
AcDbLine
 10
199.1233873476
 20
171.6740969941
 30
0.0
 11
199.1233873476
 21
173.5535441339
 31
0.0
  0
LINE
  5
2DF
330
1F
100
AcDbEntity
  8
0
  6
Continuous
 62
     8
370
    18
100
AcDbLine
 10
199.1233873476
 20
173.5535441339
 30
0.0
 11
200.1233875115
 21
173.5535441339
 31
0.0
  0
LINE
  5
2E0
330
1F
100
AcDbEntity
  8
0
  6
Continuous
 62
     8
370
    18
100
AcDbLine
 10
197.9418519248
 20
173.5535441339
 30
0.0
 11
199.1233873476
 21
173.5535441339
 31
0.0
  0
LINE
  5
2E1
330
1F
100
AcDbEntity
  8
0
  6
Continuous
 62
     8
370
    18
100
AcDbLine
 10
156.1233877499
 20
146.3015647977
 30
0.0
 11
156.1233877499
 21
144.4221176579
 31
0.0
  0
LINE
  5
2E2
330
1F
100
AcDbEntity
  8
0
  6
Continuous
 62
     8
370
    18
100
AcDbLine
 10
155.123387586
 20
144.4221176579
 30
0.0
 11
156.1233877499
 21
144.4221176579
 31
0.0
  0
LINE
  5
2E3
330
1F
100
AcDbEntity
  8
0
  6
Continuous
 62
     8
370
    18
100
AcDbLine
 10
157.3049231727
 20
144.4221176579
 30
0.0
 11
156.1233877499
 21
144.4221176579
 31
0.0
  0
LINE
  5
2E4
330
1F
100
AcDbEntity
  8
0
  6
Continuous
 62
     8
370
    18
100
AcDbLine
 10
163.0576738451
 20
137.4878315627
 30
0.0
 11
164.9371209849
 21
137.4878315627
 31
0.0
  0
LINE
  5
2E5
330
1F
100
AcDbEntity
  8
0
  6
Continuous
 62
     8
370
    18
100
AcDbLine
 10
163.0576738451
 20
137.4878315627
 30
0.0
 11
163.0576738451
 21
138.6693669855
 31
0.0
  0
LINE
  5
2E6
330
1F
100
AcDbEntity
  8
0
  6
Continuous
 62
     8
370
    18
100
AcDbLine
 10
163.0576738451
 20
136.4878313988
 30
0.0
 11
163.0576738451
 21
137.4878315627
 31
0.0
  0
LWPOLYLINE
  5
2E7
330
1F
100
AcDbEntity
  8
0
  6
Continuous
 62
     8
370
    18
100
AcDbPolyline
 90
        9
 70
   128
 43
0.0
 10
195.6164568026
 20
180.8050917834
 10
195.5291397233
 20
180.9795508533
 10
195.4451772679
 20
181.1473044008
 10
195.3677974005
 20
181.3019095361
 10
195.2999729026
 20
181.4374188333
 10
195.2443114776
 20
181.5486299246
 10
195.2029514421
 20
181.6312680393
 10
195.1774816323
 20
181.6821555048
 10
195.1688817997
 20
181.6993384063
  0
LWPOLYLINE
  5
2E8
330
1F
100
AcDbEntity
  8
0
  6
Continuous
 62
     8
370
    18
100
AcDbPolyline
 90
        9
 70
   128
 43
0.0
 10
199.4406479705
 20
176.9809006154
 10
199.6151070405
 20
176.8935835361
 10
199.7828624506
 20
176.8096210807
 10
199.9374657233
 20
176.7322412133
 10
200.0729768832
 20
176.6644167155
 10
200.1841879744
 20
176.6087552905
 10
200.2668242265
 20
176.5673952549
 10
200.317711692
 20
176.5419254452
 10
200.3348945935
 20
176.5333256125
  0
LINE
  5
2E9
330
1F
100
AcDbEntity
  8
0
  6
Continuous
 62
     8
370
    18
100
AcDbLine
 10
194.2737299312
 20
180.4878311604
 30
0.0
 11
192.189100321
 21
180.4878311604
 31
0.0
  0
LINE
  5
2EA
330
1F
100
AcDbEntity
  8
0
  6
Continuous
 62
     8
370
    18
100
AcDbLine
 10
194.2737299312
 20
180.4878311604
 30
0.0
 11
194.2737299312
 21
181.4878313243
 31
0.0
  0
ARC
  5
2EB
330
1F
100
AcDbEntity
  8
0
  6
Continuous
 62
     8
370
    18
100
AcDbCircle
 10
194.2737307116
 20
183.4878306452
 30
0.0
 40
3.0
100
AcDbArc
 50
270.0
 51
296.5882311261
  0
ARC
  5
2EC
330
1F
100
AcDbEntity
  8
0
  6
Continuous
 62
     8
370
    18
100
AcDbCircle
 10
202.1233870968
 20
175.63817426
 30
0.0
 40
3.0
100
AcDbArc
 50
153.4117688739
 51
180.0
  0
LINE
  5
2ED
330
1F
100
AcDbEntity
  8
0
  6
Continuous
 62
     8
370
    18
100
AcDbLine
 10
199.1233873476
 20
175.6381737441
 30
0.0
 11
200.1233875115
 21
175.6381737441
 31
0.0
  0
LINE
  5
2EE
330
1F
100
AcDbEntity
  8
0
  6
Continuous
 62
     8
370
    18
100
AcDbLine
 10
199.1233873476
 20
173.5535441339
 30
0.0
 11
199.1233873476
 21
175.6381737441
 31
0.0
  0
ARC
  5
2EF
330
1F
100
AcDbEntity
  8
0
  6
Continuous
 62
     8
370
    18
100
AcDbCircle
 10
153.1233870968
 20
142.3374870304
 30
0.0
 40
3.0
100
AcDbArc
 50
333.4117688739
 51
0.0
  0
LINE
  5
2F0
330
1F
100
AcDbEntity
  8
0
  6
Continuous
 62
     8
370
    18
100
AcDbLine
 10
156.1233877499
 20
144.4221176579
 30
0.0
 11
156.1233877499
 21
142.3374871164
 31
0.0
  0
LINE
  5
2F1
330
1F
100
AcDbEntity
  8
0
  6
Continuous
 62
     8
370
    18
100
AcDbLine
 10
155.123387586
 20
142.3374871164
 30
0.0
 11
156.1233877499
 21
142.3374871164
 31
0.0
  0
LWPOLYLINE
  5
2F2
330
1F
100
AcDbEntity
  8
0
  6
Continuous
 62
     8
370
    18
100
AcDbPolyline
 90
        9
 70
   128
 43
0.0
 10
154.9118786413
 20
141.4423371106
 10
154.9290615428
 20
141.4337354153
 10
154.9799490083
 20
141.4082674682
 10
155.062587123
 20
141.36690557
 10
155.1737982143
 20
141.311244145
 10
155.3093093742
 20
141.2434196472
 10
155.4639126469
 20
141.1660397798
 10
155.6316661943
 20
141.082079187
 10
155.8061252643
 20
140.9947602451
  0
LINE
  5
2F3
330
1F
100
AcDbEntity
  8
0
  6
Continuous
 62
     8
370
    18
100
AcDbLine
 10
160.9730433036
 20
137.4878315627
 30
0.0
 11
163.0576738451
 21
137.4878315627
 31
0.0
  0
ARC
  5
2F4
330
1F
100
AcDbEntity
  8
0
  6
Continuous
 62
     8
370
    18
100
AcDbCircle
 10
160.973043482
 20
134.4878306452
 30
0.0
 40
3.0
100
AcDbArc
 50
90.0
 51
116.5882311261
  0
LWPOLYLINE
  5
2F5
330
1F
100
AcDbEntity
  8
0
  6
Continuous
 62
     8
370
    18
100
AcDbPolyline
 90
        9
 70
   128
 43
0.0
 10
160.0778932978
 20
136.2763224542
 10
160.0692934651
 20
136.2935053557
 10
160.0438236553
 20
136.3443928212
 10
160.0024617572
 20
136.4270309359
 10
159.9468003322
 20
136.5382420271
 10
159.878977697
 20
136.673753187
 10
159.8015978296
 20
136.8283564597
 10
159.7176353742
 20
136.9961100071
 10
159.6303164322
 20
137.1705690771
  0
LINE
  5
2F6
330
1F
100
AcDbEntity
  8
0
  6
Continuous
 62
     8
370
    18
100
AcDbLine
 10
160.9730433036
 20
136.4878313988
 30
0.0
 11
160.9730433036
 21
137.4878315627
 31
0.0
  0
ARC
  5
2F7
330
1F
100
AcDbEntity
  8
0
  6
Continuous
 62
     7
370
    25
100
AcDbCircle
 10
402.4948210777
 20
339.9514112903
 30
0.0
 40
1.0
100
AcDbArc
 50
0.0
 51
90.0
  0
LINE
  5
2F8
330
1F
100
AcDbEntity
  8
0
  6
Continuous
 62
     7
370
    25
100
AcDbLine
 10
403.4948213592
 20
322.9514103009
 30
0.0
 11
403.4948213592
 21
339.9514112248
 31
0.0
  0
ARC
  5
2F9
330
1F
100
AcDbEntity
  8
0
  6
Continuous
 62
     7
370
    25
100
AcDbCircle
 10
402.4948210777
 20
322.9514112903
 30
0.0
 40
1.0
100
AcDbArc
 50
270.0
 51
0.0
  0
LINE
  5
2FA
330
1F
100
AcDbEntity
  8
0
  6
Continuous
 62
     7
370
    25
100
AcDbLine
 10
357.3761614605
 20
364.6514111756
 30
0.0
 11
357.3761614605
 21
353.1181703879
 31
0.0
  0
LINE
  5
2FB
330
1F
100
AcDbEntity
  8
0
  6
Continuous
 62
     7
370
    25
100
AcDbLine
 10
403.3761615499
 20
353.1181703879
 30
0.0
 11
403.3761615499
 21
364.6514111756
 31
0.0
  0
LINE
  5
2FC
330
1F
100
AcDbEntity
  8
0
  6
Continuous
 62
     7
370
    25
100
AcDbLine
 10
383.6261613395
 20
324.5484534277
 30
0.0
 11
383.6261613395
 21
322.9514103009
 31
0.0
  0
ARC
  5
2FD
330
1F
100
AcDbEntity
  8
0
  6
Continuous
 62
     7
370
    25
100
AcDbCircle
 10
384.6261612903
 20
322.9514112903
 30
0.0
 40
1.0
100
AcDbArc
 50
180.0
 51
270.0
  0
LINE
  5
2FE
330
1F
100
AcDbEntity
  8
0
  6
Continuous
 62
     7
370
    25
100
AcDbLine
 10
358.3761616245
 20
373.9014112948
 30
0.0
 11
358.3761616245
 21
368.4014113246
 31
0.0
  0
LINE
  5
2FF
330
1F
100
AcDbEntity
  8
0
  6
Continuous
 62
     7
370
    25
100
AcDbLine
 10
402.376161386
 20
368.4014113246
 30
0.0
 11
402.376161386
 21
373.9014112948
 31
0.0
  0
LINE
  5
300
330
1F
100
AcDbEntity
  8
0
  6
Continuous
 62
     7
370
    25
100
AcDbLine
 10
402.376161386
 20
373.9014112948
 30
0.0
 11
401.1261607155
 21
375.1514112669
 31
0.0
  0
LINE
  5
301
330
1F
100
AcDbEntity
  8
0
  6
Continuous
 62
     7
370
    25
100
AcDbLine
 10
359.6261604324
 20
375.1514112669
 30
0.0
 11
358.3761616245
 21
373.9014112948
 31
0.0
  0
LINE
  5
302
330
1F
100
AcDbEntity
  8
0
  6
Continuous
 62
     7
370
    25
100
AcDbLine
 10
358.3761616245
 20
368.4014113246
 30
0.0
 11
359.6261604324
 21
367.1514115854
 31
0.0
  0
LINE
  5
303
330
1F
100
AcDbEntity
  8
0
  6
Continuous
 62
     7
370
    25
100
AcDbLine
 10
401.1261607155
 20
367.1514115854
 30
0.0
 11
402.376161386
 21
368.4014113246
 31
0.0
  0
LINE
  5
304
330
1F
100
AcDbEntity
  8
0
  6
Continuous
 62
     7
370
    25
100
AcDbLine
 10
359.6261604324
 20
367.1514115854
 30
0.0
 11
359.6261604324
 21
364.6514111756
 31
0.0
  0
LINE
  5
305
330
1F
100
AcDbEntity
  8
0
  6
Continuous
 62
     7
370
    25
100
AcDbLine
 10
401.1261607155
 20
364.6514111756
 30
0.0
 11
401.1261607155
 21
367.1514115854
 31
0.0
  0
LINE
  5
306
330
1F
100
AcDbEntity
  8
0
  6
Continuous
 62
     7
370
    25
100
AcDbLine
 10
359.6261604324
 20
377.8784336032
 30
0.0
 11
359.6261604324
 21
375.1514112669
 31
0.0
  0
LINE
  5
307
330
1F
100
AcDbEntity
  8
0
  6
Continuous
 62
     7
370
    25
100
AcDbLine
 10
401.1261607155
 20
375.1514112669
 30
0.0
 11
401.1261607155
 21
377.8784336032
 31
0.0
  0
LINE
  5
308
330
1F
100
AcDbEntity
  8
0
  6
Continuous
 62
     7
370
    25
100
AcDbLine
 10
359.6261604324
 20
379.8784335236
 30
0.0
 11
359.6261604324
 21
379.3784336745
 31
0.0
  0
LINE
  5
309
330
1F
100
AcDbEntity
  8
0
  6
Continuous
 62
     7
370
    25
100
AcDbLine
 10
401.1261607155
 20
379.3784336745
 30
0.0
 11
401.1261607155
 21
379.8784335236
 31
0.0
  0
LINE
  5
30A
330
1F
100
AcDbEntity
  8
0
  6
Continuous
 62
     7
370
    25
100
AcDbLine
 10
401.1261607155
 20
377.8784336032
 30
0.0
 11
400.3761610582
 21
378.628433668
 31
0.0
  0
LINE
  5
30B
330
1F
100
AcDbEntity
  8
0
  6
Continuous
 62
     7
370
    25
100
AcDbLine
 10
360.3761619523
 20
378.628433668
 30
0.0
 11
359.6261604324
 21
377.8784336032
 31
0.0
  0
LINE
  5
30C
330
1F
100
AcDbEntity
  8
0
  6
Continuous
 62
     7
370
    25
100
AcDbLine
 10
401.1261607155
 20
379.8784335236
 30
0.0
 11
400.3761610582
 21
380.151411388
 31
0.0
  0
LINE
  5
30D
330
1F
100
AcDbEntity
  8
0
  6
Continuous
 62
     7
370
    25
100
AcDbLine
 10
360.3761619523
 20
380.151411388
 30
0.0
 11
359.6261604324
 21
379.8784335236
 31
0.0
  0
LINE
  5
30E
330
1F
100
AcDbEntity
  8
0
  6
Continuous
 62
     7
370
    25
100
AcDbLine
 10
359.6261604324
 20
379.3784336745
 30
0.0
 11
360.3761619523
 21
378.628433668
 31
0.0
  0
LINE
  5
30F
330
1F
100
AcDbEntity
  8
0
  6
Continuous
 62
     7
370
    25
100
AcDbLine
 10
400.3761610582
 20
378.628433668
 30
0.0
 11
401.1261607155
 21
379.3784336745
 31
0.0
  0
LINE
  5
310
330
1F
100
AcDbEntity
  8
0
  6
Continuous
 62
     7
370
    25
100
AcDbLine
 10
361.8380738988
 20
327.1514106168
 30
0.0
 11
371.6253456294
 21
327.1514106168
 31
0.0
  0
SPLINE
  5
311
330
1F
100
AcDbEntity
  8
0
  6
Continuous
 62
     7
370
    25
100
AcDbSpline
210
0.0
220
0.0
230
1.0
 70
     8
 71
     3
 72
     9
 73
     5
 74
     0
 42
0.000000001
 43
0.00000001
 40
0.0
 40
0.0
 40
0.0
 40
0.0
 40
0.4946768426963176
 40
1.0
 40
1.0
 40
1.0
 40
1.0
 10
371.6677636473996
 20
327.1273899449864
 30
0.0
 10
371.7878181225482
 20
327.0916713628739
 30
0.0
 10
372.0305108560391
 20
327.0194654720183
 30
0.0
 10
372.2328590570243
 20
326.8671591866305
 30
0.0
 10
372.3351102888209
 20
326.7901952936211
 30
0.0
  0
SPLINE
  5
312
330
1F
100
AcDbEntity
  8
0
  6
Continuous
 62
     7
370
    25
100
AcDbSpline
210
0.0
220
0.0
230
1.0
 70
     8
 71
     3
 72
     9
 73
     5
 74
     0
 42
0.000000001
 43
0.00000001
 40
0.0
 40
0.0
 40
0.0
 40
0.0
 40
0.8343161701813183
 40
0.9999999999999999
 40
0.9999999999999999
 40
0.9999999999999999
 40
0.9999999999999999
 10
371.6100812524182
 20
327.1505128218689
 30
0.0
 10
371.6426517649158
 20
327.1452134291383
 30
0.0
 10
371.6816903376557
 20
327.1388616491776
 30
0.0
 10
371.6680820937365
 20
327.1446511184024
 30
0.0
 10
371.6658274277669
 20
327.1456103398361
 30
0.0
  0
SPLINE
  5
313
330
1F
100
AcDbEntity
  8
0
  6
Continuous
 62
     7
370
    25
100
AcDbSpline
210
0.0
220
0.0
230
1.0
 70
     8
 71
     3
 72
    14
 73
    10
 74
     0
 42
0.000000001
 43
0.00000001
 40
0.0
 40
0.0
 40
0.0
 40
0.0
 40
0.1583710670519788
 40
0.3020586296390952
 40
0.4622507154124428
 40
0.6280447712664333
 40
0.8051615574437941
 40
0.9593347120006441
 40
1.0
 40
1.0
 40
1.0
 40
1.0
 10
357.3832339241725
 20
353.1236707790652
 30
0.0
 10
357.371973384388
 20
352.9587928701429
 30
0.0
 10
357.3504963350782
 20
352.6443238439887
 30
0.0
 10
357.1680359443683
 20
352.1927211535536
 30
0.0
 10
356.8891508603886
 20
351.7877160786737
 30
0.0
 10
356.4873128007586
 20
351.4413548764551
 30
0.0
 10
356.0143337468144
 20
351.2249287437982
 30
0.0
 10
355.6298844130924
 20
351.135939544711
 30
0.0
 10
355.4275742858858
 20
351.1493141417322
 30
0.0
 10
355.3853495612365
 20
351.1521055920878
 30
0.0
  0
SPLINE
  5
314
330
1F
100
AcDbEntity
  8
0
  6
Continuous
 62
     7
370
    25
100
AcDbSpline
210
0.0
220
0.0
230
1.0
 70
     8
 71
     3
 72
    15
 73
    11
 74
     0
 42
0.000000001
 43
0.00000001
 40
0.0
 40
0.0
 40
0.0
 40
0.0
 40
0.0705946855384186
 40
0.233264297517513
 40
0.3998015211943004
 40
0.5692731440289988
 40
0.7179329783192627
 40
0.8510857246229596
 40
0.9706630600496595
 40
1.0
 40
1.0
 40
1.0
 40
1.0
 10
405.367431659959
 20
351.156214587287
 30
0.0
 10
405.2939302183839
 20
351.1532343201494
 30
0.0
 10
405.0510611977946
 20
351.1433866961398
 30
0.0
 10
404.6424088423718
 20
351.257743623116
 30
0.0
 10
404.1805009853699
 20
351.5003990136268
 30
0.0
 10
403.809905103857
 20
351.8516455507079
 30
0.0
 10
403.5546790967831
 20
352.2508289593205
 30
0.0
 10
403.4166177516785
 20
352.6459705975239
 30
0.0
 10
403.3619659528401
 20
352.9377681155582
 30
0.0
 10
403.3684395921586
 20
353.0918888100141
 30
0.0
 10
403.3697149350864
 20
353.1222514434614
 30
0.0
  0
LINE
  5
315
330
1F
100
AcDbEntity
  8
0
  6
Continuous
 62
     7
370
    25
100
AcDbLine
 10
403.4948213592
 20
324.1514119877
 30
0.0
 11
406.3761620417
 21
324.1514119877
 31
0.0
  0
LINE
  5
316
330
1F
100
AcDbEntity
  8
0
  6
Continuous
 62
     7
370
    25
100
AcDbLine
 10
406.3761620417
 20
351.1514108254
 30
0.0
 11
405.3639447882
 21
351.1514108254
 31
0.0
  0
LINE
  5
317
330
1F
100
AcDbEntity
  8
0
  6
Continuous
 62
     7
370
    25
100
AcDbLine
 10
354.3761609688
 20
351.1514108254
 30
0.0
 11
353.8761618182
 21
350.6514116748
 31
0.0
  0
LINE
  5
318
330
1F
100
AcDbEntity
  8
0
  6
Continuous
 62
     7
370
    25
100
AcDbLine
 10
353.8761618182
 20
324.651413001
 30
0.0
 11
354.3761609688
 21
324.1514119877
 31
0.0
  0
LINE
  5
319
330
1F
100
AcDbEntity
  8
0
  6
Continuous
 62
     7
370
    25
100
AcDbLine
 10
355.3884192004
 20
351.1514108254
 30
0.0
 11
354.3761609688
 21
351.1514108254
 31
0.0
  0
LINE
  5
31A
330
1F
100
AcDbEntity
  8
0
  6
Continuous
 62
     7
370
    25
100
AcDbLine
 10
354.3761609688
 20
324.1514119877
 30
0.0
 11
361.3761621162
 21
324.1514119877
 31
0.0
  0
LINE
  5
31B
330
1F
100
AcDbEntity
  8
0
  6
Continuous
 62
     7
370
    25
100
AcDbLine
 10
406.3761620417
 20
324.1514119877
 30
0.0
 11
406.8761611923
 21
324.651413001
 31
0.0
  0
LINE
  5
31C
330
1F
100
AcDbEntity
  8
0
  6
Continuous
 62
     7
370
    25
100
AcDbLine
 10
406.8761611923
 20
350.6514116748
 30
0.0
 11
406.3761620417
 21
351.1514108254
 31
0.0
  0
LINE
  5
31D
330
1F
100
AcDbEntity
  8
0
  6
Continuous
 62
     7
370
    25
100
AcDbLine
 10
336.3761617437
 20
348.1489106639
 30
0.0
 11
335.3761597171
 21
347.1489105
 31
0.0
  0
LINE
  5
31E
330
1F
100
AcDbEntity
  8
0
  6
Continuous
 62
     7
370
    25
100
AcDbLine
 10
335.3761597171
 20
328.1539123132
 30
0.0
 11
336.3761617437
 21
327.1539102866
 31
0.0
  0
LINE
  5
31F
330
1F
100
AcDbEntity
  8
0
  6
Continuous
 62
     7
370
    25
100
AcDbLine
 10
353.8761618182
 20
348.1489106639
 30
0.0
 11
336.3761617437
 21
348.1489106639
 31
0.0
  0
LINE
  5
320
330
1F
100
AcDbEntity
  8
0
  6
Continuous
 62
     7
370
    25
100
AcDbLine
 10
336.3761617437
 20
327.1539102866
 30
0.0
 11
353.8761618182
 21
327.1539102866
 31
0.0
  0
LINE
  5
321
330
1F
100
AcDbEntity
  8
0
  6
Continuous
 62
     7
370
    25
100
AcDbLine
 10
406.8761611923
 20
327.1539102866
 30
0.0
 11
424.3761612668
 21
327.1539102866
 31
0.0
  0
LINE
  5
322
330
1F
100
AcDbEntity
  8
0
  6
Continuous
 62
     7
370
    25
100
AcDbLine
 10
424.3761612668
 20
348.1489106639
 30
0.0
 11
406.8761611923
 21
348.1489106639
 31
0.0
  0
LINE
  5
323
330
1F
100
AcDbEntity
  8
0
  6
Continuous
 62
     7
370
    25
100
AcDbLine
 10
424.3761612668
 20
327.1539102866
 30
0.0
 11
425.3761595681
 21
328.1539123132
 31
0.0
  0
LINE
  5
324
330
1F
100
AcDbEntity
  8
0
  6
Continuous
 62
     7
370
    25
100
AcDbLine
 10
425.3761595681
 20
347.1489105
 30
0.0
 11
424.3761612668
 21
348.1489106639
 31
0.0
  0
LINE
  5
325
330
1F
100
AcDbEntity
  8
0
  6
Continuous
 62
     7
370
    25
100
AcDbLine
 10
370.3761617288
 20
384.6514111943
 30
0.0
 11
370.3761617288
 21
382.1514112501
 31
0.0
  0
LINE
  5
326
330
1F
100
AcDbEntity
  8
0
  6
Continuous
 62
     7
370
    25
100
AcDbLine
 10
390.3761612817
 20
382.1514112501
 30
0.0
 11
390.3761612817
 21
384.6514111943
 31
0.0
  0
ARC
  5
327
330
1F
100
AcDbEntity
  8
0
  6
Continuous
 62
     7
370
    25
100
AcDbCircle
 10
361.3761612903
 20
325.1514112903
 30
0.0
 40
1.0
100
AcDbArc
 50
270.0
 51
0.0
  0
ARC
  5
328
330
1F
100
AcDbEntity
  8
0
  6
Continuous
 62
     7
370
    25
100
AcDbCircle
 10
364.3761612903
 20
325.6514112903
 30
0.0
 40
2.0
100
AcDbArc
 50
131.4096221093
 51
180.0
  0
ARC
  5
329
330
1F
100
AcDbEntity
  8
0
  6
Continuous
 62
     7
370
    25
100
AcDbCircle
 10
375.7944913036
 20
387.5330812771
 30
0.0
 40
1.381669986733016
100
AcDbArc
 50
270.0
 51
15.4610483416
  0
ARC
  5
32A
330
1F
100
AcDbEntity
  8
0
  6
Continuous
 62
     7
370
    25
100
AcDbCircle
 10
384.9578312771
 20
387.5330812771
 30
0.0
 40
1.381669986733016
100
AcDbArc
 50
164.5389516584
 51
270.0
  0
LINE
  5
32B
330
1F
100
AcDbEntity
  8
0
  6
Continuous
 62
     7
370
    25
100
AcDbLine
 10
375.9761610634
 20
386.1514109745
 30
0.0
 11
375.9761610634
 21
384.6514111943
 31
0.0
  0
LINE
  5
32C
330
1F
100
AcDbEntity
  8
0
  6
Continuous
 62
     7
370
    25
100
AcDbLine
 10
384.7761614814
 20
384.6514111943
 30
0.0
 11
384.7761614814
 21
386.1514109745
 31
0.0
  0
LINE
  5
32D
330
1F
100
AcDbEntity
  8
0
  6
Continuous
 62
     7
370
    25
100
AcDbLine
 10
383.7011768117
 20
427.176397629
 30
0.0
 11
383.1761614054
 21
427.7014102413
 31
0.0
  0
LINE
  5
32E
330
1F
100
AcDbEntity
  8
0
  6
Continuous
 62
     7
370
    25
100
AcDbLine
 10
377.5761613723
 20
427.7014102413
 30
0.0
 11
377.0511457331
 21
427.176397629
 31
0.0
  0
LINE
  5
32F
330
1F
100
AcDbEntity
  8
0
  6
Continuous
 62
     7
370
    25
100
AcDbLine
 10
377.0511613328
 20
417.7014123275
 30
0.0
 11
377.0511613328
 21
415.9514125063
 31
0.0
  0
LINE
  5
330
330
1F
100
AcDbEntity
  8
0
  6
Continuous
 62
     7
370
    25
100
AcDbLine
 10
383.7011612121
 20
415.9514125063
 30
0.0
 11
383.7011612121
 21
417.7014123275
 31
0.0
  0
ARC
  5
331
330
1F
100
AcDbEntity
  8
0
  6
Continuous
 62
     7
370
    25
100
AcDbCircle
 10
358.257501503
 20
322.9514112903
 30
0.0
 40
1.0
100
AcDbArc
 50
180.0
 51
270.0
  0
LINE
  5
332
330
1F
100
AcDbEntity
  8
0
  6
Continuous
 62
     7
370
    25
100
AcDbLine
 10
357.2575016513
 20
324.1514119877
 30
0.0
 11
357.2575016513
 21
322.9514103009
 31
0.0
  0
LINE
  5
333
330
1F
100
AcDbEntity
  8
0
  6
Continuous
 62
     7
370
    25
100
AcDbLine
 10
377.1261612054
 20
322.9514103009
 30
0.0
 11
377.1261612054
 21
324.5484534277
 31
0.0
  0
ARC
  5
334
330
1F
100
AcDbEntity
  8
0
  6
Continuous
 62
     7
370
    25
100
AcDbCircle
 10
376.1261612903
 20
322.9514112903
 30
0.0
 40
1.0
100
AcDbArc
 50
270.0
 51
0.0
  0
CIRCLE
  5
335
330
1F
100
AcDbEntity
  8
0
  6
Continuous
 62
     7
370
    25
100
AcDbCircle
 10
380.3761612903
 20
337.6514112903
 30
0.0
 40
9.497500000000002
  0
CIRCLE
  5
336
330
1F
100
AcDbEntity
  8
0
  6
Continuous
 62
     7
370
    25
100
AcDbCircle
 10
380.3761612903
 20
337.6514112903
 30
0.0
 40
10.4975
  0
CIRCLE
  5
337
330
1F
100
AcDbEntity
  8
0
  6
Continuous
 62
     7
370
    25
100
AcDbCircle
 10
380.3761612903
 20
337.6514112903
 30
0.0
 40
13.0
  0
CIRCLE
  5
338
330
1F
100
AcDbEntity
  8
0
  6
Continuous
 62
     7
370
    25
100
AcDbCircle
 10
380.3761612903
 20
337.6514112903
 30
0.0
 40
13.5
  0
LINE
  5
339
330
1F
100
AcDbEntity
  8
0
  6
Continuous
 62
     7
370
    25
100
AcDbLine
 10
398.3692316904
 20
340.9514095261
 30
0.0
 11
402.4948211953
 21
340.9514095261
 31
0.0
  0
LINE
  5
33A
330
1F
100
AcDbEntity
  8
0
  6
Continuous
 62
     7
370
    25
100
AcDbLine
 10
398.3692316904
 20
321.9514119997
 30
0.0
 11
402.4948211953
 21
321.9514119997
 31
0.0
  0
LINE
  5
33B
330
1F
100
AcDbEntity
  8
0
  6
Continuous
 62
     7
370
    25
100
AcDbLine
 10
403.3596901789
 20
353.1225103511
 30
0.0
 11
403.3572184488
 21
353.1181703879
 31
0.0
  0
LINE
  5
33C
330
1F
100
AcDbEntity
  8
0
  6
Continuous
 62
     7
370
    25
100
AcDbLine
 10
357.3761614605
 20
364.6514111756
 30
0.0
 11
403.3761615499
 21
364.6514111756
 31
0.0
  0
LINE
  5
33D
330
1F
100
AcDbEntity
  8
0
  6
Continuous
 62
     7
370
    25
100
AcDbLine
 10
398.3692316904
 20
321.9514119997
 30
0.0
 11
397.0265048191
 21
321.9514119997
 31
0.0
  0
LINE
  5
33E
330
1F
100
AcDbEntity
  8
0
  6
Continuous
 62
     7
370
    25
100
AcDbLine
 10
397.0265048191
 20
340.9514095261
 30
0.0
 11
398.3692316904
 21
340.9514095261
 31
0.0
  0
ARC
  5
33F
330
1F
100
AcDbEntity
  8
0
  6
Continuous
 62
     7
370
    25
100
AcDbCircle
 10
394.9418744551
 20
342.9514112903
 30
0.0
 40
2.0
100
AcDbArc
 50
199.9948381526
 51
270.0
  0
LINE
  5
340
330
1F
100
AcDbEntity
  8
0
  6
Continuous
 62
     7
370
    25
100
AcDbLine
 10
385.3761613935
 20
321.9514119997
 30
0.0
 11
384.6261612706
 21
321.9514119997
 31
0.0
  0
LINE
  5
341
330
1F
100
AcDbEntity
  8
0
  6
Continuous
 62
     7
370
    25
100
AcDbLine
 10
397.0265048191
 20
321.9514119997
 30
0.0
 11
385.3761613935
 21
321.9514119997
 31
0.0
  0
LINE
  5
342
330
1F
100
AcDbEntity
  8
0
  6
Continuous
 62
     7
370
    25
100
AcDbLine
 10
394.9418742776
 20
340.9514095261
 30
0.0
 11
397.0265048191
 21
340.9514095261
 31
0.0
  0
LINE
  5
343
330
1F
100
AcDbEntity
  8
0
  6
Continuous
 62
     7
370
    25
100
AcDbLine
 10
358.3761616245
 20
368.4014113246
 30
0.0
 11
402.376161386
 21
368.4014113246
 31
0.0
  0
LINE
  5
344
330
1F
100
AcDbEntity
  8
0
  6
Continuous
 62
     7
370
    25
100
AcDbLine
 10
358.3761616245
 20
373.9014112948
 30
0.0
 11
402.376161386
 21
373.9014112948
 31
0.0
  0
LINE
  5
345
330
1F
100
AcDbEntity
  8
0
  6
Continuous
 62
     7
370
    25
100
AcDbLine
 10
359.6261604324
 20
375.1514112669
 30
0.0
 11
401.1261607155
 21
375.1514112669
 31
0.0
  0
LINE
  5
346
330
1F
100
AcDbEntity
  8
0
  6
Continuous
 62
     7
370
    25
100
AcDbLine
 10
359.6261604324
 20
367.1514115854
 30
0.0
 11
401.1261607155
 21
367.1514115854
 31
0.0
  0
LINE
  5
347
330
1F
100
AcDbEntity
  8
0
  6
Continuous
 62
     7
370
    25
100
AcDbLine
 10
359.6261604324
 20
377.8784336032
 30
0.0
 11
401.1261607155
 21
377.8784336032
 31
0.0
  0
LINE
  5
348
330
1F
100
AcDbEntity
  8
0
  6
Continuous
 62
     7
370
    25
100
AcDbLine
 10
359.6261604324
 20
379.3784336745
 30
0.0
 11
401.1261607155
 21
379.3784336745
 31
0.0
  0
LINE
  5
349
330
1F
100
AcDbEntity
  8
0
  6
Continuous
 62
     7
370
    25
100
AcDbLine
 10
359.6261604324
 20
379.8784335236
 30
0.0
 11
401.1261607155
 21
379.8784335236
 31
0.0
  0
LINE
  5
34A
330
1F
100
AcDbEntity
  8
0
  6
Continuous
 62
     7
370
    25
100
AcDbLine
 10
360.3761619523
 20
378.628433668
 30
0.0
 11
400.3761610582
 21
378.628433668
 31
0.0
  0
LINE
  5
34B
330
1F
100
AcDbEntity
  8
0
  6
Continuous
 62
     7
370
    25
100
AcDbLine
 10
360.3761619523
 20
380.151411388
 30
0.0
 11
400.3761610582
 21
380.151411388
 31
0.0
  0
LINE
  5
34C
330
1F
100
AcDbEntity
  8
0
  6
Continuous
 62
     7
370
    25
100
AcDbLine
 10
355.3884192004
 20
351.1341459676
 30
0.0
 11
355.3847423389
 21
351.1393278464
 31
0.0
  0
LINE
  5
34D
330
1F
100
AcDbEntity
  8
0
  6
Continuous
 62
     7
370
    25
100
AcDbLine
 10
379.2885514775
 20
380.7398612703
 30
0.0
 11
381.4637710673
 21
380.7398612703
 31
0.0
  0
SPLINE
  5
34E
330
1F
100
AcDbEntity
  8
0
  6
Continuous
 62
     7
370
    25
100
AcDbSpline
210
0.0
220
0.0
230
1.0
 70
     8
 71
     3
 72
    10
 73
     6
 74
     0
 42
0.000000001
 43
0.00000001
 40
0.0
 40
0.0
 40
0.0
 40
0.0
 40
0.5
 40
0.5
 40
1.0
 40
1.0
 40
1.0
 40
1.0
 10
374.9667268243348
 20
382.1514112903223
 30
0.0
 10
375.7158188961872
 20
382.0528761710808
 30
0.0
 10
376.4482232068287
 20
381.874913170203
 30
0.0
 10
377.8866499541445
 20
381.3934187152371
 30
0.0
 10
378.5947247279315
 20
381.0890804777715
 30
0.0
 10
379.2885515190419
 20
380.7398612903223
 30
0.0
  0
LINE
  5
34F
330
1F
100
AcDbEntity
  8
0
  6
Continuous
 62
     7
370
    25
100
AcDbLine
 10
385.785595943
 20
382.1514112501
 30
0.0
 11
374.9667266018
 21
382.1514112501
 31
0.0
  0
SPLINE
  5
350
330
1F
100
AcDbEntity
  8
0
  6
Continuous
 62
     7
370
    25
100
AcDbSpline
210
0.0
220
0.0
230
1.0
 70
     8
 71
     3
 72
    12
 73
     8
 74
     0
 42
0.000000001
 43
0.00000001
 40
0.0
 40
0.0
 40
0.0
 40
0.0
 40
0.2500000000000001
 40
0.2500000000000001
 40
0.5000000000000002
 40
0.5000000000000002
 40
1.0
 40
1.0
 40
1.0
 40
1.0
 10
381.4637710616026
 20
380.7398612903223
 30
0.0
 10
381.808035498656
 20
380.9131376015225
 30
0.0
 10
382.1575123492385
 20
381.076289642709
 30
0.0
 10
382.8691839707898
 20
381.3778912222419
 30
0.0
 10
383.2286017463987
 20
381.515051586967
 30
0.0
 10
384.3116651850111
 20
381.8771485773556
 30
0.0
 10
385.0429844378225
 20
382.0537286454689
 30
0.0
 10
385.7855957563096
 20
382.1514112903223
 30
0.0
  0
LINE
  5
351
330
1F
100
AcDbEntity
  8
0
  6
Continuous
 62
     7
370
    25
100
AcDbLine
 10
381.4637710673
 20
380.151411388
 30
0.0
 11
381.4637710673
 21
380.7398612703
 31
0.0
  0
LINE
  5
352
330
1F
100
AcDbEntity
  8
0
  6
Continuous
 62
     7
370
    25
100
AcDbLine
 10
379.2885514775
 20
380.151411388
 30
0.0
 11
379.2885514775
 21
380.7398612703
 31
0.0
  0
LINE
  5
353
330
1F
100
AcDbEntity
  8
0
  6
Continuous
 62
     7
370
    25
100
AcDbLine
 10
372.2856021121
 20
382.1514112501
 30
0.0
 11
374.9667266018
 21
382.1514112501
 31
0.0
  0
LINE
  5
354
330
1F
100
AcDbEntity
  8
0
  6
Continuous
 62
     7
370
    25
100
AcDbLine
 10
367.9637773528
 20
380.151411388
 30
0.0
 11
367.9637773528
 21
380.7398612703
 31
0.0
  0
SPLINE
  5
355
330
1F
100
AcDbEntity
  8
0
  6
Continuous
 62
     7
370
    25
100
AcDbSpline
210
0.0
220
0.0
230
1.0
 70
     8
 71
     3
 72
    12
 73
     8
 74
     0
 42
0.000000001
 43
0.00000001
 40
0.0
 40
0.0
 40
0.0
 40
0.0
 40
0.2500000000000002
 40
0.2500000000000002
 40
0.5000000000000003
 40
0.5000000000000003
 40
1.0
 40
1.0
 40
1.0
 40
1.0
 10
367.9637773559791
 20
380.7398612903223
 30
0.0
 10
368.3080417930324
 20
380.9131376015225
 30
0.0
 10
368.6575186436149
 20
381.076289642709
 30
0.0
 10
369.3691902651663
 20
381.3778912222419
 30
0.0
 10
369.7286080407751
 20
381.515051586967
 30
0.0
 10
370.8116714793876
 20
381.8771485773556
 30
0.0
 10
371.5429907321989
 20
382.0537286454689
 30
0.0
 10
372.2856020506861
 20
382.1514112903223
 30
0.0
  0
LINE
  5
356
330
1F
100
AcDbEntity
  8
0
  6
Continuous
 62
     7
370
    25
100
AcDbLine
 10
385.785595943
 20
382.1514112501
 30
0.0
 11
388.4667208984
 21
382.1514112501
 31
0.0
  0
SPLINE
  5
357
330
1F
100
AcDbEntity
  8
0
  6
Continuous
 62
     7
370
    25
100
AcDbSpline
210
0.0
220
0.0
230
1.0
 70
     8
 71
     3
 72
    10
 73
     6
 74
     0
 42
0.000000001
 43
0.00000001
 40
0.0
 40
0.0
 40
0.0
 40
0.0
 40
0.5
 40
0.5
 40
1.0
 40
1.0
 40
1.0
 40
1.0
 10
388.4667205299584
 20
382.1514112903223
 30
0.0
 10
389.2158126018107
 20
382.0528761710808
 30
0.0
 10
389.9482169124522
 20
381.874913170203
 30
0.0
 10
391.386643659768
 20
381.3934187152371
 30
0.0
 10
392.094718433555
 20
381.0890804777715
 30
0.0
 10
392.7885452246654
 20
380.7398612903223
 30
0.0
  0
LINE
  5
358
330
1F
100
AcDbEntity
  8
0
  6
Continuous
 62
     7
370
    25
100
AcDbLine
 10
392.7885456577
 20
380.151411388
 30
0.0
 11
392.7885456577
 21
380.7398612703
 31
0.0
  0
SPLINE
  5
359
330
1F
100
AcDbEntity
  8
0
  6
Continuous
 62
     7
370
    25
100
AcDbSpline
210
0.0
220
0.0
230
1.0
 70
     8
 71
     3
 72
    10
 73
     6
 74
     0
 42
0.000000001
 43
0.00000001
 40
0.0
 40
0.0
 40
0.0
 40
0.0
 40
0.0050121015203121
 40
0.4192450150949067
 40
1.0
 40
1.0
 40
1.0
 40
1.0
 10
401.8761603727561
 20
342.2675396873512
 30
0.0
 10
401.87784086162
 20
342.2654559435523
 30
0.0
 10
402.0184079623161
 20
342.0911579575841
 30
0.0
 10
402.3656072462384
 20
341.6786576795598
 30
0.0
 10
402.6010855841932
 20
341.1932744017759
 30
0.0
 10
402.7385296865922
 20
340.9099656714955
 30
0.0
  0
LINE
  5
35A
330
1F
100
AcDbEntity
  8
0
  6
Continuous
 62
     7
370
    25
100
AcDbLine
 10
405.3639447882
 20
351.1342689021
 30
0.0
 11
405.3676123365
 21
351.139413528
 31
0.0
  0
LINE
  5
35B
330
1F
100
AcDbEntity
  8
0
  6
Continuous
 62
     7
370
    25
100
AcDbLine
 10
406.3761620417
 20
337.6514095439
 30
0.0
 11
406.3761620417
 21
351.1514108254
 31
0.0
  0
LINE
  5
35C
330
1F
100
AcDbEntity
  8
0
  6
Continuous
 62
     7
370
    25
100
AcDbLine
 10
406.3761620417
 20
324.1514119877
 30
0.0
 11
406.3761620417
 21
337.6514095439
 31
0.0
  0
LINE
  5
35D
330
1F
100
AcDbEntity
  8
0
  6
Continuous
 62
     7
370
    25
100
AcDbLine
 10
353.8761618182
 20
350.6514116748
 30
0.0
 11
353.8761618182
 21
324.651413001
 31
0.0
  0
LINE
  5
35E
330
1F
100
AcDbEntity
  8
0
  6
Continuous
 62
     7
370
    25
100
AcDbLine
 10
354.3761609688
 20
351.1514108254
 30
0.0
 11
354.3761609688
 21
324.1514119877
 31
0.0
  0
LINE
  5
35F
330
1F
100
AcDbEntity
  8
0
  6
Continuous
 62
     7
370
    25
100
AcDbLine
 10
406.8761611923
 20
337.6514095439
 30
0.0
 11
406.8761611923
 21
350.6514116748
 31
0.0
  0
LINE
  5
360
330
1F
100
AcDbEntity
  8
0
  6
Continuous
 62
     7
370
    25
100
AcDbLine
 10
406.8761611923
 20
324.651413001
 30
0.0
 11
406.8761611923
 21
337.6514095439
 31
0.0
  0
LINE
  5
361
330
1F
100
AcDbEntity
  8
0
  6
Continuous
 62
     7
370
    25
100
AcDbLine
 10
366.8761676743
 20
380.7398612703
 30
0.0
 11
367.9637773528
 21
380.7398612703
 31
0.0
  0
SPLINE
  5
362
330
1F
100
AcDbEntity
  8
0
  6
Continuous
 62
     7
370
    25
100
AcDbSpline
210
0.0
220
0.0
230
1.0
 70
    24
 71
     3
 72
     8
 73
     4
 74
     0
 42
0.000000001
 43
0.00000001
 40
0.0
 40
0.0
 40
0.0
 40
0.0
 40
1.0
 40
1.0
 40
1.0
 40
1.0
 10
366.8761675846987
 20
382.1514112903223
 30
0.0
 10
366.8761675846987
 20
381.9533460077636
 30
0.0
 10
366.8761675846987
 20
381.4376081417076
 30
0.0
 10
366.8761675846987
 20
380.7398612903223
 30
0.0
  0
LINE
  5
363
330
1F
100
AcDbEntity
  8
0
  6
Continuous
 62
     7
370
    25
100
AcDbLine
 10
372.2856021121
 20
382.1514112501
 30
0.0
 11
366.8761676743
 21
382.1514112501
 31
0.0
  0
LINE
  5
364
330
1F
100
AcDbEntity
  8
0
  6
Continuous
 62
     7
370
    25
100
AcDbLine
 10
392.7885456577
 20
380.7398612703
 30
0.0
 11
393.8761553362
 21
380.7398612703
 31
0.0
  0
SPLINE
  5
365
330
1F
100
AcDbEntity
  8
0
  6
Continuous
 62
     7
370
    25
100
AcDbSpline
210
0.0
220
0.0
230
1.0
 70
    24
 71
     3
 72
    12
 73
     8
 74
     0
 42
0.000000001
 43
0.00000001
 40
0.0
 40
0.0
 40
0.0
 40
0.0
 40
0.2499999999999999
 40
0.2499999999999999
 40
0.4999999999999999
 40
0.4999999999999999
 40
1.0
 40
1.0
 40
1.0
 40
1.0
 10
393.8761549959458
 20
380.7398612903223
 30
0.0
 10
393.8761549959458
 20
380.9118891653158
 30
0.0
 10
393.8761549959458
 20
381.073782646986
 30
0.0
 10
393.8761549959458
 20
381.3730282159809
 30
0.0
 10
393.8761549959458
 20
381.510731394666
 30
0.0
 10
393.8761549959458
 20
381.8768451212634
 30
0.0
 10
393.8761549959458
 20
382.0538186750154
 30
0.0
 10
393.8761549959458
 20
382.1514112903223
 30
0.0
  0
LINE
  5
366
330
1F
100
AcDbEntity
  8
0
  6
Continuous
 62
     7
370
    25
100
AcDbLine
 10
393.8761553362
 20
382.1514112501
 30
0.0
 11
388.4667208984
 21
382.1514112501
 31
0.0
  0
LINE
  5
367
330
1F
100
AcDbEntity
  8
0
  6
Continuous
 62
     7
370
    25
100
AcDbLine
 10
335.3761597171
 20
347.1489105
 30
0.0
 11
335.3761597171
 21
328.1539123132
 31
0.0
  0
LINE
  5
368
330
1F
100
AcDbEntity
  8
0
  6
Continuous
 62
     7
370
    25
100
AcDbLine
 10
336.3761617437
 20
348.1489106639
 30
0.0
 11
336.3761617437
 21
327.1539102866
 31
0.0
  0
LINE
  5
369
330
1F
100
AcDbEntity
  8
0
  6
Continuous
 62
     7
370
    25
100
AcDbLine
 10
424.3761612668
 20
337.6514095439
 30
0.0
 11
424.3761612668
 21
348.1489106639
 31
0.0
  0
LINE
  5
36A
330
1F
100
AcDbEntity
  8
0
  6
Continuous
 62
     7
370
    25
100
AcDbLine
 10
424.3761612668
 20
327.1539102866
 30
0.0
 11
424.3761612668
 21
337.6514095439
 31
0.0
  0
LINE
  5
36B
330
1F
100
AcDbEntity
  8
0
  6
Continuous
 62
     7
370
    25
100
AcDbLine
 10
425.3761595681
 20
337.6514095439
 30
0.0
 11
425.3761595681
 21
347.1489105
 31
0.0
  0
LINE
  5
36C
330
1F
100
AcDbEntity
  8
0
  6
Continuous
 62
     7
370
    25
100
AcDbLine
 10
425.3761595681
 20
328.1539123132
 30
0.0
 11
425.3761595681
 21
337.6514095439
 31
0.0
  0
LINE
  5
36D
330
1F
100
AcDbEntity
  8
0
  6
Continuous
 62
     7
370
    25
100
AcDbLine
 10
370.3761617288
 20
384.6514111943
 30
0.0
 11
390.3761612817
 21
384.6514111943
 31
0.0
  0
LINE
  5
36E
330
1F
100
AcDbEntity
  8
0
  6
Continuous
 62
     7
370
    25
100
AcDbLine
 10
366.8761676743
 20
380.151411388
 30
0.0
 11
366.8761676743
 21
380.7398612703
 31
0.0
  0
LINE
  5
36F
330
1F
100
AcDbEntity
  8
0
  6
Continuous
 62
     7
370
    25
100
AcDbLine
 10
393.8761553362
 20
380.151411388
 30
0.0
 11
393.8761553362
 21
380.7398612703
 31
0.0
  0
LINE
  5
370
330
1F
100
AcDbEntity
  8
0
  6
Continuous
 62
     7
370
    25
100
AcDbLine
 10
362.3761604175
 20
326.9999738409
 30
0.0
 11
362.3761604175
 21
325.151410289
 31
0.0
  0
LINE
  5
371
330
1F
100
AcDbEntity
  8
0
  6
Continuous
 62
     7
370
    25
100
AcDbLine
 10
384.9578313164
 20
386.1514109745
 30
0.0
 11
375.7944912284
 21
386.1514109745
 31
0.0
  0
SPLINE
  5
372
330
1F
100
AcDbEntity
  8
0
  6
Continuous
 62
     7
370
    25
100
AcDbSpline
210
0.0
220
0.0
230
1.0
 70
     8
 71
     3
 72
     8
 73
     4
 74
     0
 42
0.000000001
 43
0.00000001
 40
0.0
 40
0.0
 40
0.0
 40
0.0
 40
1.0
 40
1.0
 40
1.0
 40
1.0
 10
384.1496091110455
 20
426.7014112903223
 30
0.0
 10
384.0027138092403
 20
426.8646150685426
 30
0.0
 10
383.8537186676131
 20
427.0238539130314
 30
0.0
 10
383.7011767925418
 20
427.1763957881027
 30
0.0
  0
LINE
  5
373
330
1F
100
AcDbEntity
  8
0
  6
Continuous
 62
     7
370
    25
100
AcDbLine
 10
384.1034965224
 20
426.7014119401
 30
0.0
 11
384.1496090971
 21
426.7014119401
 31
0.0
  0
SPLINE
  5
374
330
1F
100
AcDbEntity
  8
0
  6
Continuous
 62
     7
370
    25
100
AcDbSpline
210
0.0
220
0.0
230
1.0
 70
     8
 71
     3
 72
     8
 73
     4
 74
     0
 42
0.000000001
 43
0.00000001
 40
0.0
 40
0.0
 40
0.0
 40
0.0
 40
1.0
 40
1.0
 40
1.0
 40
1.0
 10
383.5384389504906
 20
427.1763957881026
 30
0.0
 10
383.7306529336647
 20
427.0238539073739
 30
0.0
 10
383.9183977635033
 20
426.8646150634424
 30
0.0
 10
384.1034966363654
 20
426.7014112903223
 30
0.0
  0
SPLINE
  5
375
330
1F
100
AcDbEntity
  8
0
  6
Continuous
 62
     7
370
    25
100
AcDbSpline
210
0.0
220
0.0
230
1.0
 70
     8
 71
     3
 72
     8
 73
     4
 74
     0
 42
0.000000001
 43
0.00000001
 40
0.0
 40
0.0
 40
0.0
 40
0.0
 40
1.0
 40
1.0
 40
1.0
 40
1.0
 10
383.8263502218763
 20
426.7014112903223
 30
0.0
 10
383.7320376354803
 20
426.8646150634424
 30
0.0
 10
383.6363768666665
 20
427.0238539073739
 30
0.0
 10
383.5384389504906
 20
427.1763957881026
 30
0.0
  0
LINE
  5
376
330
1F
100
AcDbEntity
  8
0
  6
Continuous
 62
     7
370
    25
100
AcDbLine
 10
383.6925266876
 20
426.7014119401
 30
0.0
 11
383.826350291
 21
426.7014119401
 31
0.0
  0
SPLINE
  5
377
330
1F
100
AcDbEntity
  8
0
  6
Continuous
 62
     7
370
    25
100
AcDbSpline
210
0.0
220
0.0
230
1.0
 70
     8
 71
     3
 72
     8
 73
     4
 74
     0
 42
0.000000001
 43
0.00000001
 40
0.0
 40
0.0
 40
0.0
 40
0.0
 40
1.0
 40
1.0
 40
1.0
 40
1.0
 10
383.0661553381781
 20
427.1763957881027
 30
0.0
 10
383.2792261805687
 20
427.0238539068886
 30
0.0
 10
383.4873429275181
 20
426.8646150630048
 30
0.0
 10
383.6925266081423
 20
426.7014112903223
 30
0.0
  0
SPLINE
  5
378
330
1F
100
AcDbEntity
  8
0
  6
Continuous
 62
     7
370
    25
100
AcDbSpline
210
0.0
220
0.0
230
1.0
 70
     8
 71
     3
 72
     8
 73
     4
 74
     0
 42
0.000000001
 43
0.00000001
 40
0.0
 40
0.0
 40
0.0
 40
0.0
 40
1.0
 40
1.0
 40
1.0
 40
1.0
 10
383.1653628012067
 20
426.7014112903223
 30
0.0
 10
383.1328648987873
 20
426.8646150630048
 30
0.0
 10
383.0999024442996
 20
427.0238539068886
 30
0.0
 10
383.0661553381781
 20
427.1763957881027
 30
0.0
  0
LINE
  5
379
330
1F
100
AcDbEntity
  8
0
  6
Continuous
 62
     7
370
    25
100
AcDbLine
 10
382.9569276057
 20
426.7014119401
 30
0.0
 11
383.1653627202
 21
426.7014119401
 31
0.0
  0
SPLINE
  5
37A
330
1F
100
AcDbEntity
  8
0
  6
Continuous
 62
     7
370
    25
100
AcDbSpline
210
0.0
220
0.0
230
1.0
 70
     8
 71
     3
 72
     8
 73
     4
 74
     0
 42
0.000000001
 43
0.00000001
 40
0.0
 40
0.0
 40
0.0
 40
0.0
 40
1.0
 40
1.0
 40
1.0
 40
1.0
 10
382.3305563661708
 20
427.1763957881027
 30
0.0
 10
382.5436272085615
 20
427.0238539068886
 30
0.0
 10
382.7517439555108
 20
426.8646150630048
 30
0.0
 10
382.956927636135
 20
426.7014112903223
 30
0.0
  0
SPLINE
  5
37B
330
1F
100
AcDbEntity
  8
0
  6
Continuous
 62
     7
370
    25
100
AcDbSpline
210
0.0
220
0.0
230
1.0
 70
     8
 71
     3
 72
     8
 73
     4
 74
     0
 42
0.000000001
 43
0.00000001
 40
0.0
 40
0.0
 40
0.0
 40
0.0
 40
1.0
 40
1.0
 40
1.0
 40
1.0
 10
382.2313489031421
 20
426.7014112903223
 30
0.0
 10
382.2638468055615
 20
426.8646150630048
 30
0.0
 10
382.2968092600493
 20
427.0238539068886
 30
0.0
 10
382.3305563661708
 20
427.1763957881027
 30
0.0
  0
LINE
  5
37C
330
1F
100
AcDbEntity
  8
0
  6
Continuous
 62
     7
370
    25
100
AcDbLine
 10
381.9687052963
 20
426.7014119401
 30
0.0
 11
382.2313488561
 21
426.7014119401
 31
0.0
  0
SPLINE
  5
37D
330
1F
100
AcDbEntity
  8
0
  6
Continuous
 62
     7
370
    25
100
AcDbSpline
210
0.0
220
0.0
230
1.0
 70
     8
 71
     3
 72
     8
 73
     4
 74
     0
 42
0.000000001
 43
0.00000001
 40
0.0
 40
0.0
 40
0.0
 40
0.0
 40
1.0
 40
1.0
 40
1.0
 40
1.0
 10
381.4036475870682
 20
427.1763957881027
 30
0.0
 10
381.5958615702423
 20
427.023853907374
 30
0.0
 10
381.7836064000809
 20
426.8646150634424
 30
0.0
 10
381.9687052729431
 20
426.7014112903223
 30
0.0
  0
SPLINE
  5
37E
330
1F
100
AcDbEntity
  8
0
  6
Continuous
 62
     7
370
    25
100
AcDbSpline
210
0.0
220
0.0
230
1.0
 70
     8
 71
     3
 72
     8
 73
     4
 74
     0
 42
0.000000001
 43
0.00000001
 40
0.0
 40
0.0
 40
0.0
 40
0.0
 40
1.0
 40
1.0
 40
1.0
 40
1.0
 10
381.1157363156826
 20
426.7014112903223
 30
0.0
 10
381.2100489020786
 20
426.8646150634424
 30
0.0
 10
381.3057096708924
 20
427.023853907374
 30
0.0
 10
381.4036475870682
 20
427.1763957881027
 30
0.0
  0
LINE
  5
37F
330
1F
100
AcDbEntity
  8
0
  6
Continuous
 62
     7
370
    25
100
AcDbLine
 10
380.824593616
 20
426.7014119401
 30
0.0
 11
381.1157362869
 21
426.7014119401
 31
0.0
  0
SPLINE
  5
380
330
1F
100
AcDbEntity
  8
0
  6
Continuous
 62
     7
370
    25
100
AcDbSpline
210
0.0
220
0.0
230
1.0
 70
     8
 71
     3
 72
     8
 73
     4
 74
     0
 42
0.000000001
 43
0.00000001
 40
0.0
 40
0.0
 40
0.0
 40
0.0
 40
1.0
 40
1.0
 40
1.0
 40
1.0
 10
380.3761612903223
 20
427.1763957881027
 30
0.0
 10
380.5287031653935
 20
427.0238539130314
 30
0.0
 10
380.6776983070207
 20
426.8646150685426
 30
0.0
 10
380.8245936088259
 20
426.7014112903223
 30
0.0
  0
SPLINE
  5
381
330
1F
100
AcDbEntity
  8
0
  6
Continuous
 62
     7
370
    25
100
AcDbSpline
210
0.0
220
0.0
230
1.0
 70
     8
 71
     3
 72
     8
 73
     4
 74
     0
 42
0.000000001
 43
0.00000001
 40
0.0
 40
0.0
 40
0.0
 40
0.0
 40
1.0
 40
1.0
 40
1.0
 40
1.0
 10
379.9277289718186
 20
426.7014112903223
 30
0.0
 10
380.0746242736238
 20
426.8646150685426
 30
0.0
 10
380.223619415251
 20
427.0238539130314
 30
0.0
 10
380.3761612903223
 20
427.1763957881027
 30
0.0
  0
LINE
  5
382
330
1F
100
AcDbEntity
  8
0
  6
Continuous
 62
     7
370
    25
100
AcDbLine
 10
379.636586258
 20
426.7014119401
 30
0.0
 11
379.927728958
 21
426.7014119401
 31
0.0
  0
SPLINE
  5
383
330
1F
100
AcDbEntity
  8
0
  6
Continuous
 62
     7
370
    25
100
AcDbSpline
210
0.0
220
0.0
230
1.0
 70
     8
 71
     3
 72
     8
 73
     4
 74
     0
 42
0.000000001
 43
0.00000001
 40
0.0
 40
0.0
 40
0.0
 40
0.0
 40
1.0
 40
1.0
 40
1.0
 40
1.0
 10
379.3486749935762
 20
427.1763957881027
 30
0.0
 10
379.4466129097521
 20
427.023853907374
 30
0.0
 10
379.5422736785659
 20
426.8646150634424
 30
0.0
 10
379.6365862649619
 20
426.7014112903223
 30
0.0
  0
SPLINE
  5
384
330
1F
100
AcDbEntity
  8
0
  6
Continuous
 62
     7
370
    25
100
AcDbSpline
210
0.0
220
0.0
230
1.0
 70
     8
 71
     3
 72
     8
 73
     4
 74
     0
 42
0.000000001
 43
0.00000001
 40
0.0
 40
0.0
 40
0.0
 40
0.0
 40
1.0
 40
1.0
 40
1.0
 40
1.0
 10
378.7836173077014
 20
426.7014112903223
 30
0.0
 10
378.9687161805635
 20
426.8646150634424
 30
0.0
 10
379.1564610104022
 20
427.0238539073739
 30
0.0
 10
379.3486749935762
 20
427.1763957881027
 30
0.0
  0
LINE
  5
385
330
1F
100
AcDbEntity
  8
0
  6
Continuous
 62
     7
370
    25
100
AcDbLine
 10
378.5209736887
 20
426.7014119401
 30
0.0
 11
378.783617365
 21
426.7014119401
 31
0.0
  0
SPLINE
  5
386
330
1F
100
AcDbEntity
  8
0
  6
Continuous
 62
     7
370
    25
100
AcDbSpline
210
0.0
220
0.0
230
1.0
 70
     8
 71
     3
 72
     8
 73
     4
 74
     0
 42
0.000000001
 43
0.00000001
 40
0.0
 40
0.0
 40
0.0
 40
0.0
 40
1.0
 40
1.0
 40
1.0
 40
1.0
 10
378.4217662144737
 20
427.1763957881027
 30
0.0
 10
378.4555133205952
 20
427.0238539068886
 30
0.0
 10
378.4884757750829
 20
426.8646150630048
 30
0.0
 10
378.5209736775024
 20
426.7014112903223
 30
0.0
  0
SPLINE
  5
387
330
1F
100
AcDbEntity
  8
0
  6
Continuous
 62
     7
370
    25
100
AcDbSpline
210
0.0
220
0.0
230
1.0
 70
     8
 71
     3
 72
     8
 73
     4
 74
     0
 42
0.000000001
 43
0.00000001
 40
0.0
 40
0.0
 40
0.0
 40
0.0
 40
1.0
 40
1.0
 40
1.0
 40
1.0
 10
378.4217662144737
 20
427.1763957881027
 30
0.0
 10
378.1377530329236
 20
427.1764269176294
 30
0.0
 10
377.8925533755879
 20
427.1764269176294
 30
0.0
 10
377.6861672424664
 20
427.1763957881027
 30
0.0
  0
SPLINE
  5
388
330
1F
100
AcDbEntity
  8
0
  6
Continuous
 62
     7
370
    25
100
AcDbSpline
210
0.0
220
0.0
230
1.0
 70
     8
 71
     3
 72
     8
 73
     4
 74
     0
 42
0.000000001
 43
0.00000001
 40
0.0
 40
0.0
 40
0.0
 40
0.0
 40
1.0
 40
1.0
 40
1.0
 40
1.0
 10
377.0597959725022
 20
426.7014112903223
 30
0.0
 10
377.2649796531264
 20
426.8646150630048
 30
0.0
 10
377.4730964000757
 20
427.0238539068886
 30
0.0
 10
377.6861672424664
 20
427.1763957881027
 30
0.0
  0
LINE
  5
389
330
1F
100
AcDbEntity
  8
0
  6
Continuous
 62
     7
370
    25
100
AcDbLine
 10
376.9259722538
 20
426.7014119401
 30
0.0
 11
377.0597958572
 21
426.7014119401
 31
0.0
  0
SPLINE
  5
38A
330
1F
100
AcDbEntity
  8
0
  6
Continuous
 62
     7
370
    25
100
AcDbSpline
210
0.0
220
0.0
230
1.0
 70
     8
 71
     3
 72
     8
 73
     4
 74
     0
 42
0.000000001
 43
0.00000001
 40
0.0
 40
0.0
 40
0.0
 40
0.0
 40
1.0
 40
1.0
 40
1.0
 40
1.0
 10
377.2138836301539
 20
427.1763957881027
 30
0.0
 10
377.115945713978
 20
427.0238539073739
 30
0.0
 10
377.0202849451642
 20
426.8646150634424
 30
0.0
 10
376.9259723587682
 20
426.7014112903223
 30
0.0
  0
SPLINE
  5
38B
330
1F
100
AcDbEntity
  8
0
  6
Continuous
 62
     7
370
    25
100
AcDbSpline
210
0.0
220
0.0
230
1.0
 70
     8
 71
     3
 72
     8
 73
     4
 74
     0
 42
0.000000001
 43
0.00000001
 40
0.0
 40
0.0
 40
0.0
 40
0.0
 40
1.0
 40
1.0
 40
1.0
 40
1.0
 10
376.648825944279
 20
426.7014112903223
 30
0.0
 10
376.8339248171412
 20
426.8646150634424
 30
0.0
 10
377.0216696469798
 20
427.0238539073739
 30
0.0
 10
377.2138836301539
 20
427.1763957881027
 30
0.0
  0
LINE
  5
38C
330
1F
100
AcDbEntity
  8
0
  6
Continuous
 62
     7
370
    25
100
AcDbLine
 10
376.6027134478
 20
426.7014119401
 30
0.0
 11
376.6488260224
 21
426.7014119401
 31
0.0
  0
SPLINE
  5
38D
330
1F
100
AcDbEntity
  8
0
  6
Continuous
 62
     7
370
    25
100
AcDbSpline
210
0.0
220
0.0
230
1.0
 70
     8
 71
     3
 72
     8
 73
     4
 74
     0
 42
0.000000001
 43
0.00000001
 40
0.0
 40
0.0
 40
0.0
 40
0.0
 40
1.0
 40
1.0
 40
1.0
 40
1.0
 10
377.0511457881026
 20
427.1763957881027
 30
0.0
 10
376.8986039130314
 20
427.0238539130314
 30
0.0
 10
376.7496087714042
 20
426.8646150685426
 30
0.0
 10
376.6027134695989
 20
426.7014112903223
 30
0.0
  0
LINE
  5
38E
330
1F
100
AcDbEntity
  8
0
  6
Continuous
 62
     7
370
    25
100
AcDbLine
 10
377.5761613723
 20
427.7014102413
 30
0.0
 11
383.1761614054
 21
427.7014102413
 31
0.0
  0
LINE
  5
38F
330
1F
100
AcDbEntity
  8
0
  6
Continuous
 62
     7
370
    25
100
AcDbLine
 10
379.927728958
 20
415.9514125063
 30
0.0
 11
379.927728958
 21
387.901411727
 31
0.0
  0
LINE
  5
390
330
1F
100
AcDbEntity
  8
0
  6
Continuous
 62
     7
370
    25
100
AcDbLine
 10
379.636586258
 20
415.9514125063
 30
0.0
 11
379.636586258
 21
387.901411727
 31
0.0
  0
LINE
  5
391
330
1F
100
AcDbEntity
  8
0
  6
Continuous
 62
     7
370
    25
100
AcDbLine
 10
379.636586258
 20
415.9514125063
 30
0.0
 11
379.927728958
 21
415.9514125063
 31
0.0
  0
LINE
  5
392
330
1F
100
AcDbEntity
  8
0
  6
Continuous
 62
     7
370
    25
100
AcDbLine
 10
379.636586258
 20
387.901411727
 30
0.0
 11
379.927728958
 21
387.901411727
 31
0.0
  0
LINE
  5
393
330
1F
100
AcDbEntity
  8
0
  6
Continuous
 62
     7
370
    25
100
AcDbLine
 10
379.636586258
 20
426.7014119401
 30
0.0
 11
379.636586258
 21
417.7014123275
 31
0.0
  0
LINE
  5
394
330
1F
100
AcDbEntity
  8
0
  6
Continuous
 62
     7
370
    25
100
AcDbLine
 10
379.927728958
 20
426.7014119401
 30
0.0
 11
379.927728958
 21
417.7014123275
 31
0.0
  0
LINE
  5
395
330
1F
100
AcDbEntity
  8
0
  6
Continuous
 62
     7
370
    25
100
AcDbLine
 10
379.927728958
 20
417.7014123275
 30
0.0
 11
379.636586258
 21
417.7014123275
 31
0.0
  0
LINE
  5
396
330
1F
100
AcDbEntity
  8
0
  6
Continuous
 62
     7
370
    25
100
AcDbLine
 10
380.3761612904
 20
427.176397629
 30
0.0
 11
380.3761612904
 21
417.7014123275
 31
0.0
  0
LINE
  5
397
330
1F
100
AcDbEntity
  8
0
  6
Continuous
 62
     7
370
    25
100
AcDbLine
 10
380.3761612904
 20
417.7014123275
 30
0.0
 11
379.927728958
 21
417.7014123275
 31
0.0
  0
LINE
  5
398
330
1F
100
AcDbEntity
  8
0
  6
Continuous
 62
     7
370
    25
100
AcDbLine
 10
380.3761612904
 20
415.9514125063
 30
0.0
 11
380.3761612904
 21
387.901411727
 31
0.0
  0
LINE
  5
399
330
1F
100
AcDbEntity
  8
0
  6
Continuous
 62
     7
370
    25
100
AcDbLine
 10
379.927728958
 20
415.9514125063
 30
0.0
 11
380.3761612904
 21
415.9514125063
 31
0.0
  0
LINE
  5
39A
330
1F
100
AcDbEntity
  8
0
  6
Continuous
 62
     7
370
    25
100
AcDbLine
 10
379.927728958
 20
387.901411727
 30
0.0
 11
380.3761612904
 21
387.901411727
 31
0.0
  0
LINE
  5
39B
330
1F
100
AcDbEntity
  8
0
  6
Continuous
 62
     7
370
    25
100
AcDbLine
 10
380.824593616
 20
426.7014119401
 30
0.0
 11
380.824593616
 21
417.7014123275
 31
0.0
  0
LINE
  5
39C
330
1F
100
AcDbEntity
  8
0
  6
Continuous
 62
     7
370
    25
100
AcDbLine
 10
380.824593616
 20
417.7014123275
 30
0.0
 11
380.3761612904
 21
417.7014123275
 31
0.0
  0
LINE
  5
39D
330
1F
100
AcDbEntity
  8
0
  6
Continuous
 62
     7
370
    25
100
AcDbLine
 10
380.824593616
 20
415.9514125063
 30
0.0
 11
380.824593616
 21
387.901411727
 31
0.0
  0
LINE
  5
39E
330
1F
100
AcDbEntity
  8
0
  6
Continuous
 62
     7
370
    25
100
AcDbLine
 10
380.3761612904
 20
415.9514125063
 30
0.0
 11
380.824593616
 21
415.9514125063
 31
0.0
  0
LINE
  5
39F
330
1F
100
AcDbEntity
  8
0
  6
Continuous
 62
     7
370
    25
100
AcDbLine
 10
380.3761612904
 20
387.901411727
 30
0.0
 11
380.824593616
 21
387.901411727
 31
0.0
  0
LINE
  5
3A0
330
1F
100
AcDbEntity
  8
0
  6
Continuous
 62
     7
370
    25
100
AcDbLine
 10
381.1157362869
 20
426.7014119401
 30
0.0
 11
381.1157362869
 21
417.7014123275
 31
0.0
  0
LINE
  5
3A1
330
1F
100
AcDbEntity
  8
0
  6
Continuous
 62
     7
370
    25
100
AcDbLine
 10
381.1157362869
 20
417.7014123275
 30
0.0
 11
380.824593616
 21
417.7014123275
 31
0.0
  0
LINE
  5
3A2
330
1F
100
AcDbEntity
  8
0
  6
Continuous
 62
     7
370
    25
100
AcDbLine
 10
381.1157362869
 20
415.9514125063
 30
0.0
 11
381.1157362869
 21
387.901411727
 31
0.0
  0
LINE
  5
3A3
330
1F
100
AcDbEntity
  8
0
  6
Continuous
 62
     7
370
    25
100
AcDbLine
 10
380.824593616
 20
415.9514125063
 30
0.0
 11
381.1157362869
 21
415.9514125063
 31
0.0
  0
LINE
  5
3A4
330
1F
100
AcDbEntity
  8
0
  6
Continuous
 62
     7
370
    25
100
AcDbLine
 10
380.824593616
 20
387.901411727
 30
0.0
 11
381.1157362869
 21
387.901411727
 31
0.0
  0
LINE
  5
3A5
330
1F
100
AcDbEntity
  8
0
  6
Continuous
 62
     7
370
    25
100
AcDbLine
 10
379.3486749854
 20
427.176397629
 30
0.0
 11
379.3486749854
 21
417.7014123275
 31
0.0
  0
LINE
  5
3A6
330
1F
100
AcDbEntity
  8
0
  6
Continuous
 62
     7
370
    25
100
AcDbLine
 10
379.636586258
 20
417.7014123275
 30
0.0
 11
379.3486749854
 21
417.7014123275
 31
0.0
  0
LINE
  5
3A7
330
1F
100
AcDbEntity
  8
0
  6
Continuous
 62
     7
370
    25
100
AcDbLine
 10
379.3486749854
 20
415.9514125063
 30
0.0
 11
379.3486749854
 21
387.901411727
 31
0.0
  0
LINE
  5
3A8
330
1F
100
AcDbEntity
  8
0
  6
Continuous
 62
     7
370
    25
100
AcDbLine
 10
379.3486749854
 20
415.9514125063
 30
0.0
 11
379.636586258
 21
415.9514125063
 31
0.0
  0
LINE
  5
3A9
330
1F
100
AcDbEntity
  8
0
  6
Continuous
 62
     7
370
    25
100
AcDbLine
 10
379.3486749854
 20
387.901411727
 30
0.0
 11
379.636586258
 21
387.901411727
 31
0.0
  0
LINE
  5
3AA
330
1F
100
AcDbEntity
  8
0
  6
Continuous
 62
     7
370
    25
100
AcDbLine
 10
381.4036475595
 20
427.176397629
 30
0.0
 11
381.4036475595
 21
417.7014123275
 31
0.0
  0
LINE
  5
3AB
330
1F
100
AcDbEntity
  8
0
  6
Continuous
 62
     7
370
    25
100
AcDbLine
 10
381.4036475595
 20
417.7014123275
 30
0.0
 11
381.1157362869
 21
417.7014123275
 31
0.0
  0
LINE
  5
3AC
330
1F
100
AcDbEntity
  8
0
  6
Continuous
 62
     7
370
    25
100
AcDbLine
 10
381.4036475595
 20
415.9514125063
 30
0.0
 11
381.4036475595
 21
387.901411727
 31
0.0
  0
LINE
  5
3AD
330
1F
100
AcDbEntity
  8
0
  6
Continuous
 62
     7
370
    25
100
AcDbLine
 10
381.1157362869
 20
415.9514125063
 30
0.0
 11
381.4036475595
 21
415.9514125063
 31
0.0
  0
LINE
  5
3AE
330
1F
100
AcDbEntity
  8
0
  6
Continuous
 62
     7
370
    25
100
AcDbLine
 10
381.1157362869
 20
387.901411727
 30
0.0
 11
381.4036475595
 21
387.901411727
 31
0.0
  0
LINE
  5
3AF
330
1F
100
AcDbEntity
  8
0
  6
Continuous
 62
     7
370
    25
100
AcDbLine
 10
378.5209736887
 20
426.7014119401
 30
0.0
 11
378.5209736887
 21
417.7014123275
 31
0.0
  0
LINE
  5
3B0
330
1F
100
AcDbEntity
  8
0
  6
Continuous
 62
     7
370
    25
100
AcDbLine
 10
378.783617365
 20
426.7014119401
 30
0.0
 11
378.783617365
 21
417.7014123275
 31
0.0
  0
LINE
  5
3B1
330
1F
100
AcDbEntity
  8
0
  6
Continuous
 62
     7
370
    25
100
AcDbLine
 10
378.783617365
 20
417.7014123275
 30
0.0
 11
378.5209736887
 21
417.7014123275
 31
0.0
  0
LINE
  5
3B2
330
1F
100
AcDbEntity
  8
0
  6
Continuous
 62
     7
370
    25
100
AcDbLine
 10
378.783617365
 20
415.9514125063
 30
0.0
 11
378.783617365
 21
387.901411727
 31
0.0
  0
LINE
  5
3B3
330
1F
100
AcDbEntity
  8
0
  6
Continuous
 62
     7
370
    25
100
AcDbLine
 10
378.5209736887
 20
415.9514125063
 30
0.0
 11
378.5209736887
 21
387.901411727
 31
0.0
  0
LINE
  5
3B4
330
1F
100
AcDbEntity
  8
0
  6
Continuous
 62
     7
370
    25
100
AcDbLine
 10
378.5209736887
 20
415.9514125063
 30
0.0
 11
378.783617365
 21
415.9514125063
 31
0.0
  0
LINE
  5
3B5
330
1F
100
AcDbEntity
  8
0
  6
Continuous
 62
     7
370
    25
100
AcDbLine
 10
378.5209736887
 20
387.901411727
 30
0.0
 11
378.783617365
 21
387.901411727
 31
0.0
  0
LINE
  5
3B6
330
1F
100
AcDbEntity
  8
0
  6
Continuous
 62
     7
370
    25
100
AcDbLine
 10
379.3486749854
 20
417.7014123275
 30
0.0
 11
378.783617365
 21
417.7014123275
 31
0.0
  0
LINE
  5
3B7
330
1F
100
AcDbEntity
  8
0
  6
Continuous
 62
     7
370
    25
100
AcDbLine
 10
378.783617365
 20
415.9514125063
 30
0.0
 11
379.3486749854
 21
415.9514125063
 31
0.0
  0
LINE
  5
3B8
330
1F
100
AcDbEntity
  8
0
  6
Continuous
 62
     7
370
    25
100
AcDbLine
 10
378.783617365
 20
387.901411727
 30
0.0
 11
379.3486749854
 21
387.901411727
 31
0.0
  0
LINE
  5
3B9
330
1F
100
AcDbEntity
  8
0
  6
Continuous
 62
     7
370
    25
100
AcDbLine
 10
381.9687052963
 20
426.7014119401
 30
0.0
 11
381.9687052963
 21
417.7014123275
 31
0.0
  0
LINE
  5
3BA
330
1F
100
AcDbEntity
  8
0
  6
Continuous
 62
     7
370
    25
100
AcDbLine
 10
381.9687052963
 20
417.7014123275
 30
0.0
 11
381.4036475595
 21
417.7014123275
 31
0.0
  0
LINE
  5
3BB
330
1F
100
AcDbEntity
  8
0
  6
Continuous
 62
     7
370
    25
100
AcDbLine
 10
381.9687052963
 20
415.9514125063
 30
0.0
 11
381.9687052963
 21
387.901411727
 31
0.0
  0
LINE
  5
3BC
330
1F
100
AcDbEntity
  8
0
  6
Continuous
 62
     7
370
    25
100
AcDbLine
 10
381.4036475595
 20
415.9514125063
 30
0.0
 11
381.9687052963
 21
415.9514125063
 31
0.0
  0
LINE
  5
3BD
330
1F
100
AcDbEntity
  8
0
  6
Continuous
 62
     7
370
    25
100
AcDbLine
 10
381.4036475595
 20
387.901411727
 30
0.0
 11
381.9687052963
 21
387.901411727
 31
0.0
  0
LINE
  5
3BE
330
1F
100
AcDbEntity
  8
0
  6
Continuous
 62
     7
370
    25
100
AcDbLine
 10
382.2313488561
 20
426.7014119401
 30
0.0
 11
382.2313488561
 21
417.7014123275
 31
0.0
  0
LINE
  5
3BF
330
1F
100
AcDbEntity
  8
0
  6
Continuous
 62
     7
370
    25
100
AcDbLine
 10
382.2313488561
 20
417.7014123275
 30
0.0
 11
381.9687052963
 21
417.7014123275
 31
0.0
  0
LINE
  5
3C0
330
1F
100
AcDbEntity
  8
0
  6
Continuous
 62
     7
370
    25
100
AcDbLine
 10
382.2313488561
 20
415.9514125063
 30
0.0
 11
382.2313488561
 21
387.901411727
 31
0.0
  0
LINE
  5
3C1
330
1F
100
AcDbEntity
  8
0
  6
Continuous
 62
     7
370
    25
100
AcDbLine
 10
381.9687052963
 20
415.9514125063
 30
0.0
 11
382.2313488561
 21
415.9514125063
 31
0.0
  0
LINE
  5
3C2
330
1F
100
AcDbEntity
  8
0
  6
Continuous
 62
     7
370
    25
100
AcDbLine
 10
381.9687052963
 20
387.901411727
 30
0.0
 11
382.2313488561
 21
387.901411727
 31
0.0
  0
LINE
  5
3C3
330
1F
100
AcDbEntity
  8
0
  6
Continuous
 62
     7
370
    25
100
AcDbLine
 10
378.4217661813
 20
427.176397629
 30
0.0
 11
378.4217661813
 21
417.7014123275
 31
0.0
  0
LINE
  5
3C4
330
1F
100
AcDbEntity
  8
0
  6
Continuous
 62
     7
370
    25
100
AcDbLine
 10
378.5209736887
 20
417.7014123275
 30
0.0
 11
378.4217661813
 21
417.7014123275
 31
0.0
  0
LINE
  5
3C5
330
1F
100
AcDbEntity
  8
0
  6
Continuous
 62
     7
370
    25
100
AcDbLine
 10
378.4217661813
 20
415.9514125063
 30
0.0
 11
378.4217661813
 21
387.901411727
 31
0.0
  0
LINE
  5
3C6
330
1F
100
AcDbEntity
  8
0
  6
Continuous
 62
     7
370
    25
100
AcDbLine
 10
378.4217661813
 20
415.9514125063
 30
0.0
 11
378.5209736887
 21
415.9514125063
 31
0.0
  0
LINE
  5
3C7
330
1F
100
AcDbEntity
  8
0
  6
Continuous
 62
     7
370
    25
100
AcDbLine
 10
378.4217661813
 20
387.901411727
 30
0.0
 11
378.5209736887
 21
387.901411727
 31
0.0
  0
LINE
  5
3C8
330
1F
100
AcDbEntity
  8
0
  6
Continuous
 62
     7
370
    25
100
AcDbLine
 10
382.3305563636
 20
427.176397629
 30
0.0
 11
382.3305563636
 21
417.7014123275
 31
0.0
  0
LINE
  5
3C9
330
1F
100
AcDbEntity
  8
0
  6
Continuous
 62
     7
370
    25
100
AcDbLine
 10
382.3305563636
 20
417.7014123275
 30
0.0
 11
382.2313488561
 21
417.7014123275
 31
0.0
  0
LINE
  5
3CA
330
1F
100
AcDbEntity
  8
0
  6
Continuous
 62
     7
370
    25
100
AcDbLine
 10
382.3305563636
 20
415.9514125063
 30
0.0
 11
382.3305563636
 21
387.901411727
 31
0.0
  0
LINE
  5
3CB
330
1F
100
AcDbEntity
  8
0
  6
Continuous
 62
     7
370
    25
100
AcDbLine
 10
382.2313488561
 20
415.9514125063
 30
0.0
 11
382.3305563636
 21
415.9514125063
 31
0.0
  0
LINE
  5
3CC
330
1F
100
AcDbEntity
  8
0
  6
Continuous
 62
     7
370
    25
100
AcDbLine
 10
382.2313488561
 20
387.901411727
 30
0.0
 11
382.3305563636
 21
387.901411727
 31
0.0
  0
LINE
  5
3CD
330
1F
100
AcDbEntity
  8
0
  6
Continuous
 62
     7
370
    25
100
AcDbLine
 10
382.9569276057
 20
415.9514125063
 30
0.0
 11
382.9569276057
 21
387.901411727
 31
0.0
  0
LINE
  5
3CE
330
1F
100
AcDbEntity
  8
0
  6
Continuous
 62
     7
370
    25
100
AcDbLine
 10
382.3305563636
 20
415.9514125063
 30
0.0
 11
382.9569276057
 21
415.9514125063
 31
0.0
  0
LINE
  5
3CF
330
1F
100
AcDbEntity
  8
0
  6
Continuous
 62
     7
370
    25
100
AcDbLine
 10
382.3305563636
 20
387.901411727
 30
0.0
 11
382.9569276057
 21
387.901411727
 31
0.0
  0
LINE
  5
3D0
330
1F
100
AcDbEntity
  8
0
  6
Continuous
 62
     7
370
    25
100
AcDbLine
 10
382.9569276057
 20
426.7014119401
 30
0.0
 11
382.9569276057
 21
417.7014123275
 31
0.0
  0
LINE
  5
3D1
330
1F
100
AcDbEntity
  8
0
  6
Continuous
 62
     7
370
    25
100
AcDbLine
 10
382.9569276057
 20
417.7014123275
 30
0.0
 11
382.3305563636
 21
417.7014123275
 31
0.0
  0
LINE
  5
3D2
330
1F
100
AcDbEntity
  8
0
  6
Continuous
 62
     7
370
    25
100
AcDbLine
 10
383.1653627202
 20
415.9514125063
 30
0.0
 11
383.1653627202
 21
387.901411727
 31
0.0
  0
LINE
  5
3D3
330
1F
100
AcDbEntity
  8
0
  6
Continuous
 62
     7
370
    25
100
AcDbLine
 10
382.9569276057
 20
415.9514125063
 30
0.0
 11
383.1653627202
 21
415.9514125063
 31
0.0
  0
LINE
  5
3D4
330
1F
100
AcDbEntity
  8
0
  6
Continuous
 62
     7
370
    25
100
AcDbLine
 10
382.9569276057
 20
387.901411727
 30
0.0
 11
383.1653627202
 21
387.901411727
 31
0.0
  0
LINE
  5
3D5
330
1F
100
AcDbEntity
  8
0
  6
Continuous
 62
     7
370
    25
100
AcDbLine
 10
383.1653627202
 20
426.7014119401
 30
0.0
 11
383.1653627202
 21
417.7014123275
 31
0.0
  0
LINE
  5
3D6
330
1F
100
AcDbEntity
  8
0
  6
Continuous
 62
     7
370
    25
100
AcDbLine
 10
383.1653627202
 20
417.7014123275
 30
0.0
 11
382.9569276057
 21
417.7014123275
 31
0.0
  0
LINE
  5
3D7
330
1F
100
AcDbEntity
  8
0
  6
Continuous
 62
     7
370
    25
100
AcDbLine
 10
377.6861673321
 20
427.176397629
 30
0.0
 11
377.6861673321
 21
417.7014123275
 31
0.0
  0
LINE
  5
3D8
330
1F
100
AcDbEntity
  8
0
  6
Continuous
 62
     7
370
    25
100
AcDbLine
 10
377.6861673321
 20
417.7014123275
 30
0.0
 11
378.0250311464
 21
417.7014123275
 31
0.0
  0
LINE
  5
3D9
330
1F
100
AcDbEntity
  8
0
  6
Continuous
 62
     7
370
    25
100
AcDbLine
 10
378.0250311464
 20
417.7014123275
 30
0.0
 11
378.4217661813
 21
417.7014123275
 31
0.0
  0
LINE
  5
3DA
330
1F
100
AcDbEntity
  8
0
  6
Continuous
 62
     7
370
    25
100
AcDbLine
 10
377.6861673321
 20
415.9514125063
 30
0.0
 11
377.6861673321
 21
387.901411727
 31
0.0
  0
LINE
  5
3DB
330
1F
100
AcDbEntity
  8
0
  6
Continuous
 62
     7
370
    25
100
AcDbLine
 10
378.0250311464
 20
415.9514125063
 30
0.0
 11
377.6861673321
 21
415.9514125063
 31
0.0
  0
LINE
  5
3DC
330
1F
100
AcDbEntity
  8
0
  6
Continuous
 62
     7
370
    25
100
AcDbLine
 10
378.4217661813
 20
415.9514125063
 30
0.0
 11
378.0250311464
 21
415.9514125063
 31
0.0
  0
LINE
  5
3DD
330
1F
100
AcDbEntity
  8
0
  6
Continuous
 62
     7
370
    25
100
AcDbLine
 10
377.6861673321
 20
387.901411727
 30
0.0
 11
378.4217661813
 21
387.901411727
 31
0.0
  0
LINE
  5
3DE
330
1F
100
AcDbEntity
  8
0
  6
Continuous
 62
     7
370
    25
100
AcDbLine
 10
377.0597958572
 20
426.7014119401
 30
0.0
 11
377.0597958572
 21
417.7014123275
 31
0.0
  0
LINE
  5
3DF
330
1F
100
AcDbEntity
  8
0
  6
Continuous
 62
     7
370
    25
100
AcDbLine
 10
377.6861673321
 20
417.7014123275
 30
0.0
 11
377.0597958572
 21
417.7014123275
 31
0.0
  0
LINE
  5
3E0
330
1F
100
AcDbEntity
  8
0
  6
Continuous
 62
     7
370
    25
100
AcDbLine
 10
377.0597958572
 20
415.9514125063
 30
0.0
 11
377.0597958572
 21
387.901411727
 31
0.0
  0
LINE
  5
3E1
330
1F
100
AcDbEntity
  8
0
  6
Continuous
 62
     7
370
    25
100
AcDbLine
 10
377.0597958572
 20
415.9514125063
 30
0.0
 11
377.6861673321
 21
415.9514125063
 31
0.0
  0
LINE
  5
3E2
330
1F
100
AcDbEntity
  8
0
  6
Continuous
 62
     7
370
    25
100
AcDbLine
 10
377.0597958572
 20
387.901411727
 30
0.0
 11
377.6861673321
 21
387.901411727
 31
0.0
  0
LINE
  5
3E3
330
1F
100
AcDbEntity
  8
0
  6
Continuous
 62
     7
370
    25
100
AcDbLine
 10
383.6925266876
 20
426.7014119401
 30
0.0
 11
383.6925266876
 21
417.7014123275
 31
0.0
  0
LINE
  5
3E4
330
1F
100
AcDbEntity
  8
0
  6
Continuous
 62
     7
370
    25
100
AcDbLine
 10
383.6925266876
 20
417.7014123275
 30
0.0
 11
383.1653627202
 21
417.7014123275
 31
0.0
  0
LINE
  5
3E5
330
1F
100
AcDbEntity
  8
0
  6
Continuous
 62
     7
370
    25
100
AcDbLine
 10
383.6925266876
 20
415.9514125063
 30
0.0
 11
383.6925266876
 21
387.901411727
 31
0.0
  0
LINE
  5
3E6
330
1F
100
AcDbEntity
  8
0
  6
Continuous
 62
     7
370
    25
100
AcDbLine
 10
383.1653627202
 20
415.9514125063
 30
0.0
 11
383.6925266876
 21
415.9514125063
 31
0.0
  0
LINE
  5
3E7
330
1F
100
AcDbEntity
  8
0
  6
Continuous
 62
     7
370
    25
100
AcDbLine
 10
383.1653627202
 20
387.901411727
 30
0.0
 11
383.6925266876
 21
387.901411727
 31
0.0
  0
LINE
  5
3E8
330
1F
100
AcDbEntity
  8
0
  6
Continuous
 62
     7
370
    25
100
AcDbLine
 10
376.9259722538
 20
426.7014119401
 30
0.0
 11
376.9259722538
 21
417.7014123275
 31
0.0
  0
LINE
  5
3E9
330
1F
100
AcDbEntity
  8
0
  6
Continuous
 62
     7
370
    25
100
AcDbLine
 10
377.0597958572
 20
417.7014123275
 30
0.0
 11
376.9259722538
 21
417.7014123275
 31
0.0
  0
LINE
  5
3EA
330
1F
100
AcDbEntity
  8
0
  6
Continuous
 62
     7
370
    25
100
AcDbLine
 10
376.9259722538
 20
415.9514125063
 30
0.0
 11
376.9259722538
 21
387.901411727
 31
0.0
  0
LINE
  5
3EB
330
1F
100
AcDbEntity
  8
0
  6
Continuous
 62
     7
370
    25
100
AcDbLine
 10
376.9259722538
 20
415.9514125063
 30
0.0
 11
377.0597958572
 21
415.9514125063
 31
0.0
  0
LINE
  5
3EC
330
1F
100
AcDbEntity
  8
0
  6
Continuous
 62
     7
370
    25
100
AcDbLine
 10
376.9259722538
 20
387.901411727
 30
0.0
 11
377.0597958572
 21
387.901411727
 31
0.0
  0
LINE
  5
3ED
330
1F
100
AcDbEntity
  8
0
  6
Continuous
 62
     7
370
    25
100
AcDbLine
 10
383.826350291
 20
426.7014119401
 30
0.0
 11
383.826350291
 21
417.7014123275
 31
0.0
  0
LINE
  5
3EE
330
1F
100
AcDbEntity
  8
0
  6
Continuous
 62
     7
370
    25
100
AcDbLine
 10
383.826350291
 20
417.7014123275
 30
0.0
 11
383.6925266876
 21
417.7014123275
 31
0.0
  0
LINE
  5
3EF
330
1F
100
AcDbEntity
  8
0
  6
Continuous
 62
     7
370
    25
100
AcDbLine
 10
383.826350291
 20
415.9514125063
 30
0.0
 11
383.826350291
 21
387.901411727
 31
0.0
  0
LINE
  5
3F0
330
1F
100
AcDbEntity
  8
0
  6
Continuous
 62
     7
370
    25
100
AcDbLine
 10
383.6925266876
 20
415.9514125063
 30
0.0
 11
383.826350291
 21
415.9514125063
 31
0.0
  0
LINE
  5
3F1
330
1F
100
AcDbEntity
  8
0
  6
Continuous
 62
     7
370
    25
100
AcDbLine
 10
383.6925266876
 20
387.901411727
 30
0.0
 11
383.826350291
 21
387.901411727
 31
0.0
  0
LINE
  5
3F2
330
1F
100
AcDbEntity
  8
0
  6
Continuous
 62
     7
370
    25
100
AcDbLine
 10
376.6488260224
 20
415.9514125063
 30
0.0
 11
376.6488260224
 21
387.901411727
 31
0.0
  0
LINE
  5
3F3
330
1F
100
AcDbEntity
  8
0
  6
Continuous
 62
     7
370
    25
100
AcDbLine
 10
376.6488260224
 20
415.9514125063
 30
0.0
 11
376.9259722538
 21
415.9514125063
 31
0.0
  0
LINE
  5
3F4
330
1F
100
AcDbEntity
  8
0
  6
Continuous
 62
     7
370
    25
100
AcDbLine
 10
376.6488260224
 20
387.901411727
 30
0.0
 11
376.9259722538
 21
387.901411727
 31
0.0
  0
LINE
  5
3F5
330
1F
100
AcDbEntity
  8
0
  6
Continuous
 62
     7
370
    25
100
AcDbLine
 10
376.6488260224
 20
426.7014119401
 30
0.0
 11
376.6488260224
 21
417.7014123275
 31
0.0
  0
LINE
  5
3F6
330
1F
100
AcDbEntity
  8
0
  6
Continuous
 62
     7
370
    25
100
AcDbLine
 10
376.9259722538
 20
417.7014123275
 30
0.0
 11
376.6488260224
 21
417.7014123275
 31
0.0
  0
LINE
  5
3F7
330
1F
100
AcDbEntity
  8
0
  6
Continuous
 62
     7
370
    25
100
AcDbLine
 10
384.1034965224
 20
415.9514125063
 30
0.0
 11
384.1034965224
 21
387.901411727
 31
0.0
  0
LINE
  5
3F8
330
1F
100
AcDbEntity
  8
0
  6
Continuous
 62
     7
370
    25
100
AcDbLine
 10
383.826350291
 20
415.9514125063
 30
0.0
 11
384.1034965224
 21
415.9514125063
 31
0.0
  0
LINE
  5
3F9
330
1F
100
AcDbEntity
  8
0
  6
Continuous
 62
     7
370
    25
100
AcDbLine
 10
383.826350291
 20
387.901411727
 30
0.0
 11
384.1034965224
 21
387.901411727
 31
0.0
  0
LINE
  5
3FA
330
1F
100
AcDbEntity
  8
0
  6
Continuous
 62
     7
370
    25
100
AcDbLine
 10
384.1034965224
 20
426.7014119401
 30
0.0
 11
384.1034965224
 21
417.7014123275
 31
0.0
  0
LINE
  5
3FB
330
1F
100
AcDbEntity
  8
0
  6
Continuous
 62
     7
370
    25
100
AcDbLine
 10
384.1034965224
 20
417.7014123275
 30
0.0
 11
383.826350291
 21
417.7014123275
 31
0.0
  0
LINE
  5
3FC
330
1F
100
AcDbEntity
  8
0
  6
Continuous
 62
     7
370
    25
100
AcDbLine
 10
376.6027134478
 20
415.9514125063
 30
0.0
 11
376.6027134478
 21
387.901411727
 31
0.0
  0
LINE
  5
3FD
330
1F
100
AcDbEntity
  8
0
  6
Continuous
 62
     7
370
    25
100
AcDbLine
 10
376.6027134478
 20
415.9514125063
 30
0.0
 11
376.6488260224
 21
415.9514125063
 31
0.0
  0
LINE
  5
3FE
330
1F
100
AcDbEntity
  8
0
  6
Continuous
 62
     7
370
    25
100
AcDbLine
 10
376.6027134478
 20
387.901411727
 30
0.0
 11
376.6488260224
 21
387.901411727
 31
0.0
  0
LINE
  5
3FF
330
1F
100
AcDbEntity
  8
0
  6
Continuous
 62
     7
370
    25
100
AcDbLine
 10
376.6027134478
 20
426.7014119401
 30
0.0
 11
376.6027134478
 21
417.7014123275
 31
0.0
  0
LINE
  5
400
330
1F
100
AcDbEntity
  8
0
  6
Continuous
 62
     7
370
    25
100
AcDbLine
 10
376.6488260224
 20
417.7014123275
 30
0.0
 11
376.6027134478
 21
417.7014123275
 31
0.0
  0
LINE
  5
401
330
1F
100
AcDbEntity
  8
0
  6
Continuous
 62
     7
370
    25
100
AcDbLine
 10
384.1496090971
 20
426.7014119401
 30
0.0
 11
384.1496090971
 21
417.7014123275
 31
0.0
  0
LINE
  5
402
330
1F
100
AcDbEntity
  8
0
  6
Continuous
 62
     7
370
    25
100
AcDbLine
 10
384.1496090971
 20
417.7014123275
 30
0.0
 11
384.1034965224
 21
417.7014123275
 31
0.0
  0
LINE
  5
403
330
1F
100
AcDbEntity
  8
0
  6
Continuous
 62
     7
370
    25
100
AcDbLine
 10
384.1496090971
 20
415.9514125063
 30
0.0
 11
384.1496090971
 21
387.901411727
 31
0.0
  0
LINE
  5
404
330
1F
100
AcDbEntity
  8
0
  6
Continuous
 62
     7
370
    25
100
AcDbLine
 10
384.1034965224
 20
415.9514125063
 30
0.0
 11
384.1496090971
 21
415.9514125063
 31
0.0
  0
LINE
  5
405
330
1F
100
AcDbEntity
  8
0
  6
Continuous
 62
     7
370
    25
100
AcDbLine
 10
384.1034965224
 20
387.901411727
 30
0.0
 11
384.1496090971
 21
387.901411727
 31
0.0
  0
LINE
  5
406
330
1F
100
AcDbEntity
  8
0
  6
Continuous
 62
     7
370
    25
100
AcDbLine
 10
360.3761619523
 20
321.9514119997
 30
0.0
 11
358.8761607751
 21
321.9514119997
 31
0.0
  0
ARC
  5
407
330
1F
100
AcDbEntity
  8
0
  6
Continuous
 62
     7
370
    25
100
AcDbCircle
 10
358.8761612903
 20
322.9514112903
 30
0.0
 40
1.0
100
AcDbArc
 50
180.0
 51
270.0
  0
ARC
  5
408
330
1F
100
AcDbEntity
  8
0
  6
Continuous
 62
     7
370
    25
100
AcDbCircle
 10
360.3761612903
 20
322.9514112903
 30
0.0
 40
1.0
100
AcDbArc
 50
270.0
 51
0.0
  0
LINE
  5
409
330
1F
100
AcDbEntity
  8
0
  6
Continuous
 62
     7
370
    25
100
AcDbLine
 10
361.3761621162
 20
324.1514119877
 30
0.0
 11
361.3761621162
 21
322.9514103009
 31
0.0
  0
LINE
  5
40A
330
1F
100
AcDbEntity
  8
0
  6
Continuous
 62
     7
370
    25
100
AcDbLine
 10
357.8761606112
 20
324.1514119877
 30
0.0
 11
357.8761606112
 21
322.9514103009
 31
0.0
  0
LINE
  5
40B
330
1F
100
AcDbEntity
  8
0
  6
Continuous
 62
     7
370
    25
100
AcDbLine
 10
362.5754578605
 20
321.9514119997
 30
0.0
 11
360.3761619523
 21
321.9514119997
 31
0.0
  0
LINE
  5
40C
330
1F
100
AcDbEntity
  8
0
  6
Continuous
 62
     7
370
    25
100
AcDbLine
 10
366.4079834342
 20
321.9514119997
 30
0.0
 11
362.5754578605
 21
321.9514119997
 31
0.0
  0
LINE
  5
40D
330
1F
100
AcDbEntity
  8
0
  6
Continuous
 62
     7
370
    25
100
AcDbLine
 10
358.5589001521
 20
321.9514119997
 30
0.0
 11
358.2575018152
 21
321.9514119997
 31
0.0
  0
LINE
  5
40E
330
1F
100
AcDbEntity
  8
0
  6
Continuous
 62
     7
370
    25
100
AcDbLine
 10
358.8761607751
 20
321.9514119997
 30
0.0
 11
358.5589001521
 21
321.9514119997
 31
0.0
  0
LINE
  5
40F
330
1F
100
AcDbEntity
  8
0
  6
Continuous
 62
     7
370
    25
100
AcDbLine
 10
369.2991551578
 20
321.9514119997
 30
0.0
 11
366.4079834342
 21
321.9514119997
 31
0.0
  0
LINE
  5
410
330
1F
100
AcDbEntity
  8
0
  6
Continuous
 62
     7
370
    25
100
AcDbLine
 10
375.3761611513
 20
321.9514119997
 30
0.0
 11
369.2991551578
 21
321.9514119997
 31
0.0
  0
LINE
  5
411
330
1F
100
AcDbEntity
  8
0
  6
Continuous
 62
     7
370
    25
100
AcDbLine
 10
376.1261612743
 20
321.9514119997
 30
0.0
 11
375.3761611513
 21
321.9514119997
 31
0.0
  0
SPLINE
  5
412
330
1F
100
AcDbEntity
  8
0
  6
Continuous
 62
     8
370
    18
100
AcDbSpline
210
0.0
220
0.0
230
1.0
 70
     8
 71
     3
 72
    60
 73
    56
 74
     0
 42
0.000000001
 43
0.00000001
 40
0.0
 40
0.0
 40
0.0
 40
0.0
 40
0.0625000000000003
 40
0.0625000000000003
 40
0.0937500000000005
 40
0.0937500000000005
 40
0.1250000000000006
 40
0.1250000000000006
 40
0.1562500000000007
 40
0.1562500000000007
 40
0.1875000000000009
 40
0.1875000000000009
 40
0.2500000000000011
 40
0.2500000000000011
 40
0.2812500000000012
 40
0.2812500000000012
 40
0.3125000000000013
 40
0.3125000000000013
 40
0.3437500000000014
 40
0.3437500000000014
 40
0.3750000000000016
 40
0.3750000000000016
 40
0.4375000000000016
 40
0.4375000000000016
 40
0.4687500000000017
 40
0.4687500000000017
 40
0.5000000000000018
 40
0.5000000000000018
 40
0.5312500000000018
 40
0.5312500000000018
 40
0.5468750000000018
 40
0.5468750000000018
 40
0.5625000000000018
 40
0.5625000000000018
 40
0.6250000000000017
 40
0.6250000000000017
 40
0.6562500000000016
 40
0.6562500000000016
 40
0.6875000000000016
 40
0.6875000000000016
 40
0.7187500000000014
 40
0.7187500000000014
 40
0.7500000000000014
 40
0.7500000000000014
 40
0.8125000000000012
 40
0.8125000000000012
 40
0.843750000000001
 40
0.843750000000001
 40
0.8750000000000009
 40
0.8750000000000009
 40
0.9062500000000007
 40
0.9062500000000007
 40
0.9375000000000006
 40
0.9375000000000006
 40
1.0
 40
1.0
 40
1.0
 40
1.0
 10
368.1623166867586
 20
329.6514112903222
 30
0.0
 10
367.6653027724761
 20
330.5479216156495
 30
0.0
 10
367.2573385013687
 20
331.4864733033111
 30
0.0
 10
366.7753352396786
 20
332.9640852885971
 30
0.0
 10
366.636212529964
 20
333.4698585427217
 30
0.0
 10
366.4053303499391
 20
334.5007926211142
 30
0.0
 10
366.3148530404989
 20
335.0196258498798
 30
0.0
 10
366.1828422479197
 20
336.0641197792245
 30
0.0
 10
366.1413113522088
 20
336.5897809985781
 30
0.0
 10
366.1078437195271
 20
337.6481337082781
 30
0.0
 10
366.1160413854697
 20
338.1828345911778
 30
0.0
 10
366.2175732863286
 20
339.7846709208936
 30
0.0
 10
366.3845143818882
 20
340.824192474836
 30
0.0
 10
366.7771214577797
 20
342.3453070711373
 30
0.0
 10
366.9327745811885
 20
342.8478412194439
 30
0.0
 10
367.2862428467437
 20
343.8225989136947
 30
0.0
 10
367.4843513741864
 20
344.2967498441793
 30
0.0
 10
367.9228468099232
 20
345.2204999190076
 30
0.0
 10
368.163233411135
 20
345.6700966300686
 30
0.0
 10
368.6876095651069
 20
346.5456322566145
 30
0.0
 10
368.9706511560951
 20
346.9695811848927
 30
0.0
 10
369.872299910511
 20
348.1861791540339
 30
0.0
 10
370.5464781419443
 20
348.9309961543601
 30
0.0
 10
371.6813240442138
 20
349.9483362245758
 30
0.0
 10
372.0814294748441
 20
350.270898747102
 30
0.0
 10
372.9071140131925
 20
350.8661541025297
 30
0.0
 10
373.3347977209319
 20
351.1409250049333
 30
0.0
 10
374.2214082190605
 20
351.6439097716255
 30
0.0
 10
374.680324429034
 20
351.8721350263605
 30
0.0
 10
375.3942371482033
 20
352.1773733225422
 30
0.0
 10
375.6364751938948
 20
352.272919023138
 30
0.0
 10
376.1299935652682
 20
352.4510043349781
 30
0.0
 10
376.3823467571841
 20
352.5338347021222
 30
0.0
 10
377.6511440703736
 20
352.908668522974
 30
0.0
 10
378.6908025503057
 20
353.0863897445427
 30
0.0
 10
380.289413205272
 20
353.1619633178396
 30
0.0
 10
380.8321476790156
 20
353.1544043146689
 30
0.0
 10
381.9000107123736
 20
353.0736331496012
 30
0.0
 10
382.424969612804
 20
353.0012125617835
 30
0.0
 10
383.4580465580348
 20
352.7958528531146
 30
0.0
 10
383.9661606222094
 20
352.6629005999177
 30
0.0
 10
384.9660410060749
 20
352.3375152309524
 30
0.0
 10
385.4592018241039
 20
352.1439848766412
 30
0.0
 10
386.876321091774
 20
351.4924174956947
 30
0.0
 10
387.7523037788343
 20
350.9608925814273
 30
0.0
 10
388.9758645631195
 20
350.027497586239
 30
0.0
 10
389.3645292652795
 20
349.6962526918443
 30
0.0
 10
390.0998609184091
 20
349.001372389549
 30
0.0
 10
390.4477404289945
 20
348.6368029075007
 30
0.0
 10
391.1062957607467
 20
347.8736280881607
 30
0.0
 10
391.4169661968899
 20
347.4750240073375
 30
0.0
 10
392.001913084306
 20
346.6424353456979
 30
0.0
 10
392.2748423308598
 20
346.2099872145071
 30
0.0
 10
393.0267319797414
 20
344.8800618801172
 30
0.0
 10
393.4442600985632
 20
343.9442376130359
 30
0.0
 10
393.7766174019627
 20
342.9514112903223
 30
0.0
  0
LWPOLYLINE
  5
413
330
1F
100
AcDbEntity
  8
0
  6
Continuous
 62
     8
370
    18
100
AcDbPolyline
 90
        9
 70
   128
 43
0.0
 10
393.776617442
 20
342.9514098539
 10
393.6021695479
 20
342.8503911569
 10
393.4482703551
 20
342.7509221806
 10
393.317279835
 20
342.6545265688
 10
393.2112077817
 20
342.5626869871
 10
393.1316812157
 20
342.4768078699
 10
393.0799192384
 20
342.3982079699
 10
393.0567162677
 20
342.3280942812
 10
393.0624271378
 20
342.2675396874
  0
LWPOLYLINE
  5
414
330
1F
100
AcDbEntity
  8
0
  6
Continuous
 62
     8
370
    18
100
AcDbPolyline
 90
        9
 70
   128
 43
0.0
 10
368.1623166993
 20
329.6514119579
 10
368.3413792967
 20
329.8100832476
 10
368.4970731482
 20
329.9657705798
 10
368.6264664501
 20
330.1155384256
 10
368.7271228626
 20
330.2565667405
 10
368.7971471443
 20
330.3861993923
 10
368.8352214738
 20
330.5019963159
 10
368.8406278014
 20
330.6017819418
 10
368.8132646128
 20
330.6836675479
  0
LINE
  5
415
330
1F
100
AcDbEntity
  8
0
  6
Continuous
 62
     8
370
    18
100
AcDbLine
 10
403.4948213592
 20
339.9514112248
 30
0.0
 11
397.9216548249
 21
339.9514112248
 31
0.0
  0
LWPOLYLINE
  5
416
330
1F
100
AcDbEntity
  8
0
  6
Continuous
 62
     8
370
    18
100
AcDbPolyline
 90
        9
 70
   128
 43
0.0
 10
397.9216548249
 20
339.9514112248
 10
397.9302565202
 20
340.1465009524
 10
397.9557244673
 20
340.334095396
 10
397.9970863655
 20
340.5069823935
 10
398.0527477905
 20
340.6585197522
 10
398.1205722883
 20
340.7828811183
 10
398.1979521557
 20
340.8752906694
 10
398.2819127485
 20
340.932198204
 10
398.3692316904
 20
340.9514095261
  0
LINE
  5
417
330
1F
100
AcDbEntity
  8
0
  6
Continuous
 62
     8
370
    18
100
AcDbLine
 10
397.9216548249
 20
322.9514103009
 30
0.0
 11
403.4948213592
 21
322.9514103009
 31
0.0
  0
LINE
  5
418
330
1F
100
AcDbEntity
  8
0
  6
Continuous
 62
     8
370
    18
100
AcDbLine
 10
397.9216548249
 20
339.9514112248
 30
0.0
 11
397.9216548249
 21
322.9514103009
 31
0.0
  0
LWPOLYLINE
  5
419
330
1F
100
AcDbEntity
  8
0
  6
Continuous
 62
     8
370
    18
100
AcDbPolyline
 90
        9
 70
   128
 43
0.0
 10
397.9216548249
 20
322.9514103009
 10
397.9302565202
 20
322.7563205733
 10
397.9557244673
 20
322.5687261297
 10
397.9970863655
 20
322.3958428576
 10
398.0527477905
 20
322.2443054988
 10
398.1205722883
 20
322.1199404075
 10
398.1979521557
 20
322.0275308563
 10
398.2819127485
 20
321.970627047
 10
398.3692316904
 20
321.9514119997
  0
SPLINE
  5
41A
330
1F
100
AcDbEntity
  8
0
  6
Continuous
 62
     8
370
    18
100
AcDbSpline
210
0.0
220
0.0
230
1.0
 70
     8
 71
     3
 72
    14
 73
    10
 74
     0
 42
0.000000001
 43
0.00000001
 40
0.0
 40
0.0
 40
0.0
 40
0.0
 40
0.2499999999999992
 40
0.2499999999999992
 40
0.4999999999999994
 40
0.4999999999999994
 40
0.7499999999999997
 40
0.7499999999999997
 40
1.0
 40
1.0
 40
1.0
 40
1.0
 10
395.5137193587462
 20
342.9514112903223
 30
0.0
 10
395.7074777273348
 20
342.9514112903223
 30
0.0
 10
395.8981978592956
 20
342.9268689060396
 30
0.0
 10
396.2735158071262
 20
342.8796862901168
 30
0.0
 10
396.4581243442181
 20
342.8592852162148
 30
0.0
 10
396.8212471860201
 20
342.8592941717872
 30
0.0
 10
396.9997615442782
 20
342.8797016805
 30
0.0
 10
397.350691891909
 20
342.9268785894885
 30
0.0
 10
397.5231082078024
 20
342.9514112903223
 30
0.0
 10
397.692463890043
 20
342.9514112903223
 30
0.0
  0
LINE
  5
41B
330
1F
100
AcDbEntity
  8
0
  6
Continuous
 62
     8
370
    18
100
AcDbLine
 10
393.776617442
 20
342.9514098539
 30
0.0
 11
395.5137193769
 21
342.9514098539
 31
0.0
  0
LINE
  5
41C
330
1F
100
AcDbEntity
  8
0
  6
Continuous
 62
     8
370
    18
100
AcDbLine
 10
360.8871395334
 20
329.6514119579
 30
0.0
 11
368.1623166993
 21
329.6514119579
 31
0.0
  0
SPLINE
  5
41D
330
1F
100
AcDbEntity
  8
0
  6
Continuous
 62
     8
370
    18
100
AcDbSpline
210
0.0
220
0.0
230
1.0
 70
     8
 71
     3
 72
    22
 73
    18
 74
     0
 42
0.000000001
 43
0.00000001
 40
0.0
 40
0.0
 40
0.0
 40
0.0
 40
0.0391643605164265
 40
0.101256234950612
 40
0.1261724166089863
 40
0.2083610184739054
 40
0.2939653429419051
 40
0.3711346451475621
 40
0.4501641802640414
 40
0.5155046609215128
 40
0.581984889801627
 40
0.6459025738023273
 40
0.7112568126186654
 40
0.7830881768513871
 40
0.8572183865013199
 40
0.9277960130840942
 40
1.0
 40
1.0
 40
1.0
 40
1.0
 10
357.3951045617086
 20
353.1181703879395
 30
0.0
 10
357.3944138817795
 20
353.1194010473056
 30
0.0
 10
357.3926281855941
 20
353.122582815941
 30
0.0
 10
357.5428537993479
 20
352.8584108129574
 30
0.0
 10
357.8194142703802
 20
352.3635631694473
 30
0.0
 10
358.2685680585694
 20
351.5454686283944
 30
0.0
 10
359.0145164570797
 20
350.1013340792593
 30
0.0
 10
359.8349888970258
 20
348.3567255296811
 30
0.0
 10
360.5930979996849
 20
346.52006819018
 30
0.0
 10
361.2568835411511
 20
344.5923208385762
 30
0.0
 10
361.7775059361293
 20
342.6679023077727
 30
0.0
 10
362.1546988619424
 20
340.6351340936112
 30
0.0
 10
362.353562201529
 20
338.4725552661316
 30
0.0
 10
362.3231689370745
 20
336.1720957298061
 30
0.0
 10
362.0337878708991
 20
333.8647792316256
 30
0.0
 10
361.5410242834576
 20
331.6516352082709
 30
0.0
 10
361.1067499903322
 20
330.3231969198938
 30
0.0
 10
360.8871395334226
 20
329.6514119579354
 30
0.0
  0
SPLINE
  5
41E
330
1F
100
AcDbEntity
  8
0
  6
Continuous
 62
     8
370
    18
100
AcDbSpline
210
0.0
220
0.0
230
1.0
 70
     8
 71
     3
 72
    16
 73
    12
 74
     0
 42
0.000000001
 43
0.00000001
 40
0.0
 40
0.0
 40
0.0
 40
0.0
 40
0.1204417030883821
 40
0.2432098438593014
 40
0.3796384961998015
 40
0.5193067729113653
 40
0.6313075214691317
 40
0.7457686890117342
 40
0.857775511514313
 40
0.9732448874097722
 40
1.0
 40
1.0
 40
1.0
 40
1.0
 10
399.0691485449296
 20
342.9514098538914
 30
0.0
 10
399.2470906023535
 20
343.6217449415946
 30
0.0
 10
399.6064118249229
 20
344.9753632302205
 30
0.0
 10
400.307704686763
 20
346.8955412674543
 30
0.0
 10
401.0803900808571
 20
348.7209713945801
 30
0.0
 10
401.8171103983253
 20
350.2530446906962
 30
0.0
 10
402.4347073996718
 20
351.4483207265257
 30
0.0
 10
402.9080192525909
 20
352.3201985704146
 30
0.0
 10
403.2299940371319
 20
352.8951966219709
 30
0.0
 10
403.3804591081155
 20
353.1589607173431
 30
0.0
 10
403.3629785938035
 20
353.1282816610798
 30
0.0
 10
403.3596901788932
 20
353.1225103511372
 30
0.0
  0
LINE
  5
41F
330
1F
100
AcDbEntity
  8
0
  6
Continuous
 62
     8
370
    18
100
AcDbLine
 10
397.6924637898
 20
342.9514098539
 30
0.0
 11
399.0691485449
 21
342.9514098539
 31
0.0
  0
LINE
  5
420
330
1F
100
AcDbEntity
  8
0
  6
Continuous
 62
     8
370
    18
100
AcDbLine
 10
397.0265048191
 20
322.9514103009
 30
0.0
 11
397.9216548249
 21
322.9514103009
 31
0.0
  0
LINE
  5
421
330
1F
100
AcDbEntity
  8
0
  6
Continuous
 62
     8
370
    18
100
AcDbLine
 10
397.0265048191
 20
322.9514103009
 30
0.0
 11
397.0265048191
 21
339.9514112248
 31
0.0
  0
LINE
  5
422
330
1F
100
AcDbEntity
  8
0
  6
Continuous
 62
     8
370
    18
100
AcDbLine
 10
397.9216548249
 20
339.9514112248
 30
0.0
 11
397.0265048191
 21
339.9514112248
 31
0.0
  0
LINE
  5
423
330
1F
100
AcDbEntity
  8
0
  6
Continuous
 62
     8
370
    18
100
AcDbLine
 10
397.0265048191
 20
321.9514119997
 30
0.0
 11
397.0265048191
 21
322.9514103009
 31
0.0
  0
LINE
  5
424
330
1F
100
AcDbEntity
  8
0
  6
Continuous
 62
     8
370
    18
100
AcDbLine
 10
397.0265048191
 20
339.9514112248
 30
0.0
 11
397.0265048191
 21
340.9514095261
 31
0.0
  0
ARC
  5
425
330
1F
100
AcDbEntity
  8
0
  6
Continuous
 62
     8
370
    18
100
AcDbCircle
 10
394.9418744551
 20
342.9514112903
 30
0.0
 40
3.0
100
AcDbArc
 50
243.9048358171
 51
270.0
  0
LINE
  5
426
330
1F
100
AcDbEntity
  8
0
  6
Continuous
 62
     8
370
    18
100
AcDbLine
 10
394.9418742776
 20
339.9514112248
 30
0.0
 11
394.9418742776
 21
340.9514095261
 31
0.0
  0
LINE
  5
427
330
1F
100
AcDbEntity
  8
0
  6
Continuous
 62
     8
370
    18
100
AcDbLine
 10
385.3761613935
 20
325.111475177
 30
0.0
 11
385.3761613935
 21
322.9514103009
 31
0.0
  0
LINE
  5
428
330
1F
100
AcDbEntity
  8
0
  6
Continuous
 62
     8
370
    18
100
AcDbLine
 10
383.6261613395
 20
322.9514103009
 30
0.0
 11
385.3761613935
 21
322.9514103009
 31
0.0
  0
LINE
  5
429
330
1F
100
AcDbEntity
  8
0
  6
Continuous
 62
     8
370
    18
100
AcDbLine
 10
385.3761613935
 20
322.9514103009
 30
0.0
 11
397.0265048191
 21
322.9514103009
 31
0.0
  0
LINE
  5
42A
330
1F
100
AcDbEntity
  8
0
  6
Continuous
 62
     8
370
    18
100
AcDbLine
 10
397.0265048191
 20
339.9514112248
 30
0.0
 11
394.9418742776
 21
339.9514112248
 31
0.0
  0
LINE
  5
42B
330
1F
100
AcDbEntity
  8
0
  6
Continuous
 62
     8
370
    18
100
AcDbLine
 10
385.3761613935
 20
321.9514119997
 30
0.0
 11
385.3761613935
 21
322.9514103009
 31
0.0
  0
SPLINE
  5
42C
330
1F
100
AcDbEntity
  8
0
  6
Continuous
 62
     8
370
    18
100
AcDbSpline
210
0.0
220
0.0
230
1.0
 70
     8
 71
     3
 72
    12
 73
     8
 74
     0
 42
0.000000001
 43
0.00000001
 40
0.0
 40
0.0
 40
0.0
 40
0.0
 40
0.2499999999999996
 40
0.2499999999999996
 40
0.4999999999999991
 40
0.4999999999999991
 40
1.0
 40
1.0
 40
1.0
 40
1.0
 10
371.0915373014641
 20
327.3423305408817
 30
0.0
 10
371.1941362015903
 20
327.3062323302173
 30
0.0
 10
371.2983704087688
 20
327.2737736875848
 30
0.0
 10
371.5109485384436
 20
327.2069053799679
 30
0.0
 10
371.6190988856665
 20
327.172083677394
 30
0.0
 10
371.9433242654202
 20
327.0488054505818
 30
0.0
 10
372.1523842705854
 20
326.9427403579977
 30
0.0
 10
372.3428097424689
 20
326.8017448019641
 30
0.0
  0
SPLINE
  5
42D
330
1F
100
AcDbEntity
  8
0
  6
Continuous
 62
     8
370
    18
100
AcDbSpline
210
0.0
220
0.0
230
1.0
 70
     8
 71
     3
 72
    16
 73
    12
 74
     0
 42
0.000000001
 43
0.00000001
 40
0.0
 40
0.0
 40
0.0
 40
0.0
 40
0.1250000000000007
 40
0.1250000000000007
 40
0.2500000000000014
 40
0.2500000000000014
 40
0.500000000000001
 40
0.500000000000001
 40
0.7500000000000006
 40
0.7500000000000006
 40
1.0
 40
1.0
 40
1.0
 40
1.0
 10
371.0915373014641
 20
327.3423305408817
 30
0.0
 10
371.0022990012498
 20
327.4048419651392
 30
0.0
 10
370.8851345747975
 20
327.4814450362802
 30
0.0
 10
370.6412546621723
 20
327.642000209834
 30
0.0
 10
370.5120758264844
 20
327.7274910558756
 30
0.0
 10
370.1132943448116
 20
327.9990664309136
 30
0.0
 10
369.8486519993369
 20
328.189391218133
 30
0.0
 10
369.3307648228264
 20
328.5900165167093
 30
0.0
 10
369.0763910144736
 20
328.8013169386341
 30
0.0
 10
368.6006434847079
 20
329.2237632371186
 30
0.0
 10
368.375872301518
 20
329.4374056411603
 30
0.0
 10
368.1623166867586
 20
329.6514112903222
 30
0.0
  0
LWPOLYLINE
  5
42E
330
1F
100
AcDbEntity
  8
0
  6
Continuous
 62
     8
370
    18
100
AcDbPolyline
 90
        9
 70
   128
 43
0.0
 10
395.5137193769
 20
342.9514098539
 10
395.5390122354
 20
342.5612303986
 10
395.6139175787
 20
342.1860452368
 10
395.7355576202
 20
341.8402712419
 10
395.8992571205
 20
341.5371965243
 10
396.0987268582
 20
341.2884737923
 10
396.3262992546
 20
341.1036509647
 10
396.573230122
 20
340.9898396208
 10
396.8300292834
 20
340.9514095261
  0
LWPOLYLINE
  5
42F
330
1F
100
AcDbEntity
  8
0
  6
Continuous
 62
     8
370
    18
100
AcDbPolyline
 90
        9
 70
   128
 43
0.0
 10
393.776617442
 20
342.9514098539
 10
393.7990073681
 20
342.5612303986
 10
393.8653175354
 20
342.1860452368
 10
393.9729989141
 20
341.8402712419
 10
394.117913638
 20
341.5371965243
 10
394.2944923982
 20
341.2884737923
 10
394.4959495782
 20
341.1036509647
 10
394.714544025
 20
340.9898396208
 10
394.9418742776
 20
340.9514095261
  0
SPLINE
  5
430
330
1F
100
AcDbEntity
  8
0
  6
Continuous
 62
     8
370
    18
100
AcDbSpline
210
0.0
220
0.0
230
1.0
 70
     8
 71
     3
 72
    16
 73
    12
 74
     0
 42
0.000000001
 43
0.00000001
 40
0.0
 40
0.0
 40
0.0
 40
0.0
 40
0.2499999999999997
 40
0.2499999999999997
 40
0.4999999999999993
 40
0.4999999999999993
 40
0.749999999999999
 40
0.749999999999999
 40
0.8749999999999997
 40
0.8749999999999997
 40
1.0
 40
1.0
 40
1.0
 40
1.0
 10
360.8871387391526
 20
329.6514112903222
 30
0.0
 10
360.7532575391375
 20
329.4373335520687
 30
0.0
 10
360.6492899040987
 20
329.2236193993638
 30
0.0
 10
360.5013059979741
 20
328.8010338672007
 30
0.0
 10
360.4570183891418
 20
328.5896654699918
 30
0.0
 10
360.4430857321648
 20
328.1889325742202
 30
0.0
 10
360.4703665729166
 20
327.9985374626952
 30
0.0
 10
360.5975568554351
 20
327.7269322972645
 30
0.0
 10
360.6535636742767
 20
327.6414345602811
 30
0.0
 10
360.8066718835247
 20
327.4808750983738
 30
0.0
 10
360.9056200614928
 20
327.4052112179244
 30
0.0
 10
361.0306171281773
 20
327.3423305408819
 30
0.0
  0
SPLINE
  5
431
330
1F
100
AcDbEntity
  8
0
  6
Continuous
 62
     8
370
    18
100
AcDbSpline
210
0.0
220
0.0
230
1.0
 70
     8
 71
     3
 72
    14
 73
    10
 74
     0
 42
0.000000001
 43
0.00000001
 40
0.0
 40
0.0
 40
0.0
 40
0.0
 40
0.3587427502611744
 40
0.7171431514166023
 40
0.7406286096410788
 40
0.8762898833621764
 40
0.9106397502269583
 40
0.9841761596704064
 40
1.0
 40
1.0
 40
1.0
 40
1.0
 10
371.6514506011826
 20
327.1784450485268
 30
0.0
 10
371.5863660929818
 20
327.1694096047862
 30
0.0
 10
371.4562591868894
 20
327.1513473398515
 30
0.0
 10
371.3348132227164
 20
327.2141675028826
 30
0.0
 10
371.2344608393892
 20
327.2641145521923
 30
0.0
 10
371.1950963845654
 20
327.2849286917416
 30
0.0
 10
371.1428446426215
 20
327.3135206566309
 30
0.0
 10
371.115463450635
 20
327.3287954018275
 30
0.0
 10
371.095136998318
 20
327.3402953441895
 30
0.0
 10
371.0915376066786
 20
327.342331744627
 30
0.0
  0
SPLINE
  5
432
330
1F
100
AcDbEntity
  8
0
  6
Continuous
 62
     8
370
    18
100
AcDbSpline
210
0.0
220
0.0
230
1.0
 70
     8
 71
     3
 72
    14
 73
    10
 74
     0
 42
0.000000001
 43
0.00000001
 40
0.0
 40
0.0
 40
0.0
 40
0.0
 40
0.0155760518861275
 40
0.0879597368053597
 40
0.1217714491424416
 40
0.2553099415325805
 40
0.2784265070607179
 40
0.631216111084065
 40
1.0
 40
1.0
 40
1.0
 40
1.0
 10
361.0306172266227
 20
327.342331744627
 30
0.0
 10
361.0343629113593
 20
327.3402953473941
 30
0.0
 10
361.0555152191454
 20
327.3287955805758
 30
0.0
 10
361.0858800341705
 20
327.3135206112852
 30
0.0
 10
361.1477436596426
 20
327.284928135383
 30
0.0
 10
361.1996147638867
 20
327.2641172661232
 30
0.0
 10
361.3435684757661
 20
327.2141593477465
 30
0.0
 10
361.5756041067054
 20
327.1504925495969
 30
0.0
 10
361.798052129218
 20
327.1692078193362
 30
0.0
 10
361.9117415144664
 20
327.178772874073
 30
0.0
  0
SPLINE
  5
433
330
1F
100
AcDbEntity
  8
0
  6
Continuous
 62
     8
370
    18
100
AcDbSpline
210
0.0
220
0.0
230
1.0
 70
     8
 71
     3
 72
    11
 73
     7
 74
     0
 42
0.000000001
 43
0.00000001
 40
0.0
 40
0.0
 40
0.0
 40
0.0
 40
0.0295744111204461
 40
0.1442881919458079
 40
0.4295703165885636
 40
1.0
 40
1.0
 40
1.0
 40
1.0
 10
371.0915376066786
 20
327.342331744627
 30
0.0
 10
371.0972784253671
 20
327.3401045444463
 30
0.0
 10
371.1252868393124
 20
327.3292384384105
 30
0.0
 10
371.2085755087805
 20
327.2978329026208
 30
0.0
 10
371.3966596901275
 20
327.2319018487484
 30
0.0
 10
371.5626051666109
 20
327.1782521800918
 30
0.0
 10
371.6732267856223
 20
327.142488546566
 30
0.0
  0
ARC
  5
434
330
1F
100
AcDbEntity
  8
0
  6
Continuous
 62
     8
370
    18
100
AcDbCircle
 10
399.4859038802
 20
342.7348273146
 30
0.0
 40
1.806470413238783
100
AcDbArc
 50
173.1140923942
 51
260.8368389601
  0
ARC
  5
435
330
1F
100
AcDbEntity
  8
0
  6
Continuous
 62
     8
370
    18
100
AcDbCircle
 10
400.9034632925
 20
342.7816838388
 30
0.0
 40
1.842150241784206
100
AcDbArc
 50
174.7135715131
 51
263.4905769737
  0
SPLINE
  5
436
330
1F
100
AcDbEntity
  8
0
  6
Continuous
 62
     8
370
    18
100
AcDbSpline
210
0.0
220
0.0
230
1.0
 70
     8
 71
     3
 72
    22
 73
    18
 74
     0
 42
0.000000001
 43
0.00000001
 40
0.0
 40
0.0
 40
0.0
 40
0.0
 40
0.0694164964054245
 40
0.1405290445436082
 40
0.200104388133571
 40
0.2614323781287418
 40
0.2809406656934691
 40
0.3424723818647798
 40
0.4058667681493124
 40
0.4705128887945177
 40
0.5364751533756741
 40
0.6149445156219658
 40
0.6952231844553315
 40
0.7804101303929312
 40
0.8687085645163082
 40
0.937469855978956
 40
1.0
 40
1.0
 40
1.0
 40
1.0
 10
359.1924416467172
 20
330.6836675478974
 30
0.0
 10
359.4234807505221
 20
331.2484359323153
 30
0.0
 10
359.8912039314832
 20
332.3917716746889
 30
0.0
 10
360.4023529220507
 20
334.211933444852
 30
0.0
 10
360.7102631743327
 20
336.0503018626563
 30
0.0
 10
360.7769693622132
 20
337.4375759906017
 30
0.0
 10
360.7313109210006
 20
338.8371018687799
 30
0.0
 10
360.5711202448542
 20
340.246751570896
 30
0.0
 10
360.1624812706073
 20
342.0134500141075
 30
0.0
 10
359.5926137223574
 20
343.7013151201843
 30
0.0
 10
358.8753971687802
 20
345.3697962852673
 30
0.0
 10
358.0491319722885
 20
346.9748945057858
 30
0.0
 10
357.1692327660975
 20
348.4744852172174
 30
0.0
 10
356.3515705348552
 20
349.7447201400265
 30
0.0
 10
355.7635641974082
 20
350.6034219278609
 30
0.0
 10
355.427166990651
 20
351.0799879847917
 30
0.0
 10
355.4009198977767
 20
351.1166736795352
 30
0.0
 10
355.3884192004425
 20
351.1341459675589
 30
0.0
  0
ARC
  5
437
330
1F
100
AcDbEntity
  8
0
  6
Continuous
 62
     8
370
    18
100
AcDbCircle
 10
358.4202858291
 20
327.5087299362
 30
0.0
 40
3.267484268443496
100
AcDbArc
 50
40.9772219149
 51
76.3308448787
  0
ARC
  5
438
330
1F
100
AcDbEntity
  8
0
  6
Continuous
 62
     8
370
    18
100
AcDbCircle
 10
401.5834773237
 20
346.6539490994
 30
0.0
 40
4.475560978487272
100
AcDbArc
 50
235.8202689681
 51
258.5448193283
  0
LINE
  5
439
330
1F
100
AcDbEntity
  8
0
  6
Continuous
 62
     8
370
    18
100
AcDbLine
 10
400.69462495
 20
340.9514095261
 30
0.0
 11
400.69462495
 21
342.2675396874
 31
0.0
  0
LINE
  5
43A
330
1F
100
AcDbEntity
  8
0
  6
Continuous
 62
     8
370
    18
100
AcDbLine
 10
400.69462495
 20
342.2675396874
 30
0.0
 11
401.8761603728
 21
342.2675396874
 31
0.0
  0
LINE
  5
43B
330
1F
100
AcDbEntity
  8
0
  6
Continuous
 62
     8
370
    18
100
AcDbLine
 10
401.8761603728
 20
340.9514095261
 30
0.0
 11
401.8761603728
 21
342.2675396874
 31
0.0
  0
SPLINE
  5
43C
330
1F
100
AcDbEntity
  8
0
  6
Continuous
 62
     8
370
    18
100
AcDbSpline
210
0.0
220
0.0
230
1.0
 70
     8
 71
     3
 72
    17
 73
    13
 74
     0
 42
0.000000001
 43
0.00000001
 40
0.0
 40
0.0
 40
0.0
 40
0.0
 40
0.0096104285476122
 40
0.0326942031295584
 40
0.1478470447351778
 40
0.2630611685005518
 40
0.3805129773290173
 40
0.4980434185253291
 40
0.6313933705478952
 40
0.7647717790330304
 40
0.882428533258495
 40
1.0
 40
1.0
 40
1.0
 40
1.0
 10
405.3676123365385
 20
351.1394135280409
 30
0.0
 10
405.370411619164
 20
351.1433424342671
 30
0.0
 10
405.3799346403616
 20
351.1567083791466
 30
0.0
 10
405.3424234536037
 20
351.1039784457721
 30
0.0
 10
405.2312357866003
 20
350.9485580698513
 30
0.0
 10
404.8656011271161
 20
350.4249245193483
 30
0.0
 10
404.3401288820164
 20
349.6497368246005
 30
0.0
 10
403.6635038087263
 20
348.5978528661744
 30
0.0
 10
402.8671025768661
 20
347.2678315206163
 30
0.0
 10
402.0478040228267
 20
345.715098293955
 30
0.0
 10
401.2873367289452
 20
344.0523845769492
 30
0.0
 10
400.892147781291
 20
342.862344158237
 30
0.0
 10
400.6946249499542
 20
342.2675396873512
 30
0.0
  0
SPLINE
  5
43D
330
1F
100
AcDbEntity
  8
0
  6
Continuous
 62
     8
370
    18
100
AcDbSpline
210
0.0
220
0.0
230
1.0
 70
     8
 71
     3
 72
    22
 73
    18
 74
     0
 42
0.000000001
 43
0.00000001
 40
0.0
 40
0.0
 40
0.0
 40
0.0
 40
0.1249999999999999
 40
0.1249999999999999
 40
0.2499999999999998
 40
0.2499999999999998
 40
0.3749999999999997
 40
0.3749999999999997
 40
0.4999999999999996
 40
0.4999999999999996
 40
0.6249999999999997
 40
0.6249999999999997
 40
0.7499999999999998
 40
0.7499999999999998
 40
0.8749999999999999
 40
0.8749999999999999
 40
1.0
 40
1.0
 40
1.0
 40
1.0
 10
361.3761612903417
 20
326.8017448019614
 30
0.0
 10
361.1107346300388
 20
326.8332840192176
 30
0.0
 10
360.8535013555842
 20
326.8860644973349
 30
0.0
 10
360.3713283584049
 20
327.0400600049255
 30
0.0
 10
360.1534579409244
 20
327.1385221244726
 30
0.0
 10
359.7610069418432
 20
327.3808445953077
 30
0.0
 10
359.5948586246382
 20
327.5193572830384
 30
0.0
 10
359.3126200911918
 20
327.8298885576124
 30
0.0
 10
359.1977452027941
 20
328.0019989377877
 30
0.0
 10
359.0225197193077
 20
328.3629129343474
 30
0.0
 10
358.9602300097096
 20
328.5537988658756
 30
0.0
 10
358.8828295490067
 20
328.9574777001793
 30
0.0
 10
358.8687093149333
 20
329.1688980956663
 30
0.0
 10
358.8863540881537
 20
329.59372860975
 30
0.0
 10
358.9176227361459
 20
329.8088841601794
 30
0.0
 10
359.0230546060586
 20
330.244343464484
 30
0.0
 10
359.0978224058526
 20
330.4654509466461
 30
0.0
 10
359.1924411260073
 20
330.6836693548384
 30
0.0
  0
LINE
  5
43E
330
1F
100
AcDbEntity
  8
0
  6
Continuous
 62
     8
370
    18
100
AcDbLine
 10
361.3761621162
 20
324.1514119877
 30
0.0
 11
361.3761621162
 21
326.8017436935
 31
0.0
  0
SPLINE
  5
43F
330
1F
100
AcDbEntity
  8
0
  6
Continuous
 62
     8
370
    18
100
AcDbSpline
210
0.0
220
0.0
230
1.0
 70
     8
 71
     3
 72
    12
 73
     8
 74
     0
 42
0.000000001
 43
0.00000001
 40
0.0
 40
0.0
 40
0.0
 40
0.0
 40
0.5
 40
0.5
 40
0.75
 40
0.75
 40
1.0
 40
1.0
 40
1.0
 40
1.0
 10
361.3761612903222
 20
326.8017448019637
 30
0.0
 10
361.3507955385455
 20
326.9424608508047
 30
0.0
 10
361.3178377016037
 20
327.0490718048616
 30
0.0
 10
361.2357554081096
 20
327.1722499702276
 30
0.0
 10
361.2027588506743
 20
327.207038361025
 30
0.0
 10
361.1238638680762
 20
327.273844112122
 30
0.0
 10
361.0778149175393
 20
327.3062713403635
 30
0.0
 10
361.0306171281775
 20
327.3423305408819
 30
0.0
  0
ARC
  5
440
330
1F
100
AcDbEntity
  8
0
  6
Continuous
 62
     8
370
    18
100
AcDbCircle
 10
361.3804676995
 20
327.9977254423
 30
0.0
 40
1.195989498895336
100
AcDbArc
 50
269.7937337348
 51
293.63326417
  0
SPLINE
  5
441
330
1F
100
AcDbEntity
  8
0
  6
Continuous
 62
     8
370
    18
100
AcDbSpline
210
0.0
220
0.0
230
1.0
 70
     8
 71
     3
 72
    14
 73
    10
 74
     0
 42
0.000000001
 43
0.00000001
 40
0.0
 40
0.0
 40
0.0
 40
0.0
 40
0.25
 40
0.25
 40
0.5
 40
0.5
 40
0.75
 40
0.75
 40
1.0
 40
1.0
 40
1.0
 40
1.0
 10
361.8599177959423
 20
326.9020418275128
 30
0.0
 10
361.783086069777
 20
326.929489916962
 30
0.0
 10
361.7088112937289
 20
326.9649483205226
 30
0.0
 10
361.5657710134794
 20
327.0383975912465
 30
0.0
 10
361.4967799559207
 20
327.0763421280109
 30
0.0
 10
361.3608103069325
 20
327.1501741387914
 30
0.0
 10
361.2936607463974
 20
327.1861007475595
 30
0.0
 10
361.1599976309268
 20
327.2601950056926
 30
0.0
 10
361.0934181559794
 20
327.2987722158546
 30
0.0
 10
361.0306171281793
 20
327.3423305408796
 30
0.0
  0
ARC
  5
442
330
1F
100
AcDbEntity
  8
0
  6
Continuous
 62
     8
370
    18
100
AcDbCircle
 10
362.3117116923
 20
326.7351665109
 30
0.0
 40
0.4816287140551082
100
AcDbArc
 50
120.2036549816
 51
159.7275566347
  0
SPLINE
  5
443
330
1F
100
AcDbEntity
  8
0
  6
Continuous
 62
     8
370
    18
100
AcDbSpline
210
0.0
220
0.0
230
1.0
 70
     8
 71
     3
 72
    12
 73
     8
 74
     0
 42
0.000000001
 43
0.00000001
 40
0.0
 40
0.0
 40
0.0
 40
0.0
 40
0.2500000000000008
 40
0.2500000000000008
 40
0.5000000000000016
 40
0.5000000000000016
 40
1.0
 40
1.0
 40
1.0
 40
1.0
 10
362.3761612903222
 20
326.9999749674354
 30
0.0
 10
362.3761612903222
 20
327.0042189235814
 30
0.0
 10
362.3699758604424
 20
327.0028324576245
 30
0.0
 10
362.3372870091273
 20
326.98914226254
 30
0.0
 10
362.3102474699494
 20
326.9765974306292
 30
0.0
 10
362.1881349691154
 20
326.9332049909686
 30
0.0
 10
362.0492312481398
 20
326.8982959482278
 30
0.0
 10
361.859917795942
 20
326.9020418275124
 30
0.0
  0
LINE
  5
444
330
1F
100
AcDbEntity
  8
0
  6
Continuous
 62
     8
370
    18
100
AcDbLine
 10
357.8761606112
 20
322.9514103009
 30
0.0
 11
361.3761621162
 21
322.9514103009
 31
0.0
  0
LINE
  5
445
330
1F
100
AcDbEntity
  8
0
  6
Continuous
 62
     8
370
    18
100
AcDbLine
 10
361.3761621162
 20
322.9514103009
 30
0.0
 11
362.8423581466
 21
322.9514103009
 31
0.0
  0
ARC
  5
446
330
1F
100
AcDbEntity
  8
0
  6
Continuous
 62
     8
370
    18
100
AcDbCircle
 10
361.705514557
 20
322.7192176031
 30
0.0
 40
1.160313231831387
100
AcDbArc
 50
318.5686116828
 51
11.5435134176
  0
LINE
  5
447
330
1F
100
AcDbEntity
  8
0
  6
Continuous
 62
     8
370
    18
100
AcDbLine
 10
362.8423581466
 20
326.9349414482
 30
0.0
 11
362.8423581466
 21
322.9514103009
 31
0.0
  0
LINE
  5
448
330
1F
100
AcDbEntity
  8
0
  6
Continuous
 62
     8
370
    18
100
AcDbLine
 10
362.8423581466
 20
322.9514103009
 30
0.0
 11
367.3717067211
 21
322.9514103009
 31
0.0
  0
ARC
  5
449
330
1F
100
AcDbEntity
  8
0
  6
Continuous
 62
     8
370
    18
100
AcDbCircle
 10
366.3895059114
 20
322.9336004753
 30
0.0
 40
0.9823622654608746
100
AcDbArc
 50
271.0777556749
 51
1.0388059311
  0
LINE
  5
44A
330
1F
100
AcDbEntity
  8
0
  6
Continuous
 62
     8
370
    18
100
AcDbLine
 10
367.3717067211
 20
322.9514103009
 30
0.0
 11
367.3717067211
 21
327.1514106168
 31
0.0
  0
ARC
  5
44B
330
1F
100
AcDbEntity
  8
0
  6
Continuous
 62
     8
370
    18
100
AcDbCircle
 10
358.6149015261
 20
322.9013294655
 30
0.0
 40
0.951566784702741
100
AcDbArc
 50
176.9831367851
 51
266.6260933795
  0
LINE
  5
44C
330
1F
100
AcDbEntity
  8
0
  6
Continuous
 62
     8
370
    18
100
AcDbLine
 10
357.6646535292
 20
322.9514103009
 30
0.0
 11
357.8761606112
 21
322.9514103009
 31
0.0
  0
LINE
  5
44D
330
1F
100
AcDbEntity
  8
0
  6
Continuous
 62
     8
370
    18
100
AcDbLine
 10
357.6646535292
 20
322.9514103009
 30
0.0
 11
357.6646535292
 21
324.1514119877
 31
0.0
  0
LINE
  5
44E
330
1F
100
AcDbEntity
  8
0
  6
Continuous
 62
     8
370
    18
100
AcDbLine
 10
367.3717067211
 20
322.9514103009
 30
0.0
 11
369.2991551578
 21
322.9514103009
 31
0.0
  0
LINE
  5
44F
330
1F
100
AcDbEntity
  8
0
  6
Continuous
 62
     8
370
    18
100
AcDbLine
 10
369.2991551578
 20
327.1514106168
 30
0.0
 11
369.2991551578
 21
322.9514103009
 31
0.0
  0
LINE
  5
450
330
1F
100
AcDbEntity
  8
0
  6
Continuous
 62
     8
370
    18
100
AcDbLine
 10
369.2991551578
 20
322.9514103009
 30
0.0
 11
369.2991551578
 21
321.9514119997
 31
0.0
  0
LINE
  5
451
330
1F
100
AcDbEntity
  8
0
  6
Continuous
 62
     8
370
    18
100
AcDbLine
 10
357.2575016513
 20
322.9514103009
 30
0.0
 11
357.6646535292
 21
322.9514103009
 31
0.0
  0
LINE
  5
452
330
1F
100
AcDbEntity
  8
0
  6
Continuous
 62
     8
370
    18
100
AcDbLine
 10
375.3761611513
 20
325.111475177
 30
0.0
 11
375.3761611513
 21
322.9514103009
 31
0.0
  0
LINE
  5
453
330
1F
100
AcDbEntity
  8
0
  6
Continuous
 62
     8
370
    18
100
AcDbLine
 10
369.2991551578
 20
322.9514103009
 30
0.0
 11
375.3761611513
 21
322.9514103009
 31
0.0
  0
LINE
  5
454
330
1F
100
AcDbEntity
  8
0
  6
Continuous
 62
     8
370
    18
100
AcDbLine
 10
375.3761611513
 20
322.9514103009
 30
0.0
 11
375.3761611513
 21
321.9514119997
 31
0.0
  0
LINE
  5
455
330
1F
100
AcDbEntity
  8
0
  6
Continuous
 62
     8
370
    18
100
AcDbLine
 10
375.3761611513
 20
322.9514103009
 30
0.0
 11
377.1261612054
 21
322.9514103009
 31
0.0
  0
ENDSEC
  0
SECTION
  2
OBJECTS
  0
DICTIONARY
  5
C
330
0
100
AcDbDictionary
281
     1
  3
ACAD_GROUP
350
D
  3
ACAD_LAYOUT
350
1A
  3
ACAD_MLINESTYLE
350
17
  3
ACAD_PLOTSETTINGS
350
19
  3
ACAD_PLOTSTYLENAME
350
E
  3
ACAD_SCALELIST
350
47
  0
DICTIONARY
  5
D
102
{ACAD_REACTORS
330
C
102
}
330
C
100
AcDbDictionary
281
     1
  0
DICTIONARY
  5
1A
102
{ACAD_REACTORS
330
C
102
}
330
C
100
AcDbDictionary
281
     1
  3
Layout1
350
1E
  3
Layout2
350
26
  3
Model
350
22
  0
DICTIONARY
  5
17
102
{ACAD_REACTORS
330
C
102
}
330
C
100
AcDbDictionary
281
     1
  3
Standard
350
18
  0
DICTIONARY
  5
19
102
{ACAD_REACTORS
330
C
102
}
330
C
100
AcDbDictionary
281
     1
  0
ACDBDICTIONARYWDFLT
  5
E
102
{ACAD_REACTORS
330
C
102
}
330
C
100
AcDbDictionary
281
     1
  3
Normal
350
F
100
AcDbDictionaryWithDefault
340
F
  0
DICTIONARY
  5
47
102
{ACAD_REACTORS
330
C
102
}
330
C
100
AcDbDictionary
281
     1
  3
A0
350
48
  3
A1
350
49
  3
A2
350
4A
  3
A3
350
4B
  3
A4
350
4C
  3
A5
350
4D
  3
A6
350
4E
  3
A7
350
4F
  3
A8
350
50
  3
A9
350
51
  3
B0
350
52
  3
B1
350
53
  3
B2
350
54
  3
B3
350
55
  3
B4
350
56
  3
B5
350
57
  3
B6
350
58
  3
B7
350
59
  3
B8
350
5A
  3
B9
350
5B
  3
C0
350
5C
  3
C1
350
5D
  3
C2
350
5E
  3
C3
350
5F
  3
C4
350
60
  3
C5
350
61
  3
C6
350
62
  3
C7
350
63
  3
C8
350
64
  3
C9
350
65
  3
D0
350
66
  3
D1
350
67
  3
D2
350
68
  0
LAYOUT
  5
1E
102
{ACAD_REACTORS
330
1A
102
}
330
1A
100
AcDbPlotSettings
  1

  2
none_device
  4

  6

 40
0.0
 41
0.0
 42
0.0
 43
0.0
 44
0.0
 45
0.0
 46
0.0
 47
0.0
 48
0.0
 49
0.0
140
0.0
141
0.0
142
1.0
143
1.0
 70
   688
 72
     1
 73
     0
 74
     5
  7

 75
    16
147
1.0
148
0.0
149
0.0
100
AcDbLayout
  1
Layout1
 70
     1
 71
     1
 10
0.0
 20
0.0
 11
420.0
 21
297.0
 12
0.0
 22
0.0
 32
0.0
 14
1.0000000000E+20
 24
1.0000000000E+20
 34
1.0000000000E+20
 15
-1.0000000000E+20
 25
-1.0000000000E+20
 35
-1.0000000000E+20
146
0.0
 13
0.0
 23
0.0
 33
0.0
 16
1.0
 26
0.0
 36
0.0
 17
0.0
 27
1.0
 37
0.0
 76
     0
330
1B
  0
LAYOUT
  5
26
102
{ACAD_REACTORS
330
1A
102
}
330
1A
100
AcDbPlotSettings
  1

  2
none_device
  4

  6

 40
0.0
 41
0.0
 42
0.0
 43
0.0
 44
0.0
 45
0.0
 46
0.0
 47
0.0
 48
0.0
 49
0.0
140
0.0
141
0.0
142
1.0
143
1.0
 70
   688
 72
     1
 73
     0
 74
     5
  7

 75
    16
147
1.0
148
0.0
149
0.0
100
AcDbLayout
  1
Layout2
 70
     1
 71
     2
 10
0.0
 20
0.0
 11
0.0
 21
0.0
 12
0.0
 22
0.0
 32
0.0
 14
0.0
 24
0.0
 34
0.0
 15
0.0
 25
0.0
 35
0.0
146
0.0
 13
0.0
 23
0.0
 33
0.0
 16
1.0
 26
0.0
 36
0.0
 17
0.0
 27
1.0
 37
0.0
 76
     0
330
23
  0
LAYOUT
  5
22
102
{ACAD_REACTORS
330
1A
102
}
330
1A
100
AcDbPlotSettings
  1

  2
none_device
  4
Letter_(8.50_x_11.00_Inches)
  6

 40
6.35
 41
6.35
 42
6.35000508
 43
6.35000508
 44
215.9
 45
279.4
 46
0.0
 47
0.0
 48
0.0
 49
0.0
140
0.0
141
0.0
142
1.0
143
1.0
 70
  1712
 72
     1
 73
     0
 74
     0
  7

 75
     0
147
1.0
148
0.0
149
0.0
100
AcDbLayout
  1
Model
 70
     1
 71
     0
 10
0.0
 20
0.0
 11
841.0
 21
594.0
 12
0.0
 22
0.0
 32
0.0
 14
0.0
 24
0.0
 34
0.0
 15
841.0
 25
594.0
 35
0.0
146
0.0
 13
0.0
 23
0.0
 33
0.0
 16
1.0
 26
0.0
 36
0.0
 17
0.0
 27
1.0
 37
0.0
 76
     0
330
1F
331
29
  0
MLINESTYLE
  5
18
102
{ACAD_REACTORS
330
17
102
}
330
17
100
AcDbMlineStyle
  2
Standard
 70
     0
  3

 62
   256
 51
90.0
 52
90.0
 71
     2
 49
0.5
 62
   256
  6
BYLAYER
 49
-0.5
 62
   256
  6
BYLAYER
  0
ACDBPLACEHOLDER
  5
F
102
{ACAD_REACTORS
330
E
102
}
330
E
  0
SCALE
  5
48
102
{ACAD_REACTORS
330
47
102
}
330
47
100
AcDbScale
 70
     0
300
1:1
140
1.0
141
1.0
290
     1
  0
SCALE
  5
49
102
{ACAD_REACTORS
330
47
102
}
330
47
100
AcDbScale
 70
     0
300
1:2
140
1.0
141
2.0
290
     0
  0
SCALE
  5
4A
102
{ACAD_REACTORS
330
47
102
}
330
47
100
AcDbScale
 70
     0
300
1:4
140
1.0
141
4.0
290
     0
  0
SCALE
  5
4B
102
{ACAD_REACTORS
330
47
102
}
330
47
100
AcDbScale
 70
     0
300
1:5
140
1.0
141
5.0
290
     0
  0
SCALE
  5
4C
102
{ACAD_REACTORS
330
47
102
}
330
47
100
AcDbScale
 70
     0
300
1:8
140
1.0
141
8.0
290
     0
  0
SCALE
  5
4D
102
{ACAD_REACTORS
330
47
102
}
330
47
100
AcDbScale
 70
     0
300
1:10
140
1.0
141
10.0
290
     0
  0
SCALE
  5
4E
102
{ACAD_REACTORS
330
47
102
}
330
47
100
AcDbScale
 70
     0
300
1:16
140
1.0
141
16.0
290
     0
  0
SCALE
  5
4F
102
{ACAD_REACTORS
330
47
102
}
330
47
100
AcDbScale
 70
     0
300
1:20
140
1.0
141
20.0
290
     0
  0
SCALE
  5
50
102
{ACAD_REACTORS
330
47
102
}
330
47
100
AcDbScale
 70
     0
300
1:30
140
1.0
141
30.0
290
     0
  0
SCALE
  5
51
102
{ACAD_REACTORS
330
47
102
}
330
47
100
AcDbScale
 70
     0
300
1:40
140
1.0
141
40.0
290
     0
  0
SCALE
  5
52
102
{ACAD_REACTORS
330
47
102
}
330
47
100
AcDbScale
 70
     0
300
1:50
140
1.0
141
50.0
290
     0
  0
SCALE
  5
53
102
{ACAD_REACTORS
330
47
102
}
330
47
100
AcDbScale
 70
     0
300
1:100
140
1.0
141
100.0
290
     0
  0
SCALE
  5
54
102
{ACAD_REACTORS
330
47
102
}
330
47
100
AcDbScale
 70
     0
300
2:1
140
2.0
141
1.0
290
     0
  0
SCALE
  5
55
102
{ACAD_REACTORS
330
47
102
}
330
47
100
AcDbScale
 70
     0
300
4:1
140
4.0
141
1.0
290
     0
  0
SCALE
  5
56
102
{ACAD_REACTORS
330
47
102
}
330
47
100
AcDbScale
 70
     0
300
8:1
140
8.0
141
1.0
290
     0
  0
SCALE
  5
57
102
{ACAD_REACTORS
330
47
102
}
330
47
100
AcDbScale
 70
     0
300
10:1
140
10.0
141
1.0
290
     0
  0
SCALE
  5
58
102
{ACAD_REACTORS
330
47
102
}
330
47
100
AcDbScale
 70
     0
300
100:1
140
100.0
141
1.0
290
     0
  0
SCALE
  5
59
102
{ACAD_REACTORS
330
47
102
}
330
47
100
AcDbScale
 70
     0
300
1/128" = 1'-0"
140
0.0078125
141
12.0
290
     0
  0
SCALE
  5
5A
102
{ACAD_REACTORS
330
47
102
}
330
47
100
AcDbScale
 70
     0
300
1/64" = 1'-0"
140
0.015625
141
12.0
290
     0
  0
SCALE
  5
5B
102
{ACAD_REACTORS
330
47
102
}
330
47
100
AcDbScale
 70
     0
300
1/32" = 1'-0"
140
0.03125
141
12.0
290
     0
  0
SCALE
  5
5C
102
{ACAD_REACTORS
330
47
102
}
330
47
100
AcDbScale
 70
     0
300
1/16" = 1'-0"
140
0.0625
141
12.0
290
     0
  0
SCALE
  5
5D
102
{ACAD_REACTORS
330
47
102
}
330
47
100
AcDbScale
 70
     0
300
3/32" = 1'-0"
140
0.09375
141
12.0
290
     0
  0
SCALE
  5
5E
102
{ACAD_REACTORS
330
47
102
}
330
47
100
AcDbScale
 70
     0
300
1/8" = 1'-0"
140
0.125
141
12.0
290
     0
  0
SCALE
  5
5F
102
{ACAD_REACTORS
330
47
102
}
330
47
100
AcDbScale
 70
     0
300
3/16" = 1'-0"
140
0.1875
141
12.0
290
     0
  0
SCALE
  5
60
102
{ACAD_REACTORS
330
47
102
}
330
47
100
AcDbScale
 70
     0
300
1/4" = 1'-0"
140
0.25
141
12.0
290
     0
  0
SCALE
  5
61
102
{ACAD_REACTORS
330
47
102
}
330
47
100
AcDbScale
 70
     0
300
3/8" = 1'-0"
140
0.375
141
12.0
290
     0
  0
SCALE
  5
62
102
{ACAD_REACTORS
330
47
102
}
330
47
100
AcDbScale
 70
     0
300
1/2" = 1'-0"
140
0.5
141
12.0
290
     0
  0
SCALE
  5
63
102
{ACAD_REACTORS
330
47
102
}
330
47
100
AcDbScale
 70
     0
300
3/4" = 1'-0"
140
0.75
141
12.0
290
     0
  0
SCALE
  5
64
102
{ACAD_REACTORS
330
47
102
}
330
47
100
AcDbScale
 70
     0
300
1" = 1'-0"
140
1.0
141
12.0
290
     0
  0
SCALE
  5
65
102
{ACAD_REACTORS
330
47
102
}
330
47
100
AcDbScale
 70
     0
300
1-1/2" = 1'-0"
140
1.5
141
12.0
290
     0
  0
SCALE
  5
66
102
{ACAD_REACTORS
330
47
102
}
330
47
100
AcDbScale
 70
     0
300
3" = 1'-0"
140
3.0
141
12.0
290
     0
  0
SCALE
  5
67
102
{ACAD_REACTORS
330
47
102
}
330
47
100
AcDbScale
 70
     0
300
6" = 1'-0"
140
6.0
141
12.0
290
     0
  0
SCALE
  5
68
102
{ACAD_REACTORS
330
47
102
}
330
47
100
AcDbScale
 70
     0
300
1'-0" = 1'-0"
140
12.0
141
12.0
290
     0
  0
ENDSEC
  0
EOF
