  0
SECTION
  2
HEADER
  9
$ACADVER
  1
AC1021
  9
$ACADMAINTVER
 70
    25
  9
$DWGCODEPAGE
  3
ANSI_1252
  9
$LASTSAVEDBY
  1
MKramer
  9
$INSBASE
 10
0.0
 20
0.0
 30
0.0
  9
$EXTMIN
 10
33.76143973320001
 20
37.46023423129998
 30
0.0
  9
$EXTMAX
 10
520.6771150059001
 20
535.4639677949001
 30
0.0
  9
$LIMMIN
 10
0.0
 20
0.0
  9
$LIMMAX
 10
594.0
 20
841.0
  9
$ORTHOMODE
 70
     0
  9
$REGENMODE
 70
     1
  9
$FILLMODE
 70
     1
  9
$QTEXTMODE
 70
     0
  9
$MIRRTEXT
 70
     1
  9
$LTSCALE
 40
1.0
  9
$ATTMODE
 70
     1
  9
$TEXTSIZE
 40
10.0
  9
$TRACEWID
 40
1.0
  9
$TEXTSTYLE
  7
STANDARD
  9
$CLAYER
  8
0
  9
$CELTYPE
  6
ByLayer
  9
$CECOLOR
 62
   256
  9
$CELTSCALE
 40
1.0
  9
$DISPSILH
 70
     0
  9
$DIMSCALE
 40
1.0
  9
$DIMASZ
 40
2.5
  9
$DIMEXO
 40
0.0
  9
$DIMDLI
 40
3.75
  9
$DIMRND
 40
0.0
  9
$DIMDLE
 40
0.0
  9
$DIMEXE
 40
1.0
  9
$DIMTP
 40
0.0
  9
$DIMTM
 40
0.0
  9
$DIMTXT
 40
3.5
  9
$DIMCEN
 40
2.5
  9
$DIMTSZ
 40
0.0
  9
$DIMTOL
 70
     0
  9
$DIMLIM
 70
     0
  9
$DIMTIH
 70
     1
  9
$DIMTOH
 70
     1
  9
$DIMSE1
 70
     0
  9
$DIMSE2
 70
     0
  9
$DIMTAD
 70
     1
  9
$DIMZIN
 70
     0
  9
$DIMBLK
  1

  9
$DIMASO
 70
     1
  9
$DIMSHO
 70
     1
  9
$DIMPOST
  1

  9
$DIMAPOST
  1

  9
$DIMALT
 70
     0
  9
$DIMALTD
 70
     3
  9
$DIMALTF
 40
0.0393700787
  9
$DIMLFAC
 40
1.0
  9
$DIMTOFL
 70
     1
  9
$DIMTVP
 40
0.0
  9
$DIMTIX
 70
     0
  9
$DIMSOXD
 70
     0
  9
$DIMSAH
 70
     0
  9
$DIMBLK1
  1

  9
$DIMBLK2
  1

  9
$DIMSTYLE
  2
ISO-25
  9
$DIMCLRD
 70
     0
  9
$DIMCLRE
 70
     0
  9
$DIMCLRT
 70
     0
  9
$DIMTFAC
 40
1.0
  9
$DIMGAP
 40
1.5
  9
$DIMJUST
 70
     0
  9
$DIMSD1
 70
     0
  9
$DIMSD2
 70
     0
  9
$DIMTOLJ
 70
     1
  9
$DIMTZIN
 70
     0
  9
$DIMALTZ
 70
     0
  9
$DIMALTTZ
 70
     0
  9
$DIMUPT
 70
     0
  9
$DIMDEC
 70
     2
  9
$DIMTDEC
 70
     2
  9
$DIMALTU
 70
     2
  9
$DIMALTTD
 70
     2
  9
$DIMTXSTY
  7
STANDARD
  9
$DIMAUNIT
 70
     0
  9
$DIMADEC
 70
     0
  9
$DIMALTRND
 40
0.0
  9
$DIMAZIN
 70
     0
  9
$DIMDSEP
 70
    46
  9
$DIMATFIT
 70
     3
  9
$DIMFRAC
 70
     0
  9
$DIMLDRBLK
  1

  9
$DIMLUNIT
 70
     2
  9
$DIMLWD
 70
    -2
  9
$DIMLWE
 70
    -2
  9
$DIMTMOVE
 70
     2
  9
$DIMFXL
 40
1.0
  9
$DIMFXLON
 70
     0
  9
$DIMJOGANG
 40
0.7853981633974483
  9
$DIMTFILL
 70
     0
  9
$DIMTFILLCLR
 70
     0
  9
$DIMARCSYM
 70
     0
  9
$DIMLTYPE
  6

  9
$DIMLTEX1
  6

  9
$DIMLTEX2
  6

  9
$LUNITS
 70
     2
  9
$LUPREC
 70
     2
  9
$SKETCHINC
 40
1.0
  9
$FILLETRAD
 40
10.0
  9
$AUNITS
 70
     0
  9
$AUPREC
 70
     2
  9
$MENU
  1
.
  9
$ELEVATION
 40
0.0
  9
$PELEVATION
 40
0.0
  9
$THICKNESS
 40
0.0
  9
$LIMCHECK
 70
     0
  9
$CHAMFERA
 40
0.0
  9
$CHAMFERB
 40
0.0
  9
$CHAMFERC
 40
0.0
  9
$CHAMFERD
 40
0.0
  9
$SKPOLY
 70
     0
  9
$TDCREATE
 40
2458589.429145891
  9
$TDUCREATE
 40
2458589.387479225
  9
$TDUPDATE
 40
2459915.359995417
  9
$TDUUPDATE
 40
2459915.31832875
  9
$TDINDWG
 40
0.0002212037
  9
$TDUSRTIMER
 40
0.0002211921
  9
$USRTIMER
 70
     1
  9
$ANGBASE
 50
0.0
  9
$ANGDIR
 70
     0
  9
$PDMODE
 70
     0
  9
$PDSIZE
 40
-1.0
  9
$PLINEWID
 40
0.0
  9
$SPLFRAME
 70
     0
  9
$SPLINETYPE
 70
     6
  9
$SPLINESEGS
 70
     8
  9
$HANDSEED
  5
4FE
  9
$SURFTAB1
 70
     6
  9
$SURFTAB2
 70
     6
  9
$SURFTYPE
 70
     6
  9
$SURFU
 70
     6
  9
$SURFV
 70
     6
  9
$UCSBASE
  2

  9
$UCSNAME
  2

  9
$UCSORG
 10
0.0
 20
0.0
 30
0.0
  9
$UCSXDIR
 10
1.0
 20
0.0
 30
0.0
  9
$UCSYDIR
 10
0.0
 20
1.0
 30
0.0
  9
$UCSORTHOREF
  2

  9
$UCSORTHOVIEW
 70
     0
  9
$UCSORGTOP
 10
0.0
 20
0.0
 30
0.0
  9
$UCSORGBOTTOM
 10
0.0
 20
0.0
 30
0.0
  9
$UCSORGLEFT
 10
0.0
 20
0.0
 30
0.0
  9
$UCSORGRIGHT
 10
0.0
 20
0.0
 30
0.0
  9
$UCSORGFRONT
 10
0.0
 20
0.0
 30
0.0
  9
$UCSORGBACK
 10
0.0
 20
0.0
 30
0.0
  9
$PUCSBASE
  2

  9
$PUCSNAME
  2

  9
$PUCSORG
 10
0.0
 20
0.0
 30
0.0
  9
$PUCSXDIR
 10
1.0
 20
0.0
 30
0.0
  9
$PUCSYDIR
 10
0.0
 20
1.0
 30
0.0
  9
$PUCSORTHOREF
  2

  9
$PUCSORTHOVIEW
 70
     0
  9
$PUCSORGTOP
 10
0.0
 20
0.0
 30
0.0
  9
$PUCSORGBOTTOM
 10
0.0
 20
0.0
 30
0.0
  9
$PUCSORGLEFT
 10
0.0
 20
0.0
 30
0.0
  9
$PUCSORGRIGHT
 10
0.0
 20
0.0
 30
0.0
  9
$PUCSORGFRONT
 10
0.0
 20
0.0
 30
0.0
  9
$PUCSORGBACK
 10
0.0
 20
0.0
 30
0.0
  9
$USERI1
 70
     0
  9
$USERI2
 70
     0
  9
$USERI3
 70
     0
  9
$USERI4
 70
     0
  9
$USERI5
 70
     0
  9
$USERR1
 40
0.0
  9
$USERR2
 40
0.0
  9
$USERR3
 40
0.0
  9
$USERR4
 40
0.0
  9
$USERR5
 40
0.0
  9
$WORLDVIEW
 70
     1
  9
$SHADEDGE
 70
     3
  9
$SHADEDIF
 70
    70
  9
$TILEMODE
 70
     1
  9
$MAXACTVP
 70
    64
  9
$PINSBASE
 10
0.0
 20
0.0
 30
0.0
  9
$PLIMCHECK
 70
     0
  9
$PEXTMIN
 10
1.000000000000000E+20
 20
1.000000000000000E+20
 30
1.000000000000000E+20
  9
$PEXTMAX
 10
-1.000000000000000E+20
 20
-1.000000000000000E+20
 30
-1.000000000000000E+20
  9
$PLIMMIN
 10
0.0
 20
0.0
  9
$PLIMMAX
 10
0.0
 20
0.0
  9
$UNITMODE
 70
     0
  9
$VISRETAIN
 70
     1
  9
$PLINEGEN
 70
     0
  9
$PSLTSCALE
 70
     1
  9
$TREEDEPTH
 70
  3020
  9
$CMLSTYLE
  2
Standard
  9
$CMLJUST
 70
     0
  9
$CMLSCALE
 40
1.0
  9
$PROXYGRAPHICS
 70
     1
  9
$MEASUREMENT
 70
     0
  9
$CELWEIGHT
370
    -1
  9
$ENDCAPS
280
     0
  9
$JOINSTYLE
280
     0
  9
$LWDISPLAY
290
     0
  9
$INSUNITS
 70
     0
  9
$HYPERLINKBASE
  1

  9
$STYLESHEET
  1

  9
$XEDIT
290
     1
  9
$CEPSNTYPE
380
     0
  9
$PSTYLEMODE
290
     1
  9
$FINGERPRINTGUID
  2
{ab29d9e0-b5e7-4a3d-8b35-8b490f3ef383}
  9
$VERSIONGUID
  2
{FAEB1C32-E019-11D5-929B-00C0DF256EC4}
  9
$EXTNAMES
290
     1
  9
$PSVPSCALE
 40
0.0
  9
$OLESTARTUP
290
     0
  9
$SORTENTS
280
   127
  9
$INDEXCTL
280
     0
  9
$HIDETEXT
280
     1
  9
$XCLIPFRAME
290
     0
  9
$HALOGAP
280
     0
  9
$OBSCOLOR
 70
   257
  9
$OBSLTYPE
280
     0
  9
$INTERSECTIONDISPLAY
280
     0
  9
$INTERSECTIONCOLOR
 70
   257
  9
$DIMASSOC
280
     2
  9
$PROJECTNAME
  1

  9
$CAMERADISPLAY
290
     0
  9
$LENSLENGTH
 40
50.0
  9
$CAMERAHEIGHT
 40
0.0
  9
$STEPSPERSEC
 40
2.0
  9
$STEPSIZE
 40
6.0
  9
$3DDWFPREC
 40
2.0
  9
$PSOLWIDTH
 40
0.25
  9
$PSOLHEIGHT
 40
4.0
  9
$LOFTANG1
 40
1.570796326794897
  9
$LOFTANG2
 40
1.570796326794897
  9
$LOFTMAG1
 40
0.0
  9
$LOFTMAG2
 40
0.0
  9
$LOFTPARAM
 70
     7
  9
$LOFTNORMALS
280
     1
  9
$LATITUDE
 40
37.795
  9
$LONGITUDE
 40
-122.394
  9
$NORTHDIRECTION
 40
0.0
  9
$TIMEZONE
 70
 -8000
  9
$LIGHTGLYPHDISPLAY
280
     1
  9
$TILEMODELIGHTSYNCH
280
     1
  9
$SOLIDHIST
280
     0
  9
$SHOWHIST
280
     1
  9
$DWFFRAME
280
     2
  9
$DGNFRAME
280
     2
  9
$REALWORLDSCALE
290
     1
  9
$INTERFERECOLOR
 62
   256
  9
$CSHADOW
280
     0
  9
$SHADOWPLANELOCATION
 40
0.0
  0
ENDSEC
  0
SECTION
  2
CLASSES
  0
CLASS
  1
ACDBDICTIONARYWDFLT
  2
AcDbDictionaryWithDefault
  3
ObjectDBX Classes
 90
        0
 91
        3
280
     0
281
     0
  0
CLASS
  1
MATERIAL
  2
AcDbMaterial
  3
ObjectDBX Classes
 90
     1153
 91
        3
280
     0
281
     0
  0
CLASS
  1
SCALE
  2
AcDbScale
  3
ObjectDBX Classes
 90
     1153
 91
        3
280
     0
281
     0
  0
CLASS
  1
VISUALSTYLE
  2
AcDbVisualStyle
  3
ObjectDBX Classes
 90
     4095
 91
        3
280
     0
281
     0
  0
CLASS
  1
TABLESTYLE
  2
AcDbTableStyle
  3
ObjectDBX Classes
 90
     4095
 91
        3
280
     0
281
     0
  0
CLASS
  1
MLEADERSTYLE
  2
AcDbMLeaderStyle
  3
ACDB_MLEADERSTYLE_CLASS
 90
     4095
 91
        3
280
     0
281
     0
  0
CLASS
  1
DICTIONARYVAR
  2
AcDbDictionaryVar
  3
ObjectDBX Classes
 90
        0
 91
        3
280
     0
281
     0
  0
CLASS
  1
CELLSTYLEMAP
  2
AcDbCellStyleMap
  3
ObjectDBX Classes
 90
     1152
 91
        3
280
     0
281
     0
  0
ENDSEC
  0
SECTION
  2
TABLES
  0
TABLE
  2
VPORT
  5
484
330
0
100
AcDbSymbolTable
 70
     1
  0
VPORT
  5
49B
330
484
100
AcDbSymbolTableRecord
100
AcDbViewportTableRecord
  2
*ACTIVE
 70
     0
 10
0.0
 20
0.0
 11
1.0
 21
1.0
 12
297.0
 22
420.5
 13
0.0
 23
0.0
 14
10.0
 24
10.0
 15
10.0
 25
10.0
 16
0.0
 26
0.0
 36
1.0
 17
0.0
 27
0.0
 37
0.0
 40
841.0
 41
0.7063020214
 42
50.0
 43
0.0
 44
0.0
 50
0.0
 51
0.0
 71
     0
 72
  2000
 73
     1
 74
     3
 75
     0
 76
     0
 77
     0
 78
     0
281
     0
 65
     0
110
0.0
120
0.0
130
0.0
111
1.0
121
0.0
131
0.0
112
0.0
122
1.0
132
0.0
 79
     0
146
0.0
348
4D8
 60
     3
 61
     5
292
     1
282
     1
141
0.0
142
0.0
 63
   250
  0
ENDTAB
  0
TABLE
  2
LTYPE
  5
481
330
0
100
AcDbSymbolTable
 70
     6
  0
LTYPE
  5
48F
330
481
100
AcDbSymbolTableRecord
100
AcDbLinetypeTableRecord
  2
ByBlock
 70
     0
  3

 72
    65
 73
     0
 40
0.0
  0
LTYPE
  5
490
330
481
100
AcDbSymbolTableRecord
100
AcDbLinetypeTableRecord
  2
ByLayer
 70
     0
  3

 72
    65
 73
     0
 40
0.0
  0
LTYPE
  5
491
330
481
100
AcDbSymbolTableRecord
100
AcDbLinetypeTableRecord
  2
CONTINUOUS
 70
     0
  3
Solid line
 72
    65
 73
     0
 40
0.0
  0
LTYPE
  5
49D
330
481
100
AcDbSymbolTableRecord
100
AcDbLinetypeTableRecord
  2
HIDDEN
 70
     0
  3
Hidden __ __ __ __ __ __ __ __ __ __ __ __ __ __
 72
    65
 73
     2
 40
1.905
 49
1.27
 74
     0
 49
-0.635
 74
     0
  0
LTYPE
  5
49E
330
481
100
AcDbSymbolTableRecord
100
AcDbLinetypeTableRecord
  2
PHANTOM
 70
     0
  3
Phantom ______  __  __  ______  __  __  ______
 72
    65
 73
     6
 40
12.7
 49
6.35
 74
     0
 49
-1.27
 74
     0
 49
1.27
 74
     0
 49
-1.27
 74
     0
 49
1.27
 74
     0
 49
-1.27
 74
     0
  0
LTYPE
  5
49F
330
481
100
AcDbSymbolTableRecord
100
AcDbLinetypeTableRecord
  2
CENTER
 70
     0
  3
Center ____ _ ____ _ ____ _ ____ _ ____ _ ____
 72
    65
 73
     4
 40
10.16
 49
6.35
 74
     0
 49
-1.27
 74
     0
 49
1.27
 74
     0
 49
-1.27
 74
     0
  0
LTYPE
  5
4A0
330
481
100
AcDbSymbolTableRecord
100
AcDbLinetypeTableRecord
  2
CENTERX2
 70
     0
  3
Center (2x) ________  __  ________  __  _____
 72
    65
 73
     4
 40
20.32
 49
12.7
 74
     0
 49
-2.54
 74
     0
 49
2.54
 74
     0
 49
-2.54
 74
     0
  0
LTYPE
  5
4A1
330
481
100
AcDbSymbolTableRecord
100
AcDbLinetypeTableRecord
  2
DOT2
 70
     0
  3
Dot (.5x) ........................................
 72
    65
 73
     2
 40
0.635
 49
0.0
 74
     0
 49
-0.635
 74
     0
  0
ENDTAB
  0
TABLE
  2
LAYER
  5
47F
330
0
100
AcDbSymbolTable
 70
     1
  0
LAYER
  5
48C
330
47F
100
AcDbSymbolTableRecord
100
AcDbLayerTableRecord
  2
0
 70
     0
 62
     7
  6
CONTINUOUS
370
    -3
390
48B
347
4A6
  0
ENDTAB
  0
TABLE
  2
STYLE
  5
480
330
0
100
AcDbSymbolTable
 70
     1
  0
STYLE
  5
48D
330
480
100
AcDbSymbolTableRecord
100
AcDbTextStyleTableRecord
  2
STANDARD
 70
     0
 40
0.0
 41
1.0
 50
0.0
 71
     0
 42
10.0
  3
txt
  4

  0
ENDTAB
  0
TABLE
  2
VIEW
  5
482
330
0
100
AcDbSymbolTable
 70
     0
  0
ENDTAB
  0
TABLE
  2
UCS
  5
483
330
0
100
AcDbSymbolTable
 70
     0
  0
ENDTAB
  0
TABLE
  2
APPID
  5
485
330
0
100
AcDbSymbolTable
 70
     2
  0
APPID
  5
48E
330
485
100
AcDbSymbolTableRecord
100
AcDbRegAppTableRecord
  2
ACAD
 70
     0
  0
APPID
  5
4F7
330
485
100
AcDbSymbolTableRecord
100
AcDbRegAppTableRecord
  2
ACAD_MLEADERVER
 70
     0
  0
ENDTAB
  0
TABLE
  2
DIMSTYLE
  5
486
330
0
100
AcDbSymbolTable
 70
     2
100
AcDbDimStyleTable
  0
DIMSTYLE
105
4A9
330
486
100
AcDbSymbolTableRecord
100
AcDbDimStyleTableRecord
  2
ISO-25
 70
     0
 41
2.5
 42
0.625
 43
3.75
 44
1.25
 73
     0
 74
     0
 77
     1
 78
     8
140
2.5
141
2.5
143
0.0393700787
147
0.625
171
     3
172
     1
178
     0
340
48D
  0
DIMSTYLE
105
4AA
330
486
100
AcDbSymbolTableRecord
100
AcDbDimStyleTableRecord
  2
SLDDIMSTYLE0
 70
     0
 41
2.5
 44
0.0
 45
0.000000001
 73
     0
 74
     0
 77
     1
 78
    12
140
6.0
147
1.5
173
     1
178
     0
340
48D
  0
ENDTAB
  0
TABLE
  2
BLOCK_RECORD
  5
47E
330
0
100
AcDbSymbolTable
 70
     2
  0
BLOCK_RECORD
  5
498
102
{ACAD_XDICTIONARY
360
4F1
102
}
330
47E
100
AcDbSymbolTableRecord
100
AcDbBlockTableRecord
  2
*Model_Space
340
499
 70
     0
280
     1
281
     0
  0
BLOCK_RECORD
  5
496
330
47E
100
AcDbSymbolTableRecord
100
AcDbBlockTableRecord
  2
*Paper_Space
340
497
 70
     0
280
     1
281
     0
  0
BLOCK_RECORD
  5
4AE
330
47E
100
AcDbSymbolTableRecord
100
AcDbBlockTableRecord
  2
_D
340
0
 70
     0
280
     1
281
     0
  0
BLOCK_RECORD
  5
4B0
330
47E
100
AcDbSymbolTableRecord
100
AcDbBlockTableRecord
  2
_D_1
340
0
 70
     0
280
     1
281
     0
  0
ENDTAB
  0
ENDSEC
  0
SECTION
  2
BLOCKS
  0
BLOCK
  5
4AB
330
498
100
AcDbEntity
  8
0
100
AcDbBlockBegin
  2
*Model_Space
 70
     0
 10
0.0
 20
0.0
 30
0.0
  3
*Model_Space
  1

  0
ENDBLK
  5
21
330
498
100
AcDbEntity
  8
0
100
AcDbBlockEnd
  0
BLOCK
  5
4AC
330
496
100
AcDbEntity
 67
     1
  8
0
100
AcDbBlockBegin
  2
*Paper_Space
 70
     0
 10
0.0
 20
0.0
 30
0.0
  3
*Paper_Space
  1

  0
ENDBLK
  5
1D
330
496
100
AcDbEntity
 67
     1
  8
0
100
AcDbBlockEnd
  0
BLOCK
  5
4AD
330
4AE
100
AcDbEntity
  8
0
100
AcDbBlockBegin
  2
_D
 70
     0
 10
0.0
 20
0.0
 30
0.0
  3
_D
  1

  0
SOLID
  5
7A
330
4AE
100
AcDbEntity
  8
0
  6
Continuous
 62
     7
100
AcDbTrace
 10
42.7614395004
 20
152.0299240879
 30
0.0
 11
42.4614395004
 21
149.5299240879
 31
0.0
 12
43.0614395004
 22
149.5299240879
 32
0.0
 13
43.0614395004
 23
149.5299240879
 33
0.0
  0
SOLID
  5
7B
330
4AE
100
AcDbEntity
  8
0
  6
Continuous
 62
     7
100
AcDbTrace
 10
42.7614395004
 20
52.0299240879
 30
0.0
 11
43.0614395004
 21
54.5299240879
 31
0.0
 12
42.4614395004
 22
54.5299240879
 32
0.0
 13
42.4614395004
 23
54.5299240879
 33
0.0
  0
LINE
  5
7C
330
4AE
100
AcDbEntity
  8
0
  6
Continuous
 62
     7
100
AcDbLine
 10
56.6850079902
 20
152.0299240879
 30
0.0
 11
41.7614395004
 21
152.0299240879
 31
0.0
  0
LINE
  5
7D
330
4AE
100
AcDbEntity
  8
0
  6
Continuous
 62
     7
100
AcDbLine
 10
56.6850079902
 20
52.0299240879
 30
0.0
 11
41.7614395004
 21
52.0299240879
 31
0.0
  0
LINE
  5
7E
330
4AE
100
AcDbEntity
  8
0
  6
Continuous
 62
     7
100
AcDbLine
 10
42.7614395004
 20
152.0299240879
 30
0.0
 11
42.7614395004
 21
52.0299240879
 31
0.0
  0
TEXT
  5
7F
330
4AE
100
AcDbEntity
  8
0
  6
Continuous
 62
     7
100
AcDbText
 10
39.7614397332
 20
94.3680541463
 30
0.0
 40
6.0
  1
100
 50
90.0
 41
0.7
 11
42.7614397332
 21
94.3680541463
 31
0.0
100
AcDbText
 73
     1
  0
TEXT
  5
80
330
4AE
100
AcDbEntity
  8
0
  6
Continuous
 62
     7
100
AcDbText
 10
39.7614397332
 20
105.7430548466
 30
0.0
 40
6.0
  1
mm
 50
90.0
 41
0.7
 11
42.7614397332
 21
105.7430548466
 31
0.0
100
AcDbText
 73
     1
  0
ENDBLK
  5
79
330
4AE
100
AcDbEntity
  8
0
100
AcDbBlockEnd
  0
BLOCK
  5
4AF
330
4B0
100
AcDbEntity
  8
0
100
AcDbBlockBegin
  2
_D_1
 70
     0
 10
0.0
 20
0.0
 30
0.0
  3
_D_1
  1

  0
SOLID
  5
85
330
4B0
100
AcDbEntity
  8
0
  6
Continuous
 62
     7
100
AcDbTrace
 10
56.6850079902
 20
38.4602342313
 30
0.0
 11
59.1850079902
 21
38.1602342313
 31
0.0
 12
59.1850079902
 22
38.7602342313
 32
0.0
 13
59.1850079902
 23
38.7602342313
 33
0.0
  0
SOLID
  5
86
330
4B0
100
AcDbEntity
  8
0
  6
Continuous
 62
     7
100
AcDbTrace
 10
156.6850079902
 20
38.4602342313
 30
0.0
 11
154.1850079902
 21
38.7602342313
 31
0.0
 12
154.1850079902
 22
38.1602342313
 32
0.0
 13
154.1850079902
 23
38.1602342313
 33
0.0
  0
LINE
  5
87
330
4B0
100
AcDbEntity
  8
0
  6
Continuous
 62
     7
100
AcDbLine
 10
56.6850079902
 20
52.0299240879
 30
0.0
 11
56.6850079902
 21
37.4602342313
 31
0.0
  0
LINE
  5
88
330
4B0
100
AcDbEntity
  8
0
  6
Continuous
 62
     7
100
AcDbLine
 10
156.6850079902
 20
52.0299240879
 30
0.0
 11
156.6850079902
 21
37.4602342313
 31
0.0
  0
LINE
  5
89
330
4B0
100
AcDbEntity
  8
0
  6
Continuous
 62
     7
100
AcDbLine
 10
56.6850079902
 20
38.4602342313
 30
0.0
 11
156.6850079902
 21
38.4602342313
 31
0.0
  0
TEXT
  5
8A
330
4B0
100
AcDbEntity
  8
0
  6
Continuous
 62
     7
100
AcDbText
 10
93.9626484861
 20
41.4602339984
 30
0.0
 40
6.0
  1
100
 41
0.7
 11
93.9626484861
 21
38.4602339984
 31
0.0
100
AcDbText
 73
     1
  0
TEXT
  5
8B
330
4B0
100
AcDbEntity
  8
0
  6
Continuous
 62
     7
100
AcDbText
 10
105.3376491864
 20
41.4602339984
 30
0.0
 40
6.0
  1
mm
 41
0.7
 11
105.3376491864
 21
38.4602339984
 31
0.0
100
AcDbText
 73
     1
  0
ENDBLK
  5
84
330
4B0
100
AcDbEntity
  8
0
100
AcDbBlockEnd
  0
ENDSEC
  0
SECTION
  2
ENTITIES
  0
LINE
  5
73
330
498
100
AcDbEntity
  8
0
  6
Continuous
 62
     7
100
AcDbLine
 10
56.6850079902
 20
152.0299240879
 30
0.0
 11
56.6850079902
 21
52.0299240879
 31
0.0
  0
LINE
  5
74
330
498
100
AcDbEntity
  8
0
  6
Continuous
 62
     7
100
AcDbLine
 10
56.6850079902
 20
52.0299240879
 30
0.0
 11
156.6850079902
 21
52.0299240879
 31
0.0
  0
DIMENSION
  5
75
330
498
100
AcDbEntity
  8
0
  6
Continuous
 62
     7
100
AcDbDimension
  2
_D
 10
42.7614395004
 20
52.0299240879
 30
0.0
 11
42.7614395004
 21
105.4472211621
 31
0.0
 70
   160
  1
<>mm
 71
     5
 42
-1.0
 73
     0
 74
     0
 75
     0
  3
SLDDIMSTYLE0
100
AcDbAlignedDimension
 13
56.6850079902
 23
152.0299240879
 33
0.0
 14
56.6850079902
 24
52.0299240879
 34
0.0
 50
90.0
100
AcDbRotatedDimension
  0
DIMENSION
  5
81
330
498
100
AcDbEntity
  8
0
  6
Continuous
 62
     7
100
AcDbDimension
  2
_D_1
 10
156.6850079902
 20
38.4602342313
 30
0.0
 11
105.0418155019
 21
38.4602342313
 31
0.0
 70
   160
  1
<>mm
 71
     5
 42
-1.0
 73
     0
 74
     0
 75
     0
  3
SLDDIMSTYLE0
100
AcDbAlignedDimension
 13
56.6850079902
 23
52.0299240879
 33
0.0
 14
156.6850079902
 24
52.0299240879
 34
0.0
100
AcDbRotatedDimension
  0
TEXT
  5
8C
330
498
100
AcDbEntity
  8
0
  6
Continuous
 62
     7
100
AcDbText
 10
412.8252631579
 20
40.5435675522
 30
0.0
 40
10.0
  1
KLUDI GmbH & Co KG
 41
0.6222222222
 11
412.8252631579
 21
35.5435675522
 31
0.0
100
AcDbText
 73
     1
  0
TEXT
  5
8D
330
498
100
AcDbEntity
  8
0
  6
Continuous
 62
     7
100
AcDbText
 10
210.0873490389
 20
40.5435675522
 30
0.0
 40
10.0
  1
48 998 .. 65
 41
0.6125
 11
210.0873490389
 21
35.5435675522
 31
0.0
100
AcDbText
 73
     1
  0
ARC
  5
8E
330
498
100
AcDbEntity
  8
0
  6
Continuous
 62
     7
100
AcDbCircle
 10
222.892703846
 20
424.2639677949
 30
0.0
 40
0.3000000000000398
100
AcDbArc
 50
180.0
 51
270.0
  0
ARC
  5
8F
330
498
100
AcDbEntity
  8
0
  6
Continuous
 62
     7
100
AcDbCircle
 10
250.292703846
 20
424.2639677949
 30
0.0
 40
0.3000000000000114
100
AcDbArc
 50
270.0
 51
0.0
  0
LINE
  5
90
330
498
100
AcDbEntity
  8
0
  6
Continuous
 62
     7
100
AcDbLine
 10
222.592706111
 20
508.7185028617
 30
0.0
 11
222.592706111
 21
424.2639682863
 31
0.0
  0
LINE
  5
91
330
498
100
AcDbEntity
  8
0
  6
Continuous
 62
     7
100
AcDbLine
 10
250.59270325
 20
424.2639682863
 30
0.0
 11
250.59270325
 21
508.8203150455
 31
0.0
  0
LWPOLYLINE
  5
92
330
498
100
AcDbEntity
  8
0
  6
Continuous
 62
     7
100
AcDbPolyline
 90
        5
 70
   128
 43
0.0
 10
251.7968511849
 20
265.9911561434
 10
248.9582544833
 20
295.8246517603
 10
246.6136387258
 20
326.8817711298
 10
244.9035218626
 20
358.1173021023
 10
243.9052707224
 20
388.466503625
  0
LINE
  5
93
330
498
100
AcDbEntity
  8
0
  6
Continuous
 62
     7
100
AcDbLine
 10
225.0927037268
 20
418.4639669631
 30
0.0
 11
226.022044447
 21
400.7310921527
 31
0.0
  0
LINE
  5
94
330
498
100
AcDbEntity
  8
0
  6
Continuous
 62
     7
100
AcDbLine
 10
247.7549857169
 20
412.0199374531
 30
0.0
 11
248.0927056342
 21
418.4639669631
 31
0.0
  0
LWPOLYLINE
  5
95
330
498
100
AcDbEntity
  8
0
  6
Continuous
 62
     7
100
AcDbPolyline
 90
        4
 70
   128
 43
0.0
 10
247.0165884762
 20
418.4550262664
 10
247.0668053895
 20
418.5646075432
 10
247.0382100611
 20
418.7262590651
 10
246.9204014807
 20
418.8403460805
  0
LINE
  5
96
330
498
100
AcDbEntity
  8
0
  6
Continuous
 62
     7
100
AcDbLine
 10
226.1152065068
 20
423.9639669333
 30
0.0
 11
226.1152065068
 21
418.4639669631
 31
0.0
  0
LINE
  5
97
330
498
100
AcDbEntity
  8
0
  6
Continuous
 62
     7
100
AcDbLine
 10
247.0702028542
 20
419.5104363982
 30
0.0
 11
247.0702028542
 21
423.9639669333
 31
0.0
  0
LINE
  5
98
330
498
100
AcDbEntity
  8
0
  6
Continuous
 62
     7
100
AcDbLine
 10
226.1048054963
 20
399.1518485502
 30
0.0
 11
226.6649401455
 21
388.4639676337
 31
0.0
  0
LWPOLYLINE
  5
99
330
498
100
AcDbEntity
  8
0
  6
Continuous
 62
     7
100
AcDbPolyline
 90
        3
 70
   128
 43
0.0
 10
246.9194180041
 20
418.84085272
 10
246.471943584
 20
419.0741527502
 10
246.0245362192
 20
419.3074527804
  0
LWPOLYLINE
  5
9A
330
498
100
AcDbEntity
  8
0
  6
Continuous
 62
     7
100
AcDbPolyline
 90
        3
 70
   128
 43
0.0
 10
246.0256016522
 20
419.3069033001
 10
245.9402179986
 20
419.3899251197
 10
245.9082028537
 20
419.5104363982
  0
LINE
  5
9B
330
498
100
AcDbEntity
  8
0
  6
Continuous
 62
     7
100
AcDbLine
 10
246.5204692154
 20
388.4639676337
 30
0.0
 11
246.5766167908
 21
389.5352894117
 31
0.0
  0
LWPOLYLINE
  5
9C
330
498
100
AcDbEntity
  8
0
  6
Continuous
 62
     7
100
AcDbPolyline
 90
        5
 70
   128
 43
0.0
 10
229.9723720818
 20
388.4620928813
 10
230.9949717193
 20
357.3930907671
 10
232.7324247628
 20
325.7191750829
 10
235.1144051819
 20
294.2428636972
 10
237.8431058198
 20
265.6390715067
  0
ARC
  5
9D
330
498
100
AcDbEntity
  8
0
  6
Continuous
 62
     7
100
AcDbCircle
 10
226.492703846
 20
399.9639677949
 30
0.0
 40
0.9000000000165246
100
AcDbArc
 50
121.5306666459
 51
244.4693333584
  0
ARC
  5
9E
330
498
100
AcDbEntity
  8
0
  6
Continuous
 62
     7
100
AcDbCircle
 10
242.0089878898
 20
378.7442113344
 30
0.0
 40
14.87499999998381
100
AcDbArc
 50
180.4091047901
 51
208.0724869359
  0
LINE
  5
9F
330
498
100
AcDbEntity
  8
0
  6
Continuous
 62
     7
100
AcDbLine
 10
227.1342692273
 20
378.652725215
 30
0.0
 11
227.1343670729
 21
378.6380013815
 31
0.0
  0
ARC
  5
A0
330
498
100
AcDbEntity
  8
0
  6
Continuous
 62
     7
100
AcDbCircle
 10
242.0089878898
 20
378.7442113344
 30
0.0
 40
14.8749999999838
100
AcDbArc
 50
151.9275130641
 51
180.3523900219
  0
ARC
  5
A1
330
498
100
AcDbEntity
  8
0
  6
Continuous
 62
     7
100
AcDbCircle
 10
238.5589878898
 20
378.7442113344
 30
0.0
 40
14.87499999998378
100
AcDbArc
 50
0.0457795516
 51
28.0724869359
  0
LINE
  5
A2
330
498
100
AcDbEntity
  8
0
  6
Continuous
 62
     7
100
AcDbLine
 10
253.4339876549
 20
378.7468552284
 30
0.0
 11
253.4339831417
 21
378.7560965163
 31
0.0
  0
ARC
  5
A3
330
498
100
AcDbEntity
  8
0
  6
Continuous
 62
     7
100
AcDbCircle
 10
238.5589878898
 20
378.7442113344
 30
0.0
 40
14.87499999998377
100
AcDbArc
 50
331.9275130641001
 51
0.0101837963
  0
LWPOLYLINE
  5
A4
330
498
100
AcDbEntity
  8
0
  6
Continuous
 62
     7
100
AcDbPolyline
 90
        3
 70
   128
 43
0.0
 10
249.750511971
 20
386.5392181699
 10
250.2916923433
 20
386.8214321931
 10
250.8329844742
 20
387.1036462162
  0
LINE
  5
A5
330
498
100
AcDbEntity
  8
0
  6
Continuous
 62
     7
100
AcDbLine
 10
250.8427074819
 20
388.2839196969
 30
0.0
 11
250.8427074819
 21
393.0825899963
 31
0.0
  0
LINE
  5
A6
330
498
100
AcDbEntity
  8
0
  6
Continuous
 62
     7
100
AcDbLine
 10
250.8427074819
 20
387.1161259387
 30
0.0
 11
250.8427074819
 21
387.8943288375
 31
0.0
  0
LWPOLYLINE
  5
A7
330
498
100
AcDbEntity
  8
0
  6
Continuous
 62
     7
100
AcDbPolyline
 90
        4
 70
   128
 43
0.0
 10
250.8194989234
 20
387.9519749109
 10
250.7985180884
 20
387.9818694342
 10
250.7724857598
 20
388.1477752377
 10
250.8175468712
 20
388.2582263697
  0
LINE
  5
A8
330
498
100
AcDbEntity
  8
0
  6
Continuous
 62
     7
100
AcDbLine
 10
249.6855503588
 20
386.4730300058
 30
0.0
 11
249.7576943307
 21
386.5429527734
 31
0.0
  0
ARC
  5
A9
330
498
100
AcDbEntity
  8
0
  6
Continuous
 62
     7
100
AcDbCircle
 10
249.8733904921
 20
386.2849513416
 30
0.0
 40
0.2658147844034733
100
AcDbArc
 50
134.9636442396
 51
244.3680696112
  0
LINE
  5
AA
330
498
100
AcDbEntity
  8
0
  6
Continuous
 62
     7
100
AcDbLine
 10
250.2311936288
 20
385.798735698
 30
0.0
 11
249.7506535321
 21
386.0493192126
 31
0.0
  0
LINE
  5
AB
330
498
100
AcDbEntity
  8
0
  6
Continuous
 62
     7
100
AcDbLine
 10
247.7839908271
 20
358.7442125802
 30
0.0
 11
247.7839908271
 21
371.7442109857
 31
0.0
  0
LINE
  5
AC
330
498
100
AcDbEntity
  8
0
  6
Continuous
 62
     7
100
AcDbLine
 10
239.2443365126
 20
264.8871440117
 30
0.0
 11
240.2402258187
 21
255.7367879574
 31
0.0
  0
ARC
  5
AD
330
498
100
AcDbEntity
  8
0
  6
Continuous
 62
     7
100
AcDbCircle
 10
37.955746172
 20
361.9847443844
 30
0.0
 40
88.3174732391536
100
AcDbArc
 50
1.0874213236
 51
21.3336040678
  0
ARC
  5
AE
330
498
100
AcDbEntity
  8
0
  6
Continuous
 62
     7
100
AcDbCircle
 10
37.7170203523
 20
361.9407556308
 30
0.0
 40
87.10700849024525
100
AcDbArc
 50
1.1095194739
 51
21.3416200953
  0
ARC
  5
AF
330
498
100
AcDbEntity
  8
0
  6
Continuous
 62
     7
100
AcDbCircle
 10
243.4683873398
 20
361.9407556308
 30
0.0
 40
87.10700849024519
100
AcDbArc
 50
158.6583799047
 51
178.8904805261
  0
ARC
  5
B0
330
498
100
AcDbEntity
  8
0
  6
Continuous
 62
     7
100
AcDbCircle
 10
243.2296615201
 20
361.9847443844
 30
0.0
 40
88.31747323915361
100
AcDbArc
 50
158.6663959322
 51
178.9125786764
  0
LWPOLYLINE
  5
B1
330
498
100
AcDbEntity
  8
0
  6
Continuous
 62
     7
100
AcDbPolyline
 90
        3
 70
   128
 43
0.0
 10
154.9280940264
 20
363.6608283643
 10
154.8866678669
 20
361.0016043906
 10
154.8688693612
 20
358.34210102
  0
LINE
  5
B2
330
498
100
AcDbEntity
  8
0
  6
Continuous
 62
     7
100
AcDbLine
 10
154.8688693612
 20
358.34210102
 30
0.0
 11
154.6567867219
 21
317.8376678054
 31
0.0
  0
LWPOLYLINE
  5
B3
330
498
100
AcDbEntity
  8
0
  6
Continuous
 62
     7
100
AcDbPolyline
 90
        9
 70
   128
 43
0.0
 10
154.6567867219
 20
317.8376678054
 10
154.6375251084
 20
317.28630994
 10
154.5926679566
 20
317.0135367338
 10
154.5512669428
 20
316.8812889282
 10
154.5226716145
 20
316.81817506
 10
154.4832915708
 20
316.7609918539
 10
154.4264939322
 20
316.7218092505
 10
153.9600484713
 20
316.6107508962
 10
153.4068037465
 20
316.5942106072
  0
LINE
  5
B4
330
498
100
AcDbEntity
  8
0
  6
Continuous
 62
     7
100
AcDbLine
 10
153.4068037465
 20
316.5942106072
 30
0.0
 11
140.592703846
 21
316.5942106072
 31
0.0
  0
ARC
  5
B5
330
498
100
AcDbEntity
  8
0
  6
Continuous
 62
     7
100
AcDbCircle
 10
140.5927039576
 20
401.1442111758
 30
0.0
 40
21.54999987253619
100
AcDbArc
 50
340.9612252547
 51
90.00000029660002
  0
LINE
  5
B6
330
498
100
AcDbEntity
  8
0
  6
Continuous
 62
     7
100
AcDbLine
 10
127.7786039456
 20
316.5942106072
 30
0.0
 11
140.592703846
 21
316.5942106072
 31
0.0
  0
LWPOLYLINE
  5
B7
330
498
100
AcDbEntity
  8
0
  6
Continuous
 62
     7
100
AcDbPolyline
 90
        9
 70
   128
 43
0.0
 10
126.5286209702
 20
317.8376678054
 10
126.5478825837
 20
317.28630994
 10
126.5927397355
 20
317.0135367338
 10
126.6341407492
 20
316.8812889282
 10
126.6627360775
 20
316.81817506
 10
126.7021161213
 20
316.7609918539
 10
126.7589137598
 20
316.7218092505
 10
127.2253592207
 20
316.6107508962
 10
127.7786039456
 20
316.5942106072
  0
LINE
  5
B8
330
498
100
AcDbEntity
  8
0
  6
Continuous
 62
     7
100
AcDbLine
 10
126.3165383308
 20
358.34210102
 30
0.0
 11
126.5286209702
 21
317.8376678054
 31
0.0
  0
LWPOLYLINE
  5
B9
330
498
100
AcDbEntity
  8
0
  6
Continuous
 62
     7
100
AcDbPolyline
 90
        3
 70
   128
 43
0.0
 10
126.2573136657
 20
363.6608283643
 10
126.2987398251
 20
361.0016043906
 10
126.3165383308
 20
358.34210102
  0
ARC
  5
BA
330
498
100
AcDbEntity
  8
0
  6
Continuous
 62
     7
100
AcDbCircle
 10
140.5927037345
 20
401.1442111758
 30
0.0
 40
21.54999987253617
100
AcDbArc
 50
89.9999997034
 51
199.0387747453
  0
ARC
  5
BB
330
498
100
AcDbEntity
  8
0
  6
Continuous
 62
     7
100
AcDbCircle
 10
127.3351389519
 20
317.3984166801
 30
0.0
 40
2.297415092776717
100
AcDbArc
 50
169.1703868176
 51
281.1295364534
  0
ARC
  5
BC
330
498
100
AcDbEntity
  8
0
  6
Continuous
 62
     7
100
AcDbCircle
 10
153.8502687401
 20
317.3984166801
 30
0.0
 40
2.29741509277673
100
AcDbArc
 50
258.8704635466
 51
10.8296131824
  0
LWPOLYLINE
  5
BD
330
498
100
AcDbEntity
  8
0
  6
Continuous
 62
     7
100
AcDbPolyline
 90
        3
 70
   128
 43
0.0
 10
156.3777106523
 20
363.6274572138
 10
156.3333424448
 20
360.6276821022
 10
156.3188492029
 20
358.3345088784
  0
LINE
  5
BE
330
498
100
AcDbEntity
  8
0
  6
Continuous
 62
     7
100
AcDbLine
 10
156.3188492029
 20
358.3345088784
 30
0.0
 11
156.1067674949
 21
317.8300756638
 31
0.0
  0
LINE
  5
BF
330
498
100
AcDbEntity
  8
0
  6
Continuous
 62
     7
100
AcDbLine
 10
124.8665584891
 20
358.3345088784
 30
0.0
 11
125.0786401971
 21
317.8300756638
 31
0.0
  0
LINE
  5
C0
330
498
100
AcDbEntity
  8
0
  6
Continuous
 62
     7
100
AcDbLine
 10
153.4068037465
 20
315.1442084138
 30
0.0
 11
127.7786039456
 21
315.1442084138
 31
0.0
  0
ARC
  5
C1
330
498
100
AcDbEntity
  8
0
  6
Continuous
 62
     7
100
AcDbCircle
 10
140.592703846
 20
401.1442113344
 30
0.0
 40
23.0
100
AcDbArc
 50
340.9612250535999
 51
199.0387749463999
  0
LINE
  5
C2
330
498
100
AcDbEntity
  8
0
  6
Continuous
 62
     7
100
AcDbLine
 10
124.8076970398
 20
363.6274572138
 30
0.0
 11
124.8665584891
 21
358.3345088784
 31
0.0
  0
LINE
  5
C3
330
498
100
AcDbEntity
  8
0
  6
Continuous
 62
     7
100
AcDbLine
 10
156.3777106523
 20
363.6274572138
 30
0.0
 11
156.3188492029
 21
358.3345088784
 31
0.0
  0
ARC
  5
C4
330
498
100
AcDbEntity
  8
0
  6
Continuous
 62
     7
100
AcDbCircle
 10
140.592703846
 20
401.1442113344
 30
0.0
 40
40.00000000000004
100
AcDbArc
 50
180.0
 51
246.6052357911
  0
ARC
  5
C5
330
498
100
AcDbEntity
  8
0
  6
Continuous
 62
     7
100
AcDbCircle
 10
140.592703846
 20
401.1442113344
 30
0.0
 40
40.00000000000003
100
AcDbArc
 50
293.3790375624
 51
180.0
  0
ARC
  5
C6
330
498
100
AcDbEntity
  8
0
  6
Continuous
 62
     7
100
AcDbCircle
 10
236.592703846
 20
518.4639677949
 30
0.0
 40
8.150000000000052
100
AcDbArc
 50
167.079287171
 51
192.920712829
  0
LWPOLYLINE
  5
C7
330
498
100
AcDbEntity
  8
0
  6
Continuous
 62
     7
100
AcDbPolyline
 90
        9
 70
   128
 43
0.0
 10
228.6490595608
 20
516.6416067306
 10
228.6300456791
 20
516.637248141
 10
228.6117619544
 20
516.6330534641
 10
228.594908741
 20
516.6291866128
 10
228.5801416903
 20
516.6257965986
 10
228.5680195957
 20
516.6230175321
 10
228.5590118437
 20
516.6209462707
 10
228.5534611612
 20
516.619679672
 10
228.5515910655
 20
516.6192475383
  0
ARC
  5
C8
330
498
100
AcDbEntity
  8
0
  6
Continuous
 62
     7
100
AcDbCircle
 10
236.592703846
 20
518.4639677949
 30
0.0
 40
8.250000000000068
100
AcDbArc
 50
167.079287171
 51
192.920712829
  0
LWPOLYLINE
  5
C9
330
498
100
AcDbEntity
  8
0
  6
Continuous
 62
     7
100
AcDbPolyline
 90
        9
 70
   128
 43
0.0
 10
228.6490595608
 20
520.2863264505
 10
228.6300456791
 20
520.2906924908
 10
228.6117619544
 20
520.2948871676
 10
228.594908741
 20
520.298754019
 10
228.5801416903
 20
520.3021365826
 10
228.5680195957
 20
520.3049230997
 10
228.5590118437
 20
520.3069869105
 10
228.5534611612
 20
520.3082609598
 10
228.5515910655
 20
520.3086856429
  0
ARC
  5
CA
330
498
100
AcDbEntity
  8
0
  6
Continuous
 62
     7
100
AcDbCircle
 10
244.4388812593
 20
516.6639677949
 30
0.0
 40
0.2000000000000584
100
AcDbArc
 50
270.0
 51
347.0792871709999
  0
LINE
  5
CB
330
498
100
AcDbEntity
  8
0
  6
Continuous
 62
     7
100
AcDbLine
 10
244.4388813048
 20
516.4639699881
 30
0.0
 11
244.4388813048
 21
516.5639642302
 31
0.0
  0
ARC
  5
CC
330
498
100
AcDbEntity
  8
0
  6
Continuous
 62
     7
100
AcDbCircle
 10
244.4388812593
 20
516.6639677949
 30
0.0
 40
0.1000000000000227
100
AcDbArc
 50
270.0
 51
347.0792871709999
  0
LWPOLYLINE
  5
CD
330
498
100
AcDbEntity
  8
0
  6
Continuous
 62
     7
100
AcDbPolyline
 90
        9
 70
   128
 43
0.0
 10
244.6338182955
 20
516.6192475383
 10
244.6319481998
 20
516.619679672
 10
244.6263975173
 20
516.6209462707
 10
244.6173897653
 20
516.6230175321
 10
244.6052676707
 20
516.6257965986
 10
244.5905006199
 20
516.6291866128
 10
244.5736474066
 20
516.6330534641
 10
244.5553636818
 20
516.637248141
 10
244.5363498002
 20
516.6416067306
  0
ARC
  5
CE
330
498
100
AcDbEntity
  8
0
  6
Continuous
 62
     7
100
AcDbCircle
 10
228.7465264328
 20
516.6639677949
 30
0.0
 40
0.1000000000000227
100
AcDbArc
 50
192.9207128289
 51
270.0
  0
LINE
  5
CF
330
498
100
AcDbEntity
  8
0
  6
Continuous
 62
     7
100
AcDbLine
 10
228.7465280562
 20
516.4639699881
 30
0.0
 11
228.7465280562
 21
516.5639642302
 31
0.0
  0
ARC
  5
D0
330
498
100
AcDbEntity
  8
0
  6
Continuous
 62
     7
100
AcDbCircle
 10
228.7465264328
 20
516.6639677949
 30
0.0
 40
0.2000000000000455
100
AcDbArc
 50
192.920712829
 51
270.0
  0
ARC
  5
D1
330
498
100
AcDbEntity
  8
0
  6
Continuous
 62
     7
100
AcDbCircle
 10
244.4388812593
 20
520.2639677949
 30
0.0
 40
0.100000000000073
100
AcDbArc
 50
12.920712829
 51
90.0
  0
LINE
  5
D2
330
498
100
AcDbEntity
  8
0
  6
Continuous
 62
     7
100
AcDbLine
 10
244.4388813048
 20
520.3639689509
 30
0.0
 11
244.4388813048
 21
520.4639706437
 31
0.0
  0
ARC
  5
D3
330
498
100
AcDbEntity
  8
0
  6
Continuous
 62
     7
100
AcDbCircle
 10
244.4388812593
 20
520.2639677949
 30
0.0
 40
0.2000000000000076
100
AcDbArc
 50
12.920712829
 51
90.0
  0
LWPOLYLINE
  5
D4
330
498
100
AcDbEntity
  8
0
  6
Continuous
 62
     7
100
AcDbPolyline
 90
        9
 70
   128
 43
0.0
 10
244.6338182955
 20
520.3086856429
 10
244.6319481998
 20
520.3082609598
 10
244.6263975173
 20
520.3069869105
 10
244.6173897653
 20
520.3049230997
 10
244.6052676707
 20
520.3021365826
 10
244.5905006199
 20
520.298754019
 10
244.5736474066
 20
520.2948871676
 10
244.5553636818
 20
520.2906924908
 10
244.5363498002
 20
520.2863264505
  0
LINE
  5
D5
330
498
100
AcDbEntity
  8
0
  6
Continuous
 62
     7
100
AcDbLine
 10
244.4388813048
 20
520.3639689509
 30
0.0
 11
228.7465280562
 21
520.3639689509
 31
0.0
  0
LINE
  5
D6
330
498
100
AcDbEntity
  8
0
  6
Continuous
 62
     7
100
AcDbLine
 10
228.7465280562
 20
520.3639689509
 30
0.0
 11
228.7465280562
 21
520.4639706437
 31
0.0
  0
LINE
  5
D7
330
498
100
AcDbEntity
  8
0
  6
Continuous
 62
     7
100
AcDbLine
 10
228.7465280562
 20
520.4639706437
 30
0.0
 11
244.4388813048
 21
520.4639706437
 31
0.0
  0
ARC
  5
D8
330
498
100
AcDbEntity
  8
0
  6
Continuous
 62
     7
100
AcDbCircle
 10
236.592703846
 20
518.4639677949
 30
0.0
 40
8.249999999999956
100
AcDbArc
 50
347.0792871709999
 51
12.920712829
  0
ARC
  5
D9
330
498
100
AcDbEntity
  8
0
  6
Continuous
 62
     7
100
AcDbCircle
 10
236.592703846
 20
518.4639677949
 30
0.0
 40
8.149999999999995
100
AcDbArc
 50
347.0792871709999
 51
12.920712829
  0
ARC
  5
DA
330
498
100
AcDbEntity
  8
0
  6
Continuous
 62
     7
100
AcDbCircle
 10
228.7465264328
 20
520.2639677949
 30
0.0
 40
0.1000000000000227
100
AcDbArc
 50
90.0
 51
167.079287171
  0
ARC
  5
DB
330
498
100
AcDbEntity
  8
0
  6
Continuous
 62
     7
100
AcDbCircle
 10
228.7465264328
 20
520.2639677949
 30
0.0
 40
0.2000000000000352
100
AcDbArc
 50
90.0
 51
167.079287171
  0
LINE
  5
DC
330
498
100
AcDbEntity
  8
0
  6
Continuous
 62
     7
100
AcDbLine
 10
244.4388813048
 20
516.4639699881
 30
0.0
 11
228.7465280562
 21
516.4639699881
 31
0.0
  0
LINE
  5
DD
330
498
100
AcDbEntity
  8
0
  6
Continuous
 62
     7
100
AcDbLine
 10
228.7465280562
 20
516.5639642302
 30
0.0
 11
244.4388813048
 21
516.5639642302
 31
0.0
  0
CIRCLE
  5
DE
330
498
100
AcDbEntity
  8
0
  6
Continuous
 62
     7
100
AcDbCircle
 10
236.592703846
 20
518.4639677949
 30
0.0
 40
16.0
  0
CIRCLE
  5
DF
330
498
100
AcDbEntity
  8
0
  6
Continuous
 62
     7
100
AcDbCircle
 10
236.592703846
 20
518.4639677949
 30
0.0
 40
17.0
  0
CIRCLE
  5
E0
330
498
100
AcDbEntity
  8
0
  6
Continuous
 62
     7
100
AcDbCircle
 10
236.592703846
 20
518.4639677949
 30
0.0
 40
15.0
  0
CIRCLE
  5
E1
330
498
100
AcDbEntity
  8
0
  6
Continuous
 62
     7
100
AcDbCircle
 10
236.592703846
 20
518.4639677949
 30
0.0
 40
9.0
  0
LINE
  5
E2
330
498
100
AcDbEntity
  8
0
  6
Continuous
 62
     7
100
AcDbLine
 10
240.4837852984
 20
529.1644382898
 30
0.0
 11
240.1011011272
 21
528.2405662958
 31
0.0
  0
LINE
  5
E3
330
498
100
AcDbEntity
  8
0
  6
Continuous
 62
     7
100
AcDbLine
 10
240.1011011272
 20
528.2405662958
 30
0.0
 11
241.0249805718
 21
527.857874674
 31
0.0
  0
LINE
  5
E4
330
498
100
AcDbEntity
  8
0
  6
Continuous
 62
     7
100
AcDbLine
 10
241.407664743
 20
528.7817615692
 30
0.0
 11
240.4837852984
 21
529.1644382898
 31
0.0
  0
LINE
  5
E5
330
498
100
AcDbEntity
  8
0
  6
Continuous
 62
     7
100
AcDbLine
 10
242.5119301944
 20
526.9993889753
 30
0.0
 11
243.3052829175
 21
526.3906318371
 31
0.0
  0
LINE
  5
E6
330
498
100
AcDbEntity
  8
0
  6
Continuous
 62
     7
100
AcDbLine
 10
243.3052829175
 20
526.3906318371
 30
0.0
 11
243.9140400558
 21
527.1839845602
 31
0.0
  0
LINE
  5
E7
330
498
100
AcDbEntity
  8
0
  6
Continuous
 62
     7
100
AcDbLine
 10
243.1206873327
 20
527.7927416985
 30
0.0
 11
242.5119301944
 21
526.9993889753
 31
0.0
  0
LINE
  5
E8
330
498
100
AcDbEntity
  8
0
  6
Continuous
 62
     7
100
AcDbLine
 10
244.5193624764
 20
525.1765448276
 30
0.0
 11
245.1281270652
 21
524.3831921045
 31
0.0
  0
LINE
  5
E9
330
498
100
AcDbEntity
  8
0
  6
Continuous
 62
     7
100
AcDbLine
 10
245.1281270652
 20
524.3831921045
 30
0.0
 11
245.9214797884
 21
524.9919492428
 31
0.0
  0
LINE
  5
EA
330
498
100
AcDbEntity
  8
0
  6
Continuous
 62
     7
100
AcDbLine
 10
245.3127151995
 20
525.7853094165
 30
0.0
 11
244.5193624764
 21
525.1765448276
 31
0.0
  0
LINE
  5
EB
330
498
100
AcDbEntity
  8
0
  6
Continuous
 62
     7
100
AcDbLine
 10
245.9866127639
 20
522.8962499325
 30
0.0
 11
246.3692969351
 21
521.9723704879
 31
0.0
  0
LINE
  5
EC
330
498
100
AcDbEntity
  8
0
  6
Continuous
 62
     7
100
AcDbLine
 10
246.3692969351
 20
521.9723704879
 30
0.0
 11
247.2931763797
 21
522.3550546591
 31
0.0
  0
LINE
  5
ED
330
498
100
AcDbEntity
  8
0
  6
Continuous
 62
     7
100
AcDbLine
 10
246.9104922085
 20
523.2789341037
 30
0.0
 11
245.9866127639
 21
522.8962499325
 31
0.0
  0
LINE
  5
EE
330
498
100
AcDbEntity
  8
0
  6
Continuous
 62
     7
100
AcDbLine
 10
247.8051281243
 20
516.483512861
 30
0.0
 11
247.9356548458
 21
517.4749541704
 31
0.0
  0
LINE
  5
EF
330
498
100
AcDbEntity
  8
0
  6
Continuous
 62
     7
100
AcDbLine
 10
245.9214797884
 20
511.9359839384
 30
0.0
 11
245.1281270652
 21
512.5447410767
 31
0.0
  0
LINE
  5
F0
330
498
100
AcDbEntity
  8
0
  6
Continuous
 62
     7
100
AcDbLine
 10
243.3052829175
 20
510.5373087947
 30
0.0
 11
242.5119301944
 21
509.9285442059
 31
0.0
  0
LINE
  5
F1
330
498
100
AcDbEntity
  8
0
  6
Continuous
 62
     7
100
AcDbLine
 10
243.1206873327
 20
509.1351914827
 30
0.0
 11
243.9140400558
 21
509.7439560716
 31
0.0
  0
LINE
  5
F2
330
498
100
AcDbEntity
  8
0
  6
Continuous
 62
     7
100
AcDbLine
 10
243.9140400558
 20
509.7439560716
 30
0.0
 11
243.3052829175
 21
510.5373087947
 31
0.0
  0
LINE
  5
F3
330
498
100
AcDbEntity
  8
0
  6
Continuous
 62
     7
100
AcDbLine
 10
241.0249805718
 20
509.0700585072
 30
0.0
 11
240.1011011272
 21
508.687374336
 31
0.0
  0
LINE
  5
F4
330
498
100
AcDbEntity
  8
0
  6
Continuous
 62
     7
100
AcDbLine
 10
240.1011011272
 20
508.687374336
 30
0.0
 11
240.4837852984
 21
507.7634948914
 31
0.0
  0
LINE
  5
F5
330
498
100
AcDbEntity
  8
0
  6
Continuous
 62
     7
100
AcDbLine
 10
240.4837852984
 20
507.7634948914
 30
0.0
 11
241.407664743
 21
508.1461790626
 31
0.0
  0
LINE
  5
F6
330
498
100
AcDbEntity
  8
0
  6
Continuous
 62
     7
100
AcDbLine
 10
241.407664743
 20
508.1461790626
 30
0.0
 11
241.0249805718
 21
509.0700585072
 31
0.0
  0
LINE
  5
F7
330
498
100
AcDbEntity
  8
0
  6
Continuous
 62
     7
100
AcDbLine
 10
237.5817171007
 20
507.1210164253
 30
0.0
 11
238.5731584101
 21
507.2515431468
 31
0.0
  0
LINE
  5
F8
330
498
100
AcDbEntity
  8
0
  6
Continuous
 62
     7
100
AcDbLine
 10
238.5731584101
 20
507.2515431468
 30
0.0
 11
238.4426391392
 21
508.2429919068
 31
0.0
  0
LINE
  5
F9
330
498
100
AcDbEntity
  8
0
  6
Continuous
 62
     7
100
AcDbLine
 10
233.0843007832
 20
508.687374336
 30
0.0
 11
232.1604213386
 21
509.0700585072
 31
0.0
  0
LINE
  5
FA
330
498
100
AcDbEntity
  8
0
  6
Continuous
 62
     7
100
AcDbLine
 10
232.1604213386
 20
509.0700585072
 30
0.0
 11
231.7777371674
 21
508.1461790626
 31
0.0
  0
LINE
  5
FB
330
498
100
AcDbEntity
  8
0
  6
Continuous
 62
     7
100
AcDbLine
 10
231.7777371674
 20
508.1461790626
 30
0.0
 11
232.701616612
 21
507.7634948914
 31
0.0
  0
LINE
  5
FC
330
498
100
AcDbEntity
  8
0
  6
Continuous
 62
     7
100
AcDbLine
 10
232.701616612
 20
507.7634948914
 30
0.0
 11
233.0843007832
 21
508.687374336
 31
0.0
  0
LINE
  5
FD
330
498
100
AcDbEntity
  8
0
  6
Continuous
 62
     7
100
AcDbLine
 10
228.0572822958
 20
512.5447410767
 30
0.0
 11
227.2639295726
 21
511.9359839384
 31
0.0
  0
LINE
  5
FE
330
498
100
AcDbEntity
  8
0
  6
Continuous
 62
     7
100
AcDbLine
 10
227.2639295726
 20
511.9359839384
 30
0.0
 11
227.8726867109
 21
511.1426312153
 31
0.0
  0
LINE
  5
FF
330
498
100
AcDbEntity
  8
0
  6
Continuous
 62
     7
100
AcDbLine
 10
227.8726867109
 20
511.1426312153
 30
0.0
 11
228.6660468846
 21
511.7513883535
 31
0.0
  0
LINE
  5
100
330
498
100
AcDbEntity
  8
0
  6
Continuous
 62
     7
100
AcDbLine
 10
229.8801264434
 20
526.3906318371
 30
0.0
 11
230.6734791666
 21
526.9993889753
 31
0.0
  0
LINE
  5
101
330
498
100
AcDbEntity
  8
0
  6
Continuous
 62
     7
100
AcDbLine
 10
230.6734791666
 20
526.9993889753
 30
0.0
 11
230.0647220283
 21
527.7927416985
 31
0.0
  0
LINE
  5
102
330
498
100
AcDbEntity
  8
0
  6
Continuous
 62
     7
100
AcDbLine
 10
230.0647220283
 20
527.7927416985
 30
0.0
 11
229.2713693052
 21
527.1839845602
 31
0.0
  0
LINE
  5
103
330
498
100
AcDbEntity
  8
0
  6
Continuous
 62
     7
100
AcDbLine
 10
229.2713693052
 20
527.1839845602
 30
0.0
 11
229.8801264434
 21
526.3906318371
 31
0.0
  0
LINE
  5
104
330
498
100
AcDbEntity
  8
0
  6
Continuous
 62
     7
100
AcDbLine
 10
232.1604213386
 20
527.857874674
 30
0.0
 11
233.0843007832
 21
528.2405662958
 31
0.0
  0
LINE
  5
105
330
498
100
AcDbEntity
  8
0
  6
Continuous
 62
     7
100
AcDbLine
 10
232.701616612
 20
529.1644382898
 30
0.0
 11
231.7777371674
 21
528.7817615692
 31
0.0
  0
LINE
  5
106
330
498
100
AcDbEntity
  8
0
  6
Continuous
 62
     7
100
AcDbLine
 10
231.7777371674
 20
528.7817615692
 30
0.0
 11
232.1604213386
 21
527.857874674
 31
0.0
  0
LINE
  5
107
330
498
100
AcDbEntity
  8
0
  6
Continuous
 62
     7
100
AcDbLine
 10
234.7427702218
 20
528.6849487249
 30
0.0
 11
235.7342189818
 21
528.8154679958
 31
0.0
  0
LINE
  5
108
330
498
100
AcDbEntity
  8
0
  6
Continuous
 62
     7
100
AcDbLine
 10
234.6122435003
 20
529.6763825838
 30
0.0
 11
234.7427702218
 21
528.6849487249
 31
0.0
  0
LINE
  5
109
330
498
100
AcDbEntity
  8
0
  6
Continuous
 62
     7
100
AcDbLine
 10
237.4511903792
 20
528.8154679958
 30
0.0
 11
238.4426391392
 21
528.6849487249
 31
0.0
  0
LINE
  5
10A
330
498
100
AcDbEntity
  8
0
  6
Continuous
 62
     7
100
AcDbLine
 10
238.4426391392
 20
528.6849487249
 30
0.0
 11
238.5731584101
 21
529.6763825838
 31
0.0
  0
LINE
  5
10B
330
498
100
AcDbEntity
  8
0
  6
Continuous
 62
     7
100
AcDbLine
 10
238.5731584101
 20
529.6763825838
 30
0.0
 11
237.5817171007
 21
529.8069167559
 31
0.0
  0
LINE
  5
10C
330
498
100
AcDbEntity
  8
0
  6
Continuous
 62
     7
100
AcDbLine
 10
237.5817171007
 20
529.8069167559
 30
0.0
 11
237.4511903792
 21
528.8154679958
 31
0.0
  0
LINE
  5
10D
330
498
100
AcDbEntity
  8
0
  6
Continuous
 62
     7
100
AcDbLine
 10
227.8726867109
 20
525.7853094165
 30
0.0
 11
227.2639295726
 21
524.9919492428
 31
0.0
  0
LINE
  5
10E
330
498
100
AcDbEntity
  8
0
  6
Continuous
 62
     7
100
AcDbLine
 10
227.2639295726
 20
524.9919492428
 30
0.0
 11
228.0572822958
 21
524.3831921045
 31
0.0
  0
LINE
  5
10F
330
498
100
AcDbEntity
  8
0
  6
Continuous
 62
     7
100
AcDbLine
 10
235.6036922603
 20
529.8069167559
 30
0.0
 11
234.6122435003
 21
529.6763825838
 31
0.0
  0
LINE
  5
110
330
498
100
AcDbEntity
  8
0
  6
Continuous
 62
     7
100
AcDbLine
 10
247.8051281243
 20
520.4444277708
 30
0.0
 11
246.8136793643
 21
520.3139010493
 31
0.0
  0
LINE
  5
111
330
498
100
AcDbEntity
  8
0
  6
Continuous
 62
     7
100
AcDbLine
 10
227.1987965971
 20
522.8962499325
 30
0.0
 11
226.2749171525
 21
523.2789341037
 31
0.0
  0
LINE
  5
112
330
498
100
AcDbEntity
  8
0
  6
Continuous
 62
     7
100
AcDbLine
 10
226.2749171525
 20
523.2789341037
 30
0.0
 11
225.8922329813
 21
522.3550546591
 31
0.0
  0
LINE
  5
113
330
498
100
AcDbEntity
  8
0
  6
Continuous
 62
     7
100
AcDbLine
 10
225.8922329813
 20
522.3550546591
 30
0.0
 11
226.8161124259
 21
521.9723704879
 31
0.0
  0
LINE
  5
114
330
498
100
AcDbEntity
  8
0
  6
Continuous
 62
     7
100
AcDbLine
 10
247.2931763797
 20
522.3550546591
 30
0.0
 11
246.9104922085
 21
523.2789341037
 31
0.0
  0
LINE
  5
115
330
498
100
AcDbEntity
  8
0
  6
Continuous
 62
     7
100
AcDbLine
 10
226.2412032753
 20
519.3224522893
 30
0.0
 11
226.3717299967
 21
520.3139010493
 31
0.0
  0
LINE
  5
116
330
498
100
AcDbEntity
  8
0
  6
Continuous
 62
     7
100
AcDbLine
 10
226.3717299967
 20
520.3139010493
 30
0.0
 11
225.3802812367
 21
520.4444277708
 31
0.0
  0
LINE
  5
117
330
498
100
AcDbEntity
  8
0
  6
Continuous
 62
     7
100
AcDbLine
 10
225.3802812367
 20
520.4444277708
 30
0.0
 11
225.2497545152
 21
519.4529790108
 31
0.0
  0
LINE
  5
118
330
498
100
AcDbEntity
  8
0
  6
Continuous
 62
     7
100
AcDbLine
 10
225.2497545152
 20
519.4529790108
 30
0.0
 11
226.2412032753
 21
519.3224522893
 31
0.0
  0
LINE
  5
119
330
498
100
AcDbEntity
  8
0
  6
Continuous
 62
     7
100
AcDbLine
 10
245.9214797884
 20
524.9919492428
 30
0.0
 11
245.3127151995
 21
525.7853094165
 31
0.0
  0
LINE
  5
11A
330
498
100
AcDbEntity
  8
0
  6
Continuous
 62
     7
100
AcDbLine
 10
226.3717299967
 20
516.6140395824
 30
0.0
 11
226.2412032753
 21
517.6054808919
 31
0.0
  0
LINE
  5
11B
330
498
100
AcDbEntity
  8
0
  6
Continuous
 62
     7
100
AcDbLine
 10
226.2412032753
 20
517.6054808919
 30
0.0
 11
225.2497545152
 21
517.4749541704
 31
0.0
  0
LINE
  5
11C
330
498
100
AcDbEntity
  8
0
  6
Continuous
 62
     7
100
AcDbLine
 10
225.2497545152
 20
517.4749541704
 30
0.0
 11
225.3802812367
 21
516.483512861
 31
0.0
  0
LINE
  5
11D
330
498
100
AcDbEntity
  8
0
  6
Continuous
 62
     7
100
AcDbLine
 10
225.3802812367
 20
516.483512861
 30
0.0
 11
226.3717299967
 21
516.6140395824
 31
0.0
  0
LINE
  5
11E
330
498
100
AcDbEntity
  8
0
  6
Continuous
 62
     7
100
AcDbLine
 10
243.9140400558
 20
527.1839845602
 30
0.0
 11
243.1206873327
 21
527.7927416985
 31
0.0
  0
LINE
  5
11F
330
498
100
AcDbEntity
  8
0
  6
Continuous
 62
     7
100
AcDbLine
 10
227.1987965971
 20
514.0316906993
 30
0.0
 11
226.8161124259
 21
514.9555701439
 31
0.0
  0
LINE
  5
120
330
498
100
AcDbEntity
  8
0
  6
Continuous
 62
     7
100
AcDbLine
 10
226.8161124259
 20
514.9555701439
 30
0.0
 11
225.8922329813
 21
514.5728859727
 31
0.0
  0
LINE
  5
121
330
498
100
AcDbEntity
  8
0
  6
Continuous
 62
     7
100
AcDbLine
 10
225.8922329813
 20
514.5728859727
 30
0.0
 11
226.2749171525
 21
513.6490065281
 31
0.0
  0
LINE
  5
122
330
498
100
AcDbEntity
  8
0
  6
Continuous
 62
     7
100
AcDbLine
 10
226.2749171525
 20
513.6490065281
 30
0.0
 11
227.1987965971
 21
514.0316906993
 31
0.0
  0
LINE
  5
123
330
498
100
AcDbEntity
  8
0
  6
Continuous
 62
     7
100
AcDbLine
 10
241.0249805718
 20
527.857874674
 30
0.0
 11
241.407664743
 21
528.7817615692
 31
0.0
  0
LINE
  5
124
330
498
100
AcDbEntity
  8
0
  6
Continuous
 62
     7
100
AcDbLine
 10
228.6660468846
 20
511.7513883535
 30
0.0
 11
228.0572822958
 21
512.5447410767
 31
0.0
  0
LINE
  5
125
330
498
100
AcDbEntity
  8
0
  6
Continuous
 62
     7
100
AcDbLine
 10
246.3692969351
 20
514.9555701439
 30
0.0
 11
245.9866127639
 21
514.0316906993
 31
0.0
  0
LINE
  5
126
330
498
100
AcDbEntity
  8
0
  6
Continuous
 62
     7
100
AcDbLine
 10
245.9866127639
 20
514.0316906993
 30
0.0
 11
246.9104922085
 21
513.6490065281
 31
0.0
  0
LINE
  5
127
330
498
100
AcDbEntity
  8
0
  6
Continuous
 62
     7
100
AcDbLine
 10
246.9104922085
 20
513.6490065281
 30
0.0
 11
247.2931763797
 21
514.5728859727
 31
0.0
  0
LINE
  5
128
330
498
100
AcDbEntity
  8
0
  6
Continuous
 62
     7
100
AcDbLine
 10
247.2931763797
 20
514.5728859727
 30
0.0
 11
246.3692969351
 21
514.9555701439
 31
0.0
  0
LINE
  5
129
330
498
100
AcDbEntity
  8
0
  6
Continuous
 62
     7
100
AcDbLine
 10
235.6036922603
 20
507.1210164253
 30
0.0
 11
235.7342189818
 21
508.1124651854
 31
0.0
  0
LINE
  5
12A
330
498
100
AcDbEntity
  8
0
  6
Continuous
 62
     7
100
AcDbLine
 10
246.9442060857
 20
517.6054808919
 30
0.0
 11
246.8136793643
 21
516.6140395824
 31
0.0
  0
LINE
  5
12B
330
498
100
AcDbEntity
  8
0
  6
Continuous
 62
     7
100
AcDbLine
 10
246.8136793643
 20
516.6140395824
 30
0.0
 11
247.8051281243
 21
516.483512861
 31
0.0
  0
LINE
  5
12C
330
498
100
AcDbEntity
  8
0
  6
Continuous
 62
     7
100
AcDbLine
 10
237.4511903792
 20
508.1124651854
 30
0.0
 11
237.5817171007
 21
507.1210164253
 31
0.0
  0
LINE
  5
12D
330
498
100
AcDbEntity
  8
0
  6
Continuous
 62
     7
100
AcDbLine
 10
228.0572822958
 20
524.3831921045
 30
0.0
 11
228.6660468846
 21
525.1765448276
 31
0.0
  0
LINE
  5
12E
330
498
100
AcDbEntity
  8
0
  6
Continuous
 62
     7
100
AcDbLine
 10
235.7342189818
 20
508.1124651854
 30
0.0
 11
234.7427702218
 21
508.2429919068
 31
0.0
  0
LINE
  5
12F
330
498
100
AcDbEntity
  8
0
  6
Continuous
 62
     7
100
AcDbLine
 10
234.7427702218
 20
508.2429919068
 30
0.0
 11
234.6122435003
 21
507.2515431468
 31
0.0
  0
LINE
  5
130
330
498
100
AcDbEntity
  8
0
  6
Continuous
 62
     7
100
AcDbLine
 10
234.6122435003
 20
507.2515431468
 30
0.0
 11
235.6036922603
 21
507.1210164253
 31
0.0
  0
LINE
  5
131
330
498
100
AcDbEntity
  8
0
  6
Continuous
 62
     7
100
AcDbLine
 10
235.7342189818
 20
528.8154679958
 30
0.0
 11
235.6036922603
 21
529.8069167559
 31
0.0
  0
LINE
  5
132
330
498
100
AcDbEntity
  8
0
  6
Continuous
 62
     7
100
AcDbLine
 10
226.8161124259
 20
521.9723704879
 30
0.0
 11
227.1987965971
 21
522.8962499325
 31
0.0
  0
LINE
  5
133
330
498
100
AcDbEntity
  8
0
  6
Continuous
 62
     7
100
AcDbLine
 10
238.4426391392
 20
508.2429919068
 30
0.0
 11
237.4511903792
 21
508.1124651854
 31
0.0
  0
LINE
  5
134
330
498
100
AcDbEntity
  8
0
  6
Continuous
 62
     7
100
AcDbLine
 10
245.3127151995
 20
511.1426312153
 30
0.0
 11
245.9214797884
 21
511.9359839384
 31
0.0
  0
LINE
  5
135
330
498
100
AcDbEntity
  8
0
  6
Continuous
 62
     7
100
AcDbLine
 10
233.0843007832
 20
528.2405662958
 30
0.0
 11
232.701616612
 21
529.1644382898
 31
0.0
  0
LINE
  5
136
330
498
100
AcDbEntity
  8
0
  6
Continuous
 62
     7
100
AcDbLine
 10
242.5119301944
 20
509.9285442059
 30
0.0
 11
243.1206873327
 21
509.1351914827
 31
0.0
  0
LINE
  5
137
330
498
100
AcDbEntity
  8
0
  6
Continuous
 62
     7
100
AcDbLine
 10
228.6660468846
 20
525.1765448276
 30
0.0
 11
227.8726867109
 21
525.7853094165
 31
0.0
  0
LINE
  5
138
330
498
100
AcDbEntity
  8
0
  6
Continuous
 62
     7
100
AcDbLine
 10
246.8136793643
 20
520.3139010493
 30
0.0
 11
246.9442060857
 21
519.3224522893
 31
0.0
  0
LINE
  5
139
330
498
100
AcDbEntity
  8
0
  6
Continuous
 62
     7
100
AcDbLine
 10
244.5193624764
 20
511.7513883535
 30
0.0
 11
245.3127151995
 21
511.1426312153
 31
0.0
  0
LINE
  5
13A
330
498
100
AcDbEntity
  8
0
  6
Continuous
 62
     7
100
AcDbLine
 10
245.1281270652
 20
512.5447410767
 30
0.0
 11
244.5193624764
 21
511.7513883535
 31
0.0
  0
LINE
  5
13B
330
498
100
AcDbEntity
  8
0
  6
Continuous
 62
     7
100
AcDbLine
 10
247.9356548458
 20
517.4749541704
 30
0.0
 11
246.9442060857
 21
517.6054808919
 31
0.0
  0
LINE
  5
13C
330
498
100
AcDbEntity
  8
0
  6
Continuous
 62
     7
100
AcDbLine
 10
246.9442060857
 20
519.3224522893
 30
0.0
 11
247.9356548458
 21
519.4529790108
 31
0.0
  0
LINE
  5
13D
330
498
100
AcDbEntity
  8
0
  6
Continuous
 62
     7
100
AcDbLine
 10
247.9356548458
 20
519.4529790108
 30
0.0
 11
247.8051281243
 21
520.4444277708
 31
0.0
  0
ARC
  5
13E
330
498
100
AcDbEntity
  8
0
  6
Continuous
 62
     7
100
AcDbCircle
 10
244.4388812593
 20
516.6639677949
 30
0.0
 40
0.3000000000000183
100
AcDbArc
 50
270.0
 51
347.0792871709999
  0
LINE
  5
13F
330
498
100
AcDbEntity
  8
0
  6
Continuous
 62
     7
100
AcDbLine
 10
244.4388813048
 20
516.3639682953
 30
0.0
 11
244.4388813048
 21
516.4639699881
 31
0.0
  0
LWPOLYLINE
  5
140
330
498
100
AcDbEntity
  8
0
  6
Continuous
 62
     7
100
AcDbPolyline
 90
        9
 70
   128
 43
0.0
 10
244.7312867909
 20
516.5968883459
 10
244.7122729092
 20
516.6012469356
 10
244.6939891844
 20
516.6054416124
 10
244.6771359711
 20
516.6093084638
 10
244.6623614698
 20
516.6126984779
 10
244.6502468257
 20
516.6154775445
 10
244.6412390738
 20
516.6175488059
 10
244.6356883913
 20
516.6188154046
 10
244.6338182955
 20
516.6192475383
  0
LWPOLYLINE
  5
141
330
498
100
AcDbEntity
  8
0
  6
Continuous
 62
     7
100
AcDbPolyline
 90
        9
 70
   128
 43
0.0
 10
228.5515910655
 20
520.3086856429
 10
228.5497209697
 20
520.3091177766
 10
228.5441702872
 20
520.3103918259
 10
228.5351625352
 20
520.3124556367
 10
228.5230404406
 20
520.3152347033
 10
228.5082733899
 20
520.3186247174
 10
228.4914201766
 20
520.3224915688
 10
228.4731364518
 20
520.3266862456
 10
228.4541225701
 20
520.3310448353
  0
ARC
  5
142
330
498
100
AcDbEntity
  8
0
  6
Continuous
 62
     7
100
AcDbCircle
 10
228.7465264328
 20
520.2639677949
 30
0.0
 40
0.2999999999999698
100
AcDbArc
 50
90.0
 51
167.079287171
  0
LINE
  5
143
330
498
100
AcDbEntity
  8
0
  6
Continuous
 62
     7
100
AcDbLine
 10
228.7465280562
 20
520.4639706437
 30
0.0
 11
228.7465280562
 21
520.5639648859
 31
0.0
  0
ARC
  5
144
330
498
100
AcDbEntity
  8
0
  6
Continuous
 62
     7
100
AcDbCircle
 10
236.592703846
 20
518.4639677949
 30
0.0
 40
8.349999999999914
100
AcDbArc
 50
347.0792871709999
 51
12.920712829
  0
LWPOLYLINE
  5
145
330
498
100
AcDbEntity
  8
0
  6
Continuous
 62
     7
100
AcDbPolyline
 90
        9
 70
   128
 43
0.0
 10
244.7312867909
 20
520.3310448353
 10
244.7122729092
 20
520.3266862456
 10
244.6939891844
 20
520.3224915688
 10
244.6771359711
 20
520.3186247174
 10
244.6623614698
 20
520.3152347033
 10
244.6502468257
 20
520.3124556367
 10
244.6412390738
 20
520.3103918259
 10
244.6356883913
 20
520.3091177766
 10
244.6338182955
 20
520.3086856429
  0
LINE
  5
146
330
498
100
AcDbEntity
  8
0
  6
Continuous
 62
     7
100
AcDbLine
 10
244.4388813048
 20
516.3639682953
 30
0.0
 11
228.7465280562
 21
516.3639682953
 31
0.0
  0
LINE
  5
147
330
498
100
AcDbEntity
  8
0
  6
Continuous
 62
     7
100
AcDbLine
 10
228.7465280562
 20
516.3639682953
 30
0.0
 11
228.7465280562
 21
516.4639699881
 31
0.0
  0
LWPOLYLINE
  5
148
330
498
100
AcDbEntity
  8
0
  6
Continuous
 62
     7
100
AcDbPolyline
 90
        9
 70
   128
 43
0.0
 10
228.5515910655
 20
516.6192475383
 10
228.5497209697
 20
516.6188154046
 10
228.5441702872
 20
516.6175488059
 10
228.5351625352
 20
516.6154775445
 10
228.5230404406
 20
516.6126984779
 10
228.5082733899
 20
516.6093084638
 10
228.4914201766
 20
516.6054416124
 10
228.4731364518
 20
516.6012469356
 10
228.4541225701
 20
516.5968883459
  0
ARC
  5
149
330
498
100
AcDbEntity
  8
0
  6
Continuous
 62
     7
100
AcDbCircle
 10
236.592703846
 20
518.4639677949
 30
0.0
 40
8.350000000000113
100
AcDbArc
 50
167.079287171
 51
192.920712829
  0
ARC
  5
14A
330
498
100
AcDbEntity
  8
0
  6
Continuous
 62
     7
100
AcDbCircle
 10
228.7465264328
 20
516.6639677949
 30
0.0
 40
0.3000000000000229
100
AcDbArc
 50
192.920712829
 51
270.0
  0
LINE
  5
14B
330
498
100
AcDbEntity
  8
0
  6
Continuous
 62
     7
100
AcDbLine
 10
228.7465280562
 20
520.5639648859
 30
0.0
 11
244.4388813048
 21
520.5639648859
 31
0.0
  0
LINE
  5
14C
330
498
100
AcDbEntity
  8
0
  6
Continuous
 62
     7
100
AcDbLine
 10
244.4388813048
 20
520.4639706437
 30
0.0
 11
244.4388813048
 21
520.5639648859
 31
0.0
  0
ARC
  5
14D
330
498
100
AcDbEntity
  8
0
  6
Continuous
 62
     7
100
AcDbCircle
 10
244.4388812593
 20
520.2639677949
 30
0.0
 40
0.2999999999999545
100
AcDbArc
 50
12.920712829
 51
90.0
  0
CIRCLE
  5
14E
330
498
100
AcDbEntity
  8
0
  6
Continuous
 62
     7
100
AcDbCircle
 10
240.592703846
 20
401.1442113344
 30
0.0
 40
12.55922767117003
  0
CIRCLE
  5
14F
330
498
100
AcDbEntity
  8
0
  6
Continuous
 62
     7
100
AcDbCircle
 10
240.592703846
 20
401.1442113344
 30
0.0
 40
13.0
  0
LINE
  5
150
330
498
100
AcDbEntity
  8
0
  6
Continuous
 62
     7
100
AcDbLine
 10
250.2927056222
 20
423.9639669333
 30
0.0
 11
222.8928602009
 21
423.9639669333
 31
0.0
  0
LWPOLYLINE
  5
151
330
498
100
AcDbEntity
  8
0
  6
Continuous
 62
     7
100
AcDbPolyline
 90
       11
 70
   128
 43
0.0
 10
237.8395891457
 20
266.0661089842
 10
237.9011458426
 20
265.5251968328
 10
238.7522778183
 20
265.019362015
 10
240.3088903695
 20
264.6010864202
 10
242.3996424943
 20
264.3220174734
 10
244.7650230198
 20
264.2175603334
 10
247.1109202772
 20
264.2969984238
 10
249.1685992747
 20
264.5448494379
 10
250.7284453779
 20
264.92895667
 10
251.6415065794
 20
265.4079842989
 10
251.7689785629
 20
265.5558038179
  0
LWPOLYLINE
  5
152
330
498
100
AcDbEntity
  8
0
  6
Continuous
 62
     7
100
AcDbPolyline
 90
       11
 70
   128
 43
0.0
 10
251.7689785629
 20
265.5558038179
 10
251.707049337
 20
266.0967308704
 10
250.8556193381
 20
266.6025507872
 10
249.2985001474
 20
267.0209008877
 10
247.2069359093
 20
267.3000294392
 10
244.8412275582
 20
267.4043971722
 10
242.4960008531
 20
267.3248249714
 10
240.4393425851
 20
267.0769441549
 10
238.8799733191
 20
266.6928369228
 10
237.9668748646
 20
266.2136900846
 10
237.8395891457
 20
266.0661089842
  0
LWPOLYLINE
  5
153
330
498
100
AcDbEntity
  8
0
  6
Continuous
 62
     7
100
AcDbPolyline
 90
        5
 70
   128
 43
0.0
 10
237.8395891457
 20
266.0661089842
 10
234.9943837791
 20
296.3797349159
 10
232.7159515291
 20
326.8964934771
 10
231.0449129611
 20
357.5975346987
 10
230.0219482451
 20
388.4639676337
  0
LINE
  5
154
330
498
100
AcDbEntity
  8
0
  6
Continuous
 62
     7
100
AcDbLine
 10
236.5927046805
 20
418.4639669631
 30
0.0
 11
225.0927037268
 21
418.4639669631
 31
0.0
  0
LINE
  5
155
330
498
100
AcDbEntity
  8
0
  6
Continuous
 62
     7
100
AcDbLine
 10
248.0927056342
 20
418.4639669631
 30
0.0
 11
236.5927046805
 21
418.4639669631
 31
0.0
  0
LINE
  5
156
330
498
100
AcDbEntity
  8
0
  6
Continuous
 62
     7
100
AcDbLine
 10
227.5992727547
 20
400.7310921527
 30
0.0
 11
226.022044447
 21
400.7310921527
 31
0.0
  0
LINE
  5
157
330
498
100
AcDbEntity
  8
0
  6
Continuous
 62
     7
100
AcDbLine
 10
246.8592918187
 20
418.8408266429
 30
0.0
 11
246.8839308887
 21
418.8355292801
 31
0.0
  0
ARC
  5
158
330
498
100
AcDbEntity
  8
0
  6
Continuous
 62
     7
100
AcDbCircle
 10
232.4505381921
 20
175.3114585845
 30
0.0
 40
243.5597334189303
100
AcDbArc
 50
86.6863040886
 51
89.025536379
  0
LWPOLYLINE
  5
159
330
498
100
AcDbEntity
  8
0
  6
Continuous
 62
     7
100
AcDbPolyline
 90
        9
 70
   128
 43
0.0
 10
236.5927046805
 20
419.9639364753
 10
239.3002009659
 20
419.8887228642
 10
241.8401634961
 20
419.8119371806
 10
243.9941859513
 20
419.7380348716
 10
245.6705293327
 20
419.6609306757
 10
246.7114052444
 20
419.5865887825
 10
247.0702028542
 20
419.5104363982
 10
246.7114052444
 20
419.4342840139
 10
245.9504848986
 20
419.3799376164
  0
LINE
  5
15A
330
498
100
AcDbEntity
  8
0
  6
Continuous
 62
     7
100
AcDbLine
 10
236.5927046805
 20
418.4639669631
 30
0.0
 11
236.5927046805
 21
419.9639364753
 31
0.0
  0
ARC
  5
15B
330
498
100
AcDbEntity
  8
0
  6
Continuous
 62
     7
100
AcDbCircle
 10
236.0922104555
 20
313.7799692941
 30
0.0
 40
106.1851467052993
100
AcDbArc
 50
84.6958771967
 51
89.7299404499
  0
LINE
  5
15C
330
498
100
AcDbEntity
  8
0
  6
Continuous
 62
     7
100
AcDbLine
 10
233.7099036842
 20
388.4639676337
 30
0.0
 11
233.3906835585
 21
390.3215109978
 31
0.0
  0
LINE
  5
15D
330
498
100
AcDbEntity
  8
0
  6
Continuous
 62
     7
100
AcDbLine
 10
233.7099036842
 20
388.4639676337
 30
0.0
 11
226.6649401455
 21
388.4639676337
 31
0.0
  0
LINE
  5
15E
330
498
100
AcDbEntity
  8
0
  6
Continuous
 62
     7
100
AcDbLine
 10
227.7462876111
 20
399.1518485502
 30
0.0
 11
226.1048054963
 21
399.1518485502
 31
0.0
  0
LINE
  5
15F
330
498
100
AcDbEntity
  8
0
  6
Continuous
 62
     7
100
AcDbLine
 10
237.7271449833
 20
388.4639676337
 30
0.0
 11
233.7099036842
 21
388.4639676337
 31
0.0
  0
LINE
  5
160
330
498
100
AcDbEntity
  8
0
  6
Continuous
 62
     7
100
AcDbLine
 10
246.5204692154
 20
388.4639676337
 30
0.0
 11
243.4582656889
 21
388.4639676337
 31
0.0
  0
LINE
  5
161
330
498
100
AcDbEntity
  8
0
  6
Continuous
 62
     7
100
AcDbLine
 10
251.68398979
 20
371.7442109857
 30
0.0
 11
244.4012633234
 21
371.7442109857
 31
0.0
  0
LINE
  5
162
330
498
100
AcDbEntity
  8
0
  6
Continuous
 62
     7
100
AcDbLine
 10
230.4591632157
 20
371.7442109857
 30
0.0
 11
228.8839912682
 21
371.7442109857
 31
0.0
  0
LWPOLYLINE
  5
163
330
498
100
AcDbEntity
  8
0
  6
Continuous
 62
     7
100
AcDbPolyline
 90
       21
 70
   128
 43
0.0
 10
251.0494014888
 20
385.3303838198
 10
252.0162707835
 20
384.3964498167
 10
252.7730337053
 20
382.8789733027
 10
253.2676404982
 20
380.8947160516
 10
253.4310466319
 20
378.5758606766
 10
253.2010397583
 20
376.208401439
 10
252.5870150595
 20
374.1373356108
 10
251.6840121418
 20
372.6749710415
 10
250.6492978602
 20
371.9909313743
 10
249.6290451556
 20
372.0636322771
 10
248.701470223
 20
372.7898180161
 10
247.9138022929
 20
374.1045064901
 10
247.3370006948
 20
375.9514979695
 10
247.272635129
 20
376.2776378219
 10
247.0549366146
 20
378.6360725437
 10
247.2369021445
 20
381.0060761545
 10
247.8084063797
 20
383.1305533324
 10
248.6844530969
 20
384.6782736157
 10
249.7121787339
 20
385.457468373
 10
250.739598897
 20
385.4696947758
 10
251.0494014888
 20
385.3303838198
  0
ARC
  5
164
330
498
100
AcDbEntity
  8
0
  6
Continuous
 62
     7
100
AcDbCircle
 10
240.0470991105
 20
378.7894669345
 30
0.0
 40
6.706056320780931
100
AcDbArc
 50
309.7157405367
 51
41.24629859260001
  0
LWPOLYLINE
  5
165
330
498
100
AcDbEntity
  8
0
  6
Continuous
 62
     7
100
AcDbPolyline
 90
        3
 70
   128
 43
0.0
 10
243.9789197116
 20
384.183907104
 10
244.7735837369
 20
383.5704132591
 10
245.0892648368
 20
383.2107513819
  0
LWPOLYLINE
  5
166
330
498
100
AcDbEntity
  8
0
  6
Continuous
 62
     7
100
AcDbPolyline
 90
       12
 70
   128
 43
0.0
 10
230.5130160122
 20
372.0360185627
 10
229.9236005812
 20
371.9895772312
 10
228.9721837907
 20
372.5826341335
 10
228.1496620446
 20
373.7744755719
 10
227.5199315219
 20
375.5146853302
 10
227.3540517955
 20
376.2776378219
 10
227.1363532811
 20
378.6360725437
 10
227.318318811
 20
381.0060761545
 10
227.8898230463
 20
383.1305533324
 10
228.7658697634
 20
384.6782736157
 10
229.7935879498
 20
385.457468373
 10
230.0711593299
 20
385.4607727055
  0
LINE
  5
167
330
498
100
AcDbEntity
  8
0
  6
Continuous
 62
     7
100
AcDbLine
 10
251.68398979
 20
385.7442114179
 30
0.0
 11
243.9488119154
 21
385.7442114179
 31
0.0
  0
LINE
  5
168
330
498
100
AcDbEntity
  8
0
  6
Continuous
 62
     7
100
AcDbLine
 10
229.9650407105
 20
385.7442114179
 30
0.0
 11
228.8839912682
 21
385.7442114179
 31
0.0
  0
LWPOLYLINE
  5
169
330
498
100
AcDbEntity
  8
0
  6
Continuous
 62
     7
100
AcDbPolyline
 90
        5
 70
   128
 43
0.0
 10
243.8416651159
 20
388.284690832
 10
244.1413647204
 20
388.2855467175
 10
247.2511029511
 20
388.2955072124
 10
249.5372912555
 20
388.3054686387
 10
250.7171502977
 20
388.3154291336
  0
ARC
  5
16A
330
498
100
AcDbEntity
  8
0
  6
Continuous
 62
     7
100
AcDbCircle
 10
241.2737601785
 20
457.0687564767
 30
0.0
 40
69.92612364539019
100
AcDbArc
 50
272.1345661381
 51
277.7614012706
  0
ARC
  5
16B
330
498
100
AcDbEntity
  8
0
  6
Continuous
 62
     7
100
AcDbCircle
 10
244.2192459502
 20
448.4539056001
 30
0.0
 40
61.69435514254017
100
AcDbArc
 50
269.6967217731
 51
276.1631118681
  0
LINE
  5
16C
330
498
100
AcDbEntity
  8
0
  6
Continuous
 62
     7
100
AcDbLine
 10
250.7171502977
 20
388.3154291336
 30
0.0
 11
250.7737896114
 21
388.2792910237
 31
0.0
  0
LINE
  5
16D
330
498
100
AcDbEntity
  8
0
  6
Continuous
 62
     7
100
AcDbLine
 10
250.816876319
 20
387.9501588319
 30
0.0
 11
250.8308238059
 21
387.9284115185
 31
0.0
  0
LINE
  5
16E
330
498
100
AcDbEntity
  8
0
  6
Continuous
 62
     7
100
AcDbLine
 10
250.8041358262
 20
387.8943288375
 30
0.0
 11
250.7171502977
 21
387.7832229857
 31
0.0
  0
LINE
  5
16F
330
498
100
AcDbEntity
  8
0
  6
Continuous
 62
     7
100
AcDbLine
 10
247.7839908271
 20
358.7442125802
 30
0.0
 11
244.8816246062
 21
358.7442125802
 31
0.0
  0
LINE
  5
170
330
498
100
AcDbEntity
  8
0
  6
Continuous
 62
     7
100
AcDbLine
 10
240.128124383
 20
255.7442087357
 30
0.0
 11
239.1678488522
 21
264.907692713
 31
0.0
  0
LWPOLYLINE
  5
171
330
498
100
AcDbEntity
  8
0
  6
Continuous
 62
     7
100
AcDbPolyline
 90
        6
 70
   128
 43
0.0
 10
247.5365570455
 20
358.7442125802
 10
248.1709218293
 20
336.34365086
 10
249.1699031263
 20
314.8565414969
 10
250.5188977986
 20
294.2697081391
 10
252.2032654553
 20
274.5699781601
 10
254.2082911997
 20
255.7442087357
  0
LINE
  5
172
330
498
100
AcDbEntity
  8
0
  6
Continuous
 62
     7
100
AcDbLine
 10
254.2082911997
 20
255.7442087357
 30
0.0
 11
240.3090989857
 21
255.7442087357
 31
0.0
  0
ARC
  5
173
330
498
100
AcDbEntity
  8
0
  6
Continuous
 62
     7
100
AcDbCircle
 10
236.592703846
 20
518.4639677949
 30
0.0
 40
17.0
100
AcDbArc
 50
90.0
 51
270.0
  0
ARC
  5
174
330
498
100
AcDbEntity
  8
0
  6
Continuous
 62
     7
100
AcDbCircle
 10
236.592703846
 20
518.4639677949
 30
0.0
 40
17.0
100
AcDbArc
 50
0.0
 51
90.0
  0
ARC
  5
175
330
498
100
AcDbEntity
  8
0
  6
Continuous
 62
     7
100
AcDbCircle
 10
240.592703846
 20
401.1442113344
 30
0.0
 40
27.50000000000002
100
AcDbArc
 50
0.0
 51
68.6763137365
  0
ARC
  5
176
330
498
100
AcDbEntity
  8
0
  6
Continuous
 62
     7
100
AcDbCircle
 10
240.592703846
 20
401.1442113344
 30
0.0
 40
27.50000000000004
100
AcDbArc
 50
123.9208438625
 51
240.9125611588
  0
ARC
  5
177
330
498
100
AcDbEntity
  8
0
  6
Continuous
 62
     7
100
AcDbCircle
 10
240.592703846
 20
401.1442113344
 30
0.0
 40
27.50000000000003
100
AcDbArc
 50
297.5230081095
 51
0.0
  0
ARC
  5
178
330
498
100
AcDbEntity
  8
0
  6
Continuous
 62
     7
100
AcDbCircle
 10
140.592703846
 20
401.1442113344
 30
0.0
 40
39.00000000000008
100
AcDbArc
 50
180.0
 51
245.9221847102
  0
ARC
  5
179
330
498
100
AcDbEntity
  8
0
  6
Continuous
 62
     7
100
AcDbCircle
 10
140.592703846
 20
401.1442113344
 30
0.0
 40
39.00000000000006
100
AcDbArc
 50
294.114269075
 51
180.0
  0
ARC
  5
17A
330
498
100
AcDbEntity
  8
0
  6
Continuous
 62
     8
100
AcDbCircle
 10
235.7669362462
 20
279.0864329417
 30
0.0
 40
140.1939046853788
100
AcDbArc
 50
85.46192722200001
 51
89.66251514409998
  0
ARC
  5
17B
330
498
100
AcDbEntity
  8
0
  6
Continuous
 62
     8
100
AcDbCircle
 10
235.8174583002
 20
302.0547611881
 30
0.0
 40
117.6907593267323
100
AcDbArc
 50
85.05230716429999
 51
89.6225815251
  0
ARC
  5
17C
330
498
100
AcDbEntity
  8
0
  6
Continuous
 62
     8
100
AcDbCircle
 10
240.8759370524
 20
531.5009434692
 30
0.0
 40
143.5232809194571
100
AcDbArc
 50
271.1877214282999
 51
273.9317796389
  0
ARC
  5
17D
330
498
100
AcDbEntity
  8
0
  6
Continuous
 62
     8
100
AcDbCircle
 10
240.894118795
 20
530.6417781987
 30
0.0
 40
143.1959027181146
100
AcDbArc
 50
271.1902812348
 51
273.9334876546
  0
ARC
  5
17E
330
498
100
AcDbEntity
  8
0
  6
Continuous
 62
     8
100
AcDbCircle
 10
244.1004679696
 20
432.4197599537
 30
0.0
 40
46.20188615912117
100
AcDbArc
 50
269.7648245066001
 51
276.8614152232
  0
ARC
  5
17F
330
498
100
AcDbEntity
  8
0
  6
Continuous
 62
     7
100
AcDbCircle
 10
240.4483962351
 20
401.2020172507
 30
0.0
 40
26.85575567441811
100
AcDbArc
 50
122.052391632
 51
180.1233269184
  0
ARC
  5
180
330
498
100
AcDbEntity
  8
0
  6
Continuous
 62
     7
100
AcDbCircle
 10
240.6069592984
 20
401.1503000533
 30
0.0
 40
26.98574928763567
100
AcDbArc
 50
359.9870725139
 51
68.2820591219
  0
ARC
  5
181
330
498
100
AcDbEntity
  8
0
  6
Continuous
 62
     8
100
AcDbCircle
 10
240.6410586687
 20
401.1255697
 30
0.0
 40
26.95165567732432
100
AcDbArc
 50
297.7527709142
 51
0.0396297382
  0
ARC
  5
182
330
498
100
AcDbEntity
  8
0
  6
Continuous
 62
     8
100
AcDbCircle
 10
240.4383592712
 20
401.0928447349
 30
0.0
 40
26.8457056405536
100
AcDbArc
 50
179.8903701324
 51
240.4416757650999
  0
LINE
  5
183
330
498
100
AcDbEntity
  8
0
  6
Continuous
 62
     7
100
AcDbLine
 10
363.1189688551
 20
441.1442104403
 30
0.0
 11
357.118968803
 21
441.1442104403
 31
0.0
  0
LINE
  5
184
330
498
100
AcDbEntity
  8
0
  6
Continuous
 62
     7
100
AcDbLine
 10
357.118968803
 20
361.1442122285
 30
0.0
 11
363.1189688551
 21
361.1442122285
 31
0.0
  0
ARC
  5
185
330
498
100
AcDbEntity
  8
0
  6
Continuous
 62
     7
100
AcDbCircle
 10
363.118968803
 20
440.1442113344
 30
0.0
 40
1.0
100
AcDbArc
 50
0.0
 51
90.0
  0
ARC
  5
186
330
498
100
AcDbEntity
  8
0
  6
Continuous
 62
     7
100
AcDbCircle
 10
363.118968803
 20
362.1442113344
 30
0.0
 40
1.0
100
AcDbArc
 50
270.0
 51
0.0
  0
LINE
  5
187
330
498
100
AcDbEntity
  8
0
  6
Continuous
 62
     7
100
AcDbLine
 10
426.7189697805
 20
424.1442113791
 30
0.0
 11
405.846473712
 21
424.1442113791
 31
0.0
  0
ARC
  5
188
330
498
100
AcDbEntity
  8
0
  6
Continuous
 62
     7
100
AcDbCircle
 10
426.718968803
 20
422.6442113344
 30
0.0
 40
1.500000000000057
100
AcDbArc
 50
0.0
 51
90.0
  0
ARC
  5
189
330
498
100
AcDbEntity
  8
0
  6
Continuous
 62
     7
100
AcDbCircle
 10
405.8464737006
 20
423.9442113344
 30
0.0
 40
0.2000000000000364
100
AcDbArc
 50
95.15895046049998
 51
158.0
  0
LINE
  5
18A
330
498
100
AcDbEntity
  8
0
  6
Continuous
 62
     7
100
AcDbLine
 10
364.1189690191
 20
378.5942114566
 30
0.0
 11
388.7999588135
 21
378.5942114566
 31
0.0
  0
LINE
  5
18B
330
498
100
AcDbEntity
  8
0
  6
Continuous
 62
     7
100
AcDbLine
 10
388.7999588135
 20
423.6942112122
 30
0.0
 11
364.1189690191
 21
423.6942112122
 31
0.0
  0
ARC
  5
18C
330
498
100
AcDbEntity
  8
0
  6
Continuous
 62
     7
100
AcDbCircle
 10
388.7999604241
 20
379.2942113344
 30
0.0
 40
0.6999999999999886
100
AcDbArc
 50
270.0
 51
319.0
  0
ARC
  5
18D
330
498
100
AcDbEntity
  8
0
  6
Continuous
 62
     7
100
AcDbCircle
 10
388.7999604241
 20
422.9942113344
 30
0.0
 40
0.7000000000000455
100
AcDbArc
 50
40.99999999999999
 51
90.0
  0
LINE
  5
18E
330
498
100
AcDbEntity
  8
0
  6
Continuous
 62
     7
100
AcDbLine
 10
389.3282571319
 20
378.834969518
 30
0.0
 11
389.3991084281
 21
378.9164751445
 31
0.0
  0
LINE
  5
18F
330
498
100
AcDbEntity
  8
0
  6
Continuous
 62
     7
100
AcDbLine
 10
389.3991084281
 20
423.3719475244
 30
0.0
 11
389.3282571319
 21
423.4534531508
 31
0.0
  0
ARC
  5
190
330
498
100
AcDbEntity
  8
0
  6
Continuous
 62
     7
100
AcDbCircle
 10
389.9274050167
 20
378.4572336532
 30
0.0
 40
0.7000000000000247
100
AcDbArc
 50
92.7443153111
 51
139.0
  0
ARC
  5
191
330
498
100
AcDbEntity
  8
0
  6
Continuous
 62
     7
100
AcDbCircle
 10
389.9274050167
 20
423.8311890156
 30
0.0
 40
0.7000000000000247
100
AcDbArc
 50
221.0
 51
267.2556846889
  0
ARC
  5
192
330
498
100
AcDbEntity
  8
0
  6
Continuous
 62
     7
100
AcDbCircle
 10
388.8405511264
 20
401.1311999719
 30
0.0
 40
22.00000000000002
100
AcDbArc
 50
272.7443153111001
 51
290.1496614475
  0
ARC
  5
193
330
498
100
AcDbEntity
  8
0
  6
Continuous
 62
     7
100
AcDbCircle
 10
388.8405511264
 20
401.1572226969
 30
0.0
 40
22.0
100
AcDbArc
 50
49.3000629407
 51
87.25568468890002
  0
LWPOLYLINE
  5
194
330
498
100
AcDbEntity
  8
0
  6
Continuous
 62
     7
100
AcDbPolyline
 90
        8
 70
   128
 43
0.0
 10
428.202298421
 20
316.5943819706
 10
428.3534185472
 20
330.847066981
 10
428.4089849773
 20
345.3174020771
 10
428.4387947503
 20
359.3682806615
 10
428.4569667164
 20
372.9997232233
 10
428.5534293833
 20
390.5226077561
 10
428.5584883276
 20
407.2997571577
 10
428.2181383553
 20
422.1406533991
  0
LINE
  5
195
330
498
100
AcDbEntity
  8
0
  6
Continuous
 62
     7
100
AcDbLine
 10
396.6189706209
 20
378.1442112897
 30
0.0
 11
400.8830086771
 21
378.1442112897
 31
0.0
  0
ARC
  5
196
330
498
100
AcDbEntity
  8
0
  6
Continuous
 62
     7
100
AcDbCircle
 10
396.618968803
 20
378.3442113344
 30
0.0
 40
0.1999999999999886
100
AcDbArc
 50
180.0
 51
270.0
  0
LINE
  5
197
330
498
100
AcDbEntity
  8
0
  6
Continuous
 62
     7
100
AcDbLine
 10
403.4189702454
 20
378.1455300425
 30
0.0
 11
403.4189702454
 21
377.9942106132
 31
0.0
  0
LINE
  5
198
330
498
100
AcDbEntity
  8
0
  6
Continuous
 62
     7
100
AcDbLine
 10
403.4189702454
 20
377.9942106132
 30
0.0
 11
403.6375516537
 21
377.3936640148
 31
0.0
  0
ARC
  5
199
330
498
100
AcDbEntity
  8
0
  6
Continuous
 62
     7
100
AcDbCircle
 10
403.8254886941
 20
377.4620679932
 30
0.0
 40
0.199999999999963
100
AcDbArc
 50
200.0
 51
270.0
  0
LINE
  5
19A
330
498
100
AcDbEntity
  8
0
  6
Continuous
 62
     7
100
AcDbLine
 10
403.825488824
 20
377.262068135
 30
0.0
 11
410.8545341972
 21
377.262068135
 31
0.0
  0
LINE
  5
19B
330
498
100
AcDbEntity
  8
0
  6
Continuous
 62
     7
100
AcDbLine
 10
410.7032725099
 20
377.1215650861
 30
0.0
 11
412.2919821623
 21
376.5891596351
 31
0.0
  0
ARC
  5
19C
330
498
100
AcDbEntity
  8
0
  6
Continuous
 62
     7
100
AcDbCircle
 10
406.2360395974
 20
360.8752558327
 30
0.0
 40
16.91666652588624
100
AcDbArc
 50
6.660310868900001
 51
67.9685918705
  0
LWPOLYLINE
  5
19D
330
498
100
AcDbEntity
  8
0
  6
Continuous
 62
     7
100
AcDbPolyline
 90
        3
 70
   128
 43
0.0
 10
422.7265985194
 20
364.4718762164
 10
423.0370567623
 20
362.8464426522
 10
423.2359276596
 20
361.0961671595
  0
ARC
  5
19E
330
498
100
AcDbEntity
  8
0
  6
Continuous
 62
     7
100
AcDbCircle
 10
367.618968803
 20
374.1442113344
 30
0.0
 40
0.5
100
AcDbArc
 50
270.0
 51
0.0
  0
ARC
  5
19F
330
498
100
AcDbEntity
  8
0
  6
Continuous
 62
     7
100
AcDbCircle
 10
367.618968803
 20
428.1442113344
 30
0.0
 40
0.5
100
AcDbArc
 50
0.0
 51
90.0
  0
LINE
  5
1A0
330
498
100
AcDbEntity
  8
0
  6
Continuous
 62
     7
100
AcDbLine
 10
364.1189690191
 20
373.6442114834
 30
0.0
 11
367.6189686614
 21
373.6442114834
 31
0.0
  0
LINE
  5
1A1
330
498
100
AcDbEntity
  8
0
  6
Continuous
 62
     7
100
AcDbLine
 10
367.6189686614
 20
428.6442111854
 30
0.0
 11
364.1189690191
 21
428.6442111854
 31
0.0
  0
ARC
  5
1A2
330
498
100
AcDbEntity
  8
0
  6
Continuous
 62
     7
100
AcDbCircle
 10
383.118968803
 20
534.4639677949
 30
0.0
 40
1.0
100
AcDbArc
 50
90.0
 51
180.0
  0
ARC
  5
1A3
330
498
100
AcDbEntity
  8
0
  6
Continuous
 62
     7
100
AcDbCircle
 10
383.118968803
 20
502.4639677949
 30
0.0
 40
1.0
100
AcDbArc
 50
180.0
 51
270.0
  0
LINE
  5
1A4
330
498
100
AcDbEntity
  8
0
  6
Continuous
 62
     7
100
AcDbLine
 10
388.1189682964
 20
535.4639637892
 30
0.0
 11
383.1189693394
 21
535.4639637892
 31
0.0
  0
LINE
  5
1A5
330
498
100
AcDbEntity
  8
0
  6
Continuous
 62
     7
100
AcDbLine
 10
383.1189693394
 20
501.463969392
 30
0.0
 11
388.1189682964
 21
501.463969392
 31
0.0
  0
LINE
  5
1A6
330
498
100
AcDbEntity
  8
0
  6
Continuous
 62
     7
100
AcDbLine
 10
428.1189711276
 20
535.4639637892
 30
0.0
 11
392.418970305
 21
535.4639637892
 31
0.0
  0
LINE
  5
1A7
330
498
100
AcDbEntity
  8
0
  6
Continuous
 62
     7
100
AcDbLine
 10
421.0930810753
 20
501.463969392
 30
0.0
 11
428.1189711276
 21
501.463969392
 31
0.0
  0
LINE
  5
1A8
330
498
100
AcDbEntity
  8
0
  6
Continuous
 62
     7
100
AcDbLine
 10
392.418970305
 20
501.463969392
 30
0.0
 11
393.133708227
 21
501.463969392
 31
0.0
  0
ARC
  5
1A9
330
498
100
AcDbEntity
  8
0
  6
Continuous
 62
     7
100
AcDbCircle
 10
392.418968803
 20
535.1639677949
 30
0.0
 40
0.3000000000000682
100
AcDbArc
 50
90.0
 51
180.0
  0
ARC
  5
1AA
330
498
100
AcDbEntity
  8
0
  6
Continuous
 62
     7
100
AcDbCircle
 10
392.418968803
 20
501.7639677949
 30
0.0
 40
0.3000000000001251
100
AcDbArc
 50
180.0
 51
270.0
  0
ARC
  5
1AB
330
498
100
AcDbEntity
  8
0
  6
Continuous
 62
     7
100
AcDbCircle
 10
428.118968803
 20
502.4639677949
 30
0.0
 40
1.0
100
AcDbArc
 50
270.0
 51
0.0
  0
ARC
  5
1AC
330
498
100
AcDbEntity
  8
0
  6
Continuous
 62
     7
100
AcDbCircle
 10
428.118968803
 20
534.4639677949
 30
0.0
 40
1.0
100
AcDbArc
 50
0.0
 51
90.0
  0
LINE
  5
1AD
330
498
100
AcDbEntity
  8
0
  6
Continuous
 62
     7
100
AcDbLine
 10
392.118968952
 20
533.4639746372
 30
0.0
 11
388.1189682964
 21
533.4639746372
 31
0.0
  0
LINE
  5
1AE
330
498
100
AcDbEntity
  8
0
  6
Continuous
 62
     7
100
AcDbLine
 10
388.1189682964
 20
503.4639659945
 30
0.0
 11
392.118968952
 21
503.4639659945
 31
0.0
  0
ARC
  5
1AF
330
498
100
AcDbEntity
  8
0
  6
Continuous
 62
     7
100
AcDbCircle
 10
393.418968803
 20
424.2639677949
 30
0.0
 40
0.3000000000000114
100
AcDbArc
 50
180.0
 51
270.0
  0
ARC
  5
1B0
330
498
100
AcDbEntity
  8
0
  6
Continuous
 62
     7
100
AcDbCircle
 10
420.818968803
 20
424.2639677949
 30
0.0
 40
0.3000000000000114
100
AcDbArc
 50
336.4725611584001
 51
0.0
  0
LINE
  5
1B1
330
498
100
AcDbEntity
  8
0
  6
Continuous
 62
     7
100
AcDbLine
 10
393.1189672533
 20
501.4760840361
 30
0.0
 11
393.1189672533
 21
424.2639682863
 31
0.0
  0
LINE
  5
1B2
330
498
100
AcDbEntity
  8
0
  6
Continuous
 62
     7
100
AcDbLine
 10
421.1189718428
 20
424.2639682863
 30
0.0
 11
421.1189718428
 21
501.4852631514
 31
0.0
  0
LINE
  5
1B3
330
498
100
AcDbEntity
  8
0
  6
Continuous
 62
     7
100
AcDbLine
 10
396.641467649
 20
423.9639669333
 30
0.0
 11
396.641467649
 21
421.7277273212
 31
0.0
  0
ARC
  5
1B4
330
498
100
AcDbEntity
  8
0
  6
Continuous
 62
     7
100
AcDbCircle
 10
382.9191765334
 20
378.7442113344
 30
0.0
 40
14.87499999998382
100
AcDbArc
 50
206.9335632036
 51
208.0724869359
  0
ARC
  5
1B5
330
498
100
AcDbEntity
  8
0
  6
Continuous
 62
     7
100
AcDbCircle
 10
379.4691765334
 20
378.7442113344
 30
0.0
 40
14.87499999998384
100
AcDbArc
 50
331.9275130641001
 51
333.0638877598
  0
LWPOLYLINE
  5
1B6
330
498
100
AcDbEntity
  8
0
  6
Continuous
 62
     7
100
AcDbPolyline
 90
        5
 70
   128
 43
0.0
 10
400.5768903974
 20
378.1442112897
 10
401.0328100506
 20
357.5129221801
 10
402.2070439044
 20
325.8941221659
 10
403.8313785079
 20
294.4677669231
 10
405.8205978456
 20
264.2219859783
  0
LWPOLYLINE
  5
1B7
330
498
100
AcDbEntity
  8
0
  6
Continuous
 62
     7
100
AcDbPolyline
 90
        5
 70
   128
 43
0.0
 10
419.6385265771
 20
267.4021172945
 10
417.7886256459
 20
295.600217921
 10
416.1843629065
 20
326.7071444218
 10
415.0242255512
 20
357.9975973491
 10
414.6364004794
 20
375.550049511
  0
LINE
  5
1B8
330
498
100
AcDbEntity
  8
0
  6
Continuous
 62
     7
100
AcDbLine
 10
388.6941754702
 20
358.7442125802
 30
0.0
 11
388.6941754702
 21
371.7442109857
 31
0.0
  0
LINE
  5
1B9
330
498
100
AcDbEntity
  8
0
  6
Continuous
 62
     7
100
AcDbLine
 10
373.6941767368
 20
371.7442109857
 30
0.0
 11
373.6941767368
 21
358.7442125802
 31
0.0
  0
LWPOLYLINE
  5
1BA
330
498
100
AcDbEntity
  8
0
  6
Continuous
 62
     7
100
AcDbPolyline
 90
        7
 70
   128
 43
0.0
 10
388.4977595392
 20
255.7448196833
 10
388.4297394636
 20
270.3612345879
 10
388.3643419924
 20
286.9356769745
 10
388.3085036162
 20
304.1363853638
 10
388.2629246894
 20
321.9715330426
 10
388.2283111545
 20
340.4492821221
 10
388.2063654694
 20
358.7441194479
  0
LWPOLYLINE
  5
1BB
330
498
100
AcDbEntity
  8
0
  6
Continuous
 62
     7
100
AcDbPolyline
 90
        7
 70
   128
 43
0.0
 10
374.2064469937
 20
358.7440747444
 10
374.2284206185
 20
340.4276232843
 10
374.2630509171
 20
321.9402927582
 10
374.3086540583
 20
304.0954444234
 10
374.3645259622
 20
286.8849236195
 10
374.4299644116
 20
270.3005719606
 10
374.497706953
 20
255.7436126892
  0
LINE
  5
1BC
330
498
100
AcDbEntity
  8
0
  6
Continuous
 62
     7
100
AcDbLine
 10
357.118968803
 20
401.1442113344
 30
0.0
 11
357.118968803
 21
361.1442122285
 31
0.0
  0
LINE
  5
1BD
330
498
100
AcDbEntity
  8
0
  6
Continuous
 62
     7
100
AcDbLine
 10
357.118968803
 20
441.1442104403
 30
0.0
 11
357.118968803
 21
401.1442113344
 31
0.0
  0
LINE
  5
1BE
330
498
100
AcDbEntity
  8
0
  6
Continuous
 62
     7
100
AcDbLine
 10
364.1189690191
 20
401.1442113344
 30
0.0
 11
364.1189690191
 21
362.1442105298
 31
0.0
  0
LINE
  5
1BF
330
498
100
AcDbEntity
  8
0
  6
Continuous
 62
     7
100
AcDbLine
 10
364.1189690191
 20
440.1442121391
 30
0.0
 11
364.1189690191
 21
401.1442113344
 31
0.0
  0
ARC
  5
1C0
330
498
100
AcDbEntity
  8
0
  6
Continuous
 62
     7
100
AcDbCircle
 10
415.3194124951
 20
397.4703343922
 30
0.0
 40
18.90165366210058
100
AcDbArc
 50
157.3521016395
 51
180.6478818783
  0
LINE
  5
1C1
330
498
100
AcDbEntity
  8
0
  6
Continuous
 62
     7
100
AcDbLine
 10
428.2181383553
 20
422.3764959399
 30
0.0
 11
428.2181383553
 21
394.1144297507
 31
0.0
  0
LWPOLYLINE
  5
1C2
330
498
100
AcDbEntity
  8
0
  6
Continuous
 62
     7
100
AcDbPolyline
 90
       13
 70
   128
 43
0.0
 10
397.8752912465
 20
404.7487370346
 10
398.9363023523
 20
407.3748315361
 10
399.9627539399
 20
409.915389647
 10
400.9403855982
 20
412.3351109822
 10
401.8556111935
 20
414.6003706057
 10
402.6957125846
 20
416.6796935399
 10
403.4490147117
 20
418.5441873644
 10
404.1050532344
 20
420.1679408227
 10
404.6547123674
 20
421.5283944879
 10
405.0903552654
 20
422.6066425119
 10
405.4059246066
 20
423.3877055023
 10
405.5970357242
 20
423.8607261006
 10
405.6610362116
 20
424.0191328947
  0
LWPOLYLINE
  5
1C3
330
498
100
AcDbEntity
  8
0
  6
Continuous
 62
     7
100
AcDbPolyline
 90
        9
 70
   128
 43
0.0
 10
396.4189672354
 20
387.2659505953
 10
396.422811735
 20
387.242200007
 10
396.4341924968
 20
387.2193630461
 10
396.452673662
 20
387.1983160873
 10
396.4775474253
 20
387.1798675184
 10
396.5078563872
 20
387.1647279386
 10
396.5424308065
 20
387.1534784932
 10
396.5799519303
 20
387.1465503846
 10
396.6189706209
 20
387.1442109023
  0
LINE
  5
1C4
330
498
100
AcDbEntity
  8
0
  6
Continuous
 62
     7
100
AcDbLine
 10
396.4189672354
 20
397.2566052482
 30
0.0
 11
396.4189672354
 21
387.2659505953
 31
0.0
  0
LWPOLYLINE
  5
1C5
330
498
100
AcDbEntity
  8
0
  6
Continuous
 62
     7
100
AcDbPolyline
 90
        6
 70
   128
 43
0.0
 10
428.217966992
 20
394.1144297507
 10
428.2180414978
 20
389.2000505377
 10
428.2181607071
 20
384.2167697523
 10
428.2182128611
 20
379.092469034
 10
428.2180414978
 20
371.3737252776
 10
428.2182426634
 20
363.6608283643
  0
LINE
  5
1C6
330
498
100
AcDbEntity
  8
0
  6
Continuous
 62
     7
100
AcDbLine
 10
428.2181458059
 20
422.6942110483
 30
0.0
 11
428.2592581096
 21
420.3476059858
 31
0.0
  0
LINE
  5
1C7
330
498
100
AcDbEntity
  8
0
  6
Continuous
 62
     7
100
AcDbLine
 10
428.3505649748
 20
330.5774304692
 30
0.0
 11
428.2180414978
 21
316.5942627613
 31
0.0
  0
LWPOLYLINE
  5
1C8
330
498
100
AcDbEntity
  8
0
  6
Continuous
 62
     7
100
AcDbPolyline
 90
        9
 70
   128
 43
0.0
 10
428.218481082
 20
317.8376678054
 10
428.2188536111
 20
317.28630994
 10
428.2185034338
 20
317.0135367338
 10
428.217877585
 20
316.8812889282
 10
428.2174827042
 20
316.81817506
 10
428.2172070327
 20
316.7609918539
 10
428.2174380007
 20
316.7218092505
 10
428.2188983145
 20
316.6107508962
 10
428.2183842245
 20
316.5942106072
  0
LINE
  5
1C9
330
498
100
AcDbEntity
  8
0
  6
Continuous
 62
     7
100
AcDbLine
 10
428.2181383553
 20
358.34210102
 30
0.0
 11
428.2181383553
 21
317.8376678054
 31
0.0
  0
LWPOLYLINE
  5
1CA
330
498
100
AcDbEntity
  8
0
  6
Continuous
 62
     7
100
AcDbPolyline
 90
        3
 70
   128
 43
0.0
 10
428.2182426634
 20
363.6608283643
 10
428.2180116954
 20
361.0016043906
 10
428.2178924862
 20
358.34210102
  0
LINE
  5
1CB
330
498
100
AcDbEntity
  8
0
  6
Continuous
 62
     7
100
AcDbLine
 10
404.347007114
 20
378.4011669133
 30
0.0
 11
404.3113225582
 21
378.4011669133
 31
0.0
  0
ARC
  5
1CC
330
498
100
AcDbEntity
  8
0
  6
Continuous
 62
     7
100
AcDbCircle
 10
404.3274618583
 20
355.1868311872
 30
0.0
 40
23.21433951003979
100
AcDbArc
 50
90.0399624577
 51
98.53283094319998
  0
LINE
  5
1CD
330
498
100
AcDbEntity
  8
0
  6
Continuous
 62
     7
100
AcDbLine
 10
410.93098833
 20
377.4934570913
 30
0.0
 11
409.3811781588
 21
377.8914373044
 31
0.0
  0
LINE
  5
1CE
330
498
100
AcDbEntity
  8
0
  6
Continuous
 62
     7
100
AcDbLine
 10
409.0510876361
 20
377.9942106132
 30
0.0
 11
409.3810179713
 21
377.8913646613
 31
0.0
  0
ARC
  5
1CF
330
498
100
AcDbEntity
  8
0
  6
Continuous
 62
     7
100
AcDbCircle
 10
406.0153142334
 20
366.8449658131
 30
0.0
 40
11.55515381829858
100
AcDbArc
 50
74.7684638372
 51
93.2651594315
  0
LINE
  5
1D0
330
498
100
AcDbEntity
  8
0
  6
Continuous
 62
     7
100
AcDbLine
 10
404.3453046563
 20
378.4006267462
 30
0.0
 11
405.3577677789
 21
378.3813390557
 31
0.0
  0
LINE
  5
1D1
330
498
100
AcDbEntity
  8
0
  6
Continuous
 62
     7
100
AcDbLine
 10
396.4189672354
 20
378.34421095
 30
0.0
 11
396.4189672354
 21
387.2659505953
 31
0.0
  0
LINE
  5
1D2
330
498
100
AcDbEntity
  8
0
  6
Continuous
 62
     7
100
AcDbLine
 10
423.317459363
 20
358.3318899993
 30
0.0
 11
423.2856230322
 21
362.8921445136
 31
0.0
  0
LINE
  5
1D3
330
498
100
AcDbEntity
  8
0
  6
Continuous
 62
     7
100
AcDbLine
 10
423.600238699
 20
317.8274530594
 30
0.0
 11
423.317459363
 21
358.3318899993
 31
0.0
  0
ARC
  5
1D4
330
498
100
AcDbEntity
  8
0
  6
Continuous
 62
     7
100
AcDbCircle
 10
425.1085332122
 20
316.6442113344
 30
0.0
 40
1.5
100
AcDbArc
 50
180.4
 51
270.0
  0
LWPOLYLINE
  5
1D5
330
498
100
AcDbEntity
  8
0
  6
Continuous
 62
     7
100
AcDbPolyline
 90
        8
 70
   128
 43
0.0
 10
423.6085684481
 20
316.6337359373
 10
423.6084194365
 20
316.6551042025
 10
423.6080096546
 20
316.7139339869
 10
423.6076892796
 20
316.7593676273
 10
423.6075030151
 20
316.7867038075
 10
423.607219893
 20
316.8274733846
 10
423.6058042827
 20
317.0293468658
 10
423.600238699
 20
317.8274530594
  0
LINE
  5
1D6
330
498
100
AcDbEntity
  8
0
  6
Continuous
 62
     7
100
AcDbLine
 10
426.7189697805
 20
315.1442084138
 30
0.0
 11
425.1085342351
 21
315.1442084138
 31
0.0
  0
ARC
  5
1D7
330
498
100
AcDbEntity
  8
0
  6
Continuous
 62
     7
100
AcDbCircle
 10
426.718968803
 20
316.6442113344
 30
0.0
 40
1.5
100
AcDbArc
 50
270.0
 51
358.0897868283
  0
ARC
  5
1D8
330
498
100
AcDbEntity
  8
0
  6
Continuous
 62
     7
100
AcDbCircle
 10
406.5524925357
 20
360.4540631753
 30
0.0
 40
17.9668294881849
100
AcDbArc
 50
93.81086828950001
 51
100.0440909839
  0
LINE
  5
1D9
330
498
100
AcDbEntity
  8
0
  6
Continuous
 62
     7
100
AcDbLine
 10
403.4189702454
 20
377.9942106132
 30
0.0
 11
409.0510876361
 21
377.9942106132
 31
0.0
  0
LWPOLYLINE
  5
1DA
330
498
100
AcDbEntity
  8
0
  6
Continuous
 62
     7
100
AcDbPolyline
 90
        3
 70
   128
 43
0.0
 10
410.6283792737
 20
377.3936640148
 10
409.794569898
 20
377.7460802023
 10
409.3813159946
 20
377.8914075021
  0
LWPOLYLINE
  5
1DB
330
498
100
AcDbEntity
  8
0
  6
Continuous
 62
     7
100
AcDbPolyline
 90
        4
 70
   128
 43
0.0
 10
410.8328343812
 20
377.2634893332
 10
410.8496875945
 20
377.2628262315
 10
410.8249926451
 20
377.2889777694
 10
410.6283792737
 20
377.3936640148
  0
ARC
  5
1DC
330
498
100
AcDbEntity
  8
0
  6
Continuous
 62
     7
100
AcDbCircle
 10
406.4117823584
 20
366.7687211071
 30
0.0
 40
11.63800296694083
100
AcDbArc
 50
57.47610126399999
 51
67.15200493410002
  0
LINE
  5
1DD
330
498
100
AcDbEntity
  8
0
  6
Continuous
 62
     7
100
AcDbLine
 10
412.6689703646
 20
376.5815041636
 30
0.0
 11
413.0902075651
 21
376.3635914449
 31
0.0
  0
LINE
  5
1DE
330
498
100
AcDbEntity
  8
0
  6
Continuous
 62
     7
100
AcDbLine
 10
422.9798661056
 20
363.0031805162
 30
0.0
 11
423.2017369452
 21
361.1738245611
 31
0.0
  0
LINE
  5
1DF
330
498
100
AcDbEntity
  8
0
  6
Continuous
 62
     7
100
AcDbLine
 10
400.882725555
 20
378.1443062846
 30
0.0
 11
403.4189702454
 21
378.1455300425
 31
0.0
  0
LINE
  5
1E0
330
498
100
AcDbEntity
  8
0
  6
Continuous
 62
     7
100
AcDbLine
 10
368.1189687434
 20
374.1442106341
 30
0.0
 11
368.1189687434
 21
378.5942114566
 31
0.0
  0
LINE
  5
1E1
330
498
100
AcDbEntity
  8
0
  6
Continuous
 62
     7
100
AcDbLine
 10
368.1189687434
 20
423.6942112122
 30
0.0
 11
368.1189687434
 21
428.1442120348
 31
0.0
  0
LINE
  5
1E2
330
498
100
AcDbEntity
  8
0
  6
Continuous
 62
     7
100
AcDbLine
 10
382.1189691755
 20
502.4639714186
 30
0.0
 11
382.1189691755
 21
534.4639617626
 31
0.0
  0
LINE
  5
1E3
330
498
100
AcDbEntity
  8
0
  6
Continuous
 62
     7
100
AcDbLine
 10
388.1189682964
 20
535.4639637892
 30
0.0
 11
388.1189682964
 21
501.463969392
 31
0.0
  0
LWPOLYLINE
  5
1E4
330
498
100
AcDbEntity
  8
0
  6
Continuous
 62
     7
100
AcDbPolyline
 90
       21
 70
   128
 43
0.0
 10
393.133708227
 20
501.4760914866
 10
393.1211390975
 20
501.4657575314
 10
393.2961457852
 20
501.6095760886
 10
394.3028905872
 20
502.4248931233
 10
396.2219627085
 20
503.9125132982
 10
397.6878495398
 20
504.9752343122
 10
399.3897074345
 20
506.1051074092
 10
401.2111844006
 20
507.1545961921
 10
403.27446996
 20
508.0822456305
 10
406.1353737
 20
508.7702843968
 10
409.1343255225
 20
508.6119819109
 10
410.8089999738
 20
508.1384528105
 10
412.4137879792
 20
507.462372226
 10
414.6181204799
 20
506.2476966207
 10
416.612413663
 20
504.9315813605
 10
418.3187270048
 20
503.684436125
 10
419.7308243695
 20
502.587606353
 10
420.432184774
 20
502.0249385063
 10
420.9099607053
 20
501.6356754724
 10
421.1113871518
 20
501.4702129786
 10
421.0930810753
 20
501.4852706019
  0
LINE
  5
1E5
330
498
100
AcDbEntity
  8
0
  6
Continuous
 62
     7
100
AcDbLine
 10
392.118968952
 20
535.163973612
 30
0.0
 11
392.118968952
 21
501.7639670197
 31
0.0
  0
LINE
  5
1E6
330
498
100
AcDbEntity
  8
0
  6
Continuous
 62
     7
100
AcDbLine
 10
429.1189657036
 20
534.4639617626
 30
0.0
 11
429.1189657036
 21
502.4639714186
 31
0.0
  0
LINE
  5
1E7
330
498
100
AcDbEntity
  8
0
  6
Continuous
 62
     7
100
AcDbLine
 10
405.6387477997
 20
423.9639669333
 30
0.0
 11
393.4189686063
 21
423.9639669333
 31
0.0
  0
LINE
  5
1E8
330
498
100
AcDbEntity
  8
0
  6
Continuous
 62
     7
100
AcDbLine
 10
403.4166046861
 20
418.4639669631
 30
0.0
 11
402.422768015
 21
418.4639669631
 31
0.0
  0
LWPOLYLINE
  5
1E9
330
498
100
AcDbEntity
  8
0
  6
Continuous
 62
     7
100
AcDbPolyline
 90
        3
 70
   128
 43
0.0
 10
401.8390262011
 20
418.7556329791
 10
401.887224007
 20
418.7539305214
 10
403.5143116
 20
418.7058034961
  0
LINE
  5
1EA
330
498
100
AcDbEntity
  8
0
  6
Continuous
 62
     7
100
AcDbLine
 10
369.6941760811
 20
378.5942114566
 30
0.0
 11
369.6941760811
 21
372.0232482676
 31
0.0
  0
LWPOLYLINE
  5
1EB
330
498
100
AcDbEntity
  8
0
  6
Continuous
 62
     7
100
AcDbPolyline
 90
       12
 70
   128
 43
0.0
 10
380.9633114818
 20
378.5942114566
 10
380.9655522439
 20
378.5758606766
 10
380.5671659741
 20
376.208401439
 10
379.5036477479
 20
374.1373356108
 10
377.9395995173
 20
372.6749710415
 10
376.1474256846
 20
371.9909313743
 10
374.380295116
 20
372.0636322771
 10
372.773689169
 20
372.7898180161
 10
371.4093993861
 20
374.1045064901
 10
370.4103547591
 20
375.9514979695
 10
370.2988652024
 20
376.2776378219
 10
369.9284949783
 20
378.5942114566
  0
LINE
  5
1EC
330
498
100
AcDbEntity
  8
0
  6
Continuous
 62
     7
100
AcDbLine
 10
392.5941781583
 20
371.7442109857
 30
0.0
 11
369.7941768426
 21
371.7442109857
 31
0.0
  0
LINE
  5
1ED
330
498
100
AcDbEntity
  8
0
  6
Continuous
 62
     7
100
AcDbLine
 10
392.6941761258
 20
372.0245260422
 30
0.0
 11
392.6941761258
 21
379.4974416171
 31
0.0
  0
LWPOLYLINE
  5
1EE
330
498
100
AcDbEntity
  8
0
  6
Continuous
 62
     7
100
AcDbPolyline
 90
       12
 70
   128
 43
0.0
 10
392.3969463888
 20
379.4316976939
 10
392.4600937846
 20
379.089472038
 10
392.2116951528
 20
376.7041798357
 10
391.2822389486
 20
374.5402983998
 10
389.8050607625
 20
372.9263405923
 10
388.0374924722
 20
372.0709170823
 10
386.249463025
 20
371.9895772312
 10
384.6015547845
 20
372.5826341335
 10
383.1769050542
 20
373.7744755719
 10
382.0861847582
 20
375.5146853302
 10
381.7988642934
 20
376.2776378219
 10
381.4284940693
 20
378.5942114566
  0
LINE
  5
1EF
330
498
100
AcDbEntity
  8
0
  6
Continuous
 62
     7
100
AcDbLine
 10
430.0189660373
 20
516.6192475383
 30
0.0
 11
430.0189660373
 21
520.3086856429
 31
0.0
  0
LINE
  5
1F0
330
498
100
AcDbEntity
  8
0
  6
Continuous
 62
     7
100
AcDbLine
 10
430.1189677301
 20
520.2863264505
 30
0.0
 11
430.1189677301
 21
516.6416067306
 31
0.0
  0
ARC
  5
1F1
330
498
100
AcDbEntity
  8
0
  6
Continuous
 62
     7
100
AcDbCircle
 10
430.0427215404
 20
516.7478096728
 30
0.0
 40
0.1307384654586539
100
AcDbArc
 50
259.5310599547
 51
305.6756690012
  0
ARC
  5
1F2
330
498
100
AcDbEntity
  8
0
  6
Continuous
 62
     7
100
AcDbCircle
 10
430.042726183
 20
520.1801442724
 30
0.0
 40
0.1307188909879021
100
AcDbArc
 50
54.32067627910001
 51
100.4725947649
  0
LINE
  5
1F3
330
498
100
AcDbEntity
  8
0
  6
Continuous
 62
     7
100
AcDbLine
 10
430.0189660373
 20
520.3086856429
 30
0.0
 11
430.0189660373
 21
520.4639706437
 31
0.0
  0
LINE
  5
1F4
330
498
100
AcDbEntity
  8
0
  6
Continuous
 62
     7
100
AcDbLine
 10
429.1189657036
 20
520.4639706437
 30
0.0
 11
430.0189660373
 21
520.4639706437
 31
0.0
  0
LINE
  5
1F5
330
498
100
AcDbEntity
  8
0
  6
Continuous
 62
     7
100
AcDbLine
 10
430.0189660373
 20
516.4639699881
 30
0.0
 11
430.0189660373
 21
516.6192475383
 31
0.0
  0
LINE
  5
1F6
330
498
100
AcDbEntity
  8
0
  6
Continuous
 62
     7
100
AcDbLine
 10
430.0189660373
 20
516.4639699881
 30
0.0
 11
429.1189657036
 21
516.4639699881
 31
0.0
  0
ARC
  5
1F7
330
498
100
AcDbEntity
  8
0
  6
Continuous
 62
     7
100
AcDbCircle
 10
430.018968803
 20
516.5639677949
 30
0.0
 40
0.1000000000000227
100
AcDbArc
 50
270.0
 51
0.0
  0
LINE
  5
1F8
330
498
100
AcDbEntity
  8
0
  6
Continuous
 62
     7
100
AcDbLine
 10
430.1189677301
 20
516.6416067306
 30
0.0
 11
430.1189677301
 21
516.5639642302
 31
0.0
  0
ARC
  5
1F9
330
498
100
AcDbEntity
  8
0
  6
Continuous
 62
     7
100
AcDbCircle
 10
430.018968803
 20
520.3639677949
 30
0.0
 40
0.1000000000000227
100
AcDbArc
 50
0.0
 51
90.0
  0
LINE
  5
1FA
330
498
100
AcDbEntity
  8
0
  6
Continuous
 62
     7
100
AcDbLine
 10
430.1189677301
 20
520.3639689509
 30
0.0
 11
430.1189677301
 21
520.2863264505
 31
0.0
  0
LWPOLYLINE
  5
1FB
330
498
100
AcDbEntity
  8
0
  6
Continuous
 62
     7
100
AcDbPolyline
 90
        7
 70
   128
 43
0.0
 10
413.823013145
 20
266.0661089842
 10
411.4800700429
 20
265.5251968328
 10
409.2890591803
 20
265.019362015
 10
407.4773424748
 20
264.6010864202
 10
406.2685193005
 20
264.3220174734
 10
405.8160865191
 20
264.2175603334
 10
405.8394776168
 20
264.2229545538
  0
LWPOLYLINE
  5
1FC
330
498
100
AcDbEntity
  8
0
  6
Continuous
 62
     7
100
AcDbPolyline
 90
        6
 70
   128
 43
0.0
 10
419.6017691377
 20
267.4002397482
 10
419.2751207832
 20
267.3248249714
 10
418.2014511409
 20
267.0769441549
 10
416.537676889
 20
266.6928369228
 10
414.4622580591
 20
266.2136900846
 10
413.823013145
 20
266.0661089842
  0
LINE
  5
1FD
330
498
100
AcDbEntity
  8
0
  6
Continuous
 62
     7
100
AcDbLine
 10
388.6941754702
 20
358.7442125802
 30
0.0
 11
373.6941767368
 21
358.7442125802
 31
0.0
  0
LINE
  5
1FE
330
498
100
AcDbEntity
  8
0
  6
Continuous
 62
     7
100
AcDbLine
 10
381.1758392933
 20
255.7442087357
 30
0.0
 11
388.4113588813
 21
255.7442087357
 31
0.0
  0
LINE
  5
1FF
330
498
100
AcDbEntity
  8
0
  6
Continuous
 62
     7
100
AcDbLine
 10
381.1758392933
 20
255.7442087357
 30
0.0
 11
374.5967233065
 21
255.7442087357
 31
0.0
  0
LINE
  5
200
330
498
100
AcDbEntity
  8
0
  6
Continuous
 62
     8
100
AcDbLine
 10
389.3282571319
 20
378.834969518
 30
0.0
 11
389.3282571319
 21
423.4534531508
 31
0.0
  0
LINE
  5
201
330
498
100
AcDbEntity
  8
0
  6
Continuous
 62
     8
100
AcDbLine
 10
389.3991084281
 20
378.9164751445
 30
0.0
 11
389.3991084281
 21
423.3719475244
 31
0.0
  0
ARC
  5
202
330
498
100
AcDbEntity
  8
0
  6
Continuous
 62
     8
100
AcDbCircle
 10
406.2658952751
 20
361.2100384683
 30
0.0
 40
16.93833791227074
100
AcDbArc
 50
359.9232448394001
 51
74.01373066639998
  0
LINE
  5
203
330
498
100
AcDbEntity
  8
0
  6
Continuous
 62
     8
100
AcDbLine
 10
403.6375516537
 20
377.3936640148
 30
0.0
 11
410.6283792737
 21
377.3936640148
 31
0.0
  0
LINE
  5
204
330
498
100
AcDbEntity
  8
0
  6
Continuous
 62
     8
100
AcDbLine
 10
367.6189686614
 20
428.6442111854
 30
0.0
 11
367.6189686614
 21
423.6942112122
 31
0.0
  0
LINE
  5
205
330
498
100
AcDbEntity
  8
0
  6
Continuous
 62
     8
100
AcDbLine
 10
367.6189686614
 20
378.5942114566
 30
0.0
 11
367.6189686614
 21
373.6442114834
 31
0.0
  0
LWPOLYLINE
  5
206
330
498
100
AcDbEntity
  8
0
  6
Continuous
 62
     8
100
AcDbPolyline
 90
        3
 70
   128
 43
0.0
 10
402.0880655828
 20
418.5449584995
 10
402.3220398906
 20
418.5357682083
 10
403.5835274938
 20
418.4940877978
  0
LINE
  5
207
330
498
100
AcDbEntity
  8
0
  6
Continuous
 62
     8
100
AcDbLine
 10
429.1189657036
 20
516.6192475383
 30
0.0
 11
430.0189660373
 21
516.6192475383
 31
0.0
  0
LINE
  5
208
330
498
100
AcDbEntity
  8
0
  6
Continuous
 62
     8
100
AcDbLine
 10
430.0189660373
 20
520.3086856429
 30
0.0
 11
429.1189657036
 21
520.3086856429
 31
0.0
  0
LINE
  5
209
330
498
100
AcDbEntity
  8
0
  6
Continuous
 62
     7
100
AcDbLine
 10
180.592702952
 20
177.8206673323
 30
0.0
 11
180.592702952
 21
183.8206673845
 31
0.0
  0
LINE
  5
20A
330
498
100
AcDbEntity
  8
0
  6
Continuous
 62
     7
100
AcDbLine
 10
100.5927047401
 20
183.8206673845
 30
0.0
 11
100.5927047401
 21
177.8206673323
 31
0.0
  0
ARC
  5
20B
330
498
100
AcDbEntity
  8
0
  6
Continuous
 62
     7
100
AcDbCircle
 10
179.592703846
 20
177.8206673845
 30
0.0
 40
1.0
100
AcDbArc
 50
270.0
 51
0.0
  0
ARC
  5
20C
330
498
100
AcDbEntity
  8
0
  6
Continuous
 62
     7
100
AcDbCircle
 10
101.592703846
 20
177.8206673845
 30
0.0
 40
1.000000000000028
100
AcDbArc
 50
180.0
 51
270.0
  0
LINE
  5
20D
330
498
100
AcDbEntity
  8
0
  6
Continuous
 62
     7
100
AcDbLine
 10
117.5927038013
 20
144.0220835491
 30
0.0
 11
117.5927038013
 21
114.2206664069
 31
0.0
  0
LINE
  5
20E
330
498
100
AcDbEntity
  8
0
  6
Continuous
 62
     7
100
AcDbLine
 10
163.5927038907
 20
114.2206664069
 30
0.0
 11
163.5927038907
 21
144.0220835491
 31
0.0
  0
ARC
  5
20F
330
498
100
AcDbEntity
  8
0
  6
Continuous
 62
     7
100
AcDbCircle
 10
162.092703846
 20
114.2206673845
 30
0.0
 40
1.5
100
AcDbArc
 50
270.0
 51
0.0
  0
ARC
  5
210
330
498
100
AcDbEntity
  8
0
  6
Continuous
 62
     7
100
AcDbCircle
 10
119.092703846
 20
114.2206673845
 30
0.0
 40
1.5
100
AcDbArc
 50
180.0
 51
270.0
  0
LINE
  5
211
330
498
100
AcDbEntity
  8
0
  6
Continuous
 62
     7
100
AcDbLine
 10
118.0427039682
 20
176.8206671684
 30
0.0
 11
118.0427039682
 21
152.139677374
 31
0.0
  0
LINE
  5
212
330
498
100
AcDbEntity
  8
0
  6
Continuous
 62
     7
100
AcDbLine
 10
163.1427037238
 20
152.139677374
 30
0.0
 11
163.1427037238
 21
176.8206671684
 31
0.0
  0
ARC
  5
213
330
498
100
AcDbEntity
  8
0
  6
Continuous
 62
     7
100
AcDbCircle
 10
118.742703846
 20
152.1396757633
 30
0.0
 40
0.7000000000000061
100
AcDbArc
 50
180.0
 51
229.0
  0
ARC
  5
214
330
498
100
AcDbEntity
  8
0
  6
Continuous
 62
     7
100
AcDbCircle
 10
162.442703846
 20
152.1396757633
 30
0.0
 40
0.7000000000000247
100
AcDbArc
 50
311.0
 51
0.0
  0
LINE
  5
215
330
498
100
AcDbEntity
  8
0
  6
Continuous
 62
     7
100
AcDbLine
 10
118.2834620296
 20
151.6113790556
 30
0.0
 11
118.3649676561
 21
151.5405277594
 31
0.0
  0
LINE
  5
216
330
498
100
AcDbEntity
  8
0
  6
Continuous
 62
     7
100
AcDbLine
 10
162.820440036
 20
151.5405277594
 30
0.0
 11
162.9019456624
 21
151.6113790556
 31
0.0
  0
LWPOLYLINE
  5
217
330
498
100
AcDbEntity
  8
0
  6
Continuous
 62
     7
100
AcDbPolyline
 90
        3
 70
   128
 43
0.0
 10
140.4593999934
 20
112.3376513704
 10
151.4049770951
 20
112.440640746
 10
162.0137805759
 20
112.72018653
  0
LWPOLYLINE
  5
218
330
498
100
AcDbEntity
  8
0
  6
Continuous
 62
     7
100
AcDbPolyline
 90
        3
 70
   128
 43
0.0
 10
119.1716271161
 20
112.72018653
 10
129.780430597
 20
112.440640746
 10
140.7260076987
 20
112.3376513704
  0
ARC
  5
219
330
498
100
AcDbEntity
  8
0
  6
Continuous
 62
     7
100
AcDbCircle
 10
117.9057261648
 20
151.0122311708
 30
0.0
 40
0.6999999999999912
100
AcDbArc
 50
2.7443153111
 51
48.99999999999999
  0
ARC
  5
21A
330
498
100
AcDbEntity
  8
0
  6
Continuous
 62
     7
100
AcDbCircle
 10
163.2796815272
 20
151.0122311708
 30
0.0
 40
0.7000000000000005
100
AcDbArc
 50
131.0
 51
177.2556846889
  0
ARC
  5
21B
330
498
100
AcDbEntity
  8
0
  6
Continuous
 62
     7
100
AcDbCircle
 10
140.5796924835
 20
152.0990850611
 30
0.0
 40
22.00000000000001
100
AcDbArc
 50
182.7443153111
 51
200.9849950651
  0
ARC
  5
21C
330
498
100
AcDbEntity
  8
0
  6
Continuous
 62
     7
100
AcDbCircle
 10
140.6057152085
 20
152.0990850611
 30
0.0
 40
22.0
100
AcDbArc
 50
339.0174818025999
 51
357.2556846889
  0
LINE
  5
21D
330
498
100
AcDbEntity
  8
0
  6
Continuous
 62
     7
100
AcDbLine
 10
253.5927018791
 20
152.8206678911
 30
0.0
 11
253.5927018791
 21
157.820666848
 31
0.0
  0
LINE
  5
21E
330
498
100
AcDbEntity
  8
0
  6
Continuous
 62
     7
100
AcDbLine
 10
219.5927074819
 20
157.820666848
 30
0.0
 11
219.5927074819
 21
152.8206678911
 31
0.0
  0
ARC
  5
21F
330
498
100
AcDbEntity
  8
0
  6
Continuous
 62
     7
100
AcDbCircle
 10
252.592703846
 20
157.8206673845
 30
0.0
 40
1.0
100
AcDbArc
 50
0.0
 51
90.0
  0
ARC
  5
220
330
498
100
AcDbEntity
  8
0
  6
Continuous
 62
     7
100
AcDbCircle
 10
220.592703846
 20
157.8206673845
 30
0.0
 40
1.0
100
AcDbArc
 50
90.0
 51
180.0
  0
ARC
  5
221
330
498
100
AcDbEntity
  8
0
  6
Continuous
 62
     7
100
AcDbCircle
 10
253.292703846
 20
148.5206673845
 30
0.0
 40
0.3000000000000114
100
AcDbArc
 50
0.0
 51
90.0
  0
ARC
  5
222
330
498
100
AcDbEntity
  8
0
  6
Continuous
 62
     7
100
AcDbCircle
 10
219.892703846
 20
148.5206673845
 30
0.0
 40
0.3000000000000114
100
AcDbArc
 50
90.0
 51
180.0
  0
LINE
  5
223
330
498
100
AcDbEntity
  8
0
  6
Continuous
 62
     7
100
AcDbLine
 10
253.5927018791
 20
112.8206650599
 30
0.0
 11
253.5927018791
 21
148.5206658824
 31
0.0
  0
LINE
  5
224
330
498
100
AcDbEntity
  8
0
  6
Continuous
 62
     7
100
AcDbLine
 10
219.5927074819
 20
148.5206658824
 30
0.0
 11
219.5927074819
 21
112.8206650599
 31
0.0
  0
ARC
  5
225
330
498
100
AcDbEntity
  8
0
  6
Continuous
 62
     7
100
AcDbCircle
 10
220.592703846
 20
112.8206673845
 30
0.0
 40
1.0
100
AcDbArc
 50
180.0
 51
270.0
  0
ARC
  5
226
330
498
100
AcDbEntity
  8
0
  6
Continuous
 62
     7
100
AcDbCircle
 10
252.592703846
 20
112.8206673845
 30
0.0
 40
1.0
100
AcDbArc
 50
270.0
 51
0.0
  0
LINE
  5
227
330
498
100
AcDbEntity
  8
0
  6
Continuous
 62
     7
100
AcDbLine
 10
251.5927052765
 20
148.8206672355
 30
0.0
 11
251.5927052765
 21
152.8206678911
 31
0.0
  0
LINE
  5
228
330
498
100
AcDbEntity
  8
0
  6
Continuous
 62
     7
100
AcDbLine
 10
221.5927040844
 20
152.8206678911
 30
0.0
 11
221.5927040844
 21
148.8206672355
 31
0.0
  0
ARC
  5
229
330
498
100
AcDbEntity
  8
0
  6
Continuous
 62
     7
100
AcDbCircle
 10
228.442703846
 20
110.9206673845
 30
0.0
 40
0.1000000000000227
100
AcDbArc
 50
180.0
 51
270.0
  0
ARC
  5
22A
330
498
100
AcDbEntity
  8
0
  6
Continuous
 62
     7
100
AcDbCircle
 10
244.742703846
 20
110.9206673845
 30
0.0
 40
0.0999999999999943
100
AcDbArc
 50
270.0
 51
0.0
  0
LINE
  5
22B
330
498
100
AcDbEntity
  8
0
  6
Continuous
 62
     7
100
AcDbLine
 10
244.8427027731
 20
110.9206701501
 30
0.0
 11
244.8427027731
 21
111.8206704839
 31
0.0
  0
LINE
  5
22C
330
498
100
AcDbEntity
  8
0
  6
Continuous
 62
     7
100
AcDbLine
 10
228.3427065878
 20
111.8206704839
 30
0.0
 11
228.3427065878
 21
110.9206701501
 31
0.0
  0
ARC
  5
22D
330
498
100
AcDbEntity
  8
0
  6
Continuous
 62
     7
100
AcDbCircle
 10
213.592703846
 20
173.3206673845
 30
0.0
 40
0.5
100
AcDbArc
 50
180.0
 51
270.0
  0
ARC
  5
22E
330
498
100
AcDbEntity
  8
0
  6
Continuous
 62
     7
100
AcDbCircle
 10
267.592703846
 20
173.3206673845
 30
0.0
 40
0.5000000000000568
100
AcDbArc
 50
270.0
 51
0.0
  0
LINE
  5
22F
330
498
100
AcDbEntity
  8
0
  6
Continuous
 62
     7
100
AcDbLine
 10
213.0927017599
 20
183.8206673845
 30
0.0
 11
213.0927017599
 21
173.320667526
 31
0.0
  0
LINE
  5
230
330
498
100
AcDbEntity
  8
0
  6
Continuous
 62
     7
100
AcDbLine
 10
268.0927014618
 20
173.320667526
 30
0.0
 11
268.0927014618
 21
183.8206673845
 31
0.0
  0
LINE
  5
231
330
498
100
AcDbEntity
  8
0
  6
Continuous
 62
     7
100
AcDbLine
 10
227.5927013426
 20
172.8206674441
 30
0.0
 11
227.5927013426
 21
158.8206670119
 31
0.0
  0
LINE
  5
232
330
498
100
AcDbEntity
  8
0
  6
Continuous
 62
     7
100
AcDbLine
 10
253.5927018791
 20
148.5206658824
 30
0.0
 11
253.5927018791
 21
152.8206678911
 31
0.0
  0
LINE
  5
233
330
498
100
AcDbEntity
  8
0
  6
Continuous
 62
     7
100
AcDbLine
 10
253.5927018791
 20
157.820666848
 30
0.0
 11
253.5927018791
 21
172.8206674441
 31
0.0
  0
ARC
  5
234
330
498
100
AcDbEntity
  8
0
  6
Continuous
 62
     7
100
AcDbCircle
 10
240.2839878898
 20
159.745459654
 30
0.0
 40
13.14999999999982
100
AcDbArc
 50
178.9146629575
 51
181.0726979239
  0
LINE
  5
235
330
498
100
AcDbEntity
  8
0
  6
Continuous
 62
     7
100
AcDbLine
 10
180.592702952
 20
183.8206673845
 30
0.0
 11
100.5927047401
 21
183.8206673845
 31
0.0
  0
LINE
  5
236
330
498
100
AcDbEntity
  8
0
  6
Continuous
 62
     7
100
AcDbLine
 10
179.5927046507
 20
176.8206671684
 30
0.0
 11
101.5927030414
 21
176.8206671684
 31
0.0
  0
LWPOLYLINE
  5
237
330
498
100
AcDbEntity
  8
0
  6
Continuous
 62
     7
100
AcDbPolyline
 90
        5
 70
   128
 43
0.0
 10
117.8204587369
 20
144.300422339
 10
117.6688841253
 20
144.2722889467
 10
117.5930092751
 20
144.0062398895
 10
117.7184919535
 20
143.3303306683
 10
117.8699752956
 20
142.8789074405
  0
LWPOLYLINE
  5
238
330
498
100
AcDbEntity
  8
0
  6
Continuous
 62
     7
100
AcDbPolyline
 90
       25
 70
   128
 43
0.0
 10
163.3154323965
 20
142.8789074405
 10
162.7385767817
 20
141.8178963347
 10
161.8539954244
 20
140.791444747
 10
160.6739817827
 20
139.8138130887
 10
159.2149308591
 20
138.8985874935
 10
157.4971156835
 20
138.0584898277
 10
155.5444088473
 20
137.3051839753
 10
153.3839425712
 20
136.6491454526
 10
151.045737107
 20
136.0994863196
 10
148.5622825741
 20
135.6638434215
 10
145.9680872678
 20
135.3482778056
 10
143.2991994254
 20
135.1571629628
 10
140.592703846
 20
135.0931624754
 10
137.8862082667
 20
135.1571629628
 10
135.2173204242
 20
135.3482778056
 10
132.6231251179
 20
135.6638434215
 10
130.139670585
 20
136.0994863196
 10
127.8014651208
 20
136.6491454526
 10
125.6409988447
 20
137.3051839753
 10
123.6882920086
 20
138.0584898277
 10
121.9704768329
 20
138.8985874935
 10
120.5114259093
 20
139.8138130887
 10
119.3314122676
 20
140.791444747
 10
118.4468309104
 20
141.8178963347
 10
117.8699752956
 20
142.8789074405
  0
LWPOLYLINE
  5
239
330
498
100
AcDbEntity
  8
0
  6
Continuous
 62
     7
100
AcDbPolyline
 90
        5
 70
   128
 43
0.0
 10
163.3649489551
 20
144.300422339
 10
163.5165235668
 20
144.2722889467
 10
163.5923984169
 20
144.0062398895
 10
163.4669157385
 20
143.3303306683
 10
163.3154323965
 20
142.8789074405
  0
LINE
  5
23A
330
498
100
AcDbEntity
  8
0
  6
Continuous
 62
     7
100
AcDbLine
 10
140.592703846
 20
112.7214978321
 30
0.0
 11
161.9969478517
 21
112.7214978321
 31
0.0
  0
LINE
  5
23B
330
498
100
AcDbEntity
  8
0
  6
Continuous
 62
     7
100
AcDbLine
 10
140.592703846
 20
112.7214978321
 30
0.0
 11
119.1884598403
 21
112.7214978321
 31
0.0
  0
LWPOLYLINE
  5
23C
330
498
100
AcDbEntity
  8
0
  6
Continuous
 62
     7
100
AcDbPolyline
 90
       25
 70
   128
 43
0.0
 10
118.067564693
 20
143.064344941
 10
118.6394042044
 20
142.0033338352
 10
119.5162928372
 20
140.9768822475
 10
120.6860451668
 20
139.9992505892
 10
122.1324096143
 20
139.084024994
 10
123.8352863758
 20
138.2439236029
 10
125.7710133388
 20
137.4906214758
 10
127.9126929759
 20
136.8345829531
 10
130.230566737
 20
136.2849238201
 10
132.692425762
 20
135.849280922
 10
135.2640630386
 20
135.5337115808
 10
137.909743021
 20
135.3426004632
 10
140.592703846
 20
135.2785999759
 10
143.2756646711
 20
135.3426004632
 10
145.9213446534
 20
135.5337115808
 10
148.49298193
 20
135.849280922
 10
150.9548409551
 20
136.2849238201
 10
153.2727147161
 20
136.8345829531
 10
155.4143943533
 20
137.4906214758
 10
157.3501213162
 20
138.2439236029
 10
159.0529980778
 20
139.084024994
 10
160.4993625253
 20
139.9992505892
 10
161.6691148549
 20
140.9768822475
 10
162.5460034876
 20
142.0033338352
 10
163.117842999
 20
143.064344941
  0
LWPOLYLINE
  5
23D
330
498
100
AcDbEntity
  8
0
  6
Continuous
 62
     7
100
AcDbPolyline
 90
       16
 70
   128
 43
0.0
 10
120.8467411517
 20
143.064344941
 10
122.2248862206
 20
141.8818558439
 10
124.1004767536
 20
140.7996590122
 10
126.4804594859
 20
139.8310462817
 10
129.2581812187
 20
139.0246140643
 10
132.3599920317
 20
138.4056645318
 10
135.6938353448
 20
137.9890727683
 10
139.1679085965
 20
137.7895909234
 10
142.682141409
 20
137.809849052
 10
146.1367879703
 20
138.0523803516
 10
149.4351506873
 20
138.5072680994
 10
152.480687265
 20
139.1644949897
 10
155.1910967275
 20
140.0027300103
 10
157.4840361892
 20
141.0005043133
 10
159.300817427
 20
142.1275201126
 10
160.3386665403
 20
143.064344941
  0
LWPOLYLINE
  5
23E
330
498
100
AcDbEntity
  8
0
  6
Continuous
 62
     7
100
AcDbPolyline
 90
        3
 70
   128
 43
0.0
 10
160.4510846257
 20
143.1913512631
 10
160.9190891206
 20
143.8079762145
 10
161.1392332881
 20
144.2222396715
  0
LINE
  5
23F
330
498
100
AcDbEntity
  8
0
  6
Continuous
 62
     7
100
AcDbLine
 10
160.3386665403
 20
143.064344941
 30
0.0
 11
160.4510846257
 21
143.1913512631
 31
0.0
  0
ARC
  5
240
330
498
100
AcDbEntity
  8
0
  6
Continuous
 62
     7
100
AcDbCircle
 10
122.7193143672
 20
145.2178272672
 30
0.0
 40
2.853772341421874
100
AcDbArc
 50
200.3656994196
 51
228.991217798
  0
LINE
  5
241
330
498
100
AcDbEntity
  8
0
  6
Continuous
 62
     7
100
AcDbLine
 10
161.2592286139
 20
144.5206689521
 30
0.0
 11
163.0588232248
 21
144.5206689521
 31
0.0
  0
LWPOLYLINE
  5
242
330
498
100
AcDbEntity
  8
0
  6
Continuous
 62
     7
100
AcDbPolyline
 90
        6
 70
   128
 43
0.0
 10
163.117842999
 20
143.064344941
 10
163.1178523123
 20
143.0643672927
 10
163.3924006193
 20
144.2018995865
 10
163.3171870082
 20
144.4718415721
 10
163.0588325381
 20
144.5206689521
 10
163.0588232248
 20
144.5206689521
  0
LWPOLYLINE
  5
243
330
498
100
AcDbEntity
  8
0
  6
Continuous
 62
     7
100
AcDbPolyline
 90
        6
 70
   128
 43
0.0
 10
118.067564693
 20
143.064344941
 10
118.0675553798
 20
143.0643672927
 10
117.7930070727
 20
144.2018995865
 10
117.8682206839
 20
144.4718415721
 10
118.126575154
 20
144.5206689521
 10
118.1265844672
 20
144.5206689521
  0
LINE
  5
244
330
498
100
AcDbEntity
  8
0
  6
Continuous
 62
     7
100
AcDbLine
 10
118.7358445197
 20
144.5206689521
 30
0.0
 11
118.1265844672
 21
144.5206689521
 31
0.0
  0
LINE
  5
245
330
498
100
AcDbEntity
  8
0
  6
Continuous
 62
     7
100
AcDbLine
 10
118.7358445197
 20
144.5206689521
 30
0.0
 11
120.2487221628
 21
144.5205646439
 31
0.0
  0
LINE
  5
246
330
498
100
AcDbEntity
  8
0
  6
Continuous
 62
     7
100
AcDbLine
 10
118.7358445197
 20
144.5206689521
 30
0.0
 11
119.9261790782
 21
144.5206689521
 31
0.0
  0
LINE
  5
247
330
498
100
AcDbEntity
  8
0
  6
Continuous
 62
     7
100
AcDbLine
 10
236.5927046805
 20
152.8206678911
 30
0.0
 11
219.5927074819
 21
152.8206678911
 31
0.0
  0
LINE
  5
248
330
498
100
AcDbEntity
  8
0
  6
Continuous
 62
     7
100
AcDbLine
 10
253.5927018791
 20
152.8206678911
 30
0.0
 11
236.5927046805
 21
152.8206678911
 31
0.0
  0
LINE
  5
249
330
498
100
AcDbEntity
  8
0
  6
Continuous
 62
     7
100
AcDbLine
 10
236.5927046805
 20
158.8206670119
 30
0.0
 11
252.5927073031
 21
158.8206670119
 31
0.0
  0
LINE
  5
24A
330
498
100
AcDbEntity
  8
0
  6
Continuous
 62
     7
100
AcDbLine
 10
220.5927020579
 20
158.8206670119
 30
0.0
 11
236.5927046805
 21
158.8206670119
 31
0.0
  0
LINE
  5
24B
330
498
100
AcDbEntity
  8
0
  6
Continuous
 62
     7
100
AcDbLine
 10
236.5927046805
 20
148.8206672355
 30
0.0
 11
253.2927042513
 21
148.8206672355
 31
0.0
  0
LINE
  5
24C
330
498
100
AcDbEntity
  8
0
  6
Continuous
 62
     7
100
AcDbLine
 10
219.8927051096
 20
148.8206672355
 30
0.0
 11
236.5927046805
 21
148.8206672355
 31
0.0
  0
LINE
  5
24D
330
498
100
AcDbEntity
  8
0
  6
Continuous
 62
     7
100
AcDbLine
 10
252.5927073031
 20
111.8206704839
 30
0.0
 11
220.5927020579
 21
111.8206704839
 31
0.0
  0
LINE
  5
24E
330
498
100
AcDbEntity
  8
0
  6
Continuous
 62
     7
100
AcDbLine
 10
244.4388813048
 20
110.8206684573
 30
0.0
 11
228.7465280562
 21
110.8206684573
 31
0.0
  0
LINE
  5
24F
330
498
100
AcDbEntity
  8
0
  6
Continuous
 62
     7
100
AcDbLine
 10
228.7465280562
 20
110.8206684573
 30
0.0
 11
228.7465280562
 21
110.9206701501
 31
0.0
  0
LINE
  5
250
330
498
100
AcDbEntity
  8
0
  6
Continuous
 62
     7
100
AcDbLine
 10
228.7465280562
 20
110.9206701501
 30
0.0
 11
244.4388813048
 21
110.9206701501
 31
0.0
  0
LINE
  5
251
330
498
100
AcDbEntity
  8
0
  6
Continuous
 62
     7
100
AcDbLine
 10
244.4388813048
 20
110.8206684573
 30
0.0
 11
244.4388813048
 21
110.9206701501
 31
0.0
  0
LINE
  5
252
330
498
100
AcDbEntity
  8
0
  6
Continuous
 62
     7
100
AcDbLine
 10
228.7465280562
 20
110.8206684573
 30
0.0
 11
228.6490595608
 21
110.8206684573
 31
0.0
  0
ARC
  5
253
330
498
100
AcDbEntity
  8
0
  6
Continuous
 62
     7
100
AcDbCircle
 10
228.6503460014
 20
110.9194228907
 30
0.0
 40
0.0987628119665635
100
AcDbArc
 50
179.2764016996
 51
269.2536694942
  0
LINE
  5
254
330
498
100
AcDbEntity
  8
0
  6
Continuous
 62
     7
100
AcDbLine
 10
228.5515910655
 20
110.9206701501
 30
0.0
 11
228.7465280562
 21
110.9206701501
 31
0.0
  0
LINE
  5
255
330
498
100
AcDbEntity
  8
0
  6
Continuous
 62
     7
100
AcDbLine
 10
244.4388813048
 20
110.9206701501
 30
0.0
 11
244.6338182955
 21
110.9206701501
 31
0.0
  0
LINE
  5
256
330
498
100
AcDbEntity
  8
0
  6
Continuous
 62
     7
100
AcDbLine
 10
244.5363498002
 20
110.8206684573
 30
0.0
 11
244.4388813048
 21
110.8206684573
 31
0.0
  0
ARC
  5
257
330
498
100
AcDbEntity
  8
0
  6
Continuous
 62
     7
100
AcDbCircle
 10
244.5350633596
 20
110.9194228907
 30
0.0
 40
0.0987628119666208
100
AcDbArc
 50
270.7463305059
 51
0.7235983004
  0
LINE
  5
258
330
498
100
AcDbEntity
  8
0
  6
Continuous
 62
     7
100
AcDbLine
 10
228.6490595608
 20
110.8206684573
 30
0.0
 11
228.44270083
 21
110.8206684573
 31
0.0
  0
LINE
  5
259
330
498
100
AcDbEntity
  8
0
  6
Continuous
 62
     7
100
AcDbLine
 10
244.7427010804
 20
110.8206684573
 30
0.0
 11
244.5363498002
 21
110.8206684573
 31
0.0
  0
LINE
  5
25A
330
498
100
AcDbEntity
  8
0
  6
Continuous
 62
     7
100
AcDbLine
 10
213.5927027731
 20
172.8206674441
 30
0.0
 11
267.5927078991
 21
172.8206674441
 31
0.0
  0
LINE
  5
25B
330
498
100
AcDbEntity
  8
0
  6
Continuous
 62
     7
100
AcDbLine
 10
268.0927014618
 20
183.8206673845
 30
0.0
 11
213.0927017599
 21
183.8206673845
 31
0.0
  0
LWPOLYLINE
  5
25C
330
498
100
AcDbEntity
  8
0
  6
Continuous
 62
     7
100
AcDbPolyline
 90
        3
 70
   128
 43
0.0
 10
227.5927013426
 20
160.7635102107
 10
227.30034056
 20
160.2571184619
 10
227.1494514018
 20
159.995776309
  0
LWPOLYLINE
  5
25D
330
498
100
AcDbEntity
  8
0
  6
Continuous
 62
     7
100
AcDbPolyline
 90
        3
 70
   128
 43
0.0
 10
227.14545044
 20
159.5020691737
 10
227.318318811
 20
159.2026582791
 10
227.5388634472
 20
158.8206670119
  0
ARC
  5
25E
330
498
100
AcDbEntity
  8
0
  6
Continuous
 62
     7
100
AcDbCircle
 10
248.8123501755
 20
159.6917313179
 30
0.0
 40
5.426052693326959
100
AcDbArc
 50
353.961013096
 51
28.2367869702
  0
LWPOLYLINE
  5
25F
330
498
100
AcDbEntity
  8
0
  6
Continuous
 62
     7
100
AcDbPolyline
 90
        3
 70
   128
 43
0.0
 10
254.2082911997
 20
159.1208825692
 10
253.7100336223
 20
156.8353666796
 10
253.5927018791
 20
156.6447789653
  0
LINE
  5
260
330
498
100
AcDbEntity
  8
0
  6
Continuous
 62
     8
100
AcDbLine
 10
118.2834620296
 20
151.6113790556
 30
0.0
 11
162.9019456624
 21
151.6113790556
 31
0.0
  0
LINE
  5
261
330
498
100
AcDbEntity
  8
0
  6
Continuous
 62
     8
100
AcDbLine
 10
118.3649676561
 20
151.5405277594
 30
0.0
 11
162.820440036
 21
151.5405277594
 31
0.0
  0
LINE
  5
262
330
498
100
AcDbEntity
  8
0
  6
Continuous
 62
     8
100
AcDbLine
 10
140.592703846
 20
112.7214903816
 30
0.0
 11
140.592703846
 21
112.3372117861
 31
0.0
  0
LINE
  5
263
330
498
100
AcDbEntity
  8
0
  6
Continuous
 62
     8
100
AcDbLine
 10
244.4388813048
 20
110.9206701501
 30
0.0
 11
244.4388813048
 21
111.8206704839
 31
0.0
  0
LINE
  5
264
330
498
100
AcDbEntity
  8
0
  6
Continuous
 62
     8
100
AcDbLine
 10
244.6338182955
 20
111.8206704839
 30
0.0
 11
244.6338182955
 21
110.9206701501
 31
0.0
  0
LINE
  5
265
330
498
100
AcDbEntity
  8
0
  6
Continuous
 62
     8
100
AcDbLine
 10
228.5515910655
 20
110.9206701501
 30
0.0
 11
228.5515910655
 21
111.8206704839
 31
0.0
  0
LINE
  5
266
330
498
100
AcDbEntity
  8
0
  6
Continuous
 62
     8
100
AcDbLine
 10
228.7465280562
 20
111.8206704839
 30
0.0
 11
228.7465280562
 21
110.9206701501
 31
0.0
  0
LINE
  5
267
330
498
100
AcDbEntity
  8
0
  6
Continuous
 62
     8
100
AcDbLine
 10
228.3427065878
 20
110.9206701501
 30
0.0
 11
228.5515910655
 21
110.9206701501
 31
0.0
  0
LINE
  5
268
330
498
100
AcDbEntity
  8
0
  6
Continuous
 62
     8
100
AcDbLine
 10
244.6338182955
 20
110.9206701501
 30
0.0
 11
244.8427027731
 21
110.9206701501
 31
0.0
  0
LINE
  5
269
330
498
100
AcDbEntity
  8
0
  6
Continuous
 62
     8
100
AcDbLine
 10
253.5927018791
 20
159.147244586
 30
0.0
 11
254.2082911997
 21
159.1208825692
 31
0.0
  0
ENDSEC
  0
SECTION
  2
OBJECTS
  0
DICTIONARY
  5
488
330
0
100
AcDbDictionary
281
     1
  3
ACAD_DETAILVIEWSTYLE
350
4FC
  3
ACAD_GROUP
350
489
  3
ACAD_LAYOUT
350
495
  3
ACAD_MATERIAL
350
4A3
  3
ACAD_MLEADERSTYLE
350
4EE
  3
ACAD_MLINESTYLE
350
492
  3
ACAD_PLOTSETTINGS
350
494
  3
ACAD_PLOTSTYLENAME
350
48A
  3
ACAD_SCALELIST
350
4B1
  3
ACAD_SECTIONVIEWSTYLE
350
4FD
  3
ACAD_TABLESTYLE
350
4EC
  3
ACAD_VISUALSTYLE
350
4D3
  3
ACDB_RECOMPOSE_DATA
350
4F8
  3
AcDbVariableDictionary
350
4F3
  3
APPDATA
350
4F0
  0
DICTIONARY
  5
4F1
330
498
100
AcDbDictionary
280
     1
281
     1
  3
DIM_BOUNDING_BOXES_V1
360
4F2
  0
DICTIONARY
  5
4FC
102
{ACAD_REACTORS
330
488
102
}
330
488
100
AcDbDictionary
281
     1
  0
DICTIONARY
  5
489
102
{ACAD_REACTORS
330
488
102
}
330
488
100
AcDbDictionary
281
     1
  0
DICTIONARY
  5
495
102
{ACAD_REACTORS
330
488
102
}
330
488
100
AcDbDictionary
281
     1
  3
Blatt1
350
497
  3
Model
350
499
  0
DICTIONARY
  5
4A3
102
{ACAD_REACTORS
330
488
102
}
330
488
100
AcDbDictionary
281
     1
  3
ByBlock
350
4A5
  3
ByLayer
350
4A4
  3
Global
350
4A6
  0
DICTIONARY
  5
4EE
102
{ACAD_REACTORS
330
488
102
}
330
488
100
AcDbDictionary
281
     1
  3
Standard
350
4EF
  0
DICTIONARY
  5
492
102
{ACAD_REACTORS
330
488
102
}
330
488
100
AcDbDictionary
281
     1
  3
Standard
350
493
  0
DICTIONARY
  5
494
102
{ACAD_REACTORS
330
488
102
}
330
488
100
AcDbDictionary
281
     1
  0
ACDBDICTIONARYWDFLT
  5
48A
102
{ACAD_REACTORS
330
488
102
}
330
488
100
AcDbDictionary
281
     1
  3
Normal
350
48B
100
AcDbDictionaryWithDefault
340
48B
  0
DICTIONARY
  5
4B1
102
{ACAD_REACTORS
330
488
102
}
330
488
100
AcDbDictionary
281
     1
  3
A0
350
4B2
  3
A1
350
4B3
  3
A2
350
4B4
  3
A3
350
4B5
  3
A4
350
4B6
  3
A5
350
4B7
  3
A6
350
4B8
  3
A7
350
4B9
  3
A8
350
4BA
  3
A9
350
4BB
  3
B0
350
4BC
  3
B1
350
4BD
  3
B2
350
4BE
  3
B3
350
4BF
  3
B4
350
4C0
  3
B5
350
4C1
  3
B6
350
4C2
  3
B7
350
4C3
  3
B8
350
4C4
  3
B9
350
4C5
  3
C0
350
4C6
  3
C1
350
4C7
  3
C2
350
4C8
  3
C3
350
4C9
  3
C4
350
4CA
  3
C5
350
4CB
  3
C6
350
4CC
  3
C7
350
4CD
  3
C8
350
4CE
  3
C9
350
4CF
  3
D0
350
4D0
  3
D1
350
4D1
  3
D2
350
4D2
  0
DICTIONARY
  5
4FD
102
{ACAD_REACTORS
330
488
102
}
330
488
100
AcDbDictionary
281
     1
  0
DICTIONARY
  5
4EC
102
{ACAD_REACTORS
330
488
102
}
330
488
100
AcDbDictionary
281
     1
  3
Standard
350
4ED
  0
DICTIONARY
  5
4D3
102
{ACAD_REACTORS
330
488
102
}
330
488
100
AcDbDictionary
281
     1
  3
2dWireframe
350
4D8
  3
Basic
350
4DB
  3
Brighten
350
4DF
  3
ColorChange
350
4E3
  3
Conceptual
350
4DD
  3
Dim
350
4DE
  3
EdgeColorOff
350
4E6
  3
Facepattern
350
4E2
  3
Flat
350
4D4
  3
FlatWithEdges
350
4D5
  3
Gouraud
350
4D6
  3
GouraudWithEdges
350
4D7
  3
Hidden
350
4DA
  3
JitterOff
350
4E4
  3
Linepattern
350
4E1
  3
OverhangOff
350
4E5
  3
Realistic
350
4DC
  3
Shaded
350
4EB
  3
Shaded with edges
350
4EA
  3
Shades of Gray
350
4E7
  3
Sketchy
350
4E8
  3
Thicken
350
4E0
  3
Wireframe
350
4D9
  3
X-Ray
350
4E9
  0
XRECORD
  5
4F8
102
{ACAD_REACTORS
330
488
102
}
330
488
100
AcDbXrecord
280
     1
 90
        1
330
4ED
  0
DICTIONARY
  5
4F3
102
{ACAD_REACTORS
330
488
102
}
330
488
100
AcDbDictionary
281
     1
  3
CANNOSCALE
350
4F4
  3
CMLEADERSTYLE
350
4FA
  3
CTABLESTYLE
350
4F9
  3
MSLTSCALE
350
4FB
  0
DICTIONARY
  5
4F0
102
{ACAD_REACTORS
330
488
102
}
330
488
100
AcDbDictionary
281
     1
  0
DICTIONARY
  5
4F2
102
{ACAD_REACTORS
330
4F1
102
}
330
4F1
100
AcDbDictionary
281
     1
  0
LAYOUT
  5
497
102
{ACAD_REACTORS
330
495
102
}
330
495
100
AcDbPlotSettings
  1

  2
none_device
  4

  6

 40
0.0
 41
0.0
 42
0.0
 43
0.0
 44
0.0
 45
0.0
 46
0.0
 47
0.0
 48
0.0
 49
0.0
140
0.0
141
0.0
142
1.0
143
1.0
 70
   688
 72
     0
 73
     0
 74
     5
  7

 75
    16
 76
     0
 77
     2
 78
   300
147
1.0
148
0.0
149
0.0
100
AcDbLayout
  1
Blatt1
 70
     1
 71
     1
 10
0.0
 20
0.0
 11
0.0
 21
0.0
 12
0.0
 22
0.0
 32
0.0
 14
1.000000000000000E+20
 24
1.000000000000000E+20
 34
1.000000000000000E+20
 15
-1.000000000000000E+20
 25
-1.000000000000000E+20
 35
-1.000000000000000E+20
146
0.0
 13
0.0
 23
0.0
 33
0.0
 16
1.0
 26
0.0
 36
0.0
 17
0.0
 27
1.0
 37
0.0
 76
     0
330
496
  0
LAYOUT
  5
499
102
{ACAD_REACTORS
330
495
102
}
330
495
100
AcDbPlotSettings
  1

  2
none_device
  4
Letter_(8.50_x_11.00_Inches)
  6

 40
6.35
 41
6.35
 42
6.35
 43
6.35
 44
215.9
 45
279.4
 46
0.0
 47
0.0
 48
0.0
 49
0.0
140
0.0
141
0.0
142
1.0
143
1.0
 70
  1712
 72
     0
 73
     0
 74
     0
  7

 75
     0
 76
     0
 77
     2
 78
   300
147
1.0
148
0.0
149
0.0
100
AcDbLayout
  1
Model
 70
     1
 71
     0
 10
0.0
 20
0.0
 11
12.0
 21
9.0
 12
0.0
 22
0.0
 32
0.0
 14
33.76143973320001
 24
37.46023423129998
 34
0.0
 15
520.6771150059001
 25
535.4639677949001
 35
0.0
146
0.0
 13
0.0
 23
0.0
 33
0.0
 16
1.0
 26
0.0
 36
0.0
 17
0.0
 27
1.0
 37
0.0
 76
     0
330
498
331
49B
  0
MATERIAL
  5
4A5
102
{ACAD_REACTORS
330
4A3
102
}
330
4A3
100
AcDbMaterial
  1
ByBlock
 72
     1
 94
      127
  0
MATERIAL
  5
4A4
102
{ACAD_REACTORS
330
4A3
102
}
330
4A3
100
AcDbMaterial
  1
ByLayer
 72
     1
 94
      127
  0
MATERIAL
  5
4A6
102
{ACAD_REACTORS
330
4A3
102
}
330
4A3
100
AcDbMaterial
  1
Global
 72
     1
 94
      127
  0
MLEADERSTYLE
  5
4EF
102
{ACAD_REACTORS
330
4EE
102
}
330
4EE
100
AcDbMLeaderStyle
170
     2
171
     1
172
     0
 90
        2
 40
0.0
 41
0.0
173
     1
 91
-1056964608
340
48F
 92
       -2
290
     1
 42
0.09
291
     1
 43
0.36
  3
Standard
341
0
 44
0.18
300

342
48D
174
     1
178
     1
175
     1
176
     0
 93
-1056964608
 45
0.18
292
     0
297
     0
 46
0.18
343
0
 94
-1056964608
 47
1.0
 49
1.0
140
1.0
293
     1
141
0.0
294
     1
177
     0
142
1.0
295
     0
296
     0
143
0.125
1001
ACAD_MLEADERVER
1070
     2
  0
MLINESTYLE
  5
493
102
{ACAD_REACTORS
330
492
102
}
330
492
100
AcDbMlineStyle
  2
Standard
 70
     0
  3

 62
   256
 51
90.0
 52
90.0
 71
     2
 49
0.5
 62
   256
  6
BYLAYER
 49
-0.5
 62
   256
  6
BYLAYER
  0
ACDBPLACEHOLDER
  5
48B
102
{ACAD_REACTORS
330
48A
102
}
330
48A
  0
SCALE
  5
4B2
102
{ACAD_REACTORS
330
4B1
102
}
330
4B1
100
AcDbScale
 70
     0
300
1:1
140
1.0
141
1.0
290
     1
  0
SCALE
  5
4B3
102
{ACAD_REACTORS
330
4B1
102
}
330
4B1
100
AcDbScale
 70
     0
300
1:2
140
1.0
141
2.0
290
     0
  0
SCALE
  5
4B4
102
{ACAD_REACTORS
330
4B1
102
}
330
4B1
100
AcDbScale
 70
     0
300
1:4
140
1.0
141
4.0
290
     0
  0
SCALE
  5
4B5
102
{ACAD_REACTORS
330
4B1
102
}
330
4B1
100
AcDbScale
 70
     0
300
1:5
140
1.0
141
5.0
290
     0
  0
SCALE
  5
4B6
102
{ACAD_REACTORS
330
4B1
102
}
330
4B1
100
AcDbScale
 70
     0
300
1:8
140
1.0
141
8.0
290
     0
  0
SCALE
  5
4B7
102
{ACAD_REACTORS
330
4B1
102
}
330
4B1
100
AcDbScale
 70
     0
300
1:10
140
1.0
141
10.0
290
     0
  0
SCALE
  5
4B8
102
{ACAD_REACTORS
330
4B1
102
}
330
4B1
100
AcDbScale
 70
     0
300
1:16
140
1.0
141
16.0
290
     0
  0
SCALE
  5
4B9
102
{ACAD_REACTORS
330
4B1
102
}
330
4B1
100
AcDbScale
 70
     0
300
1:20
140
1.0
141
20.0
290
     0
  0
SCALE
  5
4BA
102
{ACAD_REACTORS
330
4B1
102
}
330
4B1
100
AcDbScale
 70
     0
300
1:30
140
1.0
141
30.0
290
     0
  0
SCALE
  5
4BB
102
{ACAD_REACTORS
330
4B1
102
}
330
4B1
100
AcDbScale
 70
     0
300
1:40
140
1.0
141
40.0
290
     0
  0
SCALE
  5
4BC
102
{ACAD_REACTORS
330
4B1
102
}
330
4B1
100
AcDbScale
 70
     0
300
1:50
140
1.0
141
50.0
290
     0
  0
SCALE
  5
4BD
102
{ACAD_REACTORS
330
4B1
102
}
330
4B1
100
AcDbScale
 70
     0
300
1:100
140
1.0
141
100.0
290
     0
  0
SCALE
  5
4BE
102
{ACAD_REACTORS
330
4B1
102
}
330
4B1
100
AcDbScale
 70
     0
300
2:1
140
2.0
141
1.0
290
     0
  0
SCALE
  5
4BF
102
{ACAD_REACTORS
330
4B1
102
}
330
4B1
100
AcDbScale
 70
     0
300
4:1
140
4.0
141
1.0
290
     0
  0
SCALE
  5
4C0
102
{ACAD_REACTORS
330
4B1
102
}
330
4B1
100
AcDbScale
 70
     0
300
8:1
140
8.0
141
1.0
290
     0
  0
SCALE
  5
4C1
102
{ACAD_REACTORS
330
4B1
102
}
330
4B1
100
AcDbScale
 70
     0
300
10:1
140
10.0
141
1.0
290
     0
  0
SCALE
  5
4C2
102
{ACAD_REACTORS
330
4B1
102
}
330
4B1
100
AcDbScale
 70
     0
300
100:1
140
100.0
141
1.0
290
     0
  0
SCALE
  5
4C3
102
{ACAD_REACTORS
330
4B1
102
}
330
4B1
100
AcDbScale
 70
     0
300
1/128" = 1'-0"
140
0.0078125
141
12.0
290
     0
  0
SCALE
  5
4C4
102
{ACAD_REACTORS
330
4B1
102
}
330
4B1
100
AcDbScale
 70
     0
300
1/64" = 1'-0"
140
0.015625
141
12.0
290
     0
  0
SCALE
  5
4C5
102
{ACAD_REACTORS
330
4B1
102
}
330
4B1
100
AcDbScale
 70
     0
300
1/32" = 1'-0"
140
0.03125
141
12.0
290
     0
  0
SCALE
  5
4C6
102
{ACAD_REACTORS
330
4B1
102
}
330
4B1
100
AcDbScale
 70
     0
300
1/16" = 1'-0"
140
0.0625
141
12.0
290
     0
  0
SCALE
  5
4C7
102
{ACAD_REACTORS
330
4B1
102
}
330
4B1
100
AcDbScale
 70
     0
300
3/32" = 1'-0"
140
0.09375
141
12.0
290
     0
  0
SCALE
  5
4C8
102
{ACAD_REACTORS
330
4B1
102
}
330
4B1
100
AcDbScale
 70
     0
300
1/8" = 1'-0"
140
0.125
141
12.0
290
     0
  0
SCALE
  5
4C9
102
{ACAD_REACTORS
330
4B1
102
}
330
4B1
100
AcDbScale
 70
     0
300
3/16" = 1'-0"
140
0.1875
141
12.0
290
     0
  0
SCALE
  5
4CA
102
{ACAD_REACTORS
330
4B1
102
}
330
4B1
100
AcDbScale
 70
     0
300
1/4" = 1'-0"
140
0.25
141
12.0
290
     0
  0
SCALE
  5
4CB
102
{ACAD_REACTORS
330
4B1
102
}
330
4B1
100
AcDbScale
 70
     0
300
3/8" = 1'-0"
140
0.375
141
12.0
290
     0
  0
SCALE
  5
4CC
102
{ACAD_REACTORS
330
4B1
102
}
330
4B1
100
AcDbScale
 70
     0
300
1/2" = 1'-0"
140
0.5
141
12.0
290
     0
  0
SCALE
  5
4CD
102
{ACAD_REACTORS
330
4B1
102
}
330
4B1
100
AcDbScale
 70
     0
300
3/4" = 1'-0"
140
0.75
141
12.0
290
     0
  0
SCALE
  5
4CE
102
{ACAD_REACTORS
330
4B1
102
}
330
4B1
100
AcDbScale
 70
     0
300
1" = 1'-0"
140
1.0
141
12.0
290
     0
  0
SCALE
  5
4CF
102
{ACAD_REACTORS
330
4B1
102
}
330
4B1
100
AcDbScale
 70
     0
300
1-1/2" = 1'-0"
140
1.5
141
12.0
290
     0
  0
SCALE
  5
4D0
102
{ACAD_REACTORS
330
4B1
102
}
330
4B1
100
AcDbScale
 70
     0
300
3" = 1'-0"
140
3.0
141
12.0
290
     0
  0
SCALE
  5
4D1
102
{ACAD_REACTORS
330
4B1
102
}
330
4B1
100
AcDbScale
 70
     0
300
6" = 1'-0"
140
6.0
141
12.0
290
     0
  0
SCALE
  5
4D2
102
{ACAD_REACTORS
330
4B1
102
}
330
4B1
100
AcDbScale
 70
     0
300
1'-0" = 1'-0"
140
12.0
141
12.0
290
     0
  0
TABLESTYLE
  5
4ED
102
{ACAD_REACTORS
330
4EC
102
}
102
{ACAD_XDICTIONARY
360
4F5
102
}
330
4EC
100
AcDbTableStyle
  3
Standard
 70
     0
 71
     0
 40
0.06
 41
0.06
280
     0
281
     0
  7
STANDARD
140
0.18
170
     2
 62
     0
 63
   257
283
     0
 90
        4
 91
        0
  1

274
    -2
284
     1
 64
     0
275
    -2
285
     1
 65
     0
276
    -2
286
     1
 66
     0
277
    -2
287
     1
 67
     0
278
    -2
288
     1
 68
     0
279
    -2
289
     1
 69
     0
  7
STANDARD
140
0.25
170
     5
 62
     0
 63
   257
283
     0
 90
        4
 91
        0
  1

274
    -2
284
     1
 64
     0
275
    -2
285
     1
 65
     0
276
    -2
286
     1
 66
     0
277
    -2
287
     1
 67
     0
278
    -2
288
     1
 68
     0
279
    -2
289
     1
 69
     0
  7
STANDARD
140
0.18
170
     5
 62
     0
 63
   257
283
     0
 90
        4
 91
        0
  1

274
    -2
284
     1
 64
     0
275
    -2
285
     1
 65
     0
276
    -2
286
     1
 66
     0
277
    -2
287
     1
 67
     0
278
    -2
288
     1
 68
     0
279
    -2
289
     1
 69
     0
  0
VISUALSTYLE
  5
4D8
102
{ACAD_REACTORS
330
4D3
102
}
330
4D3
100
AcDbVisualStyle
  2
2dWireframe
 70
     4
 71
     0
 72
     2
 73
     0
 90
        0
 40
0.6
 41
30.0
 62
     5
 63
     7
421
 16777215
 74
     1
 91
        4
 64
     7
 65
   257
 75
     1
175
     1
 42
1.0
 92
        0
 66
   257
 43
1.0
 76
     1
 77
     6
 78
     2
 67
     7
 79
     5
170
     0
171
     0
290
     0
174
     0
 93
        1
 44
0.0
173
     0
291
     0
 45
0.0
  0
VISUALSTYLE
  5
4DB
102
{ACAD_REACTORS
330
4D3
102
}
330
4D3
100
AcDbVisualStyle
  2
Basic
 70
     7
 71
     1
 72
     0
 73
     1
 90
        0
 40
0.6
 41
30.0
 62
     5
 63
     7
421
 16777215
 74
     0
 91
        4
 64
     7
 65
   257
 75
     1
175
     1
 42
1.0
 92
        8
 66
     7
 43
1.0
 76
     1
 77
     6
 78
     2
 67
     7
 79
     5
170
     0
171
     0
290
     0
174
     0
 93
        1
 44
0.0
173
     0
291
     1
 45
0.0
  0
VISUALSTYLE
  5
4DF
102
{ACAD_REACTORS
330
4D3
102
}
330
4D3
100
AcDbVisualStyle
  2
Brighten
 70
    12
 71
     2
 72
     2
 73
     0
 90
        0
 40
0.6
 41
30.0
 62
     5
 63
     7
421
 16777215
 74
     1
 91
        4
 64
     7
 65
   257
 75
     1
175
     1
 42
1.0
 92
        8
 66
     7
 43
1.0
 76
     1
 77
     6
 78
     2
 67
     7
 79
     5
170
     0
171
     0
290
     0
174
     0
 93
        1
 44
50.0
173
     0
291
     1
 45
0.0
  0
VISUALSTYLE
  5
4E3
102
{ACAD_REACTORS
330
4D3
102
}
330
4D3
100
AcDbVisualStyle
  2
ColorChange
 70
    16
 71
     2
 72
     2
 73
     3
 90
        0
 40
0.6
 41
30.0
 62
     5
 63
     8
421
  8421504
 74
     1
 91
        4
 64
     7
 65
   257
 75
     1
175
     1
 42
1.0
 92
        8
 66
     8
424
  8421504
 43
1.0
 76
     1
 77
     6
 78
     2
 67
     7
 79
     5
170
     0
171
     0
290
     0
174
     0
 93
        1
 44
0.0
173
     0
291
     1
 45
0.0
  0
VISUALSTYLE
  5
4DD
102
{ACAD_REACTORS
330
4D3
102
}
330
4D3
100
AcDbVisualStyle
  2
Conceptual
 70
     9
 71
     3
 72
     2
 73
     0
 90
        0
 40
0.6
 41
30.0
 62
     5
 63
     7
421
 16777215
 74
     2
 91
        2
 64
     7
 65
   257
 75
     1
175
     1
 42
179.0
 92
        8
 66
     7
 43
1.0
 76
     1
 77
     6
 78
     2
 67
     7
 79
     3
170
     0
171
     0
290
     0
174
     0
 93
        1
 44
0.0
173
     0
291
     0
 45
0.0
  0
VISUALSTYLE
  5
4DE
102
{ACAD_REACTORS
330
4D3
102
}
330
4D3
100
AcDbVisualStyle
  2
Dim
 70
    11
 71
     2
 72
     2
 73
     0
 90
        0
 40
0.6
 41
30.0
 62
     5
 63
     7
421
 16777215
 74
     1
 91
        4
 64
     7
 65
   257
 75
     1
175
     1
 42
1.0
 92
        8
 66
     7
 43
1.0
 76
     1
 77
     6
 78
     2
 67
     7
 79
     5
170
     0
171
     0
290
     0
174
     0
 93
        1
 44
-50.0
173
     0
291
     1
 45
0.0
  0
VISUALSTYLE
  5
4E6
102
{ACAD_REACTORS
330
4D3
102
}
330
4D3
100
AcDbVisualStyle
  2
EdgeColorOff
 70
    22
 71
     2
 72
     2
 73
     0
 90
        0
 40
0.6
 41
30.0
 62
     5
 63
     7
421
 16777215
 74
     1
 91
        4
 64
     7
 65
   257
 75
     1
175
     1
 42
1.0
 92
        8
 66
     7
 43
1.0
 76
     1
 77
     6
 78
     2
 67
     7
 79
     5
170
     0
171
     0
290
     0
174
     0
 93
        1
 44
0.0
173
     0
291
     1
 45
0.0
  0
VISUALSTYLE
  5
4E2
102
{ACAD_REACTORS
330
4D3
102
}
330
4D3
100
AcDbVisualStyle
  2
Facepattern
 70
    15
 71
     2
 72
     2
 73
     0
 90
        0
 40
0.6
 41
30.0
 62
     5
 63
     7
421
 16777215
 74
     1
 91
        4
 64
     7
 65
   257
 75
     1
175
     1
 42
1.0
 92
        8
 66
     7
 43
1.0
 76
     1
 77
     6
 78
     2
 67
     7
 79
     5
170
     0
171
     0
290
     0
174
     0
 93
        1
 44
0.0
173
     0
291
     1
 45
0.0
  0
VISUALSTYLE
  5
4D4
102
{ACAD_REACTORS
330
4D3
102
}
330
4D3
100
AcDbVisualStyle
  2
Flat
 70
     0
 71
     2
 72
     1
 73
     1
 90
        2
 40
0.6
 41
30.0
 62
     5
 63
     7
421
 16777215
 74
     0
 91
        0
 64
     7
 65
   257
 75
     1
175
     1
 42
1.0
 92
        8
 66
     7
 43
1.0
 76
     1
 77
     6
 78
     2
 67
     7
 79
     5
170
     0
171
     0
290
     0
174
     0
 93
       13
 44
0.0
173
     0
291
     1
 45
0.0
  0
VISUALSTYLE
  5
4D5
102
{ACAD_REACTORS
330
4D3
102
}
330
4D3
100
AcDbVisualStyle
  2
FlatWithEdges
 70
     1
 71
     2
 72
     1
 73
     1
 90
        2
 40
0.6
 41
30.0
 62
     5
 63
     7
421
 16777215
 74
     1
 91
        0
 64
     7
 65
   257
 75
     1
175
     1
 42
1.0
 92
        0
 66
   257
 43
1.0
 76
     1
 77
     6
 78
     2
 67
     7
 79
     5
170
     0
171
     0
290
     0
174
     0
 93
       13
 44
0.0
173
     0
291
     1
 45
0.0
  0
VISUALSTYLE
  5
4D6
102
{ACAD_REACTORS
330
4D3
102
}
330
4D3
100
AcDbVisualStyle
  2
Gouraud
 70
     2
 71
     2
 72
     2
 73
     1
 90
        2
 40
0.6
 41
30.0
 62
     5
 63
     7
421
 16777215
 74
     0
 91
        0
 64
     7
 65
   257
 75
     1
175
     1
 42
1.0
 92
        0
 66
     7
 43
1.0
 76
     1
 77
     6
 78
     2
 67
     7
 79
     5
170
     0
171
     0
290
     0
174
     0
 93
       13
 44
0.0
173
     0
291
     1
 45
0.0
  0
VISUALSTYLE
  5
4D7
102
{ACAD_REACTORS
330
4D3
102
}
330
4D3
100
AcDbVisualStyle
  2
GouraudWithEdges
 70
     3
 71
     2
 72
     2
 73
     1
 90
        2
 40
0.6
 41
30.0
 62
     5
 63
     7
421
 16777215
 74
     1
 91
        0
 64
     7
 65
   257
 75
     1
175
     1
 42
1.0
 92
        0
 66
   257
 43
1.0
 76
     1
 77
     6
 78
     2
 67
     7
 79
     5
170
     0
171
     0
290
     0
174
     0
 93
       13
 44
0.0
173
     0
291
     1
 45
0.0
  0
VISUALSTYLE
  5
4DA
102
{ACAD_REACTORS
330
4D3
102
}
330
4D3
100
AcDbVisualStyle
  2
Hidden
 70
     6
 71
     1
 72
     2
 73
     2
 90
        0
 40
0.6
 41
30.0
 62
     5
 63
     7
421
 16777215
 74
     2
 91
        2
 64
     7
 65
   257
 75
     2
175
     1
 42
40.0
 92
        0
 66
   257
 43
1.0
 76
     1
 77
     6
 78
     2
 67
     7
 79
     3
170
     0
171
     0
290
     0
174
     0
 93
        1
 44
0.0
173
     0
291
     0
 45
0.0
  0
VISUALSTYLE
  5
4E4
102
{ACAD_REACTORS
330
4D3
102
}
330
4D3
100
AcDbVisualStyle
  2
JitterOff
 70
    20
 71
     2
 72
     2
 73
     0
 90
        0
 40
0.6
 41
30.0
 62
     5
 63
     7
421
 16777215
 74
     1
 91
        4
 64
     7
 65
   257
 75
     1
175
     1
 42
1.0
 92
       10
 66
     7
 43
1.0
 76
     1
 77
     6
 78
     2
 67
     7
 79
     5
170
     0
171
     0
290
     0
174
     0
 93
        1
 44
0.0
173
     0
291
     1
 45
0.0
  0
VISUALSTYLE
  5
4E1
102
{ACAD_REACTORS
330
4D3
102
}
330
4D3
100
AcDbVisualStyle
  2
Linepattern
 70
    14
 71
     2
 72
     2
 73
     0
 90
        0
 40
0.6
 41
30.0
 62
     5
 63
     7
421
 16777215
 74
     1
 91
        4
 64
     7
 65
   257
 75
     7
175
     7
 42
1.0
 92
        8
 66
     7
 43
1.0
 76
     1
 77
     6
 78
     2
 67
     7
 79
     5
170
     0
171
     0
290
     0
174
     0
 93
        1
 44
0.0
173
     0
291
     1
 45
0.0
  0
VISUALSTYLE
  5
4E5
102
{ACAD_REACTORS
330
4D3
102
}
330
4D3
100
AcDbVisualStyle
  2
OverhangOff
 70
    21
 71
     2
 72
     2
 73
     0
 90
        0
 40
0.6
 41
30.0
 62
     5
 63
     7
421
 16777215
 74
     1
 91
        4
 64
     7
 65
   257
 75
     1
175
     1
 42
1.0
 92
        9
 66
     7
 43
1.0
 76
     1
 77
     6
 78
     2
 67
     7
 79
     5
170
     0
171
     0
290
     0
174
     0
 93
        1
 44
0.0
173
     0
291
     1
 45
0.0
  0
VISUALSTYLE
  5
4DC
102
{ACAD_REACTORS
330
4D3
102
}
330
4D3
100
AcDbVisualStyle
  2
Realistic
 70
     8
 71
     2
 72
     3
 73
     0
 90
        2
 40
0.6
 41
30.0
 62
     5
 63
     7
421
 16777215
 74
     0
 91
        0
 64
     7
 65
   257
 75
     1
175
     1
 42
1.0
 92
        8
 66
   257
 43
1.0
 76
     1
 77
     6
 78
     2
 67
     7
 79
     3
170
     0
171
     0
290
     0
174
     0
 93
       13
 44
0.0
173
     0
291
     0
 45
0.0
  0
VISUALSTYLE
  5
4EB
102
{ACAD_REACTORS
330
4D3
102
}
330
4D3
100
AcDbVisualStyle
  2
Shaded
 70
    27
 71
     2
 72
     2
 73
     1
 90
        2
 40
0.6
 41
30.0
 62
     5
 63
     7
421
 16777215
 74
     0
 91
        4
 64
     7
 65
   257
 75
     1
175
     1
 42
1.0
 92
        8
 66
   257
 43
1.0
 76
     1
 77
     6
 78
     2
 67
     8
425
  7895160
 79
     3
170
     0
171
     0
290
     0
174
     0
 93
        5
 44
0.0
173
     0
291
     0
 45
0.0
  0
VISUALSTYLE
  5
4EA
102
{ACAD_REACTORS
330
4D3
102
}
330
4D3
100
AcDbVisualStyle
  2
Shaded with edges
 70
    26
 71
     2
 72
     2
 73
     1
 90
        2
 40
0.6
 41
30.0
 62
     5
 63
     7
421
 16777215
 74
     1
 91
       10
 64
     7
 65
   257
 75
     2
175
     1
 42
1.0
 92
        8
 66
   257
 43
1.0
 76
     1
 77
     6
 78
     2
 67
     7
 79
     3
170
     0
171
     0
290
     0
174
     0
 93
        5
 44
0.0
173
     0
291
     0
 45
0.0
  0
VISUALSTYLE
  5
4E7
102
{ACAD_REACTORS
330
4D3
102
}
330
4D3
100
AcDbVisualStyle
  2
Shades of Gray
 70
    23
 71
     2
 72
     2
 73
     3
 90
        0
 40
0.6
 41
30.0
 62
     5
 63
     7
421
 16777215
 74
     2
 91
        2
 64
     7
 65
     7
 75
     1
175
     1
 42
40.0
 92
        8
 66
     7
 43
1.0
 76
     1
 77
     6
 78
     2
 67
     7
 79
     3
170
     0
171
     0
290
     0
174
     0
 93
        1
 44
0.0
173
     0
291
     0
 45
0.0
  0
VISUALSTYLE
  5
4E8
102
{ACAD_REACTORS
330
4D3
102
}
330
4D3
100
AcDbVisualStyle
  2
Sketchy
 70
    24
 71
     1
 72
     2
 73
     2
 90
        0
 40
0.6
 41
30.0
 62
     5
 63
     7
421
 16777215
 74
     2
 91
        2
 64
     7
 65
     7
 75
     1
175
     1
 42
40.0
 92
       11
 66
     7
 43
1.0
 76
     1
 77
     6
 78
     2
 67
     7
 79
     6
170
     0
171
     0
290
     0
174
     0
 93
        1
 44
0.0
173
     0
291
     0
 45
0.0
  0
VISUALSTYLE
  5
4E0
102
{ACAD_REACTORS
330
4D3
102
}
330
4D3
100
AcDbVisualStyle
  2
Thicken
 70
    13
 71
     2
 72
     2
 73
     0
 90
        0
 40
0.6
 41
30.0
 62
     5
 63
     7
421
 16777215
 74
     1
 91
        4
 64
     7
 65
   257
 75
     1
175
     1
 42
1.0
 92
       12
 66
     7
 43
1.0
 76
     1
 77
     6
 78
     2
 67
     7
 79
     5
170
     0
171
     0
290
     0
174
     0
 93
        1
 44
0.0
173
     0
291
     1
 45
0.0
  0
VISUALSTYLE
  5
4D9
102
{ACAD_REACTORS
330
4D3
102
}
330
4D3
100
AcDbVisualStyle
  2
Wireframe
 70
     5
 71
     0
 72
     2
 73
     0
 90
        0
 40
0.6
 41
30.0
 62
     5
 63
     7
421
 16777215
 74
     1
 91
        4
 64
     7
 65
   257
 75
     1
175
     1
 42
1.0
 92
        0
 66
   257
 43
1.0
 76
     1
 77
     6
 78
     2
 67
     7
 79
     3
170
     0
171
     0
290
     0
174
     0
 93
        1
 44
0.0
173
     0
291
     0
 45
0.0
  0
VISUALSTYLE
  5
4E9
102
{ACAD_REACTORS
330
4D3
102
}
330
4D3
100
AcDbVisualStyle
  2
X-Ray
 70
    25
 71
     2
 72
     2
 73
     1
 90
        1
 40
0.5
 41
30.0
 62
     5
 63
     7
421
 16777215
 74
     1
 91
        0
 64
     7
 65
   257
 75
     1
175
     1
 42
1.0
 92
        8
 66
     7
 43
1.0
 76
     1
 77
     6
 78
     2
 67
     7
 79
     3
170
     0
171
     0
290
     0
174
     0
 93
       13
 44
0.0
173
     0
291
     0
 45
0.0
  0
DICTIONARYVAR
  5
4F4
102
{ACAD_REACTORS
330
4F3
102
}
330
4F3
100
DictionaryVariables
280
     0
  1
1:1
  0
DICTIONARYVAR
  5
4FA
102
{ACAD_REACTORS
330
4F3
102
}
330
4F3
100
DictionaryVariables
280
     0
  1
Standard
  0
DICTIONARYVAR
  5
4F9
102
{ACAD_REACTORS
330
4F3
102
}
330
4F3
100
DictionaryVariables
280
     0
  1
Standard
  0
DICTIONARYVAR
  5
4FB
102
{ACAD_REACTORS
330
4F3
102
}
330
4F3
100
DictionaryVariables
280
     0
  1
0
  0
DICTIONARY
  5
4F5
330
4ED
100
AcDbDictionary
280
     1
281
     1
  3
ACAD_ROUNDTRIP_2008_TABLESTYLE_CELLSTYLEMAP
360
4F6
  0
CELLSTYLEMAP
  5
4F6
102
{ACAD_REACTORS
330
4F5
102
}
330
4F5
100
AcDbCellStyleMap
 90
        3
300
CELLSTYLE
  1
TABLEFORMAT_BEGIN
 90
        5
170
     1
 91
        0
 92
    32768
 62
   257
 93
        1
300
CONTENTFORMAT
  1
CONTENTFORMAT_BEGIN
 90
        0
 91
        0
 92
        4
 93
        0
300

 40
0.0
140
1.0
 94
        5
 62
     0
340
48D
144
0.25
309
CONTENTFORMAT_END
171
     1
301
MARGIN
  1
CELLMARGIN_BEGIN
 40
0.06
 40
0.06
 40
0.06
 40
0.06
 40
0.06
 40
0.06
309
CELLMARGIN_END
 94
        6
 95
        1
302
GRIDFORMAT
  1
GRIDFORMAT_BEGIN
 90
        0
 91
        1
 62
     0
 92
       -2
340
48F
 93
        0
 40
0.045
309
GRIDFORMAT_END
 95
        2
302
GRIDFORMAT
  1
GRIDFORMAT_BEGIN
 90
        0
 91
        1
 62
     0
 92
       -2
340
48F
 93
        0
 40
0.045
309
GRIDFORMAT_END
 95
        4
302
GRIDFORMAT
  1
GRIDFORMAT_BEGIN
 90
        0
 91
        1
 62
     0
 92
       -2
340
48F
 93
        0
 40
0.045
309
GRIDFORMAT_END
 95
        8
302
GRIDFORMAT
  1
GRIDFORMAT_BEGIN
 90
        0
 91
        1
 62
     0
 92
       -2
340
48F
 93
        0
 40
0.045
309
GRIDFORMAT_END
 95
       16
302
GRIDFORMAT
  1
GRIDFORMAT_BEGIN
 90
        0
 91
        1
 62
     0
 92
       -2
340
48F
 93
        0
 40
0.045
309
GRIDFORMAT_END
 95
       32
302
GRIDFORMAT
  1
GRIDFORMAT_BEGIN
 90
        0
 91
        1
 62
     0
 92
       -2
340
48F
 93
        0
 40
0.045
309
GRIDFORMAT_END
309
TABLEFORMAT_END
  1
CELLSTYLE_BEGIN
 90
        1
 91
        1
300
_TITLE
309
CELLSTYLE_END
300
CELLSTYLE
  1
TABLEFORMAT_BEGIN
 90
        5
170
     1
 91
        0
 92
        0
 62
   257
 93
        1
300
CONTENTFORMAT
  1
CONTENTFORMAT_BEGIN
 90
        0
 91
        0
 92
        4
 93
        0
300

 40
0.0
140
1.0
 94
        5
 62
     0
340
48D
144
0.18
309
CONTENTFORMAT_END
171
     1
301
MARGIN
  1
CELLMARGIN_BEGIN
 40
0.06
 40
0.06
 40
0.06
 40
0.06
 40
0.06
 40
0.06
309
CELLMARGIN_END
 94
        6
 95
        1
302
GRIDFORMAT
  1
GRIDFORMAT_BEGIN
 90
        0
 91
        1
 62
     0
 92
       -2
340
48F
 93
        0
 40
0.045
309
GRIDFORMAT_END
 95
        2
302
GRIDFORMAT
  1
GRIDFORMAT_BEGIN
 90
        0
 91
        1
 62
     0
 92
       -2
340
48F
 93
        0
 40
0.045
309
GRIDFORMAT_END
 95
        4
302
GRIDFORMAT
  1
GRIDFORMAT_BEGIN
 90
        0
 91
        1
 62
     0
 92
       -2
340
48F
 93
        0
 40
0.045
309
GRIDFORMAT_END
 95
        8
302
GRIDFORMAT
  1
GRIDFORMAT_BEGIN
 90
        0
 91
        1
 62
     0
 92
       -2
340
48F
 93
        0
 40
0.045
309
GRIDFORMAT_END
 95
       16
302
GRIDFORMAT
  1
GRIDFORMAT_BEGIN
 90
        0
 91
        1
 62
     0
 92
       -2
340
48F
 93
        0
 40
0.045
309
GRIDFORMAT_END
 95
       32
302
GRIDFORMAT
  1
GRIDFORMAT_BEGIN
 90
        0
 91
        1
 62
     0
 92
       -2
340
48F
 93
        0
 40
0.045
309
GRIDFORMAT_END
309
TABLEFORMAT_END
  1
CELLSTYLE_BEGIN
 90
        2
 91
        1
300
_HEADER
309
CELLSTYLE_END
300
CELLSTYLE
  1
TABLEFORMAT_BEGIN
 90
        5
170
     1
 91
        0
 92
        0
 62
   257
 93
        1
300
CONTENTFORMAT
  1
CONTENTFORMAT_BEGIN
 90
        0
 91
        0
 92
        4
 93
        0
300

 40
0.0
140
1.0
 94
        2
 62
     0
340
48D
144
0.18
309
CONTENTFORMAT_END
171
     1
301
MARGIN
  1
CELLMARGIN_BEGIN
 40
0.06
 40
0.06
 40
0.06
 40
0.06
 40
0.06
 40
0.06
309
CELLMARGIN_END
 94
        6
 95
        1
302
GRIDFORMAT
  1
GRIDFORMAT_BEGIN
 90
        0
 91
        1
 62
     0
 92
       -2
340
48F
 93
        0
 40
0.045
309
GRIDFORMAT_END
 95
        2
302
GRIDFORMAT
  1
GRIDFORMAT_BEGIN
 90
        0
 91
        1
 62
     0
 92
       -2
340
48F
 93
        0
 40
0.045
309
GRIDFORMAT_END
 95
        4
302
GRIDFORMAT
  1
GRIDFORMAT_BEGIN
 90
        0
 91
        1
 62
     0
 92
       -2
340
48F
 93
        0
 40
0.045
309
GRIDFORMAT_END
 95
        8
302
GRIDFORMAT
  1
GRIDFORMAT_BEGIN
 90
        0
 91
        1
 62
     0
 92
       -2
340
48F
 93
        0
 40
0.045
309
GRIDFORMAT_END
 95
       16
302
GRIDFORMAT
  1
GRIDFORMAT_BEGIN
 90
        0
 91
        1
 62
     0
 92
       -2
340
48F
 93
        0
 40
0.045
309
GRIDFORMAT_END
 95
       32
302
GRIDFORMAT
  1
GRIDFORMAT_BEGIN
 90
        0
 91
        1
 62
     0
 92
       -2
340
48F
 93
        0
 40
0.045
309
GRIDFORMAT_END
309
TABLEFORMAT_END
  1
CELLSTYLE_BEGIN
 90
        3
 91
        2
300
_DATA
309
CELLSTYLE_END
  0
ENDSEC
  0
EOF
