  0
SECTION
  2
HEADER
  9
$ACADVER
  1
AC1032
  9
$ACADMAINTVER
 90
        4
  9
$DWGCODEPAGE
  3
ANSI_1252
  9
$LASTSAVEDBY
  1
MKramer
  9
$REQUIREDVERSIONS
160
                 0
  9
$INSBASE
 10
0.0
 20
0.0
 30
0.0
  9
$EXTMIN
 10
33.76143973320001
 20
37.46023423129998
 30
0.0
  9
$EXTMAX
 10
520.6771150059001
 20
607.4999866195
 30
0.0
  9
$LIMMIN
 10
0.0
 20
0.0
  9
$LIMMAX
 10
594.0
 20
841.0
  9
$ORTHOMODE
 70
     0
  9
$REGENMODE
 70
     1
  9
$FILLMODE
 70
     1
  9
$QTEXTMODE
 70
     0
  9
$MIRRTEXT
 70
     1
  9
$LTSCALE
 40
1.0
  9
$ATTMODE
 70
     1
  9
$TEXTSIZE
 40
10.0
  9
$TRACEWID
 40
1.0
  9
$TEXTSTYLE
  7
STANDARD
  9
$CLAYER
  8
0
  9
$CELTYPE
  6
ByLayer
  9
$CECOLOR
 62
   256
  9
$CELTSCALE
 40
1.0
  9
$DISPSILH
 70
     0
  9
$DIMSCALE
 40
1.0
  9
$DIMASZ
 40
2.5
  9
$DIMEXO
 40
0.0
  9
$DIMDLI
 40
3.75
  9
$DIMRND
 40
0.0
  9
$DIMDLE
 40
0.0
  9
$DIMEXE
 40
1.0
  9
$DIMTP
 40
0.0
  9
$DIMTM
 40
0.0
  9
$DIMTXT
 40
3.5
  9
$DIMCEN
 40
2.5
  9
$DIMTSZ
 40
0.0
  9
$DIMTOL
 70
     0
  9
$DIMLIM
 70
     0
  9
$DIMTIH
 70
     1
  9
$DIMTOH
 70
     1
  9
$DIMSE1
 70
     0
  9
$DIMSE2
 70
     0
  9
$DIMTAD
 70
     1
  9
$DIMZIN
 70
     0
  9
$DIMBLK
  1

  9
$DIMASO
 70
     1
  9
$DIMSHO
 70
     1
  9
$DIMPOST
  1

  9
$DIMAPOST
  1

  9
$DIMALT
 70
     0
  9
$DIMALTD
 70
     3
  9
$DIMALTF
 40
0.0393700787
  9
$DIMLFAC
 40
1.0
  9
$DIMTOFL
 70
     1
  9
$DIMTVP
 40
0.0
  9
$DIMTIX
 70
     0
  9
$DIMSOXD
 70
     0
  9
$DIMSAH
 70
     0
  9
$DIMBLK1
  1

  9
$DIMBLK2
  1

  9
$DIMSTYLE
  2
ISO-25
  9
$DIMCLRD
 70
     0
  9
$DIMCLRE
 70
     0
  9
$DIMCLRT
 70
     0
  9
$DIMTFAC
 40
1.0
  9
$DIMGAP
 40
1.5
  9
$DIMJUST
 70
     0
  9
$DIMSD1
 70
     0
  9
$DIMSD2
 70
     0
  9
$DIMTOLJ
 70
     1
  9
$DIMTZIN
 70
     0
  9
$DIMALTZ
 70
     0
  9
$DIMALTTZ
 70
     0
  9
$DIMUPT
 70
     0
  9
$DIMDEC
 70
     2
  9
$DIMTDEC
 70
     2
  9
$DIMALTU
 70
     2
  9
$DIMALTTD
 70
     2
  9
$DIMTXSTY
  7
STANDARD
  9
$DIMAUNIT
 70
     0
  9
$DIMADEC
 70
     0
  9
$DIMALTRND
 40
0.0
  9
$DIMAZIN
 70
     0
  9
$DIMDSEP
 70
    46
  9
$DIMATFIT
 70
     3
  9
$DIMFRAC
 70
     0
  9
$DIMLDRBLK
  1

  9
$DIMLUNIT
 70
     2
  9
$DIMLWD
 70
    -2
  9
$DIMLWE
 70
    -2
  9
$DIMTMOVE
 70
     2
  9
$DIMFXL
 40
1.0
  9
$DIMFXLON
 70
     0
  9
$DIMJOGANG
 40
0.7853981633974483
  9
$DIMTFILL
 70
     0
  9
$DIMTFILLCLR
 70
     0
  9
$DIMARCSYM
 70
     0
  9
$DIMLTYPE
  6

  9
$DIMLTEX1
  6

  9
$DIMLTEX2
  6

  9
$DIMTXTDIRECTION
 70
     0
  9
$LUNITS
 70
     2
  9
$LUPREC
 70
     2
  9
$SKETCHINC
 40
1.0
  9
$FILLETRAD
 40
10.0
  9
$AUNITS
 70
     0
  9
$AUPREC
 70
     2
  9
$MENU
  1
.
  9
$ELEVATION
 40
0.0
  9
$PELEVATION
 40
0.0
  9
$THICKNESS
 40
0.0
  9
$LIMCHECK
 70
     0
  9
$CHAMFERA
 40
0.0
  9
$CHAMFERB
 40
0.0
  9
$CHAMFERC
 40
0.0
  9
$CHAMFERD
 40
0.0
  9
$SKPOLY
 70
     0
  9
$TDCREATE
 40
2458443.458265405
  9
$TDUCREATE
 40
2458443.416598739
  9
$TDUPDATE
 40
2459915.453563518
  9
$TDUUPDATE
 40
2459915.411896852
  9
$TDINDWG
 40
0.0002497569
  9
$TDUSRTIMER
 40
0.0002497454
  9
$USRTIMER
 70
     1
  9
$ANGBASE
 50
0.0
  9
$ANGDIR
 70
     0
  9
$PDMODE
 70
     0
  9
$PDSIZE
 40
-1.0
  9
$PLINEWID
 40
0.0
  9
$SPLFRAME
 70
     0
  9
$SPLINETYPE
 70
     6
  9
$SPLINESEGS
 70
     8
  9
$HANDSEED
  5
5E0
  9
$SURFTAB1
 70
     6
  9
$SURFTAB2
 70
     6
  9
$SURFTYPE
 70
     6
  9
$SURFU
 70
     6
  9
$SURFV
 70
     6
  9
$UCSBASE
  2

  9
$UCSNAME
  2

  9
$UCSORG
 10
0.0
 20
0.0
 30
0.0
  9
$UCSXDIR
 10
1.0
 20
0.0
 30
0.0
  9
$UCSYDIR
 10
0.0
 20
1.0
 30
0.0
  9
$UCSORTHOREF
  2

  9
$UCSORTHOVIEW
 70
     0
  9
$UCSORGTOP
 10
0.0
 20
0.0
 30
0.0
  9
$UCSORGBOTTOM
 10
0.0
 20
0.0
 30
0.0
  9
$UCSORGLEFT
 10
0.0
 20
0.0
 30
0.0
  9
$UCSORGRIGHT
 10
0.0
 20
0.0
 30
0.0
  9
$UCSORGFRONT
 10
0.0
 20
0.0
 30
0.0
  9
$UCSORGBACK
 10
0.0
 20
0.0
 30
0.0
  9
$PUCSBASE
  2

  9
$PUCSNAME
  2

  9
$PUCSORG
 10
0.0
 20
0.0
 30
0.0
  9
$PUCSXDIR
 10
1.0
 20
0.0
 30
0.0
  9
$PUCSYDIR
 10
0.0
 20
1.0
 30
0.0
  9
$PUCSORTHOREF
  2

  9
$PUCSORTHOVIEW
 70
     0
  9
$PUCSORGTOP
 10
0.0
 20
0.0
 30
0.0
  9
$PUCSORGBOTTOM
 10
0.0
 20
0.0
 30
0.0
  9
$PUCSORGLEFT
 10
0.0
 20
0.0
 30
0.0
  9
$PUCSORGRIGHT
 10
0.0
 20
0.0
 30
0.0
  9
$PUCSORGFRONT
 10
0.0
 20
0.0
 30
0.0
  9
$PUCSORGBACK
 10
0.0
 20
0.0
 30
0.0
  9
$USERI1
 70
     0
  9
$USERI2
 70
     0
  9
$USERI3
 70
     0
  9
$USERI4
 70
     0
  9
$USERI5
 70
     0
  9
$USERR1
 40
0.0
  9
$USERR2
 40
0.0
  9
$USERR3
 40
0.0
  9
$USERR4
 40
0.0
  9
$USERR5
 40
0.0
  9
$WORLDVIEW
 70
     1
  9
$SHADEDGE
 70
     3
  9
$SHADEDIF
 70
    70
  9
$TILEMODE
 70
     1
  9
$MAXACTVP
 70
    64
  9
$PINSBASE
 10
0.0
 20
0.0
 30
0.0
  9
$PLIMCHECK
 70
     0
  9
$PEXTMIN
 10
1.000000000000000E+20
 20
1.000000000000000E+20
 30
1.000000000000000E+20
  9
$PEXTMAX
 10
-1.000000000000000E+20
 20
-1.000000000000000E+20
 30
-1.000000000000000E+20
  9
$PLIMMIN
 10
0.0
 20
0.0
  9
$PLIMMAX
 10
0.0
 20
0.0
  9
$UNITMODE
 70
     0
  9
$VISRETAIN
 70
     1
  9
$PLINEGEN
 70
     0
  9
$PSLTSCALE
 70
     1
  9
$TREEDEPTH
 70
  3020
  9
$CMLSTYLE
  2
Standard
  9
$CMLJUST
 70
     0
  9
$CMLSCALE
 40
1.0
  9
$PROXYGRAPHICS
 70
     1
  9
$MEASUREMENT
 70
     0
  9
$CELWEIGHT
370
    -1
  9
$ENDCAPS
280
     0
  9
$JOINSTYLE
280
     0
  9
$LWDISPLAY
290
     0
  9
$INSUNITS
 70
     0
  9
$HYPERLINKBASE
  1

  9
$STYLESHEET
  1

  9
$XEDIT
290
     1
  9
$CEPSNTYPE
380
     0
  9
$PSTYLEMODE
290
     1
  9
$FINGERPRINTGUID
  2
{447433e1-ddcd-4abd-a1f1-2f35f4804c0c}
  9
$VERSIONGUID
  2
{FAEB1C32-E019-11D5-929B-00C0DF256EC4}
  9
$EXTNAMES
290
     1
  9
$PSVPSCALE
 40
0.0
  9
$OLESTARTUP
290
     0
  9
$SORTENTS
280
   127
  9
$INDEXCTL
280
     0
  9
$HIDETEXT
280
     1
  9
$XCLIPFRAME
280
     2
  9
$HALOGAP
280
     0
  9
$OBSCOLOR
 70
   257
  9
$OBSLTYPE
280
     0
  9
$INTERSECTIONDISPLAY
280
     0
  9
$INTERSECTIONCOLOR
 70
   257
  9
$DIMASSOC
280
     2
  9
$PROJECTNAME
  1

  9
$CAMERADISPLAY
290
     0
  9
$LENSLENGTH
 40
50.0
  9
$CAMERAHEIGHT
 40
0.0
  9
$STEPSPERSEC
 40
2.0
  9
$STEPSIZE
 40
6.0
  9
$3DDWFPREC
 40
2.0
  9
$PSOLWIDTH
 40
0.25
  9
$PSOLHEIGHT
 40
4.0
  9
$LOFTANG1
 40
1.570796326794897
  9
$LOFTANG2
 40
1.570796326794897
  9
$LOFTMAG1
 40
0.0
  9
$LOFTMAG2
 40
0.0
  9
$LOFTPARAM
 70
     7
  9
$LOFTNORMALS
280
     1
  9
$LATITUDE
 40
37.795
  9
$LONGITUDE
 40
-122.394
  9
$NORTHDIRECTION
 40
0.0
  9
$TIMEZONE
 70
 -8000
  9
$LIGHTGLYPHDISPLAY
280
     1
  9
$TILEMODELIGHTSYNCH
280
     1
  9
$SOLIDHIST
280
     0
  9
$SHOWHIST
280
     1
  9
$DWFFRAME
280
     2
  9
$DGNFRAME
280
     2
  9
$REALWORLDSCALE
290
     1
  9
$INTERFERECOLOR
 62
   256
  9
$CSHADOW
280
     0
  9
$SHADOWPLANELOCATION
 40
0.0
  0
ENDSEC
  0
SECTION
  2
CLASSES
  0
CLASS
  1
ACDBDICTIONARYWDFLT
  2
AcDbDictionaryWithDefault
  3
ObjectDBX Classes
 90
        0
 91
        3
280
     0
281
     0
  0
CLASS
  1
MATERIAL
  2
AcDbMaterial
  3
ObjectDBX Classes
 90
     1153
 91
        3
280
     0
281
     0
  0
CLASS
  1
SCALE
  2
AcDbScale
  3
ObjectDBX Classes
 90
     1153
 91
        3
280
     0
281
     0
  0
CLASS
  1
VISUALSTYLE
  2
AcDbVisualStyle
  3
ObjectDBX Classes
 90
     4095
 91
        3
280
     0
281
     0
  0
CLASS
  1
TABLESTYLE
  2
AcDbTableStyle
  3
ObjectDBX Classes
 90
     4095
 91
        3
280
     0
281
     0
  0
CLASS
  1
MLEADERSTYLE
  2
AcDbMLeaderStyle
  3
ACDB_MLEADERSTYLE_CLASS
 90
     4095
 91
        3
280
     0
281
     0
  0
CLASS
  1
DICTIONARYVAR
  2
AcDbDictionaryVar
  3
ObjectDBX Classes
 90
        0
 91
        3
280
     0
281
     0
  0
CLASS
  1
CELLSTYLEMAP
  2
AcDbCellStyleMap
  3
ObjectDBX Classes
 90
     1152
 91
        3
280
     0
281
     0
  0
ENDSEC
  0
SECTION
  2
TABLES
  0
TABLE
  2
VPORT
  5
567
330
0
100
AcDbSymbolTable
 70
     1
  0
VPORT
  5
57E
330
567
100
AcDbSymbolTableRecord
100
AcDbViewportTableRecord
  2
*ACTIVE
 70
     0
 10
0.0
 20
0.0
 11
1.0
 21
1.0
 12
297.0
 22
420.5
 13
0.0
 23
0.0
 14
10.0
 24
10.0
 15
10.0
 25
10.0
 16
0.0
 26
0.0
 36
1.0
 17
0.0
 27
0.0
 37
0.0
 40
841.0
 41
0.7063020214
 42
50.0
 43
0.0
 44
0.0
 50
0.0
 51
0.0
 71
     0
 72
  2000
 73
     1
 74
     3
 75
     0
 76
     0
 77
     0
 78
     0
281
     0
 65
     0
110
0.0
120
0.0
130
0.0
111
1.0
121
0.0
131
0.0
112
0.0
122
1.0
132
0.0
 79
     0
146
0.0
348
5BB
 60
     3
 61
     5
292
     1
282
     1
141
0.0
142
0.0
 63
   256
  0
ENDTAB
  0
TABLE
  2
LTYPE
  5
564
330
0
100
AcDbSymbolTable
 70
     6
  0
LTYPE
  5
572
330
564
100
AcDbSymbolTableRecord
100
AcDbLinetypeTableRecord
  2
ByBlock
 70
     0
  3

 72
    65
 73
     0
 40
0.0
  0
LTYPE
  5
573
330
564
100
AcDbSymbolTableRecord
100
AcDbLinetypeTableRecord
  2
ByLayer
 70
     0
  3

 72
    65
 73
     0
 40
0.0
  0
LTYPE
  5
574
330
564
100
AcDbSymbolTableRecord
100
AcDbLinetypeTableRecord
  2
CONTINUOUS
 70
     0
  3
Solid line
 72
    65
 73
     0
 40
0.0
  0
LTYPE
  5
580
330
564
100
AcDbSymbolTableRecord
100
AcDbLinetypeTableRecord
  2
HIDDEN
 70
     0
  3
Hidden __ __ __ __ __ __ __ __ __ __ __ __ __ __
 72
    65
 73
     2
 40
1.905
 49
1.27
 74
     0
 49
-0.635
 74
     0
  0
LTYPE
  5
581
330
564
100
AcDbSymbolTableRecord
100
AcDbLinetypeTableRecord
  2
PHANTOM
 70
     0
  3
Phantom ______  __  __  ______  __  __  ______
 72
    65
 73
     6
 40
12.7
 49
6.35
 74
     0
 49
-1.27
 74
     0
 49
1.27
 74
     0
 49
-1.27
 74
     0
 49
1.27
 74
     0
 49
-1.27
 74
     0
  0
LTYPE
  5
582
330
564
100
AcDbSymbolTableRecord
100
AcDbLinetypeTableRecord
  2
CENTER
 70
     0
  3
Center ____ _ ____ _ ____ _ ____ _ ____ _ ____
 72
    65
 73
     4
 40
10.16
 49
6.35
 74
     0
 49
-1.27
 74
     0
 49
1.27
 74
     0
 49
-1.27
 74
     0
  0
LTYPE
  5
583
330
564
100
AcDbSymbolTableRecord
100
AcDbLinetypeTableRecord
  2
CENTERX2
 70
     0
  3
Center (2x) ________  __  ________  __  _____
 72
    65
 73
     4
 40
20.32
 49
12.7
 74
     0
 49
-2.54
 74
     0
 49
2.54
 74
     0
 49
-2.54
 74
     0
  0
LTYPE
  5
584
330
564
100
AcDbSymbolTableRecord
100
AcDbLinetypeTableRecord
  2
DOT2
 70
     0
  3
Dot (.5x) ........................................
 72
    65
 73
     2
 40
0.635
 49
0.0
 74
     0
 49
-0.635
 74
     0
  0
ENDTAB
  0
TABLE
  2
LAYER
  5
562
330
0
100
AcDbSymbolTable
 70
     1
  0
LAYER
  5
56F
330
562
100
AcDbSymbolTableRecord
100
AcDbLayerTableRecord
  2
0
 70
     0
 62
     7
  6
CONTINUOUS
370
    -3
390
56E
347
589
348
0
  0
ENDTAB
  0
TABLE
  2
STYLE
  5
563
330
0
100
AcDbSymbolTable
 70
     1
  0
STYLE
  5
570
330
563
100
AcDbSymbolTableRecord
100
AcDbTextStyleTableRecord
  2
STANDARD
 70
     0
 40
0.0
 41
1.0
 50
0.0
 71
     0
 42
10.0
  3
txt
  4

  0
ENDTAB
  0
TABLE
  2
VIEW
  5
565
330
0
100
AcDbSymbolTable
 70
     0
  0
ENDTAB
  0
TABLE
  2
UCS
  5
566
330
0
100
AcDbSymbolTable
 70
     0
  0
ENDTAB
  0
TABLE
  2
APPID
  5
568
330
0
100
AcDbSymbolTable
 70
     1
  0
APPID
  5
571
330
568
100
AcDbSymbolTableRecord
100
AcDbRegAppTableRecord
  2
ACAD
 70
     0
  0
ENDTAB
  0
TABLE
  2
DIMSTYLE
  5
569
330
0
100
AcDbSymbolTable
 70
     2
100
AcDbDimStyleTable
  0
DIMSTYLE
105
58C
330
569
100
AcDbSymbolTableRecord
100
AcDbDimStyleTableRecord
  2
ISO-25
 70
     0
 41
2.5
 42
0.625
 43
3.75
 44
1.25
 73
     0
 74
     0
 77
     1
 78
     8
140
2.5
141
2.5
143
0.0393700787
147
0.625
171
     3
172
     1
178
     0
340
570
  0
DIMSTYLE
105
58D
330
569
100
AcDbSymbolTableRecord
100
AcDbDimStyleTableRecord
  2
SLDDIMSTYLE0
 70
     0
 41
2.5
 44
0.0
 45
0.000000001
 73
     0
 74
     0
 77
     1
 78
    12
140
6.0
147
1.5
173
     1
178
     0
340
570
  0
ENDTAB
  0
TABLE
  2
BLOCK_RECORD
  5
561
330
0
100
AcDbSymbolTable
 70
     2
  0
BLOCK_RECORD
  5
57B
102
{ACAD_XDICTIONARY
360
5D4
102
}
330
561
100
AcDbSymbolTableRecord
100
AcDbBlockTableRecord
  2
*Model_Space
340
57C
 70
     0
280
     1
281
     0
  0
BLOCK_RECORD
  5
579
330
561
100
AcDbSymbolTableRecord
100
AcDbBlockTableRecord
  2
*Paper_Space
340
57A
 70
     0
280
     1
281
     0
  0
BLOCK_RECORD
  5
591
330
561
100
AcDbSymbolTableRecord
100
AcDbBlockTableRecord
  2
_D
340
0
 70
     0
280
     1
281
     0
  0
BLOCK_RECORD
  5
593
330
561
100
AcDbSymbolTableRecord
100
AcDbBlockTableRecord
  2
_D_1
340
0
 70
     0
280
     1
281
     0
  0
ENDTAB
  0
ENDSEC
  0
SECTION
  2
BLOCKS
  0
BLOCK
  5
58E
330
57B
100
AcDbEntity
  8
0
100
AcDbBlockBegin
  2
*Model_Space
 70
     0
 10
0.0
 20
0.0
 30
0.0
  3
*Model_Space
  1

  0
ENDBLK
  5
21
330
57B
100
AcDbEntity
  8
0
100
AcDbBlockEnd
  0
BLOCK
  5
58F
330
579
100
AcDbEntity
 67
     1
  8
0
100
AcDbBlockBegin
  2
*Paper_Space
 70
     0
 10
0.0
 20
0.0
 30
0.0
  3
*Paper_Space
  1

  0
ENDBLK
  5
1D
330
579
100
AcDbEntity
 67
     1
  8
0
100
AcDbBlockEnd
  0
BLOCK
  5
590
330
591
100
AcDbEntity
  8
0
100
AcDbBlockBegin
  2
_D
 70
     0
 10
0.0
 20
0.0
 30
0.0
  3
_D
  1

  0
SOLID
  5
7A
330
591
100
AcDbEntity
  8
0
  6
Continuous
 62
     7
100
AcDbTrace
 10
42.7614395004
 20
152.0299240879
 30
0.0
 11
42.4614395004
 21
149.5299240879
 31
0.0
 12
43.0614395004
 22
149.5299240879
 32
0.0
 13
43.0614395004
 23
149.5299240879
 33
0.0
  0
SOLID
  5
7B
330
591
100
AcDbEntity
  8
0
  6
Continuous
 62
     7
100
AcDbTrace
 10
42.7614395004
 20
52.0299240879
 30
0.0
 11
43.0614395004
 21
54.5299240879
 31
0.0
 12
42.4614395004
 22
54.5299240879
 32
0.0
 13
42.4614395004
 23
54.5299240879
 33
0.0
  0
LINE
  5
7C
330
591
100
AcDbEntity
  8
0
  6
Continuous
 62
     7
100
AcDbLine
 10
56.6850079902
 20
152.0299240879
 30
0.0
 11
41.7614395004
 21
152.0299240879
 31
0.0
  0
LINE
  5
7D
330
591
100
AcDbEntity
  8
0
  6
Continuous
 62
     7
100
AcDbLine
 10
56.6850079902
 20
52.0299240879
 30
0.0
 11
41.7614395004
 21
52.0299240879
 31
0.0
  0
LINE
  5
7E
330
591
100
AcDbEntity
  8
0
  6
Continuous
 62
     7
100
AcDbLine
 10
42.7614395004
 20
152.0299240879
 30
0.0
 11
42.7614395004
 21
52.0299240879
 31
0.0
  0
TEXT
  5
7F
330
591
100
AcDbEntity
  8
0
  6
Continuous
 62
     7
100
AcDbText
 10
39.7614397332
 20
94.3680541463
 30
0.0
 40
6.0
  1
100
 50
90.0
 41
0.7
 11
42.7614397332
 21
94.3680541463
 31
0.0
100
AcDbText
 73
     1
  0
TEXT
  5
80
330
591
100
AcDbEntity
  8
0
  6
Continuous
 62
     7
100
AcDbText
 10
39.7614397332
 20
105.7430548466
 30
0.0
 40
6.0
  1
mm
 50
90.0
 41
0.7
 11
42.7614397332
 21
105.7430548466
 31
0.0
100
AcDbText
 73
     1
  0
ENDBLK
  5
79
330
591
100
AcDbEntity
  8
0
100
AcDbBlockEnd
  0
BLOCK
  5
592
330
593
100
AcDbEntity
  8
0
100
AcDbBlockBegin
  2
_D_1
 70
     0
 10
0.0
 20
0.0
 30
0.0
  3
_D_1
  1

  0
SOLID
  5
85
330
593
100
AcDbEntity
  8
0
  6
Continuous
 62
     7
100
AcDbTrace
 10
56.6850079902
 20
38.4602342313
 30
0.0
 11
59.1850079902
 21
38.1602342313
 31
0.0
 12
59.1850079902
 22
38.7602342313
 32
0.0
 13
59.1850079902
 23
38.7602342313
 33
0.0
  0
SOLID
  5
86
330
593
100
AcDbEntity
  8
0
  6
Continuous
 62
     7
100
AcDbTrace
 10
156.6850079902
 20
38.4602342313
 30
0.0
 11
154.1850079902
 21
38.7602342313
 31
0.0
 12
154.1850079902
 22
38.1602342313
 32
0.0
 13
154.1850079902
 23
38.1602342313
 33
0.0
  0
LINE
  5
87
330
593
100
AcDbEntity
  8
0
  6
Continuous
 62
     7
100
AcDbLine
 10
56.6850079902
 20
52.0299240879
 30
0.0
 11
56.6850079902
 21
37.4602342313
 31
0.0
  0
LINE
  5
88
330
593
100
AcDbEntity
  8
0
  6
Continuous
 62
     7
100
AcDbLine
 10
156.6850079902
 20
52.0299240879
 30
0.0
 11
156.6850079902
 21
37.4602342313
 31
0.0
  0
LINE
  5
89
330
593
100
AcDbEntity
  8
0
  6
Continuous
 62
     7
100
AcDbLine
 10
56.6850079902
 20
38.4602342313
 30
0.0
 11
156.6850079902
 21
38.4602342313
 31
0.0
  0
TEXT
  5
8A
330
593
100
AcDbEntity
  8
0
  6
Continuous
 62
     7
100
AcDbText
 10
93.9626484861
 20
41.4602339984
 30
0.0
 40
6.0
  1
100
 41
0.7
 11
93.9626484861
 21
38.4602339984
 31
0.0
100
AcDbText
 73
     1
  0
TEXT
  5
8B
330
593
100
AcDbEntity
  8
0
  6
Continuous
 62
     7
100
AcDbText
 10
105.3376491864
 20
41.4602339984
 30
0.0
 40
6.0
  1
mm
 41
0.7
 11
105.3376491864
 21
38.4602339984
 31
0.0
100
AcDbText
 73
     1
  0
ENDBLK
  5
84
330
593
100
AcDbEntity
  8
0
100
AcDbBlockEnd
  0
ENDSEC
  0
SECTION
  2
ENTITIES
  0
LINE
  5
73
330
57B
100
AcDbEntity
  8
0
  6
Continuous
 62
     7
100
AcDbLine
 10
56.6850079902
 20
152.0299240879
 30
0.0
 11
56.6850079902
 21
52.0299240879
 31
0.0
  0
LINE
  5
74
330
57B
100
AcDbEntity
  8
0
  6
Continuous
 62
     7
100
AcDbLine
 10
56.6850079902
 20
52.0299240879
 30
0.0
 11
156.6850079902
 21
52.0299240879
 31
0.0
  0
DIMENSION
  5
75
330
57B
100
AcDbEntity
  8
0
  6
Continuous
 62
     7
100
AcDbDimension
280
     0
  2
_D
 10
42.7614395004
 20
52.0299240879
 30
0.0
 11
42.7614395004
 21
105.4472211621
 31
0.0
 70
   160
  1
<>mm
 71
     5
 42
-1.0
 73
     0
 74
     0
 75
     0
  3
SLDDIMSTYLE0
100
AcDbAlignedDimension
 13
56.6850079902
 23
152.0299240879
 33
0.0
 14
56.6850079902
 24
52.0299240879
 34
0.0
 50
90.0
100
AcDbRotatedDimension
  0
DIMENSION
  5
81
330
57B
100
AcDbEntity
  8
0
  6
Continuous
 62
     7
100
AcDbDimension
280
     0
  2
_D_1
 10
156.6850079902
 20
38.4602342313
 30
0.0
 11
105.0418155019
 21
38.4602342313
 31
0.0
 70
   160
  1
<>mm
 71
     5
 42
-1.0
 73
     0
 74
     0
 75
     0
  3
SLDDIMSTYLE0
100
AcDbAlignedDimension
 13
56.6850079902
 23
52.0299240879
 33
0.0
 14
156.6850079902
 24
52.0299240879
 34
0.0
100
AcDbRotatedDimension
  0
TEXT
  5
8C
330
57B
100
AcDbEntity
  8
0
  6
Continuous
 62
     7
100
AcDbText
 10
412.8252631579
 20
40.5435675522
 30
0.0
 40
10.0
  1
KLUDI GmbH & Co KG
 41
0.6222222222
 11
412.8252631579
 21
35.5435675522
 31
0.0
100
AcDbText
 73
     1
  0
TEXT
  5
8D
330
57B
100
AcDbEntity
  8
0
  6
Continuous
 62
     7
100
AcDbText
 10
210.0873490389
 20
40.5435675522
 30
0.0
 40
10.0
  1
48 027 .. 65
 41
0.6125
 11
210.0873490389
 21
35.5435675522
 31
0.0
100
AcDbText
 73
     1
  0
LINE
  5
8E
330
57B
100
AcDbEntity
  8
0
  6
Continuous
 62
     7
100
AcDbLine
 10
188.4628971357
 20
587.4423038113
 30
0.0
 11
188.4628971357
 21
591.2905943083
 31
0.0
  0
LINE
  5
8F
330
57B
100
AcDbEntity
  8
0
  6
Continuous
 62
     7
100
AcDbLine
 10
164.4628971357
 20
591.2905943083
 30
0.0
 11
164.4628971357
 21
587.4423038113
 31
0.0
  0
ARC
  5
90
330
57B
100
AcDbEntity
  8
0
  6
Continuous
 62
     7
100
AcDbCircle
 10
163.7018040105
 20
606.0048592628
 30
0.0
 40
1.490747266449217
100
AcDbArc
 50
89.566863879
 51
170.3123911332
  0
ARC
  5
91
330
57B
100
AcDbEntity
  8
0
  6
Continuous
 62
     7
100
AcDbCircle
 10
189.3171443789
 20
606.0903486943
 30
0.0
 40
1.382200628411376
100
AcDbArc
 50
8.5185910984
 51
94.2342754978
  0
LWPOLYLINE
  5
92
330
57B
100
AcDbEntity
  8
0
  6
Continuous
 62
     7
100
AcDbPolyline
 90
       14
 70
   128
 43
0.0
 10
153.6091441698
 20
430.2281825514
 10
153.6336317687
 20
429.7588596668
 10
153.6773185977
 20
428.6890913447
 10
153.7200199861
 20
427.1723356208
 10
153.7590097475
 20
425.7713011087
 10
153.8268708671
 20
424.2402600703
 10
153.9084476049
 20
422.2539550095
 10
153.9692448722
 20
420.3198078558
 10
154.0156088152
 20
418.0271656351
 10
154.0384930698
 20
415.5932967183
 10
154.0429472559
 20
412.7731440797
 10
154.0401104665
 20
409.4923140645
 10
154.0595477383
 20
405.6399536214
 10
154.1227140684
 20
402.0425086498
  0
LWPOLYLINE
  5
93
330
57B
100
AcDbEntity
  8
0
  6
Continuous
 62
     7
100
AcDbPolyline
 90
        5
 70
   128
 43
0.0
 10
189.4139834173
 20
607.4999866195
 10
182.9402145167
 20
607.4994586034
 10
176.4659605878
 20
607.499045409
 10
169.9898095196
 20
607.4995929808
 10
163.5118108532
 20
607.4999866195
  0
LWPOLYLINE
  5
94
330
57B
100
AcDbEntity
  8
0
  6
Continuous
 62
     7
100
AcDbPolyline
 90
       13
 70
   128
 43
0.0
 10
198.8560888197
 20
402.0426753141
 10
198.9219603584
 20
405.0019921793
 10
198.9713687792
 20
408.7445135445
 10
198.9925053991
 20
411.8110065158
 10
199.0072167177
 20
414.3555825394
 10
199.0384595002
 20
417.3948320404
 10
199.081396782
 20
419.6406668742
 10
199.1274200967
 20
421.4702373413
 10
199.1870278421
 20
423.6154180738
 10
199.2646387151
 20
426.1130790271
 10
199.3539335912
 20
428.9699088441
 10
199.4234461352
 20
431.8591798846
 10
199.4277331133
 20
432.4526418293
  0
LWPOLYLINE
  5
95
330
57B
100
AcDbEntity
  8
0
  6
Continuous
 62
     7
100
AcDbPolyline
 90
       10
 70
   128
 43
0.0
 10
199.436049583
 20
433.6039209228
 10
199.4426032415
 20
434.5111676515
 10
199.394036445
 20
438.0237714591
 10
199.3166268574
 20
441.2026666274
 10
199.2340016344
 20
444.3401573848
 10
199.1695398385
 20
447.5918080652
 10
199.196107236
 20
450.7751606732
 10
199.296441288
 20
454.6695621679
 10
199.4133733054
 20
459.334497371
 10
199.4552988575
 20
464.0423159468
  0
ARC
  5
96
330
57B
100
AcDbEntity
  8
0
  6
Continuous
 62
     7
100
AcDbCircle
 10
151.6628971357
 20
363.2423038113
 30
0.0
 40
0.2000000000000455
100
AcDbArc
 50
180.0
 51
270.0
  0
ARC
  5
97
330
57B
100
AcDbEntity
  8
0
  6
Continuous
 62
     7
100
AcDbCircle
 10
201.2628971357
 20
363.2423038113
 30
0.0
 40
0.2000000000000455
100
AcDbArc
 50
270.0
 51
0.0
  0
LINE
  5
98
330
57B
100
AcDbEntity
  8
0
  6
Continuous
 62
     7
100
AcDbLine
 10
151.4628971357
 20
368.4423038113
 30
0.0
 11
151.4628971357
 21
363.2423038113
 31
0.0
  0
LINE
  5
99
330
57B
100
AcDbEntity
  8
0
  6
Continuous
 62
     7
100
AcDbLine
 10
201.4628971357
 20
363.2423038113
 30
0.0
 11
201.4628971357
 21
368.4423038113
 31
0.0
  0
ARC
  5
9A
330
57B
100
AcDbEntity
  8
0
  6
Continuous
 62
     7
100
AcDbCircle
 10
200.4628971357
 20
368.4423038113
 30
0.0
 40
1.0
100
AcDbArc
 50
0.0
 51
90.0
  0
ARC
  5
9B
330
57B
100
AcDbEntity
  8
0
  6
Continuous
 62
     7
100
AcDbCircle
 10
152.4628971357
 20
368.4423038113
 30
0.0
 40
1.0
100
AcDbArc
 50
90.0
 51
180.0
  0
LINE
  5
9C
330
57B
100
AcDbEntity
  8
0
  6
Continuous
 62
     7
100
AcDbLine
 10
199.4628971357
 20
464.2582006422
 30
0.0
 11
199.4628971357
 21
474.9826876943
 31
0.0
  0
LINE
  5
9D
330
57B
100
AcDbEntity
  8
0
  6
Continuous
 62
     7
100
AcDbLine
 10
199.4628971357
 20
369.4423038113
 30
0.0
 11
199.4628971357
 21
401.8264069803
 31
0.0
  0
LINE
  5
9E
330
57B
100
AcDbEntity
  8
0
  6
Continuous
 62
     7
100
AcDbLine
 10
153.4628971357
 20
401.8264069803
 30
0.0
 11
153.4628971357
 21
369.4423038113
 31
0.0
  0
ARC
  5
9F
330
57B
100
AcDbEntity
  8
0
  6
Continuous
 62
     7
100
AcDbCircle
 10
197.9594083432
 20
475.1470465405
 30
0.0
 40
1.512445826975185
100
AcDbArc
 50
353.761295664
 51
64.238704336
  0
LINE
  5
A0
330
57B
100
AcDbEntity
  8
0
  6
Continuous
 62
     7
100
AcDbLine
 10
198.6267518114
 20
476.5029255739
 30
0.0
 11
194.6601666871
 21
478.9815230497
 31
0.0
  0
ARC
  5
A1
330
57B
100
AcDbEntity
  8
0
  6
Continuous
 62
     7
100
AcDbCircle
 10
194.4481989814
 20
478.6423038113
 30
0.0
 40
0.4000000000000341
100
AcDbArc
 50
58.00000000000001
 51
90.0
  0
LINE
  5
A2
330
57B
100
AcDbEntity
  8
0
  6
Continuous
 62
     7
100
AcDbLine
 10
199.4628971357
 20
399.5866492058
 30
0.0
 11
203.153444261
 21
409.7263440979
 31
0.0
  0
ARC
  5
A3
330
57B
100
AcDbEntity
  8
0
  6
Continuous
 62
     7
100
AcDbCircle
 10
205.0328295026
 20
409.0423038113
 30
0.0
 40
2.0
100
AcDbArc
 50
90.0
 51
160.0
  0
ARC
  5
A4
330
57B
100
AcDbEntity
  8
0
  6
Continuous
 62
     7
100
AcDbCircle
 10
205.0328295026
 20
409.0423038113
 30
0.0
 40
6.0
100
AcDbArc
 50
90.0
 51
160.0
  0
LINE
  5
A5
330
57B
100
AcDbEntity
  8
0
  6
Continuous
 62
     7
100
AcDbLine
 10
218.0328295026
 20
415.0423038113
 30
0.0
 11
205.0328295026
 21
415.0423038113
 31
0.0
  0
LINE
  5
A6
330
57B
100
AcDbEntity
  8
0
  6
Continuous
 62
     7
100
AcDbLine
 10
205.0328295026
 20
411.0423038113
 30
0.0
 11
218.0328295026
 21
411.0423038113
 31
0.0
  0
LINE
  5
A7
330
57B
100
AcDbEntity
  8
0
  6
Continuous
 62
     7
100
AcDbLine
 10
189.2128802536
 20
607.4987118895
 30
0.0
 11
189.2128804821
 21
607.4987121636
 31
0.0
  0
LWPOLYLINE
  5
A8
330
57B
100
AcDbEntity
  8
0
  6
Continuous
 62
     7
100
AcDbPolyline
 90
       20
 70
   128
 43
0.0
 10
188.4628971357
 20
591.2905943083
 10
188.3657023588
 20
591.2921904619
 10
187.9368979526
 20
591.2942740292
 10
187.1780074335
 20
591.2962517375
 10
186.1108627001
 20
591.2980666919
 10
184.7661635635
 20
591.2996666795
 10
183.1825945694
 20
591.3010056715
 10
181.4057121147
 20
591.3020451474
 10
179.4866338724
 20
591.3027552037
 10
177.4805682295
 20
591.303115413
 10
175.445226042
 20
591.303115413
 10
173.4391603991
 20
591.3027552037
 10
171.5200821568
 20
591.3020451474
 10
169.7431997021
 20
591.3010056715
 10
168.159630708
 20
591.2996666795
 10
166.8149315713
 20
591.2980666919
 10
165.7477868379
 20
591.2962517375
 10
164.9888963189
 20
591.2942740292
 10
164.5600919126
 20
591.2921904619
 10
164.4628971357
 20
591.2905943083
  0
ARC
  5
A9
330
57B
100
AcDbEntity
  8
0
  6
Continuous
 62
     7
100
AcDbCircle
 10
163.7129154977
 20
605.9987109808
 30
0.0
 40
1.500000908676018
100
AcDbArc
 50
90.0000565254
 51
179.9999338753
  0
ARC
  5
AA
330
57B
100
AcDbEntity
  8
0
  6
Continuous
 62
     7
100
AcDbCircle
 10
189.2128787738
 20
605.9987109808
 30
0.0
 40
1.500000908675977
100
AcDbArc
 50
0.0000661247
 51
89.99994347459999
  0
LINE
  5
AB
330
57B
100
AcDbEntity
  8
0
  6
Continuous
 62
     7
100
AcDbLine
 10
187.4628971357
 20
584.0196540805
 30
0.0
 11
187.4628971357
 21
587.4423038113
 31
0.0
  0
LINE
  5
AC
330
57B
100
AcDbEntity
  8
0
  6
Continuous
 62
     7
100
AcDbLine
 10
187.4628971357
 20
584.0196540805
 30
0.0
 11
165.4628971357
 21
584.0196540805
 31
0.0
  0
LINE
  5
AD
330
57B
100
AcDbEntity
  8
0
  6
Continuous
 62
     7
100
AcDbLine
 10
165.4628971357
 20
584.0196540805
 30
0.0
 11
165.4628971357
 21
587.4423038113
 31
0.0
  0
LINE
  5
AE
330
57B
100
AcDbEntity
  8
0
  6
Continuous
 62
     7
100
AcDbLine
 10
164.4628971357
 20
587.4423038113
 30
0.0
 11
165.4628971357
 21
587.4423038113
 31
0.0
  0
LINE
  5
AF
330
57B
100
AcDbEntity
  8
0
  6
Continuous
 62
     7
100
AcDbLine
 10
187.4628971357
 20
587.4423038113
 30
0.0
 11
188.4628971357
 21
587.4423038113
 31
0.0
  0
LINE
  5
B0
330
57B
100
AcDbEntity
  8
0
  6
Continuous
 62
     7
100
AcDbLine
 10
187.4628971357
 20
583.4423038113
 30
0.0
 11
187.4628971357
 21
584.0196540805
 31
0.0
  0
LINE
  5
B1
330
57B
100
AcDbEntity
  8
0
  6
Continuous
 62
     7
100
AcDbLine
 10
187.4628971357
 20
583.4423038113
 30
0.0
 11
165.4628971357
 21
583.4423038113
 31
0.0
  0
LINE
  5
B2
330
57B
100
AcDbEntity
  8
0
  6
Continuous
 62
     7
100
AcDbLine
 10
165.4628971357
 20
583.4423038113
 30
0.0
 11
165.4628971357
 21
584.0196540805
 31
0.0
  0
ARC
  5
B3
330
57B
100
AcDbEntity
  8
0
  6
Continuous
 62
     7
100
AcDbCircle
 10
66.5280743219
 20
440.5039376648
 30
0.0
 40
87.10697492831605
100
AcDbArc
 50
355.6583729808
 51
15.8904816727
  0
ARC
  5
B4
330
57B
100
AcDbEntity
  8
0
  6
Continuous
 62
     7
100
AcDbCircle
 10
263.2890193007
 20
500.6597954576
 30
0.0
 40
87.10697492831756
100
AcDbArc
 50
198.1095183273
 51
218.3416270192
  0
ARC
  5
B5
330
57B
100
AcDbEntity
  8
0
  6
Continuous
 62
     7
100
AcDbCircle
 10
139.2073503713
 20
509.3017830648
 30
0.0
 40
2.297411308281332
100
AcDbArc
 50
95.870365772
 51
207.829634228
  0
ARC
  5
B6
330
57B
100
AcDbEntity
  8
0
  6
Continuous
 62
     7
100
AcDbCircle
 10
164.5639017879
 20
517.0540588089
 30
0.0
 40
2.297411308281158
100
AcDbArc
 50
6.170365772
 51
118.129634228
  0
LWPOLYLINE
  5
B7
330
57B
100
AcDbEntity
  8
0
  6
Continuous
 62
     7
100
AcDbPolyline
 90
        3
 70
   128
 43
0.0
 10
150.3064136987
 20
464.353779015
 10
149.4717934831
 20
467.2354483638
 10
148.8151933835
 20
469.4326598942
  0
LWPOLYLINE
  5
B8
330
57B
100
AcDbEntity
  8
0
  6
Continuous
 62
     7
100
AcDbPolyline
 90
        3
 70
   128
 43
0.0
 10
180.4969661591
 20
473.5839571923
 10
179.5774886267
 20
476.4396830558
 10
178.8931696842
 20
478.6284200855
  0
LINE
  5
B9
330
57B
100
AcDbEntity
  8
0
  6
Continuous
 62
     7
100
AcDbLine
 10
148.8151933835
 20
469.4326598942
 30
0.0
 11
137.1756584939
 21
508.2292501587
 31
0.0
  0
LINE
  5
BA
330
57B
100
AcDbEntity
  8
0
  6
Continuous
 62
     7
100
AcDbLine
 10
178.8931696842
 20
478.6284200855
 30
0.0
 11
166.8480034799
 21
517.3009964117
 31
0.0
  0
LINE
  5
BB
330
57B
100
AcDbEntity
  8
0
  6
Continuous
 62
     7
100
AcDbLine
 10
138.9723756272
 20
511.5871464034
 30
0.0
 11
163.4807457185
 21
519.0801070928
 31
0.0
  0
ARC
  5
BC
330
57B
100
AcDbEntity
  8
0
  6
Continuous
 62
     7
100
AcDbCircle
 10
176.370527279
 20
433.0914177353
 30
0.0
 40
23.00000000000001
100
AcDbArc
 50
177.9612250536
 51
36.0387749464
  0
LINE
  5
BD
330
57B
100
AcDbEntity
  8
0
  6
Continuous
 62
     7
100
AcDbLine
 10
150.3064136988
 20
464.353779015
 30
0.0
 11
148.8151933835
 21
469.4326598942
 31
0.0
  0
LINE
  5
BE
330
57B
100
AcDbEntity
  8
0
  6
Continuous
 62
     7
100
AcDbLine
 10
180.4969661591
 20
473.5839571923
 30
0.0
 11
178.8931696842
 21
478.6284200855
 31
0.0
  0
LWPOLYLINE
  5
BF
330
57B
100
AcDbEntity
  8
0
  6
Continuous
 62
     7
100
AcDbPolyline
 90
       17
 70
   128
 43
0.0
 10
162.2129143606
 20
605.9987129861
 10
162.1969284114
 20
605.7893696658
 10
162.1816508623
 20
605.2839447524
 10
162.159333494
 20
604.3262537885
 10
162.1181898111
 20
602.1758447765
 10
162.0921238607
 20
600.6140759828
 10
162.0631098581
 20
598.7075541891
 10
162.0180792739
 20
595.3863635132
 10
161.9696751117
 20
591.2557999217
 10
161.9245610087
 20
586.7386315079
 10
161.8816637962
 20
581.5956214949
 10
161.8382565842
 20
575.0133791898
 10
161.8041624767
 20
567.9045943848
 10
161.787184307
 20
562.8868263522
 10
161.7752093885
 20
557.7835434358
 10
161.7646163173
 20
548.5788995585
 10
161.7628971357
 20
539.3223038113
  0
LINE
  5
C0
330
57B
100
AcDbEntity
  8
0
  6
Continuous
 62
     7
100
AcDbLine
 10
163.7107834112
 20
607.4824741187
 30
0.0
 11
163.7111381369
 21
607.4851778876
 31
0.0
  0
LWPOLYLINE
  5
C1
330
57B
100
AcDbEntity
  8
0
  6
Continuous
 62
     7
100
AcDbPolyline
 90
       18
 70
   128
 43
0.0
 10
191.1628971357
 20
539.3223038113
 10
191.1620279521
 20
546.4718239433
 10
191.1569205424
 20
553.613896022
 10
191.1440381092
 20
560.809046948
 10
191.1216282728
 20
567.9054882327
 10
191.0883104296
 20
574.8771725429
 10
191.0441247374
 20
581.5963827074
 10
191.0021047049
 20
586.6435233439
 10
190.9561191601
 20
591.255799922
 10
190.9086539496
 20
595.3121105548
 10
190.8626667257
 20
598.7087705514
 10
190.8342728513
 20
600.5762752382
 10
190.8086878999
 20
602.1138224403
 10
190.7858106658
 20
603.3673606934
 10
190.7664482237
 20
604.3268417789
 10
190.740923544
 20
605.4032263843
 10
190.7227220362
 20
605.9276645672
 10
190.7128799109
 20
605.9987129861
  0
LWPOLYLINE
  5
C2
330
57B
100
AcDbEntity
  8
0
  6
Continuous
 62
     7
100
AcDbPolyline
 90
       15
 70
   128
 43
0.0
 10
161.7628971357
 20
539.3223038113
 10
161.7650520178
 20
546.9066988771
 10
161.7770386393
 20
554.4689159322
 10
161.7960561083
 20
559.8793312407
 10
161.8247183641
 20
565.1983539788
 10
161.8628613697
 20
570.3117641057
 10
161.9165267532
 20
575.7330816144
 10
161.9767867882
 20
580.5768331221
 10
162.0249838503
 20
583.8381059802
 10
162.0816502677
 20
587.1703757984
 10
162.1297314366
 20
589.6325044451
 10
162.1626399115
 20
591.1208949027
 10
162.1861170109
 20
592.0418889806
 10
162.2010517028
 20
592.5124226854
 10
162.2107336468
 20
592.654005268
  0
LWPOLYLINE
  5
C3
330
57B
100
AcDbEntity
  8
0
  6
Continuous
 62
     7
100
AcDbPolyline
 90
       15
 70
   128
 43
0.0
 10
190.7152966913
 20
592.6505500343
 10
190.7247439329
 20
592.5123872992
 10
190.739679673
 20
592.0418030024
 10
190.7631580929
 20
591.1207376909
 10
190.7960679935
 20
589.6322580827
 10
190.8441501291
 20
587.1700411061
 10
190.9008169587
 20
583.8376924841
 10
190.9490074836
 20
580.5768331219
 10
191.0092633628
 20
575.7334559184
 10
191.062925859
 20
570.3125817904
 10
191.1010694107
 20
565.1993674972
 10
191.1297328988
 20
559.8805333817
 10
191.148752026
 20
554.4702975516
 10
191.1607416688
 20
546.9073944979
 10
191.1628971357
 20
539.3223038113
  0
LINE
  5
C4
330
57B
100
AcDbEntity
  8
0
  6
Continuous
 62
     7
100
AcDbLine
 10
153.4628971357
 20
402.0423038113
 30
0.0
 11
154.1989757521
 21
402.0423038113
 31
0.0
  0
LINE
  5
C5
330
57B
100
AcDbEntity
  8
0
  6
Continuous
 62
     7
100
AcDbLine
 10
199.4628971357
 20
402.0423038113
 30
0.0
 11
199.4628971357
 21
433.0423038113
 31
0.0
  0
LINE
  5
C6
330
57B
100
AcDbEntity
  8
0
  6
Continuous
 62
     7
100
AcDbLine
 10
199.4628971357
 20
433.0423038113
 30
0.0
 11
199.4628971357
 21
464.0423038113
 31
0.0
  0
ARC
  5
C7
330
57B
100
AcDbEntity
  8
0
  6
Continuous
 62
     7
100
AcDbCircle
 10
176.4628971357
 20
433.0423038113
 30
0.0
 40
23.00000000000005
100
AcDbArc
 50
241.8696950565
 51
41.4094456016
  0
LINE
  5
C8
330
57B
100
AcDbEntity
  8
0
  6
Continuous
 62
     7
100
AcDbLine
 10
201.2628971187
 20
363.0423038113
 30
0.0
 11
151.6628971357
 21
363.0423038113
 31
0.0
  0
LINE
  5
C9
330
57B
100
AcDbEntity
  8
0
  6
Continuous
 62
     7
100
AcDbLine
 10
152.4628972002
 20
369.4423038113
 30
0.0
 11
200.4628971357
 21
369.4423038113
 31
0.0
  0
LINE
  5
CA
330
57B
100
AcDbEntity
  8
0
  6
Continuous
 62
     7
100
AcDbLine
 10
178.7642592587
 20
479.0423038113
 30
0.0
 11
194.4481989814
 21
479.0423038113
 31
0.0
  0
LINE
  5
CB
330
57B
100
AcDbEntity
  8
0
  6
Continuous
 62
     7
100
AcDbLine
 10
161.7628971357
 20
518.554908075
 30
0.0
 11
161.7628971357
 21
539.3223038113
 31
0.0
  0
LINE
  5
CC
330
57B
100
AcDbEntity
  8
0
  6
Continuous
 62
     7
100
AcDbLine
 10
189.6628971357
 20
479.3423038113
 30
0.0
 11
178.6708196639
 21
479.3423038113
 31
0.0
  0
ARC
  5
CD
330
57B
100
AcDbEntity
  8
0
  6
Continuous
 62
     7
100
AcDbCircle
 10
190.7628971357
 20
479.7423038113
 30
0.0
 40
0.4000000000000057
100
AcDbArc
 50
270.0
 51
0.0
  0
LINE
  5
CE
330
57B
100
AcDbEntity
  8
0
  6
Continuous
 62
     7
100
AcDbLine
 10
189.6628971357
 20
479.3423038113
 30
0.0
 11
190.7628971357
 21
479.3423038113
 31
0.0
  0
LINE
  5
CF
330
57B
100
AcDbEntity
  8
0
  6
Continuous
 62
     7
100
AcDbLine
 10
191.1628971357
 20
539.3223038113
 30
0.0
 11
191.1628971357
 21
479.7423038113
 31
0.0
  0
LINE
  5
D0
330
57B
100
AcDbEntity
  8
0
  6
Continuous
 62
     7
100
AcDbLine
 10
184.5238814694
 20
479.0423038113
 30
0.0
 11
184.5238814694
 21
479.3423038113
 31
0.0
  0
LINE
  5
D1
330
57B
100
AcDbEntity
  8
0
  6
Continuous
 62
     7
100
AcDbLine
 10
185.682441593
 20
479.0423038113
 30
0.0
 11
185.682441593
 21
479.3423038113
 31
0.0
  0
LINE
  5
D2
330
57B
100
AcDbEntity
  8
0
  6
Continuous
 62
     7
100
AcDbLine
 10
218.0328295026
 20
413.0423038113
 30
0.0
 11
218.0328295026
 21
411.0423038113
 31
0.0
  0
LINE
  5
D3
330
57B
100
AcDbEntity
  8
0
  6
Continuous
 62
     7
100
AcDbLine
 10
218.0328295026
 20
415.0423038113
 30
0.0
 11
218.0328295026
 21
413.0423038113
 31
0.0
  0
ARC
  5
D4
330
57B
100
AcDbEntity
  8
0
  6
Continuous
 62
     8
100
AcDbCircle
 10
165.0868332781
 20
184.6296381402
 30
0.0
 40
406.6763637373115
100
AcDbArc
 50
89.9401928395
 51
90.1797024865
  0
ARC
  5
D5
330
57B
100
AcDbEntity
  8
0
  6
Continuous
 62
     8
100
AcDbCircle
 10
163.8113370762
 20
592.8040025491
 30
0.0
 40
1.500000908675863
100
AcDbArc
 50
180.0000661247
 51
269.9999434746
  0
LINE
  5
D6
330
57B
100
AcDbEntity
  8
0
  6
Continuous
 62
     8
100
AcDbLine
 10
187.4144593225
 20
591.3057803233
 30
0.0
 11
165.511334949
 21
591.3057803233
 31
0.0
  0
ARC
  5
D7
330
57B
100
AcDbEntity
  8
0
  6
Continuous
 62
     8
100
AcDbCircle
 10
163.8113370762
 20
605.8806050735
 30
0.0
 40
1.500000908675863
100
AcDbArc
 50
90.0000565254
 51
179.9999338753
  0
ARC
  5
D8
330
57B
100
AcDbEntity
  8
0
  6
Continuous
 62
     8
100
AcDbCircle
 10
165.086833278
 20
1014.0549694613
 30
0.0
 40
406.6763637163151
100
AcDbArc
 50
269.8202975135
 51
270.0598071605
  0
LINE
  5
D9
330
57B
100
AcDbEntity
  8
0
  6
Continuous
 62
     8
100
AcDbLine
 10
162.3113361675
 20
592.8040008179
 30
0.0
 11
162.3113361675
 21
605.8806068046
 31
0.0
  0
LINE
  5
DA
330
57B
100
AcDbEntity
  8
0
  6
Continuous
 62
     8
100
AcDbLine
 10
165.511334949
 20
607.3788272992
 30
0.0
 11
187.4144593225
 21
607.3788272992
 31
0.0
  0
ARC
  5
DB
330
57B
100
AcDbEntity
  8
0
  6
Continuous
 62
     8
100
AcDbCircle
 10
187.8389609934
 20
184.6296381403
 30
0.0
 40
406.676363737253
100
AcDbArc
 50
89.8202975135
 51
90.0598071605
  0
ARC
  5
DC
330
57B
100
AcDbEntity
  8
0
  6
Continuous
 62
     8
100
AcDbCircle
 10
189.1144571953
 20
592.8040025491
 30
0.0
 40
1.500000908675933
100
AcDbArc
 50
270.0000565253999
 51
359.9999338753
  0
ARC
  5
DD
330
57B
100
AcDbEntity
  8
0
  6
Continuous
 62
     8
100
AcDbCircle
 10
187.8389609934
 20
1014.0549694822
 30
0.0
 40
406.676363737237
100
AcDbArc
 50
269.9401928395
 51
270.1797024865
  0
ARC
  5
DE
330
57B
100
AcDbEntity
  8
0
  6
Continuous
 62
     8
100
AcDbCircle
 10
189.1144571953
 20
605.8806050735
 30
0.0
 40
1.500000908675905
100
AcDbArc
 50
0.0000661247
 51
89.99994347459999
  0
LINE
  5
DF
330
57B
100
AcDbEntity
  8
0
  6
Continuous
 62
     8
100
AcDbLine
 10
190.614458104
 20
605.8806068046
 30
0.0
 11
190.614458104
 21
592.8040008179
 31
0.0
  0
LINE
  5
E0
330
57B
100
AcDbEntity
  8
0
  6
Continuous
 62
     8
100
AcDbLine
 10
163.7129140179
 20
607.4987118895
 30
0.0
 11
163.8113355963
 21
607.3806059822
 31
0.0
  0
LINE
  5
E1
330
57B
100
AcDbEntity
  8
0
  6
Continuous
 62
     8
100
AcDbLine
 10
163.7129137894
 20
607.4987121636
 30
0.0
 11
163.7129140179
 21
607.4987118895
 31
0.0
  0
LINE
  5
E2
330
57B
100
AcDbEntity
  8
0
  6
Continuous
 62
     8
100
AcDbLine
 10
189.2128804821
 20
607.4987121636
 30
0.0
 11
163.7129137894
 21
607.4987121636
 31
0.0
  0
LINE
  5
E3
330
57B
100
AcDbEntity
  8
0
  6
Continuous
 62
     8
100
AcDbLine
 10
189.1144586752
 20
607.3806059822
 30
0.0
 11
189.2128802536
 21
607.4987118895
 31
0.0
  0
LINE
  5
E4
330
57B
100
AcDbEntity
  8
0
  6
Continuous
 62
     8
100
AcDbLine
 10
163.7129140179
 20
591.1858957331
 30
0.0
 11
163.7129137894
 21
591.1858954589
 31
0.0
  0
LINE
  5
E5
330
57B
100
AcDbEntity
  8
0
  6
Continuous
 62
     8
100
AcDbLine
 10
163.8113355963
 20
591.3040016404
 30
0.0
 11
163.7129140179
 21
591.1858957331
 31
0.0
  0
LINE
  5
E6
330
57B
100
AcDbEntity
  8
0
  6
Continuous
 62
     8
100
AcDbLine
 10
189.2128802536
 20
591.1858957331
 30
0.0
 11
189.1144586752
 21
591.3040016404
 31
0.0
  0
LINE
  5
E7
330
57B
100
AcDbEntity
  8
0
  6
Continuous
 62
     8
100
AcDbLine
 10
189.2128804821
 20
591.1858954589
 30
0.0
 11
189.2128802536
 21
591.1858957331
 31
0.0
  0
LINE
  5
E8
330
57B
100
AcDbEntity
  8
0
  6
Continuous
 62
     8
100
AcDbLine
 10
163.7129137894
 20
591.1858954589
 30
0.0
 11
164.4628971357
 21
591.1858954589
 31
0.0
  0
LINE
  5
E9
330
57B
100
AcDbEntity
  8
0
  6
Continuous
 62
     8
100
AcDbLine
 10
188.4628971357
 20
591.1858954589
 30
0.0
 11
189.2128804821
 21
591.1858954589
 31
0.0
  0
ARC
  5
EA
330
57B
100
AcDbEntity
  8
0
  6
Continuous
 62
     8
100
AcDbCircle
 10
163.7129154977
 20
592.6858966417
 30
0.0
 40
1.500000908675819
100
AcDbArc
 50
180.0000661247
 51
269.9999434746
  0
LINE
  5
EB
330
57B
100
AcDbEntity
  8
0
  6
Continuous
 62
     8
100
AcDbLine
 10
162.212914589
 20
592.6858949106
 30
0.0
 11
162.3113361675
 21
592.8040008179
 31
0.0
  0
LINE
  5
EC
330
57B
100
AcDbEntity
  8
0
  6
Continuous
 62
     8
100
AcDbLine
 10
162.3113361675
 20
605.8806068046
 30
0.0
 11
162.212914589
 21
605.9987127119
 31
0.0
  0
LINE
  5
ED
330
57B
100
AcDbEntity
  8
0
  6
Continuous
 62
     8
100
AcDbLine
 10
190.614458104
 20
592.8040008179
 30
0.0
 11
190.7128796824
 21
592.6858949106
 31
0.0
  0
ARC
  5
EE
330
57B
100
AcDbEntity
  8
0
  6
Continuous
 62
     8
100
AcDbCircle
 10
189.2128787738
 20
592.6858966417
 30
0.0
 40
1.500000908675791
100
AcDbArc
 50
270.0000565253999
 51
359.9999338753
  0
LINE
  5
EF
330
57B
100
AcDbEntity
  8
0
  6
Continuous
 62
     8
100
AcDbLine
 10
190.7128796824
 20
605.9987127119
 30
0.0
 11
190.614458104
 21
605.8806068046
 31
0.0
  0
LINE
  5
F0
330
57B
100
AcDbEntity
  8
0
  6
Continuous
 62
     8
100
AcDbLine
 10
162.212914589
 20
605.9987127119
 30
0.0
 11
162.212914589
 21
592.6858949106
 31
0.0
  0
LINE
  5
F1
330
57B
100
AcDbEntity
  8
0
  6
Continuous
 62
     8
100
AcDbLine
 10
190.7128796824
 20
592.6858949106
 30
0.0
 11
190.7128796824
 21
605.9987127119
 31
0.0
  0
LINE
  5
F2
330
57B
100
AcDbEntity
  8
0
  6
Continuous
 62
     8
100
AcDbLine
 10
151.7024448019
 20
464.7456937494
 30
0.0
 11
150.3064136987
 21
464.353779015
 31
0.0
  0
ARC
  5
F3
330
57B
100
AcDbEntity
  8
0
  6
Continuous
 62
     8
100
AcDbCircle
 10
66.7692060086
 20
440.5316616009
 30
0.0
 40
88.3174638249
100
AcDbArc
 50
355.6663944585
 51
15.912579963
  0
LINE
  5
F4
330
57B
100
AcDbEntity
  8
0
  6
Continuous
 62
     8
100
AcDbLine
 10
154.8341688619
 20
433.8580768046
 30
0.0
 11
153.385086741
 21
433.9096617536
 31
0.0
  0
ARC
  5
F5
330
57B
100
AcDbEntity
  8
0
  6
Continuous
 62
     8
100
AcDbCircle
 10
263.0736090442
 20
500.5479405143
 30
0.0
 40
88.31746382490014
100
AcDbArc
 50
198.087420037
 51
218.3336055415
  0
LINE
  5
F6
330
57B
100
AcDbEntity
  8
0
  6
Continuous
 62
     8
100
AcDbLine
 10
179.1204479839
 20
473.1282185465
 30
0.0
 11
180.4969661591
 21
473.5839571923
 31
0.0
  0
LINE
  5
F7
330
57B
100
AcDbEntity
  8
0
  6
Continuous
 62
     8
100
AcDbLine
 10
193.7962672719
 20
445.7699857025
 30
0.0
 11
194.9687648584
 21
446.623068002
 31
0.0
  0
LINE
  5
F8
330
57B
100
AcDbEntity
  8
0
  6
Continuous
 62
     8
100
AcDbLine
 10
163.9046846904
 20
517.6934651967
 30
0.0
 11
151.6504996447
 21
513.9469848519
 31
0.0
  0
LWPOLYLINE
  5
F9
330
57B
100
AcDbEntity
  8
0
  6
Continuous
 62
     8
100
AcDbPolyline
 90
        9
 70
   128
 43
0.0
 10
165.4636003525
 20
516.869802504
 10
165.2839780082
 20
517.391438612
 10
165.1613319364
 20
517.6391727825
 10
165.083073721
 20
517.7535384375
 10
165.0372737226
 20
517.805538164
 10
164.9828969791
 20
517.8487065982
 10
164.917124526
 20
517.8695736979
 10
164.4385910104
 20
517.8394014931
 10
163.9046847741
 20
517.6934649039
  0
LINE
  5
FA
330
57B
100
AcDbEntity
  8
0
  6
Continuous
 62
     8
100
AcDbLine
 10
177.5087665249
 20
478.1972265181
 30
0.0
 11
165.4636003207
 21
516.8698028443
 31
0.0
  0
LWPOLYLINE
  5
FB
330
57B
100
AcDbEntity
  8
0
  6
Continuous
 62
     8
100
AcDbPolyline
 90
        3
 70
   128
 43
0.0
 10
179.1204479548
 20
473.128218423
 10
178.3033506367
 20
475.6591334001
 10
177.5087664036
 20
478.1972267224
  0
ARC
  5
FC
330
57B
100
AcDbEntity
  8
0
  6
Continuous
 62
     8
100
AcDbCircle
 10
176.370527279
 20
433.0914177353
 30
0.0
 40
21.5500000000002
100
AcDbArc
 50
287.0
 51
36.0387749464
  0
LWPOLYLINE
  5
FD
330
57B
100
AcDbEntity
  8
0
  6
Continuous
 62
     8
100
AcDbPolyline
 90
        3
 70
   128
 43
0.0
 10
151.7024448951
 20
464.7456936633
 10
150.9645795777
 20
467.300832294
 10
150.2040359874
 20
469.8493328852
  0
LINE
  5
FE
330
57B
100
AcDbEntity
  8
0
  6
Continuous
 62
     8
100
AcDbLine
 10
150.204036001
 20
469.849332648
 30
0.0
 11
138.5645011114
 21
508.6459229125
 31
0.0
  0
LWPOLYLINE
  5
FF
330
57B
100
AcDbEntity
  8
0
  6
Continuous
 62
     8
100
AcDbPolyline
 90
        9
 70
   128
 43
0.0
 10
138.5645012754
 20
508.6459226126
 10
138.4217197379
 20
509.1788220855
 10
138.3848667494
 20
509.4527858338
 10
138.3857932877
 20
509.5913606975
 10
138.3946853291
 20
509.6600814586
 10
138.4156262105
 20
509.7262768016
 10
138.4584853112
 20
509.7803559003
 10
138.8720796582
 20
510.0229345548
 10
139.3963146934
 20
510.2005042177
  0
LINE
  5
100
330
57B
100
AcDbEntity
  8
0
  6
Continuous
 62
     8
100
AcDbLine
 10
139.3963145991
 20
510.2005045072
 30
0.0
 11
151.6504996447
 21
513.9469848519
 31
0.0
  0
ARC
  5
101
330
57B
100
AcDbEntity
  8
0
  6
Continuous
 62
     8
100
AcDbCircle
 10
176.370527279
 20
433.0914177353
 30
0.0
 40
21.55000000000019
100
AcDbArc
 50
177.9612250536
 51
287.0
  0
LINE
  5
102
330
57B
100
AcDbEntity
  8
0
  6
Continuous
 62
     8
100
AcDbLine
 10
150.2040360013
 20
469.849332648
 30
0.0
 11
148.8151933835
 21
469.4326598942
 31
0.0
  0
LINE
  5
103
330
57B
100
AcDbEntity
  8
0
  6
Continuous
 62
     8
100
AcDbLine
 10
177.5087665246
 20
478.197226518
 30
0.0
 11
178.8931696842
 21
478.6284200855
 31
0.0
  0
LINE
  5
104
330
57B
100
AcDbEntity
  8
0
  6
Continuous
 62
     8
100
AcDbLine
 10
163.7111381369
 20
607.4851778876
 30
0.0
 11
163.7129137894
 21
607.4987121636
 31
0.0
  0
LINE
  5
105
330
57B
100
AcDbEntity
  8
0
  6
Continuous
 62
     8
100
AcDbLine
 10
189.2128804821
 20
607.4987121636
 30
0.0
 11
189.2152799105
 21
607.4667372816
 31
0.0
  0
LWPOLYLINE
  5
106
330
57B
100
AcDbEntity
  8
0
  6
Continuous
 62
     8
100
AcDbPolyline
 90
       15
 70
   128
 43
0.0
 10
163.7129137894
 20
591.1858954589
 10
163.7010462859
 20
591.0140838206
 10
163.6762833372
 20
590.1907843073
 10
163.6558569169
 20
589.3703128635
 10
163.6296628156
 20
588.2128159016
 10
163.5824862678
 20
585.8924691267
 10
163.524855778
 20
582.6512243555
 10
163.476654161
 20
579.5323726279
 10
163.4170661862
 20
574.9617977509
 10
163.3627743822
 20
569.6878046317
 10
163.3333047809
 20
566.02841138
 10
163.3092353884
 20
562.2550249518
 10
163.2770261112
 20
554.3032709592
 10
163.2648510678
 20
546.8350287227
 10
163.2628971357
 20
539.3223038113
  0
LINE
  5
107
330
57B
100
AcDbEntity
  8
0
  6
Continuous
 62
     8
100
AcDbLine
 10
162.2107336468
 20
592.654005268
 30
0.0
 11
162.2129143606
 21
592.6858946364
 31
0.0
  0
LWPOLYLINE
  5
108
330
57B
100
AcDbEntity
  8
0
  6
Continuous
 62
     8
100
AcDbPolyline
 90
       15
 70
   128
 43
0.0
 10
189.6628971357
 20
539.3223038113
 10
189.6609594478
 20
546.8134640904
 10
189.6487645576
 20
554.3046243695
 10
189.6176120632
 20
562.064563486
 10
189.5931517685
 20
565.9359386778
 10
189.5630128516
 20
569.6885920685
 10
189.5103963325
 20
574.8188192298
 10
189.4491401108
 20
579.5323726279
 10
189.4009450325
 20
582.6508287706
 10
189.3447724186
 20
585.8158011435
 10
189.2961366188
 20
588.2125780445
 10
189.2704219036
 20
589.349846752
 10
189.2502442621
 20
590.1628899178
 10
189.2247493507
 20
591.0140489091
 10
189.2128804821
 20
591.1858954589
  0
LINE
  5
109
330
57B
100
AcDbEntity
  8
0
  6
Continuous
 62
     8
100
AcDbLine
 10
190.7128799109
 20
592.6858946364
 30
0.0
 11
190.7152966913
 21
592.6505500343
 31
0.0
  0
LINE
  5
10A
330
57B
100
AcDbEntity
  8
0
  6
Continuous
 62
     8
100
AcDbLine
 10
154.1989757521
 20
402.0423038113
 30
0.0
 11
176.4628971357
 21
402.0423038113
 31
0.0
  0
LINE
  5
10B
330
57B
100
AcDbEntity
  8
0
  6
Continuous
 62
     8
100
AcDbLine
 10
176.4628971357
 20
402.0423038113
 30
0.0
 11
199.4628971357
 21
402.0423038113
 31
0.0
  0
LINE
  5
10C
330
57B
100
AcDbEntity
  8
0
  6
Continuous
 62
     8
100
AcDbLine
 10
151.4628971357
 20
363.2423038113
 30
0.0
 11
201.4628971357
 21
363.2423038113
 31
0.0
  0
LINE
  5
10D
330
57B
100
AcDbEntity
  8
0
  6
Continuous
 62
     8
100
AcDbLine
 10
201.4628971357
 20
368.4423038113
 30
0.0
 11
151.4628971357
 21
368.4423038113
 31
0.0
  0
LINE
  5
10E
330
57B
100
AcDbEntity
  8
0
  6
Continuous
 62
     8
100
AcDbLine
 10
199.4628971357
 20
474.9826876943
 30
0.0
 11
180.0522648904
 21
474.9826876943
 31
0.0
  0
LINE
  5
10F
330
57B
100
AcDbEntity
  8
0
  6
Continuous
 62
     8
100
AcDbLine
 10
179.5669458709
 20
476.5091742674
 30
0.0
 11
198.6167518114
 21
476.5091742674
 31
0.0
  0
LINE
  5
110
330
57B
100
AcDbEntity
  8
0
  6
Continuous
 62
     8
100
AcDbLine
 10
194.6601666871
 20
478.9815230497
 30
0.0
 11
178.7831903578
 21
478.9815230497
 31
0.0
  0
LINE
  5
111
330
57B
100
AcDbEntity
  8
0
  6
Continuous
 62
     8
100
AcDbLine
 10
163.2628971357
 20
539.3223038113
 30
0.0
 11
163.2628971357
 21
519.0135040971
 31
0.0
  0
LINE
  5
112
330
57B
100
AcDbEntity
  8
0
  6
Continuous
 62
     8
100
AcDbLine
 10
189.6628971357
 20
479.7423038113
 30
0.0
 11
189.6628971357
 21
539.3223038113
 31
0.0
  0
LINE
  5
113
330
57B
100
AcDbEntity
  8
0
  6
Continuous
 62
     8
100
AcDbLine
 10
178.5462335376
 20
479.7423038113
 30
0.0
 11
189.6628971357
 21
479.7423038113
 31
0.0
  0
LINE
  5
114
330
57B
100
AcDbEntity
  8
0
  6
Continuous
 62
     8
100
AcDbLine
 10
189.6628971357
 20
479.3423038113
 30
0.0
 11
189.6628971357
 21
479.7423038113
 31
0.0
  0
LINE
  5
115
330
57B
100
AcDbEntity
  8
0
  6
Continuous
 62
     8
100
AcDbLine
 10
189.6628971357
 20
479.7423038113
 30
0.0
 11
191.1628971357
 21
479.7423038113
 31
0.0
  0
LINE
  5
116
330
57B
100
AcDbEntity
  8
0
  6
Continuous
 62
     8
100
AcDbLine
 10
201.2740590194
 20
410.4103843846
 30
0.0
 11
203.153444261
 21
409.7263440979
 31
0.0
  0
LINE
  5
117
330
57B
100
AcDbEntity
  8
0
  6
Continuous
 62
     8
100
AcDbLine
 10
199.3946737779
 20
411.0944246712
 30
0.0
 11
201.2740590194
 21
410.4103843846
 31
0.0
  0
LINE
  5
118
330
57B
100
AcDbEntity
  8
0
  6
Continuous
 62
     8
100
AcDbLine
 10
205.0328295026
 20
413.0423038113
 30
0.0
 11
205.0328295026
 21
411.0423038113
 31
0.0
  0
LINE
  5
119
330
57B
100
AcDbEntity
  8
0
  6
Continuous
 62
     8
100
AcDbLine
 10
205.0328295026
 20
415.0423038113
 30
0.0
 11
205.0328295026
 21
413.0423038113
 31
0.0
  0
LWPOLYLINE
  5
11A
330
57B
100
AcDbEntity
  8
0
  6
Continuous
 62
     7
100
AcDbPolyline
 90
        3
 70
   128
 43
0.0
 10
398.5113463191
 20
411.648357671
 10
398.7809351569
 20
421.3408466533
 10
398.8994723105
 20
434.4620599066
  0
LWPOLYLINE
  5
11B
330
57B
100
AcDbEntity
  8
0
  6
Continuous
 62
     7
100
AcDbPolyline
 90
        4
 70
   128
 43
0.0
 10
398.9025962709
 20
433.9536676476
 10
398.8868394212
 20
439.5397931907
 10
398.8463272868
 20
445.1667900798
 10
398.8214276938
 20
448.6404638225
  0
LWPOLYLINE
  5
11C
330
57B
100
AcDbEntity
  8
0
  6
Continuous
 62
     7
100
AcDbPolyline
 90
        6
 70
   128
 43
0.0
 10
398.6634291905
 20
499.3951947599
 10
398.6575607692
 20
500.856510696
 10
398.6482698564
 20
503.3348081791
 10
398.6318294695
 20
507.3870722256
 10
398.6010081928
 20
512.2940508893
 10
398.5067967859
 20
517.3087771777
  0
ARC
  5
11D
330
57B
100
AcDbEntity
  8
0
  6
Continuous
 62
     7
100
AcDbCircle
 10
340.1201454545
 20
368.4423038113
 30
0.0
 40
1.0
100
AcDbArc
 50
0.0
 51
90.0
  0
ARC
  5
11E
330
57B
100
AcDbEntity
  8
0
  6
Continuous
 62
     7
100
AcDbCircle
 10
292.1201454545
 20
368.4423038113
 30
0.0
 40
1.0
100
AcDbArc
 50
90.0
 51
180.0
  0
LINE
  5
11F
330
57B
100
AcDbEntity
  8
0
  6
Continuous
 62
     7
100
AcDbLine
 10
291.1201454545
 20
368.4423038113
 30
0.0
 11
291.1201454545
 21
363.2423038113
 31
0.0
  0
LINE
  5
120
330
57B
100
AcDbEntity
  8
0
  6
Continuous
 62
     7
100
AcDbLine
 10
341.1201454545
 20
363.2423038113
 30
0.0
 11
341.1201454545
 21
368.4423038113
 31
0.0
  0
ARC
  5
121
330
57B
100
AcDbEntity
  8
0
  6
Continuous
 62
     7
100
AcDbCircle
 10
291.3201454545
 20
363.2423038113
 30
0.0
 40
0.2000000000000455
100
AcDbArc
 50
180.0
 51
270.0
  0
ARC
  5
122
330
57B
100
AcDbEntity
  8
0
  6
Continuous
 62
     7
100
AcDbCircle
 10
340.9201454545
 20
363.2423038113
 30
0.0
 40
0.2000000000000455
100
AcDbArc
 50
270.0
 51
0.0
  0
LINE
  5
123
330
57B
100
AcDbEntity
  8
0
  6
Continuous
 62
     7
100
AcDbLine
 10
375.7451385927
 20
410.0914177353
 30
0.0
 11
397.0201454545
 21
410.0914177353
 31
0.0
  0
LINE
  5
124
330
57B
100
AcDbEntity
  8
0
  6
Continuous
 62
     7
100
AcDbLine
 10
374.8547024912
 20
456.0914177353
 30
0.0
 11
366.9201454545
 21
456.0914177353
 31
0.0
  0
LINE
  5
125
330
57B
100
AcDbEntity
  8
0
  6
Continuous
 62
     7
100
AcDbLine
 10
339.1201454545
 20
464.0423038113
 30
0.0
 11
339.1201454545
 21
474.9826876943
 31
0.0
  0
LINE
  5
126
330
57B
100
AcDbEntity
  8
0
  6
Continuous
 62
     7
100
AcDbLine
 10
339.1201454545
 20
369.4423038113
 30
0.0
 11
339.1201454545
 21
402.0423038113
 31
0.0
  0
LINE
  5
127
330
57B
100
AcDbEntity
  8
0
  6
Continuous
 62
     7
100
AcDbLine
 10
293.1201454545
 20
474.9826876943
 30
0.0
 11
293.1201454545
 21
369.4423038113
 31
0.0
  0
LINE
  5
128
330
57B
100
AcDbEntity
  8
0
  6
Continuous
 62
     7
100
AcDbLine
 10
360.1201454545
 20
456.0423038113
 30
0.0
 11
347.1201454545
 21
456.0423038113
 31
0.0
  0
LINE
  5
129
330
57B
100
AcDbEntity
  8
0
  6
Continuous
 62
     7
100
AcDbLine
 10
347.1201454545
 20
410.0423038113
 30
0.0
 11
360.1201454545
 21
410.0423038113
 31
0.0
  0
LWPOLYLINE
  5
12A
330
57B
100
AcDbEntity
  8
0
  6
Continuous
 62
     7
100
AcDbPolyline
 90
        9
 70
   128
 43
0.0
 10
347.0553516742
 20
456.0254825436
 10
345.5347421799
 20
456.0275085155
 10
343.5573881945
 20
456.3182972116
 10
341.6670140121
 20
457.1233983271
 10
340.7644131507
 20
457.8870211997
 10
340.0057380304
 20
458.9700845053
 10
339.4627574744
 20
460.3859711562
 10
339.1761440468
 20
462.1389518435
 10
339.1528452435
 20
463.0310572446
  0
LWPOLYLINE
  5
12B
330
57B
100
AcDbEntity
  8
0
  6
Continuous
 62
     7
100
AcDbPolyline
 90
       13
 70
   128
 43
0.0
 10
339.0548228103
 20
402.0421220459
 10
339.0378666031
 20
403.0944354552
 10
339.2117207588
 20
405.0133917971
 10
339.6050611608
 20
406.528131179
 10
340.1814942014
 20
407.6836900915
 10
340.8663287688
 20
408.5274128798
 10
341.5739774952
 20
409.1108062912
 10
342.2355078042
 20
409.4882734812
 10
342.7999592638
 20
409.712833549
 10
343.6319302027
 20
409.902288954
 10
344.6910482709
 20
410.0207086727
 10
346.1263966202
 20
410.0634179141
 10
347.0956354622
 20
410.0487576183
  0
ARC
  5
12C
330
57B
100
AcDbEntity
  8
0
  6
Continuous
 62
     7
100
AcDbCircle
 10
397.0201454545
 20
411.5914177353
 30
0.0
 40
1.499999999999943
100
AcDbArc
 50
270.0
 51
0.0
  0
ARC
  5
12D
330
57B
100
AcDbEntity
  8
0
  6
Continuous
 62
     7
100
AcDbCircle
 10
294.6236342471
 20
475.1470465405
 30
0.0
 40
1.512445826975093
100
AcDbArc
 50
115.761295664
 51
186.238704336
  0
ARC
  5
12E
330
57B
100
AcDbEntity
  8
0
  6
Continuous
 62
     7
100
AcDbCircle
 10
337.616656662
 20
475.1470465405
 30
0.0
 40
1.512445826975093
100
AcDbArc
 50
353.761295664
 51
64.238704336
  0
ARC
  5
12F
330
57B
100
AcDbEntity
  8
0
  6
Continuous
 62
     7
100
AcDbCircle
 10
360.1201454545
 20
411.0423038113
 30
0.0
 40
1.0
100
AcDbArc
 50
270.0
 51
0.0
  0
ARC
  5
130
330
57B
100
AcDbEntity
  8
0
  6
Continuous
 62
     7
100
AcDbCircle
 10
360.1201454545
 20
455.0423038113
 30
0.0
 40
1.0
100
AcDbArc
 50
0.0
 51
90.0
  0
LINE
  5
131
330
57B
100
AcDbEntity
  8
0
  6
Continuous
 62
     7
100
AcDbLine
 10
338.2840001302
 20
476.5029255739
 30
0.0
 11
334.3174150059
 21
478.9815230497
 31
0.0
  0
LINE
  5
132
330
57B
100
AcDbEntity
  8
0
  6
Continuous
 62
     7
100
AcDbLine
 10
297.9228759032
 20
478.9815230497
 30
0.0
 11
293.9562907789
 21
476.5029255739
 31
0.0
  0
ARC
  5
133
330
57B
100
AcDbEntity
  8
0
  6
Continuous
 62
     7
100
AcDbCircle
 10
366.9201454545
 20
455.8914177353
 30
0.0
 40
0.2000000000000455
100
AcDbArc
 50
90.0
 51
180.0
  0
ARC
  5
134
330
57B
100
AcDbEntity
  8
0
  6
Continuous
 62
     7
100
AcDbCircle
 10
361.1201454546
 20
433.0423038114
 30
0.0
 40
21.64486082191342
100
AcDbArc
 50
279.0468459803
 51
301.1693392084
  0
ARC
  5
135
330
57B
100
AcDbEntity
  8
0
  6
Continuous
 62
     7
100
AcDbCircle
 10
361.1201454546
 20
433.0423038114
 30
0.0
 40
21.64486082191337
100
AcDbArc
 50
75.0057609508
 51
80.9531540197
  0
ARC
  5
136
330
57B
100
AcDbEntity
  8
0
  6
Continuous
 62
     7
100
AcDbCircle
 10
362.9512062296
 20
421.5423038114
 30
0.0
 40
10.0
100
AcDbArc
 50
270.0
 51
279.0468459803
  0
ARC
  5
137
330
57B
100
AcDbEntity
  8
0
  6
Continuous
 62
     7
100
AcDbCircle
 10
362.9512062296
 20
444.5423038114
 30
0.0
 40
10.00000000000001
100
AcDbArc
 50
80.9531540197
 51
90.0
  0
LINE
  5
138
330
57B
100
AcDbEntity
  8
0
  6
Continuous
 62
     7
100
AcDbLine
 10
362.9512062296
 20
454.5423038114
 30
0.0
 11
361.1201454546
 21
454.5423038114
 31
0.0
  0
LINE
  5
139
330
57B
100
AcDbEntity
  8
0
  6
Continuous
 62
     7
100
AcDbLine
 10
361.1201454546
 20
411.5423038114
 30
0.0
 11
362.9512062296
 21
411.5423038114
 31
0.0
  0
ARC
  5
13A
330
57B
100
AcDbEntity
  8
0
  6
Continuous
 62
     7
100
AcDbCircle
 10
298.1348436088
 20
478.6423038113
 30
0.0
 40
0.4000000000000341
100
AcDbArc
 50
90.0
 51
122.0
  0
ARC
  5
13B
330
57B
100
AcDbEntity
  8
0
  6
Continuous
 62
     7
100
AcDbCircle
 10
334.1054473002
 20
478.6423038113
 30
0.0
 40
0.4000000000000341
100
AcDbArc
 50
58.00000000000001
 51
90.0
  0
LINE
  5
13C
330
57B
100
AcDbEntity
  8
0
  6
Continuous
 62
     7
100
AcDbLine
 10
339.7149664261
 20
406.261100075
 30
0.0
 11
339.8153543644
 21
406.596733317
 31
0.0
  0
LINE
  5
13D
330
57B
100
AcDbEntity
  8
0
  6
Continuous
 62
     7
100
AcDbLine
 10
345.5141325783
 20
409.9928596275
 30
0.0
 11
347.1141032581
 21
410.0271311345
 31
0.0
  0
LWPOLYLINE
  5
13E
330
57B
100
AcDbEntity
  8
0
  6
Continuous
 62
     7
100
AcDbPolyline
 90
        3
 70
   128
 43
0.0
 10
347.0851620407
 20
456.0321976119
 10
346.9675219378
 20
456.0284327828
 10
345.1453179956
 20
456.0847770428
  0
LWPOLYLINE
  5
13F
330
57B
100
AcDbEntity
  8
0
  6
Continuous
 62
     7
100
AcDbPolyline
 90
        3
 70
   128
 43
0.0
 10
339.3881651666
 20
460.7612885873
 10
339.3471829156
 20
460.8945840748
 10
339.3312503135
 20
461.0391809751
  0
LWPOLYLINE
  5
140
330
57B
100
AcDbEntity
  8
0
  6
Continuous
 62
     7
100
AcDbPolyline
 90
       24
 70
   128
 43
0.0
 10
326.6201454545
 20
539.3223038113
 10
326.6429388133
 20
544.3616154992
 10
326.7380352991
 20
548.1255490881
 10
326.8759163797
 20
550.791442898
 10
327.0923876887
 20
553.4726987586
 10
327.6949896188
 20
558.0833309056
 10
328.6975207029
 20
562.8150718181
 10
330.2965050958
 20
567.7890259744
 10
332.3995040949
 20
572.3325802148
 10
335.0792037634
 20
576.5224236526
 10
338.3383976943
 20
580.2711167866
 10
342.1178970856
 20
583.4763269209
 10
346.3675261174
 20
586.1020668048
 10
351.0302952954
 20
588.1378908921
 10
356.0398874625
 20
589.5979939417
 10
361.3299004664
 20
590.528377635
 10
366.472874948
 20
590.9911142412
 10
368.6736293666
 20
591.0915320609
 10
369.6780192306
 20
591.1225539117
 10
370.7433777909
 20
591.146988286
 10
371.9223876331
 20
591.16543616
 10
373.215074566
 20
591.177416916
 10
374.621186385
 20
591.1835361464
 10
376.1401454545
 20
591.1858954589
  0
ARC
  5
141
330
57B
100
AcDbEntity
  8
0
  6
Continuous
 62
     7
100
AcDbCircle
 10
397.0201521585
 20
517.8294570944
 30
0.0
 40
1.499993297767819
100
AcDbArc
 50
0.014661139
 51
90.0924640269
  0
LINE
  5
142
330
57B
100
AcDbEntity
  8
0
  6
Continuous
 62
     7
100
AcDbLine
 10
397.0201454545
 20
519.3293974593
 30
0.0
 11
395.391663396
 21
519.3293974593
 31
0.0
  0
ARC
  5
143
330
57B
100
AcDbEntity
  8
0
  6
Continuous
 62
     7
100
AcDbCircle
 10
395.4616883235
 20
517.7476160071
 30
0.0
 40
1.560445374095265
100
AcDbArc
 50
91.8898341454
 51
184.9278366158
  0
LINE
  5
144
330
57B
100
AcDbEntity
  8
0
  6
Continuous
 62
     7
100
AcDbLine
 10
488.1201454545
 20
584.0196540805
 30
0.0
 11
488.1201454545
 21
591.3031606835
 31
0.0
  0
LINE
  5
145
330
57B
100
AcDbEntity
  8
0
  6
Continuous
 62
     7
100
AcDbLine
 10
464.1201454545
 20
591.2780279331
 30
0.0
 11
464.1201454545
 21
584.0196540805
 31
0.0
  0
LINE
  5
146
330
57B
100
AcDbEntity
  8
0
  6
Continuous
 62
     7
100
AcDbLine
 10
464.1201454545
 20
584.0196540805
 30
0.0
 11
465.1201454545
 21
583.4423038113
 31
0.0
  0
LINE
  5
147
330
57B
100
AcDbEntity
  8
0
  6
Continuous
 62
     7
100
AcDbLine
 10
487.1201454545
 20
583.4423038113
 30
0.0
 11
488.1201454545
 21
584.0196540805
 31
0.0
  0
LINE
  5
148
330
57B
100
AcDbEntity
  8
0
  6
Continuous
 62
     7
100
AcDbLine
 10
374.7201454545
 20
455.2298728358
 30
0.0
 11
374.7201454545
 21
455.0924984303
 31
0.0
  0
LINE
  5
149
330
57B
100
AcDbEntity
  8
0
  6
Continuous
 62
     7
100
AcDbLine
 10
326.1201454545
 20
479.0423038113
 30
0.0
 11
326.1201454545
 21
479.3423038113
 31
0.0
  0
LINE
  5
14A
330
57B
100
AcDbEntity
  8
0
  6
Continuous
 62
     7
100
AcDbLine
 10
306.1201454545
 20
479.3423038113
 30
0.0
 11
306.1201454545
 21
479.0423038113
 31
0.0
  0
LINE
  5
14B
330
57B
100
AcDbEntity
  8
0
  6
Continuous
 62
     7
100
AcDbLine
 10
374.9622115342
 20
455.9272046004
 30
0.0
 11
374.7449876792
 21
455.3600096659
 31
0.0
  0
LWPOLYLINE
  5
14C
330
57B
100
AcDbEntity
  8
0
  6
Continuous
 62
     7
100
AcDbPolyline
 90
        3
 70
   128
 43
0.0
 10
378.420256921
 20
454.8946898599
 10
378.3483441766
 20
454.8938648683
 10
377.9797207829
 20
454.921408957
  0
ARC
  5
14D
330
57B
100
AcDbEntity
  8
0
  6
Continuous
 62
     7
100
AcDbCircle
 10
378.9094529976
 20
463.3846786851
 30
0.0
 40
8.504070969445753
100
AcDbArc
 50
266.7022438805
 51
287.5720974149
  0
LWPOLYLINE
  5
14E
330
57B
100
AcDbEntity
  8
0
  6
Continuous
 62
     7
100
AcDbPolyline
 90
       17
 70
   128
 43
0.0
 10
393.5842853002
 20
473.4480511542
 10
393.5843757968
 20
473.4535961489
 10
393.5814854479
 20
473.344360582
 10
393.5675607221
 20
472.9842836599
 10
393.5504932975
 20
472.6622466964
 10
393.5191535945
 20
472.2068190018
 10
393.463240778
 20
471.592560893
 10
393.3667344865
 20
470.799427882
 10
392.9800113825
 20
468.7634536477
 10
392.250590784
 20
466.444071476
 10
391.1518718132
 20
464.1708251528
 10
389.7152410146
 20
462.1221599136
 10
387.9534549801
 20
460.3375187704
 10
385.8830110152
 20
458.8432271414
 10
383.5241814165
 20
457.6590452966
 10
380.8909433973
 20
456.7971842971
 10
380.6529960752
 20
456.7538641141
  0
LINE
  5
14F
330
57B
100
AcDbEntity
  8
0
  6
Continuous
 62
     7
100
AcDbLine
 10
375.1639652399
 20
456.1093440257
 30
0.0
 11
374.8425171672
 21
456.0911207751
 31
0.0
  0
LWPOLYLINE
  5
150
330
57B
100
AcDbEntity
  8
0
  6
Continuous
 62
     7
100
AcDbPolyline
 90
        6
 70
   128
 43
0.0
 10
398.5191449748
 20
433.8580769529
 10
398.5192154986
 20
439.060550838
 10
398.5193370484
 20
444.2556296695
 10
398.519391902
 20
449.5102656421
 10
398.5192199652
 20
457.2371235397
 10
398.5194226789
 20
464.7456936633
  0
LWPOLYLINE
  5
151
330
57B
100
AcDbEntity
  8
0
  6
Continuous
 62
     7
100
AcDbPolyline
 90
        3
 70
   128
 43
0.0
 10
398.8775787336
 20
432.0385978741
 10
398.9035977543
 20
433.4588490262
 10
398.9009195912
 20
433.9536623464
  0
LWPOLYLINE
  5
152
330
57B
100
AcDbEntity
  8
0
  6
Continuous
 62
     7
100
AcDbPolyline
 90
        5
 70
   128
 43
0.0
 10
398.898167838
 20
434.4620720645
 10
398.7899796828
 20
454.4507502664
 10
398.7283793811
 20
484.5039128615
 10
398.6651103374
 20
499.2255529181
 10
398.5192217824
 20
513.9469337861
  0
LINE
  5
153
330
57B
100
AcDbEntity
  8
0
  6
Continuous
 62
     7
100
AcDbLine
 10
398.5193118896
 20
411.6481354882
 30
0.0
 11
398.5193118896
 21
433.8580768046
 31
0.0
  0
LINE
  5
154
330
57B
100
AcDbEntity
  8
0
  6
Continuous
 62
     7
100
AcDbLine
 10
393.9014125666
 20
508.6703052571
 30
0.0
 11
393.6186336754
 21
469.8737149926
 31
0.0
  0
LINE
  5
155
330
57B
100
AcDbEntity
  8
0
  6
Continuous
 62
     7
100
AcDbLine
 10
393.6186336754
 20
478.192372093
 30
0.0
 11
393.5867965756
 21
473.8441258853
 31
0.0
  0
LINE
  5
156
330
57B
100
AcDbEntity
  8
0
  6
Continuous
 62
     7
100
AcDbLine
 10
393.9014125666
 20
516.8649484192
 30
0.0
 11
393.6186336754
 21
478.192372093
 31
0.0
  0
LWPOLYLINE
  5
157
330
57B
100
AcDbEntity
  8
0
  6
Continuous
 62
     7
100
AcDbPolyline
 90
        3
 70
   128
 43
0.0
 10
393.9070065628
 20
517.613572252
 10
393.9069844888
 20
517.6108744429
 10
393.9014125666
 20
516.8649484192
  0
LINE
  5
158
330
57B
100
AcDbEntity
  8
0
  6
Continuous
 62
     7
100
AcDbLine
 10
398.5193118896
 20
517.6934651967
 30
0.0
 11
398.5193118896
 21
517.3090408809
 31
0.0
  0
LWPOLYLINE
  5
159
330
57B
100
AcDbEntity
  8
0
  6
Continuous
 62
     7
100
AcDbPolyline
 90
        3
 70
   128
 43
0.0
 10
398.5190149463
 20
517.861300408
 10
398.5200772211
 20
517.8394014931
 10
398.5195630076
 20
517.6934649039
  0
LINE
  5
15A
330
57B
100
AcDbEntity
  8
0
  6
Continuous
 62
     7
100
AcDbLine
 10
292.1201454545
 20
369.4423038113
 30
0.0
 11
340.1201454545
 21
369.4423038113
 31
0.0
  0
LINE
  5
15B
330
57B
100
AcDbEntity
  8
0
  6
Continuous
 62
     7
100
AcDbLine
 10
316.1201454545
 20
363.0423038113
 30
0.0
 11
291.3201454545
 21
363.0423038113
 31
0.0
  0
LINE
  5
15C
330
57B
100
AcDbEntity
  8
0
  6
Continuous
 62
     7
100
AcDbLine
 10
340.9201454545
 20
363.0423038113
 30
0.0
 11
316.1201454545
 21
363.0423038113
 31
0.0
  0
LWPOLYLINE
  5
15D
330
57B
100
AcDbEntity
  8
0
  6
Continuous
 62
     7
100
AcDbPolyline
 90
       11
 70
   128
 43
0.0
 10
368.3619051341
 20
423.0429489756
 10
369.4229161315
 20
420.6782292939
 10
370.4493684452
 20
418.485995523
 10
371.4269991353
 20
416.4967095738
 10
372.3422236564
 20
414.7380133208
 10
373.1823246205
 20
413.2343445084
 10
373.9356285094
 20
412.0065971789
 10
374.591667883
 20
411.071831342
 10
375.141326828
 20
410.4430359199
 10
375.5769676272
 20
410.1289482608
 10
375.7451385927
 20
410.0914177353
  0
LINE
  5
15E
330
57B
100
AcDbEntity
  8
0
  6
Continuous
 62
     7
100
AcDbLine
 10
379.5770299604
 20
454.0875354303
 30
0.0
 11
380.5399193437
 21
454.5186921709
 31
0.0
  0
ARC
  5
15F
330
57B
100
AcDbEntity
  8
0
  6
Continuous
 62
     7
100
AcDbCircle
 10
377.7568371614
 20
460.020527495
 30
0.0
 40
6.205924320008719
100
AcDbArc
 50
259.8779637491
 51
287.0555794975
  0
LINE
  5
160
330
57B
100
AcDbEntity
  8
0
  6
Continuous
 62
     7
100
AcDbLine
 10
347.1201454545
 20
456.0423038113
 30
0.0
 11
347.0538990076
 21
455.9111736517
 31
0.0
  0
LINE
  5
161
330
57B
100
AcDbEntity
  8
0
  6
Continuous
 62
     7
100
AcDbLine
 10
347.0933379972
 20
410.0953992374
 30
0.0
 11
347.1201454545
 21
410.0423038113
 31
0.0
  0
LINE
  5
162
330
57B
100
AcDbEntity
  8
0
  6
Continuous
 62
     7
100
AcDbLine
 10
347.0851547604
 20
455.9730238425
 30
0.0
 11
347.1201454545
 21
456.0423038113
 31
0.0
  0
ARC
  5
163
330
57B
100
AcDbEntity
  8
0
  6
Continuous
 62
     7
100
AcDbCircle
 10
346.2832275943
 20
465.8246069069
 30
0.0
 40
9.817821479873212
100
AcDbArc
 50
245.081706462
 51
274.8902798322
  0
LINE
  5
164
330
57B
100
AcDbEntity
  8
0
  6
Continuous
 62
     7
100
AcDbLine
 10
339.3881651666
 20
460.7612885873
 30
0.0
 11
339.3652327514
 21
461.0419575028
 31
0.0
  0
LINE
  5
165
330
57B
100
AcDbEntity
  8
0
  6
Continuous
 62
     7
100
AcDbLine
 10
339.2023801108
 20
463.03510448
 30
0.0
 11
339.1200807987
 21
464.0423624798
 31
0.0
  0
LWPOLYLINE
  5
166
330
57B
100
AcDbEntity
  8
0
  6
Continuous
 62
     7
100
AcDbPolyline
 90
        7
 70
   128
 43
0.0
 10
339.6918643315
 20
406.2698268207
 10
339.9935941023
 20
407.0685748646
 10
340.8423464063
 20
408.2484337239
 10
342.004780601
 20
409.1215193213
 10
343.4536651636
 20
409.6915744328
 10
345.1694093985
 20
409.9822720389
 10
347.120178287
 20
410.0421866014
  0
ARC
  5
167
330
57B
100
AcDbEntity
  8
0
  6
Continuous
 62
     7
100
AcDbCircle
 10
383.5981294401
 20
429.9244443078
 30
0.0
 40
16.88094662054302
100
AcDbArc
 50
178.9265429791
 51
203.9987568467
  0
LINE
  5
168
330
57B
100
AcDbEntity
  8
0
  6
Continuous
 62
     7
100
AcDbLine
 10
366.7201454545
 20
430.2406964074
 30
0.0
 11
366.7201454545
 21
441.0743754229
 31
0.0
  0
LINE
  5
169
330
57B
100
AcDbEntity
  8
0
  6
Continuous
 62
     7
100
AcDbLine
 10
361.1201454545
 20
433.0423038113
 30
0.0
 11
361.1201454545
 21
411.0423038113
 31
0.0
  0
LINE
  5
16A
330
57B
100
AcDbEntity
  8
0
  6
Continuous
 62
     7
100
AcDbLine
 10
361.1201454545
 20
455.0423038113
 30
0.0
 11
361.1201454545
 21
433.0423038113
 31
0.0
  0
LINE
  5
16B
330
57B
100
AcDbEntity
  8
0
  6
Continuous
 62
     7
100
AcDbLine
 10
366.7201454545
 20
441.0743754229
 30
0.0
 11
366.7201454545
 21
455.8914177353
 31
0.0
  0
LWPOLYLINE
  5
16C
330
57B
100
AcDbEntity
  8
0
  6
Continuous
 62
     7
100
AcDbPolyline
 90
       10
 70
   128
 43
0.0
 10
375.3042508644
 20
410.2992809246
 10
374.9558900571
 20
410.5683307571
 10
374.4062311121
 20
411.1916583929
 10
373.7501917385
 20
412.1182958312
 10
372.9968878496
 20
413.335367097
 10
372.1567868855
 20
414.8259605284
 10
371.2415623644
 20
416.5693637705
 10
370.2639316743
 20
418.541351581
 10
369.2374793606
 20
420.7145224496
 10
368.1764683632
 20
423.0586793514
  0
LINE
  5
16D
330
57B
100
AcDbEntity
  8
0
  6
Continuous
 62
     7
100
AcDbLine
 10
316.1201454545
 20
479.0423038113
 30
0.0
 11
334.1054473002
 21
479.0423038113
 31
0.0
  0
LINE
  5
16E
330
57B
100
AcDbEntity
  8
0
  6
Continuous
 62
     7
100
AcDbLine
 10
298.1348436088
 20
479.0423038113
 30
0.0
 11
316.1201454545
 21
479.0423038113
 31
0.0
  0
LWPOLYLINE
  5
16F
330
57B
100
AcDbEntity
  8
0
  6
Continuous
 62
     7
100
AcDbPolyline
 90
       18
 70
   128
 43
0.0
 10
305.6201454545
 20
539.3223038113
 10
305.6638564308
 20
546.5606084925
 10
305.9433828953
 20
553.7912176975
 10
306.6836182395
 20
561.0755166411
 10
308.0653458433
 20
568.2601315838
 10
310.325788582
 20
575.4287642091
 10
313.6327188545
 20
582.3379003667
 10
317.1400324345
 20
587.5570998822
 10
321.4248100871
 20
592.3268093891
 10
326.4539483348
 20
596.5178840327
 10
332.1397223546
 20
600.0280152437
 10
336.1961508678
 20
601.9450460063
 10
340.3964713289
 20
603.5245518062
 10
344.8078572199
 20
604.8127211996
 10
349.297446748
 20
605.7983903374
 10
357.0924076243
 20
606.8827735968
 10
366.5937573045
 20
607.4245683557
 10
376.1401454545
 20
607.4987121636
  0
LWPOLYLINE
  5
170
330
57B
100
AcDbEntity
  8
0
  6
Continuous
 62
     7
100
AcDbPolyline
 90
       15
 70
   128
 43
0.0
 10
376.1401454545
 20
591.1858954589
 10
366.8927167126
 20
591.0140838206
 10
359.0361196917
 20
590.1907843073
 10
355.1091022832
 20
589.3745200048
 10
351.2400937082
 20
588.2128159016
 10
345.9715696388
 20
585.8924691267
 10
341.0285115967
 20
582.6512243555
 10
337.6138022407
 20
579.5323726279
 10
333.9814296818
 20
574.9617977509
 10
331.0895957057
 20
569.6878046317
 10
329.6617938365
 20
566.0433863029
 10
328.5550137343
 20
562.2550249518
 10
327.1777986556
 20
554.3032709592
 10
326.6941463987
 20
546.8350287227
 10
326.6201454545
 20
539.3223038113
  0
LINE
  5
171
330
57B
100
AcDbEntity
  8
0
  6
Continuous
 62
     7
100
AcDbLine
 10
381.2513655997
 20
454.9828252978
 30
0.0
 11
380.5401095212
 21
454.5186176609
 31
0.0
  0
LWPOLYLINE
  5
172
330
57B
100
AcDbEntity
  8
0
  6
Continuous
 62
     7
100
AcDbPolyline
 90
        6
 70
   128
 43
0.0
 10
381.4620446294
 20
455.260379669
 10
381.4748072212
 20
455.2549400994
 10
381.4811746877
 20
455.2419704978
 10
381.4725193698
 20
455.2083919954
 10
381.3827014952
 20
455.0957307621
 10
381.2513655997
 20
454.9828252978
  0
LWPOLYLINE
  5
173
330
57B
100
AcDbEntity
  8
0
  6
Continuous
 62
     7
100
AcDbPolyline
 90
        4
 70
   128
 43
0.0
 10
381.4620375331
 20
456.5969551922
 10
381.3130530354
 20
456.4615774917
 10
381.0567116196
 20
455.8184094512
 10
381.4620446294
 20
455.260379669
  0
LWPOLYLINE
  5
174
330
57B
100
AcDbEntity
  8
0
  6
Continuous
 62
     7
100
AcDbPolyline
 90
        6
 70
   128
 43
0.0
 10
381.2513617877
 20
456.6255339901
 10
381.4570055614
 20
456.6298422978
 10
381.4750111146
 20
456.6237504503
 10
381.4788469484
 20
456.6092054615
 10
381.4708091997
 20
456.6021199764
 10
381.4620375331
 20
456.5969551922
  0
LINE
  5
175
330
57B
100
AcDbEntity
  8
0
  6
Continuous
 62
     7
100
AcDbLine
 10
305.6201454545
 20
479.7423038113
 30
0.0
 11
305.6201454545
 21
539.3223038113
 31
0.0
  0
LINE
  5
176
330
57B
100
AcDbEntity
  8
0
  6
Continuous
 62
     7
100
AcDbLine
 10
325.1201454545
 20
479.3423038113
 30
0.0
 11
307.1201454545
 21
479.3423038113
 31
0.0
  0
LINE
  5
177
330
57B
100
AcDbEntity
  8
0
  6
Continuous
 62
     7
100
AcDbLine
 10
306.0201454545
 20
479.3423038113
 30
0.0
 11
307.1201454545
 21
479.3423038113
 31
0.0
  0
ARC
  5
178
330
57B
100
AcDbEntity
  8
0
  6
Continuous
 62
     7
100
AcDbCircle
 10
306.0201454545
 20
479.7423038113
 30
0.0
 40
0.3999999999999773
100
AcDbArc
 50
180.0
 51
270.0
  0
LINE
  5
179
330
57B
100
AcDbEntity
  8
0
  6
Continuous
 62
     7
100
AcDbLine
 10
326.6201454545
 20
539.3223038113
 30
0.0
 11
326.6201454545
 21
479.7423038113
 31
0.0
  0
LINE
  5
17A
330
57B
100
AcDbEntity
  8
0
  6
Continuous
 62
     7
100
AcDbLine
 10
325.1201454545
 20
479.3423038113
 30
0.0
 11
326.2201454545
 21
479.3423038113
 31
0.0
  0
ARC
  5
17B
330
57B
100
AcDbEntity
  8
0
  6
Continuous
 62
     7
100
AcDbCircle
 10
326.2201454545
 20
479.7423038113
 30
0.0
 40
0.3999999999999204
100
AcDbArc
 50
270.0
 51
0.0
  0
LINE
  5
17C
330
57B
100
AcDbEntity
  8
0
  6
Continuous
 62
     7
100
AcDbLine
 10
376.1401454545
 20
607.4987121636
 30
0.0
 11
376.1404072538
 21
607.4987118895
 31
0.0
  0
LINE
  5
17D
330
57B
100
AcDbEntity
  8
0
  6
Continuous
 62
     7
100
AcDbLine
 10
376.1404072538
 20
591.1858957331
 30
0.0
 11
376.1401454545
 21
591.1858954589
 31
0.0
  0
LINE
  5
17E
330
57B
100
AcDbEntity
  8
0
  6
Continuous
 62
     7
100
AcDbLine
 10
376.1404072538
 20
607.4987118895
 30
0.0
 11
488.9231997803
 21
607.3806059822
 31
0.0
  0
LINE
  5
17F
330
57B
100
AcDbEntity
  8
0
  6
Continuous
 62
     7
100
AcDbLine
 10
488.9231997803
 20
591.3040016404
 30
0.0
 11
376.1404072538
 21
591.1858957331
 31
0.0
  0
LINE
  5
180
330
57B
100
AcDbEntity
  8
0
  6
Continuous
 62
     7
100
AcDbLine
 10
488.9231997803
 20
607.3806059822
 30
0.0
 11
490.6217162506
 21
607.3788272992
 31
0.0
  0
ARC
  5
181
330
57B
100
AcDbEntity
  8
0
  6
Continuous
 62
     7
100
AcDbCircle
 10
490.6201454545
 20
605.8788281217
 30
0.0
 40
1.499999999999986
100
AcDbArc
 50
0.0
 51
89.93999999999998
  0
LINE
  5
182
330
57B
100
AcDbEntity
  8
0
  6
Continuous
 62
     7
100
AcDbLine
 10
490.6217162506
 20
591.3057803233
 30
0.0
 11
488.9231997803
 21
591.3040016404
 31
0.0
  0
ARC
  5
183
330
57B
100
AcDbEntity
  8
0
  6
Continuous
 62
     7
100
AcDbCircle
 10
490.6201454545
 20
592.8057795008
 30
0.0
 40
1.499999999999943
100
AcDbArc
 50
270.06
 51
0.0
  0
LINE
  5
184
330
57B
100
AcDbEntity
  8
0
  6
Continuous
 62
     7
100
AcDbLine
 10
492.1201454545
 20
605.8788281217
 30
0.0
 11
492.1201454545
 21
592.8057795008
 31
0.0
  0
LINE
  5
185
330
57B
100
AcDbEntity
  8
0
  6
Continuous
 62
     7
100
AcDbLine
 10
488.1201454545
 20
584.0196540805
 30
0.0
 11
480.9159769779
 21
584.0196540805
 31
0.0
  0
LINE
  5
186
330
57B
100
AcDbEntity
  8
0
  6
Continuous
 62
     7
100
AcDbLine
 10
480.9159769779
 20
584.0196540805
 30
0.0
 11
480.9159769779
 21
587.4423038113
 31
0.0
  0
LINE
  5
187
330
57B
100
AcDbEntity
  8
0
  6
Continuous
 62
     7
100
AcDbLine
 10
471.3243139312
 20
587.4423038113
 30
0.0
 11
480.9159769779
 21
587.4423038113
 31
0.0
  0
LINE
  5
188
330
57B
100
AcDbEntity
  8
0
  6
Continuous
 62
     7
100
AcDbLine
 10
471.3243139312
 20
587.4423038113
 30
0.0
 11
471.3243139312
 21
584.0196540805
 31
0.0
  0
LINE
  5
189
330
57B
100
AcDbEntity
  8
0
  6
Continuous
 62
     7
100
AcDbLine
 10
471.3243139312
 20
584.0196540805
 30
0.0
 11
464.1201454545
 21
584.0196540805
 31
0.0
  0
LINE
  5
18A
330
57B
100
AcDbEntity
  8
0
  6
Continuous
 62
     7
100
AcDbLine
 10
476.1201454545
 20
583.4423038113
 30
0.0
 11
465.1201454545
 21
583.4423038113
 31
0.0
  0
LINE
  5
18B
330
57B
100
AcDbEntity
  8
0
  6
Continuous
 62
     7
100
AcDbLine
 10
471.3243139312
 20
584.0196540805
 30
0.0
 11
476.1201454545
 21
583.4423038113
 31
0.0
  0
LWPOLYLINE
  5
18C
330
57B
100
AcDbEntity
  8
0
  6
Continuous
 62
     7
100
AcDbPolyline
 90
        3
 70
   128
 43
0.0
 10
476.1201454545
 20
583.4423038113
 10
477.3309428928
 20
583.4806612979
 10
480.9159769779
 20
584.0196540805
  0
LINE
  5
18D
330
57B
100
AcDbEntity
  8
0
  6
Continuous
 62
     7
100
AcDbLine
 10
487.1201454545
 20
583.4423038113
 30
0.0
 11
476.1201454545
 21
583.4423038113
 31
0.0
  0
LWPOLYLINE
  5
18E
330
57B
100
AcDbEntity
  8
0
  6
Continuous
 62
     7
100
AcDbPolyline
 90
        8
 70
   128
 43
0.0
 10
379.5770299604
 20
454.0875354303
 10
378.3929617651
 20
454.0643048512
 10
377.2376924967
 20
454.1436683447
 10
376.212909728
 20
454.3186402832
 10
375.408815523
 20
454.5738195197
 10
374.8961867907
 20
454.8867450074
 10
374.7201454545
 20
455.2298728358
 10
374.7449876792
 20
455.3600096659
  0
LWPOLYLINE
  5
18F
330
57B
100
AcDbEntity
  8
0
  6
Continuous
 62
     7
100
AcDbPolyline
 90
        5
 70
   128
 43
0.0
 10
376.6670410402
 20
453.9108298429
 10
375.7265397819
 20
454.1907588028
 10
375.0216856052
 20
454.6056173461
 10
374.7256189164
 20
455.0350635674
 10
374.7493672735
 20
455.0915125907
  0
LWPOLYLINE
  5
190
330
57B
100
AcDbEntity
  8
0
  6
Continuous
 62
     7
100
AcDbPolyline
 90
        4
 70
   128
 43
0.0
 10
375.4804343271
 20
455.2339869495
 10
375.3331997945
 20
455.3125314546
 10
374.9832537454
 20
455.6350155839
 10
374.9622115342
 20
455.9272046004
  0
LWPOLYLINE
  5
191
330
57B
100
AcDbEntity
  8
0
  6
Continuous
 62
     7
100
AcDbPolyline
 90
       13
 70
   128
 43
0.0
 10
381.4620375331
 20
456.5969551922
 10
380.5849187525
 20
456.8186127943
 10
379.5111014507
 20
456.9463977621
 10
378.353853163
 20
456.9668311843
 10
377.235241825
 20
456.8777577189
 10
376.2732599005
 20
456.6885729419
 10
375.5693783951
 20
456.41923229
 10
375.1978435733
 20
456.0981461378
 10
375.1978453729
 20
455.7591830374
 10
375.5693836043
 20
455.4380972225
 10
376.2732679697
 20
455.1687572095
 10
377.2352519031
 20
454.9795733056
 10
377.9647625707
 20
454.9086271092
  0
LWPOLYLINE
  5
192
330
57B
100
AcDbEntity
  8
0
  6
Continuous
 62
     8
100
AcDbPolyline
 90
        3
 70
   128
 43
0.0
 10
398.5194226789
 20
464.7456936633
 10
398.5191896232
 20
467.300832294
 10
398.5190693131
 20
469.8493328852
  0
LINE
  5
193
330
57B
100
AcDbEntity
  8
0
  6
Continuous
 62
     8
100
AcDbLine
 10
398.5193118896
 20
469.849332648
 30
0.0
 11
398.5193118896
 21
508.6459229125
 31
0.0
  0
LWPOLYLINE
  5
194
330
57B
100
AcDbEntity
  8
0
  6
Continuous
 62
     8
100
AcDbPolyline
 90
        9
 70
   128
 43
0.0
 10
398.5196582676
 20
508.6459226126
 10
398.5200282975
 20
509.1788220855
 10
398.5196784314
 20
509.4527858338
 10
398.5190550347
 20
509.5913606975
 10
398.5186579593
 20
509.6600814586
 10
398.5183804517
 20
509.7262768016
 10
398.5186136247
 20
509.7803559003
 10
398.5200772211
 20
510.0229345548
 10
398.5195630076
 20
510.2005042177
  0
LINE
  5
195
330
57B
100
AcDbEntity
  8
0
  6
Continuous
 62
     8
100
AcDbLine
 10
398.5193118896
 20
510.2005045072
 30
0.0
 11
398.5193118896
 21
513.9469848519
 31
0.0
  0
LINE
  5
196
330
57B
100
AcDbEntity
  8
0
  6
Continuous
 62
     8
100
AcDbLine
 10
398.9009195912
 20
433.9536623464
 30
0.0
 11
398.898167838
 21
434.4620720645
 31
0.0
  0
LINE
  5
197
330
57B
100
AcDbEntity
  8
0
  6
Continuous
 62
     8
100
AcDbLine
 10
397.0201454545
 20
511.5871464034
 30
0.0
 11
395.4097098637
 21
511.5871464034
 31
0.0
  0
LINE
  5
198
330
57B
100
AcDbEntity
  8
0
  6
Continuous
 62
     8
100
AcDbLine
 10
395.4013760126
 20
508.2292501587
 30
0.0
 11
397.0201454545
 21
508.2292501587
 31
0.0
  0
ARC
  5
199
330
57B
100
AcDbEntity
  8
0
  6
Continuous
 62
     8
100
AcDbCircle
 10
397.050769654
 20
510.1165236652
 30
0.0
 40
1.47094156227085
100
AcDbArc
 50
3.272982331500001
 51
91.1929530081
  0
ARC
  5
19A
330
57B
100
AcDbEntity
  8
0
  6
Continuous
 62
     8
100
AcDbCircle
 10
397.3488185305
 20
509.9519988667
 30
0.0
 40
1.753821285597926
100
AcDbArc
 50
259.1986783843
 51
311.8664056926
  0
ARC
  5
19B
330
57B
100
AcDbEntity
  8
0
  6
Continuous
 62
     8
100
AcDbCircle
 10
214.5188414008
 20
510.4182358858
 30
0.0
 40
179.3910870125287
100
AcDbArc
 50
359.4417190156
 51
359.918385426
  0
ARC
  5
19C
330
57B
100
AcDbEntity
  8
0
  6
Continuous
 62
     8
100
AcDbCircle
 10
395.3779547021
 20
510.1186197397
 30
0.0
 40
1.46886995753302
100
AcDbArc
 50
88.7612392199
 51
178.2801760131
  0
LWPOLYLINE
  5
19D
330
57B
100
AcDbEntity
  8
0
  6
Continuous
 62
     8
100
AcDbPolyline
 90
        9
 70
   128
 43
0.0
 10
395.4013760126
 20
508.2292501587
 10
395.1087543827
 20
508.2394888277
 10
394.8273775162
 20
508.2658979357
 10
394.5680580667
 20
508.3074626425
 10
394.3407610729
 20
508.3625857138
 10
394.1542210256
 20
508.4291488992
 10
394.0156062215
 20
508.5045943314
 10
393.9302433029
 20
508.5860228194
 10
393.9014125666
 20
508.6703052571
  0
ARC
  5
19E
330
57B
100
AcDbEntity
  8
0
  6
Continuous
 62
     8
100
AcDbCircle
 10
397.3488185306
 20
471.1554086017
 30
0.0
 40
1.753821285127314
100
AcDbArc
 50
259.1986783788
 51
311.8664057033
  0
LWPOLYLINE
  5
19F
330
57B
100
AcDbEntity
  8
0
  6
Continuous
 62
     8
100
AcDbPolyline
 90
        9
 70
   128
 43
0.0
 10
395.1185971215
 20
469.4326598942
 10
394.8259754915
 20
469.4428985632
 10
394.544598625
 20
469.4693076712
 10
394.2852791755
 20
469.510872378
 10
394.0579821817
 20
469.5659954493
 10
393.8714421344
 20
469.6325586347
 10
393.7328273304
 20
469.7080040669
 10
393.6474644117
 20
469.7894325549
 10
393.6186336754
 20
469.8737149926
  0
LINE
  5
1A0
330
57B
100
AcDbEntity
  8
0
  6
Continuous
 62
     8
100
AcDbLine
 10
397.0201454545
 20
469.4326598942
 30
0.0
 11
395.1185971215
 21
469.4326598942
 31
0.0
  0
LINE
  5
1A1
330
57B
100
AcDbEntity
  8
0
  6
Continuous
 62
     8
100
AcDbLine
 10
393.6120286632
 20
473.1282999256
 30
0.0
 11
393.609903985
 21
473.8396312329
 31
0.0
  0
LWPOLYLINE
  5
1A2
330
57B
100
AcDbEntity
  8
0
  6
Continuous
 62
     8
100
AcDbPolyline
 90
        4
 70
   128
 43
0.0
 10
393.6099040145
 20
473.8396326538
 10
393.6074036743
 20
474.0632094257
 10
393.6041485858
 20
474.1882564923
 10
393.5867965756
 20
473.8441258853
  0
LWPOLYLINE
  5
1A3
330
57B
100
AcDbEntity
  8
0
  6
Continuous
 62
     8
100
AcDbPolyline
 90
        7
 70
   128
 43
0.0
 10
393.9097464177
 20
517.6556642775
 10
393.9095972695
 20
517.8097842829
 10
393.9091865446
 20
517.8394023735
 10
393.9088693384
 20
517.8283640845
 10
393.9086785153
 20
517.814006281
 10
393.9083938787
 20
517.783125154
 10
393.9070065628
 20
517.613572252
  0
LINE
  5
1A4
330
57B
100
AcDbEntity
  8
0
  6
Continuous
 62
     8
100
AcDbLine
 10
393.9097464177
 20
517.6556642775
 30
0.0
 11
393.9097464177
 21
510.1627035881
 31
0.0
  0
LINE
  5
1A5
330
57B
100
AcDbEntity
  8
0
  6
Continuous
 62
     8
100
AcDbLine
 10
393.6186336754
 20
469.8737149926
 30
0.0
 11
393.5867965756
 21
465.4999750071
 31
0.0
  0
LWPOLYLINE
  5
1A6
330
57B
100
AcDbEntity
  8
0
  6
Continuous
 62
     8
100
AcDbPolyline
 90
        4
 70
   128
 43
0.0
 10
393.6099040145
 20
471.8349055065
 10
393.6074036743
 20
470.9263438431
 10
393.6041485858
 20
469.9095435138
 10
393.5867965756
 20
465.4999750071
  0
LINE
  5
1A7
330
57B
100
AcDbEntity
  8
0
  6
Continuous
 62
     8
100
AcDbLine
 10
393.6120286632
 20
473.1282999372
 30
0.0
 11
393.6099039853
 21
471.8348988658
 31
0.0
  0
ARC
  5
1A8
330
57B
100
AcDbEntity
  8
0
  6
Continuous
 62
     8
100
AcDbCircle
 10
397.050769654
 20
517.6094843546
 30
0.0
 40
1.470941562270629
100
AcDbArc
 50
3.272982331500001
 51
91.1929530081
  0
LINE
  5
1A9
330
57B
100
AcDbEntity
  8
0
  6
Continuous
 62
     8
100
AcDbLine
 10
398.5193118896
 20
517.3090408809
 30
0.0
 11
398.5193118896
 21
513.9469848519
 31
0.0
  0
LINE
  5
1AA
330
57B
100
AcDbEntity
  8
0
  6
Continuous
 62
     8
100
AcDbLine
 10
397.0201454545
 20
519.0801070928
 30
0.0
 11
395.4097098637
 21
519.0801070928
 31
0.0
  0
ARC
  5
1AB
330
57B
100
AcDbEntity
  8
0
  6
Continuous
 62
     8
100
AcDbCircle
 10
395.3779547021
 20
517.6115804292
 30
0.0
 40
1.468869957532761
100
AcDbArc
 50
88.7612392199
 51
178.2801760131
  0
ARC
  5
1AC
330
57B
100
AcDbEntity
  8
0
  6
Continuous
 62
     8
100
AcDbCircle
 10
397.3522296818
 20
466.1467686393
 30
0.0
 40
1.823483404595836
100
AcDbArc
 50
259.5070056467
 51
309.7939798588
  0
LINE
  5
1AD
330
57B
100
AcDbEntity
  8
0
  6
Continuous
 62
     8
100
AcDbLine
 10
397.0201454545
 20
464.353779015
 30
0.0
 11
395.0814585967
 21
464.353779015
 31
0.0
  0
ARC
  5
1AE
330
57B
100
AcDbEntity
  8
0
  6
Continuous
 62
     8
100
AcDbCircle
 10
394.9680070453
 20
465.7531860266
 30
0.0
 40
1.404019222421893
100
AcDbArc
 50
190.3903950212
 51
274.6418220860999
  0
LINE
  5
1AF
330
57B
100
AcDbEntity
  8
0
  6
Continuous
 62
     8
100
AcDbLine
 10
374.6464826054
 20
453.8388351116
 30
0.0
 11
376.6666003756
 21
453.9112236343
 31
0.0
  0
LINE
  5
1B0
330
57B
100
AcDbEntity
  8
0
  6
Continuous
 62
     8
100
AcDbLine
 10
374.648184964
 20
455.8430663238
 30
0.0
 11
374.6124994877
 21
455.8430663238
 31
0.0
  0
LINE
  5
1B1
330
57B
100
AcDbEntity
  8
0
  6
Continuous
 62
     8
100
AcDbLine
 10
374.648184964
 20
453.8383327721
 30
0.0
 11
374.6124994877
 21
453.8383327721
 31
0.0
  0
LINE
  5
1B2
330
57B
100
AcDbEntity
  8
0
  6
Continuous
 62
     8
100
AcDbLine
 10
316.1201454545
 20
402.0423038113
 30
0.0
 11
338.9216756049
 21
402.0423038113
 31
0.0
  0
LINE
  5
1B3
330
57B
100
AcDbEntity
  8
0
  6
Continuous
 62
     8
100
AcDbLine
 10
339.1201454545
 20
464.0423038113
 30
0.0
 11
316.1201454545
 21
464.0423038113
 31
0.0
  0
LINE
  5
1B4
330
57B
100
AcDbEntity
  8
0
  6
Continuous
 62
     8
100
AcDbLine
 10
316.1201454545
 20
464.0423038113
 30
0.0
 11
316.1201454545
 21
433.0423038113
 31
0.0
  0
LINE
  5
1B5
330
57B
100
AcDbEntity
  8
0
  6
Continuous
 62
     8
100
AcDbLine
 10
316.1201454545
 20
433.0423038113
 30
0.0
 11
316.1201454545
 21
402.0423038113
 31
0.0
  0
LINE
  5
1B6
330
57B
100
AcDbEntity
  8
0
  6
Continuous
 62
     8
100
AcDbLine
 10
316.1201454545
 20
474.9826876943
 30
0.0
 11
293.1201454545
 21
474.9826876943
 31
0.0
  0
LINE
  5
1B7
330
57B
100
AcDbEntity
  8
0
  6
Continuous
 62
     8
100
AcDbLine
 10
339.1201454545
 20
474.9826876943
 30
0.0
 11
316.1201454545
 21
474.9826876943
 31
0.0
  0
LWPOLYLINE
  5
1B8
330
57B
100
AcDbEntity
  8
0
  6
Continuous
 62
     8
100
AcDbPolyline
 90
       30
 70
   128
 43
0.0
 10
347.0538990076
 20
455.9111736517
 10
346.9087503214
 20
455.6238620865
 10
346.2745649221
 20
454.3345036622
 10
345.2175892565
 20
452.1509040583
 10
344.7713106422
 20
451.2263906802
 10
344.2780553316
 20
450.2062625379
 10
343.7378233247
 20
449.0931007334
 10
343.1496158964
 20
447.8820743316
 10
342.4671984766
 20
446.4619434013
 10
341.7470093431
 20
444.9339763749
 10
341.0553250767
 20
443.4148967532
 10
340.3577995935
 20
441.8367026959
 10
339.3731367486
 20
439.3240008871
 10
338.6716442023
 20
436.9854550141
 10
338.3612993374
 20
435.545640439
 10
338.1768079385
 20
434.2120434026
 10
338.1181700057
 20
432.9908475867
 10
338.1661530652
 20
431.9075729696
 10
338.302293587
 20
430.7780115634
 10
338.5265915711
 20
429.6054455168
 10
338.8390470175
 20
428.3939142475
 10
339.228007622
 20
427.1729569576
 10
339.7454537364
 20
425.7585091032
 10
340.3913853606
 20
424.1688077988
 10
342.1195485415
 20
420.3548601841
 10
343.7612480872
 20
416.9433616382
 10
345.2307656854
 20
413.9072390681
 10
346.2804211127
 20
411.7388379543
 10
346.9102143691
 20
410.4580978317
 10
347.0933379972
 20
410.0953992374
  0
LWPOLYLINE
  5
1B9
330
57B
100
AcDbEntity
  8
0
  6
Continuous
 62
     8
100
AcDbPolyline
 90
        9
 70
   128
 43
0.0
 10
368.1764683632
 20
423.0586793514
 10
368.1817986908
 20
423.0442865755
 10
368.1935500044
 20
423.0329612308
 10
368.2113033572
 20
423.025107078
 10
368.2344258232
 20
423.0210041259
 10
368.2620930621
 20
423.0207986491
 10
368.2933187074
 20
423.0244979731
 10
368.3269895316
 20
423.031970213
 10
368.3619051341
 20
423.0429489756
  0
LWPOLYLINE
  5
1BA
330
57B
100
AcDbEntity
  8
0
  6
Continuous
 62
     8
100
AcDbPolyline
 90
        9
 70
   128
 43
0.0
 10
366.7201454545
 20
441.0743754229
 10
366.7239883985
 20
441.088036807
 10
366.735369548
 20
441.1011731918
 10
366.7538515321
 20
441.1132797533
 10
366.7787240983
 20
441.1238912432
 10
366.8090314079
 20
441.1325998679
 10
366.8436087681
 20
441.1390709599
 10
366.8811273901
 20
441.1430558386
 10
366.9201454545
 20
441.1444013675
  0
LINE
  5
1BB
330
57B
100
AcDbEntity
  8
0
  6
Continuous
 62
     8
100
AcDbLine
 10
316.1201454545
 20
476.5091742674
 30
0.0
 11
338.2740001302
 21
476.5091742674
 31
0.0
  0
LINE
  5
1BC
330
57B
100
AcDbEntity
  8
0
  6
Continuous
 62
     8
100
AcDbLine
 10
293.9662907789
 20
476.5091742674
 30
0.0
 11
316.1201454545
 21
476.5091742674
 31
0.0
  0
LINE
  5
1BD
330
57B
100
AcDbEntity
  8
0
  6
Continuous
 62
     8
100
AcDbLine
 10
316.1201454545
 20
478.9815230497
 30
0.0
 11
297.9228759032
 21
478.9815230497
 31
0.0
  0
LINE
  5
1BE
330
57B
100
AcDbEntity
  8
0
  6
Continuous
 62
     8
100
AcDbLine
 10
334.3174150059
 20
478.9815230497
 30
0.0
 11
316.1201454545
 21
478.9815230497
 31
0.0
  0
LWPOLYLINE
  5
1BF
330
57B
100
AcDbEntity
  8
0
  6
Continuous
 62
     8
100
AcDbPolyline
 90
       17
 70
   128
 43
0.0
 10
376.1398836553
 20
605.9987129861
 10
362.8599459
 20
605.7893696658
 10
356.2082953265
 20
605.2860960276
 10
349.5787140542
 20
604.3262537885
 10
341.0896506371
 20
602.1758447765
 10
336.9095494747
 20
600.6206099011
 10
332.8468542512
 20
598.7075541891
 10
327.446937649
 20
595.3863635132
 10
322.4732411286
 20
591.2557999217
 10
318.4031038334
 20
586.7386315079
 10
314.9362464527
 20
581.5956214949
 10
311.7745220497
 20
575.0133791898
 10
309.523208278
 20
567.9045943848
 10
308.4827885607
 20
562.8868263522
 10
307.7870585721
 20
557.7835434358
 10
307.2079907175
 20
548.5788995585
 10
307.1201454545
 20
539.3223038113
  0
LWPOLYLINE
  5
1C0
330
57B
100
AcDbEntity
  8
0
  6
Continuous
 62
     8
100
AcDbPolyline
 90
       15
 70
   128
 43
0.0
 10
325.1201454545
 20
539.3223038113
 10
325.1991824633
 20
546.9066988771
 10
325.6874751223
 20
554.4689159322
 10
326.5006035134
 20
559.8793312407
 10
327.8188672624
 20
565.1983539788
 10
329.7264072397
 20
570.3117641057
 10
332.7006022465
 20
575.7330816144
 10
336.5358852978
 20
580.5768331221
 10
340.1085151858
 20
583.8381059802
 10
345.1889890691
 20
587.1703757984
 10
350.7495548442
 20
589.6325044451
 10
355.9881223759
 20
591.1208949027
 10
361.3766748345
 20
592.0418889806
 10
366.8172012072
 20
592.5124226854
 10
376.1398836553
 20
592.6858946364
  0
LINE
  5
1C1
330
57B
100
AcDbEntity
  8
0
  6
Continuous
 62
     8
100
AcDbLine
 10
376.1401454545
 20
605.9987127119
 30
0.0
 11
376.1398836553
 21
605.9987129861
 31
0.0
  0
LINE
  5
1C2
330
57B
100
AcDbEntity
  8
0
  6
Continuous
 62
     8
100
AcDbLine
 10
376.1398836553
 20
592.6858946364
 30
0.0
 11
376.1401454545
 21
592.6858949106
 31
0.0
  0
LINE
  5
1C3
330
57B
100
AcDbEntity
  8
0
  6
Continuous
 62
     8
100
AcDbLine
 10
307.1201454545
 20
539.3223038113
 30
0.0
 11
307.1201454545
 21
479.7423038113
 31
0.0
  0
LINE
  5
1C4
330
57B
100
AcDbEntity
  8
0
  6
Continuous
 62
     8
100
AcDbLine
 10
325.1201454545
 20
479.7423038113
 30
0.0
 11
325.1201454545
 21
539.3223038113
 31
0.0
  0
LINE
  5
1C5
330
57B
100
AcDbEntity
  8
0
  6
Continuous
 62
     8
100
AcDbLine
 10
325.1201454545
 20
479.3423038113
 30
0.0
 11
325.1201454545
 21
479.7423038113
 31
0.0
  0
LINE
  5
1C6
330
57B
100
AcDbEntity
  8
0
  6
Continuous
 62
     8
100
AcDbLine
 10
307.1201454545
 20
479.7423038113
 30
0.0
 11
307.1201454545
 21
479.3423038113
 31
0.0
  0
LINE
  5
1C7
330
57B
100
AcDbEntity
  8
0
  6
Continuous
 62
     8
100
AcDbLine
 10
488.922937981
 20
605.8806068046
 30
0.0
 11
376.1401454545
 21
605.9987127119
 31
0.0
  0
LINE
  5
1C8
330
57B
100
AcDbEntity
  8
0
  6
Continuous
 62
     8
100
AcDbLine
 10
376.1401454545
 20
592.6858949106
 30
0.0
 11
488.922937981
 21
592.8040008179
 31
0.0
  0
LINE
  5
1C9
330
57B
100
AcDbEntity
  8
0
  6
Continuous
 62
     8
100
AcDbLine
 10
492.1201454545
 20
605.8788281217
 30
0.0
 11
488.922937981
 21
605.8806068046
 31
0.0
  0
LINE
  5
1CA
330
57B
100
AcDbEntity
  8
0
  6
Continuous
 62
     8
100
AcDbLine
 10
488.922937981
 20
592.8040008179
 30
0.0
 11
492.1201454545
 21
592.8057795008
 31
0.0
  0
LINE
  5
1CB
330
57B
100
AcDbEntity
  8
0
  6
Continuous
 62
     8
100
AcDbLine
 10
397.0201454545
 20
519.0801070928
 30
0.0
 11
397.0201454545
 21
519.3228741075
 31
0.0
  0
LWPOLYLINE
  5
1CC
330
57B
100
AcDbEntity
  8
0
  6
Continuous
 62
     8
100
AcDbPolyline
 90
        3
 70
   128
 43
0.0
 10
395.4091860362
 20
519.324471077
 10
395.4095607156
 20
519.2747019426
 10
395.4097098637
 20
519.0801070928
  0
ARC
  5
1CD
330
57B
100
AcDbEntity
  8
0
  6
Continuous
 62
     8
100
AcDbCircle
 10
378.7691986253
 20
464.3749834222
 30
0.0
 40
9.714617188660535
100
AcDbArc
 50
250.2121912551
 51
284.8037164666
  0
LINE
  5
1CE
330
57B
100
AcDbEntity
  8
0
  6
Continuous
 62
     8
100
AcDbLine
 10
393.5867965756
 20
473.8441258853
 30
0.0
 11
393.5695197157
 21
473.2695734162
 31
0.0
  0
LINE
  5
1CF
330
57B
100
AcDbEntity
  8
0
  6
Continuous
 62
     7
100
AcDbLine
 10
190.69319117
 20
196.6241233198
 30
0.0
 11
197.7961070644
 21
196.8120224299
 31
0.0
  0
LWPOLYLINE
  5
1D0
330
57B
100
AcDbEntity
  8
0
  6
Continuous
 62
     7
100
AcDbPolyline
 90
       17
 70
   128
 43
0.0
 10
139.7958689667
 20
196.806324474
 10
141.534936104
 20
196.7719500432
 10
143.2480667839
 20
196.7483987156
 10
144.6984640886
 20
196.7313849544
 10
145.7714461495
 20
196.718827097
 10
146.6652875631
 20
196.7087417473
 10
147.5444781102
 20
196.7002454733
 10
148.4337301448
 20
196.6924247341
 10
149.6350510835
 20
196.6818658191
 10
150.8542598434
 20
196.6700795147
 10
152.0912234422
 20
196.6568127792
 10
154.8271531037
 20
196.6299417432
 10
157.2149463665
 20
196.6083653027
 10
159.2118153222
 20
196.593369466
 10
160.8185815806
 20
196.5848694165
 10
162.0417580623
 20
196.5812232948
 10
162.2326405548
 20
196.5812049587
  0
ARC
  5
1D1
330
57B
100
AcDbEntity
  8
0
  6
Continuous
 62
     7
100
AcDbCircle
 10
138.4330737516
 20
198.3054902121
 30
0.0
 40
1.499999303036172
100
AcDbArc
 50
180.0116545306
 51
269.9993961206
  0
ARC
  5
1D2
330
57B
100
AcDbEntity
  8
0
  6
Continuous
 62
     7
100
AcDbCircle
 10
138.4880141856
 20
199.8808551845
 30
0.0
 40
1.545413807243259
100
AcDbArc
 50
86.7590932509
 51
178.5798978462
  0
LINE
  5
1D3
330
57B
100
AcDbEntity
  8
0
  6
Continuous
 62
     7
100
AcDbLine
 10
136.9331403142
 20
199.9339729677
 30
0.0
 11
136.9331403142
 21
198.3054909091
 31
0.0
  0
LINE
  5
1D4
330
57B
100
AcDbEntity
  8
0
  6
Continuous
 62
     7
100
AcDbLine
 10
150.2154958407
 20
201.7065967641
 30
0.0
 11
138.5759609511
 21
201.4238178729
 31
0.0
  0
LWPOLYLINE
  5
1D5
330
57B
100
AcDbEntity
  8
0
  6
Continuous
 62
     7
100
AcDbPolyline
 90
        6
 70
   128
 43
0.0
 10
199.4595488823
 20
257.1934347168
 10
199.4601255818
 20
257.3285916062
 10
199.4357763294
 20
262.2461987557
 10
199.4159134806
 20
267.6329317637
 10
199.4403720007
 20
273.4048437997
 10
199.4608441069
 20
279.2054981548
  0
LWPOLYLINE
  5
1D6
330
57B
100
AcDbEntity
  8
0
  6
Continuous
 62
     7
100
AcDbPolyline
 90
        5
 70
   128
 43
0.0
 10
153.467964264
 20
279.2055017682
 10
153.4803535448
 20
273.4243446209
 10
153.5011529292
 20
267.0545052056
 10
153.4795222949
 20
261.2681040097
 10
153.4666796162
 20
257.2009405655
  0
ARC
  5
1D7
330
57B
100
AcDbEntity
  8
0
  6
Continuous
 62
     7
100
AcDbCircle
 10
151.6701285867
 20
204.5973151942
 30
0.0
 40
2.865031865437074
100
AcDbArc
 50
266.6067617457
 51
315.8957822749001
  0
LINE
  5
1D8
330
57B
100
AcDbEntity
  8
0
  6
Continuous
 62
     7
100
AcDbLine
 10
199.4628971357
 20
235.2054909091
 30
0.0
 11
199.4628971357
 21
257.2075667647
 31
0.0
  0
LINE
  5
1D9
330
57B
100
AcDbEntity
  8
0
  6
Continuous
 62
     7
100
AcDbLine
 10
153.4628971357
 20
257.2049971224
 30
0.0
 11
153.4628971357
 21
235.2054909091
 31
0.0
  0
ARC
  5
1DA
330
57B
100
AcDbEntity
  8
0
  6
Continuous
 62
     7
100
AcDbCircle
 10
154.4628971357
 20
235.2054909091
 30
0.0
 40
1.0
100
AcDbArc
 50
180.0
 51
270.0
  0
ARC
  5
1DB
330
57B
100
AcDbEntity
  8
0
  6
Continuous
 62
     7
100
AcDbCircle
 10
198.4628971357
 20
235.2054909091
 30
0.0
 40
1.0
100
AcDbArc
 50
270.0
 51
0.0
  0
LINE
  5
1DC
330
57B
100
AcDbEntity
  8
0
  6
Continuous
 62
     7
100
AcDbLine
 10
197.9628971357
 20
232.3744301341
 30
0.0
 11
197.9628971357
 21
234.2054909091
 31
0.0
  0
LINE
  5
1DD
330
57B
100
AcDbEntity
  8
0
  6
Continuous
 62
     7
100
AcDbLine
 10
154.9628971357
 20
234.2054909091
 30
0.0
 11
154.9628971357
 21
232.3744301341
 31
0.0
  0
ARC
  5
1DE
330
57B
100
AcDbEntity
  8
0
  6
Continuous
 62
     7
100
AcDbCircle
 10
164.9628971357
 20
232.3744301341
 30
0.0
 40
10.0
100
AcDbArc
 50
180.0
 51
189.0468459803
  0
ARC
  5
1DF
330
57B
100
AcDbEntity
  8
0
  6
Continuous
 62
     7
100
AcDbCircle
 10
187.9628971357
 20
232.3744301341
 30
0.0
 40
10.0
100
AcDbArc
 50
350.9531540197
 51
0.0
  0
ARC
  5
1E0
330
57B
100
AcDbEntity
  8
0
  6
Continuous
 62
     7
100
AcDbCircle
 10
176.4628971357
 20
234.2054909091
 30
0.0
 40
21.64486082191336
100
AcDbArc
 50
344.8823407204
 51
350.9531540197
  0
ARC
  5
1E1
330
57B
100
AcDbEntity
  8
0
  6
Continuous
 62
     7
100
AcDbCircle
 10
176.4628971357
 20
234.2054909091
 30
0.0
 40
21.64486082191339
100
AcDbArc
 50
189.0468459803
 51
194.9942390492
  0
LINE
  5
1E2
330
57B
100
AcDbEntity
  8
0
  6
Continuous
 62
     7
100
AcDbLine
 10
153.370527279
 20
228.4054909091
 30
0.0
 11
153.370527279
 21
202.2617233441
 31
0.0
  0
LINE
  5
1E3
330
57B
100
AcDbEntity
  8
0
  6
Continuous
 62
     7
100
AcDbLine
 10
199.370527279
 20
198.3054909091
 30
0.0
 11
199.370527279
 21
225.6965148906
 31
0.0
  0
ARC
  5
1E4
330
57B
100
AcDbEntity
  8
0
  6
Continuous
 62
     7
100
AcDbCircle
 10
197.870527279
 20
198.3054909091
 30
0.0
 40
1.5
100
AcDbArc
 50
270.0
 51
0.0
  0
ARC
  5
1E5
330
57B
100
AcDbEntity
  8
0
  6
Continuous
 62
     7
100
AcDbCircle
 10
153.570527279
 20
228.4054909091
 30
0.0
 40
0.2000000000000171
100
AcDbArc
 50
90.0
 51
180.0
  0
LINE
  5
1E6
330
57B
100
AcDbEntity
  8
0
  6
Continuous
 62
     7
100
AcDbLine
 10
201.2740590194
 20
286.2054909091
 30
0.0
 11
205.0328295026
 21
286.2054909091
 31
0.0
  0
LINE
  5
1E7
330
57B
100
AcDbEntity
  8
0
  6
Continuous
 62
     7
100
AcDbLine
 10
205.0328295026
 20
290.2054909091
 30
0.0
 11
201.2740590194
 21
290.2054909091
 31
0.0
  0
LINE
  5
1E8
330
57B
100
AcDbEntity
  8
0
  6
Continuous
 62
     7
100
AcDbLine
 10
218.0328295026
 20
290.2054909091
 30
0.0
 11
205.0328295026
 21
290.2054909091
 31
0.0
  0
LINE
  5
1E9
330
57B
100
AcDbEntity
  8
0
  6
Continuous
 62
     7
100
AcDbLine
 10
205.0328295026
 20
286.2054909091
 30
0.0
 11
218.0328295026
 21
286.2054909091
 31
0.0
  0
LINE
  5
1EA
330
57B
100
AcDbEntity
  8
0
  6
Continuous
 62
     7
100
AcDbLine
 10
201.2740590194
 20
290.2054909091
 30
0.0
 11
196.6632659816
 21
290.2054909091
 31
0.0
  0
LINE
  5
1EB
330
57B
100
AcDbEntity
  8
0
  6
Continuous
 62
     7
100
AcDbLine
 10
198.3643502705
 20
286.2054909091
 30
0.0
 11
201.2740590194
 21
286.2054909091
 31
0.0
  0
LWPOLYLINE
  5
1EC
330
57B
100
AcDbEntity
  8
0
  6
Continuous
 62
     7
100
AcDbPolyline
 90
       17
 70
   128
 43
0.0
 10
162.2129143606
 20
219.1857527084
 10
162.1969284114
 20
232.4656904636
 10
162.1817269713
 20
239.1173410371
 10
162.159333494
 20
245.7469223095
 10
162.1181898111
 20
254.2359857265
 10
162.092229402
 20
258.4160868889
 10
162.0631098581
 20
262.4787821124
 10
162.0180792739
 20
267.8786987146
 10
161.9696751117
 20
272.852395235
 10
161.9245610087
 20
276.9225325302
 10
161.8816637962
 20
280.3893899109
 10
161.8382565842
 20
283.5511143139
 10
161.8041624767
 20
285.8024280856
 10
161.787184307
 20
286.842847803
 10
161.7752093885
 20
287.5385777916
 10
161.7646163173
 20
288.1176456462
 10
161.7628971357
 20
288.2054909091
  0
ARC
  5
1ED
330
57B
100
AcDbEntity
  8
0
  6
Continuous
 62
     7
100
AcDbCircle
 10
163.2628971357
 20
288.2054909091
 30
0.0
 40
1.500000000000057
100
AcDbArc
 50
90.0
 51
180.0
  0
ARC
  5
1EE
330
57B
100
AcDbEntity
  8
0
  6
Continuous
 62
     7
100
AcDbCircle
 10
189.6628971357
 20
288.2054909091
 30
0.0
 40
1.5
100
AcDbArc
 50
0.0
 51
90.0
  0
LINE
  5
1EF
330
57B
100
AcDbEntity
  8
0
  6
Continuous
 62
     7
100
AcDbLine
 10
163.2628971357
 20
289.7054909091
 30
0.0
 11
189.6628971357
 21
289.7054909091
 31
0.0
  0
LINE
  5
1F0
330
57B
100
AcDbEntity
  8
0
  6
Continuous
 62
     7
100
AcDbLine
 10
190.7128799109
 20
219.1857527084
 30
0.0
 11
190.7128796824
 21
219.1854909091
 31
0.0
  0
LINE
  5
1F1
330
57B
100
AcDbEntity
  8
0
  6
Continuous
 62
     7
100
AcDbLine
 10
162.212914589
 20
219.1854909091
 30
0.0
 11
162.2129143606
 21
219.1857527084
 31
0.0
  0
LINE
  5
1F2
330
57B
100
AcDbEntity
  8
0
  6
Continuous
 62
     7
100
AcDbLine
 10
190.7128796824
 20
219.1854909091
 30
0.0
 11
190.614458104
 21
106.4026983826
 31
0.0
  0
LINE
  5
1F3
330
57B
100
AcDbEntity
  8
0
  6
Continuous
 62
     7
100
AcDbLine
 10
162.3113361675
 20
106.4026983826
 30
0.0
 11
162.212914589
 21
219.1854909091
 31
0.0
  0
ARC
  5
1F4
330
57B
100
AcDbEntity
  8
0
  6
Continuous
 62
     7
100
AcDbCircle
 10
187.4144593225
 20
106.4054909091
 30
0.0
 40
3.19999999999996
100
AcDbArc
 50
270.0
 51
359.9499999999999
  0
ARC
  5
1F5
330
57B
100
AcDbEntity
  8
0
  6
Continuous
 62
     7
100
AcDbCircle
 10
165.511334949
 20
106.4054909091
 30
0.0
 40
3.200000000000003
100
AcDbArc
 50
180.05
 51
270.0
  0
LINE
  5
1F6
330
57B
100
AcDbEntity
  8
0
  6
Continuous
 62
     7
100
AcDbLine
 10
187.4144593225
 20
103.2054909091
 30
0.0
 11
165.511334949
 21
103.2054909091
 31
0.0
  0
LINE
  5
1F7
330
57B
100
AcDbEntity
  8
0
  6
Continuous
 62
     7
100
AcDbLine
 10
161.7628971357
 20
270.2054909091
 30
0.0
 11
161.7628971357
 21
288.2054909091
 31
0.0
  0
LINE
  5
1F8
330
57B
100
AcDbEntity
  8
0
  6
Continuous
 62
     7
100
AcDbLine
 10
191.1628971357
 20
288.2054909091
 30
0.0
 11
191.1628971357
 21
270.2054909091
 31
0.0
  0
LWPOLYLINE
  5
1F9
330
57B
100
AcDbEntity
  8
0
  6
Continuous
 62
     7
100
AcDbPolyline
 90
       23
 70
   128
 43
0.0
 10
190.7174483632
 20
223.8474966313
 10
190.7247439329
 20
228.5091114923
 10
190.7348956603
 20
232.5476380805
 10
190.7591122518
 20
238.5963500408
 10
190.7822938836
 20
242.6027269411
 10
190.7960679935
 20
244.5767794645
 10
190.8183250251
 20
247.3604084027
 10
190.8435009405
 20
250.0843169604
 10
190.8711030243
 20
252.7064518271
 10
190.9008169587
 20
255.2176442786
 10
190.9490074836
 20
258.7897510656
 10
190.9791315851
 20
260.7817172472
 10
191.0085012326
 20
262.5803463973
 10
191.0368039625
 20
264.1973503707
 10
191.062925859
 20
265.598862374
 10
191.0781556043
 20
266.3783557928
 10
191.104919611
 20
267.6835848822
 10
191.1265151079
 20
268.6766093121
 10
191.148752026
 20
269.6380111313
 10
191.1565783429
 20
269.9582426248
 10
191.1609121677
 20
270.1295812663
 10
191.1626342701
 20
270.1956476101
 10
191.1628046917
 20
270.202029239
  0
LWPOLYLINE
  5
1FA
330
57B
100
AcDbEntity
  8
0
  6
Continuous
 62
     7
100
AcDbPolyline
 90
        3
 70
   128
 43
0.0
 10
193.7962671793
 20
196.8064913889
 10
190.7147594945
 20
196.806420865
 10
190.6933502539
 20
196.8064199558
  0
LINE
  5
1FB
330
57B
100
AcDbEntity
  8
0
  6
Continuous
 62
     7
100
AcDbLine
 10
197.7809533504
 20
196.806324474
 30
0.0
 11
193.7962672719
 21
196.806324474
 31
0.0
  0
LINE
  5
1FC
330
57B
100
AcDbEntity
  8
0
  6
Continuous
 62
     7
100
AcDbLine
 10
150.2488654413
 20
201.7070026882
 30
0.0
 11
151.5404616376
 21
201.738839788
 31
0.0
  0
ARC
  5
1FD
330
57B
100
AcDbEntity
  8
0
  6
Continuous
 62
     7
100
AcDbCircle
 10
138.9018961861
 20
262.1940385126
 30
0.0
 40
65.38983435497134
100
AcDbArc
 50
269.5473382281
 51
270.4332227476
  0
LINE
  5
1FE
330
57B
100
AcDbEntity
  8
0
  6
Continuous
 62
     7
100
AcDbLine
 10
138.5759609511
 20
201.4238178729
 30
0.0
 11
138.6093305517
 21
201.4242237971
 31
0.0
  0
LINE
  5
1FF
330
57B
100
AcDbEntity
  8
0
  6
Continuous
 62
     7
100
AcDbLine
 10
150.2154958407
 20
201.7065967641
 30
0.0
 11
150.2488654413
 21
201.7070026882
 31
0.0
  0
LWPOLYLINE
  5
200
330
57B
100
AcDbEntity
  8
0
  6
Continuous
 62
     7
100
AcDbPolyline
 90
       22
 70
   128
 43
0.0
 10
153.4628971357
 20
279.2054909091
 10
153.9048356865
 20
283.6925683155
 10
155.213667888
 20
288.0072098535
 10
157.3390960528
 20
291.9836062685
 10
160.1994411684
 20
295.4689468764
 10
163.6847817763
 20
298.329291992
 10
167.6611781913
 20
300.4547201569
 10
171.9758197294
 20
301.7635523584
 10
176.4628971357
 20
302.2054909091
 10
180.9499745421
 20
301.7635523584
 10
185.2646160801
 20
300.4547201569
 10
189.2410124952
 20
298.329291992
 10
192.726353103
 20
295.4689468764
 10
195.5866982187
 20
291.9836062685
 10
197.7121263835
 20
288.0072098535
 10
199.020958585
 20
283.6925683155
 10
199.4628971357
 20
279.2054909091
 10
199.020958585
 20
274.7184135027
 10
197.7121263835
 20
270.4037719647
 10
195.5866982187
 20
266.4273755496
 10
192.726353103
 20
262.9420349418
 10
190.9911541792
 20
261.5179939872
  0
ARC
  5
201
330
57B
100
AcDbEntity
  8
0
  6
Continuous
 62
     7
100
AcDbCircle
 10
175.4261275578
 20
278.8526100439
 30
0.0
 40
21.96606508861157
100
AcDbArc
 50
179.0795140628
 51
232.1038669575
  0
LINE
  5
202
330
57B
100
AcDbEntity
  8
0
  6
Continuous
 62
     7
100
AcDbLine
 10
155.0137394457
 20
228.6054909091
 30
0.0
 11
162.131213844
 21
228.6054909091
 31
0.0
  0
LINE
  5
203
330
57B
100
AcDbEntity
  8
0
  6
Continuous
 62
     7
100
AcDbLine
 10
198.4628969796
 20
234.2054909091
 30
0.0
 11
190.8252160889
 21
234.2054909091
 31
0.0
  0
LINE
  5
204
330
57B
100
AcDbEntity
  8
0
  6
Continuous
 62
     7
100
AcDbLine
 10
162.1591366792
 20
234.2054909091
 30
0.0
 11
154.4628971357
 21
234.2054909091
 31
0.0
  0
ARC
  5
205
330
57B
100
AcDbEntity
  8
0
  6
Continuous
 62
     7
100
AcDbCircle
 10
197.2312650762
 20
226.4580758422
 30
0.0
 40
1.975920138206115
100
AcDbArc
 50
14.8274435606
 51
99.74400484309999
  0
LWPOLYLINE
  5
206
330
57B
100
AcDbEntity
  8
0
  6
Continuous
 62
     7
100
AcDbPolyline
 90
        3
 70
   128
 43
0.0
 10
199.370527279
 20
225.6965148906
 10
199.3642700302
 20
225.9027202321
 10
199.1413888999
 20
226.9637312295
  0
LINE
  5
207
330
57B
100
AcDbEntity
  8
0
  6
Continuous
 62
     7
100
AcDbLine
 10
196.7183580043
 20
228.6054909091
 30
0.0
 11
190.8121424133
 21
228.6054909091
 31
0.0
  0
LWPOLYLINE
  5
208
330
57B
100
AcDbEntity
  8
0
  6
Continuous
 62
     7
100
AcDbPolyline
 90
        6
 70
   128
 43
0.0
 10
198.3299547008
 20
228.1195234813
 10
198.2204808855
 20
228.2867234079
 10
197.5638633843
 20
228.5566643175
 10
196.7183850732
 20
228.6054909091
 10
196.7183580043
 20
228.6054909091
 10
196.7183580043
 20
228.6054909091
  0
LINE
  5
209
330
57B
100
AcDbEntity
  8
0
  6
Continuous
 62
     7
100
AcDbLine
 10
153.570527279
 20
228.6054909091
 30
0.0
 11
155.0137394457
 21
228.6054909091
 31
0.0
  0
LINE
  5
20A
330
57B
100
AcDbEntity
  8
0
  6
Continuous
 62
     7
100
AcDbLine
 10
218.0328295026
 20
290.2054909091
 30
0.0
 11
218.0328295026
 21
286.2054909091
 31
0.0
  0
ARC
  5
20B
330
57B
100
AcDbEntity
  8
0
  6
Continuous
 62
     7
100
AcDbCircle
 10
176.4628971357
 20
279.2054909091
 30
0.0
 40
25.00000000000003
100
AcDbArc
 50
337.4601910959
 51
0.0
  0
ARC
  5
20C
330
57B
100
AcDbEntity
  8
0
  6
Continuous
 62
     7
100
AcDbCircle
 10
176.4628971357
 20
279.2054909091
 30
0.0
 40
25.00000000000003
100
AcDbArc
 50
26.1038811373
 51
202.9177494572
  0
ARC
  5
20D
330
57B
100
AcDbEntity
  8
0
  6
Continuous
 62
     7
100
AcDbCircle
 10
176.4628971357
 20
279.2054909091
 30
0.0
 40
25.00000000000003
100
AcDbArc
 50
0.0
 51
16.26020470830001
  0
LWPOLYLINE
  5
20E
330
57B
100
AcDbEntity
  8
0
  6
Continuous
 62
     8
100
AcDbPolyline
 90
       24
 70
   128
 43
0.0
 10
163.2628971357
 20
289.7054909091
 10
163.263729128
 20
289.6633320911
 10
163.2689721834
 20
289.3822534683
 10
163.2817808368
 20
288.6473437351
 10
163.3041662351
 20
287.2602905203
 10
163.3195212287
 20
286.2477725476
 10
163.3584036795
 20
283.4829384097
 10
163.3816659727
 20
281.6929175091
 10
163.4021170761
 20
280.0322834444
 10
163.4464030364
 20
276.1341998627
 10
163.4696737373
 20
273.9008262766
 10
163.493433756
 20
271.4683855542
 10
163.5405056817
 20
266.0964833201
 10
163.5631072391
 20
263.1859140091
 10
163.5913150353
 20
259.1435796278
 10
163.6169617754
 20
254.9291650347
 10
163.6398422067
 20
250.5281828344
 10
163.6593327523
 20
246.0281896156
 10
163.67316475
 20
242.1468142583
 10
163.6845249373
 20
238.2332287394
 10
163.6951653248
 20
233.4906791202
 10
163.7029318805
 20
228.7318790592
 10
163.7085321886
 20
223.9594631651
 10
163.7129137894
 20
219.1854909091
  0
LWPOLYLINE
  5
20F
330
57B
100
AcDbEntity
  8
0
  6
Continuous
 62
     8
100
AcDbPolyline
 90
       24
 70
   128
 43
0.0
 10
191.1628971357
 20
288.2054909091
 10
191.1602718439
 20
288.070144393
 10
191.1516431537
 20
287.5982517373
 10
191.1342019474
 20
286.5783737714
 10
191.1216282728
 20
285.802206373
 10
191.1063284907
 20
284.8175106159
 10
191.0674567977
 20
282.129762063
 10
191.0441247374
 20
280.3889497075
 10
191.0236953468
 20
278.782693384
 10
190.9794039794
 20
275.0125519766
 10
190.9561191601
 20
272.8523952353
 10
190.9323240483
 20
270.496996325
 10
190.8852355839
 20
265.2948858311
 10
190.8626667257
 20
262.4764720063
 10
190.8343568561
 20
258.5342805935
 10
190.8086878999
 20
254.4239740805
 10
190.7858517645
 20
250.1318958053
 10
190.7664482237
 20
245.7437746399
 10
190.7523934493
 20
241.8650945667
 10
190.740923544
 20
237.9538354144
 10
190.7303877753
 20
233.2803668611
 10
190.7227220362
 20
228.5913066764
 10
190.7172006856
 20
223.8892616457
 10
190.7128799109
 20
219.1857527084
  0
LWPOLYLINE
  5
210
330
57B
100
AcDbEntity
  8
0
  6
Continuous
 62
     8
100
AcDbPolyline
 90
       24
 70
   128
 43
0.0
 10
189.2128804821
 20
219.1854909091
 10
189.2193254548
 20
225.8949477601
 10
189.2261333531
 20
230.9322813975
 10
189.2357863864
 20
235.9676864603
 10
189.2442026318
 20
239.3294451085
 10
189.2664489653
 20
246.0249789218
 10
189.2853683767
 20
250.4052863882
 10
189.3077161757
 20
254.730670274
 10
189.3478181315
 20
261.119945564
 10
189.3626693445
 20
263.1835332248
 10
189.4078686009
 20
268.7756652814
 10
189.4561205346
 20
273.9008262766
 10
189.5013161733
 20
278.1182049845
 10
189.5441225612
 20
281.692463179
 10
189.5668234654
 20
283.4405181312
 10
189.5875484604
 20
284.9516619418
 10
189.6058602691
 20
286.2199175196
 10
189.6216245144
 20
287.2600636747
 10
189.63056799
 20
287.8277147748
 10
189.6501923812
 20
289.0084546342
 10
189.6572003455
 20
289.403059655
 10
189.6611001998
 20
289.6130902244
 10
189.6626580654
 20
289.6935756317
 10
189.6628971357
 20
289.7054909091
  0
ARC
  5
211
330
57B
100
AcDbEntity
  8
0
  6
Continuous
 62
     8
100
AcDbCircle
 10
187.4144593225
 20
106.4039201131
 30
0.0
 40
1.699999999999974
100
AcDbArc
 50
270.0
 51
359.9499999999999
  0
LINE
  5
212
330
57B
100
AcDbEntity
  8
0
  6
Continuous
 62
     8
100
AcDbLine
 10
165.511334949
 20
104.7039201131
 30
0.0
 11
187.4144593225
 21
104.7039201131
 31
0.0
  0
ARC
  5
213
330
57B
100
AcDbEntity
  8
0
  6
Continuous
 62
     8
100
AcDbCircle
 10
165.511334949
 20
106.4039201131
 30
0.0
 40
1.700000000000088
100
AcDbArc
 50
180.05
 51
270.0
  0
LINE
  5
214
330
57B
100
AcDbEntity
  8
0
  6
Continuous
 62
     8
100
AcDbLine
 10
163.7129140179
 20
219.1852291098
 30
0.0
 11
163.8113355963
 21
106.4024365834
 31
0.0
  0
LINE
  5
215
330
57B
100
AcDbEntity
  8
0
  6
Continuous
 62
     8
100
AcDbLine
 10
163.7129137894
 20
219.1854909091
 30
0.0
 11
163.7129140179
 21
219.1852291098
 31
0.0
  0
LINE
  5
216
330
57B
100
AcDbEntity
  8
0
  6
Continuous
 62
     8
100
AcDbLine
 10
189.2128802536
 20
219.1852291098
 30
0.0
 11
189.2128804821
 21
219.1854909091
 31
0.0
  0
LINE
  5
217
330
57B
100
AcDbEntity
  8
0
  6
Continuous
 62
     8
100
AcDbLine
 10
189.1144586752
 20
106.4024365834
 30
0.0
 11
189.2128802536
 21
219.1852291098
 31
0.0
  0
ARC
  5
218
330
57B
100
AcDbEntity
  8
0
  6
Continuous
 62
     8
100
AcDbCircle
 10
189.8019583342
 20
464.5015355194
 30
0.0
 40
358.0997588865027
100
AcDbArc
 50
269.8900003362
 51
270.1299996619999
  0
ARC
  5
219
330
57B
100
AcDbEntity
  8
0
  6
Continuous
 62
     8
100
AcDbCircle
 10
163.1238359372
 20
464.5015355151
 30
0.0
 40
358.0997588822402
100
AcDbArc
 50
269.870000338
 51
270.1099996638001
  0
LINE
  5
21A
330
57B
100
AcDbEntity
  8
0
  6
Continuous
 62
     8
100
AcDbLine
 10
187.4144593225
 20
103.2054909091
 30
0.0
 11
187.4144593225
 21
104.7039201131
 31
0.0
  0
LINE
  5
21B
330
57B
100
AcDbEntity
  8
0
  6
Continuous
 62
     8
100
AcDbLine
 10
165.511334949
 20
103.2054909091
 30
0.0
 11
165.511334949
 21
104.7039201131
 31
0.0
  0
LINE
  5
21C
330
57B
100
AcDbEntity
  8
0
  6
Continuous
 62
     8
100
AcDbLine
 10
190.7128799109
 20
219.1857527084
 30
0.0
 11
190.7174483632
 21
223.8474966313
 31
0.0
  0
ARC
  5
21D
330
57B
100
AcDbEntity
  8
0
  6
Continuous
 62
     8
100
AcDbCircle
 10
162.9770880929
 20
487.3334416028
 30
0.0
 40
290.7477337524799
100
AcDbArc
 50
267.7673804327
 51
269.8532954295
  0
LINE
  5
21E
330
57B
100
AcDbEntity
  8
0
  6
Continuous
 62
     8
100
AcDbLine
 10
162.2324441009
 20
196.806324474
 30
0.0
 11
151.6504996447
 21
196.806324474
 31
0.0
  0
LINE
  5
21F
330
57B
100
AcDbEntity
  8
0
  6
Continuous
 62
     8
100
AcDbLine
 10
139.3963145991
 20
196.806324474
 30
0.0
 11
151.6504996447
 21
196.806324474
 31
0.0
  0
ARC
  5
220
330
57B
100
AcDbEntity
  8
0
  6
Continuous
 62
     8
100
AcDbCircle
 10
140.6764812733
 20
197.9778586203
 30
0.0
 40
1.735315236325392
100
AcDbArc
 50
169.1170776928
 51
222.4629380509
  0
LWPOLYLINE
  5
221
330
57B
100
AcDbEntity
  8
0
  6
Continuous
 62
     8
100
AcDbPolyline
 90
        9
 70
   128
 43
0.0
 10
138.9723756272
 20
199.9159264999
 10
138.9807278878
 20
200.2072780267
 10
139.0054665344
 20
200.4875320644
 10
139.0456492798
 20
200.7460138238
 10
139.0997455755
 20
200.9728778148
 10
139.1656949106
 20
201.1594828587
 10
139.2409852954
 20
201.2987212273
 10
139.3227489424
 20
201.3852893743
 10
139.4078714999
 20
201.415889946
  0
LINE
  5
222
330
57B
100
AcDbEntity
  8
0
  6
Continuous
 62
     8
100
AcDbLine
 10
162.2284214951
 20
201.415889946
 30
0.0
 11
139.4078714999
 21
201.415889946
 31
0.0
  0
LINE
  5
223
330
57B
100
AcDbEntity
  8
0
  6
Continuous
 62
     8
100
AcDbLine
 10
138.9723756272
 20
198.3054909091
 30
0.0
 11
138.9723756272
 21
199.9159264999
 31
0.0
  0
LWPOLYLINE
  5
224
330
57B
100
AcDbEntity
  8
0
  6
Continuous
 62
     8
100
AcDbPolyline
 90
        8
 70
   128
 43
0.0
 10
139.4078714999
 20
201.415889946
 10
138.8431900397
 20
201.4160390941
 10
138.5794946128
 20
201.4164498191
 10
138.4867635647
 20
201.4167670253
 10
138.456221591
 20
201.4169578484
 10
138.4416219131
 20
201.417242485
 10
138.432594381
 20
201.4186518748
 10
138.6093305517
 20
201.4242237971
  0
LINE
  5
225
330
57B
100
AcDbEntity
  8
0
  6
Continuous
 62
     8
100
AcDbLine
 10
138.6093305517
 20
201.4242237971
 30
0.0
 11
150.2488654413
 21
201.7070026882
 31
0.0
  0
LWPOLYLINE
  5
226
330
57B
100
AcDbEntity
  8
0
  6
Continuous
 62
     8
100
AcDbPolyline
 90
        4
 70
   128
 43
0.0
 10
160.9404175427
 20
201.7157323491
 10
159.1935990087
 20
201.7182326893
 10
157.4625099028
 20
201.7214877779
 10
151.5404616376
 20
201.738839788
  0
LINE
  5
227
330
57B
100
AcDbEntity
  8
0
  6
Continuous
 62
     8
100
AcDbLine
 10
162.2281605818
 20
201.714874577
 30
0.0
 11
160.940410115
 21
201.7157323783
 31
0.0
  0
ARC
  5
228
330
57B
100
AcDbEntity
  8
0
  6
Continuous
 62
     8
100
AcDbCircle
 10
176.4628971357
 20
279.2054909091
 30
0.0
 40
18.19726955138974
100
AcDbArc
 50
323.7677286229
 51
180.0
  0
ARC
  5
229
330
57B
100
AcDbEntity
  8
0
  6
Continuous
 62
     8
100
AcDbCircle
 10
176.4628971357
 20
279.2054909091
 30
0.0
 40
18.19726955138972
100
AcDbArc
 50
180.0
 51
216.1226341992
  0
ARC
  5
22A
330
57B
100
AcDbEntity
  8
0
  6
Continuous
 62
     8
100
AcDbCircle
 10
176.4628971357
 20
279.2054909091
 30
0.0
 40
17.98530184569648
100
AcDbArc
 50
180.0
 51
214.8139839502
  0
ARC
  5
22B
330
57B
100
AcDbEntity
  8
0
  6
Continuous
 62
     8
100
AcDbCircle
 10
176.4628971357
 20
279.2054909091
 30
0.0
 40
17.98530184569648
100
AcDbArc
 50
325.3534335738
 51
180.0
  0
LWPOLYLINE
  5
22C
330
57B
100
AcDbEntity
  8
0
  6
Continuous
 62
     8
100
AcDbPolyline
 90
        3
 70
   128
 43
0.0
 10
162.2277608026
 20
202.1729876368
 10
161.815630239
 20
201.9092016097
 10
160.9404059994
 20
201.7157323237
  0
LWPOLYLINE
  5
22D
330
57B
100
AcDbEntity
  8
0
  6
Continuous
 62
     8
100
AcDbPolyline
 90
       10
 70
   128
 43
0.0
 10
151.5404616376
 20
201.738839788
 10
152.6537067625
 20
201.868423113
 10
153.4822114158
 20
202.2493056548
 10
154.0679882718
 20
202.9664226931
 10
154.4530500052
 20
204.1047095075
 10
154.6794092903
 20
205.7491013779
 10
154.7890788018
 20
207.9845335839
 10
154.824071214
 20
210.8959414052
 10
154.8266924687
 20
212.6316784465
 10
154.8263992016
 20
214.5682601216
  0
LINE
  5
22E
330
57B
100
AcDbEntity
  8
0
  6
Continuous
 62
     8
100
AcDbLine
 10
154.8263992016
 20
228.4054909091
 30
0.0
 11
154.8263992016
 21
214.5682601216
 31
0.0
  0
LINE
  5
22F
330
57B
100
AcDbEntity
  8
0
  6
Continuous
 62
     8
100
AcDbLine
 10
162.1034737509
 20
228.4054909091
 30
0.0
 11
154.8263992016
 21
228.4054909091
 31
0.0
  0
ARC
  5
230
330
57B
100
AcDbEntity
  8
0
  6
Continuous
 62
     8
100
AcDbCircle
 10
155.0202831984
 20
228.4116204502
 30
0.0
 40
0.1939808637822474
100
AcDbArc
 50
91.93318326429998
 51
181.8107729877
  0
LINE
  5
231
330
57B
100
AcDbEntity
  8
0
  6
Continuous
 62
     8
100
AcDbLine
 10
190.8053629367
 20
228.4054909091
 30
0.0
 11
196.8968477475
 21
228.4054909091
 31
0.0
  0
LINE
  5
232
330
57B
100
AcDbEntity
  8
0
  6
Continuous
 62
     8
100
AcDbLine
 10
154.8263992016
 20
228.4054909091
 30
0.0
 11
153.370527279
 21
228.4054909091
 31
0.0
  0
ARC
  5
233
330
57B
100
AcDbEntity
  8
0
  6
Continuous
 62
     8
100
AcDbCircle
 10
196.7069548119
 20
228.4156676736
 30
0.0
 40
0.1901654373107437
100
AcDbArc
 50
356.9323325211001
 51
86.5622197441
  0
ENDSEC
  0
SECTION
  2
OBJECTS
  0
DICTIONARY
  5
56B
330
0
100
AcDbDictionary
281
     1
  3
ACAD_DETAILVIEWSTYLE
350
5DE
  3
ACAD_GROUP
350
56C
  3
ACAD_LAYOUT
350
578
  3
ACAD_MATERIAL
350
586
  3
ACAD_MLEADERSTYLE
350
5D1
  3
ACAD_MLINESTYLE
350
575
  3
ACAD_PLOTSETTINGS
350
577
  3
ACAD_PLOTSTYLENAME
350
56D
  3
ACAD_SCALELIST
350
594
  3
ACAD_SECTIONVIEWSTYLE
350
5DF
  3
ACAD_TABLESTYLE
350
5CF
  3
ACAD_VISUALSTYLE
350
5B6
  3
ACDB_RECOMPOSE_DATA
350
5DA
  3
AcDbVariableDictionary
350
5D6
  3
APPDATA
350
5D3
  0
DICTIONARY
  5
5D4
330
57B
100
AcDbDictionary
280
     1
281
     1
  3
DIM_BOUNDING_BOXES_V1
360
5D5
  0
DICTIONARY
  5
5DE
102
{ACAD_REACTORS
330
56B
102
}
330
56B
100
AcDbDictionary
281
     1
  0
DICTIONARY
  5
56C
102
{ACAD_REACTORS
330
56B
102
}
330
56B
100
AcDbDictionary
281
     1
  0
DICTIONARY
  5
578
102
{ACAD_REACTORS
330
56B
102
}
330
56B
100
AcDbDictionary
281
     1
  3
Blatt1
350
57A
  3
Model
350
57C
  0
DICTIONARY
  5
586
102
{ACAD_REACTORS
330
56B
102
}
330
56B
100
AcDbDictionary
281
     1
  3
ByBlock
350
588
  3
ByLayer
350
587
  3
Global
350
589
  0
DICTIONARY
  5
5D1
102
{ACAD_REACTORS
330
56B
102
}
330
56B
100
AcDbDictionary
281
     1
  3
Standard
350
5D2
  0
DICTIONARY
  5
575
102
{ACAD_REACTORS
330
56B
102
}
330
56B
100
AcDbDictionary
281
     1
  3
Standard
350
576
  0
DICTIONARY
  5
577
102
{ACAD_REACTORS
330
56B
102
}
330
56B
100
AcDbDictionary
281
     1
  0
ACDBDICTIONARYWDFLT
  5
56D
102
{ACAD_REACTORS
330
56B
102
}
330
56B
100
AcDbDictionary
281
     1
  3
Normal
350
56E
100
AcDbDictionaryWithDefault
340
56E
  0
DICTIONARY
  5
594
102
{ACAD_REACTORS
330
56B
102
}
330
56B
100
AcDbDictionary
281
     1
  3
A0
350
595
  3
A1
350
596
  3
A2
350
597
  3
A3
350
598
  3
A4
350
599
  3
A5
350
59A
  3
A6
350
59B
  3
A7
350
59C
  3
A8
350
59D
  3
A9
350
59E
  3
B0
350
59F
  3
B1
350
5A0
  3
B2
350
5A1
  3
B3
350
5A2
  3
B4
350
5A3
  3
B5
350
5A4
  3
B6
350
5A5
  3
B7
350
5A6
  3
B8
350
5A7
  3
B9
350
5A8
  3
C0
350
5A9
  3
C1
350
5AA
  3
C2
350
5AB
  3
C3
350
5AC
  3
C4
350
5AD
  3
C5
350
5AE
  3
C6
350
5AF
  3
C7
350
5B0
  3
C8
350
5B1
  3
C9
350
5B2
  3
D0
350
5B3
  3
D1
350
5B4
  3
D2
350
5B5
  0
DICTIONARY
  5
5DF
102
{ACAD_REACTORS
330
56B
102
}
330
56B
100
AcDbDictionary
281
     1
  0
DICTIONARY
  5
5CF
102
{ACAD_REACTORS
330
56B
102
}
330
56B
100
AcDbDictionary
281
     1
  3
Standard
350
5D0
  0
DICTIONARY
  5
5B6
102
{ACAD_REACTORS
330
56B
102
}
330
56B
100
AcDbDictionary
281
     1
  3
2dWireframe
350
5BB
  3
Basic
350
5BE
  3
Brighten
350
5C2
  3
ColorChange
350
5C6
  3
Conceptual
350
5C0
  3
Dim
350
5C1
  3
EdgeColorOff
350
5C9
  3
Facepattern
350
5C5
  3
Flat
350
5B7
  3
FlatWithEdges
350
5B8
  3
Gouraud
350
5B9
  3
GouraudWithEdges
350
5BA
  3
Hidden
350
5BD
  3
JitterOff
350
5C7
  3
Linepattern
350
5C4
  3
OverhangOff
350
5C8
  3
Realistic
350
5BF
  3
Shaded
350
5CE
  3
Shaded with edges
350
5CD
  3
Shades of Gray
350
5CA
  3
Sketchy
350
5CB
  3
Thicken
350
5C3
  3
Wireframe
350
5BC
  3
X-Ray
350
5CC
  0
XRECORD
  5
5DA
102
{ACAD_REACTORS
330
56B
102
}
330
56B
100
AcDbXrecord
280
     1
 90
        1
330
5D0
  0
DICTIONARY
  5
5D6
102
{ACAD_REACTORS
330
56B
102
}
330
56B
100
AcDbDictionary
281
     1
  3
CANNOSCALE
350
5D7
  3
CMLEADERSTYLE
350
5DC
  3
CTABLESTYLE
350
5DB
  3
MSLTSCALE
350
5DD
  0
DICTIONARY
  5
5D3
102
{ACAD_REACTORS
330
56B
102
}
330
56B
100
AcDbDictionary
281
     1
  0
DICTIONARY
  5
5D5
102
{ACAD_REACTORS
330
5D4
102
}
330
5D4
100
AcDbDictionary
281
     1
  0
LAYOUT
  5
57A
102
{ACAD_REACTORS
330
578
102
}
330
578
100
AcDbPlotSettings
  1

  2
none_device
  4

  6

 40
0.0
 41
0.0
 42
0.0
 43
0.0
 44
0.0
 45
0.0
 46
0.0
 47
0.0
 48
0.0
 49
0.0
140
0.0
141
0.0
142
1.0
143
1.0
 70
   688
 72
     0
 73
     0
 74
     5
  7

 75
    16
 76
     0
 77
     2
 78
   300
147
1.0
148
0.0
149
0.0
100
AcDbLayout
  1
Blatt1
 70
     1
 71
     1
 10
0.0
 20
0.0
 11
0.0
 21
0.0
 12
0.0
 22
0.0
 32
0.0
 14
1.000000000000000E+20
 24
1.000000000000000E+20
 34
1.000000000000000E+20
 15
-1.000000000000000E+20
 25
-1.000000000000000E+20
 35
-1.000000000000000E+20
146
0.0
 13
0.0
 23
0.0
 33
0.0
 16
1.0
 26
0.0
 36
0.0
 17
0.0
 27
1.0
 37
0.0
 76
     0
330
579
  0
LAYOUT
  5
57C
102
{ACAD_REACTORS
330
578
102
}
330
578
100
AcDbPlotSettings
  1

  2
none_device
  4
Letter_(8.50_x_11.00_Inches)
  6

 40
6.35
 41
6.35
 42
6.35
 43
6.35
 44
215.9
 45
279.4
 46
0.0
 47
0.0
 48
0.0
 49
0.0
140
0.0
141
0.0
142
1.0
143
1.0
 70
  1712
 72
     0
 73
     0
 74
     0
  7

 75
     0
 76
     0
 77
     2
 78
   300
147
1.0
148
0.0
149
0.0
100
AcDbLayout
  1
Model
 70
     1
 71
     0
 10
0.0
 20
0.0
 11
12.0
 21
9.0
 12
0.0
 22
0.0
 32
0.0
 14
33.76143973320001
 24
37.46023423129998
 34
0.0
 15
520.6771150059001
 25
607.4999866195
 35
0.0
146
0.0
 13
0.0
 23
0.0
 33
0.0
 16
1.0
 26
0.0
 36
0.0
 17
0.0
 27
1.0
 37
0.0
 76
     0
330
57B
331
57E
  0
MATERIAL
  5
588
102
{ACAD_REACTORS
330
586
102
}
330
586
100
AcDbMaterial
  1
ByBlock
 72
     1
 94
      127
  0
MATERIAL
  5
587
102
{ACAD_REACTORS
330
586
102
}
330
586
100
AcDbMaterial
  1
ByLayer
 72
     1
 94
      127
  0
MATERIAL
  5
589
102
{ACAD_REACTORS
330
586
102
}
330
586
100
AcDbMaterial
  1
Global
 72
     1
 94
      127
  0
MLEADERSTYLE
  5
5D2
102
{ACAD_REACTORS
330
5D1
102
}
330
5D1
100
AcDbMLeaderStyle
179
     2
170
     2
171
     1
172
     0
 90
        2
 40
0.0
 41
0.0
173
     1
 91
-1056964608
340
572
 92
       -2
290
     1
 42
0.09
291
     1
 43
0.36
  3
Standard
341
0
 44
0.18
300

342
570
174
     1
178
     1
175
     1
176
     0
 93
-1056964608
 45
0.18
292
     0
297
     0
 46
0.18
343
0
 94
-1056964608
 47
1.0
 49
1.0
140
1.0
293
     1
141
0.0
294
     1
177
     0
142
1.0
295
     0
296
     0
143
0.125
271
     0
272
     9
273
     9
298
     0
  0
MLINESTYLE
  5
576
102
{ACAD_REACTORS
330
575
102
}
330
575
100
AcDbMlineStyle
  2
Standard
 70
     0
  3

 62
   256
 51
90.0
 52
90.0
 71
     2
 49
0.5
 62
   256
  6
BYLAYER
 49
-0.5
 62
   256
  6
BYLAYER
  0
ACDBPLACEHOLDER
  5
56E
102
{ACAD_REACTORS
330
56D
102
}
330
56D
  0
SCALE
  5
595
102
{ACAD_REACTORS
330
594
102
}
330
594
100
AcDbScale
 70
     0
300
1:1
140
1.0
141
1.0
290
     1
  0
SCALE
  5
596
102
{ACAD_REACTORS
330
594
102
}
330
594
100
AcDbScale
 70
     0
300
1:2
140
1.0
141
2.0
290
     0
  0
SCALE
  5
597
102
{ACAD_REACTORS
330
594
102
}
330
594
100
AcDbScale
 70
     0
300
1:4
140
1.0
141
4.0
290
     0
  0
SCALE
  5
598
102
{ACAD_REACTORS
330
594
102
}
330
594
100
AcDbScale
 70
     0
300
1:5
140
1.0
141
5.0
290
     0
  0
SCALE
  5
599
102
{ACAD_REACTORS
330
594
102
}
330
594
100
AcDbScale
 70
     0
300
1:8
140
1.0
141
8.0
290
     0
  0
SCALE
  5
59A
102
{ACAD_REACTORS
330
594
102
}
330
594
100
AcDbScale
 70
     0
300
1:10
140
1.0
141
10.0
290
     0
  0
SCALE
  5
59B
102
{ACAD_REACTORS
330
594
102
}
330
594
100
AcDbScale
 70
     0
300
1:16
140
1.0
141
16.0
290
     0
  0
SCALE
  5
59C
102
{ACAD_REACTORS
330
594
102
}
330
594
100
AcDbScale
 70
     0
300
1:20
140
1.0
141
20.0
290
     0
  0
SCALE
  5
59D
102
{ACAD_REACTORS
330
594
102
}
330
594
100
AcDbScale
 70
     0
300
1:30
140
1.0
141
30.0
290
     0
  0
SCALE
  5
59E
102
{ACAD_REACTORS
330
594
102
}
330
594
100
AcDbScale
 70
     0
300
1:40
140
1.0
141
40.0
290
     0
  0
SCALE
  5
59F
102
{ACAD_REACTORS
330
594
102
}
330
594
100
AcDbScale
 70
     0
300
1:50
140
1.0
141
50.0
290
     0
  0
SCALE
  5
5A0
102
{ACAD_REACTORS
330
594
102
}
330
594
100
AcDbScale
 70
     0
300
1:100
140
1.0
141
100.0
290
     0
  0
SCALE
  5
5A1
102
{ACAD_REACTORS
330
594
102
}
330
594
100
AcDbScale
 70
     0
300
2:1
140
2.0
141
1.0
290
     0
  0
SCALE
  5
5A2
102
{ACAD_REACTORS
330
594
102
}
330
594
100
AcDbScale
 70
     0
300
4:1
140
4.0
141
1.0
290
     0
  0
SCALE
  5
5A3
102
{ACAD_REACTORS
330
594
102
}
330
594
100
AcDbScale
 70
     0
300
8:1
140
8.0
141
1.0
290
     0
  0
SCALE
  5
5A4
102
{ACAD_REACTORS
330
594
102
}
330
594
100
AcDbScale
 70
     0
300
10:1
140
10.0
141
1.0
290
     0
  0
SCALE
  5
5A5
102
{ACAD_REACTORS
330
594
102
}
330
594
100
AcDbScale
 70
     0
300
100:1
140
100.0
141
1.0
290
     0
  0
SCALE
  5
5A6
102
{ACAD_REACTORS
330
594
102
}
330
594
100
AcDbScale
 70
     0
300
1/128" = 1'-0"
140
0.0078125
141
12.0
290
     0
  0
SCALE
  5
5A7
102
{ACAD_REACTORS
330
594
102
}
330
594
100
AcDbScale
 70
     0
300
1/64" = 1'-0"
140
0.015625
141
12.0
290
     0
  0
SCALE
  5
5A8
102
{ACAD_REACTORS
330
594
102
}
330
594
100
AcDbScale
 70
     0
300
1/32" = 1'-0"
140
0.03125
141
12.0
290
     0
  0
SCALE
  5
5A9
102
{ACAD_REACTORS
330
594
102
}
330
594
100
AcDbScale
 70
     0
300
1/16" = 1'-0"
140
0.0625
141
12.0
290
     0
  0
SCALE
  5
5AA
102
{ACAD_REACTORS
330
594
102
}
330
594
100
AcDbScale
 70
     0
300
3/32" = 1'-0"
140
0.09375
141
12.0
290
     0
  0
SCALE
  5
5AB
102
{ACAD_REACTORS
330
594
102
}
330
594
100
AcDbScale
 70
     0
300
1/8" = 1'-0"
140
0.125
141
12.0
290
     0
  0
SCALE
  5
5AC
102
{ACAD_REACTORS
330
594
102
}
330
594
100
AcDbScale
 70
     0
300
3/16" = 1'-0"
140
0.1875
141
12.0
290
     0
  0
SCALE
  5
5AD
102
{ACAD_REACTORS
330
594
102
}
330
594
100
AcDbScale
 70
     0
300
1/4" = 1'-0"
140
0.25
141
12.0
290
     0
  0
SCALE
  5
5AE
102
{ACAD_REACTORS
330
594
102
}
330
594
100
AcDbScale
 70
     0
300
3/8" = 1'-0"
140
0.375
141
12.0
290
     0
  0
SCALE
  5
5AF
102
{ACAD_REACTORS
330
594
102
}
330
594
100
AcDbScale
 70
     0
300
1/2" = 1'-0"
140
0.5
141
12.0
290
     0
  0
SCALE
  5
5B0
102
{ACAD_REACTORS
330
594
102
}
330
594
100
AcDbScale
 70
     0
300
3/4" = 1'-0"
140
0.75
141
12.0
290
     0
  0
SCALE
  5
5B1
102
{ACAD_REACTORS
330
594
102
}
330
594
100
AcDbScale
 70
     0
300
1" = 1'-0"
140
1.0
141
12.0
290
     0
  0
SCALE
  5
5B2
102
{ACAD_REACTORS
330
594
102
}
330
594
100
AcDbScale
 70
     0
300
1-1/2" = 1'-0"
140
1.5
141
12.0
290
     0
  0
SCALE
  5
5B3
102
{ACAD_REACTORS
330
594
102
}
330
594
100
AcDbScale
 70
     0
300
3" = 1'-0"
140
3.0
141
12.0
290
     0
  0
SCALE
  5
5B4
102
{ACAD_REACTORS
330
594
102
}
330
594
100
AcDbScale
 70
     0
300
6" = 1'-0"
140
6.0
141
12.0
290
     0
  0
SCALE
  5
5B5
102
{ACAD_REACTORS
330
594
102
}
330
594
100
AcDbScale
 70
     0
300
1'-0" = 1'-0"
140
12.0
141
12.0
290
     0
  0
TABLESTYLE
  5
5D0
102
{ACAD_REACTORS
330
5CF
102
}
102
{ACAD_XDICTIONARY
360
5D8
102
}
330
5CF
100
AcDbTableStyle
  3
Standard
 70
     0
 71
     0
 40
0.06
 41
0.06
280
     0
281
     0
  7
STANDARD
140
0.18
170
     2
 62
     0
 63
   257
283
     0
 90
        4
 91
        0
  1

274
    -2
284
     1
 64
     0
275
    -2
285
     1
 65
     0
276
    -2
286
     1
 66
     0
277
    -2
287
     1
 67
     0
278
    -2
288
     1
 68
     0
279
    -2
289
     1
 69
     0
  7
STANDARD
140
0.25
170
     5
 62
     0
 63
   257
283
     0
 90
        4
 91
        0
  1

274
    -2
284
     1
 64
     0
275
    -2
285
     1
 65
     0
276
    -2
286
     1
 66
     0
277
    -2
287
     1
 67
     0
278
    -2
288
     1
 68
     0
279
    -2
289
     1
 69
     0
  7
STANDARD
140
0.18
170
     5
 62
     0
 63
   257
283
     0
 90
        4
 91
        0
  1

274
    -2
284
     1
 64
     0
275
    -2
285
     1
 65
     0
276
    -2
286
     1
 66
     0
277
    -2
287
     1
 67
     0
278
    -2
288
     1
 68
     0
279
    -2
289
     1
 69
     0
  0
VISUALSTYLE
  5
5BB
102
{ACAD_REACTORS
330
5B6
102
}
330
5B6
100
AcDbVisualStyle
  2
2dWireframe
 70
     4
177
     3
291
     0
 70
    58
 90
        0
176
     1
 90
        2
176
     1
 90
        0
176
     1
 90
        0
176
     1
 40
0.6
176
     1
 40
30.0
176
     1
 62
     7
420
 16777215
176
     1
 90
        1
176
     1
 90
        4
176
     1
 62
     7
176
     1
 62
   257
176
     1
 90
        1
176
     1
 90
        1
176
     1
 40
1.0
176
     1
 90
        0
176
     1
 62
   257
176
     1
 40
1.0
176
     1
 90
        1
176
     1
 90
        6
176
     1
 90
        2
176
     1
 62
     7
176
     1
 90
        5
176
     1
 90
        0
176
     1
 90
        0
176
     1
290
     0
176
     1
 90
        1
176
     1
 40
0.0
176
     1
 90
        0
176
     1
290
     1
176
     1
290
     1
176
     1
290
     0
176
     1
290
     0
176
     1
290
     0
176
     1
290
     0
176
     1
290
     0
176
     1
290
     0
176
     1
290
     0
176
     1
 90
       50
176
     1
 40
0.0
176
     1
 40
1.0
176
     1
 90
        0
176
     1
 62
    18
420
        0
176
     1
 90
       50
176
     1
 90
        3
176
     1
 62
     5
420
      255
176
     1
290
     0
176
     1
 90
       50
176
     1
 90
       50
176
     1
 90
       50
176
     1
290
     0
176
     1
 90
       50
176
     1
 62
   256
176
     0
 40
1.0
176
     0
 90
        2
176
     1
  1
strokes_ogs.tif
176
     1
290
     0
176
     1
 40
1.0
176
     1
 40
1.0
176
     1
  0
VISUALSTYLE
  5
5BE
102
{ACAD_REACTORS
330
5B6
102
}
330
5B6
100
AcDbVisualStyle
  2
Basic
 70
     7
177
     3
291
     1
 70
    58
 90
        1
176
     1
 90
        0
176
     1
 90
        1
176
     1
 90
        0
176
     1
 40
0.6
176
     1
 40
30.0
176
     1
 62
     7
420
 16777215
176
     1
 90
        0
176
     1
 90
        4
176
     1
 62
     7
176
     1
 62
   257
176
     1
 90
        1
176
     1
 90
        1
176
     1
 40
1.0
176
     1
 90
        8
176
     1
 62
     7
176
     1
 40
1.0
176
     1
 90
        1
176
     1
 90
        6
176
     1
 90
        2
176
     1
 62
     7
176
     1
 90
        5
176
     1
 90
        0
176
     1
 90
        0
176
     1
290
     0
176
     1
 90
        1
176
     1
 40
0.0
176
     1
 90
        0
176
     1
290
     0
176
     1
290
     1
176
     1
290
     1
176
     1
290
     0
176
     1
290
     0
176
     1
290
     0
176
     1
290
     0
176
     1
290
     0
176
     1
290
     0
176
     1
 90
       50
176
     1
 40
0.0
176
     1
 40
1.0
176
     1
 90
        0
176
     1
 62
    18
420
        0
176
     1
 90
       50
176
     1
 90
        3
176
     1
 62
     5
420
      255
176
     1
290
     0
176
     1
 90
       50
176
     1
 90
       50
176
     1
 90
       50
176
     1
290
     0
176
     1
 90
       50
176
     1
 62
   256
176
     0
 40
1.0
176
     0
 90
        2
176
     1
  1
strokes_ogs.tif
176
     1
290
     0
176
     1
 40
1.0
176
     1
 40
1.0
176
     1
  0
VISUALSTYLE
  5
5C2
102
{ACAD_REACTORS
330
5B6
102
}
330
5B6
100
AcDbVisualStyle
  2
Brighten
 70
    12
177
     3
291
     1
 70
    58
 90
        2
176
     1
 90
        2
176
     1
 90
        0
176
     1
 90
        0
176
     1
 40
0.6
176
     1
 40
30.0
176
     1
 62
     7
420
 16777215
176
     1
 90
        1
176
     1
 90
        4
176
     1
 62
     7
176
     1
 62
   257
176
     1
 90
        1
176
     1
 90
        1
176
     1
 40
1.0
176
     1
 90
        8
176
     1
 62
     7
176
     1
 40
1.0
176
     1
 90
        1
176
     1
 90
        6
176
     1
 90
        2
176
     1
 62
     7
176
     1
 90
        5
176
     1
 90
        0
176
     1
 90
        0
176
     1
290
     0
176
     1
 90
        1
176
     1
 40
50.0
176
     1
 90
        0
176
     1
290
     0
176
     1
290
     1
176
     1
290
     1
176
     1
290
     0
176
     1
290
     0
176
     1
290
     0
176
     1
290
     0
176
     1
290
     0
176
     1
290
     0
176
     1
 90
       50
176
     1
 40
0.0
176
     1
 40
1.0
176
     1
 90
        0
176
     1
 62
    18
420
        0
176
     1
 90
       50
176
     1
 90
        3
176
     1
 62
     5
420
      255
176
     1
290
     0
176
     1
 90
       50
176
     1
 90
       50
176
     1
 90
       50
176
     1
290
     0
176
     1
 90
       50
176
     1
 62
   256
176
     0
 40
1.0
176
     0
 90
        2
176
     1
  1
strokes_ogs.tif
176
     1
290
     0
176
     1
 40
1.0
176
     1
 40
1.0
176
     1
  0
VISUALSTYLE
  5
5C6
102
{ACAD_REACTORS
330
5B6
102
}
330
5B6
100
AcDbVisualStyle
  2
ColorChange
 70
    16
177
     3
291
     1
 70
    58
 90
        2
176
     1
 90
        2
176
     1
 90
        3
176
     1
 90
        0
176
     1
 40
0.6
176
     1
 40
30.0
176
     1
 62
     8
420
  8421504
176
     1
 90
        1
176
     1
 90
        4
176
     1
 62
     7
176
     1
 62
   257
176
     1
 90
        1
176
     1
 90
        1
176
     1
 40
1.0
176
     1
 90
        8
176
     1
 62
     8
420
  8421504
176
     1
 40
1.0
176
     1
 90
        1
176
     1
 90
        6
176
     1
 90
        2
176
     1
 62
     7
176
     1
 90
        5
176
     1
 90
        0
176
     1
 90
        0
176
     1
290
     0
176
     1
 90
        1
176
     1
 40
0.0
176
     1
 90
        0
176
     1
290
     0
176
     1
290
     1
176
     1
290
     1
176
     1
290
     0
176
     1
290
     0
176
     1
290
     0
176
     1
290
     0
176
     1
290
     0
176
     1
290
     0
176
     1
 90
       50
176
     1
 40
0.0
176
     1
 40
1.0
176
     1
 90
        0
176
     1
 62
    18
420
        0
176
     1
 90
       50
176
     1
 90
        3
176
     1
 62
     5
420
      255
176
     1
290
     0
176
     1
 90
       50
176
     1
 90
       50
176
     1
 90
       50
176
     1
290
     0
176
     1
 90
       50
176
     1
 62
   256
176
     0
 40
1.0
176
     0
 90
        2
176
     1
  1
strokes_ogs.tif
176
     1
290
     0
176
     1
 40
1.0
176
     1
 40
1.0
176
     1
  0
VISUALSTYLE
  5
5C0
102
{ACAD_REACTORS
330
5B6
102
}
330
5B6
100
AcDbVisualStyle
  2
Conceptual
 70
     9
177
     3
291
     0
 70
    58
 90
        3
176
     1
 90
        2
176
     1
 90
        0
176
     1
 90
        0
176
     1
 40
0.6
176
     1
 40
30.0
176
     1
 62
     7
420
 16777215
176
     1
 90
        2
176
     1
 90
        2
176
     1
 62
     7
176
     1
 62
   257
176
     1
 90
        1
176
     1
 90
        1
176
     1
 40
179.0
176
     1
 90
        8
176
     1
 62
     7
176
     1
 40
1.0
176
     1
 90
        1
176
     1
 90
        6
176
     1
 90
        2
176
     1
 62
     7
176
     1
 90
        3
176
     1
 90
        0
176
     1
 90
        0
176
     1
290
     0
176
     1
 90
        1
176
     1
 40
0.0
176
     1
 90
        0
176
     1
290
     0
176
     1
290
     1
176
     1
290
     1
176
     1
290
     0
176
     1
290
     0
176
     1
290
     0
176
     1
290
     0
176
     1
290
     0
176
     1
290
     0
176
     1
 90
       50
176
     1
 40
0.0
176
     1
 40
1.0
176
     1
 90
        0
176
     1
 62
    18
420
        0
176
     1
 90
       50
176
     1
 90
        3
176
     1
 62
     5
420
      255
176
     1
290
     0
176
     1
 90
       50
176
     1
 90
       50
176
     1
 90
       50
176
     1
290
     0
176
     1
 90
       50
176
     1
 62
   256
176
     0
 40
1.0
176
     0
 90
        2
176
     1
  1
strokes_ogs.tif
176
     1
290
     0
176
     1
 40
1.0
176
     1
 40
1.0
176
     1
  0
VISUALSTYLE
  5
5C1
102
{ACAD_REACTORS
330
5B6
102
}
330
5B6
100
AcDbVisualStyle
  2
Dim
 70
    11
177
     3
291
     1
 70
    58
 90
        2
176
     1
 90
        2
176
     1
 90
        0
176
     1
 90
        0
176
     1
 40
0.6
176
     1
 40
30.0
176
     1
 62
     7
420
 16777215
176
     1
 90
        1
176
     1
 90
        4
176
     1
 62
     7
176
     1
 62
   257
176
     1
 90
        1
176
     1
 90
        1
176
     1
 40
1.0
176
     1
 90
        8
176
     1
 62
     7
176
     1
 40
1.0
176
     1
 90
        1
176
     1
 90
        6
176
     1
 90
        2
176
     1
 62
     7
176
     1
 90
        5
176
     1
 90
        0
176
     1
 90
        0
176
     1
290
     0
176
     1
 90
        1
176
     1
 40
-50.0
176
     1
 90
        0
176
     1
290
     0
176
     1
290
     1
176
     1
290
     1
176
     1
290
     0
176
     1
290
     0
176
     1
290
     0
176
     1
290
     0
176
     1
290
     0
176
     1
290
     0
176
     1
 90
       50
176
     1
 40
0.0
176
     1
 40
1.0
176
     1
 90
        0
176
     1
 62
    18
420
        0
176
     1
 90
       50
176
     1
 90
        3
176
     1
 62
     5
420
      255
176
     1
290
     0
176
     1
 90
       50
176
     1
 90
       50
176
     1
 90
       50
176
     1
290
     0
176
     1
 90
       50
176
     1
 62
   256
176
     0
 40
1.0
176
     0
 90
        2
176
     1
  1
strokes_ogs.tif
176
     1
290
     0
176
     1
 40
1.0
176
     1
 40
1.0
176
     1
  0
VISUALSTYLE
  5
5C9
102
{ACAD_REACTORS
330
5B6
102
}
330
5B6
100
AcDbVisualStyle
  2
EdgeColorOff
 70
    22
177
     3
291
     1
 70
    58
 90
        2
176
     0
 90
        2
176
     0
 90
        0
176
     0
 90
        0
176
     0
 40
0.6
176
     0
 40
30.0
176
     0
 62
     7
420
 16777215
176
     0
 90
        1
176
     0
 90
        4
176
     0
 62
     7
176
     0
 62
   257
176
     0
 90
        1
176
     0
 90
        1
176
     0
 40
1.0
176
     0
 90
        8
176
     2
 62
     7
176
     0
 40
1.0
176
     0
 90
        1
176
     0
 90
        6
176
     0
 90
        2
176
     0
 62
     7
176
     0
 90
        5
176
     0
 90
        0
176
     0
 90
        0
176
     0
290
     0
176
     0
 90
        1
176
     0
 40
0.0
176
     0
 90
        0
176
     0
290
     0
176
     0
290
     1
176
     0
290
     1
176
     0
290
     0
176
     0
290
     0
176
     0
290
     0
176
     0
290
     0
176
     0
290
     0
176
     0
290
     0
176
     0
 90
       50
176
     0
 40
0.0
176
     0
 40
1.0
176
     0
 90
        0
176
     0
 62
    18
420
        0
176
     0
 90
       50
176
     0
 90
        3
176
     0
 62
     5
420
      255
176
     0
290
     0
176
     0
 90
       50
176
     0
 90
       50
176
     0
 90
       50
176
     0
290
     0
176
     0
 90
       50
176
     0
 62
   256
176
     0
 40
1.0
176
     0
 90
        2
176
     0
  1
strokes_ogs.tif
176
     0
290
     0
176
     0
 40
1.0
176
     0
 40
1.0
176
     0
  0
VISUALSTYLE
  5
5C5
102
{ACAD_REACTORS
330
5B6
102
}
330
5B6
100
AcDbVisualStyle
  2
Facepattern
 70
    15
177
     3
291
     1
 70
    58
 90
        2
176
     1
 90
        2
176
     1
 90
        0
176
     1
 90
        0
176
     1
 40
0.6
176
     1
 40
30.0
176
     1
 62
     7
420
 16777215
176
     1
 90
        1
176
     1
 90
        4
176
     1
 62
     7
176
     1
 62
   257
176
     1
 90
        1
176
     1
 90
        1
176
     1
 40
1.0
176
     1
 90
        8
176
     1
 62
     7
176
     1
 40
1.0
176
     1
 90
        1
176
     1
 90
        6
176
     1
 90
        2
176
     1
 62
     7
176
     1
 90
        5
176
     1
 90
        0
176
     1
 90
        0
176
     1
290
     0
176
     1
 90
        1
176
     1
 40
0.0
176
     1
 90
        0
176
     1
290
     0
176
     1
290
     1
176
     1
290
     1
176
     1
290
     0
176
     1
290
     0
176
     1
290
     0
176
     1
290
     0
176
     1
290
     0
176
     1
290
     0
176
     1
 90
       50
176
     1
 40
0.0
176
     1
 40
1.0
176
     1
 90
        0
176
     1
 62
    18
420
        0
176
     1
 90
       50
176
     1
 90
        3
176
     1
 62
     5
420
      255
176
     1
290
     0
176
     1
 90
       50
176
     1
 90
       50
176
     1
 90
       50
176
     1
290
     0
176
     1
 90
       50
176
     1
 62
   256
176
     0
 40
1.0
176
     0
 90
        2
176
     1
  1
strokes_ogs.tif
176
     1
290
     0
176
     1
 40
1.0
176
     1
 40
1.0
176
     1
  0
VISUALSTYLE
  5
5B7
102
{ACAD_REACTORS
330
5B6
102
}
330
5B6
100
AcDbVisualStyle
  2
Flat
 70
     0
177
     3
291
     1
 70
    58
 90
        2
176
     1
 90
        1
176
     1
 90
        1
176
     1
 90
        2
176
     1
 40
0.6
176
     1
 40
30.0
176
     1
 62
     7
420
 16777215
176
     1
 90
        0
176
     1
 90
        0
176
     1
 62
     7
176
     1
 62
   257
176
     1
 90
        1
176
     1
 90
        1
176
     1
 40
1.0
176
     1
 90
        8
176
     1
 62
     7
176
     1
 40
1.0
176
     1
 90
        1
176
     1
 90
        6
176
     1
 90
        2
176
     1
 62
     7
176
     1
 90
        5
176
     1
 90
        0
176
     1
 90
        0
176
     1
290
     0
176
     1
 90
       13
176
     1
 40
0.0
176
     1
 90
        0
176
     1
290
     0
176
     1
290
     1
176
     1
290
     1
176
     1
290
     0
176
     1
290
     0
176
     1
290
     0
176
     1
290
     0
176
     1
290
     0
176
     1
290
     0
176
     1
 90
       50
176
     1
 40
0.0
176
     1
 40
1.0
176
     1
 90
        0
176
     1
 62
    18
420
        0
176
     1
 90
       50
176
     1
 90
        3
176
     1
 62
     5
420
      255
176
     1
290
     0
176
     1
 90
       50
176
     1
 90
       50
176
     1
 90
       50
176
     1
290
     0
176
     1
 90
       50
176
     1
 62
   256
176
     0
 40
1.0
176
     0
 90
        2
176
     1
  1
strokes_ogs.tif
176
     1
290
     0
176
     1
 40
1.0
176
     1
 40
1.0
176
     1
  0
VISUALSTYLE
  5
5B8
102
{ACAD_REACTORS
330
5B6
102
}
330
5B6
100
AcDbVisualStyle
  2
FlatWithEdges
 70
     1
177
     3
291
     1
 70
    58
 90
        2
176
     1
 90
        1
176
     1
 90
        1
176
     1
 90
        2
176
     1
 40
0.6
176
     1
 40
30.0
176
     1
 62
     7
420
 16777215
176
     1
 90
        1
176
     1
 90
        0
176
     1
 62
     7
176
     1
 62
   257
176
     1
 90
        1
176
     1
 90
        1
176
     1
 40
1.0
176
     1
 90
        0
176
     1
 62
   257
176
     1
 40
1.0
176
     1
 90
        1
176
     1
 90
        6
176
     1
 90
        2
176
     1
 62
     7
176
     1
 90
        5
176
     1
 90
        0
176
     1
 90
        0
176
     1
290
     0
176
     1
 90
       13
176
     1
 40
0.0
176
     1
 90
        0
176
     1
290
     0
176
     1
290
     1
176
     1
290
     1
176
     1
290
     0
176
     1
290
     0
176
     1
290
     0
176
     1
290
     0
176
     1
290
     0
176
     1
290
     0
176
     1
 90
       50
176
     1
 40
0.0
176
     1
 40
1.0
176
     1
 90
        0
176
     1
 62
    18
420
        0
176
     1
 90
       50
176
     1
 90
        3
176
     1
 62
     5
420
      255
176
     1
290
     0
176
     1
 90
       50
176
     1
 90
       50
176
     1
 90
       50
176
     1
290
     0
176
     1
 90
       50
176
     1
 62
   256
176
     0
 40
1.0
176
     0
 90
        2
176
     1
  1
strokes_ogs.tif
176
     1
290
     0
176
     1
 40
1.0
176
     1
 40
1.0
176
     1
  0
VISUALSTYLE
  5
5B9
102
{ACAD_REACTORS
330
5B6
102
}
330
5B6
100
AcDbVisualStyle
  2
Gouraud
 70
     2
177
     3
291
     1
 70
    58
 90
        2
176
     1
 90
        2
176
     1
 90
        1
176
     1
 90
        2
176
     1
 40
0.6
176
     1
 40
30.0
176
     1
 62
     7
420
 16777215
176
     1
 90
        0
176
     1
 90
        0
176
     1
 62
     7
176
     1
 62
   257
176
     1
 90
        1
176
     1
 90
        1
176
     1
 40
1.0
176
     1
 90
        0
176
     1
 62
     7
176
     1
 40
1.0
176
     1
 90
        1
176
     1
 90
        6
176
     1
 90
        2
176
     1
 62
     7
176
     1
 90
        5
176
     1
 90
        0
176
     1
 90
        0
176
     1
290
     0
176
     1
 90
       13
176
     1
 40
0.0
176
     1
 90
        0
176
     1
290
     0
176
     1
290
     1
176
     1
290
     1
176
     1
290
     0
176
     1
290
     0
176
     1
290
     0
176
     1
290
     0
176
     1
290
     0
176
     1
290
     0
176
     1
 90
       50
176
     1
 40
0.0
176
     1
 40
1.0
176
     1
 90
        0
176
     1
 62
    18
420
        0
176
     1
 90
       50
176
     1
 90
        3
176
     1
 62
     5
420
      255
176
     1
290
     0
176
     1
 90
       50
176
     1
 90
       50
176
     1
 90
       50
176
     1
290
     0
176
     1
 90
       50
176
     1
 62
   256
176
     0
 40
1.0
176
     0
 90
        2
176
     1
  1
strokes_ogs.tif
176
     1
290
     0
176
     1
 40
1.0
176
     1
 40
1.0
176
     1
  0
VISUALSTYLE
  5
5BA
102
{ACAD_REACTORS
330
5B6
102
}
330
5B6
100
AcDbVisualStyle
  2
GouraudWithEdges
 70
     3
177
     3
291
     1
 70
    58
 90
        2
176
     1
 90
        2
176
     1
 90
        1
176
     1
 90
        2
176
     1
 40
0.6
176
     1
 40
30.0
176
     1
 62
     7
420
 16777215
176
     1
 90
        1
176
     1
 90
        0
176
     1
 62
     7
176
     1
 62
   257
176
     1
 90
        1
176
     1
 90
        1
176
     1
 40
1.0
176
     1
 90
        0
176
     1
 62
   257
176
     1
 40
1.0
176
     1
 90
        1
176
     1
 90
        6
176
     1
 90
        2
176
     1
 62
     7
176
     1
 90
        5
176
     1
 90
        0
176
     1
 90
        0
176
     1
290
     0
176
     1
 90
       13
176
     1
 40
0.0
176
     1
 90
        0
176
     1
290
     0
176
     1
290
     1
176
     1
290
     1
176
     1
290
     0
176
     1
290
     0
176
     1
290
     0
176
     1
290
     0
176
     1
290
     0
176
     1
290
     0
176
     1
 90
       50
176
     1
 40
0.0
176
     1
 40
1.0
176
     1
 90
        0
176
     1
 62
    18
420
        0
176
     1
 90
       50
176
     1
 90
        3
176
     1
 62
     5
420
      255
176
     1
290
     0
176
     1
 90
       50
176
     1
 90
       50
176
     1
 90
       50
176
     1
290
     0
176
     1
 90
       50
176
     1
 62
   256
176
     0
 40
1.0
176
     0
 90
        2
176
     1
  1
strokes_ogs.tif
176
     1
290
     0
176
     1
 40
1.0
176
     1
 40
1.0
176
     1
  0
VISUALSTYLE
  5
5BD
102
{ACAD_REACTORS
330
5B6
102
}
330
5B6
100
AcDbVisualStyle
  2
Hidden
 70
     6
177
     3
291
     0
 70
    58
 90
        1
176
     1
 90
        2
176
     1
 90
        2
176
     1
 90
        0
176
     1
 40
0.6
176
     1
 40
30.0
176
     1
 62
     7
420
 16777215
176
     1
 90
        2
176
     1
 90
        2
176
     1
 62
     7
176
     1
 62
   257
176
     1
 90
        2
176
     1
 90
        1
176
     1
 40
40.0
176
     1
 90
        0
176
     1
 62
   257
176
     1
 40
1.0
176
     1
 90
        1
176
     1
 90
        6
176
     1
 90
        2
176
     1
 62
     7
176
     1
 90
        3
176
     1
 90
        0
176
     1
 90
        0
176
     1
290
     0
176
     1
 90
        1
176
     1
 40
0.0
176
     1
 90
        0
176
     1
290
     0
176
     1
290
     1
176
     1
290
     1
176
     1
290
     0
176
     1
290
     0
176
     1
290
     0
176
     1
290
     0
176
     1
290
     0
176
     1
290
     0
176
     1
 90
       50
176
     1
 40
0.0
176
     1
 40
1.0
176
     1
 90
        0
176
     1
 62
    18
420
        0
176
     1
 90
       50
176
     1
 90
        3
176
     1
 62
     5
420
      255
176
     1
290
     0
176
     1
 90
       50
176
     1
 90
       50
176
     1
 90
       50
176
     1
290
     0
176
     1
 90
       50
176
     1
 62
   256
176
     0
 40
1.0
176
     0
 90
        2
176
     1
  1
strokes_ogs.tif
176
     1
290
     0
176
     1
 40
1.0
176
     1
 40
1.0
176
     1
  0
VISUALSTYLE
  5
5C7
102
{ACAD_REACTORS
330
5B6
102
}
330
5B6
100
AcDbVisualStyle
  2
JitterOff
 70
    20
177
     3
291
     1
 70
    58
 90
        2
176
     0
 90
        2
176
     0
 90
        0
176
     0
 90
        0
176
     0
 40
0.6
176
     0
 40
30.0
176
     0
 62
     7
420
 16777215
176
     0
 90
        1
176
     0
 90
        4
176
     0
 62
     7
176
     0
 62
   257
176
     0
 90
        1
176
     0
 90
        1
176
     0
 40
1.0
176
     0
 90
       10
176
     2
 62
     7
176
     0
 40
1.0
176
     0
 90
        1
176
     0
 90
        6
176
     0
 90
        2
176
     0
 62
     7
176
     0
 90
        5
176
     0
 90
        0
176
     0
 90
        0
176
     0
290
     0
176
     0
 90
        1
176
     0
 40
0.0
176
     0
 90
        0
176
     0
290
     0
176
     0
290
     1
176
     0
290
     1
176
     0
290
     0
176
     0
290
     0
176
     0
290
     0
176
     0
290
     0
176
     0
290
     0
176
     0
290
     0
176
     0
 90
       50
176
     0
 40
0.0
176
     0
 40
1.0
176
     0
 90
        0
176
     0
 62
    18
420
        0
176
     0
 90
       50
176
     0
 90
        3
176
     0
 62
     5
420
      255
176
     0
290
     0
176
     0
 90
       50
176
     0
 90
       50
176
     0
 90
       50
176
     0
290
     0
176
     0
 90
       50
176
     0
 62
   256
176
     0
 40
1.0
176
     0
 90
        2
176
     0
  1
strokes_ogs.tif
176
     0
290
     0
176
     0
 40
1.0
176
     0
 40
1.0
176
     0
  0
VISUALSTYLE
  5
5C4
102
{ACAD_REACTORS
330
5B6
102
}
330
5B6
100
AcDbVisualStyle
  2
Linepattern
 70
    14
177
     3
291
     1
 70
    58
 90
        2
176
     1
 90
        2
176
     1
 90
        0
176
     1
 90
        0
176
     1
 40
0.6
176
     1
 40
30.0
176
     1
 62
     7
420
 16777215
176
     1
 90
        1
176
     1
 90
        4
176
     1
 62
     7
176
     1
 62
   257
176
     1
 90
        7
176
     1
 90
        7
176
     1
 40
1.0
176
     1
 90
        8
176
     1
 62
     7
176
     1
 40
1.0
176
     1
 90
        1
176
     1
 90
        6
176
     1
 90
        2
176
     1
 62
     7
176
     1
 90
        5
176
     1
 90
        0
176
     1
 90
        0
176
     1
290
     0
176
     1
 90
        1
176
     1
 40
0.0
176
     1
 90
        0
176
     1
290
     0
176
     1
290
     1
176
     1
290
     1
176
     1
290
     0
176
     1
290
     0
176
     1
290
     0
176
     1
290
     0
176
     1
290
     0
176
     1
290
     0
176
     1
 90
       50
176
     1
 40
0.0
176
     1
 40
1.0
176
     1
 90
        0
176
     1
 62
    18
420
        0
176
     1
 90
       50
176
     1
 90
        3
176
     1
 62
     5
420
      255
176
     1
290
     0
176
     1
 90
       50
176
     1
 90
       50
176
     1
 90
       50
176
     1
290
     0
176
     1
 90
       50
176
     1
 62
   256
176
     0
 40
1.0
176
     0
 90
        2
176
     1
  1
strokes_ogs.tif
176
     1
290
     0
176
     1
 40
1.0
176
     1
 40
1.0
176
     1
  0
VISUALSTYLE
  5
5C8
102
{ACAD_REACTORS
330
5B6
102
}
330
5B6
100
AcDbVisualStyle
  2
OverhangOff
 70
    21
177
     3
291
     1
 70
    58
 90
        2
176
     0
 90
        2
176
     0
 90
        0
176
     0
 90
        0
176
     0
 40
0.6
176
     0
 40
30.0
176
     0
 62
     7
420
 16777215
176
     0
 90
        1
176
     0
 90
        4
176
     0
 62
     7
176
     0
 62
   257
176
     0
 90
        1
176
     0
 90
        1
176
     0
 40
1.0
176
     0
 90
        9
176
     2
 62
     7
176
     0
 40
1.0
176
     0
 90
        1
176
     0
 90
        6
176
     0
 90
        2
176
     0
 62
     7
176
     0
 90
        5
176
     0
 90
        0
176
     0
 90
        0
176
     0
290
     0
176
     0
 90
        1
176
     0
 40
0.0
176
     0
 90
        0
176
     0
290
     0
176
     0
290
     1
176
     0
290
     1
176
     0
290
     0
176
     0
290
     0
176
     0
290
     0
176
     0
290
     0
176
     0
290
     0
176
     0
290
     0
176
     0
 90
       50
176
     0
 40
0.0
176
     0
 40
1.0
176
     0
 90
        0
176
     0
 62
    18
420
        0
176
     0
 90
       50
176
     0
 90
        3
176
     0
 62
     5
420
      255
176
     0
290
     0
176
     0
 90
       50
176
     0
 90
       50
176
     0
 90
       50
176
     0
290
     0
176
     0
 90
       50
176
     0
 62
   256
176
     0
 40
1.0
176
     0
 90
        2
176
     0
  1
strokes_ogs.tif
176
     0
290
     0
176
     0
 40
1.0
176
     0
 40
1.0
176
     0
  0
VISUALSTYLE
  5
5BF
102
{ACAD_REACTORS
330
5B6
102
}
330
5B6
100
AcDbVisualStyle
  2
Realistic
 70
     8
177
     3
291
     0
 70
    58
 90
        2
176
     1
 90
        3
176
     1
 90
        0
176
     1
 90
        2
176
     1
 40
0.6
176
     1
 40
30.0
176
     1
 62
     7
420
 16777215
176
     1
 90
        0
176
     1
 90
        0
176
     1
 62
     7
176
     1
 62
   257
176
     1
 90
        1
176
     1
 90
        1
176
     1
 40
1.0
176
     1
 90
        8
176
     1
 62
   257
176
     1
 40
1.0
176
     1
 90
        1
176
     1
 90
        6
176
     1
 90
        2
176
     1
 62
     7
176
     1
 90
        3
176
     1
 90
        0
176
     1
 90
        0
176
     1
290
     0
176
     1
 90
       13
176
     1
 40
0.0
176
     1
 90
        0
176
     1
290
     0
176
     1
290
     1
176
     1
290
     1
176
     1
290
     0
176
     1
290
     0
176
     1
290
     0
176
     1
290
     0
176
     1
290
     0
176
     1
290
     0
176
     1
 90
       50
176
     1
 40
0.0
176
     1
 40
1.0
176
     1
 90
        0
176
     1
 62
    18
420
        0
176
     1
 90
       50
176
     1
 90
        3
176
     1
 62
     5
420
      255
176
     1
290
     0
176
     1
 90
       50
176
     1
 90
       50
176
     1
 90
       50
176
     1
290
     0
176
     1
 90
       50
176
     1
 62
   256
176
     0
 40
1.0
176
     0
 90
        2
176
     1
  1
strokes_ogs.tif
176
     1
290
     0
176
     1
 40
1.0
176
     1
 40
1.0
176
     1
  0
VISUALSTYLE
  5
5CE
102
{ACAD_REACTORS
330
5B6
102
}
330
5B6
100
AcDbVisualStyle
  2
Shaded
 70
    27
177
     3
291
     0
 70
    58
 90
        2
176
     1
 90
        2
176
     1
 90
        1
176
     1
 90
        2
176
     1
 40
0.6
176
     1
 40
30.0
176
     1
 62
     7
420
 16777215
176
     1
 90
        0
176
     1
 90
        4
176
     1
 62
     7
176
     1
 62
   257
176
     1
 90
        1
176
     1
 90
        1
176
     1
 40
1.0
176
     1
 90
        8
176
     1
 62
   257
176
     1
 40
1.0
176
     1
 90
        1
176
     1
 90
        6
176
     1
 90
        2
176
     1
 62
     8
420
  7895160
176
     1
 90
        3
176
     1
 90
        0
176
     1
 90
        0
176
     1
290
     0
176
     1
 90
        5
176
     1
 40
0.0
176
     1
 90
        0
176
     1
290
     0
176
     1
290
     1
176
     1
290
     1
176
     1
290
     0
176
     1
290
     0
176
     1
290
     0
176
     1
290
     0
176
     1
290
     0
176
     1
290
     0
176
     1
 90
       50
176
     1
 40
0.0
176
     1
 40
1.0
176
     1
 90
        0
176
     1
 62
    18
420
        0
176
     1
 90
       50
176
     1
 90
        3
176
     1
 62
     5
420
      255
176
     1
290
     0
176
     1
 90
       50
176
     1
 90
       50
176
     1
 90
       50
176
     1
290
     0
176
     1
 90
       50
176
     1
 62
   256
176
     0
 40
1.0
176
     0
 90
        2
176
     1
  1
strokes_ogs.tif
176
     1
290
     0
176
     1
 40
1.0
176
     1
 40
1.0
176
     1
  0
VISUALSTYLE
  5
5CD
102
{ACAD_REACTORS
330
5B6
102
}
330
5B6
100
AcDbVisualStyle
  2
Shaded with edges
 70
    26
177
     3
291
     0
 70
    58
 90
        2
176
     1
 90
        2
176
     1
 90
        1
176
     1
 90
        2
176
     1
 40
0.6
176
     1
 40
30.0
176
     1
 62
     7
420
 16777215
176
     1
 90
        1
176
     1
 90
       10
176
     1
 62
     7
176
     1
 62
   257
176
     1
 90
        2
176
     1
 90
        1
176
     1
 40
1.0
176
     1
 90
        8
176
     1
 62
   257
176
     1
 40
1.0
176
     1
 90
        1
176
     1
 90
        6
176
     1
 90
        2
176
     1
 62
     7
176
     1
 90
        3
176
     1
 90
        0
176
     1
 90
        0
176
     1
290
     0
176
     1
 90
        5
176
     1
 40
0.0
176
     1
 90
        0
176
     1
290
     0
176
     1
290
     1
176
     1
290
     1
176
     1
290
     0
176
     1
290
     0
176
     1
290
     0
176
     1
290
     0
176
     1
290
     0
176
     1
290
     0
176
     1
 90
       50
176
     1
 40
0.0
176
     1
 40
1.0
176
     1
 90
        0
176
     1
 62
    18
420
        0
176
     1
 90
       50
176
     1
 90
        3
176
     1
 62
     5
420
      255
176
     1
290
     0
176
     1
 90
       50
176
     1
 90
       50
176
     1
 90
       50
176
     1
290
     0
176
     1
 90
       50
176
     1
 62
   256
176
     0
 40
1.0
176
     0
 90
        2
176
     1
  1
strokes_ogs.tif
176
     1
290
     0
176
     1
 40
1.0
176
     1
 40
1.0
176
     1
  0
VISUALSTYLE
  5
5CA
102
{ACAD_REACTORS
330
5B6
102
}
330
5B6
100
AcDbVisualStyle
  2
Shades of Gray
 70
    23
177
     3
291
     0
 70
    58
 90
        2
176
     1
 90
        2
176
     1
 90
        3
176
     1
 90
        0
176
     1
 40
0.6
176
     1
 40
30.0
176
     1
 62
     7
420
 16777215
176
     1
 90
        2
176
     1
 90
        2
176
     1
 62
     7
176
     1
 62
     7
176
     1
 90
        1
176
     1
 90
        1
176
     1
 40
40.0
176
     1
 90
        8
176
     1
 62
     7
176
     1
 40
1.0
176
     1
 90
        1
176
     1
 90
        6
176
     1
 90
        2
176
     1
 62
     7
176
     1
 90
        3
176
     1
 90
        0
176
     1
 90
        0
176
     1
290
     0
176
     1
 90
        1
176
     1
 40
0.0
176
     1
 90
        0
176
     1
290
     0
176
     1
290
     1
176
     1
290
     1
176
     1
290
     0
176
     1
290
     0
176
     1
290
     0
176
     1
290
     0
176
     1
290
     0
176
     1
290
     0
176
     1
 90
       50
176
     1
 40
0.0
176
     1
 40
1.0
176
     1
 90
        0
176
     1
 62
    18
420
        0
176
     1
 90
       50
176
     1
 90
        3
176
     1
 62
     5
420
      255
176
     1
290
     0
176
     1
 90
       50
176
     1
 90
       50
176
     1
 90
       50
176
     1
290
     0
176
     1
 90
       50
176
     1
 62
   256
176
     0
 40
1.0
176
     0
 90
        2
176
     1
  1
strokes_ogs.tif
176
     1
290
     0
176
     1
 40
1.0
176
     1
 40
1.0
176
     1
  0
VISUALSTYLE
  5
5CB
102
{ACAD_REACTORS
330
5B6
102
}
330
5B6
100
AcDbVisualStyle
  2
Sketchy
 70
    24
177
     3
291
     0
 70
    58
 90
        1
176
     1
 90
        2
176
     1
 90
        2
176
     1
 90
        0
176
     1
 40
0.6
176
     1
 40
30.0
176
     1
 62
     7
420
 16777215
176
     1
 90
        2
176
     1
 90
        2
176
     1
 62
     7
176
     1
 62
     7
176
     1
 90
        1
176
     1
 90
        1
176
     1
 40
40.0
176
     1
 90
       11
176
     1
 62
     7
176
     1
 40
1.0
176
     1
 90
        1
176
     1
 90
        6
176
     1
 90
        2
176
     1
 62
     7
176
     1
 90
        6
176
     1
 90
        0
176
     1
 90
        0
176
     1
290
     0
176
     1
 90
        1
176
     1
 40
0.0
176
     1
 90
        0
176
     1
290
     0
176
     1
290
     1
176
     1
290
     1
176
     1
290
     0
176
     1
290
     0
176
     1
290
     0
176
     1
290
     0
176
     1
290
     0
176
     1
290
     0
176
     1
 90
       50
176
     1
 40
0.0
176
     1
 40
1.0
176
     1
 90
        0
176
     1
 62
    18
420
        0
176
     1
 90
       50
176
     1
 90
        3
176
     1
 62
     5
420
      255
176
     1
290
     0
176
     1
 90
       50
176
     1
 90
       50
176
     1
 90
       50
176
     1
290
     0
176
     1
 90
       50
176
     1
 62
   256
176
     0
 40
1.0
176
     0
 90
        2
176
     1
  1
strokes_ogs.tif
176
     1
290
     0
176
     1
 40
1.0
176
     1
 40
1.0
176
     1
  0
VISUALSTYLE
  5
5C3
102
{ACAD_REACTORS
330
5B6
102
}
330
5B6
100
AcDbVisualStyle
  2
Thicken
 70
    13
177
     3
291
     1
 70
    58
 90
        2
176
     1
 90
        2
176
     1
 90
        0
176
     1
 90
        0
176
     1
 40
0.6
176
     1
 40
30.0
176
     1
 62
     7
420
 16777215
176
     1
 90
        1
176
     1
 90
        4
176
     1
 62
     7
176
     1
 62
   257
176
     1
 90
        1
176
     1
 90
        1
176
     1
 40
1.0
176
     1
 90
       12
176
     1
 62
     7
176
     1
 40
1.0
176
     1
 90
        1
176
     1
 90
        6
176
     1
 90
        2
176
     1
 62
     7
176
     1
 90
        5
176
     1
 90
        0
176
     1
 90
        0
176
     1
290
     0
176
     1
 90
        1
176
     1
 40
0.0
176
     1
 90
        0
176
     1
290
     0
176
     1
290
     1
176
     1
290
     1
176
     1
290
     0
176
     1
290
     0
176
     1
290
     0
176
     1
290
     0
176
     1
290
     0
176
     1
290
     0
176
     1
 90
       50
176
     1
 40
0.0
176
     1
 40
1.0
176
     1
 90
        0
176
     1
 62
    18
420
        0
176
     1
 90
       50
176
     1
 90
        3
176
     1
 62
     5
420
      255
176
     1
290
     0
176
     1
 90
       50
176
     1
 90
       50
176
     1
 90
       50
176
     1
290
     0
176
     1
 90
       50
176
     1
 62
   256
176
     0
 40
1.0
176
     0
 90
        2
176
     1
  1
strokes_ogs.tif
176
     1
290
     0
176
     1
 40
1.0
176
     1
 40
1.0
176
     1
  0
VISUALSTYLE
  5
5BC
102
{ACAD_REACTORS
330
5B6
102
}
330
5B6
100
AcDbVisualStyle
  2
Wireframe
 70
     5
177
     3
291
     0
 70
    58
 90
        0
176
     1
 90
        2
176
     1
 90
        0
176
     1
 90
        0
176
     1
 40
0.6
176
     1
 40
30.0
176
     1
 62
     7
420
 16777215
176
     1
 90
        1
176
     1
 90
        4
176
     1
 62
     7
176
     1
 62
   257
176
     1
 90
        1
176
     1
 90
        1
176
     1
 40
1.0
176
     1
 90
        0
176
     1
 62
   257
176
     1
 40
1.0
176
     1
 90
        1
176
     1
 90
        6
176
     1
 90
        2
176
     1
 62
     7
176
     1
 90
        3
176
     1
 90
        0
176
     1
 90
        0
176
     1
290
     0
176
     1
 90
        1
176
     1
 40
0.0
176
     1
 90
        0
176
     1
290
     0
176
     1
290
     1
176
     1
290
     1
176
     1
290
     0
176
     1
290
     0
176
     1
290
     0
176
     1
290
     0
176
     1
290
     0
176
     1
290
     0
176
     1
 90
       50
176
     1
 40
0.0
176
     1
 40
1.0
176
     1
 90
        0
176
     1
 62
    18
420
        0
176
     1
 90
       50
176
     1
 90
        3
176
     1
 62
     5
420
      255
176
     1
290
     0
176
     1
 90
       50
176
     1
 90
       50
176
     1
 90
       50
176
     1
290
     0
176
     1
 90
       50
176
     1
 62
   256
176
     0
 40
1.0
176
     0
 90
        2
176
     1
  1
strokes_ogs.tif
176
     1
290
     0
176
     1
 40
1.0
176
     1
 40
1.0
176
     1
  0
VISUALSTYLE
  5
5CC
102
{ACAD_REACTORS
330
5B6
102
}
330
5B6
100
AcDbVisualStyle
  2
X-Ray
 70
    25
177
     3
291
     0
 70
    58
 90
        2
176
     1
 90
        2
176
     1
 90
        1
176
     1
 90
        1
176
     1
 40
0.5
176
     1
 40
30.0
176
     1
 62
     7
420
 16777215
176
     1
 90
        1
176
     1
 90
        0
176
     1
 62
     7
176
     1
 62
   257
176
     1
 90
        1
176
     1
 90
        1
176
     1
 40
1.0
176
     1
 90
        8
176
     1
 62
     7
176
     1
 40
1.0
176
     1
 90
        1
176
     1
 90
        6
176
     1
 90
        2
176
     1
 62
     7
176
     1
 90
        3
176
     1
 90
        0
176
     1
 90
        0
176
     1
290
     0
176
     1
 90
       13
176
     1
 40
0.0
176
     1
 90
        0
176
     1
290
     0
176
     1
290
     1
176
     1
290
     1
176
     1
290
     0
176
     1
290
     0
176
     1
290
     0
176
     1
290
     0
176
     1
290
     0
176
     1
290
     0
176
     1
 90
       50
176
     1
 40
0.0
176
     1
 40
1.0
176
     1
 90
        0
176
     1
 62
    18
420
        0
176
     1
 90
       50
176
     1
 90
        3
176
     1
 62
     5
420
      255
176
     1
290
     0
176
     1
 90
       50
176
     1
 90
       50
176
     1
 90
       50
176
     1
290
     0
176
     1
 90
       50
176
     1
 62
   256
176
     0
 40
1.0
176
     0
 90
        2
176
     1
  1
strokes_ogs.tif
176
     1
290
     0
176
     1
 40
1.0
176
     1
 40
1.0
176
     1
  0
DICTIONARYVAR
  5
5D7
102
{ACAD_REACTORS
330
5D6
102
}
330
5D6
100
DictionaryVariables
280
     0
  1
1:1
  0
DICTIONARYVAR
  5
5DC
102
{ACAD_REACTORS
330
5D6
102
}
330
5D6
100
DictionaryVariables
280
     0
  1
Standard
  0
DICTIONARYVAR
  5
5DB
102
{ACAD_REACTORS
330
5D6
102
}
330
5D6
100
DictionaryVariables
280
     0
  1
Standard
  0
DICTIONARYVAR
  5
5DD
102
{ACAD_REACTORS
330
5D6
102
}
330
5D6
100
DictionaryVariables
280
     0
  1
0
  0
DICTIONARY
  5
5D8
330
5D0
100
AcDbDictionary
280
     1
281
     1
  3
ACAD_ROUNDTRIP_2008_TABLESTYLE_CELLSTYLEMAP
360
5D9
  0
CELLSTYLEMAP
  5
5D9
102
{ACAD_REACTORS
330
5D8
102
}
330
5D8
100
AcDbCellStyleMap
 90
        3
300
CELLSTYLE
  1
TABLEFORMAT_BEGIN
 90
        5
170
     1
 91
        0
 92
    32768
 62
   257
 93
        1
300
CONTENTFORMAT
  1
CONTENTFORMAT_BEGIN
 90
        0
 91
        0
 92
        4
 93
        0
300

 40
0.0
140
1.0
 94
        5
 62
     0
340
570
144
0.25
309
CONTENTFORMAT_END
171
     1
301
MARGIN
  1
CELLMARGIN_BEGIN
 40
0.06
 40
0.06
 40
0.06
 40
0.06
 40
0.06
 40
0.06
309
CELLMARGIN_END
 94
        6
 95
        1
302
GRIDFORMAT
  1
GRIDFORMAT_BEGIN
 90
        0
 91
        1
 62
     0
 92
       -2
340
572
 93
        0
 40
0.045
309
GRIDFORMAT_END
 95
        2
302
GRIDFORMAT
  1
GRIDFORMAT_BEGIN
 90
        0
 91
        1
 62
     0
 92
       -2
340
572
 93
        0
 40
0.045
309
GRIDFORMAT_END
 95
        4
302
GRIDFORMAT
  1
GRIDFORMAT_BEGIN
 90
        0
 91
        1
 62
     0
 92
       -2
340
572
 93
        0
 40
0.045
309
GRIDFORMAT_END
 95
        8
302
GRIDFORMAT
  1
GRIDFORMAT_BEGIN
 90
        0
 91
        1
 62
     0
 92
       -2
340
572
 93
        0
 40
0.045
309
GRIDFORMAT_END
 95
       16
302
GRIDFORMAT
  1
GRIDFORMAT_BEGIN
 90
        0
 91
        1
 62
     0
 92
       -2
340
572
 93
        0
 40
0.045
309
GRIDFORMAT_END
 95
       32
302
GRIDFORMAT
  1
GRIDFORMAT_BEGIN
 90
        0
 91
        1
 62
     0
 92
       -2
340
572
 93
        0
 40
0.045
309
GRIDFORMAT_END
309
TABLEFORMAT_END
  1
CELLSTYLE_BEGIN
 90
        1
 91
        1
300
_TITLE
309
CELLSTYLE_END
300
CELLSTYLE
  1
TABLEFORMAT_BEGIN
 90
        5
170
     1
 91
        0
 92
        0
 62
   257
 93
        1
300
CONTENTFORMAT
  1
CONTENTFORMAT_BEGIN
 90
        0
 91
        0
 92
        4
 93
        0
300

 40
0.0
140
1.0
 94
        5
 62
     0
340
570
144
0.18
309
CONTENTFORMAT_END
171
     1
301
MARGIN
  1
CELLMARGIN_BEGIN
 40
0.06
 40
0.06
 40
0.06
 40
0.06
 40
0.06
 40
0.06
309
CELLMARGIN_END
 94
        6
 95
        1
302
GRIDFORMAT
  1
GRIDFORMAT_BEGIN
 90
        0
 91
        1
 62
     0
 92
       -2
340
572
 93
        0
 40
0.045
309
GRIDFORMAT_END
 95
        2
302
GRIDFORMAT
  1
GRIDFORMAT_BEGIN
 90
        0
 91
        1
 62
     0
 92
       -2
340
572
 93
        0
 40
0.045
309
GRIDFORMAT_END
 95
        4
302
GRIDFORMAT
  1
GRIDFORMAT_BEGIN
 90
        0
 91
        1
 62
     0
 92
       -2
340
572
 93
        0
 40
0.045
309
GRIDFORMAT_END
 95
        8
302
GRIDFORMAT
  1
GRIDFORMAT_BEGIN
 90
        0
 91
        1
 62
     0
 92
       -2
340
572
 93
        0
 40
0.045
309
GRIDFORMAT_END
 95
       16
302
GRIDFORMAT
  1
GRIDFORMAT_BEGIN
 90
        0
 91
        1
 62
     0
 92
       -2
340
572
 93
        0
 40
0.045
309
GRIDFORMAT_END
 95
       32
302
GRIDFORMAT
  1
GRIDFORMAT_BEGIN
 90
        0
 91
        1
 62
     0
 92
       -2
340
572
 93
        0
 40
0.045
309
GRIDFORMAT_END
309
TABLEFORMAT_END
  1
CELLSTYLE_BEGIN
 90
        2
 91
        1
300
_HEADER
309
CELLSTYLE_END
300
CELLSTYLE
  1
TABLEFORMAT_BEGIN
 90
        5
170
     1
 91
        0
 92
        0
 62
   257
 93
        1
300
CONTENTFORMAT
  1
CONTENTFORMAT_BEGIN
 90
        0
 91
        0
 92
        4
 93
        0
300

 40
0.0
140
1.0
 94
        2
 62
     0
340
570
144
0.18
309
CONTENTFORMAT_END
171
     1
301
MARGIN
  1
CELLMARGIN_BEGIN
 40
0.06
 40
0.06
 40
0.06
 40
0.06
 40
0.06
 40
0.06
309
CELLMARGIN_END
 94
        6
 95
        1
302
GRIDFORMAT
  1
GRIDFORMAT_BEGIN
 90
        0
 91
        1
 62
     0
 92
       -2
340
572
 93
        0
 40
0.045
309
GRIDFORMAT_END
 95
        2
302
GRIDFORMAT
  1
GRIDFORMAT_BEGIN
 90
        0
 91
        1
 62
     0
 92
       -2
340
572
 93
        0
 40
0.045
309
GRIDFORMAT_END
 95
        4
302
GRIDFORMAT
  1
GRIDFORMAT_BEGIN
 90
        0
 91
        1
 62
     0
 92
       -2
340
572
 93
        0
 40
0.045
309
GRIDFORMAT_END
 95
        8
302
GRIDFORMAT
  1
GRIDFORMAT_BEGIN
 90
        0
 91
        1
 62
     0
 92
       -2
340
572
 93
        0
 40
0.045
309
GRIDFORMAT_END
 95
       16
302
GRIDFORMAT
  1
GRIDFORMAT_BEGIN
 90
        0
 91
        1
 62
     0
 92
       -2
340
572
 93
        0
 40
0.045
309
GRIDFORMAT_END
 95
       32
302
GRIDFORMAT
  1
GRIDFORMAT_BEGIN
 90
        0
 91
        1
 62
     0
 92
       -2
340
572
 93
        0
 40
0.045
309
GRIDFORMAT_END
309
TABLEFORMAT_END
  1
CELLSTYLE_BEGIN
 90
        3
 91
        2
300
_DATA
309
CELLSTYLE_END
  0
ENDSEC
  0
EOF
