  0
SECTION
  2
HEADER
  9
$ACADVER
  1
AC1015
  9
$ACADMAINTVER
 70
     6
  9
$DWGCODEPAGE
  3
ANSI_1252
  9
$INSBASE
 10
0.0
 20
0.0
 30
0.0
  9
$EXTMIN
 10
0.0
 20
0.0
 30
0.0
  9
$EXTMAX
 10
594.0
 20
841.0
 30
0.0
  9
$LIMMIN
 10
0.0
 20
0.0
  9
$LIMMAX
 10
594.0
 20
841.0
  9
$ORTHOMODE
 70
     0
  9
$REGENMODE
 70
     1
  9
$FILLMODE
 70
     1
  9
$QTEXTMODE
 70
     0
  9
$MIRRTEXT
 70
     1
  9
$LTSCALE
 40
1.0
  9
$ATTMODE
 70
     1
  9
$TEXTSIZE
 40
10.0
  9
$TRACEWID
 40
1.0
  9
$TEXTSTYLE
  7
Standard
  9
$CLAYER
  8
0
  9
$CELTYPE
  6
ByLayer
  9
$CECOLOR
 62
   256
  9
$CELTSCALE
 40
1.0
  9
$DISPSILH
 70
     0
  9
$DIMSCALE
 40
1.0
  9
$DIMASZ
 40
2.5
  9
$DIMEXO
 40
0.0
  9
$DIMDLI
 40
3.75
  9
$DIMRND
 40
0.0
  9
$DIMDLE
 40
0.0
  9
$DIMEXE
 40
1.0
  9
$DIMTP
 40
0.0
  9
$DIMTM
 40
0.0
  9
$DIMTXT
 40
3.5
  9
$DIMCEN
 40
2.5
  9
$DIMTSZ
 40
0.0
  9
$DIMTOL
 70
     0
  9
$DIMLIM
 70
     0
  9
$DIMTIH
 70
     1
  9
$DIMTOH
 70
     1
  9
$DIMSE1
 70
     0
  9
$DIMSE2
 70
     0
  9
$DIMTAD
 70
     1
  9
$DIMZIN
 70
     0
  9
$DIMBLK
  1

  9
$DIMASO
 70
     1
  9
$DIMSHO
 70
     1
  9
$DIMPOST
  1

  9
$DIMAPOST
  1

  9
$DIMALT
 70
     0
  9
$DIMALTD
 70
     3
  9
$DIMALTF
 40
0.0393700787
  9
$DIMLFAC
 40
1.0
  9
$DIMTOFL
 70
     1
  9
$DIMTVP
 40
0.0
  9
$DIMTIX
 70
     0
  9
$DIMSOXD
 70
     0
  9
$DIMSAH
 70
     0
  9
$DIMBLK1
  1

  9
$DIMBLK2
  1

  9
$DIMSTYLE
  2
ISO-25
  9
$DIMCLRD
 70
     0
  9
$DIMCLRE
 70
     0
  9
$DIMCLRT
 70
     0
  9
$DIMTFAC
 40
1.0
  9
$DIMGAP
 40
1.5
  9
$DIMJUST
 70
     0
  9
$DIMSD1
 70
     0
  9
$DIMSD2
 70
     0
  9
$DIMTOLJ
 70
     0
  9
$DIMTZIN
 70
     0
  9
$DIMALTZ
 70
     0
  9
$DIMALTTZ
 70
     0
  9
$DIMUPT
 70
     0
  9
$DIMDEC
 70
     2
  9
$DIMTDEC
 70
     2
  9
$DIMALTU
 70
     2
  9
$DIMALTTD
 70
     3
  9
$DIMTXSTY
  7
Standard
  9
$DIMAUNIT
 70
     0
  9
$DIMADEC
 70
     2
  9
$DIMALTRND
 40
0.0
  9
$DIMAZIN
 70
     0
  9
$DIMDSEP
 70
    44
  9
$DIMATFIT
 70
     3
  9
$DIMFRAC
 70
     0
  9
$DIMLDRBLK
  1

  9
$DIMLUNIT
 70
     2
  9
$DIMLWD
 70
    -2
  9
$DIMLWE
 70
    -2
  9
$DIMTMOVE
 70
     0
  9
$LUNITS
 70
     2
  9
$LUPREC
 70
     2
  9
$SKETCHINC
 40
1.0
  9
$FILLETRAD
 40
0.0
  9
$AUNITS
 70
     0
  9
$AUPREC
 70
     2
  9
$MENU
  1
.
  9
$ELEVATION
 40
0.0
  9
$PELEVATION
 40
0.0
  9
$THICKNESS
 40
0.0
  9
$LIMCHECK
 70
     0
  9
$CHAMFERA
 40
0.0
  9
$CHAMFERB
 40
0.0
  9
$CHAMFERC
 40
0.0
  9
$CHAMFERD
 40
0.0
  9
$SKPOLY
 70
     0
  9
$TDCREATE
 40
2460343.31108831
  9
$TDUCREATE
 40
2460343.269421644
  9
$TDUPDATE
 40
2460343.311090127
  9
$TDUUPDATE
 40
2460343.269423461
  9
$TDINDWG
 40
0.0000000116
  9
$TDUSRTIMER
 40
0.0000000116
  9
$USRTIMER
 70
     1
  9
$ANGBASE
 50
0.0
  9
$ANGDIR
 70
     0
  9
$PDMODE
 70
     0
  9
$PDSIZE
 40
-1.0
  9
$PLINEWID
 40
0.0
  9
$SPLFRAME
 70
     0
  9
$SPLINETYPE
 70
     6
  9
$SPLINESEGS
 70
     8
  9
$HANDSEED
  5
285
  9
$SURFTAB1
 70
     6
  9
$SURFTAB2
 70
     6
  9
$SURFTYPE
 70
     6
  9
$SURFU
 70
     6
  9
$SURFV
 70
     6
  9
$UCSBASE
  2

  9
$UCSNAME
  2

  9
$UCSORG
 10
0.0
 20
0.0
 30
0.0
  9
$UCSXDIR
 10
1.0
 20
0.0
 30
0.0
  9
$UCSYDIR
 10
0.0
 20
1.0
 30
0.0
  9
$UCSORTHOREF
  2

  9
$UCSORTHOVIEW
 70
     0
  9
$UCSORGTOP
 10
0.0
 20
0.0
 30
0.0
  9
$UCSORGBOTTOM
 10
0.0
 20
0.0
 30
0.0
  9
$UCSORGLEFT
 10
0.0
 20
0.0
 30
0.0
  9
$UCSORGRIGHT
 10
0.0
 20
0.0
 30
0.0
  9
$UCSORGFRONT
 10
0.0
 20
0.0
 30
0.0
  9
$UCSORGBACK
 10
0.0
 20
0.0
 30
0.0
  9
$PUCSBASE
  2

  9
$PUCSNAME
  2

  9
$PUCSORG
 10
0.0
 20
0.0
 30
0.0
  9
$PUCSXDIR
 10
1.0
 20
0.0
 30
0.0
  9
$PUCSYDIR
 10
0.0
 20
1.0
 30
0.0
  9
$PUCSORTHOREF
  2

  9
$PUCSORTHOVIEW
 70
     0
  9
$PUCSORGTOP
 10
0.0
 20
0.0
 30
0.0
  9
$PUCSORGBOTTOM
 10
0.0
 20
0.0
 30
0.0
  9
$PUCSORGLEFT
 10
0.0
 20
0.0
 30
0.0
  9
$PUCSORGRIGHT
 10
0.0
 20
0.0
 30
0.0
  9
$PUCSORGFRONT
 10
0.0
 20
0.0
 30
0.0
  9
$PUCSORGBACK
 10
0.0
 20
0.0
 30
0.0
  9
$USERI1
 70
     0
  9
$USERI2
 70
     0
  9
$USERI3
 70
     0
  9
$USERI4
 70
     0
  9
$USERI5
 70
     0
  9
$USERR1
 40
0.0
  9
$USERR2
 40
0.0
  9
$USERR3
 40
0.0
  9
$USERR4
 40
0.0
  9
$USERR5
 40
0.0
  9
$WORLDVIEW
 70
     1
  9
$SHADEDGE
 70
     3
  9
$SHADEDIF
 70
    70
  9
$TILEMODE
 70
     1
  9
$MAXACTVP
 70
    64
  9
$PINSBASE
 10
0.0
 20
0.0
 30
0.0
  9
$PLIMCHECK
 70
     0
  9
$PEXTMIN
 10
1.0000000000E+20
 20
1.0000000000E+20
 30
1.0000000000E+20
  9
$PEXTMAX
 10
-1.0000000000E+20
 20
-1.0000000000E+20
 30
-1.0000000000E+20
  9
$PLIMMIN
 10
0.0
 20
0.0
  9
$PLIMMAX
 10
420.0
 20
297.0
  9
$UNITMODE
 70
     0
  9
$VISRETAIN
 70
     1
  9
$PLINEGEN
 70
     0
  9
$PSLTSCALE
 70
     1
  9
$TREEDEPTH
 70
  3020
  9
$CMLSTYLE
  2
Standard
  9
$CMLJUST
 70
     0
  9
$CMLSCALE
 40
20.0
  9
$PROXYGRAPHICS
 70
     1
  9
$MEASUREMENT
 70
     1
  9
$CELWEIGHT
370
    -1
  9
$ENDCAPS
280
     0
  9
$JOINSTYLE
280
     0
  9
$LWDISPLAY
290
     1
  9
$INSUNITS
 70
     4
  9
$HYPERLINKBASE
  1

  9
$STYLESHEET
  1

  9
$XEDIT
290
     1
  9
$CEPSNTYPE
380
     0
  9
$PSTYLEMODE
290
     1
  9
$FINGERPRINTGUID
  2
{34176f3f-7073-4194-aada-2a77ce480e19}
  9
$VERSIONGUID
  2
{FAEB1C32-E019-11D5-929B-00C0DF256EC4}
  9
$EXTNAMES
290
     1
  9
$PSVPSCALE
 40
0.0
  9
$OLESTARTUP
290
     0
  0
ENDSEC
  0
SECTION
  2
CLASSES
  0
CLASS
  1
ACDBDICTIONARYWDFLT
  2
AcDbDictionaryWithDefault
  3
ObjectDBX Classes
 90
        0
280
     0
281
     0
  0
CLASS
  1
VISUALSTYLE
  2
AcDbVisualStyle
  3
ObjectDBX Classes
 90
     4095
280
     0
281
     0
  0
CLASS
  1
MATERIAL
  2
AcDbMaterial
  3
ObjectDBX Classes
 90
     1153
280
     0
281
     0
  0
CLASS
  1
SCALE
  2
AcDbScale
  3
ObjectDBX Classes
 90
     1153
280
     0
281
     0
  0
CLASS
  1
TABLESTYLE
  2
AcDbTableStyle
  3
ObjectDBX Classes
 90
     4095
280
     0
281
     0
  0
CLASS
  1
MLEADERSTYLE
  2
AcDbMLeaderStyle
  3
ACDB_MLEADERSTYLE_CLASS
 90
     4095
280
     0
281
     0
  0
CLASS
  1
SUN
  2
AcDbSun
  3
SCENEOE
 90
     1153
280
     0
281
     0
  0
CLASS
  1
ACDBPLACEHOLDER
  2
AcDbPlaceHolder
  3
ObjectDBX Classes
 90
        0
280
     0
281
     0
  0
CLASS
  1
LAYOUT
  2
AcDbLayout
  3
ObjectDBX Classes
 90
        0
280
     0
281
     0
  0
ENDSEC
  0
SECTION
  2
TABLES
  0
TABLE
  2
VPORT
  5
8
330
0
100
AcDbSymbolTable
 70
     1
  0
VPORT
  5
29
330
8
100
AcDbSymbolTableRecord
100
AcDbViewportTableRecord
  2
*Active
 70
     0
 10
0.0
 20
0.0
 11
1.0
 21
1.0
 12
297.0
 22
420.5
 13
0.0
 23
0.0
 14
10.0
 24
10.0
 15
10.0
 25
10.0
 16
0.0
 26
0.0
 36
1.0
 17
0.0
 27
0.0
 37
0.0
 40
841.0
 41
0.7063020214
 42
50.0
 43
0.0
 44
0.0
 50
0.0
 51
0.0
 71
     0
 72
  2000
 73
     1
 74
     3
 75
     0
 76
     0
 77
     0
 78
     0
281
     0
 65
     1
110
0.0
120
0.0
130
0.0
111
1.0
121
0.0
131
0.0
112
0.0
122
1.0
132
0.0
 79
     0
146
0.0
  0
ENDTAB
  0
TABLE
  2
LTYPE
  5
5
330
0
100
AcDbSymbolTable
 70
     6
  0
LTYPE
  5
14
330
5
100
AcDbSymbolTableRecord
100
AcDbLinetypeTableRecord
  2
ByBlock
 70
     0
  3

 72
    65
 73
     0
 40
0.0
  0
LTYPE
  5
15
330
5
100
AcDbSymbolTableRecord
100
AcDbLinetypeTableRecord
  2
ByLayer
 70
     0
  3

 72
    65
 73
     0
 40
0.0
  0
LTYPE
  5
16
330
5
100
AcDbSymbolTableRecord
100
AcDbLinetypeTableRecord
  2
Continuous
 70
     0
  3
Solid line
 72
    65
 73
     0
 40
0.0
  0
LTYPE
  5
5E
330
5
100
AcDbSymbolTableRecord
100
AcDbLinetypeTableRecord
  2
HIDDEN
 70
     0
  3
Hidden __ __ __ __ __ __ __ __ __ __ __ __ __ __
 72
    65
 73
     2
 40
1.905
 49
1.27
 74
     0
 49
-0.635
 74
     0
  0
LTYPE
  5
5F
330
5
100
AcDbSymbolTableRecord
100
AcDbLinetypeTableRecord
  2
PHANTOM
 70
     0
  3
Phantom ______  __  __  ______  __  __  ______
 72
    65
 73
     6
 40
12.7
 49
6.35
 74
     0
 49
-1.27
 74
     0
 49
1.27
 74
     0
 49
-1.27
 74
     0
 49
1.27
 74
     0
 49
-1.27
 74
     0
  0
LTYPE
  5
60
330
5
100
AcDbSymbolTableRecord
100
AcDbLinetypeTableRecord
  2
CENTER
 70
     0
  3
Center ____ _ ____ _ ____ _ ____ _ ____ _ ____
 72
    65
 73
     4
 40
10.16
 49
6.35
 74
     0
 49
-1.27
 74
     0
 49
1.27
 74
     0
 49
-1.27
 74
     0
  0
LTYPE
  5
61
330
5
100
AcDbSymbolTableRecord
100
AcDbLinetypeTableRecord
  2
CENTERX2
 70
     0
  3
Center (2x) ________  __  ________  __  _____
 72
    65
 73
     4
 40
20.32
 49
12.7
 74
     0
 49
-2.54
 74
     0
 49
2.54
 74
     0
 49
-2.54
 74
     0
  0
LTYPE
  5
62
330
5
100
AcDbSymbolTableRecord
100
AcDbLinetypeTableRecord
  2
DOT2
 70
     0
  3
Dot (.5x) ........................................
 72
    65
 73
     2
 40
0.635
 49
0.0
 74
     0
 49
-0.635
 74
     0
  0
ENDTAB
  0
TABLE
  2
LAYER
  5
2
330
0
100
AcDbSymbolTable
 70
     1
  0
LAYER
  5
10
330
2
100
AcDbSymbolTableRecord
100
AcDbLayerTableRecord
  2
0
 70
     0
 62
     7
  6
Continuous
370
    -3
390
F
  0
ENDTAB
  0
TABLE
  2
STYLE
  5
3
330
0
100
AcDbSymbolTable
 70
     3
  0
STYLE
  5
11
330
3
100
AcDbSymbolTableRecord
100
AcDbTextStyleTableRecord
  2
Standard
 70
     0
 40
0.0
 41
1.0
 50
0.0
 71
     0
 42
10.0
  3
txt
  4

  0
STYLE
  5
66
330
3
100
AcDbSymbolTableRecord
100
AcDbTextStyleTableRecord
  2
SLDTEXTSTYLE0
 70
     0
 40
0.0
 41
0.96
 50
0.0
 71
     0
 42
10.0
  3
ISOCP3
  4

  0
STYLE
  5
7D
330
3
100
AcDbSymbolTableRecord
100
AcDbTextStyleTableRecord
  2
SLDTEXTSTYLE1
 70
     0
 40
0.0
 41
0.605
 50
0.0
 71
     0
 42
10.0
  3
TXT
  4

  0
ENDTAB
  0
TABLE
  2
VIEW
  5
6
330
0
100
AcDbSymbolTable
 70
     0
  0
ENDTAB
  0
TABLE
  2
UCS
  5
7
330
0
100
AcDbSymbolTable
 70
     0
  0
ENDTAB
  0
TABLE
  2
APPID
  5
9
330
0
100
AcDbSymbolTable
 70
     1
  0
APPID
  5
12
330
9
100
AcDbSymbolTableRecord
100
AcDbRegAppTableRecord
  2
ACAD
 70
     0
  0
ENDTAB
  0
TABLE
  2
DIMSTYLE
  5
A
330
0
100
AcDbSymbolTable
 70
     2
100
AcDbDimStyleTable
  0
DIMSTYLE
105
27
330
A
100
AcDbSymbolTableRecord
100
AcDbDimStyleTableRecord
  2
ISO-25
 70
     0
 41
2.5
 42
0.625
 43
3.75
 44
1.25
 73
     0
 74
     0
 77
     1
 78
     8
140
2.5
141
2.5
143
0.0393700787
147
0.625
171
     3
172
     1
178
     0
271
     2
272
     2
274
     3
278
    44
283
     0
284
     8
340
11
  0
DIMSTYLE
105
67
102
{ACAD_REACTORS
330
65
330
72
102
}
330
A
100
AcDbSymbolTableRecord
100
AcDbDimStyleTableRecord
  2
SLDDIMSTYLE0
 70
     0
 41
2.5
 44
0.0
 45
0.000000001
 73
     0
 74
     0
 77
     1
 78
    12
 79
     3
140
6.0
147
1.5
173
     1
178
     0
271
     2
272
     2
276
     2
284
    12
340
66
  0
ENDTAB
  0
TABLE
  2
BLOCK_RECORD
  5
1
330
0
100
AcDbSymbolTable
 70
     3
  0
BLOCK_RECORD
  5
1F
330
1
100
AcDbSymbolTableRecord
100
AcDbBlockTableRecord
  2
*Model_Space
340
22
  0
BLOCK_RECORD
  5
1B
330
1
100
AcDbSymbolTableRecord
100
AcDbBlockTableRecord
  2
*Paper_Space
340
1E
  0
BLOCK_RECORD
  5
23
330
1
100
AcDbSymbolTableRecord
100
AcDbBlockTableRecord
  2
*Paper_Space0
340
26
  0
BLOCK_RECORD
  5
68
330
1
100
AcDbSymbolTableRecord
100
AcDbBlockTableRecord
  2
_D
340
0
  0
BLOCK_RECORD
  5
73
330
1
100
AcDbSymbolTableRecord
100
AcDbBlockTableRecord
  2
_D_1
340
0
  0
ENDTAB
  0
ENDSEC
  0
SECTION
  2
BLOCKS
  0
BLOCK
  5
20
330
1F
100
AcDbEntity
  8
0
100
AcDbBlockBegin
  2
*Model_Space
 70
     0
 10
0.0
 20
0.0
 30
0.0
  3
*Model_Space
  1

  0
ENDBLK
  5
21
330
1F
100
AcDbEntity
  8
0
100
AcDbBlockEnd
  0
BLOCK
  5
1C
330
1B
100
AcDbEntity
 67
     1
  8
0
100
AcDbBlockBegin
  2
*Paper_Space
 70
     0
 10
0.0
 20
0.0
 30
0.0
  3
*Paper_Space
  1

  0
ENDBLK
  5
1D
330
1B
100
AcDbEntity
 67
     1
  8
0
100
AcDbBlockEnd
  0
BLOCK
  5
24
330
23
100
AcDbEntity
  8
0
100
AcDbBlockBegin
  2
*Paper_Space0
 70
     0
 10
0.0
 20
0.0
 30
0.0
  3
*Paper_Space0
  1

  0
ENDBLK
  5
25
330
23
100
AcDbEntity
  8
0
100
AcDbBlockEnd
  0
BLOCK
  5
69
330
68
100
AcDbEntity
  8
0
100
AcDbBlockBegin
  2
_D
 70
     0
 10
0.0
 20
0.0
 30
0.0
  3
_D
  1

  0
SOLID
  5
6B
330
68
100
AcDbEntity
  8
0
  6
Continuous
 62
     7
370
    18
100
AcDbTrace
 10
42.7614395004
 20
152.0299240879
 30
0.0
 11
42.4614395004
 21
149.5299240879
 31
0.0
 12
43.0614395004
 22
149.5299240879
 32
0.0
 13
43.0614395004
 23
149.5299240879
 33
0.0
  0
SOLID
  5
6C
330
68
100
AcDbEntity
  8
0
  6
Continuous
 62
     7
370
    18
100
AcDbTrace
 10
42.7614395004
 20
52.0299240879
 30
0.0
 11
43.0614395004
 21
54.5299240879
 31
0.0
 12
42.4614395004
 22
54.5299240879
 32
0.0
 13
42.4614395004
 23
54.5299240879
 33
0.0
  0
LINE
  5
6D
330
68
100
AcDbEntity
  8
0
  6
Continuous
 62
     7
370
     0
100
AcDbLine
 10
56.6850079902
 20
152.0299240879
 30
0.0
 11
41.7614395004
 21
152.0299240879
 31
0.0
  0
LINE
  5
6E
330
68
100
AcDbEntity
  8
0
  6
Continuous
 62
     7
370
     0
100
AcDbLine
 10
56.6850079902
 20
52.0299240879
 30
0.0
 11
41.7614395004
 21
52.0299240879
 31
0.0
  0
LINE
  5
6F
330
68
100
AcDbEntity
  8
0
  6
Continuous
 62
     7
370
     0
100
AcDbLine
 10
42.7614395004
 20
152.0299240879
 30
0.0
 11
42.7614395004
 21
52.0299240879
 31
0.0
  0
MTEXT
  5
70
330
68
100
AcDbEntity
  8
0
  6
Continuous
 62
     7
370
    18
100
AcDbMText
 10
35.0270332946
 20
94.3680541463
 30
0.0
 40
6.0
 41
0.0
 71
     1
 72
     1
  1
100
  7
SLDTEXTSTYLE0
 11
-7.044195017643634E-15
 21
1.0
 31
0.0
 73
     1
 44
1.0
  0
MTEXT
  5
71
330
68
100
AcDbEntity
  8
0
  6
Continuous
 62
     7
370
    18
100
AcDbMText
 10
35.0270332946
 20
105.7430548466
 30
0.0
 40
6.0
 41
0.0
 71
     1
 72
     1
  1
mm
  7
SLDTEXTSTYLE0
 11
-7.044195017643634E-15
 21
1.0
 31
0.0
 73
     1
 44
1.0
  0
ENDBLK
  5
6A
330
68
100
AcDbEntity
  8
0
100
AcDbBlockEnd
  0
BLOCK
  5
74
330
73
100
AcDbEntity
  8
0
100
AcDbBlockBegin
  2
_D_1
 70
     0
 10
0.0
 20
0.0
 30
0.0
  3
_D_1
  1

  0
SOLID
  5
76
330
73
100
AcDbEntity
  8
0
  6
Continuous
 62
     7
370
    18
100
AcDbTrace
 10
56.6850079902
 20
38.4602342313
 30
0.0
 11
59.1850079902
 21
38.1602342313
 31
0.0
 12
59.1850079902
 22
38.7602342313
 32
0.0
 13
59.1850079902
 23
38.7602342313
 33
0.0
  0
SOLID
  5
77
330
73
100
AcDbEntity
  8
0
  6
Continuous
 62
     7
370
    18
100
AcDbTrace
 10
156.6850079902
 20
38.4602342313
 30
0.0
 11
154.1850079902
 21
38.7602342313
 31
0.0
 12
154.1850079902
 22
38.1602342313
 32
0.0
 13
154.1850079902
 23
38.1602342313
 33
0.0
  0
LINE
  5
78
330
73
100
AcDbEntity
  8
0
  6
Continuous
 62
     7
370
     0
100
AcDbLine
 10
56.6850079902
 20
52.0299240879
 30
0.0
 11
56.6850079902
 21
37.4602342313
 31
0.0
  0
LINE
  5
79
330
73
100
AcDbEntity
  8
0
  6
Continuous
 62
     7
370
     0
100
AcDbLine
 10
156.6850079902
 20
52.0299240879
 30
0.0
 11
156.6850079902
 21
37.4602342313
 31
0.0
  0
LINE
  5
7A
330
73
100
AcDbEntity
  8
0
  6
Continuous
 62
     7
370
     0
100
AcDbLine
 10
56.6850079902
 20
38.4602342313
 30
0.0
 11
156.6850079902
 21
38.4602342313
 31
0.0
  0
MTEXT
  5
7B
330
73
100
AcDbEntity
  8
0
  6
Continuous
 62
     7
370
    18
100
AcDbMText
 10
93.9626484861
 20
46.1946404371
 30
0.0
 40
6.0
 41
0.0
 71
     1
 72
     1
  1
100
  7
SLDTEXTSTYLE0
 73
     1
 44
1.0
  0
MTEXT
  5
7C
330
73
100
AcDbEntity
  8
0
  6
Continuous
 62
     7
370
    18
100
AcDbMText
 10
105.3376491864
 20
46.1946404371
 30
0.0
 40
6.0
 41
0.0
 71
     1
 72
     1
  1
mm
  7
SLDTEXTSTYLE0
 73
     1
 44
1.0
  0
ENDBLK
  5
75
330
73
100
AcDbEntity
  8
0
100
AcDbBlockEnd
  0
ENDSEC
  0
SECTION
  2
ENTITIES
  0
LINE
  5
63
330
1F
100
AcDbEntity
  8
0
  6
Continuous
 62
     7
370
    18
100
AcDbLine
 10
56.6850079902
 20
152.0299240879
 30
0.0
 11
56.6850079902
 21
52.0299240879
 31
0.0
  0
LINE
  5
64
330
1F
100
AcDbEntity
  8
0
  6
Continuous
 62
     7
370
    18
100
AcDbLine
 10
56.6850079902
 20
52.0299240879
 30
0.0
 11
156.6850079902
 21
52.0299240879
 31
0.0
  0
DIMENSION
  5
65
330
1F
100
AcDbEntity
  8
0
  6
Continuous
 62
     7
370
    18
100
AcDbDimension
  2
_D
 10
42.7614395004
 20
52.0299240879
 30
0.0
 11
42.7614395004
 21
105.4472211621
 31
0.0
 70
   160
  1
<>mm
 71
     2
 42
-1.0
  3
SLDDIMSTYLE0
100
AcDbAlignedDimension
 13
56.6850079902
 23
152.0299240879
 33
0.0
 14
56.6850079902
 24
52.0299240879
 34
0.0
 50
90.0
100
AcDbRotatedDimension
  0
DIMENSION
  5
72
330
1F
100
AcDbEntity
  8
0
  6
Continuous
 62
     7
370
    18
100
AcDbDimension
  2
_D_1
 10
156.6850079902
 20
38.4602342313
 30
0.0
 11
105.0418155019
 21
38.4602342313
 31
0.0
 70
   160
  1
<>mm
 71
     2
 42
-1.0
  3
SLDDIMSTYLE0
100
AcDbAlignedDimension
 13
56.6850079902
 23
52.0299240879
 33
0.0
 14
156.6850079902
 24
52.0299240879
 34
0.0
100
AcDbRotatedDimension
  0
MTEXT
  5
7E
330
1F
100
AcDbEntity
  8
0
  6
Continuous
 62
     7
370
     0
100
AcDbMText
 10
412.8252631579
 20
48.4342449499
 30
0.0
 40
10.0
 41
0.0
 71
     1
 72
     1
  1
KLUDI GmbH & Co KG
  7
SLDTEXTSTYLE1
 73
     1
 44
1.0
  0
MTEXT
  5
7F
330
1F
100
AcDbEntity
  8
0
  6
Continuous
 62
     7
370
     0
100
AcDbMText
 10
210.0873490389
 20
48.4342449499
 30
0.0
 40
10.0
 41
0.0
 71
     1
 72
     1
  1
42 831 .. 75
  7
SLDTEXTSTYLE1
 73
     1
 44
1.0
  0
LINE
  5
80
330
1F
100
AcDbEntity
  8
0
  6
Continuous
 62
     7
370
    25
100
AcDbLine
 10
239.3673921229
 20
342.1960383347
 30
0.0
 11
239.3387318696
 21
341.4331134102
 31
0.0
  0
SPLINE
  5
81
330
1F
100
AcDbEntity
  8
0
  6
Continuous
 62
     7
370
    25
100
AcDbSpline
210
0.0
220
0.0
230
1.0
 70
     8
 71
     3
 72
     9
 73
     5
 74
     0
 42
0.00000001
 43
0.00000001
 40
0.0
 40
0.0
 40
0.0
 40
0.0
 40
0.4995025271349313
 40
1.0
 40
1.0
 40
1.0
 40
1.0
 10
259.9447274781234
 20
385.748442884009
 30
0.0
 10
258.4495112998879
 20
385.7485102565892
 30
0.0
 10
255.4561006622847
 20
385.7486451359474
 30
0.0
 10
252.4626869088927
 20
385.7485103460247
 30
0.0
 10
250.9644908900804
 20
385.748442884009
 30
0.0
  0
ARC
  5
82
330
1F
100
AcDbEntity
  8
0
  6
Continuous
 62
     7
370
    25
100
AcDbCircle
 10
141.3747688123
 20
360.7482197395
 30
0.0
 40
34.99647852141005
100
AcDbArc
 50
45.5905759152
 51
314.3860234957
  0
ARC
  5
83
330
1F
100
AcDbEntity
  8
0
  6
Continuous
 62
     7
370
    25
100
AcDbCircle
 10
291.3747688123
 20
360.7482197395
 30
0.0
 40
34.99647852140998
100
AcDbArc
 50
0.0
 51
134.4094240848
  0
ARC
  5
84
330
1F
100
AcDbEntity
  8
0
  6
Continuous
 62
     7
370
    25
100
AcDbCircle
 10
291.3747688123
 20
360.7482197395
 30
0.0
 40
34.99647852141003
100
AcDbArc
 50
225.6139765043
 51
0.0
  0
SPLINE
  5
85
330
1F
100
AcDbEntity
  8
0
  6
Continuous
 62
     7
370
    25
100
AcDbSpline
210
0.0
220
0.0
230
1.0
 70
     8
 71
     3
 72
     8
 73
     4
 74
     0
 42
0.00000001
 43
0.00000001
 40
0.0
 40
0.0
 40
0.0
 40
0.0
 40
1.0
 40
1.0
 40
1.0
 40
1.0
 10
227.5477693872963
 20
373.1720086770284
 30
0.0
 10
220.111202637409
 20
373.6717083226559
 30
0.0
 10
212.6383469251264
 20
373.6717069172731
 30
0.0
 10
205.2017682881716
 20
373.1720086804384
 30
0.0
  0
SPLINE
  5
86
330
1F
100
AcDbEntity
  8
0
  6
Continuous
 62
     7
370
    25
100
AcDbSpline
210
0.0
220
0.0
230
1.0
 70
    24
 71
     3
 72
     8
 73
     4
 74
     0
 42
0.00000001
 43
0.00000001
 40
0.0
 40
0.0
 40
0.0
 40
0.0
 40
1.0
 40
1.0
 40
1.0
 40
1.0
 10
208.6655739947835
 20
268.2469697395219
 30
0.0
 10
213.8964827284752
 20
268.2469697395219
 30
0.0
 10
218.8530521310961
 20
268.2469697395219
 30
0.0
 10
224.0839636297461
 20
268.2469697395219
 30
0.0
  0
SPLINE
  5
87
330
1F
100
AcDbEntity
  8
0
  6
Continuous
 62
     7
370
    25
100
AcDbSpline
210
0.0
220
0.0
230
1.0
 70
     8
 71
     3
 72
    19
 73
    15
 74
     0
 42
0.00000001
 43
0.00000001
 40
0.0
 40
0.0
 40
0.0
 40
0.0
 40
0.0795216183769212
 40
0.1603383728377685
 40
0.2420925570057978
 40
0.3248389240117334
 40
0.4087971597510631
 40
0.4939535365228331
 40
0.557338056540803
 40
0.6295723500168219
 40
0.7101432941952709
 40
0.7989520693455171
 40
0.8958130360669851
 40
0.9999999999999999
 40
0.9999999999999999
 40
0.9999999999999999
 40
0.9999999999999999
 10
224.0839631503856
 20
268.2469697395319
 30
0.0
 10
224.7433466877971
 20
268.2475749095847
 30
0.0
 10
226.072852872687
 20
268.2487951058475
 30
0.0
 10
228.0787913051682
 20
268.3599048692244
 30
0.0
 10
230.094732834673
 20
268.6571222889571
 30
0.0
 10
232.0868326959766
 20
269.2066763067892
 30
0.0
 10
233.9963265318617
 20
270.0797197063054
 30
0.0
 10
235.5566081246727
 20
271.2438044381077
 30
0.0
 10
236.7595490176109
 20
272.6363002973881
 30
0.0
 10
237.6703848214379
 20
274.1915474879791
 30
0.0
 10
238.3768442443443
 20
276.075203260949
 30
0.0
 10
238.844844176092
 20
278.2392311322183
 30
0.0
 10
239.0669859135229
 20
280.6369859231451
 30
0.0
 10
239.0780331300919
 20
282.3043629463768
 30
0.0
 10
239.0837580134592
 20
283.1684302820448
 30
0.0
  0
SPLINE
  5
88
330
1F
100
AcDbEntity
  8
0
  6
Continuous
 62
     7
370
    25
100
AcDbSpline
210
0.0
220
0.0
230
1.0
 70
     8
 71
     3
 72
    20
 73
    16
 74
     0
 42
0.00000001
 43
0.00000001
 40
0.0
 40
0.0
 40
0.0
 40
0.0
 40
0.1028971753991272
 40
0.1981392094664819
 40
0.2849954400787546
 40
0.3632545487822723
 40
0.4328298563055937
 40
0.4932463181511699
 40
0.571195222618916
 40
0.6472581378745881
 40
0.7212851193676332
 40
0.7935490430338437
 40
0.8641273091011389
 40
0.9330189496823472
 40
1.0
 40
1.0
 40
1.0
 40
1.0
 10
193.6657796110693
 20
283.1684302820418
 30
0.0
 10
193.6713949905817
 20
282.3149782638205
 30
0.0
 10
193.6822079876648
 20
280.671567669195
 30
0.0
 10
193.8957363999621
 20
278.3135644416483
 30
0.0
 10
194.3414514888321
 20
276.1949843915227
 30
0.0
 10
195.0069639564358
 20
274.3582323545183
 30
0.0
 10
195.8529904832272
 20
272.8432441751924
 30
0.0
 10
196.9427286684949
 20
271.4966953417229
 30
0.0
 10
198.3282176889873
 20
270.358092462315
 30
0.0
 10
200.0097640531803
 20
269.4718181666289
 30
0.0
 10
201.7611881438043
 20
268.8775077101208
 30
0.0
 10
203.5251577969591
 20
268.5111352821785
 30
0.0
 10
205.272031560504
 20
268.3168985232966
 30
0.0
 10
206.9834312277248
 20
268.2484231214183
 30
0.0
 10
208.1101408603186
 20
268.2474496372323
 30
0.0
 10
208.6655739947836
 20
268.2469697395219
 30
0.0
  0
SPLINE
  5
89
330
1F
100
AcDbEntity
  8
0
  6
Continuous
 62
     7
370
    25
100
AcDbSpline
210
0.0
220
0.0
230
1.0
 70
     8
 71
     3
 72
    24
 73
    20
 74
     0
 42
0.00000001
 43
0.00000001
 40
0.0
 40
0.0
 40
0.0
 40
0.0
 40
0.1140811677267275
 40
0.2170210365476262
 40
0.3079271169162094
 40
0.3864715464920218
 40
0.4524692032688221
 40
0.5055248812172247
 40
0.5732484683011716
 40
0.6409532401186795
 40
0.7081094836104582
 40
0.7346636905201649
 40
0.7641010295181877
 40
0.796396828792358
 40
0.8315396437616678
 40
0.8695151926562015
 40
0.9102693991320142
 40
0.9537661410204735
 40
0.9999999999999999
 40
0.9999999999999999
 40
0.9999999999999999
 40
0.9999999999999999
 10
239.3674339777325
 20
358.2743814159364
 30
0.0
 10
239.3647780579248
 20
359.1022280519597
 30
0.0
 10
239.3597255985124
 20
360.6770728631786
 30
0.0
 10
239.1779956935359
 20
362.9071731902618
 30
0.0
 10
238.8109095399042
 20
364.853404186214
 30
0.0
 10
238.2933233847482
 20
366.4858691309758
 30
0.0
 10
237.6901379785306
 20
367.7908265095119
 30
0.0
 10
236.9701527989958
 20
368.9421183469827
 30
0.0
 10
236.0848702884334
 20
369.9930943872198
 30
0.0
 10
234.9527812384928
 20
370.9409861915839
 30
0.0
 10
233.9441880060758
 20
371.5447703059356
 30
0.0
 10
233.1371541904512
 20
371.9284593499603
 30
0.0
 10
232.5447156006242
 20
372.1726691837873
 30
0.0
 10
231.8813656470869
 20
372.4056999858751
 30
0.0
 10
231.1470810616848
 20
372.6205418467401
 30
0.0
 10
230.3426626943153
 20
372.8102106292897
 30
0.0
 10
229.4698932434582
 20
372.9684519710142
 30
0.0
 10
228.5312560907251
 20
373.0946618916694
 30
0.0
 10
227.8821978519484
 20
373.1457073893875
 30
0.0
 10
227.5477693872906
 20
373.1720086770219
 30
0.0
  0
SPLINE
  5
8A
330
1F
100
AcDbEntity
  8
0
  6
Continuous
 62
     7
370
    25
100
AcDbSpline
210
0.0
220
0.0
230
1.0
 70
     8
 71
     3
 72
    28
 73
    24
 74
     0
 42
0.00000001
 43
0.00000001
 40
0.0
 40
0.0
 40
0.0
 40
0.0
 40
0.0226375162597436
 40
0.0450098234303892
 40
0.0671170170922659
 40
0.0889612065186703
 40
0.1105466815221082
 40
0.1318742867371686
 40
0.1529378040927309
 40
0.1737331704671617
 40
0.1942580275923813
 40
0.2145128417973004
 40
0.2345016569847759
 40
0.2542304160451824
 40
0.2737057704230224
 40
0.3751262392425996
 40
0.4774387663421424
 40
0.5302440193779736
 40
0.5973264638062189
 40
0.6781751725891064
 40
0.772577019044549
 40
0.8801683896651611
 40
1.0
 40
1.0
 40
1.0
 40
1.0
 10
205.2017737346906
 20
373.1720090464219
 30
0.0
 10
205.0380220823438
 20
373.1600871600514
 30
0.0
 10
204.7124372048337
 20
373.1363830577843
 30
0.0
 10
204.2279862328391
 20
373.0884228477154
 30
0.0
 10
203.7503637090136
 20
373.0311587542892
 30
0.0
 10
203.2798743810768
 20
372.9633597029429
 30
0.0
 10
202.816786567672
 20
372.8848596784169
 30
0.0
 10
202.3614766140084
 20
372.7952875545212
 30
0.0
 10
201.9144281909846
 20
372.6943112420157
 30
0.0
 10
201.4761717691822
 20
372.5817051624639
 30
0.0
 10
201.0471661414489
 20
372.4574860251795
 30
0.0
 10
200.6278277418429
 20
372.3216668378199
 30
0.0
 10
200.2185948831541
 20
372.1741660292118
 30
0.0
 10
199.81982926819
 20
372.0148777534969
 30
0.0
 10
198.8869470021163
 20
371.6030463613305
 30
0.0
 10
197.4792246849746
 20
370.773823656401
 30
0.0
 10
196.1446856402594
 20
369.4459124427597
 30
0.0
 10
195.2373114784289
 20
368.1101071401223
 30
0.0
 10
194.5807588998792
 20
366.8053844536706
 30
0.0
 10
194.0088070284349
 20
365.1379099444393
 30
0.0
 10
193.5969854656944
 20
363.1229828159007
 30
0.0
 10
193.3905730197012
 20
360.79366309093
 30
0.0
 10
193.3850262813973
 20
359.1437423619943
 30
0.0
 10
193.3821036454339
 20
358.2743814159608
 30
0.0
  0
LINE
  5
8B
330
1F
100
AcDbEntity
  8
0
  6
Continuous
 62
     7
370
    25
100
AcDbLine
 10
239.0837580135
 20
283.1684302821
 30
0.0
 11
239.3145548155
 21
327.2469697395
 31
0.0
  0
LINE
  5
8C
330
1F
100
AcDbEntity
  8
0
  6
Continuous
 62
     7
370
    25
100
AcDbLine
 10
193.434982809
 20
327.2469697395
 30
0.0
 11
193.6657796111
 21
283.168430282
 31
0.0
  0
SPLINE
  5
8D
330
1F
100
AcDbEntity
  8
0
  6
Continuous
 62
     7
370
    25
100
AcDbSpline
210
0.0
220
0.0
230
1.0
 70
     8
 71
     3
 72
     8
 73
     4
 74
     0
 42
0.00000001
 43
0.00000001
 40
0.0
 40
0.0
 40
0.0
 40
0.0
 40
1.0
 40
1.0
 40
1.0
 40
1.0
 10
239.3145548155006
 20
327.2469697395219
 30
0.0
 10
239.3687077978333
 20
337.5893330574265
 30
0.0
 10
239.3863343410652
 20
347.9318934233444
 30
0.0
 10
239.367433977729
 20
358.2743814135503
 30
0.0
  0
SPLINE
  5
8E
330
1F
100
AcDbEntity
  8
0
  6
Continuous
 62
     7
370
    25
100
AcDbSpline
210
0.0
220
0.0
230
1.0
 70
     8
 71
     3
 72
     8
 73
     4
 74
     0
 42
0.00000001
 43
0.00000001
 40
0.0
 40
0.0
 40
0.0
 40
0.0
 40
1.0
 40
1.0
 40
1.0
 40
1.0
 10
193.3821036454343
 20
358.2743814159606
 30
0.0
 10
193.363203285328
 20
347.9318934968039
 30
0.0
 10
193.3808299051674
 20
337.5893331297686
 30
0.0
 10
193.4349828090206
 20
327.2469697395219
 30
0.0
  0
SPLINE
  5
8F
330
1F
100
AcDbEntity
  8
0
  6
Continuous
 62
     7
370
    25
100
AcDbSpline
210
0.0
220
0.0
230
1.0
 70
     8
 71
     3
 72
     9
 73
     5
 74
     0
 42
0.00000001
 43
0.00000001
 40
0.0
 40
0.0
 40
0.0
 40
0.0
 40
0.4508663961285953
 40
1.0
 40
1.0
 40
1.0
 40
1.0
 10
239.3671956143694
 20
342.0902495697608
 30
0.0
 10
239.3672676690834
 20
342.1292435405873
 30
0.0
 10
239.3674274829766
 20
342.2157302940055
 30
0.0
 10
239.3674316763665
 20
342.2182012035987
 30
0.0
 10
239.3674339790979
 20
342.2195580630885
 30
0.0
  0
LINE
  5
90
330
1F
100
AcDbEntity
  8
0
  6
Continuous
 62
     7
370
    25
100
AcDbLine
 10
127.3747688123
 20
335.7382197395
 30
0.0
 11
176.4490426723
 21
335.7382197395
 31
0.0
  0
LINE
  5
91
330
1F
100
AcDbEntity
  8
0
  6
Continuous
 62
     7
370
    25
100
AcDbLine
 10
256.3004949522
 20
335.7382197395
 30
0.0
 11
305.3747688122
 21
335.7382197395
 31
0.0
  0
SPLINE
  5
92
330
1F
100
AcDbEntity
  8
0
  6
Continuous
 62
     7
370
    25
100
AcDbSpline
210
0.0
220
0.0
230
1.0
 70
     8
 71
     3
 72
    19
 73
    15
 74
     0
 42
0.00000001
 43
0.00000001
 40
0.04505830868673
 40
0.04505830868673
 40
0.04505830868673
 40
0.04505830868673
 40
0.0481774408319
 40
0.05129657297706
 40
0.05285613904964
 40
0.05441570512222
 40
0.05597527119479
 40
0.05753483726737
 40
0.05909440333995
 40
0.06065396941253
 40
0.06221353548511
 40
0.06377310155769
 40
0.06689223370285
 40
0.07001136584801
 40
0.07001136584801
 40
0.07001136584801
 40
0.07001136584801
 10
305.3747688122477
 20
335.748219739525
 30
0.0
 10
306.4214697601178
 20
335.748219739525
 30
0.0
 10
308.5562211713178
 20
335.7619241979449
 30
0.0
 10
311.2627875548777
 20
336.0646598244149
 30
0.0
 10
313.4338453653577
 20
336.631494507925
 30
0.0
 10
315.0204030340277
 20
337.2450026048049
 30
0.0
 10
316.5400209326577
 20
338.1078698267049
 30
0.0
 10
317.9091994101577
 20
339.2286298298849
 30
0.0
 10
319.0245014647577
 20
340.596302852295
 30
0.0
 10
319.8851497250577
 20
342.117974235195
 30
0.0
 10
320.4979655913577
 20
343.708450637815
 30
0.0
 10
321.0615553685577
 20
345.8806350460549
 30
0.0
 10
321.3621921294577
 20
348.5825632091149
 30
0.0
 10
321.3747688122577
 20
350.7059639650849
 30
0.0
 10
321.3747688122577
 20
351.748219739525
 30
0.0
  0
SPLINE
  5
93
330
1F
100
AcDbEntity
  8
0
  6
Continuous
 62
     7
370
    25
100
AcDbSpline
210
0.0
220
0.0
230
1.0
 70
     8
 71
     3
 72
    15
 73
    11
 74
     0
 42
0.00000001
 43
0.00000001
 40
0.0
 40
0.0
 40
0.0
 40
0.0
 40
0.125
 40
0.2499999999999999
 40
0.3749999999999999
 40
0.4999999999999998
 40
0.6249999999999998
 40
0.7499999999999997
 40
0.8749999999999998
 40
1.0
 40
1.0
 40
1.0
 40
1.0
 10
127.3747688122677
 20
335.7482197395246
 30
0.0
 10
126.2534484687049
 20
335.7482197395231
 30
0.0
 10
123.997327500299
 20
335.7550254949523
 30
0.0
 10
120.5592570329534
 20
336.2008225901436
 30
0.0
 10
117.3599283089317
 20
337.3014300907828
 30
0.0
 10
114.7622542889602
 20
339.1357052161824
 30
0.0
 10
112.9279791635589
 20
341.7333792361923
 30
0.0
 10
111.8273716628581
 20
344.932707960213
 30
0.0
 10
111.3815745676578
 20
348.3707784275639
 30
0.0
 10
111.3747688122577
 20
350.6268993959644
 30
0.0
 10
111.3747688122577
 20
351.748219739525
 30
0.0
  0
LINE
  5
94
330
1F
100
AcDbEntity
  8
0
  6
Continuous
 62
     7
370
    25
100
AcDbLine
 10
305.3747688123
 20
385.7482197395
 30
0.0
 11
127.3747688123
 21
385.7482197395
 31
0.0
  0
LINE
  5
95
330
1F
100
AcDbEntity
  8
0
  6
Continuous
 62
     7
370
    25
100
AcDbLine
 10
111.3747688123
 20
369.7482197395
 30
0.0
 11
111.3747688123
 21
351.7482197395
 31
0.0
  0
LINE
  5
96
330
1F
100
AcDbEntity
  8
0
  6
Continuous
 62
     7
370
    25
100
AcDbLine
 10
321.3747688122
 20
351.7482197395
 30
0.0
 11
321.3747688122
 21
369.7482197395
 31
0.0
  0
SPLINE
  5
97
330
1F
100
AcDbEntity
  8
0
  6
Continuous
 62
     7
370
    25
100
AcDbSpline
210
0.0
220
0.0
230
1.0
 70
     8
 71
     3
 72
    15
 73
    11
 74
     0
 42
0.00000001
 43
0.00000001
 40
0.0
 40
0.0
 40
0.0
 40
0.0
 40
0.1250000000000002
 40
0.2500000000000003
 40
0.3750000000000002
 40
0.5000000000000002
 40
0.6250000000000002
 40
0.7500000000000001
 40
0.875
 40
1.0
 40
1.0
 40
1.0
 40
1.0
 10
111.3747688122577
 20
369.7482197395249
 30
0.0
 10
111.3747688122577
 20
370.8695400830849
 30
0.0
 10
111.3815745676578
 20
373.1256610514849
 30
0.0
 10
111.8273716628577
 20
376.5637315188349
 30
0.0
 10
112.9279791635577
 20
379.7630602428549
 30
0.0
 10
114.7622542889577
 20
382.3607342628649
 30
0.0
 10
117.3599283089277
 20
384.195009388265
 30
0.0
 10
120.5592570329477
 20
385.2956168889049
 30
0.0
 10
123.9973275002977
 20
385.7414139840949
 30
0.0
 10
126.2534484686977
 20
385.7482197395249
 30
0.0
 10
127.3747688122577
 20
385.7482197395249
 30
0.0
  0
SPLINE
  5
98
330
1F
100
AcDbEntity
  8
0
  6
Continuous
 62
     7
370
    25
100
AcDbSpline
210
0.0
220
0.0
230
1.0
 70
     8
 71
     3
 72
    19
 73
    15
 74
     0
 42
0.00000001
 43
0.00000001
 40
0.1076467529817
 40
0.1076467529817
 40
0.1076467529817
 40
0.1076467529817
 40
0.1107658851268
 40
0.113885017272
 40
0.1154445833445
 40
0.1170041494171
 40
0.1185637154897
 40
0.1201232815622
 40
0.1216828476348
 40
0.1232424137074
 40
0.1248019797799
 40
0.1263615458525
 40
0.1294806779976
 40
0.1325998101428
 40
0.1325998101428
 40
0.1325998101428
 40
0.1325998101428
 10
321.3747688122577
 20
369.7482197395249
 30
0.0
 10
321.3747688122577
 20
370.7949206873949
 30
0.0
 10
321.3610643538577
 20
372.929672098565
 30
0.0
 10
321.0583287273577
 20
375.636238482125
 30
0.0
 10
320.4914940438578
 20
377.807296292605
 30
0.0
 10
319.8779859469577
 20
379.3938539612749
 30
0.0
 10
319.0151187250577
 20
380.9134718599849
 30
0.0
 10
317.8943587218577
 20
382.282650337385
 30
0.0
 10
316.5266856994577
 20
383.3979523920449
 30
0.0
 10
315.0050143165677
 20
384.2586006523849
 30
0.0
 10
313.4145379139478
 20
384.871416518605
 30
0.0
 10
311.2423535057077
 20
385.4350062957949
 30
0.0
 10
308.5404253426577
 20
385.735643056765
 30
0.0
 10
306.4170245866778
 20
385.7482197395249
 30
0.0
 10
305.3747688122577
 20
385.7482197395249
 30
0.0
  0
SPLINE
  5
99
330
1F
100
AcDbEntity
  8
0
  6
Continuous
 62
     7
370
    25
100
AcDbSpline
210
0.0
220
0.0
230
1.0
 70
     8
 71
     3
 72
    12
 73
     8
 74
     0
 42
0.00000001
 43
0.00000001
 40
0.0
 40
0.0
 40
0.0
 40
0.0
 40
0.1466947707716924
 40
0.3426890063907344
 40
0.5779410302557271
 40
0.7924817231321246
 40
1.0
 40
1.0
 40
1.0
 40
1.0
 10
193.4265309730092
 20
332.2061744238792
 30
0.0
 10
192.6624939284889
 20
332.5983738602041
 30
0.0
 10
190.8776511951385
 20
333.5145785376727
 30
0.0
 10
187.6829114468806
 20
334.6579551864658
 30
0.0
 10
183.9756227372564
 20
335.4526645780051
 30
0.0
 10
180.1327606355049
 20
335.7390056703609
 30
0.0
 10
177.6632524641393
 20
335.738478794333
 30
0.0
 10
176.4490427987377
 20
335.7382197395249
 30
0.0
  0
SPLINE
  5
9A
330
1F
100
AcDbEntity
  8
0
  6
Continuous
 62
     7
370
    25
100
AcDbSpline
210
0.0
220
0.0
230
1.0
 70
     8
 71
     3
 72
    12
 73
     8
 74
     0
 42
0.00000001
 43
0.00000001
 40
0.0
 40
0.0
 40
0.0
 40
0.0
 40
0.1466947707700598
 40
0.3426890063894767
 40
0.5779410302549195
 40
0.7924817231317278
 40
1.0
 40
1.0
 40
1.0
 40
1.0
 10
239.3230066515364
 20
332.2061744238939
 30
0.0
 10
240.0870436960468
 20
332.5983738602137
 30
0.0
 10
241.8718864293873
 20
333.514578537677
 30
0.0
 10
245.066626177635
 20
334.6579551864656
 30
0.0
 10
248.773914887259
 20
335.4526645780051
 30
0.0
 10
252.6167769890106
 20
335.7390056703608
 30
0.0
 10
255.0862851603762
 20
335.738478794333
 30
0.0
 10
256.3004948257777
 20
335.7382197395249
 30
0.0
  0
SPLINE
  5
9B
330
1F
100
AcDbEntity
  8
0
  6
Continuous
 62
     8
370
    18
100
AcDbSpline
210
0.0
220
0.0
230
1.0
 70
     8
 71
     3
 72
    14
 73
    10
 74
     0
 42
0.00000001
 43
0.00000001
 40
0.0
 40
0.0
 40
0.0
 40
0.0
 40
0.25
 40
0.25
 40
0.5
 40
0.5
 40
0.75
 40
0.75
 40
1.0
 40
1.0
 40
1.0
 40
1.0
 10
227.4933415076402
 20
372.1742586321122
 30
0.0
 10
227.5012366441974
 20
372.2917735575811
 30
0.0
 10
227.5094834709389
 20
372.4185513963254
 30
0.0
 10
227.5247493420874
 20
372.6640548517534
 30
0.0
 10
227.5317132364244
 20
372.7820215341857
 30
0.0
 10
227.5423402483946
 20
372.9768248677473
 30
0.0
 10
227.5459674434384
 20
373.0530033235047
 30
0.0
 10
227.549406086531
 20
373.1503819344294
 30
0.0
 10
227.5492491277284
 20
373.1719092461479
 30
0.0
 10
227.5477693872963
 20
373.1720086770284
 30
0.0
  0
SPLINE
  5
9C
330
1F
100
AcDbEntity
  8
0
  6
Continuous
 62
     8
370
    18
100
AcDbSpline
210
0.0
220
0.0
230
1.0
 70
     8
 71
     3
 72
    19
 73
    15
 74
     0
 42
0.00000001
 43
0.00000001
 40
0.0
 40
0.0
 40
0.0
 40
0.0
 40
0.0476922137278492
 40
0.0956974063227929
 40
0.1440176150463225
 40
0.1926548375747417
 40
0.2416110327767726
 40
0.3618731538923398
 40
0.4791664935777173
 40
0.6016788739929236
 40
0.7271392865139619
 40
0.8188600981750797
 40
0.9098092135751855
 40
1.0
 40
1.0
 40
1.0
 40
1.0
 10
227.4933415076407
 20
372.1742586321121
 30
0.0
 10
227.1403304688977
 20
372.1972695217046
 30
0.0
 10
226.431991765985
 20
372.2434423092321
 30
0.0
 10
225.3654243000373
 20
372.3040334076064
 30
0.0
 10
224.291506199227
 20
372.3585867606683
 30
0.0
 10
223.2101928939179
 20
372.4064570190853
 30
0.0
 10
221.59531728839
 20
372.4677797448741
 30
0.0
 10
219.4706682597262
 20
372.5258416455864
 30
0.0
 10
216.7997022824352
 20
372.5560939166557
 30
0.0
 10
214.0900369534425
 20
372.5395638070962
 30
0.0
 10
211.5707015892121
 20
372.4824258409639
 30
0.0
 10
209.2865159622555
 20
372.3986081851068
 30
0.0
 10
207.264729315441
 20
372.3017930335732
 30
0.0
 10
205.9237958022401
 20
372.216651286029
 30
0.0
 10
205.2561359057703
 20
372.1742586321121
 30
0.0
  0
ARC
  5
9D
330
1F
100
AcDbEntity
  8
0
  6
Continuous
 62
     8
370
    18
100
AcDbCircle
 10
224.9487524559
 20
373.7476667777
 30
0.0
 40
19.75536763609971
100
AcDbArc
 50
181.6697956951
 51
184.5681359952
  0
SPLINE
  5
9E
330
1F
100
AcDbEntity
  8
0
  6
Continuous
 62
     8
370
    18
100
AcDbSpline
210
0.0
220
0.0
230
1.0
 70
     8
 71
     3
 72
    12
 73
     8
 74
     0
 42
0.00000001
 43
0.00000001
 40
0.0
 40
0.0
 40
0.0
 40
0.0
 40
0.2000002768519188
 40
0.4000000149792222
 40
0.5999996146803915
 40
0.7999994762547372
 40
0.9999999999999999
 40
0.9999999999999999
 40
0.9999999999999999
 40
0.9999999999999999
 10
194.3570298116702
 20
358.2725539708661
 30
0.0
 10
194.3540929373681
 20
356.2045224964277
 30
0.0
 10
194.3482191966747
 20
352.0684651180406
 30
0.0
 10
194.3504920366239
 20
345.8643750970934
 30
0.0
 10
194.3610775023789
 20
339.6603001755493
 30
0.0
 10
194.3799756106351
 20
333.4562347092955
 30
0.0
 10
194.3999632823158
 20
329.3202176542562
 30
0.0
 10
194.4099571347002
 20
327.2522057033021
 30
0.0
  0
SPLINE
  5
9F
330
1F
100
AcDbEntity
  8
0
  6
Continuous
 62
     8
370
    18
100
AcDbSpline
210
0.0
220
0.0
230
1.0
 70
     8
 71
     3
 72
    26
 73
    22
 74
     0
 42
0.00000001
 43
0.00000001
 40
0.0
 40
0.0
 40
0.0
 40
0.0
 40
0.0243906972131864
 40
0.0481797030525173
 40
0.0713788073526911
 40
0.0940007222820349
 40
0.1160591579257614
 40
0.1375689018636587
 40
0.158545902096051
 40
0.2189161629455442
 40
0.2759280159571023
 40
0.328037542072635
 40
0.3781436949942169
 40
0.4248865813918429
 40
0.4717092259965426
 40
0.5759510431171978
 40
0.691792728197273
 40
0.755452590539045
 40
0.823966922604629
 40
0.9075970332345958
 40
1.0
 40
1.0
 40
1.0
 40
1.0
 10
205.2561359057703
 20
372.1742586321121
 30
0.0
 10
205.0917719495777
 20
372.1622565171205
 30
0.0
 10
204.7670987131925
 20
372.1385483659657
 30
0.0
 10
204.2871872668498
 20
372.0903723346033
 30
0.0
 10
203.8203033242728
 20
372.0334039045088
 30
0.0
 10
203.3665027007071
 20
371.9667730343318
 30
0.0
 10
202.9257742836235
 20
371.8906982185665
 30
0.0
 10
202.4981027916701
 20
371.8051379001845
 30
0.0
 10
201.8207277982132
 20
371.6497510243107
 30
0.0
 10
200.9215318200226
 20
371.3892123547322
 30
0.0
 10
199.8555999901856
 20
370.9654242965237
 30
0.0
 10
198.9023542148356
 20
370.4621652057228
 30
0.0
 10
198.0708126071721
 20
369.8908916126884
 30
0.0
 10
197.3427176446031
 20
369.2452066725069
 30
0.0
 10
196.45807927749
 20
368.2392789414237
 30
0.0
 10
195.5384254493777
 20
366.6663542478409
 30
0.0
 10
194.9405645313391
 20
364.8327817487357
 30
0.0
 10
194.6184400017289
 20
363.1870760235503
 30
0.0
 10
194.4450536642894
 20
361.7378844715024
 30
0.0
 10
194.362175420058
 20
360.0864876735083
 30
0.0
 10
194.3588010696335
 20
358.8969591477637
 30
0.0
 10
194.3570298116702
 20
358.2725539708661
 30
0.0
  0
SPLINE
  5
A0
330
1F
100
AcDbEntity
  8
0
  6
Continuous
 62
     8
370
    18
100
AcDbSpline
210
0.0
220
0.0
230
1.0
 70
     8
 71
     3
 72
    22
 73
    18
 74
     0
 42
0.00000001
 43
0.00000001
 40
0.0
 40
0.0
 40
0.0
 40
0.0
 40
0.0886419962812289
 40
0.1657310070109539
 40
0.2907517632533916
 40
0.4232756494170238
 40
0.5120771845661989
 40
0.5589571254480821
 40
0.6052138462446195
 40
0.6548180764348134
 40
0.7062169188951839
 40
0.7656081178405195
 40
0.8288778109460191
 40
0.868681589337085
 40
0.9104030540102286
 40
0.9541458712866202
 40
1.0
 40
1.0
 40
1.0
 40
1.0
 10
238.3924476017311
 20
358.2725539708081
 30
0.0
 10
238.3907632985256
 20
358.871519415111
 30
0.0
 10
238.3876142125609
 20
359.991385284717
 30
0.0
 10
238.2979848682906
 20
361.9545982402631
 30
0.0
 10
237.997811702014
 20
364.2014220508952
 30
0.0
 10
237.3033865103394
 20
366.4555272960922
 30
0.0
 10
236.4093551710876
 20
368.0461139289093
 30
0.0
 10
235.6356721353796
 20
369.0048666394817
 30
0.0
 10
234.9410751433585
 20
369.6773440570564
 30
0.0
 10
234.1430087900832
 20
370.2756648183358
 30
0.0
 10
233.2028623577052
 20
370.8190805052868
 30
0.0
 10
232.1215376720463
 20
371.2875015747333
 30
0.0
 10
231.0722674771761
 20
371.6157664123198
 30
0.0
 10
230.1192608471116
 20
371.8382040129143
 30
0.0
 10
229.2857427262272
 20
371.9865449214205
 30
0.0
 10
228.4058056931417
 20
372.1029043151106
 30
0.0
 10
227.8022371756892
 20
372.1501031202919
 30
0.0
 10
227.4933415076407
 20
372.1742586321121
 30
0.0
  0
SPLINE
  5
A1
330
1F
100
AcDbEntity
  8
0
  6
Continuous
 62
     8
370
    18
100
AcDbSpline
210
0.0
220
0.0
230
1.0
 70
     8
 71
     3
 72
    12
 73
     8
 74
     0
 42
0.00000001
 43
0.00000001
 40
0.0
 40
0.0
 40
0.0
 40
0.0
 40
0.200000523455146
 40
0.40000038488564
 40
0.5999999845880146
 40
0.7999997228603767
 40
1.0
 40
1.0
 40
1.0
 40
1.0
 10
238.3395202787009
 20
327.252205703352
 30
0.0
 10
238.3495141310765
 20
329.3202176513494
 30
0.0
 10
238.369501802747
 20
333.4562347019875
 30
0.0
 10
238.3883999110257
 20
339.660300163757
 30
0.0
 10
238.3989853767995
 20
345.8643750852637
 30
0.0
 10
238.4012582167476
 20
352.0684651106032
 30
0.0
 10
238.3953844760409
 20
356.2045224934183
 30
0.0
 10
238.3924476017311
 20
358.2725539708081
 30
0.0
  0
LINE
  5
A2
330
1F
100
AcDbEntity
  8
0
  6
Continuous
 62
     8
370
    18
100
AcDbLine
 10
238.1084606787
 20
283.1736662459
 30
0.0
 11
238.3395202787
 21
327.2522057034
 31
0.0
  0
SPLINE
  5
A3
330
1F
100
AcDbEntity
  8
0
  6
Continuous
 62
     8
370
    18
100
AcDbSpline
210
0.0
220
0.0
230
1.0
 70
     8
 71
     3
 72
    24
 73
    20
 74
     0
 42
0.00000001
 43
0.00000001
 40
0.0
 40
0.0
 40
0.0
 40
0.0
 40
0.0460638323185945
 40
0.0886605609533239
 40
0.1637019686016891
 40
0.2274370789011286
 40
0.2864064899764233
 40
0.3609862554381915
 40
0.4297238305444847
 40
0.4945535715180524
 40
0.5594176812407425
 40
0.6278649073292278
 40
0.7019481578970735
 40
0.7623744768857159
 40
0.827697328819236
 40
0.8666088264518218
 40
0.9087510660011353
 40
0.9536143919573099
 40
1.0
 40
1.0
 40
1.0
 40
1.0
 10
224.0927116368378
 20
269.2469697395221
 30
0.0
 10
224.4509155604917
 20
269.2471965371524
 30
0.0
 10
225.1403623391961
 20
269.247633061951
 30
0.0
 10
226.4131555260821
 20
269.2691269882551
 30
0.0
 10
227.8223472876179
 20
269.3485978566544
 30
0.0
 10
229.348189954685
 20
269.5513654523435
 30
0.0
 10
230.8483855607416
 20
269.8799673338003
 30
0.0
 10
232.3426048286314
 20
270.3883850058056
 30
0.0
 10
233.7823545262857
 20
271.1437874934439
 30
0.0
 10
235.0050282243145
 20
272.1006242428281
 30
0.0
 10
236.0096031957613
 20
273.2820178501396
 30
0.0
 10
236.8116996564503
 20
274.6903612751833
 30
0.0
 10
237.3651296485895
 20
276.1746635819736
 30
0.0
 10
237.732994287725
 20
277.6865853162176
 30
0.0
 10
237.9239397800421
 20
278.954360962062
 30
0.0
 10
238.026806449585
 20
280.0882084605844
 30
0.0
 10
238.0785228678895
 20
281.0662423429368
 30
0.0
 10
238.1021821197469
 20
282.1033724615209
 30
0.0
 10
238.106344678119
 20
282.8129557204767
 30
0.0
 10
238.1084606787411
 20
283.173666245862
 30
0.0
  0
LINE
  5
A4
330
1F
100
AcDbEntity
  8
0
  6
Continuous
 62
     8
370
    18
100
AcDbLine
 10
208.6567657766
 20
269.2469697395
 30
0.0
 11
224.0927116368
 21
269.2469697395
 31
0.0
  0
SPLINE
  5
A5
330
1F
100
AcDbEntity
  8
0
  6
Continuous
 62
     8
370
    18
100
AcDbSpline
210
0.0
220
0.0
230
1.0
 70
     8
 71
     3
 72
    24
 73
    20
 74
     0
 42
0.00000001
 43
0.00000001
 40
0.0
 40
0.0
 40
0.0
 40
0.0
 40
0.04589161451034
 40
0.0883201197377102
 40
0.1630610571369302
 40
0.2266838241811024
 40
0.2855527436805716
 40
0.3600023721855535
 40
0.4286401912605515
 40
0.4933936297349387
 40
0.5582762097046271
 40
0.6267527248789944
 40
0.700878635801145
 40
0.7613831435622127
 40
0.8267825670715097
 40
0.8657955231319965
 40
0.9080147718341369
 40
0.9531064038599609
 40
1.0
 40
1.0
 40
1.0
 40
1.0
 10
194.6410167346601
 20
283.1736662458721
 30
0.0
 10
194.6431132830575
 20
282.8167925349337
 30
0.0
 10
194.6471481684604
 20
282.1299757990739
 30
0.0
 10
194.675152979858
 20
280.8622224843189
 30
0.0
 10
194.7615024609547
 20
279.4578698024649
 30
0.0
 10
194.9713364639022
 20
277.9368746718575
 30
0.0
 10
195.3068255431359
 20
276.4407793878693
 30
0.0
 10
195.8217916574624
 20
274.9513611603978
 30
0.0
 10
196.5829789403384
 20
273.5172335101696
 30
0.0
 10
197.5444978685185
 20
272.2997724070294
 30
0.0
 10
198.7300457957387
 20
271.3004949942542
 30
0.0
 10
200.1425044493842
 20
270.5044628045893
 30
0.0
 10
201.6302809088137
 20
269.9575117531185
 30
0.0
 10
203.145229395759
 20
269.5963232571225
 30
0.0
 10
204.4157418777649
 20
269.4110379201219
 30
0.0
 10
205.5519507949773
 20
269.3133699027997
 30
0.0
 10
206.5333177532908
 20
269.2662142113114
 30
0.0
 10
207.5768214991802
 20
269.2476514269013
 30
0.0
 10
208.292113562306
 20
269.247199916965
 30
0.0
 10
208.6567657765714
 20
269.2469697395221
 30
0.0
  0
LINE
  5
A6
330
1F
100
AcDbEntity
  8
0
  6
Continuous
 62
     8
370
    18
100
AcDbLine
 10
194.4099571347
 20
327.2522057033
 30
0.0
 11
194.6410167347
 21
283.1736662459
 31
0.0
  0
ARC
  5
A7
330
1F
100
AcDbEntity
  8
0
  6
Continuous
 62
     8
370
    18
100
AcDbCircle
 10
237.045956706
 20
268.9969891358
 30
0.0
 40
28.39029150832705
100
AcDbArc
 50
179.4954958937
 51
181.5138254612
  0
ARC
  5
A8
330
1F
100
AcDbEntity
  8
0
  6
Continuous
 62
     8
370
    18
100
AcDbCircle
 10
195.5082108547
 20
268.9969888973
 30
0.0
 40
28.58559336450134
100
AcDbArc
 50
358.4965201244
 51
0.5010576343
  0
LWPOLYLINE
  5
A9
330
1F
100
AcDbEntity
  8
0
  6
Continuous
 62
     8
370
    18
100
AcDbPolyline
 90
        9
 70
   128
 43
0.0
 10
238.1084606787
 20
283.1736662459
 10
238.3000020894
 20
283.1726603084
 10
238.48349227
 20
283.1716918265
 10
238.6520990552
 20
283.1707968611
 10
238.7995444551
 20
283.1700087358
 10
238.920338414
 20
283.1693567961
 10
239.0099832288
 20
283.1688653166
 10
239.0651410196
 20
283.1685525973
 10
239.0837580135
 20
283.1684302821
  0
LWPOLYLINE
  5
AA
330
1F
100
AcDbEntity
  8
0
  6
Continuous
 62
     8
370
    18
100
AcDbPolyline
 90
        9
 70
   128
 43
0.0
 10
194.6410167317
 20
283.1736668424
 10
194.4494839967
 20
283.1726609419
 10
194.2660037922
 20
283.1716924927
 10
194.0974073873
 20
283.1707975518
 10
193.9499719031
 20
283.1700094393
 10
193.8291866048
 20
283.1693574979
 10
193.7395485273
 20
283.1688660005
 10
193.6843950434
 20
283.1685532463
 10
193.6657796111
 20
283.168430282
  0
LWPOLYLINE
  5
AB
330
1F
100
AcDbEntity
  8
0
  6
Continuous
 62
     8
370
    18
100
AcDbPolyline
 90
        9
 70
   128
 43
0.0
 10
238.3924476025
 20
358.2725535141
 10
238.5839380175
 20
358.2729045229
 10
238.7673709718
 20
358.2732424683
 10
238.9359197323
 20
358.2735547733
 10
239.0833115039
 20
358.2738298149
 10
239.2040608802
 20
358.274057357
 10
239.293673992
 20
358.2742289314
 10
239.3488157526
 20
358.2743381526
 10
239.3674339777
 20
358.2743814159
  0
SPLINE
  5
AC
330
1F
100
AcDbEntity
  8
0
  6
Continuous
 62
     8
370
    18
100
AcDbSpline
210
0.0
220
0.0
230
1.0
 70
     8
 71
     3
 72
    14
 73
    10
 74
     0
 42
0.00000001
 43
0.00000001
 40
0.0
 40
0.0
 40
0.0
 40
0.0
 40
0.25
 40
0.25
 40
0.5
 40
0.5
 40
0.75
 40
0.75
 40
1.0
 40
1.0
 40
1.0
 40
1.0
 10
194.3570298116806
 20
358.2725539708661
 30
0.0
 10
194.2407036551233
 20
358.2727666845999
 30
0.0
 10
194.1160227119632
 20
358.2729956352321
 30
0.0
 10
193.8757574927333
 20
358.2734393181672
 30
0.0
 10
193.7608852785783
 20
358.2736527621129
 30
0.0
 10
193.5714954641453
 20
358.27400776274
 30
0.0
 10
193.4975762355614
 20
358.2741481978109
 30
0.0
 10
193.4030298816497
 20
358.274332100602
 30
0.0
 10
193.3821036356882
 20
358.2743760826446
 30
0.0
 10
193.3821036454343
 20
358.2743814159606
 30
0.0
  0
LWPOLYLINE
  5
AD
330
1F
100
AcDbEntity
  8
0
  6
Continuous
 62
     8
370
    18
100
AcDbPolyline
 90
        9
 70
   128
 43
0.0
 10
238.3395202787
 20
327.2522057034
 10
238.5310235453
 20
327.2511999278
 10
238.7144699418
 20
327.2502315891
 10
238.8830312427
 20
327.2493367307
 10
239.0304332738
 20
327.2485486609
 10
239.1511894496
 20
327.2478967133
 10
239.2408049942
 20
327.2474051545
 10
239.2959442456
 20
327.2470922813
 10
239.3145548155
 20
327.2469697395
  0
SPLINE
  5
AE
330
1F
100
AcDbEntity
  8
0
  6
Continuous
 62
     8
370
    18
100
AcDbSpline
210
0.0
220
0.0
230
1.0
 70
     8
 71
     3
 72
    14
 73
    10
 74
     0
 42
0.00000001
 43
0.00000001
 40
0.0
 40
0.0
 40
0.0
 40
0.0
 40
0.25
 40
0.25
 40
0.5
 40
0.5
 40
0.75
 40
0.75
 40
1.0
 40
1.0
 40
1.0
 40
1.0
 10
194.4099571347002
 20
327.2522057033539
 30
0.0
 10
194.2935149640412
 20
327.2515956263404
 30
0.0
 10
194.1687007177842
 20
327.2509389375071
 30
0.0
 10
193.9282167811704
 20
327.2496665518112
 30
0.0
 10
193.8132630545217
 20
327.2490545668379
 30
0.0
 10
193.623838412149
 20
327.2480372493002
 30
0.0
 10
193.5499670724854
 20
327.2476351370763
 30
0.0
 10
193.455616992043
 20
327.247109284503
 30
0.0
 10
193.4349827300058
 20
327.2469848302739
 30
0.0
 10
193.4349828098931
 20
327.2469695728889
 30
0.0
  0
SPLINE
  5
AF
330
1F
100
AcDbEntity
  8
0
  6
Continuous
 62
     8
370
    18
100
AcDbSpline
210
0.0
220
0.0
230
1.0
 70
    24
 71
     3
 72
    14
 73
    10
 74
     0
 42
0.00000001
 43
0.00000001
 40
0.0
 40
0.0
 40
0.0
 40
0.0
 40
0.25
 40
0.25
 40
0.5
 40
0.5
 40
0.75
 40
0.75
 40
1.0
 40
1.0
 40
1.0
 40
1.0
 10
176.4490426723177
 20
335.7382197395249
 30
0.0
 10
176.4490426723177
 20
335.7382197395249
 30
0.0
 10
176.4490426723177
 20
335.7658258847609
 30
0.0
 10
176.4490426723177
 20
335.8720894905341
 30
0.0
 10
176.4490426723177
 20
335.9507051408801
 30
0.0
 10
176.4490426723177
 20
336.1470546817295
 30
0.0
 10
176.4490426723177
 20
336.2647113170731
 30
0.0
 10
176.4490426723177
 20
336.5212543553174
 30
0.0
 10
176.4490426723177
 20
336.6600398194875
 30
0.0
 10
176.4490426723177
 20
336.798879911305
 30
0.0
  0
SPLINE
  5
B0
330
1F
100
AcDbEntity
  8
0
  6
Continuous
 62
     8
370
    18
100
AcDbSpline
210
0.0
220
0.0
230
1.0
 70
    24
 71
     3
 72
    14
 73
    10
 74
     0
 42
0.00000001
 43
0.00000001
 40
0.0
 40
0.0
 40
0.0
 40
0.0
 40
0.25
 40
0.25
 40
0.5
 40
0.5
 40
0.75
 40
0.75
 40
1.0
 40
1.0
 40
1.0
 40
1.0
 10
127.3747688122677
 20
336.798879911305
 30
0.0
 10
127.3747688122677
 20
336.6600398194875
 30
0.0
 10
127.3747688122677
 20
336.5212543553174
 30
0.0
 10
127.3747688122677
 20
336.2647113170731
 30
0.0
 10
127.3747688122677
 20
336.1470546817295
 30
0.0
 10
127.3747688122677
 20
335.9507051408801
 30
0.0
 10
127.3747688122677
 20
335.8720894905341
 30
0.0
 10
127.3747688122677
 20
335.7658258847609
 30
0.0
 10
127.3747688122677
 20
335.7382197395249
 30
0.0
 10
127.3747688122677
 20
335.7382197395249
 30
0.0
  0
LINE
  5
B1
330
1F
100
AcDbEntity
  8
0
  6
Continuous
 62
     8
370
    18
100
AcDbLine
 10
127.3747688123
 20
336.7988799113
 30
0.0
 11
176.4490426723
 21
336.7988799113
 31
0.0
  0
LINE
  5
B2
330
1F
100
AcDbEntity
  8
0
  6
Continuous
 62
     8
370
    18
100
AcDbLine
 10
320.3141086405
 20
351.7482197395
 30
0.0
 11
320.3141086405
 21
369.7482197395
 31
0.0
  0
SPLINE
  5
B3
330
1F
100
AcDbEntity
  8
0
  6
Continuous
 62
     8
370
    18
100
AcDbSpline
210
0.0
220
0.0
230
1.0
 70
     8
 71
     3
 72
    22
 73
    18
 74
     0
 42
0.00000001
 43
0.00000001
 40
0.0
 40
0.0
 40
0.0
 40
0.0
 40
0.0627073258443499
 40
0.1252287739693831
 40
0.1875187378708193
 40
0.2498627110180529
 40
0.3125716099820491
 40
0.3751957346120943
 40
0.4378972203645921
 40
0.500384292705004
 40
0.5627980446003025
 40
0.6255231797183641
 40
0.6858823139518107
 40
0.7509871069110424
 40
0.8753161516508947
 40
0.9375771395238215
 40
1.0
 40
1.0
 40
1.0
 40
1.0
 10
305.3747688122477
 20
336.798879911305
 30
0.0
 10
305.8967776873504
 20
336.8023230073566
 30
0.0
 10
306.9392480933201
 20
336.8091989933982
 30
0.0
 10
308.4996191890643
 20
336.8655434064004
 30
0.0
 10
310.0528621741909
 20
336.99853569198
 30
0.0
 10
311.5944374839513
 20
337.2471527778737
 30
0.0
 10
313.108401251519
 20
337.6437038214466
 30
0.0
 10
314.5722474140141
 20
338.2105224905857
 30
0.0
 10
315.9369596632217
 20
338.9863610338712
 30
0.0
 10
317.1527001046753
 20
339.9815847655405
 30
0.0
 10
318.1460973592017
 20
341.1991433405189
 30
0.0
 10
318.909375001545
 20
342.5486625376452
 30
0.0
 10
319.4800968914959
 20
344.011990652444
 30
0.0
 10
320.0070180338313
 20
346.0277257815249
 30
0.0
 10
320.242397553117
 20
348.1189477239026
 30
0.0
 10
320.3108611724062
 20
350.1904899403982
 30
0.0
 10
320.3130252146076
 20
351.2285272575131
 30
0.0
 10
320.3141086404577
 20
351.748219739525
 30
0.0
  0
LINE
  5
B4
330
1F
100
AcDbEntity
  8
0
  6
Continuous
 62
     8
370
    18
100
AcDbLine
 10
256.3004949522
 20
336.7988799113
 30
0.0
 11
305.3747688122
 21
336.7988799113
 31
0.0
  0
SPLINE
  5
B5
330
1F
100
AcDbEntity
  8
0
  6
Continuous
 62
     8
370
    18
100
AcDbSpline
210
0.0
220
0.0
230
1.0
 70
     8
 71
     3
 72
    15
 73
    11
 74
     0
 42
0.00000001
 43
0.00000001
 40
0.0
 40
0.0
 40
0.0
 40
0.0
 40
0.0566621566973049
 40
0.1930166732106486
 40
0.3232771011514153
 40
0.4553095130224376
 40
0.5911667670289573
 40
0.7241952584470766
 40
0.8621718486268353
 40
1.0
 40
1.0
 40
1.0
 40
1.0
 10
239.3250612393303
 20
333.4117256652115
 30
0.0
 10
239.6185701182458
 20
333.5641972752512
 30
0.0
 10
240.6183927629909
 20
334.0835838401879
 30
0.0
 10
242.3642909058386
 20
334.8069550421212
 30
0.0
 10
244.5653792359179
 20
335.565480720537
 30
0.0
 10
246.8236453249582
 20
336.1258815274304
 30
0.0
 10
249.1339759384877
 20
336.5101384684831
 30
0.0
 10
251.5008129851689
 20
336.7228089362983
 30
0.0
 10
253.8864496865372
 20
336.7972943028038
 30
0.0
 10
255.496101969942
 20
336.7983515648116
 30
0.0
 10
256.3004949521877
 20
336.798879911305
 30
0.0
  0
SPLINE
  5
B6
330
1F
100
AcDbEntity
  8
0
  6
Continuous
 62
     8
370
    18
100
AcDbSpline
210
0.0
220
0.0
230
1.0
 70
     8
 71
     3
 72
    15
 73
    11
 74
     0
 42
0.00000001
 43
0.00000001
 40
0.0
 40
0.0
 40
0.0
 40
0.0
 40
0.1377989887610863
 40
0.2757756266223061
 40
0.4088132021731551
 40
0.5446604325338937
 40
0.6767227396824276
 40
0.8069532572635305
 40
0.9433177220850153
 40
0.9999999999999999
 40
0.9999999999999999
 40
0.9999999999999999
 40
0.9999999999999999
 10
176.4490426723277
 20
336.798879911305
 30
0.0
 10
177.2532657493711
 20
336.7983526983872
 30
0.0
 10
178.862748699934
 20
336.7972975928742
 30
0.0
 10
181.2482674382111
 20
336.7228161268505
 30
0.0
 10
183.6151093271419
 20
336.5102368594761
 30
0.0
 10
185.9256019390596
 20
336.1259174824269
 30
0.0
 10
188.1838222192259
 20
335.5655792012972
 30
0.0
 10
190.3849851581897
 20
334.8070853750323
 30
0.0
 10
192.1308696182473
 20
334.0836800747048
 30
0.0
 10
193.1308598282139
 20
333.5642354388286
 30
0.0
 10
193.4244764010196
 20
333.4117163919138
 30
0.0
  0
SPLINE
  5
B7
330
1F
100
AcDbEntity
  8
0
  6
Continuous
 62
     8
370
    18
100
AcDbSpline
210
0.0
220
0.0
230
1.0
 70
     8
 71
     3
 72
    22
 73
    18
 74
     0
 42
0.00000001
 43
0.00000001
 40
0.0
 40
0.0
 40
0.0
 40
0.0
 40
0.0624228621501874
 40
0.124683851692782
 40
0.2490128997667962
 40
0.3140953102363085
 40
0.3744768035068306
 40
0.4372019403070073
 40
0.4996156938760703
 40
0.5621027678922131
 40
0.6248042553261927
 40
0.6874283816356429
 40
0.7501372822813188
 40
0.8124812571004457
 40
0.8747712226723269
 40
0.9372926724740127
 40
1.0
 40
1.0
 40
1.0
 40
1.0
 10
112.4354289840577
 20
351.748219739525
 30
0.0
 10
112.4365123704411
 20
351.2285272380271
 30
0.0
 10
112.438676333811
 20
350.1904898819906
 30
0.0
 10
112.5071407390667
 20
348.1189480535521
 30
0.0
 10
112.7424944044905
 20
346.0279096625019
 30
0.0
 10
113.2693925097354
 20
344.012173463661
 30
0.0
 10
113.8400688132497
 20
342.5488243104202
 30
0.0
 10
114.6034407565807
 20
341.1991435787595
 30
0.0
 10
115.5968373883253
 20
339.9815847017622
 30
0.0
 10
116.8125779966867
 20
338.986361051035
 30
0.0
 10
118.1772902010175
 20
338.2105224859865
 30
0.0
 10
119.6411363755407
 20
337.6437038226805
 30
0.0
 10
121.1551001398864
 20
337.247152777545
 30
0.0
 10
122.6966754505054
 20
336.9985356920677
 30
0.0
 10
124.2499184354027
 20
336.8655434063769
 30
0.0
 10
125.8102895312076
 20
336.809198993404
 30
0.0
 10
126.8527599371692
 20
336.8023230073586
 30
0.0
 10
127.3747688122677
 20
336.798879911305
 30
0.0
  0
LINE
  5
B8
330
1F
100
AcDbEntity
  8
0
  6
Continuous
 62
     8
370
    18
100
AcDbLine
 10
112.4354289841
 20
369.7482197395
 30
0.0
 11
112.4354289841
 21
351.7482197395
 31
0.0
  0
SPLINE
  5
B9
330
1F
100
AcDbEntity
  8
0
  6
Continuous
 62
     8
370
    18
100
AcDbSpline
210
0.0
220
0.0
230
1.0
 70
     8
 71
     3
 72
    21
 73
    17
 74
     0
 42
0.00000001
 43
0.00000001
 40
0.0
 40
0.0
 40
0.0
 40
0.0
 40
0.0624307962999653
 40
0.1246996993545116
 40
0.2490445499948644
 40
0.3141352278411723
 40
0.3745244004885828
 40
0.4372575098282746
 40
0.4996791963576405
 40
0.5710971359335889
 40
0.6427247273076544
 40
0.6947806015882168
 40
0.7501984823320612
 40
0.8747632700128402
 40
0.9372871262238285
 40
1.0
 40
1.0
 40
1.0
 40
1.0
 10
127.3747688122577
 20
384.6875595677449
 30
0.0
 10
126.8550763236242
 20
384.6864761842222
 30
0.0
 10
125.8170389938099
 20
384.684312226567
 30
0.0
 10
123.7454969040023
 20
384.6158477649897
 30
0.0
 10
121.6544601892787
 20
384.3804944560887
 30
0.0
 10
119.6387201054019
 20
383.8535955226019
 30
0.0
 10
118.1753822145847
 20
383.2829215848054
 30
0.0
 10
116.8256583267002
 20
382.5195406867098
 30
0.0
 10
115.5503727369626
 20
381.4789421855289
 30
0.0
 10
114.4771734963337
 20
380.1300472458803
 30
0.0
 10
113.7205586529602
 20
378.6840621058798
 30
0.0
 10
113.2145056760277
 20
377.2793075388534
 30
0.0
 10
112.7357593089963
 20
375.4054140902766
 30
0.0
 10
112.5085523258882
 20
373.3905308353958
 30
0.0
 10
112.4389077068451
 20
371.3127783966374
 30
0.0
 10
112.4365897244834
 20
370.2702637748104
 30
0.0
 10
112.4354289840577
 20
369.7482197395249
 30
0.0
  0
LINE
  5
BA
330
1F
100
AcDbEntity
  8
0
  6
Continuous
 62
     8
370
    18
100
AcDbLine
 10
305.3747688123
 20
384.6875595677
 30
0.0
 11
127.3747688123
 21
384.6875595677
 31
0.0
  0
SPLINE
  5
BB
330
1F
100
AcDbEntity
  8
0
  6
Continuous
 62
     8
370
    18
100
AcDbSpline
210
0.0
220
0.0
230
1.0
 70
     8
 71
     3
 72
    22
 73
    18
 74
     0
 42
0.00000001
 43
0.00000001
 40
0.0
 40
0.0
 40
0.0
 40
0.0
 40
0.0627094284647047
 40
0.1252298497484479
 40
0.2497877941055914
 40
0.3013507724217721
 40
0.3501045049480179
 40
0.3883191566238193
 40
0.4253668675343651
 40
0.5003482281319592
 40
0.5627664853470643
 40
0.6254961482635915
 40
0.6858596442408347
 40
0.7509691319812934
 40
0.8753071513808834
 40
0.937572633514767
 40
1.0
 40
1.0
 40
1.0
 40
1.0
 10
320.3141086404577
 20
369.7482197395249
 30
0.0
 10
320.3129487411912
 20
370.2702648767728
 30
0.0
 10
320.3106324386123
 20
371.3127816992034
 30
0.0
 10
320.2409710970996
 20
373.3905122306516
 30
0.0
 10
320.0174719507837
 20
375.3735197050324
 30
0.0
 10
319.5587018507352
 20
377.1905173622894
 30
0.0
 10
319.1784923116733
 20
378.2809866279562
 30
0.0
 10
318.7492180591712
 20
379.2214041909003
 30
0.0
 10
318.1279244529487
 20
380.3080039557641
 30
0.0
 10
317.2222345807261
 20
381.4602879702676
 30
0.0
 10
315.9238981801303
 20
382.5194836413775
 30
0.0
 10
314.5743124093098
 20
383.2828425168472
 30
0.0
 10
313.1110016756623
 20
383.8535431488407
 30
0.0
 10
311.0952605458137
 20
384.3804716465526
 30
0.0
 10
309.0040411710543
 20
384.6158480595926
 30
0.0
 10
306.9324985508783
 20
384.684312174369
 30
0.0
 10
305.8944612742591
 20
384.6864761668078
 30
0.0
 10
305.3747688122577
 20
384.6875595677449
 30
0.0
  0
SPLINE
  5
BC
330
1F
100
AcDbEntity
  8
0
  6
Continuous
 62
     8
370
    18
100
AcDbSpline
210
0.0
220
0.0
230
1.0
 70
    24
 71
     3
 72
    14
 73
    10
 74
     0
 42
0.00000001
 43
0.00000001
 40
0.0
 40
0.0
 40
0.0
 40
0.0
 40
0.25
 40
0.25
 40
0.5
 40
0.5
 40
0.75
 40
0.75
 40
1.0
 40
1.0
 40
1.0
 40
1.0
 10
256.3004949521877
 20
336.798879911305
 30
0.0
 10
256.3004949521877
 20
336.6600398194875
 30
0.0
 10
256.3004949521877
 20
336.5212543553174
 30
0.0
 10
256.3004949521877
 20
336.2647113170731
 30
0.0
 10
256.3004949521878
 20
336.1470546817295
 30
0.0
 10
256.3004949521878
 20
335.9507051408801
 30
0.0
 10
256.3004949521878
 20
335.8720894905341
 30
0.0
 10
256.3004949521878
 20
335.7658258847609
 30
0.0
 10
256.3004949521878
 20
335.7382197395249
 30
0.0
 10
256.3004949521877
 20
335.7382197395249
 30
0.0
  0
SPLINE
  5
BD
330
1F
100
AcDbEntity
  8
0
  6
Continuous
 62
     8
370
    18
100
AcDbSpline
210
0.0
220
0.0
230
1.0
 70
    24
 71
     3
 72
    11
 73
     7
 74
     0
 42
0.00000001
 43
0.00000001
 40
0.0
 40
0.0
 40
0.0
 40
0.0
 40
0.2433476489223143
 40
0.4933476489223143
 40
0.7433476489223143
 40
0.9933476489223143
 40
0.9933476489223143
 40
0.9933476489223143
 40
0.9933476489223143
 10
305.3747688122477
 20
336.7988803763764
 30
0.0
 10
305.3747688122477
 20
336.6766975819687
 30
0.0
 10
305.3747688122477
 20
336.4104929986738
 30
0.0
 10
305.3747688122477
 20
336.0364787983349
 30
0.0
 10
305.3747688122477
 20
335.793524155845
 30
0.0
 10
305.3747688122477
 20
335.748219739525
 30
0.0
 10
305.3747688122477
 20
335.748219739525
 30
0.0
  0
SPLINE
  5
BE
330
1F
100
AcDbEntity
  8
0
  6
Continuous
 62
     8
370
    18
100
AcDbSpline
210
0.0
220
0.0
230
1.0
 70
    24
 71
     3
 72
    14
 73
    10
 74
     0
 42
0.00000001
 43
0.00000001
 40
0.0
 40
0.0
 40
0.0
 40
0.0
 40
0.25
 40
0.25
 40
0.5
 40
0.5
 40
0.75
 40
0.75
 40
1.0
 40
1.0
 40
1.0
 40
1.0
 10
320.3141086404577
 20
351.748219739525
 30
0.0
 10
320.4529487322752
 20
351.748219739525
 30
0.0
 10
320.5917341964453
 20
351.748219739525
 30
0.0
 10
320.8482772346895
 20
351.748219739525
 30
0.0
 10
320.9659338700332
 20
351.748219739525
 30
0.0
 10
321.1622834108825
 20
351.748219739525
 30
0.0
 10
321.2408990612286
 20
351.748219739525
 30
0.0
 10
321.3471626670018
 20
351.748219739525
 30
0.0
 10
321.3747688122377
 20
351.748219739525
 30
0.0
 10
321.3747688122377
 20
351.748219739525
 30
0.0
  0
SPLINE
  5
BF
330
1F
100
AcDbEntity
  8
0
  6
Continuous
 62
     8
370
    18
100
AcDbSpline
210
0.0
220
0.0
230
1.0
 70
    24
 71
     3
 72
    14
 73
    10
 74
     0
 42
0.00000001
 43
0.00000001
 40
0.0
 40
0.0
 40
0.0
 40
0.0
 40
0.25
 40
0.25
 40
0.5
 40
0.5
 40
0.75
 40
0.75
 40
1.0
 40
1.0
 40
1.0
 40
1.0
 10
111.3747688122777
 20
351.748219739525
 30
0.0
 10
111.3747688122778
 20
351.748219739525
 30
0.0
 10
111.4023749575136
 20
351.748219739525
 30
0.0
 10
111.5086385632869
 20
351.748219739525
 30
0.0
 10
111.5872542136329
 20
351.748219739525
 30
0.0
 10
111.7836037544823
 20
351.748219739525
 30
0.0
 10
111.9012603898259
 20
351.748219739525
 30
0.0
 10
112.1578034280702
 20
351.748219739525
 30
0.0
 10
112.2965888922402
 20
351.748219739525
 30
0.0
 10
112.4354289840577
 20
351.748219739525
 30
0.0
  0
SPLINE
  5
C0
330
1F
100
AcDbEntity
  8
0
  6
Continuous
 62
     8
370
    18
100
AcDbSpline
210
0.0
220
0.0
230
1.0
 70
    24
 71
     3
 72
    14
 73
    10
 74
     0
 42
0.00000001
 43
0.00000001
 40
0.0
 40
0.0
 40
0.0
 40
0.0
 40
0.25
 40
0.25
 40
0.5
 40
0.5
 40
0.75
 40
0.75
 40
1.0
 40
1.0
 40
1.0
 40
1.0
 10
127.3747688122577
 20
385.7482197395249
 30
0.0
 10
127.3747688122577
 20
385.7482197395249
 30
0.0
 10
127.3747688122577
 20
385.720613594289
 30
0.0
 10
127.3747688122577
 20
385.6143499885158
 30
0.0
 10
127.3747688122577
 20
385.5357343381698
 30
0.0
 10
127.3747688122577
 20
385.3393847973204
 30
0.0
 10
127.3747688122577
 20
385.2217281619768
 30
0.0
 10
127.3747688122577
 20
384.9651851237325
 30
0.0
 10
127.3747688122577
 20
384.8263996595625
 30
0.0
 10
127.3747688122577
 20
384.6875595677449
 30
0.0
  0
SPLINE
  5
C1
330
1F
100
AcDbEntity
  8
0
  6
Continuous
 62
     8
370
    18
100
AcDbSpline
210
0.0
220
0.0
230
1.0
 70
    24
 71
     3
 72
    14
 73
    10
 74
     0
 42
0.00000001
 43
0.00000001
 40
0.0
 40
0.0
 40
0.0
 40
0.0
 40
0.25
 40
0.25
 40
0.5
 40
0.5
 40
0.75
 40
0.75
 40
1.0
 40
1.0
 40
1.0
 40
1.0
 10
305.3747688122577
 20
384.6875595677449
 30
0.0
 10
305.3747688122577
 20
384.8263996595625
 30
0.0
 10
305.3747688122577
 20
384.9651851237325
 30
0.0
 10
305.3747688122577
 20
385.2217281619768
 30
0.0
 10
305.3747688122577
 20
385.3393847973204
 30
0.0
 10
305.3747688122577
 20
385.5357343381698
 30
0.0
 10
305.3747688122577
 20
385.6143499885158
 30
0.0
 10
305.3747688122577
 20
385.720613594289
 30
0.0
 10
305.3747688122577
 20
385.7482197395249
 30
0.0
 10
305.3747688122577
 20
385.7482197395249
 30
0.0
  0
SPLINE
  5
C2
330
1F
100
AcDbEntity
  8
0
  6
Continuous
 62
     8
370
    18
100
AcDbSpline
210
0.0
220
0.0
230
1.0
 70
    24
 71
     3
 72
    14
 73
    10
 74
     0
 42
0.00000001
 43
0.00000001
 40
0.0
 40
0.0
 40
0.0
 40
0.0
 40
0.25
 40
0.25
 40
0.5
 40
0.5
 40
0.75
 40
0.75
 40
1.0
 40
1.0
 40
1.0
 40
1.0
 10
112.4354289840577
 20
369.7482197395249
 30
0.0
 10
112.2965888922403
 20
369.7482197395249
 30
0.0
 10
112.1578034280702
 20
369.7482197395249
 30
0.0
 10
111.9012603898259
 20
369.7482197395249
 30
0.0
 10
111.7836037544823
 20
369.7482197395249
 30
0.0
 10
111.5872542136329
 20
369.7482197395249
 30
0.0
 10
111.5086385632869
 20
369.7482197395249
 30
0.0
 10
111.4023749575137
 20
369.7482197395249
 30
0.0
 10
111.3747688122777
 20
369.7482197395249
 30
0.0
 10
111.3747688122777
 20
369.7482197395249
 30
0.0
  0
SPLINE
  5
C3
330
1F
100
AcDbEntity
  8
0
  6
Continuous
 62
     8
370
    18
100
AcDbSpline
210
0.0
220
0.0
230
1.0
 70
    24
 71
     3
 72
    11
 73
     7
 74
     0
 42
0.00000001
 43
0.00000001
 40
0.0
 40
0.0
 40
0.0
 40
0.0
 40
0.25
 40
0.5
 40
0.75
 40
1.0
 40
1.0
 40
1.0
 40
1.0
 10
320.3141086404577
 20
369.7482197395249
 30
0.0
 10
320.4391086404577
 20
369.7482197395249
 30
0.0
 10
320.7091484331577
 20
369.7482197395249
 30
0.0
 10
321.0865097534577
 20
369.7482197395249
 30
0.0
 10
321.3294643959577
 20
369.7482197395249
 30
0.0
 10
321.3747688122577
 20
369.7482197395249
 30
0.0
 10
321.3747688122577
 20
369.7482197395249
 30
0.0
  0
SPLINE
  5
C4
330
1F
100
AcDbEntity
  8
0
  6
Continuous
 62
     8
370
    18
100
AcDbSpline
210
0.0
220
0.0
230
1.0
 70
     8
 71
     3
 72
    15
 73
    11
 74
     0
 42
0.00000001
 43
0.00000001
 40
0.0
 40
0.0
 40
0.0
 40
0.0
 40
0.1395222167151508
 40
0.2833712881218363
 40
0.4312715171416791
 40
0.5468808215744966
 40
0.6625078628840028
 40
0.7805771217413637
 40
0.8986644948965462
 40
1.0
 40
1.0
 40
1.0
 40
1.0
 10
291.3747688122577
 20
326.7612933940849
 30
0.0
 10
292.7563015022182
 20
326.8100268229193
 30
0.0
 10
295.5622108918014
 20
326.9090049987863
 30
0.0
 10
299.7683347432659
 20
327.7249652550734
 30
0.0
 10
303.6154102065119
 20
328.960022249951
 30
0.0
 10
307.0352478353729
 20
330.5189637064136
 30
0.0
 10
310.0262847523255
 20
332.2643270598757
 30
0.0
 10
312.8379209724716
 20
334.3245498510866
 30
0.0
 10
315.3423732280704
 20
336.5484786313273
 30
0.0
 10
316.7651216889986
 20
338.1910718846378
 30
0.0
 10
317.4221859617285
 20
338.9496665139888
 30
0.0
  0
SPLINE
  5
C5
330
1F
100
AcDbEntity
  8
0
  6
Continuous
 62
     8
370
    18
100
AcDbSpline
210
0.0
220
0.0
230
1.0
 70
     8
 71
     3
 72
    19
 73
    15
 74
     0
 42
0.00000001
 43
0.00000001
 40
0.0
 40
0.0
 40
0.0
 40
0.0
 40
0.0008427346268355
 40
0.0879469402658909
 40
0.175064509488775
 40
0.2864860178656023
 40
0.3948699382618306
 40
0.4999999885918326
 40
0.6051180471532912
 40
0.7135021228699798
 40
0.8249354704305962
 40
0.9120396749893176
 40
0.9991572431411049
 40
1.0
 40
1.0
 40
1.0
 40
1.0
 10
319.8020974604888
 20
342.123420352861
 30
0.0
 10
319.8086268951336
 20
342.132358173694
 30
0.0
 10
320.4900321446438
 20
343.0651001898358
 30
0.0
 10
321.5827815760415
 20
345.1025978826949
 30
0.0
 10
323.1690758824014
 20
348.501975087992
 30
0.0
 10
324.4023138697489
 20
352.3559068676111
 30
0.0
 10
325.191261407567
 20
356.5601385456706
 30
0.0
 10
325.4456109549995
 20
360.7480632931788
 30
0.0
 10
325.1912611880097
 20
364.935983009247
 30
0.0
 10
324.4024341139381
 20
369.1402384536946
 30
0.0
 10
323.1691868651525
 20
372.9941530408711
 30
0.0
 10
321.5828706257745
 20
376.3936889590516
 30
0.0
 10
320.4901282456911
 20
378.4311925112261
 30
0.0
 10
319.8086266908439
 20
379.3640818792809
 30
0.0
 10
319.8020971548329
 20
379.3730199876091
 30
0.0
  0
SPLINE
  5
C6
330
1F
100
AcDbEntity
  8
0
  6
Continuous
 62
     8
370
    18
100
AcDbSpline
210
0.0
220
0.0
230
1.0
 70
     8
 71
     3
 72
    15
 73
    11
 74
     0
 42
0.00000001
 43
0.00000001
 40
0.0
 40
0.0
 40
0.0
 40
0.0
 40
0.1013321646546062
 40
0.2194018550598004
 40
0.3374896598072499
 40
0.4530993877160451
 40
0.5687268525473971
 40
0.716611907839137
 40
0.860469304624511
 40
1.0
 40
1.0
 40
1.0
 40
1.0
 10
317.4220942499685
 20
382.5468385806357
 30
0.0
 10
316.7650614336384
 20
383.3054121543323
 30
0.0
 10
315.3424704998579
 20
384.9478565828679
 30
0.0
 10
312.8380595409263
 20
387.1717735809834
 30
0.0
 10
310.0265816842092
 20
389.2319188711356
 30
0.0
 10
307.0354053673324
 20
390.9773934370713
 30
0.0
 10
303.6157208436145
 20
392.5363065757658
 30
0.0
 10
299.7685528201926
 20
393.7713727803693
 30
0.0
 10
295.5624514679674
 20
394.5874701709442
 30
0.0
 10
292.7563822335173
 20
394.6864243833505
 30
0.0
 10
291.3747688122577
 20
394.735146084965
 30
0.0
  0
SPLINE
  5
C7
330
1F
100
AcDbEntity
  8
0
  6
Continuous
 62
     8
370
    18
100
AcDbSpline
210
0.0
220
0.0
230
1.0
 70
     8
 71
     3
 72
    14
 73
    10
 74
     0
 42
0.00000001
 43
0.00000001
 40
0.0
 40
0.0
 40
0.0
 40
0.0
 40
0.1641432139825983
 40
0.3333768275634956
 40
0.5073764923591
 40
0.643386966130062
 40
0.7794183067276103
 40
0.9183228344759838
 40
1.0
 40
1.0
 40
1.0
 40
1.0
 10
291.3747688122577
 20
394.735146084965
 30
0.0
 10
289.9932525038278
 20
394.686395282916
 30
0.0
 10
287.1873763853034
 20
394.5873818218419
 30
0.0
 10
282.9809946414941
 20
393.7716950699493
 30
0.0
 10
279.1348576856012
 20
392.5356427531645
 30
0.0
 10
275.7122184541262
 20
390.9796725000501
 30
0.0
 10
272.7311173301355
 20
389.2237718700238
 30
0.0
 10
270.2757297891787
 20
387.4831933555096
 30
0.0
 10
268.91787112732
 20
386.2170487683146
 30
0.0
 10
268.4150821377283
 20
385.7482197395249
 30
0.0
  0
SPLINE
  5
C8
330
1F
100
AcDbEntity
  8
0
  6
Continuous
 62
     8
370
    18
100
AcDbSpline
210
0.0
220
0.0
230
1.0
 70
     8
 71
     3
 72
    14
 73
    10
 74
     0
 42
0.00000001
 43
0.00000001
 40
0.0
 40
0.0
 40
0.0
 40
0.0
 40
0.0811126648191884
 40
0.2201206664764014
 40
0.356211580197783
 40
0.492323373090204
 40
0.6664074459893637
 40
0.8357503285378444
 40
1.0
 40
1.0
 40
1.0
 40
1.0
 10
268.4261506718836
 20
335.7382197395249
 30
0.0
 10
268.925199368427
 20
335.2729417548175
 30
0.0
 10
270.2794999814348
 20
334.0102868991436
 30
0.0
 10
272.730869167867
 20
332.2729184917259
 30
0.0
 10
275.71204761704
 20
330.5168337253374
 30
0.0
 10
279.1345516172595
 20
328.9609127457427
 30
0.0
 10
282.9807752444309
 20
327.7248443040583
 30
0.0
 10
287.1871361274628
 20
326.9090223395711
 30
0.0
 10
289.9931718775491
 20
326.8100325920076
 30
0.0
 10
291.3747688122577
 20
326.7612933940849
 30
0.0
  0
SPLINE
  5
C9
330
1F
100
AcDbEntity
  8
0
  6
Continuous
 62
     8
370
    18
100
AcDbSpline
210
0.0
220
0.0
230
1.0
 70
     8
 71
     3
 72
    14
 73
    10
 74
     0
 42
0.00000001
 43
0.00000001
 40
0.0
 40
0.0
 40
0.0
 40
0.0
 40
0.1642403864619768
 40
0.3335741860264219
 40
0.5076768583028142
 40
0.6437678500149917
 40
0.7798797209215408
 40
0.9188664798805265
 40
0.9999999999999999
 40
0.9999999999999999
 40
0.9999999999999999
 40
0.9999999999999999
 10
141.3747688122577
 20
326.7612933940849
 30
0.0
 10
142.7562850184419
 20
326.8100443165608
 30
0.0
 10
145.5621609292787
 20
326.9090580222226
 30
0.0
 10
149.768544282828
 20
327.7247428782397
 30
0.0
 10
153.6146753805709
 20
328.9608020944085
 30
0.0
 10
157.0373320994444
 20
330.5167517515903
 30
0.0
 10
160.018371204891
 20
332.2727254243899
 30
0.0
 10
162.4698887169313
 20
334.0101763443752
 30
0.0
 10
163.8241909677697
 20
335.2728239704393
 30
0.0
 10
164.32336945953
 20
335.7382197395249
 30
0.0
  0
SPLINE
  5
CA
330
1F
100
AcDbEntity
  8
0
  6
Continuous
 62
     8
370
    18
100
AcDbSpline
210
0.0
220
0.0
230
1.0
 70
     8
 71
     3
 72
    14
 73
    10
 74
     0
 42
0.00000001
 43
0.00000001
 40
0.0
 40
0.0
 40
0.0
 40
0.0
 40
0.0816563174273246
 40
0.2205820760671991
 40
0.3565924726549612
 40
0.4926237360496508
 40
0.6666048134508585
 40
0.8358475055908965
 40
1.0
 40
1.0
 40
1.0
 40
1.0
 10
164.3344728009471
 20
385.7482197395249
 30
0.0
 10
163.831813648304
 20
386.2169309600031
 30
0.0
 10
162.473956682211
 20
387.4830827697645
 30
0.0
 10
160.018717544274
 20
389.2235787991188
 30
0.0
 10
157.0374770758802
 20
390.9795905239276
 30
0.0
 10
153.614990565582
 20
392.535532101833
 30
0.0
 10
149.7687610801135
 20
393.7715936440305
 30
0.0
 10
145.5624018070095
 20
394.5874175045409
 30
0.0
 10
142.756365849218
 20
394.6864070074851
 30
0.0
 10
141.3747688122577
 20
394.735146084965
 30
0.0
  0
SPLINE
  5
CB
330
1F
100
AcDbEntity
  8
0
  6
Continuous
 62
     8
370
    18
100
AcDbSpline
210
0.0
220
0.0
230
1.0
 70
     8
 71
     3
 72
    15
 73
    11
 74
     0
 42
0.00000001
 43
0.00000001
 40
0.0
 40
0.0
 40
0.0
 40
0.0
 40
0.1395222167153444
 40
0.2833712881247664
 40
0.431271517144184
 40
0.5468808215839073
 40
0.6625078628878635
 40
0.7805771217565592
 40
0.8986644949017955
 40
0.9999999999999999
 40
0.9999999999999999
 40
0.9999999999999999
 40
0.9999999999999999
 10
141.3747688122577
 20
394.735146084965
 30
0.0
 10
139.9932361223037
 20
394.6864126561289
 30
0.0
 10
137.1873267327083
 20
394.5874344802577
 30
0.0
 10
132.9812028812394
 20
393.7714742239872
 30
0.0
 10
129.1341274179357
 20
392.5364172290691
 30
0.0
 10
125.7142897890821
 20
390.9774757726178
 30
0.0
 10
122.7232528720519
 20
389.2321124190802
 30
0.0
 10
119.911616651956
 20
387.171889627904
 30
0.0
 10
117.4071643964103
 20
384.9479608476894
 30
0.0
 10
115.9844159356126
 20
383.3053675944812
 30
0.0
 10
115.3273516629315
 20
382.5467729651641
 30
0.0
  0
SPLINE
  5
CC
330
1F
100
AcDbEntity
  8
0
  6
Continuous
 62
     8
370
    18
100
AcDbSpline
210
0.0
220
0.0
230
1.0
 70
     8
 71
     3
 72
    19
 73
    15
 74
     0
 42
0.00000001
 43
0.00000001
 40
0.0
 40
0.0
 40
0.0
 40
0.0
 40
0.0008427346267671
 40
0.0879469402642147
 40
0.1750645094888296
 40
0.2864860178704499
 40
0.3948699382668976
 40
0.4999999885918753
 40
0.6051180471583504
 40
0.7135021228748151
 40
0.8249354704306322
 40
0.912039674994732
 40
0.9991572431410802
 40
1.0
 40
1.0
 40
1.0
 40
1.0
 10
112.9474401640255
 20
379.3730191261864
 30
0.0
 10
112.9409107293811
 20
379.3640813053543
 30
0.0
 10
112.2595054798705
 20
378.4313392892404
 30
0.0
 10
111.1667560484108
 20
376.3938415964117
 30
0.0
 10
109.580461742116
 20
372.9944643910116
 30
0.0
 10
108.3472237547487
 20
369.1405326113106
 30
0.0
 10
107.5582762169139
 20
364.9363009332522
 30
0.0
 10
107.3039266695157
 20
360.7483761857381
 30
0.0
 10
107.5582764365414
 20
356.5604564696762
 30
0.0
 10
108.3471035105911
 20
352.3562010252252
 30
0.0
 10
109.5803507594036
 20
348.5022864380495
 30
0.0
 10
111.1666669988093
 20
345.1027505199533
 30
0.0
 10
112.2594093788666
 20
343.0652469677664
 30
0.0
 10
112.9409109336719
 20
342.1323575997684
 30
0.0
 10
112.9474404696831
 20
342.12341949144
 30
0.0
  0
SPLINE
  5
CD
330
1F
100
AcDbEntity
  8
0
  6
Continuous
 62
     8
370
    18
100
AcDbSpline
210
0.0
220
0.0
230
1.0
 70
     8
 71
     3
 72
    15
 73
    11
 74
     0
 42
0.00000001
 43
0.00000001
 40
0.0
 40
0.0
 40
0.0
 40
0.0
 40
0.1013321646552743
 40
0.2194018550555085
 40
0.3374896598076653
 40
0.4530993877116938
 40
0.568726852547724
 40
0.71661190783878
 40
0.8604693046227784
 40
1.0
 40
1.0
 40
1.0
 40
1.0
 10
115.3274433745284
 20
338.9496008984271
 30
0.0
 10
115.9844761908632
 20
338.1910273247244
 30
0.0
 10
117.4070671246166
 20
336.5485828962187
 30
0.0
 10
119.9114780835751
 20
334.3246658981251
 30
0.0
 10
122.7229559402267
 20
332.2645206079665
 30
0.0
 10
125.7141322571251
 20
330.5190460419687
 30
0.0
 10
129.1338167808553
 20
328.9601329033086
 30
0.0
 10
132.9809848043035
 20
327.7250666987031
 30
0.0
 10
137.1870861565228
 20
326.9089693080946
 30
0.0
 10
139.9931553909795
 20
326.8100150956962
 30
0.0
 10
141.3747688122577
 20
326.7612933940849
 30
0.0
  0
ARC
  5
CE
330
1F
100
AcDbEntity
  8
0
  6
Continuous
 62
     8
370
    18
100
AcDbCircle
 10
291.3747688123
 20
360.7482197395
 30
0.0
 40
34.78680450156514
100
AcDbArc
 50
270.0
 51
134.0557693334
  0
ARC
  5
CF
330
1F
100
AcDbEntity
  8
0
  6
Continuous
 62
     8
370
    18
100
AcDbCircle
 10
291.3747688123
 20
360.7482197395
 30
0.0
 40
34.78680450156514
100
AcDbArc
 50
225.9679221539
 51
270.0
  0
ARC
  5
D0
330
1F
100
AcDbEntity
  8
0
  6
Continuous
 62
     8
370
    18
100
AcDbCircle
 10
141.3747688123
 20
360.7482197395
 30
0.0
 40
34.78680450156514
100
AcDbArc
 50
270.0
 51
313.9378506589
  0
ARC
  5
D1
330
1F
100
AcDbEntity
  8
0
  6
Continuous
 62
     8
370
    18
100
AcDbCircle
 10
141.3747688123
 20
360.7482197395
 30
0.0
 40
34.78680450156514
100
AcDbArc
 50
45.9442306666
 51
270.0
  0
ARC
  5
D2
330
1F
100
AcDbEntity
  8
0
  6
Continuous
 62
     8
370
    18
100
AcDbCircle
 10
141.3747688123
 20
360.7482197395
 30
0.0
 40
34.99644806043556
100
AcDbArc
 50
90.0
 51
314.3859725449
  0
ARC
  5
D3
330
1F
100
AcDbEntity
  8
0
  6
Continuous
 62
     8
370
    18
100
AcDbCircle
 10
141.3747688123
 20
360.7482197395
 30
0.0
 40
34.99644806043551
100
AcDbArc
 50
45.5906268244
 51
90.0
  0
ARC
  5
D4
330
1F
100
AcDbEntity
  8
0
  6
Continuous
 62
     8
370
    18
100
AcDbCircle
 10
291.3747688123
 20
360.7482197395
 30
0.0
 40
34.99644806043551
100
AcDbArc
 50
90.0
 51
134.4093731756
  0
ARC
  5
D5
330
1F
100
AcDbEntity
  8
0
  6
Continuous
 62
     8
370
    18
100
AcDbCircle
 10
291.3747688123
 20
360.7482197395
 30
0.0
 40
34.99644806043556
100
AcDbArc
 50
225.6140274551
 51
90.0
  0
ARC
  5
D6
330
1F
100
AcDbEntity
  8
0
  6
Continuous
 62
     7
370
    25
100
AcDbCircle
 10
106.5782902908
 20
213.5155427137
 30
0.0
 40
0.1999999999999602
100
AcDbArc
 50
90.0
 51
181.0000000007
  0
ARC
  5
D7
330
1F
100
AcDbEntity
  8
0
  6
Continuous
 62
     7
370
    25
100
AcDbCircle
 10
176.1712473337
 20
213.5155427137
 30
0.0
 40
0.1999999999999602
100
AcDbArc
 50
358.9999999993
 51
90.0
  0
ARC
  5
D8
330
1F
100
AcDbEntity
  8
0
  6
Continuous
 62
     7
370
    25
100
AcDbCircle
 10
256.5782902908
 20
213.5155427137
 30
0.0
 40
0.1999999999999602
100
AcDbArc
 50
90.0
 51
181.0000000007
  0
ARC
  5
D9
330
1F
100
AcDbEntity
  8
0
  6
Continuous
 62
     7
370
    25
100
AcDbCircle
 10
326.1712473337
 20
213.5155427137
 30
0.0
 40
0.1999999999999602
100
AcDbArc
 50
358.9999999993
 51
90.0
  0
LINE
  5
DA
330
1F
100
AcDbEntity
  8
0
  6
Continuous
 62
     7
370
    25
100
AcDbLine
 10
256.3783207518
 20
213.5120522324
 30
0.0
 11
256.5879643107
 21
201.5015807885
 31
0.0
  0
LINE
  5
DB
330
1F
100
AcDbEntity
  8
0
  6
Continuous
 62
     7
370
    25
100
AcDbLine
 10
326.1615733138
 20
201.5015807885
 30
0.0
 11
326.3712168727
 21
213.5120522324
 31
0.0
  0
LINE
  5
DC
330
1F
100
AcDbEntity
  8
0
  6
Continuous
 62
     7
370
    25
100
AcDbLine
 10
106.3783207518
 20
213.5120522324
 30
0.0
 11
106.5879643107
 21
201.5015807885
 31
0.0
  0
LINE
  5
DD
330
1F
100
AcDbEntity
  8
0
  6
Continuous
 62
     7
370
    25
100
AcDbLine
 10
176.1615733138
 20
201.5015807885
 30
0.0
 11
176.3712168727
 21
213.5120522324
 31
0.0
  0
ARC
  5
DE
330
1F
100
AcDbEntity
  8
0
  6
Continuous
 62
     7
370
    25
100
AcDbCircle
 10
325.3616951577
 20
201.5155427137
 30
0.0
 40
0.799999999999983
100
AcDbArc
 50
270.0
 51
359.0
  0
ARC
  5
DF
330
1F
100
AcDbEntity
  8
0
  6
Continuous
 62
     7
370
    25
100
AcDbCircle
 10
257.3878424668
 20
201.5155427137
 30
0.0
 40
0.799999999999983
100
AcDbArc
 50
181.0
 51
270.0
  0
ARC
  5
E0
330
1F
100
AcDbEntity
  8
0
  6
Continuous
 62
     7
370
    25
100
AcDbCircle
 10
175.3616951577
 20
201.5155427137
 30
0.0
 40
0.8000000000000058
100
AcDbArc
 50
270.0
 51
359.0
  0
ARC
  5
E1
330
1F
100
AcDbEntity
  8
0
  6
Continuous
 62
     7
370
    25
100
AcDbCircle
 10
107.3878424668
 20
201.5155427137
 30
0.0
 40
0.8000000000000058
100
AcDbArc
 50
181.0
 51
270.0
  0
SPLINE
  5
E2
330
1F
100
AcDbEntity
  8
0
  6
Continuous
 62
     7
370
    25
100
AcDbSpline
210
0.0
220
0.0
230
1.0
 70
     8
 71
     3
 72
    17
 73
    13
 74
     0
 42
0.00000001
 43
0.00000001
 40
0.0
 40
0.0
 40
0.0
 40
0.0
 40
0.1341525494422084
 40
0.2670877281012521
 40
0.3827507174537205
 40
0.4810961434348267
 40
0.5748299576121573
 40
0.6919231970556841
 40
0.8328069168262331
 40
0.8854386393100176
 40
0.9410929376474186
 40
1.0
 40
1.0
 40
1.0
 40
1.0
 10
120.8041516071749
 20
169.4181877280622
 30
0.0
 10
120.2038950795606
 20
169.265918419122
 30
0.0
 10
119.0088290677329
 20
168.9627615730281
 30
0.0
 10
117.372037047948
 20
168.1314459531092
 30
0.0
 10
115.9510973494833
 20
167.1364679225724
 30
0.0
 10
114.7342478151438
 20
166.0035536182232
 30
0.0
 10
113.5912339220172
 20
164.6282005729964
 30
0.0
 10
112.542959914173
 20
162.882244350709
 30
0.0
 10
111.9072750809637
 20
161.1600243179057
 30
0.0
 10
111.6039340157239
 20
159.722924096308
 30
0.0
 10
111.471929832689
 20
158.7421664781604
 30
0.0
 10
111.4548580047367
 20
158.0641674895552
 30
0.0
 10
111.4460797288189
 20
157.7155427136604
 30
0.0
  0
SPLINE
  5
E3
330
1F
100
AcDbEntity
  8
0
  6
Continuous
 62
     7
370
    25
100
AcDbSpline
210
0.0
220
0.0
230
1.0
 70
     8
 71
     3
 72
    16
 73
    12
 74
     0
 42
0.00000001
 43
0.00000001
 40
0.0
 40
0.0
 40
0.0
 40
0.0
 40
0.0870949477541475
 40
0.1671427101706876
 40
0.3080436562910561
 40
0.4251512131383803
 40
0.5188964884801047
 40
0.6172539395036664
 40
0.7329310713782018
 40
0.8658825044908809
 40
1.0
 40
1.0
 40
1.0
 40
1.0
 10
321.3034578956966
 20
157.7155427136604
 30
0.0
 10
321.2841665626306
 20
158.2312271833202
 30
0.0
 10
321.2471448320413
 20
159.2208701198449
 30
0.0
 10
320.8934878922611
 20
161.0085679055624
 30
0.0
 10
320.2078915831775
 20
162.8821087243105
 30
0.0
 10
319.1580516553926
 20
164.6282266424282
 30
0.0
 10
318.0153539146817
 20
166.0035468365073
 30
0.0
 10
316.7984195072413
 20
167.1364707712208
 30
0.0
 10
315.3775068898711
 20
168.1314419506029
 30
0.0
 10
313.7409294567687
 20
168.9626643029663
 30
0.0
 10
312.5460964519321
 20
169.26577078779
 30
0.0
 10
311.946071540808
 20
169.4179857340472
 30
0.0
  0
ARC
  5
E4
330
1F
100
AcDbEntity
  8
0
  6
Continuous
 62
     7
370
    25
100
AcDbCircle
 10
158.3878424668
 20
199.9155427137
 30
0.0
 40
0.8000000000000348
100
AcDbArc
 50
90.0
 51
179.0
  0
ARC
  5
E5
330
1F
100
AcDbEntity
  8
0
  6
Continuous
 62
     7
370
    25
100
AcDbCircle
 10
124.3616951577
 20
199.9155427137
 30
0.0
 40
0.8000000000000064
100
AcDbArc
 50
1.0
 51
90.0
  0
ARC
  5
E6
330
1F
100
AcDbEntity
  8
0
  6
Continuous
 62
     7
370
    25
100
AcDbCircle
 10
308.3878424668
 20
199.9155427137
 30
0.0
 40
0.799999999999983
100
AcDbArc
 50
90.0
 51
179.0
  0
ARC
  5
E7
330
1F
100
AcDbEntity
  8
0
  6
Continuous
 62
     7
370
    25
100
AcDbCircle
 10
274.3616951577
 20
199.9155427137
 30
0.0
 40
0.799999999999983
100
AcDbArc
 50
1.0
 51
90.0
  0
LINE
  5
E8
330
1F
100
AcDbEntity
  8
0
  6
Continuous
 62
     7
370
    25
100
AcDbLine
 10
125.1615733138
 20
199.9295046388
 30
0.0
 11
125.3610484666
 21
188.5015807885
 31
0.0
  0
LINE
  5
E9
330
1F
100
AcDbEntity
  8
0
  6
Continuous
 62
     7
370
    25
100
AcDbLine
 10
157.3884891579
 20
188.5015807885
 30
0.0
 11
157.5879643107
 21
199.9295046388
 31
0.0
  0
LINE
  5
EA
330
1F
100
AcDbEntity
  8
0
  6
Continuous
 62
     7
370
    25
100
AcDbLine
 10
275.1615733138
 20
199.9295046388
 30
0.0
 11
275.3610484666
 21
188.5015807885
 31
0.0
  0
LINE
  5
EB
330
1F
100
AcDbEntity
  8
0
  6
Continuous
 62
     7
370
    25
100
AcDbLine
 10
307.3884891579
 20
188.5015807885
 30
0.0
 11
307.5879643107
 21
199.9295046388
 31
0.0
  0
ARC
  5
EC
330
1F
100
AcDbEntity
  8
0
  6
Continuous
 62
     7
370
    25
100
AcDbCircle
 10
306.5886110018
 20
188.5155427137
 30
0.0
 40
0.8000000000000114
100
AcDbArc
 50
270.0
 51
359.0
  0
ARC
  5
ED
330
1F
100
AcDbEntity
  8
0
  6
Continuous
 62
     7
370
    25
100
AcDbCircle
 10
276.1609266227
 20
188.5155427137
 30
0.0
 40
0.8000000000000114
100
AcDbArc
 50
181.0
 51
270.0
  0
ARC
  5
EE
330
1F
100
AcDbEntity
  8
0
  6
Continuous
 62
     7
370
    25
100
AcDbCircle
 10
156.5886110018
 20
188.5155427137
 30
0.0
 40
0.8000000000000114
100
AcDbArc
 50
270.0
 51
359.0
  0
ARC
  5
EF
330
1F
100
AcDbEntity
  8
0
  6
Continuous
 62
     7
370
    25
100
AcDbCircle
 10
126.1609266227
 20
188.5155427137
 30
0.0
 40
0.8000000000000114
100
AcDbArc
 50
181.0
 51
270.0
  0
ARC
  5
F0
330
1F
100
AcDbEntity
  8
0
  6
Continuous
 62
     7
370
    25
100
AcDbCircle
 10
275.6747688123
 20
187.4155426915
 30
0.0
 40
0.2999999999999829
100
AcDbArc
 50
90.0
 51
180.0
  0
ARC
  5
F1
330
1F
100
AcDbEntity
  8
0
  6
Continuous
 62
     7
370
    25
100
AcDbCircle
 10
125.6747688123
 20
187.4155427137
 30
0.0
 40
0.2999999999999972
100
AcDbArc
 50
90.0
 51
180.0
  0
ARC
  5
F2
330
1F
100
AcDbEntity
  8
0
  6
Continuous
 62
     7
370
    25
100
AcDbCircle
 10
307.0747688123
 20
187.4155426915
 30
0.0
 40
0.3000000000000114
100
AcDbArc
 50
0.0
 51
90.0
  0
ARC
  5
F3
330
1F
100
AcDbEntity
  8
0
  6
Continuous
 62
     7
370
    25
100
AcDbCircle
 10
157.0747688123
 20
187.4155427137
 30
0.0
 40
0.3000000000000114
100
AcDbArc
 50
0.0
 51
90.0
  0
ARC
  5
F4
330
1F
100
AcDbEntity
  8
0
  6
Continuous
 62
     7
370
    25
100
AcDbCircle
 10
157.0747688123
 20
171.0155427137
 30
0.0
 40
0.3000000000000398
100
AcDbArc
 50
270.0
 51
0.0
  0
ARC
  5
F5
330
1F
100
AcDbEntity
  8
0
  6
Continuous
 62
     7
370
    25
100
AcDbCircle
 10
307.0747688123
 20
171.0155426915
 30
0.0
 40
0.3000000000000114
100
AcDbArc
 50
270.0
 51
0.0
  0
ARC
  5
F6
330
1F
100
AcDbEntity
  8
0
  6
Continuous
 62
     7
370
    25
100
AcDbCircle
 10
125.6747688123
 20
171.0155427137
 30
0.0
 40
0.3000000000000398
100
AcDbArc
 50
180.0
 51
270.0
  0
ARC
  5
F7
330
1F
100
AcDbEntity
  8
0
  6
Continuous
 62
     7
370
    25
100
AcDbCircle
 10
275.6747688123
 20
171.0155426915
 30
0.0
 40
0.2999999999999829
100
AcDbArc
 50
180.0
 51
270.0
  0
LINE
  5
F8
330
1F
100
AcDbEntity
  8
0
  6
Continuous
 62
     7
370
    25
100
AcDbLine
 10
307.3747688123
 20
171.0155426915
 30
0.0
 11
307.3747688123
 21
187.4155426915
 31
0.0
  0
LINE
  5
F9
330
1F
100
AcDbEntity
  8
0
  6
Continuous
 62
     7
370
    25
100
AcDbLine
 10
157.3747688123
 20
171.0155427137
 30
0.0
 11
157.3747688123
 21
187.4155427137
 31
0.0
  0
LINE
  5
FA
330
1F
100
AcDbEntity
  8
0
  6
Continuous
 62
     7
370
    25
100
AcDbLine
 10
125.3747688123
 20
187.4155427137
 30
0.0
 11
125.3747688123
 21
171.0155427137
 31
0.0
  0
LINE
  5
FB
330
1F
100
AcDbEntity
  8
0
  6
Continuous
 62
     7
370
    25
100
AcDbLine
 10
275.3747688123
 20
187.4155426915
 30
0.0
 11
275.3747688123
 21
171.0155426915
 31
0.0
  0
LINE
  5
FC
330
1F
100
AcDbEntity
  8
0
  6
Continuous
 62
     7
370
    25
100
AcDbLine
 10
196.6391133673
 20
137.2026858742
 30
0.0
 11
193.9450933032
 21
137.2055005645
 31
0.0
  0
SPLINE
  5
FD
330
1F
100
AcDbEntity
  8
0
  6
Continuous
 62
     7
370
    25
100
AcDbSpline
210
0.0
220
0.0
230
1.0
 70
     8
 71
     3
 72
     9
 73
     5
 74
     0
 42
0.00000001
 43
0.00000001
 40
0.0
 40
0.0
 40
0.0
 40
0.0
 40
0.9837984783378743
 40
1.0
 40
1.0
 40
1.0
 40
1.0
 10
238.8070759834217
 20
137.2055674218467
 30
0.0
 10
237.9069496866724
 20
137.2061671277207
 30
0.0
 10
236.9919998096711
 20
137.2067767097512
 30
0.0
 10
236.1118269980421
 20
137.203518969653
 30
0.0
 10
236.097566859168
 20
137.2034661893063
 30
0.0
  0
SPLINE
  5
FE
330
1F
100
AcDbEntity
  8
0
  6
Continuous
 62
     7
370
    25
100
AcDbSpline
210
0.0
220
0.0
230
1.0
 70
     8
 71
     3
 72
     9
 73
     5
 74
     0
 42
0.00000001
 43
0.00000001
 40
0.0
 40
0.0
 40
0.0
 40
0.0
 40
0.5015073400336314
 40
1.0
 40
1.0
 40
1.0
 40
1.0
 10
194.1756242344457
 20
103.2031681888956
 30
0.0
 10
194.2066095529279
 20
103.197459796949
 30
0.0
 10
194.268393929763
 20
103.1860773275595
 30
0.0
 10
194.3633206558984
 20
103.1824159823526
 30
0.0
 10
194.4106409321115
 20
103.1805908286413
 30
0.0
  0
SPLINE
  5
FF
330
1F
100
AcDbEntity
  8
0
  6
Continuous
 62
     7
370
    25
100
AcDbSpline
210
0.0
220
0.0
230
1.0
 70
     8
 71
     3
 72
     9
 73
     5
 74
     0
 42
0.00000001
 43
0.00000001
 40
0.0
 40
0.0
 40
0.0
 40
0.0
 40
0.4985366928805924
 40
1.0
 40
1.0
 40
1.0
 40
1.0
 10
203.9213332359473
 20
102.994117560903
 30
0.0
 10
204.1400671014469
 20
102.9916920450319
 30
0.0
 10
204.5788188896769
 20
102.98682677452
 30
0.0
 10
205.0219478176497
 20
102.9909483773441
 30
0.0
 10
205.2441607153512
 20
102.9930152099269
 30
0.0
  0
LINE
  5
100
330
1F
100
AcDbEntity
  8
0
  6
Continuous
 62
     7
370
    25
100
AcDbLine
 10
152.1247688123
 20
169.7255427137
 30
0.0
 11
152.1247688123
 21
170.7155427137
 31
0.0
  0
LINE
  5
101
330
1F
100
AcDbEntity
  8
0
  6
Continuous
 62
     7
370
    25
100
AcDbLine
 10
130.6247688123
 20
170.7155427137
 30
0.0
 11
130.6247688123
 21
169.7255427137
 31
0.0
  0
LINE
  5
102
330
1F
100
AcDbEntity
  8
0
  6
Continuous
 62
     7
370
    25
100
AcDbLine
 10
302.1247688123
 20
169.7255427137
 30
0.0
 11
302.1247688123
 21
170.7155426915
 31
0.0
  0
LINE
  5
103
330
1F
100
AcDbEntity
  8
0
  6
Continuous
 62
     7
370
    25
100
AcDbLine
 10
280.6247688123
 20
170.7155426915
 30
0.0
 11
280.6247688123
 21
169.7255427137
 31
0.0
  0
LINE
  5
104
330
1F
100
AcDbEntity
  8
0
  6
Continuous
 62
     7
370
    25
100
AcDbLine
 10
195.9747688123
 20
139.7055427137
 30
0.0
 11
195.9831081187
 21
139.4667362221
 31
0.0
  0
LINE
  5
105
330
1F
100
AcDbEntity
  8
0
  6
Continuous
 62
     7
370
    25
100
AcDbLine
 10
236.7664295058
 20
139.4667362221
 30
0.0
 11
236.7747688123
 21
139.7055427137
 31
0.0
  0
ARC
  5
106
330
1F
100
AcDbEntity
  8
0
  6
Continuous
 62
     7
370
    25
100
AcDbCircle
 10
254.6397520833
 20
152.0920330068
 30
0.0
 40
60.00000000073276
100
AcDbArc
 50
192.1470609849
 51
194.8413448355
  0
ARC
  5
107
330
1F
100
AcDbEntity
  8
0
  6
Continuous
 62
     7
370
    25
100
AcDbCircle
 10
178.1097855413
 20
152.0920330068
 30
0.0
 40
60.0000000007328
100
AcDbArc
 50
345.1791729314
 51
347.8529390151
  0
LINE
  5
108
330
1F
100
AcDbEntity
  8
0
  6
Continuous
 62
     7
370
    25
100
AcDbLine
 10
239.3747688123
 20
104.1753991113
 30
0.0
 11
239.3747688123
 21
136.2684362254
 31
0.0
  0
LINE
  5
109
330
1F
100
AcDbEntity
  8
0
  6
Continuous
 62
     7
370
    25
100
AcDbLine
 10
193.3747688123
 20
136.3070071682
 30
0.0
 11
193.3747688123
 21
104.1778516221
 31
0.0
  0
SPLINE
  5
10A
330
1F
100
AcDbEntity
  8
0
  6
Continuous
 62
     7
370
    25
100
AcDbSpline
210
0.0
220
0.0
230
1.0
 70
     8
 71
     3
 72
    11
 73
     7
 74
     0
 42
0.00000001
 43
0.00000001
 40
0.0
 40
0.0
 40
0.0
 40
0.0
 40
0.2405622893949135
 40
0.4999995693713943
 40
0.7594370643675887
 40
1.0
 40
1.0
 40
1.0
 40
1.0
 10
238.3997807738058
 20
103.1807911616263
 30
0.0
 10
238.523306053569
 20
103.1973492669554
 30
0.0
 10
238.7800486496071
 20
103.2317646591394
 30
0.0
 10
239.1083230521568
 20
103.4650998083512
 30
0.0
 10
239.3333501108207
 20
103.7991232902727
 30
0.0
 10
239.3613138670236
 20
104.0566463178086
 30
0.0
 10
239.3747679420031
 20
104.180547202092
 30
0.0
  0
SPLINE
  5
10B
330
1F
100
AcDbEntity
  8
0
  6
Continuous
 62
     7
370
    25
100
AcDbSpline
210
0.0
220
0.0
230
1.0
 70
     8
 71
     3
 72
    13
 73
     9
 74
     0
 42
0.00000001
 43
0.00000001
 40
0.0
 40
0.0
 40
0.0
 40
0.0
 40
0.1447740268540231
 40
0.268813025886721
 40
0.4376606473362624
 40
0.6589052572894427
 40
0.8176557570802558
 40
1.0
 40
1.0
 40
1.0
 40
1.0
 10
193.3747694807287
 20
104.1915304111199
 30
0.0
 10
193.3791839046281
 20
104.1143577923788
 30
0.0
 10
193.3873805036435
 20
103.9710654794536
 30
0.0
 10
193.4635858451967
 20
103.7492504581002
 30
0.0
 10
193.6091978803727
 20
103.512678122709
 30
0.0
 10
193.8313075799641
 20
103.3264185955247
 30
0.0
 10
194.0927152198248
 20
103.2083438984645
 30
0.0
 10
194.2601750660712
 20
103.1912538300443
 30
0.0
 10
194.349696641926
 20
103.1821177303121
 30
0.0
  0
SPLINE
  5
10C
330
1F
100
AcDbEntity
  8
0
  6
Continuous
 62
     7
370
    25
100
AcDbSpline
210
0.0
220
0.0
230
1.0
 70
     8
 71
     3
 72
    23
 73
    19
 74
     0
 42
0.00000001
 43
0.00000001
 40
0.0
 40
0.0
 40
0.0
 40
0.0
 40
0.0382036343339338
 40
0.0517158817448815
 40
0.061949064880075
 40
0.0661167305960973
 40
0.078747858806195
 40
0.1039587074410057
 40
0.1305635658390973
 40
0.157168868667996
 40
0.1814644585376187
 40
0.188684397145782
 40
0.1916553830528656
 40
0.1947906953539988
 40
0.2020547604534624
 40
0.2364880879861152
 40
0.443541970059553
 40
1.0
 40
1.0
 40
1.0
 40
1.0
 10
193.8582502007289
 20
137.2052265746363
 30
0.0
 10
193.8372291954592
 20
137.2038489433187
 30
0.0
 10
193.8087732686439
 20
137.2019840574368
 30
0.0
 10
193.7604229147939
 20
137.1914079458859
 30
0.0
 10
193.7334235829194
 20
137.1837838805737
 30
0.0
 10
193.7022457481445
 20
137.1733581472443
 30
0.0
 10
193.650077223199
 20
137.1524858445483
 30
0.0
 10
193.5780586213606
 20
137.1099099116431
 30
0.0
 10
193.5014550291547
 20
137.0409768639716
 30
0.0
 10
193.4417501376549
 20
136.9586808478631
 30
0.0
 10
193.4101443640145
 20
136.8897748576283
 30
0.0
 10
193.3965401010868
 20
136.8466926993199
 30
0.0
 10
193.392236159891
 20
136.8309052179561
 30
0.0
 10
193.388757798632
 20
136.8169350807634
 30
0.0
 10
193.381300548192
 20
136.7814912380589
 30
0.0
 10
193.3760848871861
 20
136.721849210904
 30
0.0
 10
193.3758650936413
 20
136.672465322072
 30
0.0
 10
193.3752309704119
 20
136.4680069420466
 30
0.0
 10
193.3747688126414
 20
136.318994849945
 30
0.0
  0
SPLINE
  5
10D
330
1F
100
AcDbEntity
  8
0
  6
Continuous
 62
     7
370
    25
100
AcDbSpline
210
0.0
220
0.0
230
1.0
 70
     8
 71
     3
 72
    24
 73
    20
 74
     0
 42
0.00000001
 43
0.00000001
 40
0.0
 40
0.0
 40
0.0
 40
0.0
 40
0.3025433132523731
 40
0.4666943788149365
 40
0.5239018385175767
 40
0.5446069291615692
 40
0.560975894514537
 40
0.5680419834245982
 40
0.5747387664566354
 40
0.6456512094027846
 40
0.7056196363185498
 40
0.7655870351702738
 40
0.8224112444002583
 40
0.8424330287660482
 40
0.8509429738862956
 40
0.8603389565962694
 40
0.8834104569409076
 40
0.9138740594958893
 40
1.0
 40
1.0
 40
1.0
 40
1.0
 10
239.3736071895777
 20
136.6825406216579
 30
0.0
 10
239.3730811155322
 20
136.7013677973164
 30
0.0
 10
239.3722696092483
 20
136.7304100423898
 30
0.0
 10
239.3713908312017
 20
136.7502883012351
 30
0.0
 10
239.3680372223211
 20
136.7789352680711
 30
0.0
 10
239.3640989970307
 20
136.8013076406334
 30
0.0
 10
239.3607621950154
 20
136.817000086566
 30
0.0
 10
239.3572937237653
 20
136.8309363321574
 30
0.0
 10
239.3450927838858
 20
136.8756787786576
 30
0.0
 10
239.3130760250972
 20
136.9518917986516
 30
0.0
 10
239.2480117000018
 20
137.0408765863744
 30
0.0
 10
239.1716224817181
 20
137.1099418267986
 30
0.0
 10
239.1029850288107
 20
137.1502250153581
 30
0.0
 10
239.0575486561524
 20
137.1693065185494
 30
0.0
 10
239.0369090110133
 20
137.1768272476787
 30
0.0
 10
239.0160835359061
 20
137.1837940494471
 30
0.0
 10
238.9889807769617
 20
137.1914415998566
 30
0.0
 10
238.9406531723297
 20
137.2019970161468
 30
0.0
 10
238.9121542314426
 20
137.203858239791
 30
0.0
 10
238.8911017594724
 20
137.2052331455728
 30
0.0
  0
LINE
  5
10E
330
1F
100
AcDbEntity
  8
0
  6
Continuous
 62
     7
370
    25
100
AcDbLine
 10
239.3747688115
 20
136.3189975694
 30
0.0
 11
239.3743458231
 21
136.4513766869
 31
0.0
  0
SPLINE
  5
10F
330
1F
100
AcDbEntity
  8
0
  6
Continuous
 62
     7
370
    25
100
AcDbSpline
210
0.0
220
0.0
230
1.0
 70
     8
 71
     3
 72
     9
 73
     5
 74
     0
 42
0.00000001
 43
0.00000001
 40
0.0
 40
0.0
 40
0.0
 40
0.0
 40
0.0901379613335838
 40
0.9999999999999999
 40
0.9999999999999999
 40
0.9999999999999999
 40
0.9999999999999999
 10
201.2576596095371
 20
189.9048742549111
 30
0.0
 10
201.1962611177454
 20
189.8769713759146
 30
0.0
 10
200.515099808089
 20
189.5674139088523
 30
0.0
 10
199.9170394877532
 20
189.120556698041
 30
0.0
 10
199.372887105447
 20
188.7139782852194
 30
0.0
  0
SPLINE
  5
110
330
1F
100
AcDbEntity
  8
0
  6
Continuous
 62
     7
370
    25
100
AcDbSpline
210
0.0
220
0.0
230
1.0
 70
     8
 71
     3
 72
     9
 73
     5
 74
     0
 42
0.00000001
 43
0.00000001
 40
0.0
 40
0.0
 40
0.0
 40
0.0
 40
0.6798846462016819
 40
1.0
 40
1.0
 40
1.0
 40
1.0
 10
233.3766505190684
 20
188.7139782852194
 30
0.0
 10
233.027724136234
 20
188.9742011239836
 30
0.0
 10
232.514510042073
 20
189.3569466973952
 30
0.0
 10
231.8681527005998
 20
189.6846091205455
 30
0.0
 10
231.661243791554
 20
189.7894988930587
 30
0.0
  0
SPLINE
  5
111
330
1F
100
AcDbEntity
  8
0
  6
Continuous
 62
     7
370
    25
100
AcDbSpline
210
0.0
220
0.0
230
1.0
 70
    24
 71
     3
 72
    10
 73
     6
 74
     0
 42
0.00000001
 43
0.00000001
 40
0.0
 40
0.0
 40
0.0
 40
0.0
 40
0.4999999999999999
 40
0.4999999999999999
 40
0.9999999999999999
 40
0.9999999999999999
 40
0.9999999999999999
 40
0.9999999999999999
 10
176.1712473336677
 20
213.7155427136644
 30
0.0
 10
176.1712473336675
 20
213.7155427136644
 30
0.0
 10
172.5050156209332
 20
213.7155427136644
 30
0.0
 10
159.4541738513838
 20
213.7155427136644
 30
0.0
 10
150.6031075276987
 20
213.7155427136644
 30
0.0
 10
141.3747688122577
 20
213.7155427136644
 30
0.0
  0
SPLINE
  5
112
330
1F
100
AcDbEntity
  8
0
  6
Continuous
 62
     7
370
    25
100
AcDbSpline
210
0.0
220
0.0
230
1.0
 70
    24
 71
     3
 72
    10
 73
     6
 74
     0
 42
0.00000001
 43
0.00000001
 40
0.0
 40
0.0
 40
0.0
 40
0.0
 40
0.5
 40
0.5
 40
1.0
 40
1.0
 40
1.0
 40
1.0
 10
141.3747688122577
 20
213.7155427136644
 30
0.0
 10
132.1464300968168
 20
213.7155427136644
 30
0.0
 10
123.2953637731313
 20
213.7155427136644
 30
0.0
 10
110.244522003582
 20
213.7155427136644
 30
0.0
 10
106.5782902908477
 20
213.7155427136644
 30
0.0
 10
106.5782902908477
 20
213.7155427136644
 30
0.0
  0
SPLINE
  5
113
330
1F
100
AcDbEntity
  8
0
  6
Continuous
 62
     7
370
    25
100
AcDbSpline
210
0.0
220
0.0
230
1.0
 70
    24
 71
     3
 72
    10
 73
     6
 74
     0
 42
0.00000001
 43
0.00000001
 40
0.0
 40
0.0
 40
0.0
 40
0.0
 40
0.5
 40
0.5
 40
1.0
 40
1.0
 40
1.0
 40
1.0
 10
326.1712473336677
 20
213.7155427136644
 30
0.0
 10
326.1712473336675
 20
213.7155427136644
 30
0.0
 10
322.5050156209332
 20
213.7155427136644
 30
0.0
 10
309.4541738513838
 20
213.7155427136644
 30
0.0
 10
300.6031075276987
 20
213.7155427136644
 30
0.0
 10
291.3747688122577
 20
213.7155427136644
 30
0.0
  0
SPLINE
  5
114
330
1F
100
AcDbEntity
  8
0
  6
Continuous
 62
     7
370
    25
100
AcDbSpline
210
0.0
220
0.0
230
1.0
 70
    24
 71
     3
 72
    10
 73
     6
 74
     0
 42
0.00000001
 43
0.00000001
 40
0.0
 40
0.0
 40
0.0
 40
0.0
 40
0.5000000000000002
 40
0.5000000000000002
 40
1.0
 40
1.0
 40
1.0
 40
1.0
 10
291.3747688122577
 20
213.7155427136644
 30
0.0
 10
282.1464300968167
 20
213.7155427136644
 30
0.0
 10
273.2953637731313
 20
213.7155427136644
 30
0.0
 10
260.244522003582
 20
213.7155427136644
 30
0.0
 10
256.5782902908477
 20
213.7155427136644
 30
0.0
 10
256.5782902908477
 20
213.7155427136644
 30
0.0
  0
SPLINE
  5
115
330
1F
100
AcDbEntity
  8
0
  6
Continuous
 62
     7
370
    25
100
AcDbSpline
210
0.0
220
0.0
230
1.0
 70
    24
 71
     3
 72
    36
 73
    32
 74
     0
 42
0.00000001
 43
0.00000001
 40
0.0
 40
0.0
 40
0.0
 40
0.0
 40
0.0106137586324106
 40
0.0212146348913034
 40
0.0318055538125498
 40
0.042389448687606
 40
0.0529692586502571
 40
0.0635479262390961
 40
0.0741283949458331
 40
0.0847136067596372
 40
0.0953064997177343
 40
0.1059100054724397
 40
0.1165270468846317
 40
0.1782628504833776
 40
0.2400084806888935
 40
0.3043175779732838
 40
0.368636541608109
 40
0.4343140187935666
 40
0.5000015722717137
 40
0.5656790497472368
 40
0.6313666035116141
 40
0.6956757015927861
 40
0.7599946660192302
 40
0.8217304690042277
 40
0.8834760987085578
 40
0.9029255566067178
 40
0.9223393515195755
 40
0.9417355667191984
 40
0.9611323346455064
 40
0.9805477861898156
 40
1.0
 40
1.0
 40
1.0
 40
1.0
 10
325.3616951576977
 20
200.7155427136644
 30
0.0
 10
325.3607967665731
 20
200.7155427136644
 30
0.0
 10
325.3590010747394
 20
200.7155427136644
 30
0.0
 10
325.3444133055655
 20
200.7155427136644
 30
0.0
 10
325.3211140990957
 20
200.7155427136644
 30
0.0
 10
325.2882525485099
 20
200.7155427136644
 30
0.0
 10
325.2460563608481
 20
200.7155427136644
 30
0.0
 10
325.1944645551587
 20
200.7155427136644
 30
0.0
 10
325.1334935604381
 20
200.7155427136644
 30
0.0
 10
325.0631386907946
 20
200.7155427136644
 30
0.0
 10
324.9834023908912
 20
200.7155427136644
 30
0.0
 10
324.8942797424951
 20
200.7155427136644
 30
0.0
 10
324.637781746707
 20
200.7155427136644
 30
0.0
 10
324.0903296439064
 20
200.7155427136644
 30
0.0
 10
323.0099180460866
 20
200.7155427136644
 30
0.0
 10
321.6046393621678
 20
200.7155427136644
 30
0.0
 10
319.8575424175825
 20
200.7155427136644
 30
0.0
 10
317.8023804603521
 20
200.7155427136644
 30
0.0
 10
315.4496273491843
 20
200.7155427136644
 30
0.0
 10
312.8426735881998
 20
200.7155427136644
 30
0.0
 10
310.025350204572
 20
200.7155427136644
 30
0.0
 10
307.035819452241
 20
200.7155427136644
 30
0.0
 10
303.9481465584453
 20
200.7155427136644
 30
0.0
 10
300.7814734423743
 20
200.7155427136644
 30
0.0
 10
298.3019684717191
 20
200.7155427136644
 30
0.0
 10
296.5371526694991
 20
200.7155427136644
 30
0.0
 10
295.5103149597958
 20
200.7155427136644
 30
0.0
 10
294.4805724481822
 20
200.7155427136644
 30
0.0
 10
293.4478996764275
 20
200.7155427136644
 30
0.0
 10
292.4123066748046
 20
200.7155427136644
 30
0.0
 10
291.7208327723945
 20
200.7155427136644
 30
0.0
 10
291.3747688122577
 20
200.7155427136644
 30
0.0
  0
SPLINE
  5
116
330
1F
100
AcDbEntity
  8
0
  6
Continuous
 62
     7
370
    25
100
AcDbSpline
210
0.0
220
0.0
230
1.0
 70
    24
 71
     3
 72
    36
 73
    32
 74
     0
 42
0.00000001
 43
0.00000001
 40
0.0
 40
0.0
 40
0.0
 40
0.0
 40
0.0106145746969968
 40
0.0212161057437237
 40
0.0318075171334529
 40
0.0423917412464181
 40
0.0529717164390001
 40
0.0635503846081519
 40
0.0741306887410966
 40
0.0847155704604823
 40
0.0953079675752228
 40
0.1059108116471943
 40
0.1165270255838066
 40
0.1782628325686437
 40
0.2400084661618487
 40
0.3043175669748012
 40
0.3686365341371414
 40
0.4343140149272486
 40
0.500001572006992
 40
0.5656790530822445
 40
0.6313666104530463
 40
0.6956757120616349
 40
0.759994680016845
 40
0.8217304863904407
 40
0.8834761194798665
 40
0.9029241867219305
 40
0.9223371484400447
 40
0.9417330871351013
 40
0.9611301329161502
 40
0.9805464127909902
 40
1.0
 40
1.0
 40
1.0
 40
1.0
 10
291.3747688122577
 20
200.7155427136644
 30
0.0
 10
291.1859357792059
 20
200.7155427136644
 30
0.0
 10
290.8085017593324
 20
200.7155427136644
 30
0.0
 10
290.2428020728861
 20
200.7155427136644
 30
0.0
 10
289.6779538269094
 20
200.7155427136644
 30
0.0
 10
289.1139571281287
 20
200.7155427136644
 30
0.0
 10
288.5508121259295
 20
200.7155427136644
 30
0.0
 10
287.9885188995651
 20
200.7155427136644
 30
0.0
 10
287.4270777677519
 20
200.7155427136644
 30
0.0
 10
286.8664881583002
 20
200.7155427136644
 30
0.0
 10
286.3067528187256
 20
200.7155427136644
 30
0.0
 10
285.7478620823755
 20
200.7155427136644
 30
0.0
 10
284.2945704997277
 20
200.7155427136644
 30
0.0
 10
281.96820693924
 20
200.7155427136644
 30
0.0
 10
278.8017238393117
 20
200.7155427136644
 30
0.0
 10
275.7138743108906
 20
200.7155427136644
 30
0.0
 10
272.7244844094204
 20
200.7155427136644
 30
0.0
 10
269.9070049012583
 20
200.7155427136644
 30
0.0
 10
267.3001636498332
 20
200.7155427136644
 30
0.0
 10
264.9472708603475
 20
200.7155427136644
 30
0.0
 10
262.892190025218
 20
200.7155427136644
 30
0.0
 10
261.1449770743525
 20
200.7155427136644
 30
0.0
 10
259.7397544956303
 20
200.7155427136644
 30
0.0
 10
258.6592373403258
 20
200.7155427136644
 30
0.0
 10
258.0757868265325
 20
200.7155427136644
 30
0.0
 10
257.7767668366511
 20
200.7155427136644
 30
0.0
 10
257.6348665443134
 20
200.7155427136644
 30
0.0
 10
257.5243577746908
 20
200.7155427136644
 30
0.0
 10
257.4459958271914
 20
200.7155427136644
 30
0.0
 10
257.3969294038802
 20
200.7155427136644
 30
0.0
 10
257.3908733833633
 20
200.7155427136644
 30
0.0
 10
257.3878424668177
 20
200.7155427136644
 30
0.0
  0
SPLINE
  5
117
330
1F
100
AcDbEntity
  8
0
  6
Continuous
 62
     7
370
    25
100
AcDbSpline
210
0.0
220
0.0
230
1.0
 70
    24
 71
     3
 72
    36
 73
    32
 74
     0
 42
0.00000001
 43
0.00000001
 40
0.0
 40
0.0
 40
0.0
 40
0.0
 40
0.0106137586324106
 40
0.0212146348913034
 40
0.0318055538125498
 40
0.042389448687606
 40
0.0529692586502571
 40
0.0635479262390961
 40
0.0741283949458331
 40
0.0847136067596372
 40
0.0953064997177343
 40
0.1059100054724397
 40
0.1165270468846317
 40
0.1782628504833776
 40
0.2400084806888935
 40
0.3043175779732837
 40
0.368636541608109
 40
0.4343140187935666
 40
0.5000015722717137
 40
0.5656790497472368
 40
0.6313666035116141
 40
0.6956757015927861
 40
0.7599946660192302
 40
0.8217304690042277
 40
0.8834760987085578
 40
0.9029255566067175
 40
0.9223393515195755
 40
0.9417355667191984
 40
0.9611323346455064
 40
0.9805477861898154
 40
1.0
 40
1.0
 40
1.0
 40
1.0
 10
175.3616951576977
 20
200.7155427136644
 30
0.0
 10
175.360796766573
 20
200.7155427136644
 30
0.0
 10
175.3590010747394
 20
200.7155427136644
 30
0.0
 10
175.3444133055654
 20
200.7155427136644
 30
0.0
 10
175.3211140990958
 20
200.7155427136644
 30
0.0
 10
175.2882525485099
 20
200.7155427136644
 30
0.0
 10
175.2460563608481
 20
200.7155427136644
 30
0.0
 10
175.1944645551587
 20
200.7155427136644
 30
0.0
 10
175.1334935604381
 20
200.7155427136644
 30
0.0
 10
175.0631386907947
 20
200.7155427136644
 30
0.0
 10
174.9834023908912
 20
200.7155427136644
 30
0.0
 10
174.8942797424951
 20
200.7155427136644
 30
0.0
 10
174.637781746707
 20
200.7155427136644
 30
0.0
 10
174.0903296439065
 20
200.7155427136644
 30
0.0
 10
173.0099180460865
 20
200.7155427136644
 30
0.0
 10
171.6046393621679
 20
200.7155427136644
 30
0.0
 10
169.8575424175825
 20
200.7155427136644
 30
0.0
 10
167.8023804603521
 20
200.7155427136644
 30
0.0
 10
165.4496273491843
 20
200.7155427136644
 30
0.0
 10
162.8426735881998
 20
200.7155427136644
 30
0.0
 10
160.025350204572
 20
200.7155427136644
 30
0.0
 10
157.0358194522409
 20
200.7155427136644
 30
0.0
 10
153.9481465584453
 20
200.7155427136644
 30
0.0
 10
150.7814734423744
 20
200.7155427136644
 30
0.0
 10
148.3019684717191
 20
200.7155427136644
 30
0.0
 10
146.5371526694991
 20
200.7155427136644
 30
0.0
 10
145.5103149597959
 20
200.7155427136644
 30
0.0
 10
144.4805724481821
 20
200.7155427136644
 30
0.0
 10
143.4478996764275
 20
200.7155427136644
 30
0.0
 10
142.4123066748047
 20
200.7155427136644
 30
0.0
 10
141.7208327723944
 20
200.7155427136644
 30
0.0
 10
141.3747688122577
 20
200.7155427136644
 30
0.0
  0
SPLINE
  5
118
330
1F
100
AcDbEntity
  8
0
  6
Continuous
 62
     7
370
    25
100
AcDbSpline
210
0.0
220
0.0
230
1.0
 70
    24
 71
     3
 72
    36
 73
    32
 74
     0
 42
0.00000001
 43
0.00000001
 40
0.0
 40
0.0
 40
0.0
 40
0.0
 40
0.0106145746969968
 40
0.0212161057437235
 40
0.0318075171334529
 40
0.0423917412464181
 40
0.0529717164389998
 40
0.0635503846081519
 40
0.0741306887410966
 40
0.0847155704604823
 40
0.0953079675752228
 40
0.1059108116471946
 40
0.1165270255838066
 40
0.178262832568644
 40
0.2400084661618486
 40
0.3043175669748012
 40
0.3686365341371415
 40
0.4343140149272486
 40
0.5000015720069921
 40
0.5656790530822445
 40
0.6313666104530463
 40
0.6956757120616349
 40
0.759994680016845
 40
0.8217304863904407
 40
0.8834761194798665
 40
0.9029241867219305
 40
0.9223371484400447
 40
0.9417330871351013
 40
0.9611301329161502
 40
0.9805464127909902
 40
1.0
 40
1.0
 40
1.0
 40
1.0
 10
141.3747688122577
 20
200.7155427136644
 30
0.0
 10
141.1859357792059
 20
200.7155427136644
 30
0.0
 10
140.8085017593324
 20
200.7155427136644
 30
0.0
 10
140.2428020728862
 20
200.7155427136644
 30
0.0
 10
139.6779538269094
 20
200.7155427136644
 30
0.0
 10
139.1139571281287
 20
200.7155427136644
 30
0.0
 10
138.5508121259295
 20
200.7155427136644
 30
0.0
 10
137.9885188995652
 20
200.7155427136644
 30
0.0
 10
137.4270777677519
 20
200.7155427136644
 30
0.0
 10
136.8664881583002
 20
200.7155427136644
 30
0.0
 10
136.3067528187256
 20
200.7155427136644
 30
0.0
 10
135.7478620823755
 20
200.7155427136644
 30
0.0
 10
134.2945704997277
 20
200.7155427136644
 30
0.0
 10
131.9682069392399
 20
200.7155427136644
 30
0.0
 10
128.8017238393117
 20
200.7155427136644
 30
0.0
 10
125.7138743108906
 20
200.7155427136644
 30
0.0
 10
122.7244844094204
 20
200.7155427136644
 30
0.0
 10
119.9070049012584
 20
200.7155427136644
 30
0.0
 10
117.3001636498331
 20
200.7155427136644
 30
0.0
 10
114.9472708603475
 20
200.7155427136644
 30
0.0
 10
112.892190025218
 20
200.7155427136644
 30
0.0
 10
111.1449770743524
 20
200.7155427136644
 30
0.0
 10
109.7397544956303
 20
200.7155427136644
 30
0.0
 10
108.6592373403258
 20
200.7155427136644
 30
0.0
 10
108.0757868265326
 20
200.7155427136644
 30
0.0
 10
107.7767668366511
 20
200.7155427136644
 30
0.0
 10
107.6348665443133
 20
200.7155427136644
 30
0.0
 10
107.5243577746908
 20
200.7155427136644
 30
0.0
 10
107.4459958271913
 20
200.7155427136644
 30
0.0
 10
107.3969294038802
 20
200.7155427136644
 30
0.0
 10
107.3908733833632
 20
200.7155427136644
 30
0.0
 10
107.3878424668177
 20
200.7155427136644
 30
0.0
  0
LINE
  5
119
330
1F
100
AcDbEntity
  8
0
  6
Continuous
 62
     7
370
    25
100
AcDbLine
 10
298.6547688123
 20
169.7155427137
 30
0.0
 11
267.3682566913
 21
169.7155427137
 31
0.0
  0
LINE
  5
11A
330
1F
100
AcDbEntity
  8
0
  6
Continuous
 62
     7
370
    25
100
AcDbLine
 10
165.3812809331
 20
169.7155427137
 30
0.0
 11
134.0947688123
 21
169.7155427137
 31
0.0
  0
LINE
  5
11B
330
1F
100
AcDbEntity
  8
0
  6
Continuous
 62
     7
370
    25
100
AcDbLine
 10
321.2983185944
 20
157.7155427137
 30
0.0
 11
321.3747688123
 21
157.7155427137
 31
0.0
  0
LINE
  5
11C
330
1F
100
AcDbEntity
  8
0
  6
Continuous
 62
     7
370
    25
100
AcDbLine
 10
321.3747688123
 20
157.7155427137
 30
0.0
 11
321.3747688123
 21
140.7662028854
 31
0.0
  0
LINE
  5
11D
330
1F
100
AcDbEntity
  8
0
  6
Continuous
 62
     7
370
    25
100
AcDbLine
 10
111.3747688123
 20
157.7155427137
 30
0.0
 11
111.4512191453
 21
157.7155427137
 31
0.0
  0
LINE
  5
11E
330
1F
100
AcDbEntity
  8
0
  6
Continuous
 62
     7
370
    25
100
AcDbLine
 10
111.3747688123
 20
140.7662028854
 30
0.0
 11
111.3747688123
 21
157.7155427137
 31
0.0
  0
LINE
  5
11F
330
1F
100
AcDbEntity
  8
0
  6
Continuous
 62
     7
370
    25
100
AcDbLine
 10
305.3747688123
 20
139.7055427137
 30
0.0
 11
127.3747688123
 21
139.7055427137
 31
0.0
  0
SPLINE
  5
120
330
1F
100
AcDbEntity
  8
0
  6
Continuous
 62
     7
370
    25
100
AcDbSpline
210
0.0
220
0.0
230
1.0
 70
    24
 71
     3
 72
    15
 73
    11
 74
     0
 42
0.00000001
 43
0.00000001
 40
-0.0000000000000115
 40
-0.0000000000000115
 40
-0.0000000000000115
 40
-0.0000000000000115
 40
0.1249999999999281
 40
0.2499999999999281
 40
0.3749999999999282
 40
0.4999999999999282
 40
0.6249999999999282
 40
0.7499999999999282
 40
0.8749999999999282
 40
0.9999999999999396
 40
0.9999999999999396
 40
0.9999999999999396
 40
0.9999999999999396
 10
134.0947688122563
 20
169.7255427136604
 30
0.0
 10
133.0114354789194
 20
169.7255427136604
 30
0.0
 10
131.0514354789217
 20
169.7255427136604
 30
0.0
 10
128.6779979789267
 20
169.7255427136604
 30
0.0
 10
126.8176854789266
 20
169.7255427136604
 30
0.0
 10
125.4170604789264
 20
169.7255427136604
 30
0.0
 10
124.4226854789262
 20
169.7255427136604
 30
0.0
 10
123.781122978926
 20
169.7255427136604
 30
0.0
 10
123.4389354789186
 20
169.7255427136604
 30
0.0
 10
123.3747688122585
 20
169.7255427136604
 30
0.0
 10
123.3747688122545
 20
169.7255427136604
 30
0.0
  0
SPLINE
  5
121
330
1F
100
AcDbEntity
  8
0
  6
Continuous
 62
     7
370
    25
100
AcDbSpline
210
0.0
220
0.0
230
1.0
 70
     8
 71
     3
 72
     9
 73
     5
 74
     0
 42
0.00000001
 43
0.00000001
 40
0.0
 40
0.0
 40
0.0
 40
0.0
 40
0.112596891008848
 40
1.0
 40
1.0
 40
1.0
 40
1.0
 10
120.8020011151801
 20
169.4290408425814
 30
0.0
 10
120.8967280749327
 20
169.4518641642408
 30
0.0
 10
121.7380209286148
 20
169.6545635590017
 30
0.0
 10
122.6052166409912
 20
169.6868720543985
 30
0.0
 10
123.3747688122577
 20
169.7155427136604
 30
0.0
  0
SPLINE
  5
122
330
1F
100
AcDbEntity
  8
0
  6
Continuous
 62
     7
370
    25
100
AcDbSpline
210
0.0
220
0.0
230
1.0
 70
     8
 71
     3
 72
    13
 73
     9
 74
     0
 42
0.00000001
 43
0.00000001
 40
0.0
 40
0.0
 40
0.0
 40
0.0
 40
0.1937134496296254
 40
0.3792935814017607
 40
0.5567404806435972
 40
0.7260542691961799
 40
0.8872351116531119
 40
1.0
 40
1.0
 40
1.0
 40
1.0
 10
309.3747688122577
 20
169.7155427136604
 30
0.0
 10
309.5422154598932
 20
169.7135363013427
 30
0.0
 10
309.8700782840635
 20
169.7096077186079
 30
0.0
 10
310.350644585327
 20
169.6785477521363
 30
0.0
 10
310.8089493061925
 20
169.6328286872274
 30
0.0
 10
311.2439481644687
 20
169.5702195665318
 30
0.0
 10
311.6230849676334
 20
169.5092951785842
 30
0.0
 10
311.8531555505846
 20
169.4505837270503
 30
0.0
 10
311.9478600145756
 20
169.4264162021268
 30
0.0
  0
SPLINE
  5
123
330
1F
100
AcDbEntity
  8
0
  6
Continuous
 62
     7
370
    25
100
AcDbSpline
210
0.0
220
0.0
230
1.0
 70
    24
 71
     3
 72
    25
 73
    21
 74
     0
 42
0.00000001
 43
0.00000001
 40
0.0
 40
0.0
 40
0.0
 40
0.0
 40
0.0291691464324785
 40
0.0569583643255181
 40
0.0833798729219896
 40
0.1084478915875927
 40
0.1321790727849901
 40
0.1901558524461798
 40
0.242155499823494
 40
0.3370521860638695
 40
0.3826511054716301
 40
0.428965486867285
 40
0.4779710463595175
 40
0.5313220040150078
 40
0.5898928360927047
 40
0.65567808550055
 40
0.7280543865063168
 40
0.8100486062518847
 40
0.898943529259709
 40
1.0
 40
1.0
 40
1.0
 40
1.0
 10
309.3747688122577
 20
169.7255427136604
 30
0.0
 10
309.3740014708615
 20
169.7255427136604
 30
0.0
 10
309.3725030893128
 20
169.7255427136604
 30
0.0
 10
309.3596807125762
 20
169.7255427136604
 30
0.0
 10
309.3389931809706
 20
169.7255427136604
 30
0.0
 10
309.3097806971837
 20
169.7255427136604
 30
0.0
 10
309.2534487602747
 20
169.7255427136604
 30
0.0
 10
309.1459882572935
 20
169.7255427136604
 30
0.0
 10
308.8801727271639
 20
169.7255427136604
 30
0.0
 10
308.449383279327
 20
169.7255427136604
 30
0.0
 10
307.8243639237945
 20
169.7255427136604
 30
0.0
 10
307.2649596294484
 20
169.7255427136604
 30
0.0
 10
306.6029422265823
 20
169.7255427136604
 30
0.0
 10
305.8353288059307
 20
169.7255427136604
 30
0.0
 10
304.9528106029782
 20
169.7255427136604
 30
0.0
 10
303.9544076853338
 20
169.7255427136604
 30
0.0
 10
302.824214468237
 20
169.7255427136604
 30
0.0
 10
301.5685367569
 20
169.7255427136604
 30
0.0
 10
300.1614908185867
 20
169.7255427136604
 30
0.0
 10
299.1779986865225
 20
169.7255427136604
 30
0.0
 10
298.6547688122577
 20
169.7255427136604
 30
0.0
  0
SPLINE
  5
124
330
1F
100
AcDbEntity
  8
0
  6
Continuous
 62
     7
370
    25
100
AcDbSpline
210
0.0
220
0.0
230
1.0
 70
    24
 71
     3
 72
    21
 73
    17
 74
     0
 42
0.00000001
 43
0.00000001
 40
0.0
 40
0.0
 40
0.0
 40
0.0
 40
0.0624307962999653
 40
0.1246996993545116
 40
0.2490445499948644
 40
0.3141352278411723
 40
0.3745244004885828
 40
0.4372575098282746
 40
0.4996791963576405
 40
0.5710971359335889
 40
0.6427247273076544
 40
0.6947806015882168
 40
0.7501984823320612
 40
0.8747632700128402
 40
0.9372871262238285
 40
1.0
 40
1.0
 40
1.0
 40
1.0
 10
127.3747688122577
 20
139.7055427136604
 30
0.0
 10
126.8550763236242
 20
139.7055427136604
 30
0.0
 10
125.8170389938099
 20
139.7055427136604
 30
0.0
 10
123.7454969040023
 20
139.7055427136604
 30
0.0
 10
121.6544601892787
 20
139.7055427136604
 30
0.0
 10
119.6387201054019
 20
139.7055427136604
 30
0.0
 10
118.1753822145847
 20
139.7055427136604
 30
0.0
 10
116.8256583267002
 20
139.7055427136604
 30
0.0
 10
115.5503727369626
 20
139.7055427136604
 30
0.0
 10
114.4771734963337
 20
139.7055427136604
 30
0.0
 10
113.7205586529602
 20
139.7055427136604
 30
0.0
 10
113.2145056760277
 20
139.7055427136604
 30
0.0
 10
112.7357593089963
 20
139.7055427136604
 30
0.0
 10
112.5085523258882
 20
139.7055427136604
 30
0.0
 10
112.4389077068451
 20
139.7055427136604
 30
0.0
 10
112.4365897244834
 20
139.7055427136604
 30
0.0
 10
112.4354289840577
 20
139.7055427136604
 30
0.0
  0
SPLINE
  5
125
330
1F
100
AcDbEntity
  8
0
  6
Continuous
 62
     7
370
    25
100
AcDbSpline
210
0.0
220
0.0
230
1.0
 70
     8
 71
     3
 72
    14
 73
    10
 74
     0
 42
0.00000001
 43
0.00000001
 40
0.0
 40
0.0
 40
0.0
 40
0.0
 40
0.25
 40
0.25
 40
0.5
 40
0.5
 40
0.75
 40
0.75
 40
1.0
 40
1.0
 40
1.0
 40
1.0
 10
112.4354289840577
 20
139.7055427136604
 30
0.0
 10
112.2965888922403
 20
139.7055427136604
 30
0.0
 10
112.1578034280702
 20
139.7331488588964
 30
0.0
 10
111.9012603898259
 20
139.8394124646696
 30
0.0
 10
111.7836037544823
 20
139.9180281150156
 30
0.0
 10
111.5872542136329
 20
140.114377655865
 30
0.0
 10
111.5086385632869
 20
140.2320342912085
 30
0.0
 10
111.4023749575137
 20
140.4885773294528
 30
0.0
 10
111.3747688122777
 20
140.6273627936229
 30
0.0
 10
111.3747688122777
 20
140.7662028854404
 30
0.0
  0
SPLINE
  5
126
330
1F
100
AcDbEntity
  8
0
  6
Continuous
 62
     7
370
    25
100
AcDbSpline
210
0.0
220
0.0
230
1.0
 70
     8
 71
     3
 72
    11
 73
     7
 74
     0
 42
0.00000001
 43
0.00000001
 40
0.0
 40
0.0
 40
0.0
 40
0.0
 40
0.25
 40
0.5
 40
0.75
 40
1.0
 40
1.0
 40
1.0
 40
1.0
 10
320.3141086404577
 20
139.7055427136604
 30
0.0
 10
320.4391086404577
 20
139.7055427136604
 30
0.0
 10
320.7091484331577
 20
139.7508471299804
 30
0.0
 10
321.0865097534577
 20
139.9938017724704
 30
0.0
 10
321.3294643959577
 20
140.3711630927904
 30
0.0
 10
321.3747688122577
 20
140.6412028854404
 30
0.0
 10
321.3747688122577
 20
140.7662028854404
 30
0.0
  0
SPLINE
  5
127
330
1F
100
AcDbEntity
  8
0
  6
Continuous
 62
     7
370
    25
100
AcDbSpline
210
0.0
220
0.0
230
1.0
 70
    24
 71
     3
 72
    22
 73
    18
 74
     0
 42
0.00000001
 43
0.00000001
 40
0.0
 40
0.0
 40
0.0
 40
0.0
 40
0.0627094284647047
 40
0.1252298497484479
 40
0.2497877941055914
 40
0.3013507724217721
 40
0.3501045049480179
 40
0.3883191566238193
 40
0.4253668675343651
 40
0.5003482281319592
 40
0.5627664853470643
 40
0.6254961482635915
 40
0.6858596442408347
 40
0.7509691319812934
 40
0.8753071513808834
 40
0.937572633514767
 40
1.0
 40
1.0
 40
1.0
 40
1.0
 10
320.3141086404577
 20
139.7055427136604
 30
0.0
 10
320.3129487411912
 20
139.7055427136604
 30
0.0
 10
320.3106324386123
 20
139.7055427136604
 30
0.0
 10
320.2409710970996
 20
139.7055427136604
 30
0.0
 10
320.0174719507837
 20
139.7055427136604
 30
0.0
 10
319.5587018507352
 20
139.7055427136604
 30
0.0
 10
319.1784923116733
 20
139.7055427136604
 30
0.0
 10
318.7492180591712
 20
139.7055427136604
 30
0.0
 10
318.1279244529487
 20
139.7055427136604
 30
0.0
 10
317.2222345807261
 20
139.7055427136604
 30
0.0
 10
315.9238981801303
 20
139.7055427136604
 30
0.0
 10
314.5743124093098
 20
139.7055427136604
 30
0.0
 10
313.1110016756623
 20
139.7055427136604
 30
0.0
 10
311.0952605458137
 20
139.7055427136604
 30
0.0
 10
309.0040411710543
 20
139.7055427136604
 30
0.0
 10
306.9324985508783
 20
139.7055427136604
 30
0.0
 10
305.8944612742591
 20
139.7055427136604
 30
0.0
 10
305.3747688122577
 20
139.7055427136604
 30
0.0
  0
LINE
  5
128
330
1F
100
AcDbEntity
  8
0
  6
Continuous
 62
     7
370
    25
100
AcDbLine
 10
208.3747688208
 20
191.7155427137
 30
0.0
 11
216.3747688123
 21
191.7155427137
 31
0.0
  0
LINE
  5
129
330
1F
100
AcDbEntity
  8
0
  6
Continuous
 62
     7
370
    25
100
AcDbLine
 10
216.3747688123
 20
191.7155427137
 30
0.0
 11
224.3747673642
 21
191.7155427137
 31
0.0
  0
SPLINE
  5
12A
330
1F
100
AcDbEntity
  8
0
  6
Continuous
 62
     7
370
    25
100
AcDbSpline
210
0.0
220
0.0
230
1.0
 70
     8
 71
     3
 72
    17
 73
    13
 74
     0
 42
0.00000001
 43
0.00000001
 40
0.0
 40
0.0
 40
0.0
 40
0.0
 40
0.0531740673383837
 40
0.122744943119884
 40
0.2087957135599082
 40
0.3113340096686446
 40
0.4304155619059611
 40
0.5641089479119112
 40
0.6979575441621109
 40
0.7900755738012091
 40
0.8908058071696936
 40
1.0
 40
1.0
 40
1.0
 40
1.0
 10
239.1555744469168
 20
181.8368253805154
 30
0.0
 10
239.1076929917428
 20
181.8999074146483
 30
0.0
 10
238.9971653081176
 20
182.0455235218807
 30
0.0
 10
238.8064979061542
 20
182.2896436369623
 30
0.0
 10
238.5772059362601
 20
182.5989494342517
 30
0.0
 10
238.3050557238538
 20
182.9686037771255
 30
0.0
 10
237.99565237788
 20
183.4008256219176
 30
0.0
 10
237.6628089543237
 20
183.8752750582751
 30
0.0
 10
237.3578309861397
 20
184.3212878163481
 30
0.0
 10
237.0813955108448
 20
184.7276861935547
 30
0.0
 10
236.8257031755052
 20
185.1044156081188
 30
0.0
 10
236.6433303457256
 20
185.3620607372201
 30
0.0
 10
236.5484673785971
 20
185.4960773088898
 30
0.0
  0
SPLINE
  5
12B
330
1F
100
AcDbEntity
  8
0
  6
Continuous
 62
     7
370
    25
100
AcDbSpline
210
0.0
220
0.0
230
1.0
 70
     8
 71
     3
 72
    15
 73
    11
 74
     0
 42
0.00000001
 43
0.00000001
 40
0.0
 40
0.0
 40
0.0
 40
0.0
 40
0.0785612152533109
 40
0.1560211129440044
 40
0.2309590703545014
 40
0.3020485211726202
 40
0.4326908960909894
 40
0.5695910962884694
 40
0.7745412265701225
 40
1.0
 40
1.0
 40
1.0
 40
1.0
 10
196.2009790959201
 20
185.4961431454366
 30
0.0
 10
196.1325370380364
 20
185.4000023523461
 30
0.0
 10
195.996612383501
 20
185.2090685246434
 30
0.0
 10
195.7996969060978
 20
184.9222215516178
 30
0.0
 10
195.6100251102063
 20
184.6439459119025
 30
0.0
 10
195.3758718545861
 20
184.2995835514002
 30
0.0
 10
195.0887269429844
 20
183.8797980732449
 30
0.0
 10
194.6831753123043
 20
183.29900811237
 30
0.0
 10
194.1873111240669
 20
182.6111390773343
 30
0.0
 10
193.7976593219216
 20
182.1032115436646
 30
0.0
 10
193.593550121069
 20
181.8371466046149
 30
0.0
  0
SPLINE
  5
12C
330
1F
100
AcDbEntity
  8
0
  6
Continuous
 62
     7
370
    25
100
AcDbSpline
210
0.0
220
0.0
230
1.0
 70
     8
 71
     3
 72
    13
 73
     9
 74
     0
 42
0.00000001
 43
0.00000001
 40
0.0
 40
0.0
 40
0.0
 40
0.0
 40
0.25
 40
0.25
 40
0.5
 40
0.5
 40
0.75
 40
1.0
 40
1.0
 40
1.0
 40
1.0
 10
236.5485584852885
 20
185.4961432125347
 30
0.0
 10
235.8712997740671
 20
186.4329956476173
 30
0.0
 10
235.0902345564244
 20
187.2908023638745
 30
0.0
 10
233.3390589640027
 20
188.8100675277779
 30
0.0
 10
232.3696838066025
 20
189.4745153788557
 30
0.0
 10
230.2720604539782
 20
190.5688739162458
 30
0.0
 10
228.014093852603
 20
191.4227163256004
 30
0.0
 10
225.5881721712665
 20
191.7255427105217
 30
0.0
 10
224.3747688124717
 20
191.7255427136369
 30
0.0
  0
SPLINE
  5
12D
330
1F
100
AcDbEntity
  8
0
  6
Continuous
 62
     7
370
    25
100
AcDbSpline
210
0.0
220
0.0
230
1.0
 70
     8
 71
     3
 72
    27
 73
    23
 74
     0
 42
0.00000001
 43
0.00000001
 40
0.0
 40
0.0
 40
0.0
 40
0.0
 40
0.025129282068436
 40
0.0542466828622589
 40
0.0873525035610452
 40
0.124446907027442
 40
0.2016996431331725
 40
0.2491540916452148
 40
0.3377785952270516
 40
0.415652286223241
 40
0.4583864607506297
 40
0.4990152205906443
 40
0.5486092668498839
 40
0.5982522597214712
 40
0.6479681322803951
 40
0.697780712538098
 40
0.7477136900436677
 40
0.797790583463991
 40
0.8480347093545628
 40
0.8984691523136872
 40
0.9491167366912685
 40
1.0
 40
1.0
 40
1.0
 40
1.0
 10
196.2011480754154
 20
185.4960212654408
 30
0.0
 10
196.2701557921498
 20
185.5903330799698
 30
0.0
 10
196.4191230294367
 20
185.7939243755345
 30
0.0
 10
196.6688097953552
 20
186.1135638162869
 30
0.0
 10
196.9621930762392
 20
186.4688924341905
 30
0.0
 10
197.4145490009252
 20
186.9813103915042
 30
0.0
 10
197.9402784251781
 20
187.5169765288246
 30
0.0
 10
198.6731108357088
 20
188.1820190976674
 30
0.0
 10
199.4521338684562
 20
188.8041551791923
 30
0.0
 10
200.2626773135751
 20
189.3541803930941
 30
0.0
 10
200.9131861585759
 20
189.7437562750275
 30
0.0
 10
201.4638741063488
 20
190.0448478253561
 30
0.0
 10
202.0588569885794
 20
190.3379477313358
 30
0.0
 10
202.7092827004775
 20
190.6211055678994
 30
0.0
 10
203.3758974089569
 20
190.8744799880506
 30
0.0
 10
204.0573817686875
 20
191.0969925541157
 30
0.0
 10
204.7523497748627
 20
191.2876431877409
 30
0.0
 10
205.4593425444022
 20
191.4454100866406
 30
0.0
 10
206.176832396956
 20
191.5696298947139
 30
0.0
 10
206.9032245273268
 20
191.6585992882837
 30
0.0
 10
207.6368598478541
 20
191.7148460077921
 30
0.0
 10
208.128418818666
 20
191.7218328404389
 30
0.0
 10
208.3747688207941
 20
191.7253343658704
 30
0.0
  0
SPLINE
  5
12E
330
1F
100
AcDbEntity
  8
0
  6
Continuous
 62
     7
370
    25
100
AcDbSpline
210
0.0
220
0.0
230
1.0
 70
     8
 71
     3
 72
    25
 73
    21
 74
     0
 42
0.00000001
 43
0.00000001
 40
0.0
 40
0.0
 40
0.0
 40
0.0
 40
0.0192643875255472
 40
0.0400411977235201
 40
0.0623353873295725
 40
0.0911472320145707
 40
0.1246999708294486
 40
0.1452068596156
 40
0.1870972339896316
 40
0.2495187559220605
 40
0.3145562574333151
 40
0.3744537072867893
 40
0.4381309518710729
 40
0.4994898937340477
 40
0.6217756784506986
 40
0.7495672915980743
 40
0.8084046271883267
 40
0.8696412376889714
 40
0.9334471594906115
 40
1.0
 40
1.0
 40
1.0
 40
1.0
 10
193.5935501209061
 20
181.8371466047456
 30
0.0
 10
193.4695305754022
 20
181.6791037287173
 30
0.0
 10
193.2117548669081
 20
181.3506102305746
 30
0.0
 10
192.8016969891307
 20
180.8480198204355
 30
0.0
 10
192.3205043571922
 20
180.2765805807565
 30
0.0
 10
191.7410392390193
 20
179.6163196315597
 30
0.0
 10
191.15747389421
 20
178.984984178686
 30
0.0
 10
190.4659610124651
 20
178.2701011455686
 30
0.0
 10
189.5406671842845
 20
177.362264883827
 30
0.0
 10
188.2273994318808
 20
176.1851579068513
 30
0.0
 10
186.6833076399226
 20
174.9686011983105
 30
0.0
 10
185.0347849803553
 20
173.850177696464
 30
0.0
 10
183.325020552541
 20
172.8748311903781
 30
0.0
 10
180.9221884102828
 20
171.7548909048886
 30
0.0
 10
177.7056789131077
 20
170.6992059455667
 30
0.0
 10
174.372642442533
 20
170.1131769426478
 30
0.0
 10
171.6668726785626
 20
169.8638080196011
 30
0.0
 10
169.6503535738276
 20
169.7633837413601
 30
0.0
 10
167.5455098932867
 20
169.7259210013365
 30
0.0
 10
166.1127542580566
 20
169.7256705686648
 30
0.0
 10
165.3812809332879
 20
169.7255427137713
 30
0.0
  0
SPLINE
  5
12F
330
1F
100
AcDbEntity
  8
0
  6
Continuous
 62
     7
370
    25
100
AcDbSpline
210
0.0
220
0.0
230
1.0
 70
     8
 71
     3
 72
    17
 73
    13
 74
     0
 42
0.00000001
 43
0.00000001
 40
-0.0000000000003722
 40
-0.0000000000003722
 40
-0.0000000000003722
 40
-0.0000000000003722
 40
0.07869555724316
 40
0.1573911144863
 40
0.2360866717295
 40
0.3147822289726
 40
0.3934777862158
 40
0.4328255648374
 40
0.472173343459
 40
0.5115211220805
 40
0.5508689007021
 40
0.6295643730222
 40
0.6295643730222
 40
0.6295643730222
 40
0.6295643730222
 10
267.3682566913877
 20
169.7255427136604
 30
0.0
 10
265.9918723985735
 20
169.7255427134349
 30
0.0
 10
263.2395060606052
 20
169.7327191594925
 30
0.0
 10
259.1195422045798
 20
169.9817542682075
 30
0.0
 10
255.0742949551207
 20
170.7016871587735
 30
0.0
 10
251.1946433813325
 20
171.9522748233367
 30
0.0
 10
248.2304665335047
 20
173.5075791222118
 30
0.0
 10
246.0467724802786
 20
174.9881996632775
 30
0.0
 10
244.5012109343812
 20
176.2023808992168
 30
0.0
 10
243.047320866602
 20
177.5026307816741
 30
0.0
 10
241.2137414289584
 20
179.3319747413687
 30
0.0
 10
239.9538138354368
 20
180.8101349154364
 30
0.0
 10
239.1555845590038
 20
181.8368343832769
 30
0.0
  0
SPLINE
  5
130
330
1F
100
AcDbEntity
  8
0
  6
Continuous
 62
     7
370
    25
100
AcDbSpline
210
0.0
220
0.0
230
1.0
 70
    24
 71
     3
 72
     8
 73
     4
 74
     0
 42
0.00000001
 43
0.00000001
 40
0.0
 40
0.0
 40
0.0
 40
0.0
 40
1.0
 40
1.0
 40
1.0
 40
1.0
 10
287.4538915324065
 20
187.7155427136644
 30
0.0
 10
288.7329096267392
 20
187.7155427136644
 30
0.0
 10
290.05103532223
 20
187.7155427136644
 30
0.0
 10
291.3747688122577
 20
187.7155427136644
 30
0.0
  0
SPLINE
  5
131
330
1F
100
AcDbEntity
  8
0
  6
Continuous
 62
     7
370
    25
100
AcDbSpline
210
0.0
220
0.0
230
1.0
 70
    24
 71
     3
 72
     8
 73
     4
 74
     0
 42
0.00000001
 43
0.00000001
 40
0.0
 40
0.0
 40
0.0
 40
0.0
 40
1.0
 40
1.0
 40
1.0
 40
1.0
 10
291.3747688122577
 20
187.7155427136644
 30
0.0
 10
292.6984958022826
 20
187.7155427136644
 30
0.0
 10
294.0166150762718
 20
187.7155427136644
 30
0.0
 10
295.29562732569
 20
187.7155427136644
 30
0.0
  0
SPLINE
  5
132
330
1F
100
AcDbEntity
  8
0
  6
Continuous
 62
     7
370
    25
100
AcDbSpline
210
0.0
220
0.0
230
1.0
 70
    24
 71
     3
 72
     8
 73
     4
 74
     0
 42
0.00000001
 43
0.00000001
 40
0.0
 40
0.0
 40
0.0
 40
0.0
 40
1.0
 40
1.0
 40
1.0
 40
1.0
 10
137.4538915324065
 20
187.7155427136644
 30
0.0
 10
138.7329096267392
 20
187.7155427136644
 30
0.0
 10
140.05103532223
 20
187.7155427136644
 30
0.0
 10
141.3747688122577
 20
187.7155427136644
 30
0.0
  0
SPLINE
  5
133
330
1F
100
AcDbEntity
  8
0
  6
Continuous
 62
     7
370
    25
100
AcDbSpline
210
0.0
220
0.0
230
1.0
 70
    24
 71
     3
 72
     8
 73
     4
 74
     0
 42
0.00000001
 43
0.00000001
 40
0.0
 40
0.0
 40
0.0
 40
0.0
 40
1.0
 40
1.0
 40
1.0
 40
1.0
 10
141.3747688122577
 20
187.7155427136644
 30
0.0
 10
142.6984958022826
 20
187.7155427136644
 30
0.0
 10
144.0166150762717
 20
187.7155427136644
 30
0.0
 10
145.29562732569
 20
187.7155427136644
 30
0.0
  0
LINE
  5
134
330
1F
100
AcDbEntity
  8
0
  6
Continuous
 62
     7
370
    25
100
AcDbLine
 10
295.2956467106
 20
187.7155426915
 30
0.0
 11
296.8883883131
 21
187.7155426915
 31
0.0
  0
LINE
  5
135
330
1F
100
AcDbEntity
  8
0
  6
Continuous
 62
     7
370
    25
100
AcDbLine
 10
285.8611493114
 20
187.7155426915
 30
0.0
 11
287.4538708104
 21
187.7155426915
 31
0.0
  0
LINE
  5
136
330
1F
100
AcDbEntity
  8
0
  6
Continuous
 62
     7
370
    25
100
AcDbLine
 10
145.2956467106
 20
187.7155427137
 30
0.0
 11
146.8883883131
 21
187.7155427137
 31
0.0
  0
LINE
  5
137
330
1F
100
AcDbEntity
  8
0
  6
Continuous
 62
     7
370
    25
100
AcDbLine
 10
135.8611493114
 20
187.7155427137
 30
0.0
 11
137.4538708104
 21
187.7155427137
 31
0.0
  0
LINE
  5
138
330
1F
100
AcDbEntity
  8
0
  6
Continuous
 62
     7
370
    25
100
AcDbLine
 10
296.8883883131
 20
170.7155426915
 30
0.0
 11
285.8611493114
 21
170.7155426915
 31
0.0
  0
LINE
  5
139
330
1F
100
AcDbEntity
  8
0
  6
Continuous
 62
     7
370
    25
100
AcDbLine
 10
146.8883883131
 20
170.7155427137
 30
0.0
 11
135.8611493114
 21
170.7155427137
 31
0.0
  0
SPLINE
  5
13A
330
1F
100
AcDbEntity
  8
0
  6
Continuous
 62
     7
370
    25
100
AcDbSpline
210
0.0
220
0.0
230
1.0
 70
    24
 71
     3
 72
    10
 73
     6
 74
     0
 42
0.00000001
 43
0.00000001
 40
0.0
 40
0.0
 40
0.0
 40
0.0
 40
0.5
 40
0.5
 40
1.0
 40
1.0
 40
1.0
 40
1.0
 10
285.8611493114195
 20
187.7155426915304
 30
0.0
 10
282.8689977955329
 20
187.7155426915304
 30
0.0
 10
280.2904041968458
 20
187.7155426915304
 30
0.0
 10
276.6500719893604
 20
187.7155426915304
 30
0.0
 10
275.6747688122564
 20
187.7155426915304
 30
0.0
 10
275.6747688122564
 20
187.7155426915304
 30
0.0
  0
SPLINE
  5
13B
330
1F
100
AcDbEntity
  8
0
  6
Continuous
 62
     7
370
    25
100
AcDbSpline
210
0.0
220
0.0
230
1.0
 70
    24
 71
     3
 72
    10
 73
     6
 74
     0
 42
0.00000001
 43
0.00000001
 40
0.0
 40
0.0
 40
0.0
 40
0.0
 40
0.5
 40
0.5
 40
1.0
 40
1.0
 40
1.0
 40
1.0
 10
135.8611493114195
 20
187.7155427136644
 30
0.0
 10
132.8689977955329
 20
187.7155427136644
 30
0.0
 10
130.2904041968459
 20
187.7155427136644
 30
0.0
 10
126.6500719893603
 20
187.7155427136644
 30
0.0
 10
125.6747688122564
 20
187.7155427136644
 30
0.0
 10
125.6747688122564
 20
187.7155427136644
 30
0.0
  0
SPLINE
  5
13C
330
1F
100
AcDbEntity
  8
0
  6
Continuous
 62
     7
370
    25
100
AcDbSpline
210
0.0
220
0.0
230
1.0
 70
    24
 71
     3
 72
    26
 73
    22
 74
     0
 42
0.00000001
 43
0.00000001
 40
0.0
 40
0.0
 40
0.0
 40
0.0
 40
0.0200152538592876
 40
0.0400085007840341
 40
0.0599914867130321
 40
0.0799759756778682
 40
0.0999737290575656
 40
0.119996484856587
 40
0.1820811301945879
 40
0.2441932152758238
 40
0.3077698366636892
 40
0.371374557254664
 40
0.5000043577648007
 40
0.6286341582749435
 40
0.6922107804210063
 40
0.7558155017655095
 40
0.8179001482507635
 40
0.8800122344753439
 40
0.9200178476912476
 40
0.9599823809350884
 40
1.0
 40
1.0
 40
1.0
 40
1.0
 10
296.8883883130977
 20
187.7155426915304
 30
0.0
 10
297.0068962789769
 20
187.7155426915304
 30
0.0
 10
297.2437819102622
 20
187.7155426915304
 30
0.0
 10
297.5946773682491
 20
187.7155426915304
 30
0.0
 10
297.9419708096086
 20
187.7155426915304
 30
0.0
 10
298.2853674997081
 20
187.7155426915304
 30
0.0
 10
298.6249499073689
 20
187.7155426915304
 30
0.0
 10
299.1955201339653
 20
187.7155426915304
 30
0.0
 10
299.9798255008206
 20
187.7155426915304
 30
0.0
 10
300.9515270441918
 20
187.7155426915304
 30
0.0
 10
301.8757298953431
 20
187.7155426915304
 30
0.0
 10
303.0406086101699
 20
187.7155426915304
 30
0.0
 10
304.3318603103555
 20
187.7155426915304
 30
0.0
 10
305.3607983906813
 20
187.7155426915304
 30
0.0
 10
306.0101361381933
 20
187.7155426915304
 30
0.0
 10
306.4042419984136
 20
187.7155426915304
 30
0.0
 10
306.7087217955818
 20
187.7155426915304
 30
0.0
 10
306.8984428633821
 20
187.7155426915304
 30
0.0
 10
307.0068367433212
 20
187.7155426915304
 30
0.0
 10
307.0641711003842
 20
187.7155426915304
 30
0.0
 10
307.0712346788852
 20
187.7155426915304
 30
0.0
 10
307.0747688122577
 20
187.7155426915304
 30
0.0
  0
SPLINE
  5
13D
330
1F
100
AcDbEntity
  8
0
  6
Continuous
 62
     7
370
    25
100
AcDbSpline
210
0.0
220
0.0
230
1.0
 70
    24
 71
     3
 72
    26
 73
    22
 74
     0
 42
0.00000001
 43
0.00000001
 40
0.0
 40
0.0
 40
0.0
 40
0.0
 40
0.0200152538592876
 40
0.0400085007840341
 40
0.0599914867130321
 40
0.0799759756778682
 40
0.0999737290575656
 40
0.119996484856587
 40
0.1820811301945879
 40
0.2441932152758238
 40
0.3077698366636892
 40
0.371374557254664
 40
0.5000043577648007
 40
0.6286341582749435
 40
0.6922107804210063
 40
0.7558155017655095
 40
0.8179001482507634
 40
0.8800122344753439
 40
0.9200178476912476
 40
0.9599823809350884
 40
1.0
 40
1.0
 40
1.0
 40
1.0
 10
146.8883883130977
 20
187.7155427136644
 30
0.0
 10
147.0068962789769
 20
187.7155427136644
 30
0.0
 10
147.2437819102622
 20
187.7155427136644
 30
0.0
 10
147.5946773682491
 20
187.7155427136644
 30
0.0
 10
147.9419708096086
 20
187.7155427136644
 30
0.0
 10
148.2853674997081
 20
187.7155427136644
 30
0.0
 10
148.624949907369
 20
187.7155427136644
 30
0.0
 10
149.1955201339654
 20
187.7155427136644
 30
0.0
 10
149.9798255008205
 20
187.7155427136644
 30
0.0
 10
150.9515270441918
 20
187.7155427136644
 30
0.0
 10
151.8757298953431
 20
187.7155427136644
 30
0.0
 10
153.0406086101699
 20
187.7155427136644
 30
0.0
 10
154.3318603103555
 20
187.7155427136644
 30
0.0
 10
155.3607983906813
 20
187.7155427136644
 30
0.0
 10
156.0101361381933
 20
187.7155427136644
 30
0.0
 10
156.4042419984137
 20
187.7155427136644
 30
0.0
 10
156.7087217955818
 20
187.7155427136644
 30
0.0
 10
156.8984428633821
 20
187.7155427136644
 30
0.0
 10
157.0068367433212
 20
187.7155427136644
 30
0.0
 10
157.0641711003842
 20
187.7155427136644
 30
0.0
 10
157.0712346788851
 20
187.7155427136644
 30
0.0
 10
157.0747688122577
 20
187.7155427136644
 30
0.0
  0
SPLINE
  5
13E
330
1F
100
AcDbEntity
  8
0
  6
Continuous
 62
     7
370
    25
100
AcDbSpline
210
0.0
220
0.0
230
1.0
 70
    24
 71
     3
 72
    26
 73
    22
 74
     0
 42
0.00000001
 43
0.00000001
 40
0.0
 40
0.0
 40
0.0
 40
0.0
 40
0.020015253855586
 40
0.0400085007781149
 40
0.0599914867063766
 40
0.079975975671954
 40
0.0999737290538646
 40
0.1199964848565609
 40
0.1820811301926394
 40
0.2441932152758768
 40
0.307769836667404
 40
0.3713745572546923
 40
0.5000043577648319
 40
0.6286341582749703
 40
0.6922107804142043
 40
0.7558155017655105
 40
0.8179001482472434
 40
0.8800122344753665
 40
0.9200178476924515
 40
0.9599823809362876
 40
1.0
 40
1.0
 40
1.0
 40
1.0
 10
157.0747688122577
 20
170.7155427136604
 30
0.0
 10
157.0738846905765
 20
170.7155427136604
 30
0.0
 10
157.0721174193129
 20
170.7155427136604
 30
0.0
 10
157.0577965017016
 20
170.7155427136604
 30
0.0
 10
157.0349279000642
 20
170.7155427136604
 30
0.0
 10
157.0026775943383
 20
170.7155427136604
 30
0.0
 10
156.9612655314995
 20
170.7155427136604
 30
0.0
 10
156.8752380009534
 20
170.7155427136604
 30
0.0
 10
156.7088114060233
 20
170.7155427136604
 30
0.0
 10
156.4043306692222
 20
170.7155427136604
 30
0.0
 10
156.0102045716417
 20
170.7155427136604
 30
0.0
 10
155.3608865837043
 20
170.7155427136604
 30
0.0
 10
154.3318607255665
 20
170.7155427136604
 30
0.0
 10
153.0407223655784
 20
170.7155427136604
 30
0.0
 10
151.8758614713808
 20
170.7155427136604
 30
0.0
 10
150.9518144374604
 20
170.7155427136604
 30
0.0
 10
149.9799416549924
 20
170.7155427136604
 30
0.0
 10
149.0870999204402
 20
170.7155427136604
 30
0.0
 10
148.2876338722945
 20
170.7155427136604
 30
0.0
 10
147.5970839887219
 20
170.7155427136604
 30
0.0
 10
147.1247247098687
 20
170.7155427136604
 30
0.0
 10
146.8883883130977
 20
170.7155427136604
 30
0.0
  0
SPLINE
  5
13F
330
1F
100
AcDbEntity
  8
0
  6
Continuous
 62
     7
370
    25
100
AcDbSpline
210
0.0
220
0.0
230
1.0
 70
    24
 71
     3
 72
    26
 73
    22
 74
     0
 42
0.00000001
 43
0.00000001
 40
0.0
 40
0.0
 40
0.0
 40
0.0
 40
0.020015253855586
 40
0.0400085007781149
 40
0.0599914867063766
 40
0.079975975671954
 40
0.0999737290538646
 40
0.1199964848565609
 40
0.1820811301926394
 40
0.2441932152758768
 40
0.307769836667404
 40
0.3713745572546923
 40
0.5000043577648319
 40
0.6286341582749703
 40
0.6922107804142043
 40
0.7558155017655105
 40
0.8179001482472434
 40
0.8800122344753665
 40
0.9200178476924515
 40
0.9599823809362876
 40
1.0
 40
1.0
 40
1.0
 40
1.0
 10
307.0747688122577
 20
170.7155426915264
 30
0.0
 10
307.0738846905765
 20
170.7155426915264
 30
0.0
 10
307.072117419313
 20
170.7155426915264
 30
0.0
 10
307.0577965017015
 20
170.7155426915264
 30
0.0
 10
307.0349279000642
 20
170.7155426915264
 30
0.0
 10
307.0026775943383
 20
170.7155426915264
 30
0.0
 10
306.9612655314995
 20
170.7155426915264
 30
0.0
 10
306.8752380009535
 20
170.7155426915264
 30
0.0
 10
306.7088114060232
 20
170.7155426915264
 30
0.0
 10
306.4043306692221
 20
170.7155426915264
 30
0.0
 10
306.0102045716417
 20
170.7155426915264
 30
0.0
 10
305.3608865837043
 20
170.7155426915264
 30
0.0
 10
304.3318607255665
 20
170.7155426915264
 30
0.0
 10
303.0407223655784
 20
170.7155426915264
 30
0.0
 10
301.8758614713808
 20
170.7155426915264
 30
0.0
 10
300.9518144374604
 20
170.7155426915264
 30
0.0
 10
299.9799416549924
 20
170.7155426915264
 30
0.0
 10
299.0870999204403
 20
170.7155426915264
 30
0.0
 10
298.2876338722945
 20
170.7155426915264
 30
0.0
 10
297.5970839887219
 20
170.7155426915264
 30
0.0
 10
297.1247247098687
 20
170.7155426915264
 30
0.0
 10
296.8883883130977
 20
170.7155426915264
 30
0.0
  0
SPLINE
  5
140
330
1F
100
AcDbEntity
  8
0
  6
Continuous
 62
     7
370
    25
100
AcDbSpline
210
0.0
220
0.0
230
1.0
 70
    24
 71
     3
 72
    10
 73
     6
 74
     0
 42
0.00000001
 43
0.00000001
 40
0.0
 40
0.0
 40
0.0
 40
0.0
 40
0.5
 40
0.5
 40
1.0
 40
1.0
 40
1.0
 40
1.0
 10
125.6747688122578
 20
170.7155427136604
 30
0.0
 10
125.6747688122578
 20
170.7155427136604
 30
0.0
 10
126.6500719893615
 20
170.7155427136604
 30
0.0
 10
130.2904041968459
 20
170.7155427136604
 30
0.0
 10
132.8689977955323
 20
170.7155427136604
 30
0.0
 10
135.8611493114182
 20
170.7155427136604
 30
0.0
  0
SPLINE
  5
141
330
1F
100
AcDbEntity
  8
0
  6
Continuous
 62
     7
370
    25
100
AcDbSpline
210
0.0
220
0.0
230
1.0
 70
    24
 71
     3
 72
    10
 73
     6
 74
     0
 42
0.00000001
 43
0.00000001
 40
0.0
 40
0.0
 40
0.0
 40
0.0
 40
0.5
 40
0.5
 40
1.0
 40
1.0
 40
1.0
 40
1.0
 10
275.6747688122577
 20
170.7155426915264
 30
0.0
 10
275.6747688122577
 20
170.7155426915264
 30
0.0
 10
276.6500719893615
 20
170.7155426915264
 30
0.0
 10
280.2904041968459
 20
170.7155426915264
 30
0.0
 10
282.8689977955323
 20
170.7155426915264
 30
0.0
 10
285.8611493114183
 20
170.7155426915264
 30
0.0
  0
LINE
  5
142
330
1F
100
AcDbEntity
  8
0
  6
Continuous
 62
     7
370
    25
100
AcDbLine
 10
238.867434814
 20
137.2055427137
 30
0.0
 11
238.8735099411
 21
137.2055427137
 31
0.0
  0
SPLINE
  5
143
330
1F
100
AcDbEntity
  8
0
  6
Continuous
 62
     7
370
    25
100
AcDbSpline
210
0.0
220
0.0
230
1.0
 70
     8
 71
     3
 72
     8
 73
     4
 74
     0
 42
0.00000001
 43
0.00000001
 40
0.0
 40
0.0
 40
0.0
 40
0.0
 40
1.0
 40
1.0
 40
1.0
 40
1.0
 10
193.875017971909
 20
137.2055416941442
 30
0.0
 10
193.8765409697915
 20
137.2055423738225
 30
0.0
 10
193.8789025834801
 20
137.205542713662
 30
0.0
 10
193.8821028105502
 20
137.205542713662
 30
0.0
  0
SPLINE
  5
144
330
1F
100
AcDbEntity
  8
0
  6
Continuous
 62
     7
370
    25
100
AcDbSpline
210
0.0
220
0.0
230
1.0
 70
    24
 71
     3
 72
     9
 73
     5
 74
     0
 42
0.00000001
 43
0.00000001
 40
0.0
 40
0.0
 40
0.0
 40
0.0
 40
0.9572235680008448
 40
1.0
 40
1.0
 40
1.0
 40
1.0
 10
193.8821028101506
 20
137.2055427136558
 30
0.0
 10
193.8620704866802
 20
137.2055427136556
 30
0.0
 10
193.8411429582115
 20
137.2055427136554
 30
0.0
 10
193.940829128892
 20
137.2055427136552
 30
0.0
 10
193.9450933475934
 20
137.2055427136552
 30
0.0
  0
SPLINE
  5
145
330
1F
100
AcDbEntity
  8
0
  6
Continuous
 62
     7
370
    25
100
AcDbSpline
210
0.0
220
0.0
230
1.0
 70
     8
 71
     3
 72
    17
 73
    13
 74
     0
 42
0.00000001
 43
0.00000001
 40
0.0
 40
0.0
 40
0.0
 40
0.0
 40
0.1045100452065598
 40
0.2120850161214594
 40
0.3162693605597097
 40
0.423245319099281
 40
0.5319283736242071
 40
0.6433901916412961
 40
0.7593716166412233
 40
0.8784083112776736
 40
0.9474819961514951
 40
1.0
 40
1.0
 40
1.0
 40
1.0
 10
216.3747688122577
 20
129.1634414833422
 30
0.0
 10
215.3340138426972
 20
129.184750173242
 30
0.0
 10
213.2219820847788
 20
129.2279924647557
 30
0.0
 10
210.1618215507308
 20
129.5740310155295
 30
0.0
 10
207.2547258253345
 20
130.1175612897196
 30
0.0
 10
204.5853698321112
 20
130.8603375699319
 30
0.0
 10
202.1760991579565
 20
131.7967656410725
 30
0.0
 10
200.0885138410524
 20
132.9141848759004
 30
0.0
 10
198.3835797433705
 20
134.1968387673143
 30
0.0
 10
197.3419227641709
 20
135.3836671104094
 30
0.0
 10
196.7801969322246
 20
136.3238557792956
 30
0.0
 10
196.6969121931076
 20
136.6062164292601
 30
0.0
 10
196.6609397652596
 20
136.7281739237018
 30
0.0
  0
SPLINE
  5
146
330
1F
100
AcDbEntity
  8
0
  6
Continuous
 62
     7
370
    25
100
AcDbSpline
210
0.0
220
0.0
230
1.0
 70
     8
 71
     3
 72
    16
 73
    12
 74
     0
 42
0.00000001
 43
0.00000001
 40
0.0
 40
0.0
 40
0.0
 40
0.0
 40
0.0618771166784304
 40
0.1309649253339829
 40
0.2524675461576016
 40
0.3774941492060219
 40
0.4987331824113203
 40
0.6238571953353239
 40
0.7388064997608061
 40
0.8575844123369887
 40
0.9999999999999999
 40
0.9999999999999999
 40
0.9999999999999999
 40
0.9999999999999999
 10
236.106981734691
 20
136.7456217008272
 30
0.0
 10
236.0520893869292
 20
136.5899296483265
 30
0.0
 10
235.9359079516599
 20
136.2604023670731
 30
0.0
 10
235.3216755478886
 20
135.2632779037406
 30
0.0
 10
234.1956954506689
 20
134.0377500503285
 30
0.0
 10
232.315391756679
 20
132.6894891527637
 30
0.0
 10
229.9041075504136
 20
131.4917546457418
 30
0.0
 10
227.1054528219641
 20
130.5212818651736
 30
0.0
 10
223.9654811382854
 20
129.7947532410623
 30
0.0
 10
220.3979737333732
 20
129.2742260861459
 30
0.0
 10
217.7943778109238
 20
129.202532412623
 30
0.0
 10
216.3747688122577
 20
129.1634414833422
 30
0.0
  0
SPLINE
  5
147
330
1F
100
AcDbEntity
  8
0
  6
Continuous
 62
     7
370
    25
100
AcDbSpline
210
0.0
220
0.0
230
1.0
 70
     8
 71
     3
 72
    19
 73
    15
 74
     0
 42
0.00000001
 43
0.00000001
 40
0.0
 40
0.0
 40
0.0
 40
0.0
 40
0.0476922137278492
 40
0.0956974063227929
 40
0.1440176150463225
 40
0.1926548375747417
 40
0.2416110327767726
 40
0.3618731538923398
 40
0.4791664935777173
 40
0.6016788739929236
 40
0.7271392865139619
 40
0.8188600981750797
 40
0.9098092135751855
 40
1.0
 40
1.0
 40
1.0
 40
1.0
 10
227.4933415076407
 20
102.9755132705071
 30
0.0
 10
227.1403304688977
 20
102.9711822243907
 30
0.0
 10
226.431991765985
 20
102.9624917097844
 30
0.0
 10
225.3654243000373
 20
102.9510397637919
 30
0.0
 10
224.291506199227
 20
102.9407232776113
 30
0.0
 10
223.2101928939179
 20
102.9316863390602
 30
0.0
 10
221.59531728839
 20
102.9201733343371
 30
0.0
 10
219.4706682597262
 20
102.9095770901861
 30
0.0
 10
216.7997022824352
 20
102.9042813385455
 30
0.0
 10
214.0900369534425
 20
102.9071433874697
 30
0.0
 10
211.5707015892121
 20
102.9176763527934
 30
0.0
 10
209.2865159622555
 20
102.9336023910797
 30
0.0
 10
207.264729315441
 20
102.9520415490882
 30
0.0
 10
205.9237958022401
 20
102.9681581984699
 30
0.0
 10
205.2561359057703
 20
102.9761827875727
 30
0.0
  0
SPLINE
  5
148
330
1F
100
AcDbEntity
  8
0
  6
Continuous
 62
     7
370
    25
100
AcDbSpline
210
0.0
220
0.0
230
1.0
 70
     8
 71
     3
 72
    22
 73
    18
 74
     0
 42
0.00000001
 43
0.00000001
 40
0.0
 40
0.0
 40
0.0
 40
0.0
 40
0.0886419962812289
 40
0.1657310070109539
 40
0.2907517632533916
 40
0.4232756494170238
 40
0.5120771845661989
 40
0.5589571254480821
 40
0.6052138462446195
 40
0.6548180764348134
 40
0.7062169188951839
 40
0.7656081178405195
 40
0.8288778109460191
 40
0.868681589337085
 40
0.9104030540102286
 40
0.9541458712866202
 40
1.0
 40
1.0
 40
1.0
 40
1.0
 10
238.3924476017311
 20
103.1806076596198
 30
0.0
 10
238.3907632985256
 20
103.180565433544
 30
0.0
 10
238.3876142125609
 20
103.1804864848476
 30
0.0
 10
238.2979848682906
 20
103.178246495564
 30
0.0
 10
237.997811702014
 20
103.1707789328831
 30
0.0
 10
237.3033865103394
 20
103.1538704898453
 30
0.0
 10
236.4093551710876
 20
103.1330997588558
 30
0.0
 10
235.6356721353796
 20
103.115882100089
 30
0.0
 10
234.9410751433585
 20
103.100931232546
 30
0.0
 10
234.1430087900832
 20
103.0844259762769
 30
0.0
 10
233.2028623577052
 20
103.065902113875
 30
0.0
 10
232.1215376720463
 20
103.0458318212138
 30
0.0
 10
231.0722674771761
 20
103.0277570866281
 30
0.0
 10
230.1192608471116
 20
103.0124394203937
 30
0.0
 10
229.2857427262272
 20
102.9998263160036
 30
0.0
 10
228.4058056931417
 20
102.9873028899943
 30
0.0
 10
227.8022371756892
 20
102.9795043996335
 30
0.0
 10
227.4933415076407
 20
102.9755132705071
 30
0.0
  0
SPLINE
  5
149
330
1F
100
AcDbEntity
  8
0
  6
Continuous
 62
     7
370
    25
100
AcDbSpline
210
0.0
220
0.0
230
1.0
 70
     8
 71
     3
 72
    18
 73
    14
 74
     0
 42
0.00000001
 43
0.00000001
 40
0.0
 40
0.0
 40
0.0
 40
0.0
 40
0.0734040783744801
 40
0.1855696869226108
 40
0.2807689354371202
 40
0.4074085732730748
 40
0.465417686963987
 40
0.5235257826232474
 40
0.652892535229404
 40
0.7966550197022974
 40
0.8593966705788594
 40
0.9259357806535092
 40
1.0
 40
1.0
 40
1.0
 40
1.0
 10
204.2584081453765
 20
102.9900728869971
 30
0.0
 10
203.8604546309636
 20
102.9954570690868
 30
0.0
 10
202.8544055024312
 20
103.0090685877766
 30
0.0
 10
201.3645020347139
 20
103.0337398925866
 30
0.0
 10
199.6575852142647
 20
103.0644176765777
 30
0.0
 10
198.3337031523957
 20
103.0909285365374
 30
0.0
 10
197.3427751646554
 20
103.11203934123
 30
0.0
 10
196.458032874158
 20
103.1315699385732
 30
0.0
 10
195.5385374301924
 20
103.1529417306453
 30
0.0
 10
194.9678708731666
 20
103.1668010948299
 30
0.0
 10
194.6698975951353
 20
103.1741361720057
 30
0.0
 10
194.5114034628435
 20
103.1780727154562
 30
0.0
 10
194.4540499912735
 20
103.179505846443
 30
0.0
 10
194.4238384726975
 20
103.1802607626189
 30
0.0
  0
LINE
  5
14A
330
1F
100
AcDbEntity
  8
0
  6
Continuous
 62
     7
370
    25
100
AcDbLine
 10
236.7664295058
 20
139.4667362221
 30
0.0
 11
195.9831081187
 21
139.4667362221
 31
0.0
  0
SPLINE
  5
14B
330
1F
100
AcDbEntity
  8
0
  6
Continuous
 62
     7
370
    25
100
AcDbSpline
210
0.0
220
0.0
230
1.0
 70
     8
 71
     3
 72
     9
 73
     5
 74
     0
 42
0.00000001
 43
0.00000001
 40
0.0
 40
0.0
 40
0.0
 40
0.0
 40
0.4006579543349947
 40
1.0
 40
1.0
 40
1.0
 40
1.0
 10
239.3746061748713
 20
136.4515833239348
 30
0.0
 10
239.3746671048646
 20
136.4454793941329
 30
0.0
 10
239.374819179702
 20
136.4302446290774
 30
0.0
 10
239.3746960373817
 20
136.329072772721
 30
0.0
 10
239.3746222330116
 20
136.2684362253686
 30
0.0
  0
LINE
  5
14C
330
1F
100
AcDbEntity
  8
0
  6
Continuous
 62
     7
370
    25
100
AcDbLine
 10
194.3570298117
 20
103.1819337864
 30
0.0
 11
194.3700093904
 21
103.181608649
 31
0.0
  0
LWPOLYLINE
  5
14D
330
1F
100
AcDbEntity
  8
0
  6
Continuous
 62
     7
370
    25
100
AcDbPolyline
 90
        3
 70
   128
 43
0.0
 10
193.7043467363
 20
137.1751442847
 10
193.7776161816
 20
137.1957622265
 10
193.8750179725
 20
137.2055416941
  0
LWPOLYLINE
  5
14E
330
1F
100
AcDbEntity
  8
0
  6
Continuous
 62
     7
370
    25
100
AcDbPolyline
 90
        3
 70
   128
 43
0.0
 10
239.0467274221
 20
137.174579692
 10
238.9710550741
 20
137.1959353539
 10
238.8735099411
 20
137.2055427137
  0
LINE
  5
14F
330
1F
100
AcDbEntity
  8
0
  6
Continuous
 62
     8
370
    18
100
AcDbLine
 10
141.3747688123
 20
213.5120522324
 30
0.0
 11
106.3783207518
 21
213.5120522324
 31
0.0
  0
LINE
  5
150
330
1F
100
AcDbEntity
  8
0
  6
Continuous
 62
     8
370
    18
100
AcDbLine
 10
176.3712168727
 20
213.5120522324
 30
0.0
 11
141.3747688123
 21
213.5120522324
 31
0.0
  0
LINE
  5
151
330
1F
100
AcDbEntity
  8
0
  6
Continuous
 62
     8
370
    18
100
AcDbLine
 10
291.3747688123
 20
213.5120522324
 30
0.0
 11
256.3783207518
 21
213.5120522324
 31
0.0
  0
LINE
  5
152
330
1F
100
AcDbEntity
  8
0
  6
Continuous
 62
     8
370
    18
100
AcDbLine
 10
326.3712168727
 20
213.5120522324
 30
0.0
 11
291.3747688123
 21
213.5120522324
 31
0.0
  0
LINE
  5
153
330
1F
100
AcDbEntity
  8
0
  6
Continuous
 62
     8
370
    18
100
AcDbLine
 10
326.1615733138
 20
201.5015807885
 30
0.0
 11
256.5879643107
 21
201.5015807885
 31
0.0
  0
LINE
  5
154
330
1F
100
AcDbEntity
  8
0
  6
Continuous
 62
     8
370
    18
100
AcDbLine
 10
176.1615733138
 20
201.5015807885
 30
0.0
 11
106.5879643107
 21
201.5015807885
 31
0.0
  0
SPLINE
  5
155
330
1F
100
AcDbEntity
  8
0
  6
Continuous
 62
     8
370
    18
100
AcDbSpline
210
0.0
220
0.0
230
1.0
 70
     8
 71
     3
 72
    25
 73
    21
 74
     0
 42
0.00000001
 43
0.00000001
 40
0.0
 40
0.0
 40
0.0
 40
0.0
 40
0.0135151582825051
 40
0.0276770366117123
 40
0.0424892054337815
 40
0.0579547841058797
 40
0.0921698962254255
 40
0.1270226234176618
 40
0.1986689513266285
 40
0.2724467361962008
 40
0.4262692527393858
 40
0.5916698848315036
 40
0.6712347908904646
 40
0.7562282688849451
 40
0.8070047984983496
 40
0.8693412589577083
 40
0.8998467266484705
 40
0.9317915703104809
 40
0.9651759495682869
 40
1.0
 40
1.0
 40
1.0
 40
1.0
 10
305.3747688122577
 20
157.7155427136604
 30
0.0
 10
305.3746769822845
 20
157.8066631471478
 30
0.0
 10
305.3744889281399
 20
157.9932642598384
 30
0.0
 10
305.3680268978961
 20
158.279518525248
 30
0.0
 10
305.3571074749574
 20
158.5784389915951
 30
0.0
 10
305.3353027736077
 20
159.0111831969446
 30
0.0
 10
305.2936458836506
 20
159.5754967285606
 30
0.0
 10
305.1935819977367
 20
160.5034114615329
 30
0.0
 10
305.0082912610439
 20
161.6637794391428
 30
0.0
 10
304.5821681654861
 20
163.489004494596
 30
0.0
 10
303.8020521512412
 20
165.6317410441526
 30
0.0
 10
302.7562647946218
 20
167.311802774534
 30
0.0
 10
301.7955488056102
 20
168.3585303302568
 30
0.0
 10
301.1350284531904
 20
168.8914620494198
 30
0.0
 10
300.5058077991667
 20
169.2649553069308
 30
0.0
 10
300.0419408660279
 20
169.4660143177077
 30
0.0
 10
299.6360896920522
 20
169.5908201547151
 30
0.0
 10
299.3229122692919
 20
169.6602711214525
 30
0.0
 10
298.9943586527415
 20
169.7066171430365
 30
0.0
 10
298.769547120197
 20
169.7125259511679
 30
0.0
 10
298.6547688122577
 20
169.7155427136604
 30
0.0
  0
LINE
  5
156
330
1F
100
AcDbEntity
  8
0
  6
Continuous
 62
     8
370
    18
100
AcDbLine
 10
267.3682566914
 20
157.7155427137
 30
0.0
 11
305.3747688123
 21
157.7155427137
 31
0.0
  0
LINE
  5
157
330
1F
100
AcDbEntity
  8
0
  6
Continuous
 62
     8
370
    18
100
AcDbLine
 10
127.3747688123
 20
157.7155427137
 30
0.0
 11
165.3812809331
 21
157.7155427137
 31
0.0
  0
SPLINE
  5
158
330
1F
100
AcDbEntity
  8
0
  6
Continuous
 62
     8
370
    18
100
AcDbSpline
210
0.0
220
0.0
230
1.0
 70
     8
 71
     3
 72
    27
 73
    23
 74
     0
 42
0.00000001
 43
0.00000001
 40
0.0
 40
0.0
 40
0.0
 40
0.0
 40
0.0200764433258265
 40
0.0396828172655262
 40
0.0588191479854187
 40
0.0774854637920126
 40
0.09568179534905
 40
0.1134081759232908
 40
0.1306646416637214
 40
0.1929991143402924
 40
0.2437770675087385
 40
0.3287678210084341
 40
0.4083346302055565
 40
0.5737344366648424
 40
0.7275561853698493
 40
0.8013315693901399
 40
0.8729795722985633
 40
0.9078302295087911
 40
0.9420470669308346
 40
0.9625210173275972
 40
0.9818360247477447
 40
0.9999999999999999
 40
0.9999999999999999
 40
0.9999999999999999
 40
0.9999999999999999
 10
134.0947688122577
 20
169.7155427136604
 30
0.0
 10
134.0285742239548
 20
169.7145388655479
 30
0.0
 10
133.8977349259297
 20
169.7125546733996
 30
0.0
 10
133.7043046767807
 20
169.6967764052849
 30
0.0
 10
133.5158978121744
 20
169.6724490936847
 30
0.0
 10
133.3325474814413
 20
169.6393657086464
 30
0.0
 10
133.1542468402991
 20
169.5984483470271
 30
0.0
 10
132.9809913598533
 20
169.5503086701145
 30
0.0
 10
132.6648302845984
 20
169.4475166865263
 30
0.0
 10
132.2437292921417
 20
169.2649433035275
 30
0.0
 10
131.6145241573955
 20
168.8914769408617
 30
0.0
 10
130.9539953346689
 20
168.3585349085186
 30
0.0
 10
129.99327904568
 20
167.3118135846191
 30
0.0
 10
128.9474859409611
 20
165.6317406039729
 30
0.0
 10
128.1673720590401
 20
163.4890158261174
 30
0.0
 10
127.7412512605882
 20
161.663791902659
 30
0.0
 10
127.5559522042511
 20
160.5034384027189
 30
0.0
 10
127.45590428437
 20
159.5755070876458
 30
0.0
 10
127.4117317095219
 20
158.9777683104831
 30
0.0
 10
127.3879740385707
 20
158.4809124014215
 30
0.0
 10
127.3758320285719
 20
158.0907056015646
 30
0.0
 10
127.3751158864526
 20
157.8380101321014
 30
0.0
 10
127.3747688122577
 20
157.7155427136604
 30
0.0
  0
SPLINE
  5
159
330
1F
100
AcDbEntity
  8
0
  6
Continuous
 62
     8
370
    18
100
AcDbSpline
210
0.0
220
0.0
230
1.0
 70
    24
 71
     3
 72
    19
 73
    15
 74
     0
 42
0.00000001
 43
0.00000001
 40
0.1076467529817
 40
0.1076467529817
 40
0.1076467529817
 40
0.1076467529817
 40
0.1107658851268
 40
0.113885017272
 40
0.1154445833445
 40
0.1170041494171
 40
0.1185637154897
 40
0.1201232815622
 40
0.1216828476348
 40
0.1232424137074
 40
0.1248019797799
 40
0.1263615458525
 40
0.1294806779976
 40
0.1325998101428
 40
0.1325998101428
 40
0.1325998101428
 40
0.1325998101428
 10
321.3747688122577
 20
140.7662028854404
 30
0.0
 10
321.3747688122577
 20
140.7662028854404
 30
0.0
 10
321.3610643538577
 20
140.7662028854404
 30
0.0
 10
321.0583287273577
 20
140.7662028854404
 30
0.0
 10
320.4914940438578
 20
140.7662028854404
 30
0.0
 10
319.8779859469577
 20
140.7662028854404
 30
0.0
 10
319.0151187250577
 20
140.7662028854404
 30
0.0
 10
317.8943587218577
 20
140.7662028854404
 30
0.0
 10
316.5266856994577
 20
140.7662028854404
 30
0.0
 10
315.0050143165677
 20
140.7662028854404
 30
0.0
 10
313.4145379139478
 20
140.7662028854404
 30
0.0
 10
311.2423535057077
 20
140.7662028854404
 30
0.0
 10
308.5404253426577
 20
140.7662028854404
 30
0.0
 10
306.4170245866778
 20
140.7662028854404
 30
0.0
 10
305.3747688122577
 20
140.7662028854404
 30
0.0
  0
LINE
  5
15A
330
1F
100
AcDbEntity
  8
0
  6
Continuous
 62
     8
370
    18
100
AcDbLine
 10
305.3747688123
 20
157.7155427137
 30
0.0
 11
305.3747688123
 21
140.7662028854
 31
0.0
  0
SPLINE
  5
15B
330
1F
100
AcDbEntity
  8
0
  6
Continuous
 62
     8
370
    18
100
AcDbSpline
210
0.0
220
0.0
230
1.0
 70
    24
 71
     3
 72
    15
 73
    11
 74
     0
 42
0.00000001
 43
0.00000001
 40
0.0
 40
0.0
 40
0.0
 40
0.0
 40
0.1451107301495567
 40
0.2917676785246682
 40
0.4344463733799243
 40
0.5698564955406188
 40
0.7052666177023251
 40
0.8479453125584475
 40
0.9946022609336141
 40
1.0
 40
1.0
 40
1.0
 40
1.0
 10
305.3747688122577
 20
157.7155427136604
 30
0.0
 10
306.5044419921595
 20
157.7155427136604
 30
0.0
 10
308.7758255132252
 20
157.7155427136604
 30
0.0
 10
312.14231756409
 20
157.7155427136604
 30
0.0
 10
315.3041971506
 20
157.7155427136604
 30
0.0
 10
317.9927586380072
 20
157.7155427136604
 30
0.0
 10
319.870822312472
 20
157.7155427136604
 30
0.0
 10
320.9075866884328
 20
157.7155427136604
 30
0.0
 10
321.2715841615781
 20
157.7155427136604
 30
0.0
 10
321.2974020922381
 20
157.7155427136604
 30
0.0
 10
321.2983185944209
 20
157.7155427136604
 30
0.0
  0
SPLINE
  5
15C
330
1F
100
AcDbEntity
  8
0
  6
Continuous
 62
     8
370
    18
100
AcDbSpline
210
0.0
220
0.0
230
1.0
 70
    24
 71
     3
 72
    15
 73
    11
 74
     0
 42
0.00000001
 43
0.00000001
 40
0.0
 40
0.0
 40
0.0
 40
0.0
 40
0.0053975295853196
 40
0.1520545088490687
 40
0.2947332337558819
 40
0.4301433844373875
 40
0.5655535351178808
 40
0.7082322600238282
 40
0.8548892392875221
 40
1.0
 40
1.0
 40
1.0
 40
1.0
 10
111.4512191453436
 20
157.7155427136604
 30
0.0
 10
111.4521356143109
 20
157.7155427136604
 30
0.0
 10
111.4779535809384
 20
157.7155427136604
 30
0.0
 10
111.8419509986122
 20
157.7155427136604
 30
0.0
 10
112.8787152964234
 20
157.7155427136604
 30
0.0
 10
114.7567789905934
 20
157.7155427136604
 30
0.0
 10
117.4453404727566
 20
157.7155427136604
 30
0.0
 10
120.6072200607512
 20
157.7155427136604
 30
0.0
 10
123.9737121112089
 20
157.7155427136604
 30
0.0
 10
126.2450956323289
 20
157.7155427136604
 30
0.0
 10
127.3747688122577
 20
157.7155427136604
 30
0.0
  0
LINE
  5
15D
330
1F
100
AcDbEntity
  8
0
  6
Continuous
 62
     8
370
    18
100
AcDbLine
 10
127.3747688123
 20
140.7662028854
 30
0.0
 11
127.3747688123
 21
157.7155427137
 31
0.0
  0
SPLINE
  5
15E
330
1F
100
AcDbEntity
  8
0
  6
Continuous
 62
     8
370
    18
100
AcDbSpline
210
0.0
220
0.0
230
1.0
 70
    24
 71
     3
 72
    15
 73
    11
 74
     0
 42
0.00000001
 43
0.00000001
 40
0.0
 40
0.0
 40
0.0
 40
0.0
 40
0.1250000000000002
 40
0.2500000000000003
 40
0.3750000000000002
 40
0.5000000000000002
 40
0.6250000000000002
 40
0.7500000000000001
 40
0.875
 40
1.0
 40
1.0
 40
1.0
 40
1.0
 10
111.3747688122577
 20
140.7662028854404
 30
0.0
 10
111.3747688122577
 20
140.7662028854404
 30
0.0
 10
111.3815745676578
 20
140.7662028854404
 30
0.0
 10
111.8273716628577
 20
140.7662028854404
 30
0.0
 10
112.9279791635577
 20
140.7662028854404
 30
0.0
 10
114.7622542889577
 20
140.7662028854404
 30
0.0
 10
117.3599283089277
 20
140.7662028854404
 30
0.0
 10
120.5592570329477
 20
140.7662028854404
 30
0.0
 10
123.9973275002977
 20
140.7662028854404
 30
0.0
 10
126.2534484686977
 20
140.7662028854404
 30
0.0
 10
127.3747688122577
 20
140.7662028854404
 30
0.0
  0
LINE
  5
15F
330
1F
100
AcDbEntity
  8
0
  6
Continuous
 62
     8
370
    18
100
AcDbLine
 10
165.3812809331
 20
157.7155427137
 30
0.0
 11
208.3747801251
 21
157.7155427137
 31
0.0
  0
LINE
  5
160
330
1F
100
AcDbEntity
  8
0
  6
Continuous
 62
     8
370
    18
100
AcDbLine
 10
208.3747801251
 20
157.7155430688
 30
0.0
 11
216.3732588805
 21
157.7155430688
 31
0.0
  0
LINE
  5
161
330
1F
100
AcDbEntity
  8
0
  6
Continuous
 62
     8
370
    18
100
AcDbLine
 10
216.3732588805
 20
157.7155417883
 30
0.0
 11
224.3747582254
 21
157.7155417883
 31
0.0
  0
LINE
  5
162
330
1F
100
AcDbEntity
  8
0
  6
Continuous
 62
     8
370
    18
100
AcDbLine
 10
224.3747582254
 20
157.7155430688
 30
0.0
 11
267.3682566914
 21
157.7155430688
 31
0.0
  0
LINE
  5
163
330
1F
100
AcDbEntity
  8
0
  6
Continuous
 62
     8
370
    18
100
AcDbLine
 10
305.3747688123
 20
140.7662028854
 30
0.0
 11
127.3747688123
 21
140.7662028854
 31
0.0
  0
SPLINE
  5
164
330
1F
100
AcDbEntity
  8
0
  6
Continuous
 62
     8
370
    18
100
AcDbSpline
210
0.0
220
0.0
230
1.0
 70
     8
 71
     3
 72
    16
 73
    12
 74
     0
 42
0.00000001
 43
0.00000001
 40
0.0
 40
0.0
 40
0.0
 40
0.0
 40
0.5
 40
0.5
 40
0.75
 40
0.75
 40
0.8749999999999998
 40
0.8749999999999998
 40
0.9374999999999999
 40
0.9374999999999999
 40
1.0
 40
1.0
 40
1.0
 40
1.0
 10
224.3747610778678
 20
169.5478510160276
 30
0.0
 10
224.3747049323492
 20
167.1855954483154
 30
0.0
 10
224.3746662701206
 20
164.937349204908
 30
0.0
 10
224.3746577789206
 20
161.9183273367597
 30
0.0
 10
224.3746632011881
 20
160.9709005734169
 30
0.0
 10
224.3746866328284
 20
159.6610070565141
 30
0.0
 10
224.3746969957242
 20
159.2429363034456
 30
0.0
 10
224.3747167192709
 20
158.646425151871
 30
0.0
 10
224.3747239988896
 20
158.4527503544182
 30
0.0
 10
224.3747400071063
 20
158.0760394811282
 30
0.0
 10
224.3747488831944
 20
157.8940892735233
 30
0.0
 10
224.3747582217585
 20
157.7155437789521
 30
0.0
  0
SPLINE
  5
165
330
1F
100
AcDbEntity
  8
0
  6
Continuous
 62
     8
370
    18
100
AcDbSpline
210
0.0
220
0.0
230
1.0
 70
     8
 71
     3
 72
    23
 73
    19
 74
     0
 42
0.00000001
 43
0.00000001
 40
0.0
 40
0.0
 40
0.0
 40
0.0
 40
0.01082788272491
 40
0.02165576544983
 40
0.04331153089965
 40
0.09498364817474
 40
0.1466557654498
 40
0.1779998866667
 40
0.1983278827249
 40
0.25
 40
0.3125
 40
0.375
 40
0.5
 40
0.5706665155556
 40
0.625
 40
0.75
 40
0.875
 40
0.9999999431984126
 40
0.9999999431984126
 40
0.9999999431984126
 40
0.9999999431984126
 10
208.3747793972622
 20
157.7155427136604
 30
0.0
 10
208.3747793972622
 20
157.7464760788404
 30
0.0
 10
208.3747793969731
 20
157.8083427112604
 30
0.0
 10
208.3747793952521
 20
157.9329122793504
 30
0.0
 10
208.3747793885951
 20
158.1798311898004
 30
0.0
 10
208.3747793677701
 20
158.5591292058204
 30
0.0
 10
208.3747793293241
 20
158.9862456420204
 30
0.0
 10
208.3747792903301
 20
159.3249356077904
 30
0.0
 10
208.3747792455671
 20
159.6703092070504
 30
0.0
 10
208.3747791770111
 20
160.1317554117304
 30
0.0
 10
208.3747790663831
 20
160.7618774601804
 30
0.0
 10
208.3747788795991
 20
161.6887737308674
 30
0.0
 10
208.3747786424081
 20
162.6975529345934
 30
0.0
 10
208.3747783730721
 20
163.7205390011934
 30
0.0
 10
208.3747780802582
 20
164.7708350614614
 30
0.0
 10
208.3747776852881
 20
166.0942028699274
 30
0.0
 10
208.374777142264
 20
167.7904063240471
 30
0.0
 10
208.3747767492345
 20
168.9572943253182
 30
0.0
 10
208.3747765466042
 20
169.5478563084263
 30
0.0
  0
SPLINE
  5
166
330
1F
100
AcDbEntity
  8
0
  6
Continuous
 62
     8
370
    18
100
AcDbSpline
210
0.0
220
0.0
230
1.0
 70
    24
 71
     3
 72
    14
 73
    10
 74
     0
 42
0.00000001
 43
0.00000001
 40
0.0
 40
0.0
 40
0.0
 40
0.0
 40
0.25
 40
0.25
 40
0.5
 40
0.5
 40
0.75
 40
0.75
 40
1.0
 40
1.0
 40
1.0
 40
1.0
 10
127.3747688122577
 20
140.7662028854404
 30
0.0
 10
127.3747688122577
 20
140.6273627936229
 30
0.0
 10
127.3747688122577
 20
140.4885773294528
 30
0.0
 10
127.3747688122577
 20
140.2320342912085
 30
0.0
 10
127.3747688122577
 20
140.114377655865
 30
0.0
 10
127.3747688122577
 20
139.9180281150156
 30
0.0
 10
127.3747688122577
 20
139.8394124646696
 30
0.0
 10
127.3747688122577
 20
139.7331488588964
 30
0.0
 10
127.3747688122577
 20
139.7055427136604
 30
0.0
 10
127.3747688122577
 20
139.7055427136604
 30
0.0
  0
SPLINE
  5
167
330
1F
100
AcDbEntity
  8
0
  6
Continuous
 62
     8
370
    18
100
AcDbSpline
210
0.0
220
0.0
230
1.0
 70
    24
 71
     3
 72
    14
 73
    10
 74
     0
 42
0.00000001
 43
0.00000001
 40
0.0
 40
0.0
 40
0.0
 40
0.0
 40
0.25
 40
0.25
 40
0.5
 40
0.5
 40
0.75
 40
0.75
 40
1.0
 40
1.0
 40
1.0
 40
1.0
 10
305.3747688122577
 20
139.7055427136604
 30
0.0
 10
305.3747688122577
 20
139.7055427136604
 30
0.0
 10
305.3747688122577
 20
139.7331488588964
 30
0.0
 10
305.3747688122577
 20
139.8394124646696
 30
0.0
 10
305.3747688122577
 20
139.9180281150156
 30
0.0
 10
305.3747688122577
 20
140.114377655865
 30
0.0
 10
305.3747688122577
 20
140.2320342912085
 30
0.0
 10
305.3747688122577
 20
140.4885773294528
 30
0.0
 10
305.3747688122577
 20
140.6273627936229
 30
0.0
 10
305.3747688122577
 20
140.7662028854404
 30
0.0
  0
SPLINE
  5
168
330
1F
100
AcDbEntity
  8
0
  6
Continuous
 62
     8
370
    18
100
AcDbSpline
210
0.0
220
0.0
230
1.0
 70
     8
 71
     3
 72
    49
 73
    45
 74
     0
 42
0.00000001
 43
0.00000001
 40
-0.0000000249206897
 40
-0.0000000249206897
 40
-0.0000000249206897
 40
-0.0000000249206897
 40
0.0070352435264104
 40
0.0078169345846105
 40
0.0156338451669104
 40
0.0211056825745104
 40
0.0234507557491104
 40
0.0312676663314104
 40
0.0562817801947104
 40
0.0620467517491104
 40
0.0914578778150104
 40
0.1133452274454104
 40
0.1500847071821104
 40
0.1969861706758104
 40
0.2501411626353104
 40
0.2751552764986104
 40
0.4002258458150104
 40
0.4587975429036105
 40
0.4939405611568105
 40
0.5126835042251103
 40
0.5290835794100104
 40
0.5501693903618103
 40
0.6204554268682103
 40
0.6251411626353104
 40
0.6485698414707104
 40
0.6626270487720103
 40
0.7153415761517103
 40
0.7469702925795103
 40
0.7657132356479104
 40
0.7865061881144104
 40
0.8102277254352104
 40
0.8755351676890104
 40
0.9010367354917503
 40
0.9350901142629404
 40
0.9414283269137104
 40
0.9555221415256504
 40
0.9633927133219303
 40
0.9707141754580103
 40
0.9762784866814304
 40
0.9780356375940804
 40
0.9853570997301604
 40
0.9920928448953493
 40
0.9926785618662354
 40
1.000000048923
 40
1.000000048923
 40
1.000000048923
 40
1.000000048923
 10
208.3747765464277
 20
169.5478558644569
 30
0.0
 10
208.3747765258857
 20
169.6077275249647
 30
0.0
 10
208.3747765029557
 20
169.6745351868852
 30
0.0
 10
208.3747764568707
 20
169.8087642174023
 30
0.0
 10
208.3747764058507
 20
169.9560116763495
 30
0.0
 10
208.3747763560267
 20
170.0998042211612
 30
0.0
 10
208.3747763060397
 20
170.2437862577009
 30
0.0
 10
208.3747761930967
 20
170.5682960474613
 30
0.0
 10
208.3747760675587
 20
170.9262351736494
 30
0.0
 10
208.3747758697018
 20
171.4868607783874
 30
0.0
 10
208.3747756799397
 20
172.0209053220674
 30
0.0
 10
208.3747753830647
 20
172.8496173887374
 30
0.0
 10
208.3747750224047
 20
173.8485668475874
 30
0.0
 10
208.3747745485427
 20
175.1508921272964
 30
0.0
 10
208.3747741119227
 20
176.3455354629734
 30
0.0
 10
208.3747734032497
 20
178.2858872436844
 30
0.0
 10
208.3747726820847
 20
180.2705706507604
 30
0.0
 10
208.3747719645877
 20
182.3067016323604
 30
0.0
 10
208.3747716096747
 20
183.3277327739904
 30
0.0
 10
208.3747713936517
 20
183.9537200957604
 30
0.0
 10
208.3747712240827
 20
184.4473401399304
 30
0.0
 10
208.3747709061207
 20
185.3773076061204
 30
0.0
 10
208.3747706391477
 20
186.1669995997804
 30
0.0
 10
208.3747703826157
 20
186.9314330676904
 30
0.0
 10
208.3747702754317
 20
187.2517684790904
 30
0.0
 10
208.3747700545227
 20
187.9144031271804
 30
0.0
 10
208.3747698303097
 20
188.5914406121104
 30
0.0
 10
208.3747696204007
 20
189.2298283351304
 30
0.0
 10
208.3747694864787
 20
189.6387751181604
 30
0.0
 10
208.3747693753867
 20
189.9790797447804
 30
0.0
 10
208.3747691986737
 20
190.5222598862604
 30
0.0
 10
208.3747690495477
 20
190.9839912942104
 30
0.0
 10
208.3747689305607
 20
191.3543729429004
 30
0.0
 10
208.3747688834607
 20
191.5015667854304
 30
0.0
 10
208.3747688537717
 20
191.5945363452104
 30
0.0
 10
208.3747688408037
 20
191.6351955934204
 30
0.0
 10
208.3747688301697
 20
191.6685733010904
 30
0.0
 10
208.3747688240127
 20
191.6879122431904
 30
0.0
 10
208.3747688205047
 20
191.6989411572804
 30
0.0
 10
208.3747688174727
 20
191.7084708952404
 30
0.0
 10
208.3747688148397
 20
191.7167551445004
 30
0.0
 10
208.3747688133917
 20
191.7217308622104
 30
0.0
 10
208.3747688123227
 20
191.7247572476804
 30
0.0
 10
208.3747688120437
 20
191.7255455184504
 30
0.0
 10
208.3747688120437
 20
191.7255427135704
 30
0.0
  0
SPLINE
  5
169
330
1F
100
AcDbEntity
  8
0
  6
Continuous
 62
     8
370
    18
100
AcDbSpline
210
0.0
220
0.0
230
1.0
 70
     8
 71
     3
 72
    49
 73
    45
 74
     0
 42
0.00000001
 43
0.00000001
 40
-0.0000000249206897
 40
-0.0000000249206897
 40
-0.0000000249206897
 40
-0.0000000249206897
 40
0.007321462136075
 40
0.007907179106961
 40
0.01464292427215
 40
0.02196438640823
 40
0.02372153732088
 40
0.0292858485443
 40
0.03660731068038
 40
0.04447788247666
 40
0.0585716970886
 40
0.06490990973937
 40
0.09896328851056
 40
0.1244648563133
 40
0.1897722985671
 40
0.2134938358879
 40
0.2342867883544
 40
0.2530297314228
 40
0.2846584478506
 40
0.3373729752303
 40
0.3514301825316
 40
0.374858861367
 40
0.3795445971341
 40
0.4498306336405
 40
0.4709164445923
 40
0.4873165197772
 40
0.5060594628455
 40
0.5412024810987
 40
0.5997741781873
 40
0.7248447475037
 40
0.749858861367
 40
0.8030138533265
 40
0.8499153168202
 40
0.8866547965569
 40
0.9085421461873
 40
0.9379532722532
 40
0.9437182438076
 40
0.9687323576709
 40
0.9765492682532
 40
0.9788943414278
 40
0.9843661788354
 40
0.9921830894177
 40
0.9929647804759
 40
1.000000048923
 40
1.000000048923
 40
1.000000048923
 40
1.000000048923
 10
224.3747688124717
 20
191.7255427135704
 30
0.0
 10
224.3747688124717
 20
191.7255455184504
 30
0.0
 10
224.3747688121927
 20
191.7247572476804
 30
0.0
 10
224.3747688111237
 20
191.7217308622104
 30
0.0
 10
224.3747688096757
 20
191.7167551445004
 30
0.0
 10
224.3747688070427
 20
191.7084708952404
 30
0.0
 10
224.3747688040107
 20
191.6989411572804
 30
0.0
 10
224.3747688005027
 20
191.6879122431904
 30
0.0
 10
224.3747687943457
 20
191.6685733010904
 30
0.0
 10
224.3747687837117
 20
191.6351955934204
 30
0.0
 10
224.3747687707437
 20
191.5945363452104
 30
0.0
 10
224.3747687410547
 20
191.5015667854304
 30
0.0
 10
224.3747686939547
 20
191.3543729429004
 30
0.0
 10
224.3747685749677
 20
190.9839912942104
 30
0.0
 10
224.3747684258417
 20
190.5222598862604
 30
0.0
 10
224.3747682491287
 20
189.9790797447804
 30
0.0
 10
224.3747681380367
 20
189.6387751181604
 30
0.0
 10
224.3747680041147
 20
189.2298283351304
 30
0.0
 10
224.3747677942057
 20
188.5914406121104
 30
0.0
 10
224.3747675699927
 20
187.9144031271804
 30
0.0
 10
224.3747673490837
 20
187.2517684790904
 30
0.0
 10
224.3747672418997
 20
186.9314330676904
 30
0.0
 10
224.3747669853677
 20
186.1669995997804
 30
0.0
 10
224.3747667183947
 20
185.3773076061204
 30
0.0
 10
224.3747664004327
 20
184.4473401399304
 30
0.0
 10
224.3747662308637
 20
183.9537200957604
 30
0.0
 10
224.3747660148407
 20
183.3277327739904
 30
0.0
 10
224.3747656599277
 20
182.3067016323604
 30
0.0
 10
224.3747649424307
 20
180.2705706507604
 30
0.0
 10
224.3747642212657
 20
178.2858872436844
 30
0.0
 10
224.3747635125927
 20
176.3455354629734
 30
0.0
 10
224.3747630759727
 20
175.1508921272964
 30
0.0
 10
224.3747626021107
 20
173.8485668475874
 30
0.0
 10
224.3747622414507
 20
172.8496173887374
 30
0.0
 10
224.3747619445757
 20
172.0209053220674
 30
0.0
 10
224.3747617548137
 20
171.4868607783874
 30
0.0
 10
224.3747615569567
 20
170.9262351736494
 30
0.0
 10
224.3747614314187
 20
170.5682960474613
 30
0.0
 10
224.3747613184757
 20
170.2437862577009
 30
0.0
 10
224.3747612684887
 20
170.0998042211612
 30
0.0
 10
224.3747612186647
 20
169.9560116763495
 30
0.0
 10
224.3747611676447
 20
169.8087642174023
 30
0.0
 10
224.3747611215597
 20
169.6745351868852
 30
0.0
 10
224.3747610986297
 20
169.6077275249647
 30
0.0
 10
224.3747610780877
 20
169.5478558644569
 30
0.0
  0
LINE
  5
16A
330
1F
100
AcDbEntity
  8
0
  6
Continuous
 62
     8
370
    18
100
AcDbLine
 10
157.5879643107
 20
199.9295046388
 30
0.0
 11
125.1615733138
 21
199.9295046388
 31
0.0
  0
LINE
  5
16B
330
1F
100
AcDbEntity
  8
0
  6
Continuous
 62
     8
370
    18
100
AcDbLine
 10
307.5879643107
 20
199.9295046388
 30
0.0
 11
275.1615733138
 21
199.9295046388
 31
0.0
  0
LINE
  5
16C
330
1F
100
AcDbEntity
  8
0
  6
Continuous
 62
     8
370
    18
100
AcDbLine
 10
141.3747688123
 20
188.5015807885
 30
0.0
 11
157.3884891579
 21
188.5015807885
 31
0.0
  0
LINE
  5
16D
330
1F
100
AcDbEntity
  8
0
  6
Continuous
 62
     8
370
    18
100
AcDbLine
 10
125.3610484666
 20
188.5015807885
 30
0.0
 11
141.3747688123
 21
188.5015807885
 31
0.0
  0
LINE
  5
16E
330
1F
100
AcDbEntity
  8
0
  6
Continuous
 62
     8
370
    18
100
AcDbLine
 10
291.3747688123
 20
188.5015807885
 30
0.0
 11
307.3884891579
 21
188.5015807885
 31
0.0
  0
LINE
  5
16F
330
1F
100
AcDbEntity
  8
0
  6
Continuous
 62
     8
370
    18
100
AcDbLine
 10
275.3610484666
 20
188.5015807885
 30
0.0
 11
291.3747688123
 21
188.5015807885
 31
0.0
  0
LWPOLYLINE
  5
170
330
1F
100
AcDbEntity
  8
0
  6
Continuous
 62
     8
370
    18
100
AcDbPolyline
 90
        9
 70
   128
 43
0.0
 10
135.7557935248
 20
187.4155427137
 10
135.7578179067
 20
187.4740698103
 10
135.7638132565
 20
187.5303477434
 10
135.7735491763
 20
187.5822137836
 10
135.7866515202
 20
187.627674748
 10
135.8026167725
 20
187.6649835974
 10
135.8208313974
 20
187.6927065734
 10
135.8405954171
 20
187.7097782978
 10
135.8611493114
 20
187.7155427137
  0
LINE
  5
171
330
1F
100
AcDbEntity
  8
0
  6
Continuous
 62
     8
370
    18
100
AcDbLine
 10
135.8611493114
 20
187.4155427137
 30
0.0
 11
135.8611493114
 21
187.7155427137
 31
0.0
  0
LINE
  5
172
330
1F
100
AcDbEntity
  8
0
  6
Continuous
 62
     8
370
    18
100
AcDbLine
 10
135.8611493114
 20
187.4155427137
 30
0.0
 11
135.7557935248
 21
187.4155427137
 31
0.0
  0
LWPOLYLINE
  5
173
330
1F
100
AcDbEntity
  8
0
  6
Continuous
 62
     8
370
    18
100
AcDbPolyline
 90
        9
 70
   128
 43
0.0
 10
285.7557935248
 20
187.4155426915
 10
285.7578179067
 20
187.4740697881
 10
285.7638132565
 20
187.5303477212
 10
285.7735491763
 20
187.5822137614
 10
285.7866515202
 20
187.6276747259
 10
285.8026167725
 20
187.6649835752
 10
285.8208313974
 20
187.6927065513
 10
285.8405954171
 20
187.7097782757
 10
285.8611493114
 20
187.7155426915
  0
LINE
  5
174
330
1F
100
AcDbEntity
  8
0
  6
Continuous
 62
     8
370
    18
100
AcDbLine
 10
285.8611493114
 20
187.4155426915
 30
0.0
 11
285.8611493114
 21
187.7155426915
 31
0.0
  0
LINE
  5
175
330
1F
100
AcDbEntity
  8
0
  6
Continuous
 62
     8
370
    18
100
AcDbLine
 10
285.8611493114
 20
187.4155426915
 30
0.0
 11
285.7557935248
 21
187.4155426915
 31
0.0
  0
LINE
  5
176
330
1F
100
AcDbEntity
  8
0
  6
Continuous
 62
     8
370
    18
100
AcDbLine
 10
146.8883883131
 20
170.7155427137
 30
0.0
 11
146.8883883131
 21
171.0155427137
 31
0.0
  0
LINE
  5
177
330
1F
100
AcDbEntity
  8
0
  6
Continuous
 62
     8
370
    18
100
AcDbLine
 10
146.8883883131
 20
171.0155427137
 30
0.0
 11
146.9937440997
 21
171.0155427137
 31
0.0
  0
LWPOLYLINE
  5
178
330
1F
100
AcDbEntity
  8
0
  6
Continuous
 62
     8
370
    18
100
AcDbPolyline
 90
        9
 70
   128
 43
0.0
 10
146.9937440997
 20
171.0155427137
 10
146.9917197178
 20
170.9570156171
 10
146.985724368
 20
170.900737684
 10
146.9759884482
 20
170.8488716438
 10
146.9628861043
 20
170.8034106793
 10
146.946920852
 20
170.76610183
 10
146.9287062271
 20
170.7383788539
 10
146.9089422074
 20
170.7213071295
 10
146.8883883131
 20
170.7155427137
  0
LINE
  5
179
330
1F
100
AcDbEntity
  8
0
  6
Continuous
 62
     8
370
    18
100
AcDbLine
 10
296.8883883131
 20
170.7155426915
 30
0.0
 11
296.8883883131
 21
171.0155426915
 31
0.0
  0
LINE
  5
17A
330
1F
100
AcDbEntity
  8
0
  6
Continuous
 62
     8
370
    18
100
AcDbLine
 10
296.8883883131
 20
171.0155426915
 30
0.0
 11
296.9937440997
 21
171.0155426915
 31
0.0
  0
LWPOLYLINE
  5
17B
330
1F
100
AcDbEntity
  8
0
  6
Continuous
 62
     8
370
    18
100
AcDbPolyline
 90
        9
 70
   128
 43
0.0
 10
296.9937440997
 20
171.0155426915
 10
296.9917197178
 20
170.9570155949
 10
296.985724368
 20
170.9007376618
 10
296.9759884482
 20
170.8488716216
 10
296.9628861043
 20
170.8034106572
 10
296.946920852
 20
170.7661018078
 10
296.9287062271
 20
170.7383788318
 10
296.9089422074
 20
170.7213071074
 10
296.8883883131
 20
170.7155426915
  0
LWPOLYLINE
  5
17C
330
1F
100
AcDbEntity
  8
0
  6
Continuous
 62
     8
370
    18
100
AcDbPolyline
 90
        9
 70
   128
 43
0.0
 10
135.8611493114
 20
170.7155427137
 10
135.8405954171
 20
170.7213071295
 10
135.8208313974
 20
170.7383788539
 10
135.8026167725
 20
170.76610183
 10
135.7866515202
 20
170.8034106793
 10
135.7735491763
 20
170.8488716438
 10
135.7638132565
 20
170.900737684
 10
135.7578179067
 20
170.9570156171
 10
135.7557935248
 20
171.0155427137
  0
LINE
  5
17D
330
1F
100
AcDbEntity
  8
0
  6
Continuous
 62
     8
370
    18
100
AcDbLine
 10
135.7557935248
 20
171.0155427137
 30
0.0
 11
135.8611493114
 21
171.0155427137
 31
0.0
  0
LINE
  5
17E
330
1F
100
AcDbEntity
  8
0
  6
Continuous
 62
     8
370
    18
100
AcDbLine
 10
135.8611493114
 20
170.7155427137
 30
0.0
 11
135.8611493114
 21
171.0155427137
 31
0.0
  0
LWPOLYLINE
  5
17F
330
1F
100
AcDbEntity
  8
0
  6
Continuous
 62
     8
370
    18
100
AcDbPolyline
 90
        9
 70
   128
 43
0.0
 10
285.8611493114
 20
170.7155426915
 10
285.8405954171
 20
170.7213071074
 10
285.8208313974
 20
170.7383788318
 10
285.8026167725
 20
170.7661018078
 10
285.7866515202
 20
170.8034106572
 10
285.7735491763
 20
170.8488716216
 10
285.7638132565
 20
170.9007376618
 10
285.7578179067
 20
170.9570155949
 10
285.7557935248
 20
171.0155426915
  0
LINE
  5
180
330
1F
100
AcDbEntity
  8
0
  6
Continuous
 62
     8
370
    18
100
AcDbLine
 10
285.7557935248
 20
171.0155426915
 30
0.0
 11
285.8611493114
 21
171.0155426915
 31
0.0
  0
LINE
  5
181
330
1F
100
AcDbEntity
  8
0
  6
Continuous
 62
     8
370
    18
100
AcDbLine
 10
285.8611493114
 20
170.7155426915
 30
0.0
 11
285.8611493114
 21
171.0155426915
 31
0.0
  0
LINE
  5
182
330
1F
100
AcDbEntity
  8
0
  6
Continuous
 62
     8
370
    18
100
AcDbLine
 10
146.8883883131
 20
187.4155427137
 30
0.0
 11
146.8883883131
 21
187.7155427137
 31
0.0
  0
LWPOLYLINE
  5
183
330
1F
100
AcDbEntity
  8
0
  6
Continuous
 62
     8
370
    18
100
AcDbPolyline
 90
        9
 70
   128
 43
0.0
 10
146.8883883131
 20
187.7155427137
 10
146.9089422074
 20
187.7097782978
 10
146.9287062271
 20
187.6927065734
 10
146.946920852
 20
187.6649835974
 10
146.9628861043
 20
187.627674748
 10
146.9759884482
 20
187.5822137836
 10
146.985724368
 20
187.5303477434
 10
146.9917197178
 20
187.4740698103
 10
146.9937440997
 20
187.4155427137
  0
LINE
  5
184
330
1F
100
AcDbEntity
  8
0
  6
Continuous
 62
     8
370
    18
100
AcDbLine
 10
146.9937440997
 20
187.4155427137
 30
0.0
 11
146.8883883131
 21
187.4155427137
 31
0.0
  0
LINE
  5
185
330
1F
100
AcDbEntity
  8
0
  6
Continuous
 62
     8
370
    18
100
AcDbLine
 10
296.8883883131
 20
187.4155426915
 30
0.0
 11
296.8883883131
 21
187.7155426915
 31
0.0
  0
LWPOLYLINE
  5
186
330
1F
100
AcDbEntity
  8
0
  6
Continuous
 62
     8
370
    18
100
AcDbPolyline
 90
        9
 70
   128
 43
0.0
 10
296.8883883131
 20
187.7155426915
 10
296.9089422074
 20
187.7097782757
 10
296.9287062271
 20
187.6927065513
 10
296.946920852
 20
187.6649835752
 10
296.9628861043
 20
187.6276747259
 10
296.9759884482
 20
187.5822137614
 10
296.985724368
 20
187.5303477212
 10
296.9917197178
 20
187.4740697881
 10
296.9937440997
 20
187.4155426915
  0
LINE
  5
187
330
1F
100
AcDbEntity
  8
0
  6
Continuous
 62
     8
370
    18
100
AcDbLine
 10
296.9937440997
 20
187.4155426915
 30
0.0
 11
296.8883883131
 21
187.4155426915
 31
0.0
  0
LINE
  5
188
330
1F
100
AcDbEntity
  8
0
  6
Continuous
 62
     8
370
    18
100
AcDbLine
 10
296.8883883131
 20
187.4155426915
 30
0.0
 11
285.8611493114
 21
187.4155426915
 31
0.0
  0
LINE
  5
189
330
1F
100
AcDbEntity
  8
0
  6
Continuous
 62
     8
370
    18
100
AcDbLine
 10
285.8611493114
 20
171.0155426915
 30
0.0
 11
296.8883883131
 21
171.0155426915
 31
0.0
  0
LINE
  5
18A
330
1F
100
AcDbEntity
  8
0
  6
Continuous
 62
     8
370
    18
100
AcDbLine
 10
285.8611493114
 20
171.0155426915
 30
0.0
 11
285.8611493114
 21
187.4155426915
 31
0.0
  0
LINE
  5
18B
330
1F
100
AcDbEntity
  8
0
  6
Continuous
 62
     8
370
    18
100
AcDbLine
 10
296.8883883131
 20
171.0155426915
 30
0.0
 11
296.8883883131
 21
187.4155426915
 31
0.0
  0
LINE
  5
18C
330
1F
100
AcDbEntity
  8
0
  6
Continuous
 62
     8
370
    18
100
AcDbLine
 10
285.7557935248
 20
171.0155426915
 30
0.0
 11
285.7557935248
 21
187.4155426915
 31
0.0
  0
LINE
  5
18D
330
1F
100
AcDbEntity
  8
0
  6
Continuous
 62
     8
370
    18
100
AcDbLine
 10
135.7557935248
 20
171.0155427137
 30
0.0
 11
135.7557935248
 21
187.4155427137
 31
0.0
  0
LINE
  5
18E
330
1F
100
AcDbEntity
  8
0
  6
Continuous
 62
     8
370
    18
100
AcDbLine
 10
135.8611493114
 20
171.0155427137
 30
0.0
 11
135.8611493114
 21
187.4155427137
 31
0.0
  0
LINE
  5
18F
330
1F
100
AcDbEntity
  8
0
  6
Continuous
 62
     8
370
    18
100
AcDbLine
 10
135.8611493114
 20
171.0155427137
 30
0.0
 11
146.8883883131
 21
171.0155427137
 31
0.0
  0
LINE
  5
190
330
1F
100
AcDbEntity
  8
0
  6
Continuous
 62
     8
370
    18
100
AcDbLine
 10
146.8883883131
 20
187.4155427137
 30
0.0
 11
135.8611493114
 21
187.4155427137
 31
0.0
  0
LINE
  5
191
330
1F
100
AcDbEntity
  8
0
  6
Continuous
 62
     8
370
    18
100
AcDbLine
 10
146.8883883131
 20
171.0155427137
 30
0.0
 11
146.8883883131
 21
187.4155427137
 31
0.0
  0
LINE
  5
192
330
1F
100
AcDbEntity
  8
0
  6
Continuous
 62
     8
370
    18
100
AcDbLine
 10
146.9937440997
 20
171.0155427137
 30
0.0
 11
146.9937440997
 21
187.4155427137
 31
0.0
  0
LINE
  5
193
330
1F
100
AcDbEntity
  8
0
  6
Continuous
 62
     8
370
    18
100
AcDbLine
 10
296.9937440997
 20
171.0155426915
 30
0.0
 11
296.9937440997
 21
187.4155426915
 31
0.0
  0
LINE
  5
194
330
1F
100
AcDbEntity
  8
0
  6
Continuous
 62
     8
370
    18
100
AcDbLine
 10
285.7557935248
 20
187.4155426915
 30
0.0
 11
275.3747688123
 21
187.4155426915
 31
0.0
  0
LINE
  5
195
330
1F
100
AcDbEntity
  8
0
  6
Continuous
 62
     8
370
    18
100
AcDbLine
 10
135.7557935248
 20
187.4155427137
 30
0.0
 11
125.3747688123
 21
187.4155427137
 31
0.0
  0
LINE
  5
196
330
1F
100
AcDbEntity
  8
0
  6
Continuous
 62
     8
370
    18
100
AcDbLine
 10
296.9937440997
 20
187.4155426915
 30
0.0
 11
307.3747688123
 21
187.4155426915
 31
0.0
  0
LINE
  5
197
330
1F
100
AcDbEntity
  8
0
  6
Continuous
 62
     8
370
    18
100
AcDbLine
 10
146.9937440997
 20
187.4155427137
 30
0.0
 11
157.3747688123
 21
187.4155427137
 31
0.0
  0
LINE
  5
198
330
1F
100
AcDbEntity
  8
0
  6
Continuous
 62
     8
370
    18
100
AcDbLine
 10
157.3747688123
 20
171.0155427137
 30
0.0
 11
146.9937440997
 21
171.0155427137
 31
0.0
  0
LINE
  5
199
330
1F
100
AcDbEntity
  8
0
  6
Continuous
 62
     8
370
    18
100
AcDbLine
 10
307.3747688123
 20
171.0155426915
 30
0.0
 11
296.9937440997
 21
171.0155426915
 31
0.0
  0
LINE
  5
19A
330
1F
100
AcDbEntity
  8
0
  6
Continuous
 62
     8
370
    18
100
AcDbLine
 10
125.3747688123
 20
171.0155427137
 30
0.0
 11
135.7557935248
 21
171.0155427137
 31
0.0
  0
LINE
  5
19B
330
1F
100
AcDbEntity
  8
0
  6
Continuous
 62
     8
370
    18
100
AcDbLine
 10
275.3747688123
 20
171.0155426915
 30
0.0
 11
285.7557935248
 21
171.0155426915
 31
0.0
  0
SPLINE
  5
19C
330
1F
100
AcDbEntity
  8
0
  6
Continuous
 62
     8
370
    18
100
AcDbSpline
210
0.0
220
0.0
230
1.0
 70
     8
 71
     3
 72
    23
 73
    19
 74
     0
 42
0.00000001
 43
0.00000001
 40
0.0
 40
0.0
 40
0.0
 40
0.0
 40
0.0586119798816761
 40
0.1177439263013131
 40
0.1773923688582363
 40
0.2375585023024452
 40
0.2982426384623479
 40
0.3594447939720981
 40
0.4211654080385079
 40
0.4834046552992869
 40
0.5461626434379936
 40
0.6094394196779922
 40
0.6732351474270512
 40
0.7375499351315272
 40
0.8023832822022944
 40
0.8677362447905241
 40
0.9336104304407288
 40
1.0
 40
1.0
 40
1.0
 40
1.0
 10
238.8735099410606
 20
137.2055427136576
 30
0.0
 10
238.8735477536794
 20
137.2045977916031
 30
0.0
 10
238.8736237143653
 20
137.2026995647735
 30
0.0
 10
238.8737323454403
 20
137.1872503477445
 30
0.0
 10
238.8738364753291
 20
137.1622807781928
 30
0.0
 10
238.8739348913244
 20
137.1266361722794
 30
0.0
 10
238.8740269036151
 20
137.0803219548047
 30
0.0
 10
238.8741117976709
 20
137.0230354196599
 30
0.0
 10
238.8741890016873
 20
136.9545667593171
 30
0.0
 10
238.8742580453513
 20
136.8746899676485
 30
0.0
 10
238.8743185823243
 20
136.7831942446124
 30
0.0
 10
238.8743703940767
 20
136.6798745653317
 30
0.0
 10
238.8744134010823
 20
136.5645422930123
 30
0.0
 10
238.8744476439689
 20
136.436994664869
 30
0.0
 10
238.8744733710957
 20
136.2971319789849
 30
0.0
 10
238.8744908357004
 20
136.144521000904
 30
0.0
 10
238.874501066154
 20
135.9800364211187
 30
0.0
 10
238.8745022132115
 20
135.8602738053215
 30
0.0
 10
238.874502788975
 20
135.8001591616728
 30
0.0
  0
LINE
  5
19D
330
1F
100
AcDbEntity
  8
0
  6
Continuous
 62
     8
370
    18
100
AcDbLine
 10
238.8745027883
 20
135.8001590082
 30
0.0
 11
238.867434814
 21
133.3641901836
 31
0.0
  0
SPLINE
  5
19E
330
1F
100
AcDbEntity
  8
0
  6
Continuous
 62
     8
370
    18
100
AcDbSpline
210
0.0
220
0.0
230
1.0
 70
     8
 71
     3
 72
    24
 73
    20
 74
     0
 42
0.00000001
 43
0.00000001
 40
0.0
 40
0.0
 40
0.0
 40
0.0
 40
0.1250000000000001
 40
0.1250000000000001
 40
0.2500000000000003
 40
0.2500000000000003
 40
0.3750000000000004
 40
0.3750000000000004
 40
0.5000000000000006
 40
0.5000000000000006
 40
0.5625000000000007
 40
0.5625000000000007
 40
0.6250000000000007
 40
0.6250000000000007
 40
0.7500000000000004
 40
0.7500000000000004
 40
0.8750000000000003
 40
0.8750000000000003
 40
1.0
 40
1.0
 40
1.0
 40
1.0
 10
238.8674348143506
 20
133.3641902778393
 30
0.0
 10
238.8658837873853
 20
132.9677681516175
 30
0.0
 10
238.8618939049713
 20
132.5720809911242
 30
0.0
 10
238.7824694366997
 20
131.783320563065
 30
0.0
 10
238.7056850286307
 20
131.3900527991362
 30
0.0
 10
238.4366665855199
 20
130.6111171589942
 30
0.0
 10
238.2440585635145
 20
130.2254872815672
 30
0.0
 10
237.6988611039698
 20
129.4754606572275
 30
0.0
 10
237.3464325326093
 20
129.1108230223186
 30
0.0
 10
236.657160510011
 20
128.6027555596814
 30
0.0
 10
236.4009238269232
 20
128.4399793344964
 30
0.0
 10
235.8328503757822
 20
128.1331841916
 30
0.0
 10
235.5206382789719
 20
127.9894084238908
 30
0.0
 10
234.5062077134588
 20
127.5926323288729
 30
0.0
 10
233.7285086962607
 20
127.3750022319961
 30
0.0
 10
232.0631136070416
 20
127.0343681000045
 30
0.0
 10
231.1780483508542
 20
126.90937723386
 30
0.0
 10
229.3687526075981
 20
126.7317810617488
 30
0.0
 10
228.443704100885
 20
126.6786388660282
 30
0.0
 10
227.5142475739606
 20
126.6495156710624
 30
0.0
  0
SPLINE
  5
19F
330
1F
100
AcDbEntity
  8
0
  6
Continuous
 62
     8
370
    18
100
AcDbSpline
210
0.0
220
0.0
230
1.0
 70
     8
 71
     3
 72
     8
 73
     4
 74
     0
 42
0.00000001
 43
0.00000001
 40
0.0
 40
0.0
 40
0.0
 40
0.0
 40
1.0
 40
1.0
 40
1.0
 40
1.0
 10
227.5142475739606
 20
126.6495156710625
 30
0.0
 10
220.1017234298359
 20
126.4172557822609
 30
0.0
 10
212.6478571850973
 20
126.41725508143
 30
0.0
 10
205.2352900505706
 20
126.6495156710625
 30
0.0
  0
SPLINE
  5
1A0
330
1F
100
AcDbEntity
  8
0
  6
Continuous
 62
     8
370
    18
100
AcDbSpline
210
0.0
220
0.0
230
1.0
 70
     8
 71
     3
 72
    24
 73
    20
 74
     0
 42
0.00000001
 43
0.00000001
 40
0.0
 40
0.0
 40
0.0
 40
0.0
 40
0.1250000000000002
 40
0.1250000000000002
 40
0.2500000000000004
 40
0.2500000000000004
 40
0.3750000000000006
 40
0.3750000000000006
 40
0.4375000000000008
 40
0.4375000000000008
 40
0.500000000000001
 40
0.500000000000001
 40
0.6250000000000008
 40
0.6250000000000008
 40
0.7500000000000004
 40
0.7500000000000004
 40
0.8750000000000002
 40
0.8750000000000002
 40
1.0
 40
1.0
 40
1.0
 40
1.0
 10
205.2352904050106
 20
126.6495156599625
 30
0.0
 10
204.3058188666137
 20
126.6786366816354
 30
0.0
 10
203.3804028985456
 20
126.7317711629447
 30
0.0
 10
201.5708236736874
 20
126.9094798908831
 30
0.0
 10
200.6856575411814
 20
127.0344996355877
 30
0.0
 10
199.0204272238587
 20
127.3751911758815
 30
0.0
 10
198.2428998849009
 20
127.5927778054675
 30
0.0
 10
197.2286001118733
 20
127.9895410774071
 30
0.0
 10
196.9164043503239
 20
128.1333467299905
 30
0.0
 10
196.3483721880104
 20
128.4401201744215
 30
0.0
 10
196.0921514956191
 20
128.6029010652647
 30
0.0
 10
195.4029656507658
 20
129.110972448124
 30
0.0
 10
195.050574388217
 20
129.4755918496082
 30
0.0
 10
194.5054054243533
 20
130.225593776867
 30
0.0
 10
194.3128444373634
 20
130.6112134004665
 30
0.0
 10
194.0438372499039
 20
131.390111057542
 30
0.0
 10
193.9671453997609
 20
131.7833749110712
 30
0.0
 10
193.8875519445379
 20
132.5721083893146
 30
0.0
 10
193.8836446857328
 20
132.9677849104981
 30
0.0
 10
193.8821028105406
 20
133.3641901836193
 30
0.0
  0
LINE
  5
1A1
330
1F
100
AcDbEntity
  8
0
  6
Continuous
 62
     8
370
    18
100
AcDbLine
 10
193.8821028105
 20
133.3641901836
 30
0.0
 11
193.8756629274
 21
135.8001595204
 31
0.0
  0
SPLINE
  5
1A2
330
1F
100
AcDbEntity
  8
0
  6
Continuous
 62
     8
370
    18
100
AcDbSpline
210
0.0
220
0.0
230
1.0
 70
     8
 71
     3
 72
    24
 73
    20
 74
     0
 42
0.00000001
 43
0.00000001
 40
0.0
 40
0.0
 40
0.0
 40
0.0
 40
0.0617632108713343
 40
0.1231603230207031
 40
0.1841879917183061
 40
0.2448476117316321
 40
0.3051393791015184
 40
0.3650634570108206
 40
0.4246202153131493
 40
0.4838097664720196
 40
0.5426321854338524
 40
0.6010874935642424
 40
0.6591757911350994
 40
0.716897212374754
 40
0.7742514100639251
 40
0.8312384166178312
 40
0.8878597631512035
 40
0.9441152275601788
 40
1.0
 40
1.0
 40
1.0
 40
1.0
 10
193.8756629273706
 20
135.8001595191759
 30
0.0
 10
193.8756369970172
 20
135.8561561166739
 30
0.0
 10
193.8755852900116
 20
135.9678173942957
 30
0.0
 10
193.8755114914643
 20
136.1222740209348
 30
0.0
 10
193.8754416766705
 20
136.2666050198167
 30
0.0
 10
193.8753765862242
 20
136.3999994100448
 30
0.0
 10
193.8753166191263
 20
136.5227810155793
 30
0.0
 10
193.8752621274978
 20
136.6349829926566
 30
0.0
 10
193.8752133357225
 20
136.736726693926
 30
0.0
 10
193.8751703686391
 20
136.8281201531311
 30
0.0
 10
193.8751332477449
 20
136.909284458841
 30
0.0
 10
193.8751018919833
 20
136.9803473386829
 30
0.0
 10
193.8750761239212
 20
137.0414422927699
 30
0.0
 10
193.8750556887047
 20
137.0927137526989
 30
0.0
 10
193.8750402088672
 20
137.1342944830384
 30
0.0
 10
193.8750292271548
 20
137.1663965479256
 30
0.0
 10
193.8750222516417
 20
137.18895651818
 30
0.0
 10
193.875018531148
 20
137.2029592167207
 30
0.0
 10
193.8750181579111
 20
137.2046827674597
 30
0.0
 10
193.8750179719094
 20
137.2055416941353
 30
0.0
  0
SPLINE
  5
1A3
330
1F
100
AcDbEntity
  8
0
  6
Continuous
 62
     8
370
    18
100
AcDbSpline
210
0.0
220
0.0
230
1.0
 70
     8
 71
     3
 72
    14
 73
    10
 74
     0
 42
0.00000001
 43
0.00000001
 40
0.0
 40
0.0
 40
0.0
 40
0.0
 40
0.25
 40
0.25
 40
0.5
 40
0.5
 40
0.75
 40
0.75
 40
1.0
 40
1.0
 40
1.0
 40
1.0
 10
227.4933415076402
 20
102.9755132705228
 30
0.0
 10
227.5012366441974
 20
102.9756128814945
 30
0.0
 10
227.5094834709389
 20
102.9971704359121
 30
0.0
 10
227.5247493420874
 20
103.0947143577961
 30
0.0
 10
227.5317132364244
 20
103.1710299404153
 30
0.0
 10
227.5423402483946
 20
103.3662276886954
 30
0.0
 10
227.5459674434384
 20
103.4844516242906
 30
0.0
 10
227.549406086531
 20
103.7305287908989
 30
0.0
 10
227.5492491277284
 20
103.8576203420228
 30
0.0
 10
227.5477693872963
 20
103.9754336888222
 30
0.0
  0
ARC
  5
1A4
330
1F
100
AcDbEntity
  8
0
  6
Continuous
 62
     8
370
    18
100
AcDbCircle
 10
208.9735889969
 20
103.6797450038
 30
0.0
 40
3.783439977504775
100
AcDbArc
 50
175.5074116196
 51
190.7170118386
  0
SPLINE
  5
1A5
330
1F
100
AcDbEntity
  8
0
  6
Continuous
 62
     8
370
    18
100
AcDbSpline
210
0.0
220
0.0
230
1.0
 70
     8
 71
     3
 72
     8
 73
     4
 74
     0
 42
0.00000001
 43
0.00000001
 40
0.0
 40
0.0
 40
0.0
 40
0.0
 40
1.0
 40
1.0
 40
1.0
 40
1.0
 10
227.5477693872963
 20
103.9754336888224
 30
0.0
 10
220.111202637409
 20
103.8810437455638
 30
0.0
 10
212.6383469251264
 20
103.8812688355611
 30
0.0
 10
205.2017682881716
 20
103.9761064808593
 30
0.0
  0
ARC
  5
1A6
330
1F
100
AcDbEntity
  8
0
  6
Continuous
 62
     8
370
    18
100
AcDbCircle
 10
209.1771655879
 20
126.1301007414
 30
0.0
 40
3.975949524412308
100
AcDbArc
 50
172.4934682778
 51
179.0450951524
  0
ARC
  5
1A7
330
1F
100
AcDbEntity
  8
0
  6
Continuous
 62
     8
370
    18
100
AcDbCircle
 10
223.5723720192
 20
126.1301007404
 30
0.0
 40
3.975949541866487
100
AcDbArc
 50
0.954904858
 51
7.5065317086
  0
SPLINE
  5
1A8
330
1F
100
AcDbEntity
  8
0
  6
Continuous
 62
     8
370
    18
100
AcDbSpline
210
0.0
220
0.0
230
1.0
 70
     8
 71
     3
 72
    22
 73
    18
 74
     0
 42
0.00000001
 43
0.00000001
 40
0.0
 40
0.0
 40
0.0
 40
0.0
 40
0.0541992546541239
 40
0.1084129619734707
 40
0.1626417423619066
 40
0.2168862157061179
 40
0.2711470013549514
 40
0.3254247180988478
 40
0.3797199841493682
 40
0.4340334171188195
 40
0.4670711430184642
 40
0.5000015777992682
 40
0.5997900785052811
 40
0.6996802622843277
 40
0.799676044165496
 40
0.8997813267883115
 40
1.0
 40
1.0
 40
1.0
 40
1.0
 10
227.5477693872951
 20
126.1963617775425
 30
0.0
 10
227.1447257240795
 20
126.1841678635585
 30
0.0
 10
226.3385309228285
 20
126.1597767839856
 30
0.0
 10
225.1282396495366
 20
126.1283862118331
 30
0.0
 10
223.917100245702
 20
126.1007928887062
 30
0.0
 10
222.7051109424128
 20
126.0773705418345
 30
0.0
 10
221.492353115697
 20
126.0580188451169
 30
0.0
 10
220.2788859421248
 20
126.0427652291601
 30
0.0
 10
219.0647751578076
 20
126.0316003367029
 30
0.0
 10
218.0088295374219
 20
126.0254576255568
 30
0.0
 10
217.1121001576324
 20
126.0226564899876
 30
0.0
 10
215.8763146208764
 20
126.0212914361751
 30
0.0
 10
214.1420938992112
 20
126.0266163287951
 30
0.0
 10
211.9083537424154
 20
126.0474144045151
 30
0.0
 10
209.6732741279162
 20
126.082485620438
 30
0.0
 10
207.4370418643995
 20
126.1305691254252
 30
0.0
 10
205.9471405589274
 20
126.1744226192833
 30
0.0
 10
205.201768237236
 20
126.1963617775425
 30
0.0
  0
SPLINE
  5
1A9
330
1F
100
AcDbEntity
  8
0
  6
Continuous
 62
     8
370
    18
100
AcDbSpline
210
0.0
220
0.0
230
1.0
 70
     8
 71
     3
 72
    25
 73
    21
 74
     0
 42
0.00000001
 43
0.00000001
 40
0.0
 40
0.0
 40
0.0
 40
0.0
 40
0.085780637041161
 40
0.1799837592168795
 40
0.2825526182670353
 40
0.3841154963794065
 40
0.487619087047571
 40
0.5382019645135364
 40
0.5888165382283195
 40
0.6384374669577306
 40
0.6918250582747156
 40
0.717571356934825
 40
0.7454713859794051
 40
0.7755031702791035
 40
0.8076556585698378
 40
0.841931384449586
 40
0.8783181218589651
 40
0.9167985891123729
 40
0.9573619958371722
 40
1.0
 40
1.0
 40
1.0
 40
1.0
 10
193.3821036454306
 20
132.9110362900993
 30
0.0
 10
193.3837551618819
 20
132.6343332376505
 30
0.0
 10
193.3872203511083
 20
132.0537586781188
 30
0.0
 10
193.4845563219597
 20
131.1526650562524
 30
0.0
 10
193.7727000936506
 20
130.2128642842792
 30
0.0
 10
194.338604672542
 20
129.2704111223914
 30
0.0
 10
195.1007303545866
 20
128.5303287173654
 30
0.0
 10
195.931690224717
 20
127.9912051256945
 30
0.0
 10
196.6560908936866
 20
127.6276652492648
 30
0.0
 10
197.506029134969
 20
127.2985374854385
 30
0.0
 10
198.3005963862076
 20
127.0599938555982
 30
0.0
 10
199.0016136307674
 20
126.8870197982244
 30
0.0
 10
199.5687351782855
 20
126.7648017634025
 30
0.0
 10
200.197517095538
 20
126.6480998334104
 30
0.0
 10
200.8878754654918
 20
126.5395343577131
 30
0.0
 10
201.6389996908382
 20
126.4415057887276
 30
0.0
 10
202.4496511452366
 20
126.3563104505993
 30
0.0
 10
203.3179119640824
 20
126.2862377631495
 30
0.0
 10
204.2409914600206
 20
126.2306758064661
 30
0.0
 10
204.8762295003428
 20
126.2079883550142
 30
0.0
 10
205.2017682372306
 20
126.1963617775424
 30
0.0
  0
ARC
  5
1AA
330
1F
100
AcDbEntity
  8
0
  6
Continuous
 62
     8
370
    18
100
AcDbCircle
 10
193.8601895428
 20
132.8859482546
 30
0.0
 40
0.478743704719665
100
AcDbArc
 50
87.3765134279
 51
176.9961019694
  0
ARC
  5
1AB
330
1F
100
AcDbEntity
  8
0
  6
Continuous
 62
     8
370
    18
100
AcDbCircle
 10
238.8893481039
 20
132.8859483611
 30
0.0
 40
0.4787436822765638
100
AcDbArc
 50
3.0038967059
 51
92.6234866812
  0
SPLINE
  5
1AC
330
1F
100
AcDbEntity
  8
0
  6
Continuous
 62
     8
370
    18
100
AcDbSpline
210
0.0
220
0.0
230
1.0
 70
     8
 71
     3
 72
    23
 73
    19
 74
     0
 42
0.00000001
 43
0.00000001
 40
0.0
 40
0.0
 40
0.0
 40
0.0
 40
0.1020892261164885
 40
0.1858277296927347
 40
0.2506710579094568
 40
0.2961296799622467
 40
0.3615240628779112
 40
0.4179336968408823
 40
0.4783871128300345
 40
0.535073078450778
 40
0.6016763401773719
 40
0.6680945686351607
 40
0.7356256946595767
 40
0.8050439938154665
 40
0.8607427038320473
 40
0.9184610758117728
 40
0.9584766022365809
 40
1.0
 40
1.0
 40
1.0
 40
1.0
 10
239.3674339790914
 20
132.9110362901093
 30
0.0
 10
239.3653086887963
 20
132.5814482206693
 30
0.0
 10
239.3614401329702
 20
131.9815161317733
 30
0.0
 10
239.2585987885323
 20
131.1843198158859
 30
0.0
 10
239.0857678665455
 20
130.5737572443495
 30
0.0
 10
238.8545544974154
 20
130.024622969043
 30
0.0
 10
238.5505040910599
 20
129.5134053406246
 30
0.0
 10
238.1040923526233
 20
128.9707253433731
 30
0.0
 10
237.5559841479468
 20
128.4776770501948
 30
0.0
 10
236.827283212683
 20
127.9887021469622
 30
0.0
 10
235.9016622803736
 20
127.5351562248671
 30
0.0
 10
234.7334433220505
 20
127.1282407494566
 30
0.0
 10
233.4005411063936
 20
126.7962029572724
 30
0.0
 10
232.0391758614844
 20
126.5578540678419
 30
0.0
 10
230.6964767211468
 20
126.3915138895679
 30
0.0
 10
229.5439387986821
 20
126.2928359660327
 30
0.0
 10
228.4873604570908
 20
126.2299298274673
 30
0.0
 10
227.8648039849519
 20
126.2076882295959
 30
0.0
 10
227.5477693873021
 20
126.1963617775425
 30
0.0
  0
SPLINE
  5
1AD
330
1F
100
AcDbEntity
  8
0
  6
Continuous
 62
     8
370
    18
100
AcDbSpline
210
0.0
220
0.0
230
1.0
 70
     8
 71
     3
 72
    24
 73
    20
 74
     0
 42
0.00000001
 43
0.00000001
 40
0.0
 40
0.0
 40
0.0
 40
0.0
 40
0.1140811677267275
 40
0.2170210365476262
 40
0.3079271169162094
 40
0.3864715464920218
 40
0.4524692032688221
 40
0.5055248812172247
 40
0.5732484683011716
 40
0.6409532401186795
 40
0.7081094836104582
 40
0.7346636905201649
 40
0.7641010295181877
 40
0.796396828792358
 40
0.8315396437616678
 40
0.8695151926562015
 40
0.9102693991320142
 40
0.9537661410204735
 40
0.9999999999999999
 40
0.9999999999999999
 40
0.9999999999999999
 40
0.9999999999999999
 10
239.3674339777325
 20
104.1802426174793
 30
0.0
 10
239.3647780579248
 20
104.1803049605408
 30
0.0
 10
239.3597255985124
 20
104.1804235581683
 30
0.0
 10
239.1779956935359
 20
104.1764061520113
 30
0.0
 10
238.8109095399042
 20
104.1679155917728
 30
0.0
 10
238.2933233847482
 20
104.1561017076087
 30
0.0
 10
237.6901379785306
 20
104.1427398158973
 30
0.0
 10
236.9701527989958
 20
104.1277035283158
 30
0.0
 10
236.0848702884334
 20
104.1102304906902
 30
0.0
 10
234.9527812384928
 20
104.0887420822701
 30
0.0
 10
233.9441880060758
 20
104.0711017963149
 30
0.0
 10
233.1371541904512
 20
104.0575959793351
 30
0.0
 10
232.5447156006242
 20
104.0477079805937
 30
0.0
 10
231.8813656470869
 20
104.0368868107429
 30
0.0
 10
231.1470810616848
 20
104.025266389243
 30
0.0
 10
230.3426626943153
 20
104.0130407302857
 30
0.0
 10
229.4698932434582
 20
104.0004464076689
 30
0.0
 10
228.5312560907251
 20
103.9876410137
 30
0.0
 10
227.8821978519484
 20
103.9795847128293
 30
0.0
 10
227.5477693872906
 20
103.9754336888225
 30
0.0
  0
LINE
  5
1AE
330
1F
100
AcDbEntity
  8
0
  6
Continuous
 62
     8
370
    18
100
AcDbLine
 10
239.3674339791
 20
104.1802426175
 30
0.0
 11
239.3674339791
 21
132.9110362901
 31
0.0
  0
SPLINE
  5
1AF
330
1F
100
AcDbEntity
  8
0
  6
Continuous
 62
     8
370
    18
100
AcDbSpline
210
0.0
220
0.0
230
1.0
 70
     8
 71
     3
 72
    28
 73
    24
 74
     0
 42
0.00000001
 43
0.00000001
 40
0.0
 40
0.0
 40
0.0
 40
0.0
 40
0.0226375162597436
 40
0.0450098234303892
 40
0.0671170170922659
 40
0.0889612065186703
 40
0.1105466815221082
 40
0.1318742867371686
 40
0.1529378040927309
 40
0.1737331704671617
 40
0.1942580275923813
 40
0.2145128417973004
 40
0.2345016569847759
 40
0.2542304160451824
 40
0.2737057704230224
 40
0.3751262392425996
 40
0.4774387663421424
 40
0.5302440193779736
 40
0.5973264638062189
 40
0.6781751725891064
 40
0.772577019044549
 40
0.8801683896651611
 40
1.0
 40
1.0
 40
1.0
 40
1.0
 10
205.2017737346906
 20
103.9761023743125
 30
0.0
 10
205.0380220823438
 20
103.9781186944744
 30
0.0
 10
204.7124372048337
 20
103.9821277126647
 30
0.0
 10
204.2279862328391
 20
103.9883781945963
 30
0.0
 10
203.7503637090136
 20
103.9947404209801
 30
0.0
 10
203.2798743810768
 20
104.0012191392759
 30
0.0
 10
202.816786567672
 20
104.0077932474989
 30
0.0
 10
202.3614766140084
 20
104.0144464685676
 30
0.0
 10
201.9144281909846
 20
104.0211576821333
 30
0.0
 10
201.4761717691822
 20
104.0279060063621
 30
0.0
 10
201.0471661414489
 20
104.0346694290628
 30
0.0
 10
200.6278277418429
 20
104.0414274968758
 30
0.0
 10
200.2185948831541
 20
104.0481568260524
 30
0.0
 10
199.81982926819
 20
104.0548400455347
 30
0.0
 10
198.8869470021163
 20
104.0707164167647
 30
0.0
 10
197.4792246849746
 20
104.0963091132972
 30
0.0
 10
196.1446856402594
 20
104.1216442393013
 30
0.0
 10
195.2373114784289
 20
104.1397884691277
 30
0.0
 10
194.5807588998792
 20
104.1541265198268
 30
0.0
 10
194.0088070284349
 20
104.1670944485646
 30
0.0
 10
193.5969854656944
 20
104.1767210271493
 30
0.0
 10
193.3905730197012
 20
104.1815031015878
 30
0.0
 10
193.3850262813973
 20
104.181579287267
 30
0.0
 10
193.3821036454339
 20
104.1816194303193
 30
0.0
  0
LINE
  5
1B0
330
1F
100
AcDbEntity
  8
0
  6
Continuous
 62
     8
370
    18
100
AcDbLine
 10
193.3821036454
 20
104.1816194303
 30
0.0
 11
193.3821036454
 21
132.9110362901
 31
0.0
  0
ARC
  5
1B1
330
1F
100
AcDbEntity
  8
0
  6
Continuous
 62
     8
370
    18
100
AcDbCircle
 10
238.3674348656
 20
104.1802939053
 30
0.0
 40
0.9999991134074924
100
AcDbArc
 50
271.4332750035
 51
359.9970614192
  0
SPLINE
  5
1B2
330
1F
100
AcDbEntity
  8
0
  6
Continuous
 62
     8
370
    18
100
AcDbSpline
210
0.0
220
0.0
230
1.0
 70
     8
 71
     3
 72
    13
 73
     9
 74
     0
 42
0.00000001
 43
0.00000001
 40
0.0
 40
0.0
 40
0.0
 40
0.0
 40
0.1380327412221009
 40
0.284052193147132
 40
0.4330633582552256
 40
0.5820750524756764
 40
0.7280960289632125
 40
1.0
 40
1.0
 40
1.0
 40
1.0
 10
194.1792271130482
 20
103.2199795694609
 30
0.0
 10
194.1168688461767
 20
103.2292942993995
 30
0.0
 10
193.988544201539
 20
103.2484627187484
 30
0.0
 10
193.8170340150479
 20
103.3505515784775
 30
0.0
 10
193.6609771758338
 20
103.4781333898096
 30
0.0
 10
193.535988732805
 20
103.6372817412201
 30
0.0
 10
193.4149735461713
 20
103.8670958071994
 30
0.0
 10
193.3950596933724
 20
104.0576463410357
 30
0.0
 10
193.3821036454343
 20
104.1816194303193
 30
0.0
  0
SPLINE
  5
1B3
330
1F
100
AcDbEntity
  8
0
  6
Continuous
 62
     8
370
    18
100
AcDbSpline
210
0.0
220
0.0
230
1.0
 70
     8
 71
     3
 72
     8
 73
     4
 74
     0
 42
0.00000001
 43
0.00000001
 40
0.0
 40
0.0
 40
0.0
 40
0.0
 40
1.0
 40
1.0
 40
1.0
 40
1.0
 10
193.3821036454424
 20
132.9110362900993
 30
0.0
 10
193.378921118095
 20
133.7230260686289
 30
0.0
 10
193.3767742454944
 20
134.5350158471585
 30
0.0
 10
193.3756630291586
 20
135.3470056256881
 30
0.0
  0
SPLINE
  5
1B4
330
1F
100
AcDbEntity
  8
0
  6
Continuous
 62
     8
370
    18
100
AcDbSpline
210
0.0
220
0.0
230
1.0
 70
     8
 71
     3
 72
    14
 73
    10
 74
     0
 42
0.00000001
 43
0.00000001
 40
0.0
 40
0.0
 40
0.0
 40
0.0
 40
0.25
 40
0.25
 40
0.5
 40
0.5
 40
0.75
 40
0.75
 40
1.0
 40
1.0
 40
1.0
 40
1.0
 10
193.3756630291506
 20
135.3470056255682
 30
0.0
 10
193.3756789159354
 20
135.4003996604517
 30
0.0
 10
193.3864309684012
 20
135.4580043379194
 30
0.0
 10
193.4351771518079
 20
135.5695479412965
 30
0.0
 10
193.4733362784962
 20
135.6231413918489
 30
0.0
 10
193.5709592569824
 20
135.7116226290814
 30
0.0
 10
193.6300931884251
 20
135.7462111797227
 30
0.0
 10
193.7531750001664
 20
135.7903977652666
 30
0.0
 10
193.8167414947614
 20
135.8001451188968
 30
0.0
 10
193.8756629273707
 20
135.8001595190844
 30
0.0
  0
ARC
  5
1B5
330
1F
100
AcDbEntity
  8
0
  6
Continuous
 62
     8
370
    18
100
AcDbCircle
 10
238.8961222499
 20
135.3222547187
 30
0.0
 40
0.4783930507098666
100
AcDbArc
 50
2.96567004
 51
92.5901837425
  0
SPLINE
  5
1B6
330
1F
100
AcDbEntity
  8
0
  6
Continuous
 62
     8
370
    18
100
AcDbSpline
210
0.0
220
0.0
230
1.0
 70
     8
 71
     3
 72
     8
 73
     4
 74
     0
 42
0.00000001
 43
0.00000001
 40
0.0
 40
0.0
 40
0.0
 40
0.0
 40
1.0
 40
1.0
 40
1.0
 40
1.0
 10
239.37387459538
 20
135.3470056256982
 30
0.0
 10
239.3727633790444
 20
134.5350158471686
 30
0.0
 10
239.3706165064433
 20
133.7230260686389
 30
0.0
 10
239.3674339790961
 20
132.9110362901093
 30
0.0
  0
LINE
  5
1B7
330
1F
100
AcDbEntity
  8
0
  6
Continuous
 62
     8
370
    18
100
AcDbLine
 10
239.374622233
 20
136.2684362254
 30
0.0
 11
239.3738745954
 21
135.3470056257
 31
0.0
  0
LINE
  5
1B8
330
1F
100
AcDbEntity
  8
0
  6
Continuous
 62
     8
370
    18
100
AcDbLine
 10
193.3821036454
 20
104.1816194303
 30
0.0
 11
193.3957844811
 21
104.1816058945
 31
0.0
  0
SPLINE
  5
1B9
330
1F
100
AcDbEntity
  8
0
  6
Continuous
 62
     8
370
    18
100
AcDbSpline
210
0.0
220
0.0
230
1.0
 70
     8
 71
     3
 72
    20
 73
    16
 74
     0
 42
0.00000001
 43
0.00000001
 40
0.0
 40
0.0
 40
0.0
 40
0.0
 40
0.0567547792699091
 40
0.1134134067255482
 40
0.170010470396799
 40
0.2265806712389642
 40
0.2831587596311104
 40
0.3397794714342473
 40
0.3964774641666161
 40
0.4532872539092185
 40
0.5628386689009991
 40
0.6720354481472561
 40
0.7811276074200528
 40
0.8903658808293132
 40
1.0
 40
1.0
 40
1.0
 40
1.0
 10
193.3756630291586
 20
135.3470056256881
 30
0.0
 10
193.3755958969195
 20
135.3968202345696
 30
0.0
 10
193.3754617461744
 20
135.4963650582942
 30
0.0
 10
193.3752890736828
 20
135.6353385757976
 30
0.0
 10
193.3751384590844
 20
135.7665242684191
 30
0.0
 10
193.3750125557015
 20
135.8891966789746
 30
0.0
 10
193.3749115219732
 20
136.0035496783153
 30
0.0
 10
193.3748361898295
 20
136.1095314198378
 30
0.0
 10
193.3747872251838
 20
136.2071548552588
 30
0.0
 10
193.3747585618578
 20
136.3239617379035
 30
0.0
 10
193.3747889465406
 20
136.4479833048723
 30
0.0
 10
193.3749304450654
 20
136.5632563457567
 30
0.0
 10
193.3751817435607
 20
136.6449805197705
 30
0.0
 10
193.3755348199375
 20
136.6961146095802
 30
0.0
 10
193.3758632931419
 20
136.7023962253867
 30
0.0
 10
193.3760278267773
 20
136.7055427136568
 30
0.0
  0
ARC
  5
1BA
330
1F
100
AcDbEntity
  8
0
  6
Continuous
 62
     7
370
    25
100
AcDbCircle
 10
382.0234706266
 20
325.9517412181
 30
0.0
 40
0.1999999999999886
100
AcDbArc
 50
180.0
 51
271.0000000007
  0
ARC
  5
1BB
330
1F
100
AcDbEntity
  8
0
  6
Continuous
 62
     7
370
    25
100
AcDbCircle
 10
382.0234706266
 20
395.5446982609
 30
0.0
 40
0.1999999999999886
100
AcDbArc
 50
88.9999999993
 51
180.0
  0
LINE
  5
1BC
330
1F
100
AcDbEntity
  8
0
  6
Continuous
 62
     7
370
    25
100
AcDbLine
 10
382.0269611079
 20
325.7517716791
 30
0.0
 11
394.0374325518
 21
325.961415238
 31
0.0
  0
LINE
  5
1BD
330
1F
100
AcDbEntity
  8
0
  6
Continuous
 62
     7
370
    25
100
AcDbLine
 10
394.0374325518
 20
395.5350242411
 30
0.0
 11
382.0269611079
 21
395.7446678
 31
0.0
  0
ARC
  5
1BE
330
1F
100
AcDbEntity
  8
0
  6
Continuous
 62
     7
370
    25
100
AcDbCircle
 10
394.0234706266
 20
394.735146085
 30
0.0
 40
0.8000000000000682
100
AcDbArc
 50
0.0
 51
89.0
  0
ARC
  5
1BF
330
1F
100
AcDbEntity
  8
0
  6
Continuous
 62
     7
370
    25
100
AcDbCircle
 10
394.0234706266
 20
326.7612933941
 30
0.0
 40
0.8000000000000682
100
AcDbArc
 50
271.0
 51
0.0
  0
SPLINE
  5
1C0
330
1F
100
AcDbEntity
  8
0
  6
Continuous
 62
     7
370
    25
100
AcDbSpline
210
0.0
220
0.0
230
1.0
 70
     8
 71
     3
 72
    13
 73
     9
 74
     0
 42
0.00000001
 43
0.00000001
 40
0.0
 40
0.0
 40
0.0
 40
0.0
 40
0.2456328061977534
 40
0.4876716475746092
 40
0.7344881850597709
 40
0.820174850093264
 40
0.9084072653156151
 40
0.9999999999999999
 40
0.9999999999999999
 40
0.9999999999999999
 40
0.9999999999999999
 10
429.2189025653029
 20
339.3864882482033
 30
0.0
 10
429.6367609709966
 20
338.9896336922858
 30
0.0
 10
430.4663639068253
 20
338.2017311391718
 30
0.0
 10
432.3721052932651
 20
337.0077423346691
 30
0.0
 10
434.2704123036257
 20
336.2973104706438
 30
0.0
 10
435.7959738525149
 20
335.983745664663
 30
0.0
 10
436.7902122320337
 20
335.8531822596341
 30
0.0
 10
437.4747870380669
 20
335.8362353547085
 30
0.0
 10
437.8234706266148
 20
335.8276035622848
 30
0.0
  0
SPLINE
  5
1C1
330
1F
100
AcDbEntity
  8
0
  6
Continuous
 62
     7
370
    25
100
AcDbSpline
210
0.0
220
0.0
230
1.0
 70
     8
 71
     3
 72
    18
 73
    14
 74
     0
 42
0.00000001
 43
0.00000001
 40
0.0
 40
0.0
 40
0.0
 40
0.0
 40
0.0659574787857292
 40
0.1279575899004096
 40
0.1865142295642565
 40
0.2685121100711196
 40
0.3427901246534837
 40
0.4671393916785594
 40
0.5608130953500949
 40
0.6498217945247262
 40
0.753555212733938
 40
0.8749709957196068
 40
1.0
 40
1.0
 40
1.0
 40
1.0
 10
437.8234706266148
 20
385.6772178497476
 30
0.0
 10
437.3955280621013
 20
385.6640774134554
 30
0.0
 10
436.5653189610404
 20
385.6385849509002
 30
0.0
 10
435.3733178280503
 20
385.4418421380631
 30
0.0
 10
434.1142066899658
 20
385.1145233396359
 30
0.0
 10
432.8383925126561
 20
384.6210417790759
 30
0.0
 10
431.2881758044371
 20
383.7909842165652
 30
0.0
 10
429.8567751962006
 20
382.7145146333444
 30
0.0
 10
428.5760115510244
 20
381.3638781565102
 30
0.0
 10
427.6430357804403
 20
380.0879224708553
 30
0.0
 10
426.9191594592398
 20
378.7898072540198
 30
0.0
 10
426.3616632443715
 20
377.4211645184157
 30
0.0
 10
426.1680245002396
 20
376.5573247170752
 30
0.0
 10
426.0697856223251
 20
376.1190722735258
 30
0.0
  0
ARC
  5
1C2
330
1F
100
AcDbEntity
  8
0
  6
Continuous
 62
     7
370
    25
100
AcDbCircle
 10
395.6234706266
 20
377.7612933941
 30
0.0
 40
0.7999999999999784
100
AcDbArc
 50
180.0
 51
269.0
  0
ARC
  5
1C3
330
1F
100
AcDbEntity
  8
0
  6
Continuous
 62
     7
370
    25
100
AcDbCircle
 10
395.6234706266
 20
343.735146085
 30
0.0
 40
0.7999999999999784
100
AcDbArc
 50
91.0
 51
180.0
  0
LINE
  5
1C4
330
1F
100
AcDbEntity
  8
0
  6
Continuous
 62
     7
370
    25
100
AcDbLine
 10
395.6095087015
 20
344.5350242411
 30
0.0
 11
407.0374325518
 21
344.7344993939
 31
0.0
  0
LINE
  5
1C5
330
1F
100
AcDbEntity
  8
0
  6
Continuous
 62
     7
370
    25
100
AcDbLine
 10
407.0374325518
 20
376.7619400852
 30
0.0
 11
395.6095087015
 21
376.961415238
 31
0.0
  0
ARC
  5
1C6
330
1F
100
AcDbEntity
  8
0
  6
Continuous
 62
     7
370
    25
100
AcDbCircle
 10
407.0234706266
 20
375.962061929
 30
0.0
 40
0.8000000000000114
100
AcDbArc
 50
0.0
 51
89.0
  0
ARC
  5
1C7
330
1F
100
AcDbEntity
  8
0
  6
Continuous
 62
     7
370
    25
100
AcDbCircle
 10
407.0234706266
 20
345.53437755
 30
0.0
 40
0.8000000000000114
100
AcDbArc
 50
271.0
 51
0.0
  0
LINE
  5
1C8
330
1F
100
AcDbEntity
  8
0
  6
Continuous
 62
     7
370
    25
100
AcDbLine
 10
425.8134706266
 20
371.4982197395
 30
0.0
 11
424.8234706266
 21
371.4982197395
 31
0.0
  0
LINE
  5
1C9
330
1F
100
AcDbEntity
  8
0
  6
Continuous
 62
     7
370
    25
100
AcDbLine
 10
424.8234706266
 20
349.9982197395
 30
0.0
 11
425.8134706266
 21
349.9982197395
 31
0.0
  0
SPLINE
  5
1CA
330
1F
100
AcDbEntity
  8
0
  6
Continuous
 62
     7
370
    25
100
AcDbSpline
210
0.0
220
0.0
230
1.0
 70
     8
 71
     3
 72
     9
 73
     5
 74
     0
 42
0.00000001
 43
0.00000001
 40
0.0
 40
0.0
 40
0.0
 40
0.0
 40
0.4917037154260686
 40
1.0
 40
1.0
 40
1.0
 40
1.0
 10
431.1258090130349
 20
384.0751440694189
 30
0.0
 10
430.2941683776575
 20
383.7313203736417
 30
0.0
 10
428.6028233475373
 20
383.0320706324041
 30
0.0
 10
426.9183628823857
 20
382.1285409880181
 30
0.0
 10
426.0621578864375
 20
381.6692802267743
 30
0.0
  0
SPLINE
  5
1CB
330
1F
100
AcDbEntity
  8
0
  6
Continuous
 62
     7
370
    25
100
AcDbSpline
210
0.0
220
0.0
230
1.0
 70
     8
 71
     3
 72
     9
 73
     5
 74
     0
 42
0.00000001
 43
0.00000001
 40
0.0
 40
0.0
 40
0.0
 40
0.0
 40
0.9574047629703533
 40
1.0
 40
1.0
 40
1.0
 40
1.0
 10
462.4532693460385
 20
359.0828188448555
 30
0.0
 10
462.1167219250506
 20
358.3839125071965
 30
0.0
 10
461.7652014041542
 20
357.6539116082134
 30
0.0
 10
461.3674593653417
 20
356.7553228161531
 30
0.0
 10
461.3505174489218
 20
356.7170472135631
 30
0.0
  0
SPLINE
  5
1CC
330
1F
100
AcDbEntity
  8
0
  6
Continuous
 62
     7
370
    25
100
AcDbSpline
210
0.0
220
0.0
230
1.0
 70
     8
 71
     3
 72
     9
 73
     5
 74
     0
 42
0.00000001
 43
0.00000001
 40
0.0
 40
0.0
 40
0.0
 40
0.0
 40
0.3308581017537173
 40
1.0
 40
1.0
 40
1.0
 40
1.0
 10
491.6225529223883
 20
268.2855051146555
 30
0.0
 10
491.6400382613373
 20
268.2755671938542
 30
0.0
 10
491.6928867146664
 20
268.245530387294
 30
0.0
 10
491.7463029465065
 20
268.2564711383593
 30
0.0
 10
491.7820459852772
 20
268.2637920532954
 30
0.0
  0
LINE
  5
1CD
330
1F
100
AcDbEntity
  8
0
  6
Continuous
 62
     7
370
    25
100
AcDbLine
 10
491.5675836518
 20
268.3120152818
 30
0.0
 11
491.5825531697
 21
268.3047958951
 31
0.0
  0
LINE
  5
1CE
330
1F
100
AcDbEntity
  8
0
  6
Continuous
 62
     7
370
    25
100
AcDbLine
 10
492.6334706266
 20
269.2469697395
 30
0.0
 11
492.6334706266
 21
372.5540701384
 31
0.0
  0
ARC
  5
1CF
330
1F
100
AcDbEntity
  8
0
  6
Continuous
 62
     7
370
    25
100
AcDbCircle
 10
443.4469803334
 20
388.5119530105
 30
0.0
 40
60.00000000073276
100
AcDbArc
 50
282.1470609849
 51
284.378519764
  0
ARC
  5
1D0
330
1F
100
AcDbEntity
  8
0
  6
Continuous
 62
     7
370
    25
100
AcDbCircle
 10
443.4469803334
 20
311.9819864685
 30
0.0
 40
60.00000000073278
100
AcDbArc
 50
67.534021489
 51
77.8529390151
  0
LINE
  5
1D1
330
1F
100
AcDbEntity
  8
0
  6
Continuous
 62
     7
370
    25
100
AcDbLine
 10
455.8334706266
 20
329.8469697395
 30
0.0
 11
456.0722771182
 21
329.855309046
 31
0.0
  0
LINE
  5
1D2
330
1F
100
AcDbEntity
  8
0
  6
Continuous
 62
     7
370
    25
100
AcDbLine
 10
456.0722771182
 20
370.6386304331
 30
0.0
 11
455.8334706266
 21
370.6469697395
 31
0.0
  0
LINE
  5
1D3
330
1F
100
AcDbEntity
  8
0
  6
Continuous
 62
     7
370
    25
100
AcDbLine
 10
403.8353098579
 20
344.6786061344
 30
0.0
 11
403.8234706266
 21
343.780219158
 31
0.0
  0
SPLINE
  5
1D4
330
1F
100
AcDbEntity
  8
0
  6
Continuous
 62
     7
370
    25
100
AcDbSpline
210
0.0
220
0.0
230
1.0
 70
     8
 71
     3
 72
     9
 73
     5
 74
     0
 42
0.00000001
 43
0.00000001
 40
0.0
 40
0.0
 40
0.0
 40
0.0
 40
0.5012633420326518
 40
1.0
 40
1.0
 40
1.0
 40
1.0
 10
431.1338717970376
 20
327.2482197395249
 30
0.0
 10
432.2527606610393
 20
327.2446064843372
 30
0.0
 10
434.4848984819789
 20
327.2373981870518
 30
0.0
 10
436.712489384522
 20
327.2649579583207
 30
0.0
 10
437.8234706265748
 20
327.2787030265376
 30
0.0
  0
SPLINE
  5
1D5
330
1F
100
AcDbEntity
  8
0
  6
Continuous
 62
     7
370
    25
100
AcDbSpline
210
0.0
220
0.0
230
1.0
 70
     8
 71
     3
 72
    13
 73
     9
 74
     0
 42
0.00000001
 43
0.00000001
 40
0.0
 40
0.0
 40
0.0
 40
0.0
 40
0.2081131259458975
 40
0.4769784478470716
 40
0.5989312068743263
 40
0.7211112382401726
 40
0.8521945269694529
 40
1.0
 40
1.0
 40
1.0
 40
1.0
 10
478.620939639497
 20
326.7515205016735
 30
0.0
 10
479.3083951594093
 20
326.6855746638448
 30
0.0
 10
480.8839875943474
 20
326.5344321387083
 30
0.0
 10
482.8122067103764
 20
325.7818716797886
 30
0.0
 10
484.1705092388862
 20
324.6931220687879
 30
0.0
 10
484.9281348048489
 20
323.6745400915261
 30
0.0
 10
485.4506805358172
 20
322.4367514979534
 30
0.0
 10
485.5958956481388
 20
321.5295283607667
 30
0.0
 10
485.6728567570498
 20
321.0487182195117
 30
0.0
  0
LINE
  5
1D6
330
1F
100
AcDbEntity
  8
0
  6
Continuous
 62
     7
370
    25
100
AcDbLine
 10
478.3313029743
 20
326.7914343804
 30
0.0
 11
478.6209396395
 21
326.7515205017
 31
0.0
  0
LINE
  5
1D7
330
1F
100
AcDbEntity
  8
0
  6
Continuous
 62
     7
370
    25
100
AcDbLine
 10
403.8234706266
 20
328.7514296553
 30
0.0
 11
403.8234706266
 21
317.2482197395
 31
0.0
  0
LINE
  5
1D8
330
1F
100
AcDbEntity
  8
0
  6
Continuous
 62
     7
370
    25
100
AcDbLine
 10
428.8234706266
 20
317.2482197395
 30
0.0
 11
428.8234706266
 21
325.2482197395
 31
0.0
  0
ARC
  5
1D9
330
1F
100
AcDbEntity
  8
0
  6
Continuous
 62
     7
370
    25
100
AcDbCircle
 10
458.8334706266
 20
327.4469697395
 30
0.0
 40
0.5
100
AcDbArc
 50
180.0
 51
269.9999999994
  0
SPLINE
  5
1DA
330
1F
100
AcDbEntity
  8
0
  6
Continuous
 62
     7
370
    25
100
AcDbSpline
210
0.0
220
0.0
230
1.0
 70
     8
 71
     3
 72
    13
 73
     9
 74
     0
 42
0.00000001
 43
0.00000001
 40
0.0
 40
0.0
 40
0.0
 40
0.0
 40
0.1485990725863216
 40
0.276135656777193
 40
0.4498914106472683
 40
0.671924339058751
 40
0.8265544564269972
 40
1.0
 40
1.0
 40
1.0
 40
1.0
 10
492.6334703526103
 20
372.5374530991124
 30
0.0
 10
492.6289276157378
 20
372.6156358801203
 30
0.0
 10
492.6204860312245
 20
372.7609197853731
 30
0.0
 10
492.5417892668854
 20
372.9859545396725
 30
0.0
 10
492.3945402080812
 20
373.221532156744
 30
0.0
 10
492.1671508365592
 20
373.4092139123141
 30
0.0
 10
491.8984686397146
 20
373.5257938904961
 30
0.0
 10
491.7256701019632
 20
373.5396473886823
 30
0.0
 10
491.6343157594225
 20
373.5469713928964
 30
0.0
  0
LINE
  5
1DB
330
1F
100
AcDbEntity
  8
0
  6
Continuous
 62
     7
370
    25
100
AcDbLine
 10
491.636377505
 20
373.5469697394
 30
0.0
 11
469.5115834878
 21
373.5469697394
 31
0.0
  0
LINE
  5
1DC
330
1F
100
AcDbEntity
  8
0
  6
Continuous
 62
     7
370
    25
100
AcDbLine
 10
458.8334706266
 20
326.9469697395
 30
0.0
 11
471.2834706266
 21
326.9469697395
 31
0.0
  0
SPLINE
  5
1DD
330
1F
100
AcDbEntity
  8
0
  6
Continuous
 62
     7
370
    25
100
AcDbSpline
210
0.0
220
0.0
230
1.0
 70
     8
 71
     3
 72
    15
 73
    11
 74
     0
 42
0.00000001
 43
0.00000001
 40
0.0
 40
0.0
 40
0.0
 40
0.0
 40
0.0050688733453314
 40
0.0105267365683061
 40
0.0175522763451849
 40
0.0280685052853613
 40
0.0668998598586033
 40
0.1404521265993315
 40
0.4403095240704425
 40
1.0
 40
1.0
 40
1.0
 40
1.0
 10
469.5174985253014
 20
373.5469691982964
 30
0.0
 10
469.4983379258854
 20
373.5463557688768
 30
0.0
 10
469.4585463255033
 20
373.545081834915
 30
0.0
 10
469.3949832167798
 20
373.5331059990066
 30
0.0
 10
469.3352304204359
 20
373.5140671906036
 30
0.0
 10
469.2495802573612
 20
373.4742148151337
 30
0.0
 10
469.1803076791339
 20
373.4179791829338
 30
0.0
 10
469.0736882466386
 20
373.3004707609222
 30
0.0
 10
469.0347970911762
 20
373.1792173223587
 30
0.0
 10
468.9467979124548
 20
373.0006899971533
 30
0.0
 10
468.8894976692175
 20
372.8844427854473
 30
0.0
  0
LINE
  5
1DE
330
1F
100
AcDbEntity
  8
0
  6
Continuous
 62
     7
370
    25
100
AcDbLine
 10
405.8459706266
 20
317.2482197395
 30
0.0
 11
405.8459706266
 21
307.9482197395
 31
0.0
  0
LINE
  5
1DF
330
1F
100
AcDbEntity
  8
0
  6
Continuous
 62
     7
370
    25
100
AcDbLine
 10
426.8009706266
 20
307.9482197395
 30
0.0
 11
426.8009706266
 21
317.2482197395
 31
0.0
  0
LINE
  5
1E0
330
1F
100
AcDbEntity
  8
0
  6
Continuous
 62
     7
370
    25
100
AcDbLine
 10
405.8459706266
 20
307.9482197395
 30
0.0
 11
406.5459706266
 21
307.2482197395
 31
0.0
  0
LINE
  5
1E1
330
1F
100
AcDbEntity
  8
0
  6
Continuous
 62
     7
370
    25
100
AcDbLine
 10
426.1009706266
 20
307.2482197395
 30
0.0
 11
426.8009706266
 21
307.9482197395
 31
0.0
  0
SPLINE
  5
1E2
330
1F
100
AcDbEntity
  8
0
  6
Continuous
 62
     7
370
    25
100
AcDbSpline
210
0.0
220
0.0
230
1.0
 70
     8
 71
     3
 72
     9
 73
     5
 74
     0
 42
0.00000001
 43
0.00000001
 40
0.0
 40
0.0
 40
0.0
 40
0.0
 40
0.5248351563778598
 40
1.0
 40
1.0
 40
1.0
 40
1.0
 10
404.9395950314179
 20
327.3023060494414
 30
0.0
 10
404.9664689889879
 20
327.2902467398443
 30
0.0
 10
405.0176735572098
 20
327.267269411724
 30
0.0
 10
405.0860199912272
 20
327.2240731125025
 30
0.0
 10
405.1184958138592
 20
327.2035477497378
 30
0.0
  0
ARC
  5
1E3
330
1F
100
AcDbEntity
  8
0
  6
Continuous
 62
     7
370
    25
100
AcDbCircle
 10
430.8234706253
 20
325.2482197395
 30
0.0
 40
2.0
100
AcDbArc
 50
90.0
 51
180.0
  0
LINE
  5
1E4
330
1F
100
AcDbEntity
  8
0
  6
Continuous
 62
     7
370
    25
100
AcDbLine
 10
430.7701724103
 20
383.9321613996
 30
0.0
 11
430.7694310999
 21
383.9318598112
 31
0.0
  0
ARC
  5
1E5
330
1F
100
AcDbEntity
  8
0
  6
Continuous
 62
     7
370
    25
100
AcDbCircle
 10
491.6334706266
 20
269.2469697395
 30
0.0
 40
1.0
100
AcDbArc
 50
270.0
 51
0.0
  0
ARC
  5
1E6
330
1F
100
AcDbEntity
  8
0
  6
Continuous
 62
     7
370
    25
100
AcDbCircle
 10
471.1334706266
 20
326.3372078351
 30
0.0
 40
0.1999999999999993
100
AcDbArc
 50
180.0
 51
267.20581768
  0
ARC
  5
1E7
330
1F
100
AcDbEntity
  8
0
  6
Continuous
 62
     7
370
    25
100
AcDbCircle
 10
478.5334706266
 20
326.3372078351
 30
0.0
 40
0.1999999999999965
100
AcDbArc
 50
272.79418232
 51
0.0
  0
LINE
  5
1E8
330
1F
100
AcDbEntity
  8
0
  6
Continuous
 62
     7
370
    25
100
AcDbLine
 10
470.9334706266
 20
326.5469697395
 30
0.0
 11
470.9334706266
 21
326.3372078351
 31
0.0
  0
LINE
  5
1E9
330
1F
100
AcDbEntity
  8
0
  6
Continuous
 62
     7
370
    25
100
AcDbLine
 10
478.7334706266
 20
326.3372078351
 30
0.0
 11
478.7334706266
 21
326.5469697395
 31
0.0
  0
ARC
  5
1EA
330
1F
100
AcDbEntity
  8
0
  6
Continuous
 62
     7
370
    25
100
AcDbCircle
 10
474.8334706266
 20
402.1469697395
 30
0.0
 40
76.10000000000998
100
AcDbArc
 50
267.2058176799
 51
272.7941823201
  0
LINE
  5
1EB
330
1F
100
AcDbEntity
  8
0
  6
Continuous
 62
     7
370
    25
100
AcDbLine
 10
471.4334706266
 20
326.9871621184
 30
0.0
 11
471.4334706266
 21
326.5469697395
 31
0.0
  0
LINE
  5
1EC
330
1F
100
AcDbEntity
  8
0
  6
Continuous
 62
     7
370
    25
100
AcDbLine
 10
478.2334706266
 20
326.5469697395
 30
0.0
 11
478.2334706266
 21
326.8843238974
 31
0.0
  0
LINE
  5
1ED
330
1F
100
AcDbEntity
  8
0
  6
Continuous
 62
     7
370
    25
100
AcDbLine
 10
430.7694310999
 20
383.9318598112
 30
0.0
 11
430.7694310348
 21
383.9318597847
 31
0.0
  0
LINE
  5
1EE
330
1F
100
AcDbEntity
  8
0
  6
Continuous
 62
     7
370
    25
100
AcDbLine
 10
483.5590508192
 20
325.1263161111
 30
0.0
 11
484.1316133074
 21
324.6575200427
 31
0.0
  0
LINE
  5
1EF
330
1F
100
AcDbEntity
  8
0
  6
Continuous
 62
     7
370
    25
100
AcDbLine
 10
485.5125068561
 20
321.8332280886
 30
0.0
 11
485.6728567571
 21
321.0487182192
 31
0.0
  0
LINE
  5
1F0
330
1F
100
AcDbEntity
  8
0
  6
Continuous
 62
     7
370
    25
100
AcDbLine
 10
478.3222989025
 20
326.792675202
 30
0.0
 11
478.6209396395
 21
326.7515205017
 31
0.0
  0
SPLINE
  5
1F1
330
1F
100
AcDbEntity
  8
0
  6
Continuous
 62
     7
370
    25
100
AcDbSpline
210
0.0
220
0.0
230
1.0
 70
     8
 71
     3
 72
     9
 73
     5
 74
     0
 42
0.00000001
 43
0.00000001
 40
0.0
 40
0.0
 40
0.0
 40
0.0
 40
0.5225694429274156
 40
0.9999999999999999
 40
0.9999999999999999
 40
0.9999999999999999
 40
0.9999999999999999
 10
404.9341880782937
 20
327.3033512847587
 30
0.0
 10
404.9616171588972
 20
327.2912209335701
 30
0.0
 10
405.0141060309023
 20
327.2680080355471
 30
0.0
 10
405.0822584416502
 20
327.2253258499202
 30
0.0
 10
405.1147964850794
 20
327.2049480702594
 30
0.0
  0
LINE
  5
1F2
330
1F
100
AcDbEntity
  8
0
  6
Continuous
 62
     7
370
    25
100
AcDbLine
 10
431.1258090161
 20
384.0751440706
 30
0.0
 11
430.1334909564
 21
383.6449609491
 31
0.0
  0
SPLINE
  5
1F3
330
1F
100
AcDbEntity
  8
0
  6
Continuous
 62
     7
370
    25
100
AcDbSpline
210
0.0
220
0.0
230
1.0
 70
    24
 71
     3
 72
    10
 73
     6
 74
     0
 42
0.00000001
 43
0.00000001
 40
0.0
 40
0.0
 40
0.0
 40
0.0
 40
0.5
 40
0.5
 40
1.0
 40
1.0
 40
1.0
 40
1.0
 10
381.8234706266107
 20
360.748219739525
 30
0.0
 10
381.8234706266107
 20
351.519881024084
 30
0.0
 10
381.8234706266107
 20
342.6688147003986
 30
0.0
 10
381.8234706266107
 20
329.6179729308492
 30
0.0
 10
381.8234706266107
 20
325.951741218115
 30
0.0
 10
381.8234706266107
 20
325.951741218115
 30
0.0
  0
SPLINE
  5
1F4
330
1F
100
AcDbEntity
  8
0
  6
Continuous
 62
     7
370
    25
100
AcDbSpline
210
0.0
220
0.0
230
1.0
 70
    24
 71
     3
 72
    10
 73
     6
 74
     0
 42
0.00000001
 43
0.00000001
 40
0.0
 40
0.0
 40
0.0
 40
0.0
 40
0.5
 40
0.5
 40
1.0
 40
1.0
 40
1.0
 40
1.0
 10
381.8234706266107
 20
395.544698260935
 30
0.0
 10
381.8234706266107
 20
395.544698260935
 30
0.0
 10
381.8234706266107
 20
391.8784665482007
 30
0.0
 10
381.8234706266107
 20
378.8276247786513
 30
0.0
 10
381.8234706266107
 20
369.9765584549659
 30
0.0
 10
381.8234706266107
 20
360.7482197395249
 30
0.0
  0
SPLINE
  5
1F5
330
1F
100
AcDbEntity
  8
0
  6
Continuous
 62
     7
370
    25
100
AcDbSpline
210
0.0
220
0.0
230
1.0
 70
    24
 71
     3
 72
    52
 73
    48
 74
     0
 42
0.00000001
 43
0.00000001
 40
0.0
 40
0.0
 40
0.0
 40
0.0
 40
0.005307487518443
 40
0.0106084529657734
 40
0.0159043583937685
 40
0.0211966700478435
 40
0.0264868571616005
 40
0.0317763907389949
 40
0.0370667423291366
 40
0.0423593827988231
 40
0.0476557811079124
 40
0.0529574030926265
 40
0.0582657102617899
 40
0.0891347779697723
 40
0.1200087591672487
 40
0.1521645223165352
 40
0.1843252188265755
 40
0.2171651977693868
 40
0.2500102150470354
 40
0.2828501941324248
 40
0.3156952115556079
 40
0.3478509751027274
 40
0.3800116720092175
 40
0.4108807394115676
 40
0.4417547203571451
 40
0.4708752612048191
 40
0.5000007794753033
 40
0.5291213203661504
 40
0.5582468386517841
 40
0.5891159063620323
 40
0.6199898875572516
 40
0.6521456507081295
 40
0.6843063472165619
 40
0.7171463261588327
 40
0.7499913434370161
 40
0.7828313225226036
 40
0.8156763399456024
 40
0.8478321034915972
 40
0.8799928003991856
 40
0.9108618678003598
 40
0.9417358487471365
 40
0.9514609450078038
 40
0.9611682091024333
 40
0.9708666830085708
 40
0.9805654332886168
 40
0.9902735257306394
 40
1.0
 40
1.0
 40
1.0
 40
1.0
 10
394.8234706266108
 20
394.735146084965
 30
0.0
 10
394.8234706266108
 20
394.7342449154374
 30
0.0
 10
394.8234706266108
 20
394.7324436837787
 30
0.0
 10
394.8234706266108
 20
394.7178496615583
 30
0.0
 10
394.8234706266108
 20
394.6945456700424
 30
0.0
 10
394.8234706266108
 20
394.6616809858241
 30
0.0
 10
394.8234706266108
 20
394.6194832610198
 30
0.0
 10
394.8234706266108
 20
394.5678915309116
 30
0.0
 10
394.8234706266108
 20
394.5069222171153
 30
0.0
 10
394.8234706266108
 20
394.4365706435137
 30
0.0
 10
394.8234706266108
 20
394.356839221138
 30
0.0
 10
394.8234706266108
 20
394.2677231544844
 30
0.0
 10
394.8234706266108
 20
394.011230144392
 30
0.0
 10
394.8234706266108
 20
393.463780220643
 30
0.0
 10
394.8234706266108
 20
392.3833690725189
 30
0.0
 10
394.8234706266108
 20
390.9780902589311
 30
0.0
 10
394.8234706266108
 20
389.2309933662276
 30
0.0
 10
394.8234706266108
 20
387.175831331895
 30
0.0
 10
394.8234706266108
 20
384.8230784774088
 30
0.0
 10
394.8234706266108
 20
382.216123767528
 30
0.0
 10
394.8234706266108
 20
379.3988038984875
 30
0.0
 10
394.8234706266108
 20
376.4092602949009
 30
0.0
 10
394.8234706266108
 20
373.3216345157863
 30
0.0
 10
394.8234706266108
 20
370.1547923206996
 30
0.0
 10
394.8234706266108
 20
367.0029985177355
 30
0.0
 10
394.8234706266108
 20
363.8578788254956
 30
0.0
 10
394.8234706266107
 20
360.7483967117051
 30
0.0
 10
394.8234706266108
 20
357.63873851717
 30
0.0
 10
394.8234706266108
 20
354.4937866832779
 30
0.0
 10
394.8234706266107
 20
351.3418165694402
 30
0.0
 10
394.8234706266108
 20
348.1751302717457
 30
0.0
 10
394.8234706266108
 20
345.0873373583161
 30
0.0
 10
394.8234706266108
 20
342.097932012463
 30
0.0
 10
394.8234706266108
 20
339.2804567270609
 30
0.0
 10
394.8234706266108
 20
336.673614337176
 30
0.0
 10
394.8234706266108
 20
334.3207218489236
 30
0.0
 10
394.8234706266108
 20
332.2656409476114
 30
0.0
 10
394.8234706266108
 20
330.5184279623794
 30
0.0
 10
394.8234706266108
 20
329.1132055825798
 30
0.0
 10
394.8234706266108
 20
328.0326876944494
 30
0.0
 10
394.8234706266108
 20
327.4492335956561
 30
0.0
 10
394.8234706266108
 20
327.1502057870078
 30
0.0
 10
394.8234706266108
 20
327.0082967130618
 30
0.0
 10
394.8234706266108
 20
326.8977848009001
 30
0.0
 10
394.8234706266108
 20
326.8194252169299
 30
0.0
 10
394.8234706266108
 20
326.7703660413874
 30
0.0
 10
394.8234706266108
 20
326.7643195161839
 30
0.0
 10
394.8234706266108
 20
326.7612933940849
 30
0.0
  0
LINE
  5
1F6
330
1F
100
AcDbEntity
  8
0
  6
Continuous
 62
     7
370
    25
100
AcDbLine
 10
425.8234706266
 20
366.1482197395
 30
0.0
 11
425.8234706266
 21
355.3482197395
 31
0.0
  0
LINE
  5
1F7
330
1F
100
AcDbEntity
  8
0
  6
Continuous
 62
     7
370
    25
100
AcDbLine
 10
454.7728104548
 20
335.7382197395
 30
0.0
 11
437.8234706266
 21
335.7382197395
 31
0.0
  0
LINE
  5
1F8
330
1F
100
AcDbEntity
  8
0
  6
Continuous
 62
     7
370
    25
100
AcDbLine
 10
454.7728104548
 20
385.7482197395
 30
0.0
 11
437.8234706266
 21
385.7482197395
 31
0.0
  0
SPLINE
  5
1F9
330
1F
100
AcDbEntity
  8
0
  6
Continuous
 62
     7
370
    25
100
AcDbSpline
210
0.0
220
0.0
230
1.0
 70
    24
 71
     3
 72
    15
 73
    11
 74
     0
 42
0.00000001
 43
0.00000001
 40
0.0000000000003312
 40
0.0000000000003312
 40
0.0000000000003312
 40
0.0000000000003312
 40
0.1250000199553313
 40
0.2500000199553313
 40
0.3750000199553313
 40
0.5000000199553313
 40
0.6250000199553313
 40
0.7500000199553313
 40
0.8750000199553313
 40
1.000000019955
 40
1.000000019955
 40
1.000000019955
 40
1.000000019955
 10
425.8134706266148
 20
355.3482200987089
 30
0.0
 10
425.8134706266148
 20
354.5982199570309
 30
0.0
 10
425.8134706266148
 20
353.235719828074
 30
0.0
 10
425.8134706266148
 20
351.5716572395249
 30
0.0
 10
425.8134706266148
 20
350.254469739525
 30
0.0
 10
425.8134706266148
 20
349.2513447395249
 30
0.0
 10
425.8134706266148
 20
348.5294697395249
 30
0.0
 10
425.8134706266148
 20
348.056032239525
 30
0.0
 10
425.8134706266148
 20
347.7982197395216
 30
0.0
 10
425.8134706266148
 20
347.7482197395237
 30
0.0
 10
425.8134706266148
 20
347.7482197395234
 30
0.0
  0
SPLINE
  5
1FA
330
1F
100
AcDbEntity
  8
0
  6
Continuous
 62
     7
370
    25
100
AcDbSpline
210
0.0
220
0.0
230
1.0
 70
     8
 71
     3
 72
    14
 73
    10
 74
     0
 42
0.00000001
 43
0.00000001
 40
0.0
 40
0.0
 40
0.0
 40
0.0
 40
0.0362407473804093
 40
0.1940478791989821
 40
0.3540177660268972
 40
0.5184392013407259
 40
0.6725138134724051
 40
0.8204764507138539
 40
1.0
 40
1.0
 40
1.0
 40
1.0
 10
429.3079351778376
 20
339.3117993569305
 30
0.0
 10
429.2220598633401
 20
339.393244996773
 30
0.0
 10
428.7622480807942
 20
339.8293384778357
 30
0.0
 10
428.0618428394715
 20
340.7275821979522
 30
0.0
 10
427.2421623703066
 20
342.015366396202
 30
0.0
 10
426.6159767025352
 20
343.3748248377599
 30
0.0
 10
426.17856646002
 20
344.7484053767421
 30
0.0
 10
425.8839950465465
 20
346.1994827355725
 30
0.0
 10
425.8449012973043
 20
347.1998382308068
 30
0.0
 10
425.8234706266147
 20
347.748219739525
 30
0.0
  0
SPLINE
  5
1FB
330
1F
100
AcDbEntity
  8
0
  6
Continuous
 62
     7
370
    25
100
AcDbSpline
210
0.0
220
0.0
230
1.0
 70
    24
 71
     3
 72
    22
 73
    18
 74
     0
 42
0.00000001
 43
0.00000001
 40
0.0
 40
0.0
 40
0.0
 40
0.0
 40
0.0624228621501874
 40
0.124683851692782
 40
0.2490128997667962
 40
0.3140953102363085
 40
0.3744768035068306
 40
0.4372019403070073
 40
0.4996156938760703
 40
0.5621027678922131
 40
0.6248042553261927
 40
0.6874283816356429
 40
0.7501372822813188
 40
0.8124812571004457
 40
0.8747712226723269
 40
0.9372926724740127
 40
1.0
 40
1.0
 40
1.0
 40
1.0
 10
455.8334706266148
 20
351.748219739525
 30
0.0
 10
455.8334706266148
 20
351.2285272380271
 30
0.0
 10
455.8334706266148
 20
350.1904898819906
 30
0.0
 10
455.8334706266147
 20
348.1189480535521
 30
0.0
 10
455.8334706266148
 20
346.0279096625019
 30
0.0
 10
455.8334706266148
 20
344.012173463661
 30
0.0
 10
455.8334706266148
 20
342.5488243104202
 30
0.0
 10
455.8334706266148
 20
341.1991435787595
 30
0.0
 10
455.8334706266148
 20
339.9815847017622
 30
0.0
 10
455.8334706266148
 20
338.986361051035
 30
0.0
 10
455.8334706266148
 20
338.2105224859865
 30
0.0
 10
455.8334706266148
 20
337.6437038226805
 30
0.0
 10
455.8334706266148
 20
337.247152777545
 30
0.0
 10
455.8334706266148
 20
336.9985356920677
 30
0.0
 10
455.8334706266148
 20
336.8655434063769
 30
0.0
 10
455.8334706266148
 20
336.809198993404
 30
0.0
 10
455.8334706266148
 20
336.8023230073586
 30
0.0
 10
455.8334706266148
 20
336.798879911305
 30
0.0
  0
SPLINE
  5
1FC
330
1F
100
AcDbEntity
  8
0
  6
Continuous
 62
     7
370
    25
100
AcDbSpline
210
0.0
220
0.0
230
1.0
 70
     8
 71
     3
 72
    14
 73
    10
 74
     0
 42
0.00000001
 43
0.00000001
 40
0.0
 40
0.0
 40
0.0
 40
0.0
 40
0.25
 40
0.25
 40
0.5
 40
0.5
 40
0.75
 40
0.75
 40
1.0
 40
1.0
 40
1.0
 40
1.0
 10
455.8334706266148
 20
336.798879911305
 30
0.0
 10
455.8334706266148
 20
336.6600398194875
 30
0.0
 10
455.8058644813788
 20
336.5212543553174
 30
0.0
 10
455.6996008756057
 20
336.2647113170731
 30
0.0
 10
455.6209852252596
 20
336.1470546817295
 30
0.0
 10
455.4246356844102
 20
335.9507051408801
 30
0.0
 10
455.3069790490666
 20
335.8720894905341
 30
0.0
 10
455.0504360108224
 20
335.7658258847609
 30
0.0
 10
454.9116505466522
 20
335.7382197395249
 30
0.0
 10
454.7728104548348
 20
335.7382197395249
 30
0.0
  0
LINE
  5
1FD
330
1F
100
AcDbEntity
  8
0
  6
Continuous
 62
     7
370
    25
100
AcDbLine
 10
455.8334706266
 20
369.7482197395
 30
0.0
 11
455.8334706266
 21
351.7482197395
 31
0.0
  0
SPLINE
  5
1FE
330
1F
100
AcDbEntity
  8
0
  6
Continuous
 62
     7
370
    25
100
AcDbSpline
210
0.0
220
0.0
230
1.0
 70
    24
 71
     3
 72
    15
 73
    11
 74
     0
 42
0.00000001
 43
0.00000001
 40
-0.0000000000000115
 40
-0.0000000000000115
 40
-0.0000000000000115
 40
-0.0000000000000115
 40
0.1249999999999281
 40
0.2499999999999281
 40
0.3749999999999282
 40
0.4999999999999282
 40
0.6249999999999282
 40
0.7499999999999282
 40
0.8749999999999282
 40
0.9999999999999396
 40
0.9999999999999396
 40
0.9999999999999396
 40
0.9999999999999396
 10
425.8134706266148
 20
373.7482197395314
 30
0.0
 10
425.8134706266148
 20
373.7482197395301
 30
0.0
 10
425.8134706266148
 20
373.6982197395313
 30
0.0
 10
425.8134706266148
 20
373.4404072395267
 30
0.0
 10
425.8134706266148
 20
372.9669697395266
 30
0.0
 10
425.8134706266148
 20
372.2450947395265
 30
0.0
 10
425.8134706266148
 20
371.2419697395262
 30
0.0
 10
425.8134706266148
 20
369.9247822395258
 30
0.0
 10
425.8134706266148
 20
368.2607197395254
 30
0.0
 10
425.8134706266148
 20
366.8982197395253
 30
0.0
 10
425.8134706266148
 20
366.1482197395254
 30
0.0
  0
SPLINE
  5
1FF
330
1F
100
AcDbEntity
  8
0
  6
Continuous
 62
     7
370
    25
100
AcDbSpline
210
0.0
220
0.0
230
1.0
 70
     8
 71
     3
 72
    13
 73
     9
 74
     0
 42
0.00000001
 43
0.00000001
 40
0.0
 40
0.0
 40
0.0
 40
0.0
 40
0.2071016269819433
 40
0.4073830840919055
 40
0.6008448969475889
 40
0.7874876580490758
 40
0.9673120365947745
 40
1.0
 40
1.0
 40
1.0
 40
1.0
 10
425.8234706266147
 20
373.7482197395249
 30
0.0
 10
425.8254043081849
 20
373.9127510292383
 30
0.0
 10
425.829207992266
 20
374.2363953443981
 30
0.0
 10
425.8596579081519
 20
374.7134465941179
 30
0.0
 10
425.9048808998644
 20
375.1733800558345
 30
0.0
 10
425.9689257075781
 20
375.6149837747037
 30
0.0
 10
426.0175404273758
 20
375.929842271081
 30
0.0
 10
426.056983728518
 20
376.0951296344518
 30
0.0
 10
426.0630507699541
 20
376.1205536038816
 30
0.0
  0
SPLINE
  5
200
330
1F
100
AcDbEntity
  8
0
  6
Continuous
 62
     7
370
    25
100
AcDbSpline
210
0.0
220
0.0
230
1.0
 70
     8
 71
     3
 72
    14
 73
    10
 74
     0
 42
0.00000001
 43
0.00000001
 40
0.0
 40
0.0
 40
0.0
 40
0.0
 40
0.25
 40
0.25
 40
0.5
 40
0.5
 40
0.75
 40
0.75
 40
1.0
 40
1.0
 40
1.0
 40
1.0
 10
454.7728104548348
 20
385.7482197395249
 30
0.0
 10
454.9116505466522
 20
385.7482197395249
 30
0.0
 10
455.0504360108224
 20
385.720613594289
 30
0.0
 10
455.3069790490666
 20
385.6143499885158
 30
0.0
 10
455.4246356844101
 20
385.5357343381698
 30
0.0
 10
455.6209852252596
 20
385.3393847973204
 30
0.0
 10
455.6996008756057
 20
385.2217281619768
 30
0.0
 10
455.8058644813788
 20
384.9651851237325
 30
0.0
 10
455.8334706266148
 20
384.8263996595625
 30
0.0
 10
455.8334706266148
 20
384.6875595677449
 30
0.0
  0
SPLINE
  5
201
330
1F
100
AcDbEntity
  8
0
  6
Continuous
 62
     7
370
    25
100
AcDbSpline
210
0.0
220
0.0
230
1.0
 70
    24
 71
     3
 72
    21
 73
    17
 74
     0
 42
0.00000001
 43
0.00000001
 40
0.0
 40
0.0
 40
0.0
 40
0.0
 40
0.0624307962999653
 40
0.1246996993545116
 40
0.2490445499948644
 40
0.3141352278411723
 40
0.3745244004885828
 40
0.4372575098282746
 40
0.4996791963576405
 40
0.5710971359335889
 40
0.6427247273076544
 40
0.6947806015882168
 40
0.7501984823320612
 40
0.8747632700128402
 40
0.9372871262238285
 40
1.0
 40
1.0
 40
1.0
 40
1.0
 10
455.8334706266148
 20
384.6875595677449
 30
0.0
 10
455.8334706266148
 20
384.6864761842222
 30
0.0
 10
455.8334706266148
 20
384.684312226567
 30
0.0
 10
455.8334706266148
 20
384.6158477649897
 30
0.0
 10
455.8334706266148
 20
384.3804944560887
 30
0.0
 10
455.8334706266148
 20
383.8535955226019
 30
0.0
 10
455.8334706266148
 20
383.2829215848054
 30
0.0
 10
455.8334706266148
 20
382.5195406867098
 30
0.0
 10
455.8334706266148
 20
381.4789421855289
 30
0.0
 10
455.8334706266148
 20
380.1300472458803
 30
0.0
 10
455.8334706266148
 20
378.6840621058798
 30
0.0
 10
455.8334706266148
 20
377.2793075388534
 30
0.0
 10
455.8334706266148
 20
375.4054140902766
 30
0.0
 10
455.8334706266148
 20
373.3905308353958
 30
0.0
 10
455.8334706266148
 20
371.3127783966374
 30
0.0
 10
455.8334706266148
 20
370.2702637748104
 30
0.0
 10
455.8334706266148
 20
369.7482197395249
 30
0.0
  0
SPLINE
  5
202
330
1F
100
AcDbEntity
  8
0
  6
Continuous
 62
     7
370
    25
100
AcDbSpline
210
0.0
220
0.0
230
1.0
 70
    24
 71
     3
 72
     8
 73
     4
 74
     0
 42
0.00000001
 43
0.00000001
 40
0.0
 40
0.0
 40
0.0
 40
0.0
 40
1.0
 40
1.0
 40
1.0
 40
1.0
 10
407.8234706266108
 20
375.4481420360428
 30
0.0
 10
407.8234706266108
 20
375.7892916615599
 30
0.0
 10
407.8234706266108
 20
375.962061929035
 30
0.0
 10
407.8234706266108
 20
375.962061929035
 30
0.0
  0
SPLINE
  5
203
330
1F
100
AcDbEntity
  8
0
  6
Continuous
 62
     7
370
    25
100
AcDbSpline
210
0.0
220
0.0
230
1.0
 70
    24
 71
     3
 72
     8
 73
     4
 74
     0
 42
0.00000001
 43
0.00000001
 40
0.0
 40
0.0
 40
0.0
 40
0.0
 40
1.0
 40
1.0
 40
1.0
 40
1.0
 10
407.8234706266108
 20
345.5343775500149
 30
0.0
 10
407.8234706266108
 20
345.5343775500149
 30
0.0
 10
407.8234706266108
 20
345.7071461199739
 30
0.0
 10
407.8234706266108
 20
346.0482924374945
 30
0.0
  0
SPLINE
  5
204
330
1F
100
AcDbEntity
  8
0
  6
Continuous
 62
     7
370
    25
100
AcDbSpline
210
0.0
220
0.0
230
1.0
 70
    24
 71
     3
 72
    10
 73
     6
 74
     0
 42
0.00000001
 43
0.00000001
 40
0.0
 40
0.0
 40
0.0
 40
0.0
 40
0.5
 40
0.5
 40
1.0
 40
1.0
 40
1.0
 40
1.0
 10
407.8234706266108
 20
360.748219739525
 30
0.0
 10
407.8234706266108
 20
357.5525205014696
 30
0.0
 10
407.8234706266108
 20
354.4326994051506
 30
0.0
 10
407.8234706266108
 20
349.1793237380598
 30
0.0
 10
407.8234706266108
 20
347.1705044298294
 30
0.0
 10
407.8234706266108
 20
346.0482197395262
 30
0.0
  0
SPLINE
  5
205
330
1F
100
AcDbEntity
  8
0
  6
Continuous
 62
     7
370
    25
100
AcDbSpline
210
0.0
220
0.0
230
1.0
 70
    24
 71
     3
 72
    10
 73
     6
 74
     0
 42
0.00000001
 43
0.00000001
 40
0.0
 40
0.0
 40
0.0
 40
0.0
 40
0.5
 40
0.5
 40
1.0
 40
1.0
 40
1.0
 40
1.0
 10
407.8234706266108
 20
375.4482197395256
 30
0.0
 10
407.8234706266108
 20
374.3259350492226
 30
0.0
 10
407.8234706266108
 20
372.317115740992
 30
0.0
 10
407.8234706266108
 20
367.0637400739005
 30
0.0
 10
407.8234706266108
 20
363.9439189775809
 30
0.0
 10
407.8234706266108
 20
360.748219739525
 30
0.0
  0
SPLINE
  5
206
330
1F
100
AcDbEntity
  8
0
  6
Continuous
 62
     7
370
    25
100
AcDbSpline
210
0.0
220
0.0
230
1.0
 70
    24
 71
     3
 72
    10
 73
     6
 74
     0
 42
0.00000001
 43
0.00000001
 40
0.0
 40
0.0
 40
0.0
 40
0.0
 40
0.5
 40
0.5
 40
1.0
 40
1.0
 40
1.0
 40
1.0
 10
424.8234706266147
 20
346.0482197395243
 30
0.0
 10
424.8234706266147
 20
347.1705044298273
 30
0.0
 10
424.8234706266147
 20
349.1793237380579
 30
0.0
 10
424.8234706266147
 20
354.4326994051494
 30
0.0
 10
424.8234706266147
 20
357.552520501469
 30
0.0
 10
424.8234706266147
 20
360.748219739525
 30
0.0
  0
SPLINE
  5
207
330
1F
100
AcDbEntity
  8
0
  6
Continuous
 62
     7
370
    25
100
AcDbSpline
210
0.0
220
0.0
230
1.0
 70
    24
 71
     3
 72
    10
 73
     6
 74
     0
 42
0.00000001
 43
0.00000001
 40
0.0
 40
0.0
 40
0.0
 40
0.0
 40
0.5
 40
0.5
 40
1.0
 40
1.0
 40
1.0
 40
1.0
 10
424.8234706266147
 20
360.748219739525
 30
0.0
 10
424.8234706266147
 20
363.9439189775803
 30
0.0
 10
424.8234706266147
 20
367.0637400738993
 30
0.0
 10
424.8234706266147
 20
372.31711574099
 30
0.0
 10
424.8234706266147
 20
374.3259350492205
 30
0.0
 10
424.8234706266147
 20
375.4482197395236
 30
0.0
  0
ARC
  5
208
330
1F
100
AcDbEntity
  8
0
  6
Continuous
 62
     7
370
    25
100
AcDbCircle
 10
408.1234706266
 20
375.4482197395
 30
0.0
 40
0.2999999999999545
100
AcDbArc
 50
90.0
 51
180.0
  0
ARC
  5
209
330
1F
100
AcDbEntity
  8
0
  6
Continuous
 62
     7
370
    25
100
AcDbCircle
 10
424.5234706266
 20
346.0482197395
 30
0.0
 40
0.2999999999999545
100
AcDbArc
 50
270.0
 51
0.0
  0
ARC
  5
20A
330
1F
100
AcDbEntity
  8
0
  6
Continuous
 62
     7
370
    25
100
AcDbCircle
 10
408.1234706266
 20
346.0482197395
 30
0.0
 40
0.2999999999999545
100
AcDbArc
 50
180.0
 51
270.0
  0
ARC
  5
20B
330
1F
100
AcDbEntity
  8
0
  6
Continuous
 62
     7
370
    25
100
AcDbCircle
 10
424.5234706266
 20
375.4482197395
 30
0.0
 40
0.2999999999999545
100
AcDbArc
 50
0.0
 51
90.0
  0
LINE
  5
20C
330
1F
100
AcDbEntity
  8
0
  6
Continuous
 62
     7
370
    25
100
AcDbLine
 10
408.1234706266
 20
345.7482197395
 30
0.0
 11
424.5234706266
 21
345.7482197395
 31
0.0
  0
LINE
  5
20D
330
1F
100
AcDbEntity
  8
0
  6
Continuous
 62
     7
370
    25
100
AcDbLine
 10
424.5234706266
 20
375.7482197395
 30
0.0
 11
408.1234706266
 21
375.7482197395
 31
0.0
  0
SPLINE
  5
20E
330
1F
100
AcDbEntity
  8
0
  6
Continuous
 62
     7
370
    25
100
AcDbSpline
210
0.0
220
0.0
230
1.0
 70
     8
 71
     3
 72
    19
 73
    15
 74
     0
 42
0.00000001
 43
0.00000001
 40
0.0
 40
0.0
 40
0.0
 40
0.0
 40
0.0647505437531519
 40
0.1280585324152921
 40
0.190291836985458
 40
0.2518896007681752
 40
0.3133026864523117
 40
0.3749512335985308
 40
0.4371553489540775
 40
0.5002436740097455
 40
0.6275835191196678
 40
0.7513360649552817
 40
0.874401630380305
 40
1.0
 40
1.0
 40
1.0
 40
1.0
 10
403.8236735275783
 20
328.7482072823346
 30
0.0
 10
403.8247381072781
 20
328.7076812350101
 30
0.0
 10
403.8268435492726
 20
328.6275320062287
 30
0.0
 10
403.8411931335981
 20
328.5091382462223
 30
0.0
 10
403.8638925441504
 20
328.3941425023615
 30
0.0
 10
403.895528059078
 20
328.2824776765675
 30
0.0
 10
403.9357137381566
 20
328.1740088762784
 30
0.0
 10
403.984151986191
 20
328.0685488425206
 30
0.0
 10
404.0411744286241
 20
327.9662481153359
 30
0.0
 10
404.1290921917783
 20
327.8346818453672
 30
0.0
 10
404.2577966163828
 20
327.6847907475106
 30
0.0
 10
404.4361080396019
 20
327.5320330639082
 30
0.0
 10
404.6343590267851
 20
327.4067378909793
 30
0.0
 10
404.7801238197932
 20
327.3513146898138
 30
0.0
 10
404.853748570992
 20
327.3233208285237
 30
0.0
  0
SPLINE
  5
20F
330
1F
100
AcDbEntity
  8
0
  6
Continuous
 62
     7
370
    25
100
AcDbSpline
210
0.0
220
0.0
230
1.0
 70
     8
 71
     3
 72
     9
 73
     5
 74
     0
 42
0.00000001
 43
0.00000001
 40
0.0
 40
0.0
 40
0.0
 40
0.0
 40
0.4226547954795179
 40
0.9999999999999999
 40
0.9999999999999999
 40
0.9999999999999999
 40
0.9999999999999999
 10
403.8234398065171
 20
328.747484090611
 30
0.0
 10
403.8222363098998
 20
328.7472669175674
 30
0.0
 10
403.8193888404513
 20
328.7467530867866
 30
0.0
 10
403.8221052319645
 20
328.7476750127822
 30
0.0
 10
403.8236735275783
 20
328.7482072823346
 30
0.0
  0
SPLINE
  5
210
330
1F
100
AcDbEntity
  8
0
  6
Continuous
 62
     7
370
    25
100
AcDbSpline
210
0.0
220
0.0
230
1.0
 70
    24
 71
     3
 72
     9
 73
     5
 74
     0
 42
0.00000001
 43
0.00000001
 40
0.0
 40
0.0
 40
0.0
 40
0.0
 40
0.7139700308439423
 40
0.9999999999999999
 40
0.9999999999999999
 40
0.9999999999999999
 40
0.9999999999999999
 10
425.9911570318488
 20
381.7395940286053
 30
0.0
 10
425.9958065755381
 20
381.7349931705253
 30
0.0
 10
426.0023188148315
 20
381.7285491212219
 30
0.0
 10
426.054257240664
 20
381.6771545452889
 30
0.0
 10
426.0691131870029
 20
381.66245415632
 30
0.0
  0
SPLINE
  5
211
330
1F
100
AcDbEntity
  8
0
  6
Continuous
 62
     7
370
    25
100
AcDbSpline
210
0.0
220
0.0
230
1.0
 70
     8
 71
     3
 72
     9
 73
     5
 74
     0
 42
0.00000001
 43
0.00000001
 40
0.0
 40
0.0
 40
0.0
 40
0.0
 40
0.0087478056434347
 40
1.0
 40
1.0
 40
1.0
 40
1.0
 10
435.4453505000994
 20
385.4558770517133
 30
0.0
 10
435.4440251818536
 20
385.4557149888022
 30
0.0
 10
435.2925222450338
 20
385.4371888672091
 30
0.0
 10
435.1484170885888
 20
385.3826706065324
 30
0.0
 10
435.0055725360446
 20
385.3286292610041
 30
0.0
  0
SPLINE
  5
212
330
1F
100
AcDbEntity
  8
0
  6
Continuous
 62
     7
370
    25
100
AcDbSpline
210
0.0
220
0.0
230
1.0
 70
     8
 71
     3
 72
     9
 73
     5
 74
     0
 42
0.00000001
 43
0.00000001
 40
0.0
 40
0.0
 40
0.0
 40
0.0
 40
0.4704453637361166
 40
1.0
 40
1.0
 40
1.0
 40
1.0
 10
433.970875385548
 20
385.0276741360889
 30
0.0
 10
433.5152437963946
 20
384.906204826472
 30
0.0
 10
432.5467326274568
 20
384.6480041532799
 30
0.0
 10
431.6250532723844
 20
384.2535454557683
 30
0.0
 10
431.136973696757
 20
384.0446580236865
 30
0.0
  0
SPLINE
  5
213
330
1F
100
AcDbEntity
  8
0
  6
Continuous
 62
     7
370
    25
100
AcDbSpline
210
0.0
220
0.0
230
1.0
 70
    24
 71
     3
 72
    21
 73
    17
 74
     0
 42
0.00000001
 43
0.00000001
 40
0.0
 40
0.0
 40
0.0
 40
0.0
 40
0.0626899076044103
 40
0.1253606847697363
 40
0.2506497992831319
 40
0.377636887527875
 40
0.500012518294293
 40
0.6209717925407242
 40
0.7492264610989464
 40
0.8121708206684383
 40
0.8745028985049143
 40
0.906867028419634
 40
0.9372256143655331
 40
0.9686147864125968
 40
0.9860598055894682
 40
1.0
 40
1.0
 40
1.0
 40
1.0
 10
455.8334706266148
 20
336.798879911305
 30
0.0
 10
455.8334706266148
 20
336.7986898090763
 30
0.0
 10
455.8334706266148
 20
336.7983096626307
 30
0.0
 10
455.8334706266148
 20
336.7733138795949
 30
0.0
 10
455.8334706266148
 20
336.6579289797659
 30
0.0
 10
455.8334706266148
 20
336.2596138964624
 30
0.0
 10
455.8334706266148
 20
335.5822877192317
 30
0.0
 10
455.8334706266148
 20
334.6030172226867
 30
0.0
 10
455.8334706266148
 20
333.5693165386888
 30
0.0
 10
455.8334706266148
 20
332.6256904083361
 30
0.0
 10
455.8334706266148
 20
331.995517033276
 30
0.0
 10
455.8334706266148
 20
331.4710875549938
 30
0.0
 10
455.8334706266148
 20
331.0640286387744
 30
0.0
 10
455.8334706266148
 20
330.7077698236642
 30
0.0
 10
455.8334706266148
 20
330.4279385716301
 30
0.0
 10
455.8334706266148
 20
330.2920257917134
 30
0.0
 10
455.8334706266148
 20
330.231658174025
 30
0.0
  0
SPLINE
  5
214
330
1F
100
AcDbEntity
  8
0
  6
Continuous
 62
     7
370
    25
100
AcDbSpline
210
0.0
220
0.0
230
1.0
 70
     8
 71
     3
 72
    24
 73
    20
 74
     0
 42
0.00000001
 43
0.00000001
 40
0.0
 40
0.0
 40
0.0
 40
0.0
 40
0.0617632108713343
 40
0.1231603230207031
 40
0.1841879917183061
 40
0.2448476117316321
 40
0.3051393791015184
 40
0.3650634570108206
 40
0.4246202153131493
 40
0.4838097664720196
 40
0.5426321854338524
 40
0.6010874935642424
 40
0.6591757911350994
 40
0.716897212374754
 40
0.7742514100639251
 40
0.8312384166178312
 40
0.8878597631512035
 40
0.9441152275601788
 40
1.0
 40
1.0
 40
1.0
 40
1.0
 10
459.7388538210993
 20
353.2608237260295
 30
0.0
 10
459.6828572236013
 20
353.138258730497
 30
0.0
 10
459.5711959459795
 20
352.8938552380644
 30
0.0
 10
459.4167393193404
 20
352.5228227016808
 30
0.0
 10
459.2724083204585
 20
352.1503556440131
 30
0.0
 10
459.1390139302304
 20
351.7763776603899
 30
0.0
 10
459.0162323246958
 20
351.4013213371345
 30
0.0
 10
458.9040303476185
 20
351.0254745267644
 30
0.0
 10
458.8022866463491
 20
350.6491546185133
 30
0.0
 10
458.7108931871441
 20
350.2726613781326
 30
0.0
 10
458.6297288814341
 20
349.8962899267374
 30
0.0
 10
458.5586660015923
 20
349.5203266802833
 30
0.0
 10
458.4975710475053
 20
349.1450498427936
 30
0.0
 10
458.4462995875762
 20
348.7707299425455
 30
0.0
 10
458.4047188572368
 20
348.397629663035
 30
0.0
 10
458.3726167923496
 20
348.0259997984954
 30
0.0
 10
458.350056822095
 20
347.6560826420564
 30
0.0
 10
458.3360541235545
 20
347.2881224533475
 30
0.0
 10
458.3343305728155
 20
347.0434711103206
 30
0.0
 10
458.3334716461399
 20
346.9215497998584
 30
0.0
  0
LINE
  5
215
330
1F
100
AcDbEntity
  8
0
  6
Continuous
 62
     7
370
    25
100
AcDbLine
 10
462.1748231567
 20
358.4847768243
 30
0.0
 11
459.7388538199
 21
353.2608237234
 31
0.0
  0
SPLINE
  5
216
330
1F
100
AcDbEntity
  8
0
  6
Continuous
 62
     7
370
    25
100
AcDbSpline
210
0.0
220
0.0
230
1.0
 70
     8
 71
     3
 72
     8
 73
     4
 74
     0
 42
0.00000001
 43
0.00000001
 40
0.0
 40
0.0
 40
0.0
 40
0.0
 40
1.0
 40
1.0
 40
1.0
 40
1.0
 10
458.333471646131
 20
346.9215497998592
 30
0.0
 10
458.3334709664526
 20
345.3545225007645
 30
0.0
 10
458.3334706266131
 20
343.7874961968427
 30
0.0
 10
458.3334706266132
 20
342.2204717856847
 30
0.0
  0
SPLINE
  5
217
330
1F
100
AcDbEntity
  8
0
  6
Continuous
 62
     7
370
    25
100
AcDbSpline
210
0.0
220
0.0
230
1.0
 70
    24
 71
     3
 72
    24
 73
    20
 74
     0
 42
0.00000001
 43
0.00000001
 40
0.0
 40
0.0
 40
0.0
 40
0.0
 40
0.1250000000000003
 40
0.1250000000000003
 40
0.2500000000000007
 40
0.2500000000000007
 40
0.375000000000001
 40
0.375000000000001
 40
0.5000000000000013
 40
0.5000000000000013
 40
0.5625000000000013
 40
0.5625000000000013
 40
0.6250000000000014
 40
0.6250000000000014
 40
0.7500000000000011
 40
0.7500000000000011
 40
0.8750000000000006
 40
0.8750000000000006
 40
1.0
 40
1.0
 40
1.0
 40
1.0
 10
458.3334706266193
 20
342.2204720042347
 30
0.0
 10
458.3334706266195
 20
341.3343839626681
 30
0.0
 10
458.3334706266197
 20
340.4503494337878
 30
0.0
 10
458.3334706266202
 20
338.6899325596953
 30
0.0
 10
458.3334706266203
 20
337.8128765190804
 30
0.0
 10
458.3334706266207
 20
336.0821712081799
 30
0.0
 10
458.3334706266209
 20
335.2285687626169
 30
0.0
 10
458.3334706266212
 20
333.5852563544796
 30
0.0
 10
458.3334706266214
 20
332.7959569520386
 30
0.0
 10
458.3334706266216
 20
331.7206251452492
 30
0.0
 10
458.3334706266217
 20
331.3804783361863
 30
0.0
 10
458.3334706266219
 20
330.7485961087747
 30
0.0
 10
458.3334706266226
 20
330.4571028085842
 30
0.0
 10
458.3334706266194
 20
329.6606803606886
 30
0.0
 10
458.3334706266122
 20
329.2358652596574
 30
0.0
 10
458.3334706266123
 20
328.5725441526979
 30
0.0
 10
458.3334706266123
 20
328.3306772694441
 30
0.0
 10
458.3334706266124
 20
327.984804499959
 30
0.0
 10
458.3334706266124
 20
327.8798336948075
 30
0.0
 10
458.3334706266125
 20
327.8208058244847
 30
0.0
  0
SPLINE
  5
218
330
1F
100
AcDbEntity
  8
0
  6
Continuous
 62
     7
370
    25
100
AcDbSpline
210
0.0
220
0.0
230
1.0
 70
    24
 71
     3
 72
    24
 73
    20
 74
     0
 42
0.00000001
 43
0.00000001
 40
0.0
 40
0.0
 40
0.0
 40
0.0
 40
0.1250000000000002
 40
0.1250000000000002
 40
0.2500000000000004
 40
0.2500000000000004
 40
0.3750000000000006
 40
0.3750000000000006
 40
0.4375000000000008
 40
0.4375000000000008
 40
0.500000000000001
 40
0.500000000000001
 40
0.6250000000000008
 40
0.6250000000000008
 40
0.7500000000000004
 40
0.7500000000000004
 40
0.8750000000000002
 40
0.8750000000000002
 40
1.0
 40
1.0
 40
1.0
 40
1.0
 10
468.8894976803127
 20
372.8844428092571
 30
0.0
 10
468.8603766586398
 20
372.8219925767378
 30
0.0
 10
468.8072421773305
 20
372.7080453138492
 30
0.0
 10
468.6295334493921
 20
372.3269477169531
 30
0.0
 10
468.5045137046874
 20
372.058842009242
 30
0.0
 10
468.1638221643936
 20
371.3282266433081
 30
0.0
 10
467.9462355348076
 20
370.8616106103509
 30
0.0
 10
467.5494722628681
 20
370.0107490278713
 30
0.0
 10
467.4056666102846
 20
369.7023568106939
 30
0.0
 10
467.0988931658537
 20
369.0444790360878
 30
0.0
 10
466.9361122750105
 20
368.6953942891586
 30
0.0
 10
466.4280408921512
 20
367.6058316925172
 30
0.0
 10
466.063421490667
 20
366.8239028626647
 30
0.0
 10
465.3134195634082
 20
365.215518539251
 30
0.0
 10
464.9277999398087
 20
364.3885545877706
 30
0.0
 10
464.1489022827332
 20
362.7182031718099
 30
0.0
 10
463.7556384292039
 20
361.8748461163185
 30
0.0
 10
462.9669049509606
 20
360.183401713787
 30
0.0
 10
462.5712284297771
 20
359.334870675831
 30
0.0
 10
462.1748231566558
 20
358.4847768242835
 30
0.0
  0
SPLINE
  5
219
330
1F
100
AcDbEntity
  8
0
  6
Continuous
 62
     7
370
    25
100
AcDbSpline
210
0.0
220
0.0
230
1.0
 70
     8
 71
     3
 72
    30
 73
    26
 74
     0
 42
0.00000001
 43
0.00000001
 40
0.0
 40
0.0
 40
0.0
 40
0.0
 40
0.0174504753524268
 40
0.0383861495185419
 40
0.0627459372044986
 40
0.1019094706280335
 40
0.1259680558819017
 40
0.193901964234759
 40
0.2536162570446073
 40
0.3185674511693107
 40
0.38219399681023
 40
0.4465299532704703
 40
0.4756578390344613
 40
0.5106831057769488
 40
0.536245751899263
 40
0.5744863585939283
 40
0.6378472264891916
 40
0.700543594741571
 40
0.7624177016038889
 40
0.8234055793679423
 40
0.8833742045465736
 40
0.9068522269039389
 40
0.9422580339033148
 40
0.9756117743054015
 40
1.0
 40
1.0
 40
1.0
 40
1.0
 10
476.0441439489117
 20
330.5435635106335
 30
0.0
 10
476.1477425327536
 20
330.5431963122684
 30
0.0
 10
476.3756303495006
 20
330.5423885788938
 30
0.0
 10
476.7480707625407
 20
330.535946494464
 30
0.0
 10
477.2491722297358
 20
330.5201016216457
 30
0.0
 10
477.7684076358738
 20
330.4914697970472
 30
0.0
 10
478.5441758898771
 20
330.4248265185519
 30
0.0
 10
479.4388755643089
 20
330.3131579053029
 30
0.0
 10
480.557808132148
 20
330.0796207331179
 30
0.0
 10
481.621882417076
 20
329.7471423064781
 30
0.0
 10
482.6515656562457
 20
329.2613452802227
 30
0.0
 10
483.4103196300927
 20
328.7308306525124
 30
0.0
 10
483.9605895004736
 20
328.2161317666391
 30
0.0
 10
484.3068469879638
 20
327.8182095571643
 30
0.0
 10
484.6474783692196
 20
327.3467911887996
 30
0.0
 10
485.0299209905132
 20
326.7001130684897
 30
0.0
 10
485.4107317462069
 20
325.8007856144657
 30
0.0
 10
485.7131891860566
 20
324.7251089141559
 30
0.0
 10
485.9133567930226
 20
323.6406961689381
 30
0.0
 10
486.0407641299523
 20
322.5622542729407
 30
0.0
 10
486.1006293839022
 20
321.706697664385
 30
0.0
 10
486.1340352831244
 20
321.0026377511895
 30
0.0
 10
486.1515344212049
 20
320.4560081702559
 30
0.0
 10
486.1617501041237
 20
319.9035708489616
 30
0.0
 10
486.1644696276909
 20
319.5607733793797
 30
0.0
 10
486.165618261155
 20
319.4159874875778
 30
0.0
  0
LINE
  5
21A
330
1F
100
AcDbEntity
  8
0
  6
Continuous
 62
     7
370
    25
100
AcDbLine
 10
468.8894976692
 20
372.8844427854
 30
0.0
 11
469.0622851302
 21
373.2549866914
 31
0.0
  0
SPLINE
  5
21B
330
1F
100
AcDbEntity
  8
0
  6
Continuous
 62
     7
370
    25
100
AcDbSpline
210
0.0
220
0.0
230
1.0
 70
    24
 71
     3
 72
     8
 73
     4
 74
     0
 42
0.00000001
 43
0.00000001
 40
0.0
 40
0.0
 40
0.0
 40
0.0
 40
1.0
 40
1.0
 40
1.0
 40
1.0
 10
458.3334706266177
 20
327.820805824484
 30
0.0
 10
458.3334706266173
 20
327.571082115516
 30
0.0
 10
458.3334706266169
 20
327.4469697395286
 30
0.0
 10
458.3334706266165
 20
327.4469697395289
 30
0.0
  0
LINE
  5
21C
330
1F
100
AcDbEntity
  8
0
  6
Continuous
 62
     7
370
    25
100
AcDbLine
 10
491.5994013879
 20
268.2469697395
 30
0.0
 11
489.8151924798
 21
268.2469697395
 31
0.0
  0
SPLINE
  5
21D
330
1F
100
AcDbEntity
  8
0
  6
Continuous
 62
     7
370
    25
100
AcDbSpline
210
0.0
220
0.0
230
1.0
 70
     8
 71
     3
 72
    16
 73
    12
 74
     0
 42
0.00000001
 43
0.00000001
 40
0.0
 40
0.0
 40
0.0
 40
0.0
 40
0.1250000000000006
 40
0.1250000000000006
 40
0.250000000000001
 40
0.250000000000001
 40
0.5000000000000007
 40
0.5000000000000007
 40
0.7500000000000003
 40
0.7500000000000003
 40
1.0
 40
1.0
 40
1.0
 40
1.0
 10
489.8151924797871
 20
268.2469697395215
 30
0.0
 10
489.6277897493497
 20
268.2469697395215
 30
0.0
 10
489.4395238075754
 20
268.2474026809996
 30
0.0
 10
489.0607906748369
 20
268.262716288169
 30
0.0
 10
488.8695852022871
 20
268.2780668525394
 30
0.0
 10
488.3014755109321
 20
268.3601031056127
 30
0.0
 10
487.9300533008577
 20
268.4646688662167
 30
0.0
 10
487.2923963292509
 20
268.8024370427571
 30
0.0
 10
487.0280167271836
 20
269.036557517108
 30
0.0
 10
486.6333266607904
 20
269.6259334639487
 30
0.0
 10
486.5004396194509
 20
269.9812260345657
 30
0.0
 10
486.4224386420166
 20
270.3541661396908
 30
0.0
  0
LINE
  5
21E
330
1F
100
AcDbEntity
  8
0
  6
Continuous
 62
     7
370
    25
100
AcDbLine
 10
456.0722771182
 20
370.6386304331
 30
0.0
 11
456.0722771182
 21
329.855309046
 31
0.0
  0
SPLINE
  5
21F
330
1F
100
AcDbEntity
  8
0
  6
Continuous
 62
     7
370
    25
100
AcDbSpline
210
0.0
220
0.0
230
1.0
 70
     8
 71
     3
 72
    10
 73
     6
 74
     0
 42
0.00000001
 43
0.00000001
 40
0.0
 40
0.0
 40
0.0
 40
0.0
 40
0.4343572796749138
 40
0.8860214894967755
 40
1.0
 40
1.0
 40
1.0
 40
1.0
 10
425.9911623242476
 20
381.7395834839351
 30
0.0
 10
424.4259932150089
 20
380.9198144307235
 30
0.0
 10
421.233290961878
 20
379.2476126936801
 30
0.0
 10
417.7113129144002
 20
377.2087625614023
 30
0.0
 10
415.7578850882632
 20
375.9931657297508
 30
0.0
 10
415.3642641929554
 20
375.7482197395249
 30
0.0
  0
SPLINE
  5
220
330
1F
100
AcDbEntity
  8
0
  6
Continuous
 62
     7
370
    25
100
AcDbSpline
210
0.0
220
0.0
230
1.0
 70
     8
 71
     3
 72
    11
 73
     7
 74
     0
 42
0.00000001
 43
0.00000001
 40
0.0
 40
0.0
 40
0.0
 40
0.0
 40
0.4999999999999983
 40
0.4999999999999983
 40
0.7499999999999991
 40
1.0
 40
1.0
 40
1.0
 40
1.0
 10
403.8234685992568
 20
328.7482062588897
 30
0.0
 10
403.822559461761
 20
329.2864954674339
 30
0.0
 10
403.8235363332373
 20
329.8072849671519
 30
0.0
 10
403.8234377745379
 20
330.5894603973567
 30
0.0
 10
403.823485385208
 20
331.1108055814519
 30
0.0
 10
403.823473961413
 20
331.6455693264887
 30
0.0
 10
403.8234706266147
 20
331.9145128828849
 30
0.0
  0
LINE
  5
221
330
1F
100
AcDbEntity
  8
0
  6
Continuous
 62
     7
370
    25
100
AcDbLine
 10
403.8234706266
 20
343.7802247677
 30
0.0
 11
403.8234706266
 21
331.9145128829
 31
0.0
  0
SPLINE
  5
222
330
1F
100
AcDbEntity
  8
0
  6
Continuous
 62
     7
370
    25
100
AcDbSpline
210
0.0
220
0.0
230
1.0
 70
     8
 71
     3
 72
    44
 73
    40
 74
     0
 42
0.00000001
 43
0.00000001
 40
0.0
 40
0.0
 40
0.0
 40
0.0
 40
0.0212703196035385
 40
0.0422157810267933
 40
0.0628336357706567
 40
0.0831215632205727
 40
0.1030774034357216
 40
0.1226994783650941
 40
0.1419865908020675
 40
0.1609378783245642
 40
0.179552744240781
 40
0.1978309237279274
 40
0.215772690986651
 40
0.2333785205546584
 40
0.3505825526155061
 40
0.462728558259963
 40
0.6052788382226939
 40
0.7490143776094805
 40
0.8269176156497509
 40
0.9073875186499347
 40
0.9336121635573238
 40
0.9598576284852031
 40
0.9626011725512669
 40
0.9655754930804633
 40
0.9710792581484369
 40
0.9813519516459362
 40
0.9910034555201649
 40
0.9955920449112008
 40
0.997807381660453
 40
0.9989011943563297
 40
0.9994462555017364
 40
0.999718589937432
 40
0.9998547453220005
 40
0.9999228249606184
 40
0.9999568658951626
 40
0.9999738867208472
 40
0.9999823972333046
 40
0.9999871026504699
 40
1.0
 40
1.0
 40
1.0
 40
1.0
 10
412.387804232607
 20
328.0265308681996
 30
0.0
 10
412.510479168586
 20
328.0317679915252
 30
0.0
 10
412.7539554459196
 20
328.0421622524314
 30
0.0
 10
413.1188786637624
 20
328.0539142350804
 30
0.0
 10
413.4795931850432
 20
328.0627625550991
 30
0.0
 10
413.8359495250288
 20
328.0685469702069
 30
0.0
 10
414.187573532631
 20
328.0714858431375
 30
0.0
 10
414.5341893696362
 20
328.0716983264875
 30
0.0
 10
414.8755332619853
 20
328.0693365110679
 30
0.0
 10
415.2113727568282
 20
328.064591830115
 30
0.0
 10
415.5415048886642
 20
328.0576454188999
 30
0.0
 10
415.8657516192754
 20
328.0486702373915
 30
0.0
 10
416.1839744241209
 20
328.0378668182706
 30
0.0
 10
417.0864141953669
 20
328.0019244963628
 30
0.0
 10
418.5414596617541
 20
327.912424784577
 30
0.0
 10
420.6806492270915
 20
327.7283772828661
 30
0.0
 10
422.8827783088173
 20
327.5177536355151
 30
0.0
 10
424.7635816711862
 20
327.3643686455
 30
0.0
 10
426.2103622009022
 20
327.2837719429551
 30
0.0
 10
427.0398428296986
 20
327.2557266645694
 30
0.0
 10
427.6039294359027
 20
327.244707498333
 30
0.0
 10
427.8313522922861
 20
327.241919215353
 30
0.0
 10
427.9593589469483
 20
327.2407676015656
 30
0.0
 10
428.0023378673457
 20
327.2402809915968
 30
0.0
 10
428.0776060680491
 20
327.2398598336713
 30
0.0
 10
428.1917550920291
 20
327.2402482312394
 30
0.0
 10
428.3062242582021
 20
327.2441661118961
 30
0.0
 10
428.3718570397473
 20
327.2469629463046
 30
0.0
 10
428.3974234657815
 20
327.2478796559703
 30
0.0
 10
428.4079260258023
 20
327.2481291256121
 30
0.0
 10
428.4126007475822
 20
327.2481963943165
 30
0.0
 10
428.4147661433362
 20
327.2482138322628
 30
0.0
 10
428.4158425931206
 20
327.2482182766063
 30
0.0
 10
428.4163271771479
 20
327.2482193869876
 30
0.0
 10
428.4166295359254
 20
327.2482196671981
 30
0.0
 10
428.4166920166572
 20
327.2482197272295
 30
0.0
 10
428.4168498223574
 20
327.2482197526231
 30
0.0
 10
428.4166674172782
 20
327.2482197335909
 30
0.0
 10
428.4167769751807
 20
327.2482197432545
 30
0.0
 10
428.4168572470257
 20
327.248219750335
 30
0.0
  0
LINE
  5
223
330
1F
100
AcDbEntity
  8
0
  6
Continuous
 62
     7
370
    25
100
AcDbLine
 10
437.823469618
 20
327.2482197395
 30
0.0
 11
434.7046385166
 21
327.2482197395
 31
0.0
  0
LINE
  5
224
330
1F
100
AcDbEntity
  8
0
  6
Continuous
 62
     7
370
    25
100
AcDbLine
 10
431.133871797
 20
327.2482197395
 30
0.0
 11
428.416857248
 21
327.2482197395
 31
0.0
  0
LINE
  5
225
330
1F
100
AcDbEntity
  8
0
  6
Continuous
 62
     7
370
    25
100
AcDbLine
 10
454.7728101104
 20
327.2365655878
 30
0.0
 11
437.8234699865
 21
327.2400947397
 31
0.0
  0
SPLINE
  5
226
330
1F
100
AcDbEntity
  8
0
  6
Continuous
 62
     7
370
    25
100
AcDbSpline
210
0.0
220
0.0
230
1.0
 70
     8
 71
     3
 72
    14
 73
    10
 74
     0
 42
0.00000001
 43
0.00000001
 40
0.0
 40
0.0
 40
0.0
 40
0.0
 40
0.25
 40
0.25
 40
0.5
 40
0.5
 40
0.75
 40
0.75
 40
1.0
 40
1.0
 40
1.0
 40
1.0
 10
455.8334706266118
 20
328.2988799112149
 30
0.0
 10
455.8334706266118
 20
328.1600398194021
 30
0.0
 10
455.8058644813752
 20
328.0212543552367
 30
0.0
 10
455.6996008756001
 20
327.7647113170033
 30
0.0
 10
455.6209852252529
 20
327.647054681666
 30
0.0
 10
455.4246356844018
 20
327.4507051408315
 30
0.0
 10
455.3069790490578
 20
327.3720894904943
 30
0.0
 10
455.0504360108153
 20
327.2658258847409
 30
0.0
 10
454.9116505466475
 20
327.2382197395162
 30
0.0
 10
454.7728104548348
 20
327.2382197395279
 30
0.0
  0
SPLINE
  5
227
330
1F
100
AcDbEntity
  8
0
  6
Continuous
 62
     7
370
    25
100
AcDbSpline
210
0.0
220
0.0
230
1.0
 70
    24
 71
     3
 72
    14
 73
    10
 74
     0
 42
0.00000001
 43
0.00000001
 40
0.0
 40
0.0
 40
0.0
 40
0.0
 40
0.1841260478757823
 40
0.3439529088860479
 40
0.4907207257110628
 40
0.6126245588222998
 40
0.7232122487918663
 40
0.8253785462959915
 40
1.0
 40
1.0
 40
1.0
 40
1.0
 10
455.8334706266148
 20
330.231658174025
 30
0.0
 10
455.8334706266148
 20
329.9993101241371
 30
0.0
 10
455.8334706266148
 20
329.5652770877747
 30
0.0
 10
455.8334706266148
 20
329.1309352709478
 30
0.0
 10
455.8334706266148
 20
328.8363366859866
 30
0.0
 10
455.8334706266148
 20
328.6412366939424
 30
0.0
 10
455.8334706266148
 20
328.5118726777363
 30
0.0
 10
455.8334706266148
 20
328.4015197281166
 30
0.0
 10
455.8334706266148
 20
328.3687547584777
 30
0.0
 10
455.8334706266148
 20
328.3480838053595
 30
0.0
  0
LINE
  5
228
330
1F
100
AcDbEntity
  8
0
  6
Continuous
 62
     7
370
    25
100
AcDbLine
 10
485.9553722298
 20
283.1617431071
 30
0.0
 11
485.7655436573
 21
319.4159985701
 31
0.0
  0
SPLINE
  5
229
330
1F
100
AcDbEntity
  8
0
  6
Continuous
 62
     7
370
    25
100
AcDbSpline
210
0.0
220
0.0
230
1.0
 70
     8
 71
     3
 72
     8
 73
     4
 74
     0
 42
0.00000001
 43
0.00000001
 40
0.0
 40
0.0
 40
0.0
 40
0.0
 40
1.0
 40
1.0
 40
1.0
 40
1.0
 10
486.422438642015
 20
270.3541661396908
 30
0.0
 10
486.0320771676145
 20
272.220571589024
 30
0.0
 10
486.0002354058241
 20
274.593585938094
 30
0.0
 10
485.9553722298222
 20
283.1617431071607
 30
0.0
  0
LINE
  5
22A
330
1F
100
AcDbEntity
  8
0
  6
Continuous
 62
     7
370
    25
100
AcDbLine
 10
485.7655436574
 20
319.4159985701
 30
0.0
 11
485.6320548694
 21
321.1163256954
 31
0.0
  0
SPLINE
  5
22B
330
1F
100
AcDbEntity
  8
0
  6
Continuous
 62
     7
370
    25
100
AcDbSpline
210
0.0
220
0.0
230
1.0
 70
     8
 71
     3
 72
    12
 73
     8
 74
     0
 42
0.00000001
 43
0.00000001
 40
0.0
 40
0.0
 40
0.0
 40
0.0
 40
0.082422179515078
 40
0.3531116079615047
 40
0.5746767961057376
 40
0.7563575371190413
 40
1.0
 40
1.0
 40
1.0
 40
1.0
 10
478.2898964066658
 20
326.8529449182169
 30
0.0
 10
478.2800879866489
 20
326.8540890392647
 30
0.0
 10
478.2380669313445
 20
326.8589906619261
 30
0.0
 10
477.9223690930211
 20
326.8932328071442
 30
0.0
 10
477.4062870020677
 20
326.9334424922191
 30
0.0
 10
476.7735650804742
 20
326.9680258723385
 30
0.0
 10
476.2735090571913
 20
326.9762196116884
 30
0.0
 10
475.9870565900427
 20
326.9809133194785
 30
0.0
  0
SPLINE
  5
22C
330
1F
100
AcDbEntity
  8
0
  6
Continuous
 62
     7
370
    25
100
AcDbSpline
210
0.0
220
0.0
230
1.0
 70
    24
 71
     3
 72
    22
 73
    18
 74
     0
 42
0.00000001
 43
0.00000001
 40
0.0
 40
0.0
 40
0.0
 40
0.0
 40
0.125
 40
0.125
 40
0.2499999999999999
 40
0.2499999999999999
 40
0.3749999999999999
 40
0.3749999999999999
 40
0.4999999999999999
 40
0.4999999999999999
 40
0.6249999999999999
 40
0.6249999999999999
 40
0.7499999999999998
 40
0.7499999999999998
 40
0.8749999999999999
 40
0.8749999999999999
 40
1.0
 40
1.0
 40
1.0
 40
1.0
 10
403.8234706266165
 20
317.2482197395249
 30
0.0
 10
403.8234697610798
 20
317.2482197395249
 30
0.0
 10
404.1488105484384
 20
317.2482197395249
 30
0.0
 10
405.4011379638389
 20
317.2482197395249
 30
0.0
 10
406.327631854189
 20
317.2482197395249
 30
0.0
 10
408.6416328560676
 20
317.2482197395249
 30
0.0
 10
410.0282295064035
 20
317.2482197395249
 30
0.0
 10
413.0516183015893
 20
317.2482197395249
 30
0.0
 10
414.6872208712549
 20
317.2482197395249
 30
0.0
 10
417.9597137697619
 20
317.2482197395249
 30
0.0
 10
419.5953165115257
 20
317.2482197395249
 30
0.0
 10
422.6187059691649
 20
317.2482197395249
 30
0.0
 10
424.0053031095951
 20
317.2482197395249
 30
0.0
 10
426.3193053355277
 20
317.2482197395249
 30
0.0
 10
427.2457999593558
 20
317.2482197395249
 30
0.0
 10
428.4981289740598
 20
317.2482197395249
 30
0.0
 10
428.8234706266147
 20
317.2482197395249
 30
0.0
 10
428.8234706266147
 20
317.2482197395249
 30
0.0
  0
SPLINE
  5
22D
330
1F
100
AcDbEntity
  8
0
  6
Continuous
 62
     7
370
    25
100
AcDbSpline
210
0.0
220
0.0
230
1.0
 70
     8
 71
     3
 72
    25
 73
    21
 74
     0
 42
0.00000001
 43
0.00000001
 40
0.0
 40
0.0
 40
0.0
 40
0.0
 40
0.0259675992060151
 40
0.0518111300691813
 40
0.0775928972534998
 40
0.1033756531873924
 40
0.1292221430974371
 40
0.155194650302555
 40
0.232239100123188
 40
0.3091451208970175
 40
0.3847844510753797
 40
0.4605047700752803
 40
0.5274247133466303
 40
0.5944411090332762
 40
0.6986310823648995
 40
0.8030021051259995
 40
0.8523718095631776
 40
0.9013668943761147
 40
0.9504295100427261
 40
1.0
 40
1.0
 40
1.0
 40
1.0
 10
471.2834706266227
 20
326.9469697395447
 30
0.0
 10
471.2842874199027
 20
326.9469874990025
 30
0.0
 10
471.2859171039768
 20
326.9470229330666
 30
0.0
 10
471.299155023062
 20
326.9473078511954
 30
0.0
 10
471.3203124513095
 20
326.9477578315953
 30
0.0
 10
471.3501512367448
 20
326.9483855908043
 30
0.0
 10
471.3884724828913
 20
326.9491829405728
 30
0.0
 10
471.4658687893895
 20
326.9507753584126
 30
0.0
 10
471.6112542716263
 20
326.9537119564724
 30
0.0
 10
471.8663273598031
 20
326.9584885057207
 30
0.0
 10
472.1813511740142
 20
326.9638630605419
 30
0.0
 10
472.5360083079129
 20
326.9691612314097
 30
0.0
 10
472.9171888550711
 20
326.9740162638333
 30
0.0
 10
473.3874902463793
 20
326.9788962648012
 30
0.0
 10
473.9752137255801
 20
326.9832063219819
 30
0.0
 10
474.554063941427
 20
326.9849617118941
 30
0.0
 10
475.0108795294695
 20
326.9849517235038
 30
0.0
 10
475.3415224985437
 20
326.9842638473004
 30
0.0
 10
475.6687151184443
 20
326.982958754063
 30
0.0
 10
475.8805791487062
 20
326.981597478214
 30
0.0
 10
475.9870566211326
 20
326.980913335599
 30
0.0
  0
LINE
  5
22E
330
1F
100
AcDbEntity
  8
0
  6
Continuous
 62
     7
370
    25
100
AcDbLine
 10
405.8459706266
 20
307.9482197395
 30
0.0
 11
426.8009706266
 21
307.9482197395
 31
0.0
  0
LINE
  5
22F
330
1F
100
AcDbEntity
  8
0
  6
Continuous
 62
     7
370
    25
100
AcDbLine
 10
426.1009706266
 20
307.2482197395
 30
0.0
 11
406.5459706266
 21
307.2482197395
 31
0.0
  0
LINE
  5
230
330
1F
100
AcDbEntity
  8
0
  6
Continuous
 62
     7
370
    25
100
AcDbLine
 10
437.8234715512
 20
385.7480716656
 30
0.0
 11
436.9406969054
 21
385.6299872926
 31
0.0
  0
SPLINE
  5
231
330
1F
100
AcDbEntity
  8
0
  6
Continuous
 62
     7
370
    25
100
AcDbSpline
210
0.0
220
0.0
230
1.0
 70
     8
 71
     3
 72
     9
 73
     5
 74
     0
 42
0.00000001
 43
0.00000001
 40
0.0
 40
0.0
 40
0.0
 40
0.0
 40
0.1790429558639918
 40
1.0
 40
1.0
 40
1.0
 40
1.0
 10
432.2410108280636
 20
384.4844069041129
 30
0.0
 10
432.1511355844553
 20
384.4573371165926
 30
0.0
 10
431.6491597140587
 20
384.3061455358369
 30
0.0
 10
431.1731758295704
 20
384.0836350643337
 30
0.0
 10
430.7824135067046
 20
383.9009635253591
 30
0.0
  0
SPLINE
  5
232
330
1F
100
AcDbEntity
  8
0
  6
Continuous
 62
     7
370
    25
100
AcDbSpline
210
0.0
220
0.0
230
1.0
 70
     8
 71
     3
 72
    11
 73
     7
 74
     0
 42
0.00000001
 43
0.00000001
 40
0.0
 40
0.0
 40
0.0
 40
0.0
 40
0.2279442508998462
 40
0.5651779413964778
 40
0.9112764936160584
 40
1.0
 40
1.0
 40
1.0
 40
1.0
 10
427.2823276291316
 20
382.3496721723341
 30
0.0
 10
426.347001637562
 20
381.896655603535
 30
0.0
 10
424.0279011717108
 20
380.7734205547823
 30
0.0
 10
420.4003083904536
 20
378.7458177330757
 30
0.0
 10
417.3517977410446
 20
376.9865058178503
 30
0.0
 10
415.6670093619177
 20
375.9421978530078
 30
0.0
 10
415.3232357893645
 20
375.7291114592699
 30
0.0
  0
LINE
  5
233
330
1F
100
AcDbEntity
  8
0
  6
Continuous
 62
     7
370
    25
100
AcDbLine
 10
470.9334706266
 20
326.5469697395
 30
0.0
 11
478.7334706266
 21
326.5469697395
 31
0.0
  0
LINE
  5
234
330
1F
100
AcDbEntity
  8
0
  6
Continuous
 62
     7
370
    25
100
AcDbLine
 10
404.8538474006
 20
327.3236302424
 30
0.0
 11
405.093614264
 21
327.1894962019
 31
0.0
  0
LINE
  5
235
330
1F
100
AcDbEntity
  8
0
  6
Continuous
 62
     7
370
    25
100
AcDbLine
 10
432.0038251988
 20
384.2425861851
 30
0.0
 11
432.7334640658
 21
384.5337992344
 31
0.0
  0
LINE
  5
236
330
1F
100
AcDbEntity
  8
0
  6
Continuous
 62
     7
370
    25
100
AcDbLine
 10
436.8608680509
 20
385.6257162533
 30
0.0
 11
437.8234706266
 21
385.7482197395
 31
0.0
  0
LINE
  5
237
330
1F
100
AcDbEntity
  8
0
  6
Continuous
 62
     8
370
    18
100
AcDbLine
 10
382.0269611079
 20
395.7446678
 30
0.0
 11
382.0269611079
 21
325.7517716791
 31
0.0
  0
LINE
  5
238
330
1F
100
AcDbEntity
  8
0
  6
Continuous
 62
     8
370
    18
100
AcDbLine
 10
394.0374325518
 20
395.5350242411
 30
0.0
 11
394.0374325518
 21
325.961415238
 31
0.0
  0
LINE
  5
239
330
1F
100
AcDbEntity
  8
0
  6
Continuous
 62
     8
370
    18
100
AcDbLine
 10
454.7728104548
 20
369.7482197395
 30
0.0
 11
454.7728104548
 21
351.7482197395
 31
0.0
  0
SPLINE
  5
23A
330
1F
100
AcDbEntity
  8
0
  6
Continuous
 62
     8
370
    18
100
AcDbSpline
210
0.0
220
0.0
230
1.0
 70
    24
 71
     3
 72
    15
 73
    11
 74
     0
 42
0.00000001
 43
0.00000001
 40
0.0
 40
0.0
 40
0.0
 40
0.0
 40
0.125
 40
0.2499999999999999
 40
0.3749999999999999
 40
0.4999999999999998
 40
0.6249999999999998
 40
0.7499999999999997
 40
0.8749999999999998
 40
1.0
 40
1.0
 40
1.0
 40
1.0
 10
454.7728104548348
 20
335.7482197395246
 30
0.0
 10
454.7728104548348
 20
335.7482197395231
 30
0.0
 10
454.7728104548348
 20
335.7550254949523
 30
0.0
 10
454.7728104548348
 20
336.2008225901436
 30
0.0
 10
454.7728104548348
 20
337.3014300907828
 30
0.0
 10
454.7728104548348
 20
339.1357052161824
 30
0.0
 10
454.7728104548348
 20
341.7333792361923
 30
0.0
 10
454.7728104548348
 20
344.932707960213
 30
0.0
 10
454.7728104548348
 20
348.3707784275639
 30
0.0
 10
454.7728104548348
 20
350.6268993959644
 30
0.0
 10
454.7728104548348
 20
351.748219739525
 30
0.0
  0
SPLINE
  5
23B
330
1F
100
AcDbEntity
  8
0
  6
Continuous
 62
     8
370
    18
100
AcDbSpline
210
0.0
220
0.0
230
1.0
 70
    24
 71
     3
 72
    15
 73
    11
 74
     0
 42
0.00000001
 43
0.00000001
 40
0.0
 40
0.0
 40
0.0
 40
0.0
 40
0.1250000000000002
 40
0.2500000000000003
 40
0.3750000000000002
 40
0.5000000000000002
 40
0.6250000000000002
 40
0.7500000000000001
 40
0.875
 40
1.0
 40
1.0
 40
1.0
 40
1.0
 10
454.7728104548348
 20
369.7482197395249
 30
0.0
 10
454.7728104548348
 20
370.8695400830849
 30
0.0
 10
454.7728104548348
 20
373.1256610514849
 30
0.0
 10
454.7728104548348
 20
376.5637315188349
 30
0.0
 10
454.7728104548348
 20
379.7630602428549
 30
0.0
 10
454.7728104548348
 20
382.3607342628649
 30
0.0
 10
454.7728104548348
 20
384.195009388265
 30
0.0
 10
454.7728104548348
 20
385.2956168889049
 30
0.0
 10
454.7728104548348
 20
385.7414139840949
 30
0.0
 10
454.7728104548348
 20
385.7482197395249
 30
0.0
 10
454.7728104548348
 20
385.7482197395249
 30
0.0
  0
LINE
  5
23C
330
1F
100
AcDbEntity
  8
0
  6
Continuous
 62
     8
370
    18
100
AcDbLine
 10
395.6095087015
 20
376.961415238
 30
0.0
 11
395.6095087015
 21
344.5350242411
 31
0.0
  0
LINE
  5
23D
330
1F
100
AcDbEntity
  8
0
  6
Continuous
 62
     8
370
    18
100
AcDbLine
 10
407.0374325518
 20
344.7344993939
 30
0.0
 11
407.0374325518
 21
376.7619400852
 31
0.0
  0
ARC
  5
23E
330
1F
100
AcDbEntity
  8
0
  6
Continuous
 62
     8
370
    18
100
AcDbCircle
 10
408.1142207585
 20
375.4383406286
 30
0.0
 40
0.2909179197003928
100
AcDbArc
 50
88.1779474284
 51
178.0539521093
  0
LINE
  5
23F
330
1F
100
AcDbEntity
  8
0
  6
Continuous
 62
     8
370
    18
100
AcDbLine
 10
408.1234706266
 20
375.7291114593
 30
0.0
 11
408.1234706266
 21
345.7673280198
 31
0.0
  0
ARC
  5
240
330
1F
100
AcDbEntity
  8
0
  6
Continuous
 62
     8
370
    18
100
AcDbCircle
 10
408.1142207585
 20
346.0580988504
 30
0.0
 40
0.2909179197031868
100
AcDbArc
 50
181.946047891
 51
271.822052571
  0
ARC
  5
241
330
1F
100
AcDbEntity
  8
0
  6
Continuous
 62
     8
370
    18
100
AcDbCircle
 10
424.5327204948
 20
346.0580988504
 30
0.0
 40
0.2909179197006511
100
AcDbArc
 50
268.1779474285
 51
358.0539521092
  0
LINE
  5
242
330
1F
100
AcDbEntity
  8
0
  6
Continuous
 62
     8
370
    18
100
AcDbLine
 10
424.5234706266
 20
345.7673280198
 30
0.0
 11
424.5234706266
 21
375.7291114593
 31
0.0
  0
ARC
  5
243
330
1F
100
AcDbEntity
  8
0
  6
Continuous
 62
     8
370
    18
100
AcDbCircle
 10
424.5327204948
 20
375.4383406286
 30
0.0
 40
0.2909179197031131
100
AcDbArc
 50
1.9460478909
 51
91.822052571
  0
LINE
  5
244
330
1F
100
AcDbEntity
  8
0
  6
Continuous
 62
     8
370
    18
100
AcDbLine
 10
424.5234706266
 20
375.7291114593
 30
0.0
 11
408.1234706266
 21
375.7291114593
 31
0.0
  0
LINE
  5
245
330
1F
100
AcDbEntity
  8
0
  6
Continuous
 62
     8
370
    18
100
AcDbLine
 10
408.1234706266
 20
345.7673280198
 30
0.0
 11
424.5234706266
 21
345.7673280198
 31
0.0
  0
LINE
  5
246
330
1F
100
AcDbEntity
  8
0
  6
Continuous
 62
     8
370
    18
100
AcDbLine
 10
408.1234706266
 20
375.7482197395
 30
0.0
 11
408.1234706266
 21
375.7291114593
 31
0.0
  0
LINE
  5
247
330
1F
100
AcDbEntity
  8
0
  6
Continuous
 62
     8
370
    18
100
AcDbLine
 10
424.5234706266
 20
345.7482197395
 30
0.0
 11
424.5234706266
 21
345.7673280198
 31
0.0
  0
LINE
  5
248
330
1F
100
AcDbEntity
  8
0
  6
Continuous
 62
     8
370
    18
100
AcDbLine
 10
408.1234706266
 20
345.7673280198
 30
0.0
 11
408.1234706266
 21
345.7482197395
 31
0.0
  0
LINE
  5
249
330
1F
100
AcDbEntity
  8
0
  6
Continuous
 62
     8
370
    18
100
AcDbLine
 10
424.5234706266
 20
375.7291114593
 30
0.0
 11
424.5234706266
 21
375.7482197395
 31
0.0
  0
SPLINE
  5
24A
330
1F
100
AcDbEntity
  8
0
  6
Continuous
 62
     8
370
    18
100
AcDbSpline
210
0.0
220
0.0
230
1.0
 70
     8
 71
     3
 72
    16
 73
    12
 74
     0
 42
0.00000001
 43
0.00000001
 40
0.0
 40
0.0
 40
0.0
 40
0.0
 40
0.0791244763425076
 40
0.1680497768379463
 40
0.2673584427222752
 40
0.3978344663953305
 40
0.5255445574535178
 40
0.6500915256550577
 40
0.7710428873921108
 40
0.8978918902951245
 40
1.0
 40
1.0
 40
1.0
 40
1.0
 10
403.8541926830166
 20
328.7707382760073
 30
0.0
 10
403.8530726932393
 20
328.77231856758
 30
0.0
 10
403.8506939851475
 20
328.7756748949568
 30
0.0
 10
403.8472083210812
 20
328.7756012642652
 30
0.0
 10
403.8433926048559
 20
328.772205613074
 30
0.0
 10
403.8395260225843
 20
328.765108624944
 30
0.0
 10
403.835636199023
 20
328.7589415501576
 30
0.0
 10
403.8318418408617
 20
328.759168316508
 30
0.0
 10
403.8283521217365
 20
328.7609362167426
 30
0.0
 10
403.825448271525
 20
328.7597533018319
 30
0.0
 10
403.8240592632029
 20
328.751268196826
 30
0.0
 10
403.8234398065171
 20
328.747484090611
 30
0.0
  0
SPLINE
  5
24B
330
1F
100
AcDbEntity
  8
0
  6
Continuous
 62
     8
370
    18
100
AcDbSpline
210
0.0
220
0.0
230
1.0
 70
     8
 71
     3
 72
    22
 73
    18
 74
     0
 42
0.00000001
 43
0.00000001
 40
0.0
 40
0.0
 40
0.0
 40
0.0
 40
0.0328703782774702
 40
0.0943546597333048
 40
0.1430215001498603
 40
0.1979149772024633
 40
0.3395663513667167
 40
0.4831191803926104
 40
0.6371587020960016
 40
0.7766533277606849
 40
0.8427614608181725
 40
0.9007482882403488
 40
0.9253288409438791
 40
0.9475308204672754
 40
0.967381003421702
 40
0.9848739219879606
 40
1.0
 40
1.0
 40
1.0
 40
1.0
 10
411.3255016741495
 20
334.9656753356734
 30
0.0
 10
411.2146748102259
 20
334.8737647692677
 30
0.0
 10
410.8965454918911
 20
334.6099348204332
 30
0.0
 10
410.4125905287262
 20
334.2104102063731
 30
0.0
 10
409.8567919655442
 20
333.7474570215602
 30
0.0
 10
409.0308194658959
 20
333.062738373089
 30
0.0
 10
407.9313032300066
 20
332.1527772831205
 30
0.0
 10
406.6275420665472
 20
331.0712882356559
 30
0.0
 10
405.4833596526562
 20
330.124759093432
 30
0.0
 10
404.7258779166031
 20
329.496231488415
 30
0.0
 10
404.3022323168435
 20
329.1447708053998
 30
0.0
 10
404.1137606262745
 20
328.987832426638
 30
0.0
 10
404.008661308589
 20
328.8997432050509
 30
0.0
 10
403.950320705887
 20
328.8511934598433
 30
0.0
 10
403.9084084103181
 20
328.8165149434716
 30
0.0
 10
403.8767014132349
 20
328.7901478906272
 30
0.0
 10
403.8613236554186
 20
328.7768874201325
 30
0.0
 10
403.8541926830166
 20
328.7707382760073
 30
0.0
  0
SPLINE
  5
24C
330
1F
100
AcDbEntity
  8
0
  6
Continuous
 62
     8
370
    18
100
AcDbSpline
210
0.0
220
0.0
230
1.0
 70
     8
 71
     3
 72
    13
 73
     9
 74
     0
 42
0.00000001
 43
0.00000001
 40
0.0
 40
0.0
 40
0.0
 40
0.0
 40
0.1139334757296229
 40
0.246327887156971
 40
0.3976817043702263
 40
0.5686258329660127
 40
0.8540866838505209
 40
1.0
 40
1.0
 40
1.0
 40
1.0
 10
415.2139459993775
 20
338.1870992936682
 30
0.0
 10
415.0698248332421
 20
338.0675652000979
 30
0.0
 10
414.7582301757334
 20
337.8091285946683
 30
0.0
 10
414.2509470363664
 20
337.3890675039029
 30
0.0
 10
413.6670098010041
 20
336.9053992497263
 30
0.0
 10
412.8796582264959
 20
336.2531095891477
 30
0.0
 10
412.0920095914553
 20
335.5978890738572
 30
0.0
 10
411.5192417349112
 20
335.1254716342956
 30
0.0
 10
411.3255016741495
 20
334.9656753356734
 30
0.0
  0
SPLINE
  5
24D
330
1F
100
AcDbEntity
  8
0
  6
Continuous
 62
     8
370
    18
100
AcDbSpline
210
0.0
220
0.0
230
1.0
 70
     8
 71
     3
 72
    14
 73
    10
 74
     0
 42
0.00000001
 43
0.00000001
 40
0.0
 40
0.0
 40
0.0
 40
0.0
 40
0.1466974753648232
 40
0.2620508349450272
 40
0.3592962125012062
 40
0.4713370033451875
 40
0.6617483842112062
 40
0.8541487873209521
 40
1.0
 40
1.0
 40
1.0
 40
1.0
 10
425.8469082755864
 20
346.9976605800288
 30
0.0
 10
425.844089545042
 20
346.9956329489048
 30
0.0
 10
425.8390543480093
 20
346.9920109204568
 30
0.0
 10
425.8175970343466
 20
346.9741869794801
 30
0.0
 10
425.7816256288351
 20
346.9428482545236
 30
0.0
 10
425.7076889836581
 20
346.8819571090951
 30
0.0
 10
425.5419145602002
 20
346.7431553045661
 30
0.0
 10
425.2649993844581
 20
346.5144179216517
 30
0.0
 10
424.9564950606343
 20
346.2592532232659
 30
0.0
 10
424.8234706266149
 20
346.1492283809436
 30
0.0
  0
SPLINE
  5
24E
330
1F
100
AcDbEntity
  8
0
  6
Continuous
 62
     8
370
    18
100
AcDbSpline
210
0.0
220
0.0
230
1.0
 70
     8
 71
     3
 72
    14
 73
    10
 74
     0
 42
0.00000001
 43
0.00000001
 40
0.0
 40
0.0
 40
0.0
 40
0.0
 40
0.0861063628156623
 40
0.2293490075834172
 40
0.3736980638834211
 40
0.5016715490117135
 40
0.641396874922859
 40
0.818495493165091
 40
1.0
 40
1.0
 40
1.0
 40
1.0
 10
424.3393775963875
 20
345.748219739525
 30
0.0
 10
424.1935027742552
 20
345.627259917894
 30
0.0
 10
423.8049572058045
 20
345.3050768161888
 30
0.0
 10
422.9293790239167
 20
344.5793500018237
 30
0.0
 10
421.7931208152989
 20
343.637982069651
 30
0.0
 10
420.51452778841
 20
342.5792321155029
 30
0.0
 10
419.0165045519566
 20
341.3385266187706
 30
0.0
 10
417.2359218352246
 20
339.8630374811044
 30
0.0
 10
415.8934359847686
 20
338.750302470634
 30
0.0
 10
415.2139459993775
 20
338.1870992936682
 30
0.0
  0
SPLINE
  5
24F
330
1F
100
AcDbEntity
  8
0
  6
Continuous
 62
     8
370
    18
100
AcDbSpline
210
0.0
220
0.0
230
1.0
 70
     8
 71
     3
 72
    44
 73
    40
 74
     0
 42
0.00000001
 43
0.00000001
 40
0.0
 40
0.0
 40
0.0
 40
0.0
 40
0.0094783997703855
 40
0.019505007744088
 40
0.0300645911997433
 40
0.0478982853617609
 40
0.0685803921891183
 40
0.10260502664476
 40
0.1505382686594643
 40
0.1716484230547705
 40
0.1969685355435633
 40
0.2231395271654577
 40
0.2452609319562557
 40
0.2663693795821618
 40
0.2871873970493606
 40
0.3098033272678786
 40
0.3331442880731322
 40
0.3627792757265011
 40
0.3902701825491526
 40
0.4177786741457477
 40
0.4453942567623866
 40
0.4842678150448088
 40
0.5223688863391683
 40
0.564343428642509
 40
0.5999239675811167
 40
0.6162838643795532
 40
0.6389764349079432
 40
0.680782524200112
 40
0.7116830754270639
 40
0.7346058268989126
 40
0.7812274567818631
 40
0.8246247392353597
 40
0.8686126755255097
 40
0.9010432607536956
 40
0.9381454802497605
 40
0.9519959515634061
 40
0.9743727714109003
 40
0.9915229104846428
 40
1.0
 40
1.0
 40
1.0
 40
1.0
 10
418.9977113765113
 20
331.8833050035024
 30
0.0
 10
419.0956000672966
 20
331.9157153837394
 30
0.0
 10
419.2970390989979
 20
331.9824106838772
 30
0.0
 10
419.6035278851936
 20
332.0859920294746
 30
0.0
 10
419.9916038276751
 20
332.218072621635
 30
0.0
 10
420.4809704590261
 20
332.3863780221591
 30
0.0
 10
421.194712802907
 20
332.6312990569703
 30
0.0
 10
422.1898907706096
 20
332.9658055544282
 30
0.0
 10
423.162848171918
 20
333.2890888429869
 30
0.0
 10
424.0160677166436
 20
333.5847349639235
 30
0.0
 10
424.6595963551754
 20
333.8062551299886
 30
0.0
 10
425.2996911832572
 20
334.0219079680716
 30
0.0
 10
425.8904721879983
 20
334.2178305275864
 30
0.0
 10
426.4198182343046
 20
334.3952060300831
 30
0.0
 10
426.9339041341607
 20
334.5710845668856
 30
0.0
 10
427.4465488928363
 20
334.7477517881276
 30
0.0
 10
428.007114693408
 20
334.938507717505
 30
0.0
 10
428.5766707588164
 20
335.1299445102663
 30
0.0
 10
429.1363430022986
 20
335.3188704742772
 30
0.0
 10
429.640903179811
 20
335.490623627545
 30
0.0
 10
430.1679532795509
 20
335.6688736384125
 30
0.0
 10
430.6871873966044
 20
335.8434519272809
 30
0.0
 10
431.172437909985
 20
336.0114129604999
 30
0.0
 10
431.5575867281382
 20
336.1410151988218
 30
0.0
 10
431.8129408152256
 20
336.2235978690396
 30
0.0
 10
431.9777695600766
 20
336.2829622410233
 30
0.0
 10
432.1413113039375
 20
336.3404004983139
 30
0.0
 10
432.317278772516
 20
336.3959596886083
 30
0.0
 10
432.4705824738511
 20
336.4478464626864
 30
0.0
 10
432.6158656714265
 20
336.4992186464629
 30
0.0
 10
432.7662403781292
 20
336.5493699722153
 30
0.0
 10
432.9097550174644
 20
336.5982326900871
 30
0.0
 10
433.0116809042869
 20
336.6328697207234
 30
0.0
 10
433.0825222960208
 20
336.6574266817433
 30
0.0
 10
433.1222750164937
 20
336.6696309231589
 30
0.0
 10
433.1463453820435
 20
336.6783472076616
 30
0.0
 10
433.1594778167097
 20
336.6838753605819
 30
0.0
 10
433.1695096864804
 20
336.6865076754685
 30
0.0
 10
433.1707673343304
 20
336.6866599050538
 30
0.0
 10
433.1711833447221
 20
336.6867102602382
 30
0.0
  0
SPLINE
  5
250
330
1F
100
AcDbEntity
  8
0
  6
Continuous
 62
     8
370
    18
100
AcDbSpline
210
0.0
220
0.0
230
1.0
 70
     8
 71
     3
 72
    10
 73
     6
 74
     0
 42
0.00000001
 43
0.00000001
 40
0.0
 40
0.0
 40
0.0
 40
0.0
 40
0.3995195506050984
 40
0.732873603585983
 40
1.0
 40
1.0
 40
1.0
 40
1.0
 10
416.0407763726705
 20
330.8802797133603
 30
0.0
 10
416.4374317617384
 20
331.0147379418643
 30
0.0
 10
417.165051383676
 20
331.261386413275
 30
0.0
 10
418.1523946357659
 20
331.5964941421654
 30
0.0
 10
418.7374478529181
 20
331.7949991628887
 30
0.0
 10
418.9977113765113
 20
331.8833050035024
 30
0.0
  0
SPLINE
  5
251
330
1F
100
AcDbEntity
  8
0
  6
Continuous
 62
     8
370
    18
100
AcDbSpline
210
0.0
220
0.0
230
1.0
 70
     8
 71
     3
 72
    23
 73
    19
 74
     0
 42
0.00000001
 43
0.00000001
 40
0.0
 40
0.0
 40
0.0
 40
0.0
 40
0.0145141044481175
 40
0.0295024434317513
 40
0.0449867219116569
 40
0.060989853997745
 40
0.0775302744752535
 40
0.1194123230984367
 40
0.1634146568589818
 40
0.257712776620993
 40
0.3620820940962903
 40
0.4987501381631186
 40
0.6494888305047607
 40
0.7292268473818486
 40
0.8135626327948668
 40
0.9026088974469499
 40
0.9501516667125613
 40
0.9999999999999999
 40
0.9999999999999999
 40
0.9999999999999999
 40
0.9999999999999999
 10
405.5298301412472
 20
327.3185737469785
 30
0.0
 10
405.5504916043246
 20
327.3256199688367
 30
0.0
 10
405.5924896241017
 20
327.3399426411395
 30
0.0
 10
405.6661181203587
 20
327.3647020724281
 30
0.0
 10
405.748917132931
 20
327.3925030051557
 30
0.0
 10
405.8421118449369
 20
327.4239971313415
 30
0.0
 10
405.9966442687896
 20
327.4763509227765
 30
0.0
 10
406.2335972231133
 20
327.5567402175213
 30
0.0
 10
406.7035060896277
 20
327.7160059002703
 30
0.0
 10
407.4291274402553
 20
327.961971436146
 30
0.0
 10
408.5526682118411
 20
328.3426568276414
 30
0.0
 10
409.9810055010277
 20
328.8265461787516
 30
0.0
 10
411.4033509321637
 20
329.3086336491458
 30
0.0
 10
412.6649533246069
 20
329.7364174243306
 30
0.0
 10
413.699987684474
 20
330.0884134063527
 30
0.0
 10
414.6229783099549
 20
330.4001045512904
 30
0.0
 10
415.4159901652904
 20
330.662467034129
 30
0.0
 10
415.8292532102711
 20
330.8065386061184
 30
0.0
 10
416.0407763726705
 20
330.8802797133603
 30
0.0
  0
SPLINE
  5
252
330
1F
100
AcDbEntity
  8
0
  6
Continuous
 62
     8
370
    18
100
AcDbSpline
210
0.0
220
0.0
230
1.0
 70
     8
 71
     3
 72
    17
 73
    13
 74
     0
 42
0.00000001
 43
0.00000001
 40
0.0
 40
0.0
 40
0.0
 40
0.0
 40
0.0286664876552996
 40
0.0648898912088051
 40
0.1088277794015334
 40
0.1605715307568246
 40
0.2504794412468297
 40
0.3497760155166061
 40
0.4622464372706266
 40
0.6009514351021007
 40
0.8113351862571018
 40
1.0
 40
1.0
 40
1.0
 40
1.0
 10
404.853748570992
 20
327.3233208285237
 30
0.0
 10
404.8627490365515
 20
327.3205253327417
 30
0.0
 10
404.8831226253221
 20
327.3141974065813
 30
0.0
 10
404.9128898776351
 20
327.3075391623662
 30
0.0
 10
404.9465266864915
 20
327.3008386914411
 30
0.0
 10
404.9904496310679
 20
327.292948906887
 30
0.0
 10
405.0415101105119
 20
327.2846859319635
 30
0.0
 10
405.0972186482476
 20
327.2789615715313
 30
0.0
 10
405.1582586785996
 20
327.2777177083154
 30
0.0
 10
405.2466113868846
 20
327.2813949162111
 30
0.0
 10
405.3659762337515
 20
327.293750986186
 30
0.0
 10
405.4772305781571
 20
327.3106052682749
 30
0.0
 10
405.5298301412472
 20
327.3185737469785
 30
0.0
  0
SPLINE
  5
253
330
1F
100
AcDbEntity
  8
0
  6
Continuous
 62
     8
370
    18
100
AcDbSpline
210
0.0
220
0.0
230
1.0
 70
    24
 71
     3
 72
    11
 73
     7
 74
     0
 42
0.00000001
 43
0.00000001
 40
0.0
 40
0.0
 40
0.0
 40
0.0
 40
0.309212483999438
 40
0.6207182167779657
 40
0.9380930053703679
 40
1.0
 40
1.0
 40
1.0
 40
1.0
 10
425.8134706271382
 20
347.7482197889048
 30
0.0
 10
425.8153631067754
 20
347.7482197888924
 30
0.0
 10
425.8191621014685
 20
347.7482197888674
 30
0.0
 10
425.5994004609157
 20
347.748219788807
 30
0.0
 10
425.3073446851061
 20
347.7482197887632
 30
0.0
 10
424.8913671603534
 20
347.7482197887351
 30
0.0
 10
424.8234706266149
 20
347.7482197887305
 30
0.0
  0
LINE
  5
254
330
1F
100
AcDbEntity
  8
0
  6
Continuous
 62
     8
370
    18
100
AcDbLine
 10
426.069113187
 20
381.6624541563
 30
0.0
 11
426.1302149285
 21
381.6019922143
 31
0.0
  0
SPLINE
  5
255
330
1F
100
AcDbEntity
  8
0
  6
Continuous
 62
     8
370
    18
100
AcDbSpline
210
0.0
220
0.0
230
1.0
 70
    24
 71
     3
 72
    14
 73
    10
 74
     0
 42
0.00000001
 43
0.00000001
 40
0.0
 40
0.0
 40
0.0
 40
0.0
 40
0.1249999999999999
 40
0.25
 40
0.375
 40
0.5
 40
0.625
 40
0.75
 40
1.0
 40
1.0
 40
1.0
 40
1.0
 10
454.7728104548348
 20
329.3406394698349
 30
0.0
 10
454.7728104548348
 20
329.5918588486532
 30
0.0
 10
454.7728104548348
 20
330.2861783020412
 30
0.0
 10
454.7728104548348
 20
331.8159078672415
 30
0.0
 10
454.7728104548348
 20
333.4052031998182
 30
0.0
 10
454.7728104548348
 20
334.5979780376644
 30
0.0
 10
454.7728104548348
 20
335.2849758557441
 30
0.0
 10
454.7728104548348
 20
335.7403169316614
 30
0.0
 10
454.7728104548348
 20
335.738219739585
 30
0.0
 10
454.7728104548348
 20
335.7382197395249
 30
0.0
  0
SPLINE
  5
256
330
1F
100
AcDbEntity
  8
0
  6
Continuous
 62
     8
370
    18
100
AcDbSpline
210
0.0
220
0.0
230
1.0
 70
     8
 71
     3
 72
    28
 73
    24
 74
     0
 42
0.00000001
 43
0.00000001
 40
0.0
 40
0.0
 40
0.0
 40
0.0
 40
0.0226375162597436
 40
0.0450098234303892
 40
0.0671170170922659
 40
0.0889612065186703
 40
0.1105466815221082
 40
0.1318742867371686
 40
0.1529378040927309
 40
0.1737331704671617
 40
0.1942580275923813
 40
0.2145128417973004
 40
0.2345016569847759
 40
0.2542304160451824
 40
0.2737057704230224
 40
0.3751262392425996
 40
0.4774387663421424
 40
0.5302440193779736
 40
0.5973264638062189
 40
0.6781751725891064
 40
0.772577019044549
 40
0.8801683896651611
 40
1.0
 40
1.0
 40
1.0
 40
1.0
 10
491.5629109659627
 20
373.1720090464219
 30
0.0
 10
491.5608946458007
 20
373.1600871600514
 30
0.0
 10
491.5568856276105
 20
373.1363830577843
 30
0.0
 10
491.5506351456789
 20
373.0884228477154
 30
0.0
 10
491.5442729192951
 20
373.0311587542892
 30
0.0
 10
491.5377942009993
 20
372.9633597029429
 30
0.0
 10
491.5312200927762
 20
372.8848596784169
 30
0.0
 10
491.5245668717075
 20
372.7952875545212
 30
0.0
 10
491.5178556581418
 20
372.6943112420157
 30
0.0
 10
491.5111073339131
 20
372.5817051624639
 30
0.0
 10
491.5043439112123
 20
372.4574860251795
 30
0.0
 10
491.4975858433994
 20
372.3216668378199
 30
0.0
 10
491.4908565142227
 20
372.1741660292118
 30
0.0
 10
491.4841732947405
 20
372.0148777534969
 30
0.0
 10
491.4682969235105
 20
371.6030463613305
 30
0.0
 10
491.4427042269779
 20
370.773823656401
 30
0.0
 10
491.4173691009738
 20
369.4459124427597
 30
0.0
 10
491.3992248711475
 20
368.1101071401223
 30
0.0
 10
491.3848868204483
 20
366.8053844536706
 30
0.0
 10
491.3719188917105
 20
365.1379099444393
 30
0.0
 10
491.3622923131259
 20
363.1229828159007
 30
0.0
 10
491.3575102386873
 20
360.79366309093
 30
0.0
 10
491.3574340530082
 20
359.1437423619943
 30
0.0
 10
491.3573939099559
 20
358.2743814159608
 30
0.0
  0
ARC
  5
257
330
1F
100
AcDbEntity
  8
0
  6
Continuous
 62
     8
370
    18
100
AcDbCircle
 10
491.5630008352
 20
372.1721770985
 30
0.0
 40
0.9998319519658856
100
AcDbArc
 50
0.1193035552
 51
90.0051499954
  0
SPLINE
  5
258
330
1F
100
AcDbEntity
  8
0
  6
Continuous
 62
     8
370
    18
100
AcDbSpline
210
0.0
220
0.0
230
1.0
 70
     8
 71
     3
 72
    26
 73
    22
 74
     0
 42
0.00000001
 43
0.00000001
 40
0.0
 40
0.0
 40
0.0
 40
0.0
 40
0.0243906972131864
 40
0.0481797030525173
 40
0.0713788073526911
 40
0.0940007222820349
 40
0.1160591579257614
 40
0.1375689018636587
 40
0.158545902096051
 40
0.2189161629455442
 40
0.2759280159571023
 40
0.328037542072635
 40
0.3781436949942169
 40
0.4248865813918429
 40
0.4717092259965426
 40
0.5759510431171978
 40
0.691792728197273
 40
0.755452590539045
 40
0.823966922604629
 40
0.9075970332345958
 40
1.0
 40
1.0
 40
1.0
 40
1.0
 10
492.5628305527025
 20
372.1742586321121
 30
0.0
 10
492.5607203240791
 20
372.1622565171205
 30
0.0
 10
492.5565519238255
 20
372.1385483659657
 30
0.0
 10
492.5500525408357
 20
372.0903723346033
 30
0.0
 10
492.5434968106003
 20
372.0334039045088
 30
0.0
 10
492.5368822916163
 20
371.9667730343318
 30
0.0
 10
492.5302352985045
 20
371.8906982185665
 30
0.0
 10
492.5235735805859
 20
371.8051379001845
 30
0.0
 10
492.512698135159
 20
371.6497510243107
 30
0.0
 10
492.497434087742
 20
371.3892123547322
 30
0.0
 10
492.4779686250286
 20
370.9654242965237
 30
0.0
 10
492.4594678842813
 20
370.4621652057228
 30
0.0
 10
492.4424850037965
 20
369.8908916126884
 30
0.0
 10
492.4269725532091
 20
369.2452066725069
 30
0.0
 10
492.4074445719378
 20
368.2392789414237
 30
0.0
 10
492.386068753841
 20
366.6663542478409
 30
0.0
 10
492.3715494870287
 20
364.8327817487357
 30
0.0
 10
492.3636053850511
 20
363.1870760235503
 30
0.0
 10
492.3592856698076
 20
361.7378844715024
 30
0.0
 10
492.3572086916075
 20
360.0864876735083
 30
0.0
 10
492.3571240065771
 20
358.8969591477637
 30
0.0
 10
492.357079553863
 20
358.2725539708661
 30
0.0
  0
SPLINE
  5
259
330
1F
100
AcDbEntity
  8
0
  6
Continuous
 62
     8
370
    18
100
AcDbSpline
210
0.0
220
0.0
230
1.0
 70
     8
 71
     3
 72
     8
 73
     4
 74
     0
 42
0.00000001
 43
0.00000001
 40
0.0
 40
0.0
 40
0.0
 40
0.0
 40
1.0
 40
1.0
 40
1.0
 40
1.0
 10
491.3573939099559
 20
358.2743814159606
 30
0.0
 10
491.3564541824507
 20
347.9318934968039
 30
0.0
 10
491.3564738378922
 20
337.5893331297686
 30
0.0
 10
491.3574462285226
 20
327.2469697395219
 30
0.0
  0
SPLINE
  5
25A
330
1F
100
AcDbEntity
  8
0
  6
Continuous
 62
     8
370
    18
100
AcDbSpline
210
0.0
220
0.0
230
1.0
 70
     8
 71
     3
 72
    12
 73
     8
 74
     0
 42
0.00000001
 43
0.00000001
 40
0.0
 40
0.0
 40
0.0
 40
0.0
 40
0.2000002768519188
 40
0.4000000149792222
 40
0.5999996146803915
 40
0.7999994762547372
 40
0.9999999999999999
 40
0.9999999999999999
 40
0.9999999999999999
 40
0.9999999999999999
 10
492.357079553863
 20
358.2725539708661
 30
0.0
 10
492.3570058844551
 20
356.2045224964277
 30
0.0
 10
492.3568585458378
 20
352.0684651180406
 30
0.0
 10
492.3569155700671
 20
345.8643750970934
 30
0.0
 10
492.3571810812049
 20
339.6603001755493
 30
0.0
 10
492.3576549066388
 20
333.4562347092955
 30
0.0
 10
492.3581552213566
 20
329.3202176542562
 30
0.0
 10
492.3584053791296
 20
327.2522057033021
 30
0.0
  0
LINE
  5
25B
330
1F
100
AcDbEntity
  8
0
  6
Continuous
 62
     8
370
    18
100
AcDbLine
 10
458.8334706266
 20
346.9211712398
 30
0.0
 11
458.8334706266
 21
342.2195580631
 31
0.0
  0
SPLINE
  5
25C
330
1F
100
AcDbEntity
  8
0
  6
Continuous
 62
     8
370
    18
100
AcDbSpline
210
0.0
220
0.0
230
1.0
 70
     8
 71
     3
 72
    20
 73
    16
 74
     0
 42
0.00000001
 43
0.00000001
 40
0.0
 40
0.0
 40
0.0
 40
0.0
 40
0.0567547792699091
 40
0.1134134067255482
 40
0.170010470396799
 40
0.2265806712389642
 40
0.2831587596311104
 40
0.3397794714342473
 40
0.3964774641666161
 40
0.4532872539092185
 40
0.5628386689009991
 40
0.6720354481472561
 40
0.7811276074200528
 40
0.8903658808293132
 40
1.0
 40
1.0
 40
1.0
 40
1.0
 10
460.192007714587
 20
353.0498336319197
 30
0.0
 10
460.1421931057055
 20
352.9409861448685
 30
0.0
 10
460.0426482819809
 20
352.723475576088
 30
0.0
 10
459.9036747644776
 20
352.3928819434651
 30
0.0
 10
459.7724890718561
 20
352.0595685458389
 30
0.0
 10
459.6498166613006
 20
351.7231975806828
 30
0.0
 10
459.5354636619599
 20
351.383859736519
 30
0.0
 10
459.4294819204374
 20
351.0415318948969
 30
0.0
 10
459.3318584850164
 20
350.6962182243075
 30
0.0
 10
459.2150516023717
 20
350.2404646787271
 30
0.0
 10
459.0910300354029
 20
349.67244898417
 30
0.0
 10
458.9757569945185
 20
348.9904078227602
 30
0.0
 10
458.8940328205047
 20
348.3042769784392
 30
0.0
 10
458.842898730695
 20
347.6140756773689
 30
0.0
 10
458.8366171148885
 20
347.152417699076
 30
0.0
 10
458.8334706266184
 20
346.9211712398416
 30
0.0
  0
SPLINE
  5
25D
330
1F
100
AcDbEntity
  8
0
  6
Continuous
 62
     8
370
    18
100
AcDbSpline
210
0.0
220
0.0
230
1.0
 70
     8
 71
     3
 72
     8
 73
     4
 74
     0
 42
0.00000001
 43
0.00000001
 40
0.0
 40
0.0
 40
0.0
 40
0.0
 40
1.0
 40
1.0
 40
1.0
 40
1.0
 10
462.6279770501759
 20
358.2743814159608
 30
0.0
 10
461.8159872716462
 20
356.532866969959
 30
0.0
 10
461.0039974931166
 20
354.791350631352
 30
0.0
 10
460.192007714587
 20
353.0498336319197
 30
0.0
  0
LINE
  5
25E
330
1F
100
AcDbEntity
  8
0
  6
Continuous
 62
     8
370
    18
100
AcDbLine
 10
469.3426515627
 20
373.172008677
 30
0.0
 11
491.5629108959
 21
373.172008677
 31
0.0
  0
SPLINE
  5
25F
330
1F
100
AcDbEntity
  8
0
  6
Continuous
 62
     8
370
    18
100
AcDbSpline
210
0.0
220
0.0
230
1.0
 70
     8
 71
     3
 72
    25
 73
    21
 74
     0
 42
0.00000001
 43
0.00000001
 40
0.0
 40
0.0
 40
0.0
 40
0.0
 40
0.085780637041161
 40
0.1799837592168795
 40
0.2825526182670353
 40
0.3841154963794065
 40
0.487619087047571
 40
0.5382019645135364
 40
0.5888165382283195
 40
0.6384374669577306
 40
0.6918250582747156
 40
0.717571356934825
 40
0.7454713859794051
 40
0.7755031702791035
 40
0.8076556585698378
 40
0.841931384449586
 40
0.8783181218589651
 40
0.9167985891123729
 40
0.9573619958371722
 40
1.0
 40
1.0
 40
1.0
 40
1.0
 10
462.6279770501759
 20
358.2743814159606
 30
0.0
 10
462.9046801026247
 20
358.8705543653736
 30
0.0
 10
463.4852546621564
 20
360.1214362925767
 30
0.0
 10
464.3863482840227
 20
362.0888289826854
 30
0.0
 10
465.3261490559959
 20
364.1568926081796
 30
0.0
 10
466.2686022178838
 20
366.2486982234214
 30
0.0
 10
467.0086846229098
 20
367.90960517413
 30
0.0
 10
467.5478082145806
 20
369.1295434941177
 30
0.0
 10
467.9113480910104
 20
369.9575483977862
 30
0.0
 10
468.2404758548367
 20
370.7071573890086
 30
0.0
 10
468.479019484677
 20
371.2464634555346
 30
0.0
 10
468.6519935420508
 20
371.6360240404383
 30
0.0
 10
468.7742115768726
 20
371.9099048080739
 30
0.0
 10
468.8909135068648
 20
372.1706040384041
 30
0.0
 10
468.999478982562
 20
372.4124196102478
 30
0.0
 10
469.0975075515476
 20
372.6302287899347
 30
0.0
 10
469.1827028896759
 20
372.8191148042334
 30
0.0
 10
469.2527755771257
 20
372.9741475681826
 30
0.0
 10
469.3083375338091
 20
373.09675602046
 30
0.0
 10
469.3310249852609
 20
373.1465109179763
 30
0.0
 10
469.3426515627327
 20
373.1720086770262
 30
0.0
  0
LINE
  5
260
330
1F
100
AcDbEntity
  8
0
  6
Continuous
 62
     8
370
    18
100
AcDbLine
 10
475.9923883057
 20
327.3219311082
 30
0.0
 11
458.8334706266
 21
327.3219308633
 31
0.0
  0
SPLINE
  5
261
330
1F
100
AcDbEntity
  8
0
  6
Continuous
 62
     8
370
    18
100
AcDbSpline
210
0.0
220
0.0
230
1.0
 70
    24
 71
     3
 72
    24
 73
    20
 74
     0
 42
0.00000001
 43
0.00000001
 40
0.0
 40
0.0
 40
0.0
 40
0.0
 40
0.1250000000000004
 40
0.1250000000000004
 40
0.250000000000001
 40
0.250000000000001
 40
0.3750000000000012
 40
0.3750000000000012
 40
0.437500000000001
 40
0.437500000000001
 40
0.5000000000000008
 40
0.5000000000000008
 40
0.6250000000000006
 40
0.6250000000000006
 40
0.7500000000000004
 40
0.7500000000000004
 40
0.8750000000000002
 40
0.8750000000000002
 40
1.0
 40
1.0
 40
1.0
 40
1.0
 10
458.8334706266126
 20
327.3219308020248
 30
0.0
 10
458.8334706266126
 20
327.3821453394676
 30
0.0
 10
458.8334706266126
 20
327.4893420973429
 30
0.0
 10
458.8334706266124
 20
327.8457418424815
 30
0.0
 10
458.8334706266124
 20
328.0956663747293
 30
0.0
 10
458.8334706266123
 20
328.7875217508994
 30
0.0
 10
458.8334706266196
 20
329.2338763837847
 30
0.0
 10
458.8334706266226
 20
330.0765193373213
 30
0.0
 10
458.8334706266219
 20
330.3862086533608
 30
0.0
 10
458.8334706266218
 20
331.0568705977009
 30
0.0
 10
458.8334706266217
 20
331.4172337918733
 30
0.0
 10
458.8334706266214
 20
332.5525182078337
 30
0.0
 10
458.8334706266212
 20
333.3808653854013
 30
0.0
 10
458.833470626621
 20
335.090056689284
 30
0.0
 10
458.8334706266207
 20
335.972742077822
 30
0.0
 10
458.8334706266203
 20
337.7520234873613
 30
0.0
 10
458.8334706266202
 20
338.6494107828038
 30
0.0
 10
458.8334706266198
 20
340.4403022295049
 30
0.0
 10
458.8334706266195
 20
341.3325441123048
 30
0.0
 10
458.8334706266194
 20
342.2195582819148
 30
0.0
  0
ARC
  5
262
330
1F
100
AcDbEntity
  8
0
  6
Continuous
 62
     8
370
    18
100
AcDbCircle
 10
458.8329087706
 20
327.8213689475
 30
0.0
 40
0.4994384614814254
100
AcDbArc
 50
180.0646017073
 51
270.0644563574
  0
ARC
  5
263
330
1F
100
AcDbEntity
  8
0
  6
Continuous
 62
     8
370
    18
100
AcDbCircle
 10
469.3412077004
 20
372.6734550976
 30
0.0
 40
0.4985556702562832
100
AcDbArc
 50
89.8340660036
 51
154.9633535995
  0
LINE
  5
264
330
1F
100
AcDbEntity
  8
0
  6
Continuous
 62
     8
370
    18
100
AcDbLine
 10
491.3574462285
 20
327.2469697395
 30
0.0
 11
491.364462361
 21
283.168430282
 31
0.0
  0
LINE
  5
265
330
1F
100
AcDbEntity
  8
0
  6
Continuous
 62
     8
370
    18
100
AcDbLine
 10
492.3584053791
 20
327.2522057033
 30
0.0
 11
492.3641560534
 21
283.1736662459
 31
0.0
  0
LINE
  5
266
330
1F
100
AcDbEntity
  8
0
  6
Continuous
 62
     8
370
    18
100
AcDbLine
 10
486.3553777154
 20
283.1617431068
 30
0.0
 11
486.1655494336
 21
319.415987054
 31
0.0
  0
SPLINE
  5
267
330
1F
100
AcDbEntity
  8
0
  6
Continuous
 62
     8
370
    18
100
AcDbSpline
210
0.0
220
0.0
230
1.0
 70
     8
 71
     3
 72
    20
 73
    16
 74
     0
 42
0.00000001
 43
0.00000001
 40
0.0
 40
0.0
 40
0.0
 40
0.0
 40
0.1028971753991272
 40
0.1981392094664819
 40
0.2849954400787546
 40
0.3632545487822723
 40
0.4328298563055937
 40
0.4932463181511699
 40
0.571195222618916
 40
0.6472581378745881
 40
0.7212851193676332
 40
0.7935490430338437
 40
0.8641273091011389
 40
0.9330189496823472
 40
1.0
 40
1.0
 40
1.0
 40
1.0
 10
491.3644623609923
 20
283.1684302820418
 30
0.0
 10
491.3645571372763
 20
282.3149782638205
 30
0.0
 10
491.3647396388651
 20
280.671567669195
 30
0.0
 10
491.3694599055613
 20
278.3135644416483
 30
0.0
 10
491.3795220454166
 20
276.1949843915227
 30
0.0
 10
491.3941907094313
 20
274.3582323545183
 30
0.0
 10
491.4121482848618
 20
272.8432441751924
 30
0.0
 10
491.433601229453
 20
271.4966953417229
 30
0.0
 10
491.4593705672586
 20
270.358092462315
 30
0.0
 10
491.488974348711
 20
269.4718181666289
 30
0.0
 10
491.5170476276733
 20
268.8775077101208
 30
0.0
 10
491.5424704751809
 20
268.5111352821785
 30
0.0
 10
491.5646950757027
 20
268.3168985232966
 30
0.0
 10
491.5838749323905
 20
268.2484231214183
 30
0.0
 10
491.5942746483481
 20
268.2474496372323
 30
0.0
 10
491.5994013878955
 20
268.2469697395219
 30
0.0
  0
SPLINE
  5
268
330
1F
100
AcDbEntity
  8
0
  6
Continuous
 62
     8
370
    18
100
AcDbSpline
210
0.0
220
0.0
230
1.0
 70
     8
 71
     3
 72
    24
 73
    20
 74
     0
 42
0.00000001
 43
0.00000001
 40
0.0
 40
0.0
 40
0.0
 40
0.0
 40
0.04589161451034
 40
0.0883201197377102
 40
0.1630610571369302
 40
0.2266838241811024
 40
0.2855527436805716
 40
0.3600023721855535
 40
0.4286401912605515
 40
0.4933936297349387
 40
0.5582762097046271
 40
0.6267527248789944
 40
0.700878635801145
 40
0.7613831435622127
 40
0.8267825670715097
 40
0.8657955231319965
 40
0.9080147718341369
 40
0.9531064038599609
 40
1.0
 40
1.0
 40
1.0
 40
1.0
 10
492.3641560534199
 20
283.1736662458721
 30
0.0
 10
492.3642079700393
 20
282.8167925349337
 30
0.0
 10
492.364307885505
 20
282.1299757990739
 30
0.0
 10
492.3650006386935
 20
280.8622224843189
 30
0.0
 10
492.3671351277377
 20
279.4578698024649
 30
0.0
 10
492.3722836246291
 20
277.9368746718575
 30
0.0
 10
492.3804169106975
 20
276.4407793878693
 30
0.0
 10
492.3926773612294
 20
274.9513611603978
 30
0.0
 10
492.4102228473616
 20
273.5172335101696
 30
0.0
 10
492.4314502615364
 20
272.2997724070294
 30
0.0
 10
492.4561850377044
 20
271.3004949942542
 30
0.0
 10
492.483567459139
 20
270.5044628045893
 30
0.0
 10
492.5098231732258
 20
269.9575117531185
 30
0.0
 10
492.5339320793712
 20
269.5963232571225
 30
0.0
 10
492.552058377638
 20
269.4110379201219
 30
0.0
 10
492.5667037091729
 20
269.3133699027997
 30
0.0
 10
492.5782758336607
 20
269.2662142113114
 30
0.0
 10
492.5894631303607
 20
269.2476514269013
 30
0.0
 10
492.5960199578689
 20
269.247199916965
 30
0.0
 10
492.5993625948036
 20
269.2469697395221
 30
0.0
  0
ARC
  5
269
330
1F
100
AcDbEntity
  8
0
  6
Continuous
 62
     8
370
    18
100
AcDbCircle
 10
491.599381991
 20
269.2469503433
 30
0.0
 40
0.9999806040104489
100
AcDbArc
 50
270.0011113839
 51
0.0011113481
  0
SPLINE
  5
26A
330
1F
100
AcDbEntity
  8
0
  6
Continuous
 62
     8
370
    18
100
AcDbSpline
210
0.0
220
0.0
230
1.0
 70
     8
 71
     3
 72
    26
 73
    22
 74
     0
 42
0.00000001
 43
0.00000001
 40
0.0
 40
0.0
 40
0.0
 40
0.0
 40
0.1249999999999994
 40
0.1249999999999994
 40
0.2499999999999988
 40
0.2499999999999988
 40
0.3749999999999982
 40
0.3749999999999982
 40
0.4374999999999979
 40
0.4374999999999979
 40
0.4999999999999976
 40
0.4999999999999976
 40
0.5624999999999971
 40
0.5624999999999971
 40
0.6249999999999968
 40
0.6249999999999968
 40
0.7499999999999978
 40
0.7499999999999978
 40
0.8749999999999989
 40
0.8749999999999989
 40
1.0
 40
1.0
 40
1.0
 40
1.0
 10
486.422438642015
 20
270.3541661396908
 30
0.0
 10
486.422438642041
 20
270.3541661352035
 30
0.0
 10
486.4224306380931
 20
270.3556948292149
 30
0.0
 10
486.421926021215
 20
270.4520685859293
 30
0.0
 10
486.421432693671
 20
270.5462858610288
 30
0.0
 10
486.4196141286492
 20
270.8936022611621
 30
0.0
 10
486.4182962277071
 20
271.1453005629737
 30
0.0
 10
486.4153985426666
 20
271.6987136232292
 30
0.0
 10
486.414277136466
 20
271.9128849330313
 30
0.0
 10
486.4116752939614
 20
272.4097961335795
 30
0.0
 10
486.4101922409801
 20
272.6930356849973
 30
0.0
 10
486.4068744817983
 20
273.3266742748208
 30
0.0
 10
486.405041761102
 20
273.6766941916009
 30
0.0
 10
486.4011341459487
 20
274.4229863161034
 30
0.0
 10
486.3990623451122
 20
274.8186677764571
 30
0.0
 10
486.3926401585119
 20
276.0452055603314
 30
0.0
 10
486.3880947715277
 20
276.913303830557
 30
0.0
 10
486.3788714242221
 20
278.6748170720119
 30
0.0
 10
486.3741837712617
 20
279.5700842798092
 30
0.0
 10
486.3647895613939
 20
281.3642274512964
 30
0.0
 10
486.360082451846
 20
282.2632117843167
 30
0.0
 10
486.3553777178122
 20
283.1617431071307
 30
0.0
  0
SPLINE
  5
26B
330
1F
100
AcDbEntity
  8
0
  6
Continuous
 62
     8
370
    18
100
AcDbSpline
210
0.0
220
0.0
230
1.0
 70
     8
 71
     3
 72
     9
 73
     5
 74
     0
 42
0.00000001
 43
0.00000001
 40
0.0
 40
0.0
 40
0.0
 40
0.0
 40
0.455573375416914
 40
0.9999999999999999
 40
0.9999999999999999
 40
0.9999999999999999
 40
0.9999999999999999
 10
492.6322075186206
 20
372.5419785672723
 30
0.0
 10
492.6302727226396
 20
372.5309452854864
 30
0.0
 10
492.6260257756373
 20
372.5067268337918
 30
0.0
 10
492.5851075332754
 20
372.2914571690582
 30
0.0
 10
492.5628305527025
 20
372.1742586321121
 30
0.0
  0
LINE
  5
26C
330
1F
100
AcDbEntity
  8
0
  6
Continuous
 62
     8
370
    18
100
AcDbLine
 10
492.5993625948
 20
269.2469697395
 30
0.0
 11
492.6334706266
 21
269.2469697395
 31
0.0
  0
SPLINE
  5
26D
330
1F
100
AcDbEntity
  8
0
  6
Continuous
 62
     8
370
    18
100
AcDbSpline
210
0.0
220
0.0
230
1.0
 70
     8
 71
     3
 72
    16
 73
    12
 74
     0
 42
0.00000001
 43
0.00000001
 40
0.0
 40
0.0
 40
0.0
 40
0.0
 40
0.2499999999999997
 40
0.2499999999999997
 40
0.4999999999999994
 40
0.4999999999999994
 40
0.7499999999999991
 40
0.7499999999999991
 40
0.8749999999999996
 40
0.8749999999999996
 40
1.0
 40
1.0
 40
1.0
 40
1.0
 10
486.1655494343601
 20
319.415987054029
 30
0.0
 10
486.1331117780085
 20
319.4159900108614
 30
0.0
 10
486.1034620467048
 20
319.4159941335001
 30
0.0
 10
486.0484939906243
 20
319.4160026274762
 30
0.0
 10
486.023106278881
 20
319.4160069157216
 30
0.0
 10
485.9753920383108
 20
319.416014737273
 30
0.0
 10
485.9530558253934
 20
319.416018317621
 30
0.0
 10
485.9222269299831
 20
319.4160237795097
 30
0.0
 10
485.9124057939322
 20
319.4160256184775
 30
0.0
 10
485.8938544397941
 20
319.4160294143863
 30
0.0
 10
485.8851365781815
 20
319.4160313726843
 30
0.0
 10
485.8770836032043
 20
319.4160334345907
 30
0.0
  0
SPLINE
  5
26E
330
1F
100
AcDbEntity
  8
0
  6
Continuous
 62
     8
370
    18
100
AcDbSpline
210
0.0
220
0.0
230
1.0
 70
     8
 71
     3
 72
    22
 73
    18
 74
     0
 42
0.00000001
 43
0.00000001
 40
0.0
 40
0.0
 40
0.0
 40
0.0
 40
0.125
 40
0.125
 40
0.25
 40
0.25
 40
0.375
 40
0.375
 40
0.5
 40
0.5
 40
0.625
 40
0.625
 40
0.75
 40
0.75
 40
0.875
 40
0.875
 40
1.0
 40
1.0
 40
1.0
 40
1.0
 10
485.8770835083641
 20
319.4160334345664
 30
0.0
 10
485.873408766608
 20
319.9614503898972
 30
0.0
 10
485.861297063234
 20
320.5006697240512
 30
0.0
 10
485.7657009797082
 20
321.5577389269879
 30
0.0
 10
485.6831147933951
 20
322.0762583650766
 30
0.0
 10
485.416461656761
 20
323.078997855777
 30
0.0
 10
485.2334939252086
 20
323.5633758942678
 30
0.0
 10
484.7499254813445
 20
324.4788170198807
 30
0.0
 10
484.448600651259
 20
324.9099768502335
 30
0.0
 10
483.6789191410116
 20
325.6797557614569
 30
0.0
 10
483.2086315659061
 20
326.0163729686689
 30
0.0
 10
482.1006639957798
 20
326.5611128973374
 30
0.0
 10
481.4648354815388
 20
326.7701705497232
 30
0.0
 10
480.0743415552032
 20
327.0844171211817
 30
0.0
 10
479.3207561898415
 20
327.1891799882304
 30
0.0
 10
477.7231085101346
 20
327.3067943026473
 30
0.0
 10
476.8791262320056
 20
327.3217186858294
 30
0.0
 10
475.9923883057311
 20
327.3219296360272
 30
0.0
  0
SPLINE
  5
26F
330
1F
100
AcDbEntity
  8
0
  6
Continuous
 62
     8
370
    18
100
AcDbSpline
210
0.0
220
0.0
230
1.0
 70
    24
 71
     3
 72
     8
 73
     4
 74
     0
 42
0.00000001
 43
0.00000001
 40
0.0
 40
0.0
 40
0.0
 40
0.0
 40
1.0
 40
1.0
 40
1.0
 40
1.0
 10
486.3301901281799
 20
283.1617431071333
 30
0.0
 10
486.3383811217948
 20
283.1617431071287
 30
0.0
 10
486.3467735107832
 20
283.1617431071247
 30
0.0
 10
486.3553777129922
 20
283.1617431071208
 30
0.0
  0
SPLINE
  5
270
330
1F
100
AcDbEntity
  8
0
  6
Continuous
 62
     8
370
    18
100
AcDbSpline
210
0.0
220
0.0
230
1.0
 70
    24
 71
     3
 72
     8
 73
     4
 74
     0
 42
0.00000001
 43
0.00000001
 40
0.0
 40
0.0
 40
0.0
 40
0.0
 40
1.0
 40
1.0
 40
1.0
 40
1.0
 10
486.2113962415821
 20
283.1617431072294
 30
0.0
 10
486.2463502584585
 20
283.1617431072161
 30
0.0
 10
486.2852341113981
 20
283.1617431071587
 30
0.0
 10
486.3301901281799
 20
283.1617431071334
 30
0.0
  0
SPLINE
  5
271
330
1F
100
AcDbEntity
  8
0
  6
Continuous
 62
     8
370
    18
100
AcDbSpline
210
0.0
220
0.0
230
1.0
 70
    24
 71
     3
 72
    12
 73
     8
 74
     0
 42
0.00000001
 43
0.00000001
 40
0.0
 40
0.0
 40
0.0
 40
0.0
 40
0.25
 40
0.25
 40
0.5
 40
0.5
 40
1.0
 40
1.0
 40
1.0
 40
1.0
 10
486.0526675413622
 20
283.1617431071407
 30
0.0
 10
486.0621108660059
 20
283.1617431071407
 30
0.0
 10
486.0727016174039
 20
283.1617431071433
 30
0.0
 10
486.0958203568262
 20
283.1617431071473
 30
0.0
 10
486.1083353803201
 20
283.1617431071508
 30
0.0
 10
486.1483567803893
 20
283.1617431071915
 30
0.0
 10
486.1781785769849
 20
283.1617431072419
 30
0.0
 10
486.2113962415821
 20
283.1617431072293
 30
0.0
  0
SPLINE
  5
272
330
1F
100
AcDbEntity
  8
0
  6
Continuous
 62
     8
370
    18
100
AcDbSpline
210
0.0
220
0.0
230
1.0
 70
     8
 71
     3
 72
    20
 73
    16
 74
     0
 42
0.00000001
 43
0.00000001
 40
0.0
 40
0.0
 40
0.0
 40
0.0
 40
0.1249999999999997
 40
0.1249999999999997
 40
0.2499999999999994
 40
0.2499999999999994
 40
0.3749999999999992
 40
0.3749999999999992
 40
0.4999999999999989
 40
0.4999999999999989
 40
0.7499999999999989
 40
0.7499999999999989
 40
0.8749999999999993
 40
0.8749999999999993
 40
1.0
 40
1.0
 40
1.0
 40
1.0
 10
485.8770836032043
 20
319.4160334345907
 30
0.0
 10
485.8859038927817
 20
318.1068972866928
 30
0.0
 10
485.8928164196193
 20
316.7737785975066
 30
0.0
 10
485.9063554302051
 20
314.034468283623
 30
0.0
 10
485.9129663179444
 20
312.6284659985786
 30
0.0
 10
485.9274698072326
 20
309.7401487831767
 30
0.0
 10
485.9353468127725
 20
308.2580231924723
 30
0.0
 10
485.9524876413525
 20
305.230028930185
 30
0.0
 10
485.9617358683838
 20
303.6843495982552
 30
0.0
 10
485.9902262718505
 20
298.9857449547695
 30
0.0
 10
486.0101968888377
 20
295.7724366617439
 30
0.0
 10
486.032988715556
 20
290.9897397884126
 30
0.0
 10
486.0393729011102
 20
289.4017065179264
 30
0.0
 10
486.0486795777145
 20
286.2566641043743
 30
0.0
 10
486.0515864727556
 20
284.6998443009615
 30
0.0
 10
486.0526675413622
 20
283.1617431071407
 30
0.0
  0
SPLINE
  5
273
330
1F
100
AcDbEntity
  8
0
  6
Continuous
 62
     8
370
    18
100
AcDbSpline
210
0.0
220
0.0
230
1.0
 70
     8
 71
     3
 72
    30
 73
    26
 74
     0
 42
0.00000001
 43
0.00000001
 40
0.0
 40
0.0
 40
0.0
 40
0.0
 40
0.125
 40
0.125
 40
0.2500000000000001
 40
0.2500000000000001
 40
0.3750000000000001
 40
0.3750000000000001
 40
0.4375000000000001
 40
0.4375000000000001
 40
0.5000000000000001
 40
0.5000000000000001
 40
0.5625000000000001
 40
0.5625000000000001
 40
0.6250000000000001
 40
0.6250000000000001
 40
0.6875000000000001
 40
0.6875000000000001
 40
0.7500000000000002
 40
0.7500000000000002
 40
0.8125000000000002
 40
0.8125000000000002
 40
0.8750000000000002
 40
0.8750000000000002
 40
1.0
 40
1.0
 40
1.0
 40
1.0
 10
486.422438642015
 20
270.3541661396908
 30
0.0
 10
486.4182658323316
 20
270.3741172753908
 30
0.0
 10
486.4032028447959
 20
270.4440567293257
 30
0.0
 10
486.3582063255771
 20
270.6917447186314
 30
0.0
 10
486.3281840200343
 20
270.8691109074747
 30
0.0
 10
486.2632550013584
 20
271.4251270358143
 30
0.0
 10
486.228499705087
 20
271.8085817792265
 30
0.0
 10
486.183341682112
 20
272.6224757756204
 30
0.0
 10
486.1694588921468
 20
272.9330804128195
 30
0.0
 10
486.1454051933296
 20
273.6337062257384
 30
0.0
 10
486.1352426316289
 20
274.0237732058241
 30
0.0
 10
486.1194050972063
 20
274.872010135295
 30
0.0
 10
486.1138093528569
 20
275.3304955318033
 30
0.0
 10
486.1065214790824
 20
276.2887856549453
 30
0.0
 10
486.1047424378111
 20
276.7881849508858
 30
0.0
 10
486.1009381074827
 20
277.7778568961894
 30
0.0
 10
486.0987755872759
 20
278.2671265382266
 30
0.0
 10
486.0926246759382
 20
279.19210482123
 30
0.0
 10
486.0887216668295
 20
279.6277809969515
 30
0.0
 10
486.0804992493838
 20
280.4269258662211
 30
0.0
 10
486.0762366175925
 20
280.7907054903176
 30
0.0
 10
486.0684561402066
 20
281.4428965735636
 30
0.0
 10
486.0649305546457
 20
281.7313847609141
 30
0.0
 10
486.0562099184478
 20
282.4939374537287
 30
0.0
 10
486.0528778695089
 20
282.8624972490073
 30
0.0
 10
486.0526675417922
 20
283.1617431071407
 30
0.0
  0
SPLINE
  5
274
330
1F
100
AcDbEntity
  8
0
  6
Continuous
 62
     8
370
    18
100
AcDbSpline
210
0.0
220
0.0
230
1.0
 70
     8
 71
     3
 72
    23
 73
    19
 74
     0
 42
0.00000001
 43
0.00000001
 40
0.0
 40
0.0
 40
0.0
 40
0.0
 40
0.049991896359804
 40
0.0999878434309679
 40
0.1500358215230707
 40
0.2001775369320866
 40
0.2504483615424283
 40
0.3008755262547416
 40
0.3514786906186756
 40
0.402271868072293
 40
0.4532636255133884
 40
0.5044571657961542
 40
0.5842690008921994
 40
0.6653142555384276
 40
0.7475151842926057
 40
0.8307733576596747
 40
0.9149781721107259
 40
1.0
 40
1.0
 40
1.0
 40
1.0
 10
412.3878043010065
 20
328.0265333173019
 30
0.0
 10
412.2596135842732
 20
328.019057031757
 30
0.0
 10
412.0032217638512
 20
328.0041038548837
 30
0.0
 10
411.6221251313418
 20
327.9781765493053
 30
0.0
 10
411.2436268925875
 20
327.9498339947296
 30
0.0
 10
410.8679093294044
 20
327.9189507012867
 30
0.0
 10
410.494904174784
 20
327.8857537921766
 30
0.0
 10
410.1246876198458
 20
327.8504056182174
 30
0.0
 10
409.7573758480798
 20
327.813117145627
 30
0.0
 10
409.393144167951
 20
327.7741229817322
 30
0.0
 10
409.0322232420313
 20
327.7336844695194
 30
0.0
 10
408.608749000391
 20
327.6844166030947
 30
0.0
 10
408.1247390282427
 20
327.6257909258226
 30
0.0
 10
407.5841632159523
 20
327.5583933332659
 30
0.0
 10
407.051213950248
 20
327.4915036006533
 30
0.0
 10
406.5288001335968
 20
327.427439357861
 30
0.0
 10
406.0175952170453
 20
327.367595090012
 30
0.0
 10
405.6929409681711
 20
327.3349664325361
 30
0.0
 10
405.5298301406467
 20
327.3185733394521
 30
0.0
  0
SPLINE
  5
275
330
1F
100
AcDbEntity
  8
0
  6
Continuous
 62
     8
370
    18
100
AcDbSpline
210
0.0
220
0.0
230
1.0
 70
    24
 71
     3
 72
    11
 73
     7
 74
     0
 42
0.00000001
 43
0.00000001
 40
0.0
 40
0.0
 40
0.0
 40
0.0
 40
0.25
 40
0.5
 40
0.75
 40
1.0
 40
1.0
 40
1.0
 40
1.0
 10
454.7728104548348
 20
327.2382197395249
 30
0.0
 10
454.7728104548348
 20
327.2382197395249
 30
0.0
 10
454.7728104548348
 20
327.241373227855
 30
0.0
 10
454.7728104548348
 20
327.4957077799459
 30
0.0
 10
454.7728104548348
 20
328.1438286720347
 30
0.0
 10
454.7728104548348
 20
328.8869776288053
 30
0.0
 10
454.7728104548348
 20
329.3406394698262
 30
0.0
  0
SPLINE
  5
276
330
1F
100
AcDbEntity
  8
0
  6
Continuous
 62
     8
370
    18
100
AcDbSpline
210
0.0
220
0.0
230
1.0
 70
    24
 71
     3
 72
    14
 73
    10
 74
     0
 42
0.00000001
 43
0.00000001
 40
0.0
 40
0.0
 40
0.0
 40
0.0
 40
0.25
 40
0.25
 40
0.5
 40
0.5
 40
0.75
 40
0.75
 40
1.0
 40
1.0
 40
1.0
 40
1.0
 10
485.9553722298222
 20
283.1617431071607
 30
0.0
 10
485.9553722298222
 20
283.1617431071607
 30
0.0
 10
485.9568871635203
 20
283.1617431071564
 30
0.0
 10
485.9640125390816
 20
283.1617431071509
 30
0.0
 10
485.9696146514824
 20
283.1617431071489
 30
0.0
 10
485.985274069153
 20
283.161743107146
 30
0.0
 10
485.9952928736997
 20
283.1617431071464
 30
0.0
 10
486.0199171459229
 20
283.1617431071472
 30
0.0
 10
486.0342635771149
 20
283.1617431071407
 30
0.0
 10
486.0526675413622
 20
283.1617431071407
 30
0.0
  0
SPLINE
  5
277
330
1F
100
AcDbEntity
  8
0
  6
Continuous
 62
     8
370
    18
100
AcDbSpline
210
0.0
220
0.0
230
1.0
 70
     8
 71
     3
 72
    14
 73
    10
 74
     0
 42
0.00000001
 43
0.00000001
 40
0.0
 40
0.0
 40
0.0
 40
0.0
 40
0.2499999999999999
 40
0.2499999999999999
 40
0.4999999999999998
 40
0.4999999999999998
 40
0.7499999999999999
 40
0.7499999999999999
 40
1.0
 40
1.0
 40
1.0
 40
1.0
 10
485.8770836032043
 20
319.4160334345907
 30
0.0
 10
485.8577318319264
 20
319.4160284794907
 30
0.0
 10
485.8419876329159
 20
319.4160239614876
 30
0.0
 10
485.8143934171872
 20
319.4160157691385
 30
0.0
 10
485.8027542248937
 20
319.4160120996394
 30
0.0
 10
485.784019772208
 20
319.4160058677847
 30
0.0
 10
485.776968272573
 20
319.4160033102877
 30
0.0
 10
485.7677215778214
 20
319.4159997045989
 30
0.0
 10
485.765543657346
 20
319.4159986612673
 30
0.0
 10
485.7655436573544
 20
319.4159985701007
 30
0.0
  0
SPLINE
  5
278
330
1F
100
AcDbEntity
  8
0
  6
Continuous
 62
     8
370
    18
100
AcDbSpline
210
0.0
220
0.0
230
1.0
 70
     8
 71
     3
 72
    26
 73
    22
 74
     0
 42
0.00000001
 43
0.00000001
 40
0.0
 40
0.0
 40
0.0
 40
0.0
 40
0.0114229033216627
 40
0.0228647941704489
 40
0.0343260814612184
 40
0.0976854946419507
 40
0.1664907013924342
 40
0.2174965636013881
 40
0.2853634491853194
 40
0.3725509544149118
 40
0.4624590169969409
 40
0.567015158801614
 40
0.6848956353001246
 40
0.7579955438428595
 40
0.8422128302336148
 40
0.8861761367978428
 40
0.907217290181678
 40
0.9286430899022331
 40
0.9544526607811862
 40
0.9782370819340672
 40
1.0
 40
1.0
 40
1.0
 40
1.0
 10
426.2564734528671
 20
325.2482197395249
 30
0.0
 10
426.205122927548
 20
325.2500385041929
 30
0.0
 10
426.102336520371
 20
325.2536790567397
 30
0.0
 10
425.9429962833311
 20
325.2610651267188
 30
0.0
 10
425.5335184591376
 20
325.2830970967931
 30
0.0
 10
424.798670725869
 20
325.3414161511025
 30
0.0
 10
423.7573918987707
 20
325.4539962494698
 30
0.0
 10
422.6083969162294
 20
325.595896954645
 30
0.0
 10
421.2676586959125
 20
325.7670921477466
 30
0.0
 10
419.5739743504091
 20
325.9677271354315
 30
0.0
 10
417.5378670766378
 20
326.1476288254781
 30
0.0
 10
415.229426269509
 20
326.2343819227729
 30
0.0
 10
413.0759031616727
 20
326.1544887053696
 30
0.0
 10
411.1808419569459
 20
325.9646102149711
 30
0.0
 10
409.8803989867176
 20
325.7777797379492
 30
0.0
 10
408.9836019871858
 20
325.6328696401752
 30
0.0
 10
408.4854107136501
 20
325.5507890211126
 30
0.0
 10
408.1031139603862
 20
325.4886536623563
 30
0.0
 10
407.7194628473413
 20
325.4277374432248
 30
0.0
 10
407.348024160952
 20
325.3720520885437
 30
0.0
 10
407.1226661401447
 20
325.3424680944321
 30
0.0
 10
407.0149881017248
 20
325.3283326026349
 30
0.0
  0
SPLINE
  5
279
330
1F
100
AcDbEntity
  8
0
  6
Continuous
 62
     8
370
    18
100
AcDbSpline
210
0.0
220
0.0
230
1.0
 70
     8
 71
     3
 72
    13
 73
     9
 74
     0
 42
0.00000001
 43
0.00000001
 40
0.0
 40
0.0
 40
0.0
 40
0.0
 40
0.0439551432983579
 40
0.2313761806692704
 40
0.4125342203917055
 40
0.5704858094971025
 40
0.7606574212738967
 40
1.0
 40
1.0
 40
1.0
 40
1.0
 10
485.6320548694242
 20
321.1163256954083
 30
0.0
 10
485.6228512106827
 20
321.2655916695094
 30
0.0
 10
485.5744039244718
 20
322.0513152140088
 30
0.0
 10
485.1183117930295
 20
323.4137735567801
 30
0.0
 10
484.0447255140322
 20
324.8899712968338
 30
0.0
 10
482.5171653707675
 20
325.8906636871839
 30
0.0
 10
480.617752937414
 20
326.5613087943599
 30
0.0
 10
479.1651622043977
 20
326.7437526734422
 30
0.0
 10
478.3557202358642
 20
326.8454177393652
 30
0.0
  0
SPLINE
  5
27A
330
1F
100
AcDbEntity
  8
0
  6
Continuous
 62
     8
370
    18
100
AcDbSpline
210
0.0
220
0.0
230
1.0
 70
     8
 71
     3
 72
     8
 73
     4
 74
     0
 42
0.00000001
 43
0.00000001
 40
0.0
 40
0.0
 40
0.0
 40
0.0
 40
1.0
 40
1.0
 40
1.0
 40
1.0
 10
475.9870566211326
 20
326.980913335599
 30
0.0
 10
475.9888338493327
 20
327.0335062429992
 30
0.0
 10
475.9906110775326
 20
327.1472205266962
 30
0.0
 10
475.9923883057326
 20
327.3219311082017
 30
0.0
  0
SPLINE
  5
27B
330
1F
100
AcDbEntity
  8
0
  6
Continuous
 62
     8
370
    18
100
AcDbSpline
210
0.0
220
0.0
230
1.0
 70
     8
 71
     3
 72
    14
 73
    10
 74
     0
 42
0.00000001
 43
0.00000001
 40
0.0
 40
0.0
 40
0.0
 40
0.0
 40
0.1352875775572358
 40
0.2634842972843114
 40
0.3847384086074927
 40
0.6403441606630155
 40
0.8160702379274059
 40
0.9222183553993493
 40
1.0
 40
1.0
 40
1.0
 40
1.0
 10
407.0149881017248
 20
325.3283326026349
 30
0.0
 10
406.9601668918932
 20
325.3219874742925
 30
0.0
 10
406.8533978284688
 20
325.3096297862279
 30
0.0
 10
406.7014928083896
 20
325.3008688822987
 30
0.0
 10
406.5060499239972
 20
325.3000072743737
 30
0.0
 10
406.299670746082
 20
325.3199111437552
 30
0.0
 10
406.1089690594804
 20
325.363219237779
 30
0.0
 10
405.9850158463628
 20
325.3941395814915
 30
0.0
 10
405.9235736921406
 20
325.4147297711191
 30
0.0
 10
405.8975905573321
 20
325.4234371102349
 30
0.0
  0
LINE
  5
27C
330
1F
100
AcDbEntity
  8
0
  6
Continuous
 62
     8
370
    18
100
AcDbLine
 10
428.8234706253
 20
325.2482197395
 30
0.0
 11
426.2564734518
 21
325.2482197395
 31
0.0
  0
SPLINE
  5
27D
330
1F
100
AcDbEntity
  8
0
  6
Continuous
 62
     8
370
    18
100
AcDbSpline
210
0.0
220
0.0
230
1.0
 70
     8
 71
     3
 72
    21
 73
    17
 74
     0
 42
0.00000001
 43
0.00000001
 40
0.0
 40
0.0
 40
0.0
 40
0.0
 40
0.0308378040321261
 40
0.0624845423812387
 40
0.0949582420385559
 40
0.1282755876042429
 40
0.1624520280344733
 40
0.1975018762245329
 40
0.3065223400425678
 40
0.4257336640026335
 40
0.5514646793926559
 40
0.6946811808576242
 40
0.7648004201841292
 40
0.8432345134540162
 40
0.9093582530513359
 40
1.0
 40
1.0
 40
1.0
 40
1.0
 10
405.8975905573321
 20
325.4234371102349
 30
0.0
 10
405.8533404050925
 20
325.4411130514256
 30
0.0
 10
405.7636793348647
 20
325.4769286074007
 30
0.0
 10
405.6335872054847
 20
325.5391746473874
 30
0.0
 10
405.5048662800863
 20
325.6084409986117
 30
0.0
 10
405.3782742448018
 20
325.6853349781479
 30
0.0
 10
405.2540025601537
 20
325.7696926849266
 30
0.0
 10
405.0479179306736
 20
325.925367740499
 30
0.0
 10
404.7736164729999
 20
326.1812808301916
 30
0.0
 10
404.4665824810446
 20
326.5662021867566
 30
0.0
 10
404.1994657365264
 20
327.0255129901382
 30
0.0
 10
404.0299021791879
 20
327.4505083240759
 30
0.0
 10
403.9259307571081
 20
327.827130734914
 30
0.0
 10
403.871089013246
 20
328.1082246315267
 30
0.0
 10
403.8317469448187
 20
328.4193746537936
 30
0.0
 10
403.8265027931767
 20
328.6277383255001
 30
0.0
 10
403.8234706266165
 20
328.7482141242249
 30
0.0
  0
LINE
  5
27E
330
1F
100
AcDbEntity
  8
0
  6
Continuous
 62
     8
370
    18
100
AcDbLine
 10
458.8334706266
 20
327.3219308327
 30
0.0
 11
458.8334706266
 21
326.9469697395
 31
0.0
  0
SPLINE
  5
27F
330
1F
100
AcDbEntity
  8
0
  6
Continuous
 62
     8
370
    18
100
AcDbSpline
210
0.0
220
0.0
230
1.0
 70
     8
 71
     3
 72
     9
 73
     5
 74
     0
 42
0.00000001
 43
0.00000001
 40
0.0
 40
0.0
 40
0.0
 40
0.0
 40
0.4762624373820566
 40
0.9999999999999999
 40
0.9999999999999999
 40
0.9999999999999999
 40
0.9999999999999999
 10
491.632435601043
 20
373.5395737942154
 30
0.0
 10
491.6302109520402
 20
373.5284422914916
 30
0.0
 10
491.6255398950177
 20
373.5050696678076
 30
0.0
 10
491.5844376732956
 20
373.2864880701414
 30
0.0
 10
491.5629108958727
 20
373.1720086769466
 30
0.0
  0
SPLINE
  5
280
330
1F
100
AcDbEntity
  8
0
  6
Continuous
 62
     8
370
    18
100
AcDbSpline
210
0.0
220
0.0
230
1.0
 70
     8
 71
     3
 72
    10
 73
     6
 74
     0
 42
0.00000001
 43
0.00000001
 40
0.0
 40
0.0
 40
0.0
 40
0.0
 40
0.2314167530843575
 40
0.6153034643681667
 40
1.0
 40
1.0
 40
1.0
 40
1.0
 10
469.5115834877974
 20
373.5355137773489
 30
0.0
 10
469.5118200834926
 20
373.5359128209911
 30
0.0
 10
469.5124491570103
 20
373.5369738199559
 30
0.0
 10
469.4606416977278
 20
373.4257012595207
 30
0.0
 10
469.3820092249914
 20
373.2566322514762
 30
0.0
 10
469.3426515627326
 20
373.1720086769467
 30
0.0
  0
LINE
  5
281
330
1F
100
AcDbEntity
  8
0
  6
Continuous
 62
     8
370
    18
100
AcDbLine
 10
471.123720956
 20
326.1374456167
 30
0.0
 11
478.5432202972
 21
326.1374456167
 31
0.0
  0
LINE
  5
282
330
1F
100
AcDbEntity
  8
0
  6
Continuous
 62
     8
370
    18
100
AcDbLine
 10
470.9334706266
 20
326.3372078351
 30
0.0
 11
478.7334706266
 21
326.3372078351
 31
0.0
  0
LINE
  5
283
330
1F
100
AcDbEntity
  8
0
  6
Continuous
 62
     8
370
    18
100
AcDbLine
 10
478.3557202359
 20
326.8454177394
 30
0.0
 11
478.2551557719
 21
326.8564942977
 31
0.0
  0
ENDSEC
  0
SECTION
  2
OBJECTS
  0
DICTIONARY
  5
C
330
0
100
AcDbDictionary
281
     1
  3
ACAD_GROUP
350
D
  3
ACAD_LAYOUT
350
1A
  3
ACAD_MLINESTYLE
350
17
  3
ACAD_PLOTSETTINGS
350
19
  3
ACAD_PLOTSTYLENAME
350
E
  3
ACAD_SCALELIST
350
47
  3
DWGPROPS
350
284
  0
DICTIONARY
  5
D
102
{ACAD_REACTORS
330
C
102
}
330
C
100
AcDbDictionary
281
     1
  0
DICTIONARY
  5
1A
102
{ACAD_REACTORS
330
C
102
}
330
C
100
AcDbDictionary
281
     1
  3
Layout1
350
1E
  3
Layout2
350
26
  3
Model
350
22
  0
DICTIONARY
  5
17
102
{ACAD_REACTORS
330
C
102
}
330
C
100
AcDbDictionary
281
     1
  3
Standard
350
18
  0
DICTIONARY
  5
19
102
{ACAD_REACTORS
330
C
102
}
330
C
100
AcDbDictionary
281
     1
  0
ACDBDICTIONARYWDFLT
  5
E
102
{ACAD_REACTORS
330
C
102
}
330
C
100
AcDbDictionary
281
     1
  3
Normal
350
F
100
AcDbDictionaryWithDefault
340
F
  0
DICTIONARY
  5
47
102
{ACAD_REACTORS
330
C
102
}
330
C
100
AcDbDictionary
281
     1
  3
A0
350
48
  3
A1
350
49
  3
A2
350
4A
  3
A3
350
4B
  3
A4
350
4C
  3
A5
350
4D
  3
A6
350
4E
  3
A7
350
4F
  3
A8
350
50
  3
A9
350
51
  3
B0
350
52
  3
B1
350
53
  3
B2
350
54
  3
B3
350
55
  3
B4
350
56
  3
B5
350
57
  3
B6
350
58
  0
XRECORD
  5
284
102
{ACAD_REACTORS
330
C
102
}
330
C
100
AcDbXrecord
280
     1
  1
DWGPROPS COOKIE
  2

  3

  4

  6

  7

  8
julymer
  9

300
=
301
=
302
=
303
=
304
=
305
=
306
=
307
=
308
=
309
=
 40
0.0
 41
2460343.269421644
 42
2460343.269423461
  1

 90
        0
  0
LAYOUT
  5
1E
102
{ACAD_REACTORS
330
1A
102
}
330
1A
100
AcDbPlotSettings
  1

  2
none_device
  4

  6

 40
0.0
 41
0.0
 42
0.0
 43
0.0
 44
0.0
 45
0.0
 46
0.0
 47
0.0
 48
0.0
 49
0.0
140
0.0
141
0.0
142
1.0
143
1.0
 70
   688
 72
     1
 73
     0
 74
     5
  7

 75
    16
147
1.0
148
0.0
149
0.0
100
AcDbLayout
  1
Layout1
 70
     1
 71
     1
 10
0.0
 20
0.0
 11
420.0
 21
297.0
 12
0.0
 22
0.0
 32
0.0
 14
1.0000000000E+20
 24
1.0000000000E+20
 34
1.0000000000E+20
 15
-1.0000000000E+20
 25
-1.0000000000E+20
 35
-1.0000000000E+20
146
0.0
 13
0.0
 23
0.0
 33
0.0
 16
1.0
 26
0.0
 36
0.0
 17
0.0
 27
1.0
 37
0.0
 76
     0
330
1B
  0
LAYOUT
  5
26
102
{ACAD_REACTORS
330
1A
102
}
330
1A
100
AcDbPlotSettings
  1

  2
none_device
  4

  6

 40
0.0
 41
0.0
 42
0.0
 43
0.0
 44
0.0
 45
0.0
 46
0.0
 47
0.0
 48
0.0
 49
0.0
140
0.0
141
0.0
142
1.0
143
1.0
 70
   688
 72
     1
 73
     0
 74
     5
  7

 75
    16
147
1.0
148
0.0
149
0.0
100
AcDbLayout
  1
Layout2
 70
     1
 71
     2
 10
0.0
 20
0.0
 11
0.0
 21
0.0
 12
0.0
 22
0.0
 32
0.0
 14
0.0
 24
0.0
 34
0.0
 15
0.0
 25
0.0
 35
0.0
146
0.0
 13
0.0
 23
0.0
 33
0.0
 16
1.0
 26
0.0
 36
0.0
 17
0.0
 27
1.0
 37
0.0
 76
     0
330
23
  0
LAYOUT
  5
22
102
{ACAD_REACTORS
330
1A
102
}
330
1A
100
AcDbPlotSettings
  1

  2
none_device
  4
Letter_(8.50_x_11.00_Inches)
  6

 40
6.35
 41
6.35
 42
6.35000508
 43
6.35000508
 44
215.9
 45
279.4
 46
0.0
 47
0.0
 48
0.0
 49
0.0
140
0.0
141
0.0
142
1.0
143
1.0
 70
  1712
 72
     1
 73
     0
 74
     0
  7

 75
     0
147
1.0
148
0.0
149
0.0
100
AcDbLayout
  1
Model
 70
     1
 71
     0
 10
0.0
 20
0.0
 11
594.0
 21
841.0
 12
0.0
 22
0.0
 32
0.0
 14
0.0
 24
0.0
 34
0.0
 15
594.0
 25
841.0
 35
0.0
146
0.0
 13
0.0
 23
0.0
 33
0.0
 16
1.0
 26
0.0
 36
0.0
 17
0.0
 27
1.0
 37
0.0
 76
     0
330
1F
331
29
  0
MLINESTYLE
  5
18
102
{ACAD_REACTORS
330
17
102
}
330
17
100
AcDbMlineStyle
  2
Standard
 70
     0
  3

 62
   256
 51
90.0
 52
90.0
 71
     2
 49
0.5
 62
   256
  6
BYLAYER
 49
-0.5
 62
   256
  6
BYLAYER
  0
ACDBPLACEHOLDER
  5
F
102
{ACAD_REACTORS
330
E
102
}
330
E
  0
SCALE
  5
48
102
{ACAD_REACTORS
330
47
102
}
330
47
100
AcDbScale
 70
     0
300
1:1
140
1.0
141
1.0
290
     1
  0
SCALE
  5
49
102
{ACAD_REACTORS
330
47
102
}
330
47
100
AcDbScale
 70
     0
300
1:2
140
1.0
141
2.0
290
     0
  0
SCALE
  5
4A
102
{ACAD_REACTORS
330
47
102
}
330
47
100
AcDbScale
 70
     0
300
1:4
140
1.0
141
4.0
290
     0
  0
SCALE
  5
4B
102
{ACAD_REACTORS
330
47
102
}
330
47
100
AcDbScale
 70
     0
300
1:5
140
1.0
141
5.0
290
     0
  0
SCALE
  5
4C
102
{ACAD_REACTORS
330
47
102
}
330
47
100
AcDbScale
 70
     0
300
1:8
140
1.0
141
8.0
290
     0
  0
SCALE
  5
4D
102
{ACAD_REACTORS
330
47
102
}
330
47
100
AcDbScale
 70
     0
300
1:10
140
1.0
141
10.0
290
     0
  0
SCALE
  5
4E
102
{ACAD_REACTORS
330
47
102
}
330
47
100
AcDbScale
 70
     0
300
1:16
140
1.0
141
16.0
290
     0
  0
SCALE
  5
4F
102
{ACAD_REACTORS
330
47
102
}
330
47
100
AcDbScale
 70
     0
300
1:20
140
1.0
141
20.0
290
     0
  0
SCALE
  5
50
102
{ACAD_REACTORS
330
47
102
}
330
47
100
AcDbScale
 70
     0
300
1:30
140
1.0
141
30.0
290
     0
  0
SCALE
  5
51
102
{ACAD_REACTORS
330
47
102
}
330
47
100
AcDbScale
 70
     0
300
1:40
140
1.0
141
40.0
290
     0
  0
SCALE
  5
52
102
{ACAD_REACTORS
330
47
102
}
330
47
100
AcDbScale
 70
     0
300
1:50
140
1.0
141
50.0
290
     0
  0
SCALE
  5
53
102
{ACAD_REACTORS
330
47
102
}
330
47
100
AcDbScale
 70
     0
300
1:100
140
1.0
141
100.0
290
     0
  0
SCALE
  5
54
102
{ACAD_REACTORS
330
47
102
}
330
47
100
AcDbScale
 70
     0
300
2:1
140
2.0
141
1.0
290
     0
  0
SCALE
  5
55
102
{ACAD_REACTORS
330
47
102
}
330
47
100
AcDbScale
 70
     0
300
4:1
140
4.0
141
1.0
290
     0
  0
SCALE
  5
56
102
{ACAD_REACTORS
330
47
102
}
330
47
100
AcDbScale
 70
     0
300
8:1
140
8.0
141
1.0
290
     0
  0
SCALE
  5
57
102
{ACAD_REACTORS
330
47
102
}
330
47
100
AcDbScale
 70
     0
300
10:1
140
10.0
141
1.0
290
     0
  0
SCALE
  5
58
102
{ACAD_REACTORS
330
47
102
}
330
47
100
AcDbScale
 70
     0
300
100:1
140
100.0
141
1.0
290
     0
  0
ENDSEC
  0
EOF
