  0
SECTION
  2
HEADER
  9
$ACADVER
  1
AC1015
  9
$ACADMAINTVER
 70
     6
  9
$DWGCODEPAGE
  3
ANSI_1252
  9
$INSBASE
 10
0.0
 20
0.0
 30
0.0
  9
$EXTMIN
 10
0.0
 20
0.0
 30
0.0
  9
$EXTMAX
 10
594.0
 20
841.0
 30
0.0
  9
$LIMMIN
 10
0.0
 20
0.0
  9
$LIMMAX
 10
594.0
 20
841.0
  9
$ORTHOMODE
 70
     0
  9
$REGENMODE
 70
     1
  9
$FILLMODE
 70
     1
  9
$QTEXTMODE
 70
     0
  9
$MIRRTEXT
 70
     1
  9
$LTSCALE
 40
1.0
  9
$ATTMODE
 70
     1
  9
$TEXTSIZE
 40
10.0
  9
$TRACEWID
 40
1.0
  9
$TEXTSTYLE
  7
Standard
  9
$CLAYER
  8
0
  9
$CELTYPE
  6
ByLayer
  9
$CECOLOR
 62
   256
  9
$CELTSCALE
 40
1.0
  9
$DISPSILH
 70
     0
  9
$DIMSCALE
 40
1.0
  9
$DIMASZ
 40
2.5
  9
$DIMEXO
 40
0.0
  9
$DIMDLI
 40
3.75
  9
$DIMRND
 40
0.0
  9
$DIMDLE
 40
0.0
  9
$DIMEXE
 40
1.0
  9
$DIMTP
 40
0.0
  9
$DIMTM
 40
0.0
  9
$DIMTXT
 40
3.5
  9
$DIMCEN
 40
2.5
  9
$DIMTSZ
 40
0.0
  9
$DIMTOL
 70
     0
  9
$DIMLIM
 70
     0
  9
$DIMTIH
 70
     1
  9
$DIMTOH
 70
     1
  9
$DIMSE1
 70
     0
  9
$DIMSE2
 70
     0
  9
$DIMTAD
 70
     1
  9
$DIMZIN
 70
     0
  9
$DIMBLK
  1

  9
$DIMASO
 70
     1
  9
$DIMSHO
 70
     1
  9
$DIMPOST
  1

  9
$DIMAPOST
  1

  9
$DIMALT
 70
     0
  9
$DIMALTD
 70
     3
  9
$DIMALTF
 40
0.0393700787
  9
$DIMLFAC
 40
1.0
  9
$DIMTOFL
 70
     1
  9
$DIMTVP
 40
0.0
  9
$DIMTIX
 70
     0
  9
$DIMSOXD
 70
     0
  9
$DIMSAH
 70
     0
  9
$DIMBLK1
  1

  9
$DIMBLK2
  1

  9
$DIMSTYLE
  2
ISO-25
  9
$DIMCLRD
 70
     0
  9
$DIMCLRE
 70
     0
  9
$DIMCLRT
 70
     0
  9
$DIMTFAC
 40
1.0
  9
$DIMGAP
 40
1.5
  9
$DIMJUST
 70
     0
  9
$DIMSD1
 70
     0
  9
$DIMSD2
 70
     0
  9
$DIMTOLJ
 70
     0
  9
$DIMTZIN
 70
     0
  9
$DIMALTZ
 70
     0
  9
$DIMALTTZ
 70
     0
  9
$DIMUPT
 70
     0
  9
$DIMDEC
 70
     2
  9
$DIMTDEC
 70
     2
  9
$DIMALTU
 70
     2
  9
$DIMALTTD
 70
     3
  9
$DIMTXSTY
  7
Standard
  9
$DIMAUNIT
 70
     0
  9
$DIMADEC
 70
     2
  9
$DIMALTRND
 40
0.0
  9
$DIMAZIN
 70
     0
  9
$DIMDSEP
 70
    44
  9
$DIMATFIT
 70
     3
  9
$DIMFRAC
 70
     0
  9
$DIMLDRBLK
  1

  9
$DIMLUNIT
 70
     2
  9
$DIMLWD
 70
    -2
  9
$DIMLWE
 70
    -2
  9
$DIMTMOVE
 70
     0
  9
$LUNITS
 70
     2
  9
$LUPREC
 70
     2
  9
$SKETCHINC
 40
1.0
  9
$FILLETRAD
 40
10.0
  9
$AUNITS
 70
     0
  9
$AUPREC
 70
     2
  9
$MENU
  1
.
  9
$ELEVATION
 40
0.0
  9
$PELEVATION
 40
0.0
  9
$THICKNESS
 40
0.0
  9
$LIMCHECK
 70
     0
  9
$CHAMFERA
 40
0.0
  9
$CHAMFERB
 40
0.0
  9
$CHAMFERC
 40
0.0
  9
$CHAMFERD
 40
0.0
  9
$SKPOLY
 70
     0
  9
$TDCREATE
 40
2458521.388484282
  9
$TDUCREATE
 40
2458521.346817616
  9
$TDUPDATE
 40
2458521.388485729
  9
$TDUUPDATE
 40
2458521.346819063
  9
$TDINDWG
 40
0.0000000116
  9
$TDUSRTIMER
 40
0.0000000116
  9
$USRTIMER
 70
     1
  9
$ANGBASE
 50
0.0
  9
$ANGDIR
 70
     0
  9
$PDMODE
 70
     0
  9
$PDSIZE
 40
-1.0
  9
$PLINEWID
 40
0.0
  9
$SPLFRAME
 70
     0
  9
$SPLINETYPE
 70
     6
  9
$SPLINESEGS
 70
     8
  9
$HANDSEED
  5
159
  9
$SURFTAB1
 70
     6
  9
$SURFTAB2
 70
     6
  9
$SURFTYPE
 70
     6
  9
$SURFU
 70
     6
  9
$SURFV
 70
     6
  9
$UCSBASE
  2

  9
$UCSNAME
  2

  9
$UCSORG
 10
0.0
 20
0.0
 30
0.0
  9
$UCSXDIR
 10
1.0
 20
0.0
 30
0.0
  9
$UCSYDIR
 10
0.0
 20
1.0
 30
0.0
  9
$UCSORTHOREF
  2

  9
$UCSORTHOVIEW
 70
     0
  9
$UCSORGTOP
 10
0.0
 20
0.0
 30
0.0
  9
$UCSORGBOTTOM
 10
0.0
 20
0.0
 30
0.0
  9
$UCSORGLEFT
 10
0.0
 20
0.0
 30
0.0
  9
$UCSORGRIGHT
 10
0.0
 20
0.0
 30
0.0
  9
$UCSORGFRONT
 10
0.0
 20
0.0
 30
0.0
  9
$UCSORGBACK
 10
0.0
 20
0.0
 30
0.0
  9
$PUCSBASE
  2

  9
$PUCSNAME
  2

  9
$PUCSORG
 10
0.0
 20
0.0
 30
0.0
  9
$PUCSXDIR
 10
1.0
 20
0.0
 30
0.0
  9
$PUCSYDIR
 10
0.0
 20
1.0
 30
0.0
  9
$PUCSORTHOREF
  2

  9
$PUCSORTHOVIEW
 70
     0
  9
$PUCSORGTOP
 10
0.0
 20
0.0
 30
0.0
  9
$PUCSORGBOTTOM
 10
0.0
 20
0.0
 30
0.0
  9
$PUCSORGLEFT
 10
0.0
 20
0.0
 30
0.0
  9
$PUCSORGRIGHT
 10
0.0
 20
0.0
 30
0.0
  9
$PUCSORGFRONT
 10
0.0
 20
0.0
 30
0.0
  9
$PUCSORGBACK
 10
0.0
 20
0.0
 30
0.0
  9
$USERI1
 70
     0
  9
$USERI2
 70
     0
  9
$USERI3
 70
     0
  9
$USERI4
 70
     0
  9
$USERI5
 70
     0
  9
$USERR1
 40
0.0
  9
$USERR2
 40
0.0
  9
$USERR3
 40
0.0
  9
$USERR4
 40
0.0
  9
$USERR5
 40
0.0
  9
$WORLDVIEW
 70
     1
  9
$SHADEDGE
 70
     3
  9
$SHADEDIF
 70
    70
  9
$TILEMODE
 70
     1
  9
$MAXACTVP
 70
    64
  9
$PINSBASE
 10
0.0
 20
0.0
 30
0.0
  9
$PLIMCHECK
 70
     0
  9
$PEXTMIN
 10
1.0000000000E+20
 20
1.0000000000E+20
 30
1.0000000000E+20
  9
$PEXTMAX
 10
-1.0000000000E+20
 20
-1.0000000000E+20
 30
-1.0000000000E+20
  9
$PLIMMIN
 10
0.0
 20
0.0
  9
$PLIMMAX
 10
420.0
 20
297.0
  9
$UNITMODE
 70
     0
  9
$VISRETAIN
 70
     1
  9
$PLINEGEN
 70
     0
  9
$PSLTSCALE
 70
     1
  9
$TREEDEPTH
 70
  3020
  9
$CMLSTYLE
  2
Standard
  9
$CMLJUST
 70
     0
  9
$CMLSCALE
 40
20.0
  9
$PROXYGRAPHICS
 70
     1
  9
$MEASUREMENT
 70
     1
  9
$CELWEIGHT
370
    -1
  9
$ENDCAPS
280
     0
  9
$JOINSTYLE
280
     0
  9
$LWDISPLAY
290
     1
  9
$INSUNITS
 70
     4
  9
$HYPERLINKBASE
  1

  9
$STYLESHEET
  1

  9
$XEDIT
290
     1
  9
$CEPSNTYPE
380
     0
  9
$PSTYLEMODE
290
     1
  9
$FINGERPRINTGUID
  2
{39706795-9947-4A7A-9C65-E8417C2263E2}
  9
$VERSIONGUID
  2
{FAEB1C32-E019-11D5-929B-00C0DF256EC4}
  9
$EXTNAMES
290
     1
  9
$PSVPSCALE
 40
0.0
  9
$OLESTARTUP
290
     0
  0
ENDSEC
  0
SECTION
  2
CLASSES
  0
CLASS
  1
ACDBDICTIONARYWDFLT
  2
AcDbDictionaryWithDefault
  3
ObjectDBX Classes
 90
        0
280
     0
281
     0
  0
CLASS
  1
VISUALSTYLE
  2
AcDbVisualStyle
  3
ObjectDBX Classes
 90
     4095
280
     0
281
     0
  0
CLASS
  1
MATERIAL
  2
AcDbMaterial
  3
ObjectDBX Classes
 90
     1153
280
     0
281
     0
  0
CLASS
  1
SCALE
  2
AcDbScale
  3
ObjectDBX Classes
 90
     1153
280
     0
281
     0
  0
CLASS
  1
TABLESTYLE
  2
AcDbTableStyle
  3
ObjectDBX Classes
 90
     4095
280
     0
281
     0
  0
CLASS
  1
MLEADERSTYLE
  2
AcDbMLeaderStyle
  3
ACDB_MLEADERSTYLE_CLASS
 90
     4095
280
     0
281
     0
  0
CLASS
  1
SUN
  2
AcDbSun
  3
SCENEOE
 90
     1153
280
     0
281
     0
  0
CLASS
  1
ACDBPLACEHOLDER
  2
AcDbPlaceHolder
  3
ObjectDBX Classes
 90
        0
280
     0
281
     0
  0
CLASS
  1
LAYOUT
  2
AcDbLayout
  3
ObjectDBX Classes
 90
        0
280
     0
281
     0
  0
ENDSEC
  0
SECTION
  2
TABLES
  0
TABLE
  2
VPORT
  5
8
330
0
100
AcDbSymbolTable
 70
     1
  0
VPORT
  5
29
330
8
100
AcDbSymbolTableRecord
100
AcDbViewportTableRecord
  2
*Active
 70
     0
 10
0.0
 20
0.0
 11
1.0
 21
1.0
 12
297.0
 22
420.5
 13
0.0
 23
0.0
 14
10.0
 24
10.0
 15
10.0
 25
10.0
 16
0.0
 26
0.0
 36
1.0
 17
0.0
 27
0.0
 37
0.0
 40
841.0
 41
0.7063020214
 42
50.0
 43
0.0
 44
0.0
 50
0.0
 51
0.0
 71
     0
 72
  2000
 73
     1
 74
     3
 75
     0
 76
     0
 77
     0
 78
     0
281
     0
 65
     1
110
0.0
120
0.0
130
0.0
111
1.0
121
0.0
131
0.0
112
0.0
122
1.0
132
0.0
 79
     0
146
0.0
  0
ENDTAB
  0
TABLE
  2
LTYPE
  5
5
330
0
100
AcDbSymbolTable
 70
     6
  0
LTYPE
  5
14
330
5
100
AcDbSymbolTableRecord
100
AcDbLinetypeTableRecord
  2
ByBlock
 70
     0
  3

 72
    65
 73
     0
 40
0.0
  0
LTYPE
  5
15
330
5
100
AcDbSymbolTableRecord
100
AcDbLinetypeTableRecord
  2
ByLayer
 70
     0
  3

 72
    65
 73
     0
 40
0.0
  0
LTYPE
  5
16
330
5
100
AcDbSymbolTableRecord
100
AcDbLinetypeTableRecord
  2
Continuous
 70
     0
  3
Solid line
 72
    65
 73
     0
 40
0.0
  0
LTYPE
  5
6E
330
5
100
AcDbSymbolTableRecord
100
AcDbLinetypeTableRecord
  2
HIDDEN
 70
     0
  3
Hidden __ __ __ __ __ __ __ __ __ __ __ __ __ __
 72
    65
 73
     2
 40
1.905
 49
1.27
 74
     0
 49
-0.635
 74
     0
  0
LTYPE
  5
6F
330
5
100
AcDbSymbolTableRecord
100
AcDbLinetypeTableRecord
  2
PHANTOM
 70
     0
  3
Phantom ______  __  __  ______  __  __  ______
 72
    65
 73
     6
 40
12.7
 49
6.35
 74
     0
 49
-1.27
 74
     0
 49
1.27
 74
     0
 49
-1.27
 74
     0
 49
1.27
 74
     0
 49
-1.27
 74
     0
  0
LTYPE
  5
70
330
5
100
AcDbSymbolTableRecord
100
AcDbLinetypeTableRecord
  2
CENTER
 70
     0
  3
Center ____ _ ____ _ ____ _ ____ _ ____ _ ____
 72
    65
 73
     4
 40
10.16
 49
6.35
 74
     0
 49
-1.27
 74
     0
 49
1.27
 74
     0
 49
-1.27
 74
     0
  0
LTYPE
  5
71
330
5
100
AcDbSymbolTableRecord
100
AcDbLinetypeTableRecord
  2
CENTERX2
 70
     0
  3
Center (2x) ________  __  ________  __  _____
 72
    65
 73
     4
 40
20.32
 49
12.7
 74
     0
 49
-2.54
 74
     0
 49
2.54
 74
     0
 49
-2.54
 74
     0
  0
LTYPE
  5
72
330
5
100
AcDbSymbolTableRecord
100
AcDbLinetypeTableRecord
  2
DOT2
 70
     0
  3
Dot (.5x) ........................................
 72
    65
 73
     2
 40
0.635
 49
0.0
 74
     0
 49
-0.635
 74
     0
  0
ENDTAB
  0
TABLE
  2
LAYER
  5
2
330
0
100
AcDbSymbolTable
 70
     1
  0
LAYER
  5
10
330
2
100
AcDbSymbolTableRecord
100
AcDbLayerTableRecord
  2
0
 70
     0
 62
     7
  6
Continuous
370
    -3
390
F
  0
ENDTAB
  0
TABLE
  2
STYLE
  5
3
330
0
100
AcDbSymbolTable
 70
     3
  0
STYLE
  5
11
330
3
100
AcDbSymbolTableRecord
100
AcDbTextStyleTableRecord
  2
Standard
 70
     0
 40
0.0
 41
1.0
 50
0.0
 71
     0
 42
10.0
  3
txt
  4

  0
STYLE
  5
76
330
3
100
AcDbSymbolTableRecord
100
AcDbTextStyleTableRecord
  2
SLDTEXTSTYLE0
 70
     0
 40
0.0
 41
0.96
 50
0.0
 71
     0
 42
10.0
  3
ISOCP3
  4

  0
STYLE
  5
8D
330
3
100
AcDbSymbolTableRecord
100
AcDbTextStyleTableRecord
  2
SLDTEXTSTYLE1
 70
     0
 40
0.0
 41
0.605
 50
0.0
 71
     0
 42
10.0
  3
TXT
  4

  0
ENDTAB
  0
TABLE
  2
VIEW
  5
6
330
0
100
AcDbSymbolTable
 70
     0
  0
ENDTAB
  0
TABLE
  2
UCS
  5
7
330
0
100
AcDbSymbolTable
 70
     0
  0
ENDTAB
  0
TABLE
  2
APPID
  5
9
330
0
100
AcDbSymbolTable
 70
     1
  0
APPID
  5
12
330
9
100
AcDbSymbolTableRecord
100
AcDbRegAppTableRecord
  2
ACAD
 70
     0
  0
ENDTAB
  0
TABLE
  2
DIMSTYLE
  5
A
330
0
100
AcDbSymbolTable
 70
     2
100
AcDbDimStyleTable
  0
DIMSTYLE
105
27
330
A
100
AcDbSymbolTableRecord
100
AcDbDimStyleTableRecord
  2
ISO-25
 70
     0
 41
2.5
 42
0.625
 43
3.75
 44
1.25
 73
     0
 74
     0
 77
     1
 78
     8
140
2.5
141
2.5
143
0.0393700787
147
0.625
171
     3
172
     1
178
     0
271
     2
272
     2
274
     3
278
    44
283
     0
284
     8
340
11
  0
DIMSTYLE
105
77
102
{ACAD_REACTORS
330
75
330
82
102
}
330
A
100
AcDbSymbolTableRecord
100
AcDbDimStyleTableRecord
  2
SLDDIMSTYLE0
 70
     0
 41
2.5
 44
0.0
 45
0.000000001
 73
     0
 74
     0
 77
     1
 78
    12
 79
     3
140
6.0
147
1.5
173
     1
178
     0
271
     2
272
     2
276
     2
284
    12
340
76
  0
ENDTAB
  0
TABLE
  2
BLOCK_RECORD
  5
1
330
0
100
AcDbSymbolTable
 70
     3
  0
BLOCK_RECORD
  5
1F
330
1
100
AcDbSymbolTableRecord
100
AcDbBlockTableRecord
  2
*Model_Space
340
22
  0
BLOCK_RECORD
  5
1B
330
1
100
AcDbSymbolTableRecord
100
AcDbBlockTableRecord
  2
*Paper_Space
340
1E
  0
BLOCK_RECORD
  5
23
330
1
100
AcDbSymbolTableRecord
100
AcDbBlockTableRecord
  2
*Paper_Space0
340
26
  0
BLOCK_RECORD
  5
78
330
1
100
AcDbSymbolTableRecord
100
AcDbBlockTableRecord
  2
_D
340
0
  0
BLOCK_RECORD
  5
83
330
1
100
AcDbSymbolTableRecord
100
AcDbBlockTableRecord
  2
_D_1
340
0
  0
ENDTAB
  0
ENDSEC
  0
SECTION
  2
BLOCKS
  0
BLOCK
  5
20
330
1F
100
AcDbEntity
  8
0
100
AcDbBlockBegin
  2
*Model_Space
 70
     0
 10
0.0
 20
0.0
 30
0.0
  3
*Model_Space
  1

  0
ENDBLK
  5
21
330
1F
100
AcDbEntity
  8
0
100
AcDbBlockEnd
  0
BLOCK
  5
1C
330
1B
100
AcDbEntity
 67
     1
  8
0
100
AcDbBlockBegin
  2
*Paper_Space
 70
     0
 10
0.0
 20
0.0
 30
0.0
  3
*Paper_Space
  1

  0
ENDBLK
  5
1D
330
1B
100
AcDbEntity
 67
     1
  8
0
100
AcDbBlockEnd
  0
BLOCK
  5
24
330
23
100
AcDbEntity
  8
0
100
AcDbBlockBegin
  2
*Paper_Space0
 70
     0
 10
0.0
 20
0.0
 30
0.0
  3
*Paper_Space0
  1

  0
ENDBLK
  5
25
330
23
100
AcDbEntity
  8
0
100
AcDbBlockEnd
  0
BLOCK
  5
79
330
78
100
AcDbEntity
  8
0
100
AcDbBlockBegin
  2
_D
 70
     0
 10
0.0
 20
0.0
 30
0.0
  3
_D
  1

  0
SOLID
  5
7B
330
78
100
AcDbEntity
  8
0
  6
Continuous
 62
     7
370
    18
100
AcDbTrace
 10
42.7614395004
 20
152.0299240879
 30
0.0
 11
42.4614395004
 21
149.5299240879
 31
0.0
 12
43.0614395004
 22
149.5299240879
 32
0.0
 13
43.0614395004
 23
149.5299240879
 33
0.0
  0
SOLID
  5
7C
330
78
100
AcDbEntity
  8
0
  6
Continuous
 62
     7
370
    18
100
AcDbTrace
 10
42.7614395004
 20
52.0299240879
 30
0.0
 11
43.0614395004
 21
54.5299240879
 31
0.0
 12
42.4614395004
 22
54.5299240879
 32
0.0
 13
42.4614395004
 23
54.5299240879
 33
0.0
  0
LINE
  5
7D
330
78
100
AcDbEntity
  8
0
  6
Continuous
 62
     7
370
    18
100
AcDbLine
 10
56.6850079902
 20
152.0299240879
 30
0.0
 11
41.7614395004
 21
152.0299240879
 31
0.0
  0
LINE
  5
7E
330
78
100
AcDbEntity
  8
0
  6
Continuous
 62
     7
370
    18
100
AcDbLine
 10
56.6850079902
 20
52.0299240879
 30
0.0
 11
41.7614395004
 21
52.0299240879
 31
0.0
  0
LINE
  5
7F
330
78
100
AcDbEntity
  8
0
  6
Continuous
 62
     7
370
    18
100
AcDbLine
 10
42.7614395004
 20
152.0299240879
 30
0.0
 11
42.7614395004
 21
52.0299240879
 31
0.0
  0
MTEXT
  5
80
330
78
100
AcDbEntity
  8
0
  6
Continuous
 62
     7
370
    18
100
AcDbMText
 10
35.0270332946
 20
94.3680541463
 30
0.0
 40
6.0
 41
0.0
 71
     1
 72
     1
  1
100
  7
SLDTEXTSTYLE0
 11
-7.044195017643634E-15
 21
1.0
 31
0.0
 73
     1
 44
1.0
  0
MTEXT
  5
81
330
78
100
AcDbEntity
  8
0
  6
Continuous
 62
     7
370
    18
100
AcDbMText
 10
35.0270332946
 20
105.7430548466
 30
0.0
 40
6.0
 41
0.0
 71
     1
 72
     1
  1
mm
  7
SLDTEXTSTYLE0
 11
-7.044195017643634E-15
 21
1.0
 31
0.0
 73
     1
 44
1.0
  0
ENDBLK
  5
7A
330
78
100
AcDbEntity
  8
0
100
AcDbBlockEnd
  0
BLOCK
  5
84
330
83
100
AcDbEntity
  8
0
100
AcDbBlockBegin
  2
_D_1
 70
     0
 10
0.0
 20
0.0
 30
0.0
  3
_D_1
  1

  0
SOLID
  5
86
330
83
100
AcDbEntity
  8
0
  6
Continuous
 62
     7
370
    18
100
AcDbTrace
 10
56.6850079902
 20
38.4602342313
 30
0.0
 11
59.1850079902
 21
38.1602342313
 31
0.0
 12
59.1850079902
 22
38.7602342313
 32
0.0
 13
59.1850079902
 23
38.7602342313
 33
0.0
  0
SOLID
  5
87
330
83
100
AcDbEntity
  8
0
  6
Continuous
 62
     7
370
    18
100
AcDbTrace
 10
156.6850079902
 20
38.4602342313
 30
0.0
 11
154.1850079902
 21
38.7602342313
 31
0.0
 12
154.1850079902
 22
38.1602342313
 32
0.0
 13
154.1850079902
 23
38.1602342313
 33
0.0
  0
LINE
  5
88
330
83
100
AcDbEntity
  8
0
  6
Continuous
 62
     7
370
    18
100
AcDbLine
 10
56.6850079902
 20
52.0299240879
 30
0.0
 11
56.6850079902
 21
37.4602342313
 31
0.0
  0
LINE
  5
89
330
83
100
AcDbEntity
  8
0
  6
Continuous
 62
     7
370
    18
100
AcDbLine
 10
156.6850079902
 20
52.0299240879
 30
0.0
 11
156.6850079902
 21
37.4602342313
 31
0.0
  0
LINE
  5
8A
330
83
100
AcDbEntity
  8
0
  6
Continuous
 62
     7
370
    18
100
AcDbLine
 10
56.6850079902
 20
38.4602342313
 30
0.0
 11
156.6850079902
 21
38.4602342313
 31
0.0
  0
MTEXT
  5
8B
330
83
100
AcDbEntity
  8
0
  6
Continuous
 62
     7
370
    18
100
AcDbMText
 10
93.9626484861
 20
46.1946404371
 30
0.0
 40
6.0
 41
0.0
 71
     1
 72
     1
  1
100
  7
SLDTEXTSTYLE0
 73
     1
 44
1.0
  0
MTEXT
  5
8C
330
83
100
AcDbEntity
  8
0
  6
Continuous
 62
     7
370
    18
100
AcDbMText
 10
105.3376491864
 20
46.1946404371
 30
0.0
 40
6.0
 41
0.0
 71
     1
 72
     1
  1
mm
  7
SLDTEXTSTYLE0
 73
     1
 44
1.0
  0
ENDBLK
  5
85
330
83
100
AcDbEntity
  8
0
100
AcDbBlockEnd
  0
ENDSEC
  0
SECTION
  2
ENTITIES
  0
LINE
  5
73
330
1F
100
AcDbEntity
  8
0
  6
Continuous
 62
     7
370
    18
100
AcDbLine
 10
56.6850079902
 20
152.0299240879
 30
0.0
 11
56.6850079902
 21
52.0299240879
 31
0.0
  0
LINE
  5
74
330
1F
100
AcDbEntity
  8
0
  6
Continuous
 62
     7
370
    18
100
AcDbLine
 10
56.6850079902
 20
52.0299240879
 30
0.0
 11
156.6850079902
 21
52.0299240879
 31
0.0
  0
DIMENSION
  5
75
330
1F
100
AcDbEntity
  8
0
  6
Continuous
 62
     7
370
    18
100
AcDbDimension
  2
_D
 10
42.7614395004
 20
52.0299240879
 30
0.0
 11
42.7614395004
 21
105.4472211621
 31
0.0
 70
   160
  1
<>mm
 71
     2
 42
-1.0
  3
SLDDIMSTYLE0
100
AcDbAlignedDimension
 13
56.6850079902
 23
152.0299240879
 33
0.0
 14
56.6850079902
 24
52.0299240879
 34
0.0
 50
90.0
100
AcDbRotatedDimension
  0
DIMENSION
  5
82
330
1F
100
AcDbEntity
  8
0
  6
Continuous
 62
     7
370
    18
100
AcDbDimension
  2
_D_1
 10
156.6850079902
 20
38.4602342313
 30
0.0
 11
105.0418155019
 21
38.4602342313
 31
0.0
 70
   160
  1
<>mm
 71
     2
 42
-1.0
  3
SLDDIMSTYLE0
100
AcDbAlignedDimension
 13
56.6850079902
 23
52.0299240879
 33
0.0
 14
156.6850079902
 24
52.0299240879
 34
0.0
100
AcDbRotatedDimension
  0
MTEXT
  5
8E
330
1F
100
AcDbEntity
  8
0
  6
Continuous
 62
     7
370
     0
100
AcDbMText
 10
412.8252631579
 20
48.4342449499
 30
0.0
 40
10.0
 41
0.0
 71
     1
 72
     1
  1
KLUDI GmbH & Co KG
  7
SLDTEXTSTYLE1
 73
     1
 44
1.0
  0
MTEXT
  5
8F
330
1F
100
AcDbEntity
  8
0
  6
Continuous
 62
     7
370
     0
100
AcDbMText
 10
210.0873490389
 20
48.4342449499
 30
0.0
 40
10.0
 41
0.0
 71
     1
 72
     1
  1
65 551
  7
SLDTEXTSTYLE1
 73
     1
 44
1.0
  0
LINE
  5
90
330
1F
100
AcDbEntity
  8
0
  6
Continuous
 62
     7
370
    25
100
AcDbLine
 10
189.5593785563
 20
355.9468239756
 30
0.0
 11
189.4851845106
 21
355.9471816034
 31
0.0
  0
ARC
  5
91
330
1F
100
AcDbEntity
  8
0
  6
Continuous
 62
     7
370
    25
100
AcDbCircle
 10
-773.4224375445
 20
328.8525641026
 30
0.0
 40
999.9911963035137
100
AcDbArc
 50
359.0868371572
 51
0.0
  0
ARC
  5
92
330
1F
100
AcDbEntity
  8
0
  6
Continuous
 62
     7
370
    25
100
AcDbCircle
 10
-773.4224375445
 20
328.8525641026
 30
0.0
 40
999.9911963035137
100
AcDbArc
 50
0.0
 51
0.9131628428
  0
SPLINE
  5
93
330
1F
100
AcDbEntity
  8
0
  6
Continuous
 62
     7
370
    25
100
AcDbSpline
210
0.0
220
0.0
230
1.0
 70
     8
 71
     3
 72
    20
 73
    16
 74
     0
 42
0.000000001
 43
0.00000001
 40
0.0
 40
0.0
 40
0.0
 40
0.0
 40
0.25
 40
0.25
 40
0.5
 40
0.5
 40
0.625
 40
0.625
 40
0.75
 40
0.75
 40
0.875
 40
0.875
 40
0.9375
 40
0.9375
 40
1.0
 40
1.0
 40
1.0
 40
1.0
 10
189.9477480004913
 20
355.4601415670362
 30
0.0
 10
189.9628994558077
 20
350.9601848055398
 30
0.0
 10
189.9785779326436
 20
346.461298131856
 30
0.0
 10
190.0115968360928
 20
337.4668992808542
 30
0.0
 10
190.0289106791242
 20
332.9713331270552
 30
0.0
 10
190.0570987124781
 20
326.2324859370511
 30
0.0
 10
190.0668703382104
 20
323.9869662049161
 30
0.0
 10
190.087529813585
 20
319.4981931710632
 30
0.0
 10
190.0984058320371
 20
317.2548421724638
 30
0.0
 10
190.1219899389576
 20
312.7721614953754
 30
0.0
 10
190.134637619165
 20
310.5337759432305
 30
0.0
 10
190.1563618906862
 20
307.1857038534081
 30
0.0
 10
190.1640678304154
 20
306.0712839636313
 30
0.0
 10
190.1811040165758
 20
303.8480534983812
 30
0.0
 10
190.1903746370848
 20
302.7377605119983
 30
0.0
 10
190.2014141981845
 20
301.6371643375443
 30
0.0
  0
SPLINE
  5
94
330
1F
100
AcDbEntity
  8
0
  6
Continuous
 62
     7
370
    25
100
AcDbSpline
210
0.0
220
0.0
230
1.0
 70
     8
 71
     3
 72
    20
 73
    16
 74
     0
 42
0.000000001
 43
0.00000001
 40
0.0
 40
0.0
 40
0.0
 40
0.0
 40
0.0624999999999999
 40
0.0624999999999999
 40
0.1249999999999998
 40
0.1249999999999998
 40
0.2499999999999998
 40
0.2499999999999998
 40
0.3749999999999997
 40
0.3749999999999997
 40
0.4999999999999998
 40
0.4999999999999998
 40
0.7499999999999998
 40
0.7499999999999998
 40
1.0
 40
1.0
 40
1.0
 40
1.0
 10
207.1973176802667
 20
301.6371643376765
 30
0.0
 10
207.2083576521237
 20
302.737801462852
 30
0.0
 10
207.2176342061361
 20
303.8488223698362
 30
0.0
 10
207.2346710977036
 20
306.0722630530568
 30
0.0
 10
207.2423763175192
 20
307.186642097611
 30
0.0
 10
207.2640974253397
 20
310.5343384788376
 30
0.0
 10
207.2767416119687
 20
312.7721403580956
 30
0.0
 10
207.3003183593999
 20
317.2533399839389
 30
0.0
 10
207.3111973392392
 20
319.497191132811
 30
0.0
 10
207.3318601219524
 20
323.9866333361759
 30
0.0
 10
207.3416327852336
 20
326.2323926552192
 30
0.0
 10
207.3698229920807
 20
332.9717662362088
 30
0.0
 10
207.3871370566956
 20
337.4674309607228
 30
0.0
 10
207.4201555472861
 20
346.4617514081512
 30
0.0
 10
207.4358333378625
 20
350.9604566244328
 30
0.0
 10
207.4509838779585
 20
355.4601415670361
 30
0.0
  0
SPLINE
  5
95
330
1F
100
AcDbEntity
  8
0
  6
Continuous
 62
     7
370
    25
100
AcDbSpline
210
0.0
220
0.0
230
1.0
 70
     8
 71
     3
 72
    26
 73
    22
 74
     0
 42
0.000000001
 43
0.00000001
 40
0.0
 40
0.0
 40
0.0
 40
0.0
 40
0.1250000000000001
 40
0.1250000000000001
 40
0.2500000000000001
 40
0.2500000000000001
 40
0.3125000000000001
 40
0.3125000000000001
 40
0.3750000000000002
 40
0.3750000000000002
 40
0.4999999999999996
 40
0.4999999999999996
 40
0.624999999999999
 40
0.624999999999999
 40
0.7499999999999987
 40
0.7499999999999987
 40
0.812499999999999
 40
0.812499999999999
 40
0.8749999999999993
 40
0.8749999999999993
 40
1.0
 40
1.0
 40
1.0
 40
1.0
 10
182.7624839582315
 20
356.5948794739027
 30
0.0
 10
181.9876749568139
 20
356.5825202317777
 30
0.0
 10
181.2203903278622
 20
356.495774682066
 30
0.0
 10
179.7052783817875
 20
356.1742677706951
 30
0.0
 10
178.9752310211113
 20
355.9434321263143
 30
0.0
 10
177.9198130656981
 20
355.4961566601249
 30
0.0
 10
177.5746627876181
 20
355.3301084568457
 30
0.0
 10
176.8979640221346
 20
354.9633595113563
 30
0.0
 10
176.565299904769
 20
354.7617088600212
 30
0.0
 10
175.6085091381748
 20
354.1166664743886
 30
0.0
 10
175.0188516453959
 20
353.6307153753159
 30
0.0
 10
173.9347026282156
 20
352.5484061611518
 30
0.0
 10
173.4375320314623
 20
351.9460043951609
 30
0.0
 10
172.5805568765325
 20
350.6764096705809
 30
0.0
 10
172.2152220947372
 20
350.0052856688004
 30
0.0
 10
171.7632557566308
 20
348.9433581031207
 30
0.0
 10
171.6284499544738
 20
348.5789295230528
 30
0.0
 10
171.3957388581671
 20
347.841709542311
 30
0.0
 10
171.2972993798948
 20
347.4679519356601
 30
0.0
 10
171.0560754000909
 20
346.3311367842064
 30
0.0
 10
170.9694098198075
 20
345.5642556991638
 30
0.0
 10
170.9570505678854
 20
344.7894460835566
 30
0.0
  0
SPLINE
  5
96
330
1F
100
AcDbEntity
  8
0
  6
Continuous
 62
     7
370
    25
100
AcDbSpline
210
0.0
220
0.0
230
1.0
 70
     8
 71
     3
 72
    26
 73
    22
 74
     0
 42
0.000000001
 43
0.00000001
 40
0.0
 40
0.0
 40
0.0
 40
0.0
 40
0.1250000000000015
 40
0.1250000000000015
 40
0.250000000000003
 40
0.250000000000003
 40
0.312500000000003
 40
0.312500000000003
 40
0.3750000000000031
 40
0.3750000000000031
 40
0.5000000000000021
 40
0.5000000000000021
 40
0.6250000000000011
 40
0.6250000000000011
 40
0.7500000000000002
 40
0.7500000000000002
 40
0.8125000000000002
 40
0.8125000000000002
 40
0.8750000000000001
 40
0.8750000000000001
 40
1.0
 40
1.0
 40
1.0
 40
1.0
 10
226.4416813105645
 20
344.7894460835565
 30
0.0
 10
226.4293220684395
 20
345.5642550849742
 30
0.0
 10
226.3425765187278
 20
346.3315397139258
 30
0.0
 10
226.0210696073568
 20
347.8466516600005
 30
0.0
 10
225.7902339629761
 20
348.5766990206768
 30
0.0
 10
225.3429584967867
 20
349.63211697609
 30
0.0
 10
225.1769102935075
 20
349.9772672541699
 30
0.0
 10
224.8101613480181
 20
350.6539660196535
 30
0.0
 10
224.6085106966831
 20
350.9866301370191
 30
0.0
 10
223.9634683110504
 20
351.9434209036133
 30
0.0
 10
223.4775172119778
 20
352.5330783963922
 30
0.0
 10
222.3952079978137
 20
353.6172274135725
 30
0.0
 10
221.7928062318228
 20
354.1143980103258
 30
0.0
 10
220.5232115072427
 20
354.9713731652557
 30
0.0
 10
219.8520875054622
 20
355.3367079470509
 30
0.0
 10
218.7901599397825
 20
355.7886742851573
 30
0.0
 10
218.4257313597146
 20
355.9234800873144
 30
0.0
 10
217.6885113789729
 20
356.156191183621
 30
0.0
 10
217.3147537723219
 20
356.2546306618933
 30
0.0
 10
216.1779386208682
 20
356.4958546416972
 30
0.0
 10
215.4110575358256
 20
356.5825202219806
 30
0.0
 10
214.6362479202184
 20
356.5948794739028
 30
0.0
  0
SPLINE
  5
97
330
1F
100
AcDbEntity
  8
0
  6
Continuous
 62
     7
370
    25
100
AcDbSpline
210
0.0
220
0.0
230
1.0
 70
     8
 71
     3
 72
    26
 73
    22
 74
     0
 42
0.000000001
 43
0.00000001
 40
0.0
 40
0.0
 40
0.0
 40
0.0
 40
0.1249999999999998
 40
0.1249999999999998
 40
0.2499999999999995
 40
0.2499999999999995
 40
0.3124999999999995
 40
0.3124999999999995
 40
0.3749999999999994
 40
0.3749999999999994
 40
0.4999999999999997
 40
0.4999999999999997
 40
0.6249999999999999
 40
0.6249999999999999
 40
0.75
 40
0.75
 40
0.8125
 40
0.8125
 40
0.875
 40
0.875
 40
1.0
 40
1.0
 40
1.0
 40
1.0
 10
170.9570505678854
 20
312.9156821215698
 30
0.0
 10
170.9694098100104
 20
312.1408731201522
 30
0.0
 10
171.0561553597221
 20
311.3735884912005
 30
0.0
 10
171.377662271093
 20
309.8584765451258
 30
0.0
 10
171.6084979154738
 20
309.1284291844496
 30
0.0
 10
172.0557733816632
 20
308.0730112290364
 30
0.0
 10
172.2218215849425
 20
307.7278609509564
 30
0.0
 10
172.5885705304318
 20
307.0511621854728
 30
0.0
 10
172.7902211817669
 20
306.7184980681072
 30
0.0
 10
173.4352635673995
 20
305.761707301513
 30
0.0
 10
173.9212146664722
 20
305.1720498087342
 30
0.0
 10
175.0035238806363
 20
304.0879007915539
 30
0.0
 10
175.6059256466271
 20
303.5907301948005
 30
0.0
 10
176.8755203712072
 20
302.7337550398706
 30
0.0
 10
177.5466443729878
 20
302.3684202580756
 30
0.0
 10
178.6085719386675
 20
301.9164539199691
 30
0.0
 10
178.9730005187354
 20
301.781648117812
 30
0.0
 10
179.7102204994771
 20
301.5489370215054
 30
0.0
 10
180.0839781061281
 20
301.450497543233
 30
0.0
 10
181.2207932575818
 20
301.2092735634292
 30
0.0
 10
181.9876743426243
 20
301.1226079831457
 30
0.0
 10
182.7624839582315
 20
301.1102487312236
 30
0.0
  0
SPLINE
  5
98
330
1F
100
AcDbEntity
  8
0
  6
Continuous
 62
     7
370
    25
100
AcDbSpline
210
0.0
220
0.0
230
1.0
 70
     8
 71
     3
 72
    26
 73
    22
 74
     0
 42
0.000000001
 43
0.00000001
 40
0.0
 40
0.0
 40
0.0
 40
0.0
 40
0.1249999999999999
 40
0.1249999999999999
 40
0.2499999999999999
 40
0.2499999999999999
 40
0.3125000000000001
 40
0.3125000000000001
 40
0.3750000000000003
 40
0.3750000000000003
 40
0.5000000000000004
 40
0.5000000000000004
 40
0.6250000000000006
 40
0.6250000000000006
 40
0.7500000000000007
 40
0.7500000000000007
 40
0.8125000000000004
 40
0.8125000000000004
 40
0.8750000000000002
 40
0.8750000000000002
 40
1.0
 40
1.0
 40
1.0
 40
1.0
 10
214.6362479202184
 20
301.1102487312236
 30
0.0
 10
215.411056921636
 20
301.1226079733486
 30
0.0
 10
216.1783415505877
 20
301.2093535230604
 30
0.0
 10
217.6934534966623
 20
301.5308604344314
 30
0.0
 10
218.4235008573386
 20
301.7616960788121
 30
0.0
 10
219.4789188127518
 20
302.2089715450015
 30
0.0
 10
219.8240690908318
 20
302.3750197482808
 30
0.0
 10
220.5007678563153
 20
302.74176869377
 30
0.0
 10
220.8334319736809
 20
302.9434193451051
 30
0.0
 10
221.7902227402751
 20
303.5884617307378
 30
0.0
 10
222.379880233054
 20
304.0744128298104
 30
0.0
 10
223.4640292502342
 20
305.1567220439745
 30
0.0
 10
223.9611998469877
 20
305.7591238099654
 30
0.0
 10
224.8181750019175
 20
307.0287185345454
 30
0.0
 10
225.1835097837126
 20
307.699842536326
 30
0.0
 10
225.6354761218191
 20
308.7617701020057
 30
0.0
 10
225.7702819239762
 20
309.1261986820736
 30
0.0
 10
226.0029930202828
 20
309.8634186628154
 30
0.0
 10
226.1014324985551
 20
310.2371762694663
 30
0.0
 10
226.3426564783589
 20
311.37399142092
 30
0.0
 10
226.4293220586424
 20
312.1408725059626
 30
0.0
 10
226.4416813105645
 20
312.9156821215697
 30
0.0
  0
ARC
  5
99
330
1F
100
AcDbEntity
  8
0
  6
Continuous
 62
     7
370
    25
100
AcDbCircle
 10
1170.8211694229
 20
328.8525641026
 30
0.0
 40
999.9911201510921
100
AcDbArc
 50
179.0868371572
 51
180.9131628428
  0
ARC
  5
9A
330
1F
100
AcDbEntity
  8
0
  6
Continuous
 62
     7
370
    25
100
AcDbCircle
 10
198.6993659392
 20
1300.9743675863
 30
0.0
 40
999.9911201510922
100
AcDbArc
 50
269.0868371572
 51
270.9131628428
  0
SPLINE
  5
9B
330
1F
100
AcDbEntity
  8
0
  6
Continuous
 62
     7
370
    25
100
AcDbSpline
210
0.0
220
0.0
230
1.0
 70
     8
 71
     3
 72
    53
 73
    49
 74
     0
 42
0.000000001
 43
0.00000001
 40
0.0
 40
0.0
 40
0.0
 40
0.0
 40
0.0312499999999999
 40
0.0312499999999999
 40
0.0624999999999998
 40
0.0624999999999998
 40
0.1249999999999996
 40
0.1249999999999996
 40
0.1874999999999993
 40
0.1874999999999993
 40
0.2499999999999991
 40
0.2499999999999991
 40
0.3124999999999989
 40
0.3124999999999989
 40
0.3749999999999988
 40
0.3749999999999988
 40
0.4062499999999987
 40
0.4062499999999987
 40
0.4374999999999987
 40
0.4374999999999987
 40
0.4999999999999988
 40
0.4999999999999988
 40
0.5312499999999989
 40
0.5312499999999989
 40
0.562499999999999
 40
0.562499999999999
 40
0.5937499999999991
 40
0.5937499999999991
 40
0.6249999999999992
 40
0.6249999999999992
 40
0.6874999999999993
 40
0.6874999999999993
 40
0.7187499999999994
 40
0.7187499999999994
 40
0.7499999999999996
 40
0.7812499999999997
 40
0.7812499999999997
 40
0.8124999999999998
 40
0.8124999999999998
 40
0.8437499999999999
 40
0.8437499999999999
 40
0.875
 40
0.875
 40
0.9375000000000001
 40
0.9375000000000001
 40
0.9687500000000001
 40
0.9687500000000001
 40
1.0
 40
1.0
 40
1.0
 40
1.0
 10
207.197317680265
 20
301.6371643376298
 30
0.0
 10
207.2555045430939
 20
301.6322458793386
 30
0.0
 10
207.2970832979929
 20
301.6270910993241
 30
0.0
 10
207.3450028356044
 20
301.6164194453048
 30
0.0
 10
207.3512649596981
 20
301.6109556412989
 30
0.0
 10
207.3186683294484
 20
301.5941897056887
 30
0.0
 10
207.2286927673737
 20
301.5824852909882
 30
0.0
 10
206.9084092701056
 20
301.5582554438715
 30
0.0
 10
206.6836490278287
 20
301.546130320765
 30
0.0
 10
206.1092937674561
 20
301.5221173992415
 30
0.0
 10
205.7546746292278
 20
301.5101245878422
 30
0.0
 10
204.9491561847643
 20
301.4878295199126
 30
0.0
 10
204.4965910458147
 20
301.4774042080787
 30
0.0
 10
203.4885437125161
 20
301.4584453129715
 30
0.0
 10
202.9483661181298
 20
301.4502154011299
 30
0.0
 10
202.0932658684101
 20
301.4400517038882
 30
0.0
 10
201.8002966582084
 20
301.4370220887127
 30
0.0
 10
201.1979754915859
 20
301.4317374153934
 30
0.0
 10
200.8909825784546
 20
301.4295079670425
 30
0.0
 10
199.9668195258675
 20
301.4241665905193
 30
0.0
 10
199.3409461137352
 20
301.4223399460676
 30
0.0
 10
198.3871673915654
 20
301.4223234544454
 30
0.0
 10
198.0680224320674
 20
301.4227808644498
 30
0.0
 10
197.4401158955199
 20
301.4245799303276
 30
0.0
 10
197.1295079467627
 20
301.4259207043139
 30
0.0
 10
196.5149166015125
 20
301.4294603626112
 30
0.0
 10
196.2109328805129
 20
301.4316592554983
 30
0.0
 10
195.6097646447793
 20
301.4369119501093
 30
0.0
 10
195.3129076291314
 20
301.4399700737498
 30
0.0
 10
194.4544830789583
 20
301.450153045338
 30
0.0
 10
193.9170826060976
 20
301.4583382201563
 30
0.0
 10
193.1638716040584
 20
301.4724707011094
 30
0.0
 10
192.921412231346
 20
301.4775064839815
 30
0.0
 10
192.4662829618561
 20
301.487909765549
 30
0.0
 10
192.037723784373
 20
301.4987001393893
 30
0.0
 10
191.6614959816968
 20
301.5101566142013
 30
0.0
 10
191.3119811485194
 20
301.5219057206846
 30
0.0
 10
191.1502355842268
 20
301.5279470379028
 30
0.0
 10
190.8602783914417
 20
301.5400503237484
 30
0.0
 10
190.7312112030955
 20
301.546137287971
 30
0.0
 10
190.5049969789993
 20
301.5583448319126
 30
0.0
 10
190.4079603939063
 20
301.5644717254905
 30
0.0
 10
190.170319038502
 20
301.5824935574637
 30
0.0
 10
190.0800087933437
 20
301.5941526840977
 30
0.0
 10
190.0474035486384
 20
301.6110209637602
 30
0.0
 10
190.0541166986021
 20
301.6165580598504
 30
0.0
 10
190.1022009016294
 20
301.6271607800032
 30
0.0
 10
190.1433844929697
 20
301.632259163663
 30
0.0
 10
190.2014141981804
 20
301.6371643376294
 30
0.0
  0
ARC
  5
9C
330
1F
100
AcDbEntity
  8
0
  6
Continuous
 62
     7
370
    25
100
AcDbCircle
 10
198.6993659392
 20
-643.2692393811
 30
0.0
 40
999.9911201510921
100
AcDbArc
 50
89.0868371572
 51
90.9131628428
  0
SPLINE
  5
9D
330
1F
100
AcDbEntity
  8
0
  6
Continuous
 62
     7
370
    25
100
AcDbSpline
210
0.0
220
0.0
230
1.0
 70
     8
 71
     3
 72
     8
 73
     4
 74
     0
 42
0.000000001
 43
0.00000001
 40
0.0
 40
0.0
 40
0.0
 40
0.0
 40
0.0000212564719424
 40
0.0000212564719424
 40
0.0000212564719424
 40
0.0000212564719424
 10
207.4509838779585
 20
355.4601415670361
 30
0.0
 10
207.4510076642058
 20
355.4672060423002
 30
0.0
 10
207.4511745807103
 20
355.4742864539896
 30
0.0
 10
207.4514848554685
 20
355.4813621083981
 30
0.0
  0
SPLINE
  5
9E
330
1F
100
AcDbEntity
  8
0
  6
Continuous
 62
     7
370
    25
100
AcDbSpline
210
0.0
220
0.0
230
1.0
 70
     8
 71
     3
 72
    17
 73
    13
 74
     0
 42
0.000000001
 43
0.00000001
 40
0.0
 40
0.0
 40
0.0
 40
0.0
 40
0.0745451704630815
 40
0.1530154380143992
 40
0.2352082863876027
 40
0.3207676510389411
 40
0.4092027778918192
 40
0.4999211663383143
 40
0.610559033992592
 40
0.7495804526288763
 40
0.9116127472336752
 40
1.0
 40
1.0
 40
1.0
 40
1.0
 10
207.4514848685881
 20
355.4813620988982
 30
0.0
 10
207.4530750803955
 20
355.5010871642186
 30
0.0
 10
207.4563392349309
 20
355.5415758973067
 30
0.0
 10
207.4711034426101
 20
355.6022368567423
 30
0.0
 10
207.4938011979959
 20
355.6630712080251
 30
0.0
 10
207.5254778011355
 20
355.7223095883891
 30
0.0
 10
207.5658547619227
 20
355.7780924943158
 30
0.0
 10
207.6178387396111
 20
355.8319167924945
 30
0.0
 10
207.6877118753897
 20
355.8845420790722
 30
0.0
 10
207.7819012163015
 20
355.9307004896602
 30
0.0
 10
207.8781696719822
 20
355.9545615267064
 30
0.0
 10
207.9413198206464
 20
355.9560538119023
 30
0.0
 10
207.9636090876418
 20
355.956580523935
 30
0.0
  0
SPLINE
  5
9F
330
1F
100
AcDbEntity
  8
0
  6
Continuous
 62
     7
370
    25
100
AcDbSpline
210
0.0
220
0.0
230
1.0
 70
     8
 71
     3
 72
    14
 73
    10
 74
     0
 42
0.000000001
 43
0.00000001
 40
0.0
 40
0.0
 40
0.0
 40
0.0
 40
0.0773729196773545
 40
0.2507038728631325
 40
0.3898322697505698
 40
0.5007297103180512
 40
0.679542826706311
 40
0.8470781180649918
 40
1.0
 40
1.0
 40
1.0
 40
1.0
 10
189.4351195058441
 20
355.9565796257526
 30
0.0
 10
189.4545979756363
 20
355.9562057718744
 30
0.0
 10
189.51771214833
 20
355.9549944098691
 30
0.0
 10
189.6143272645204
 20
355.9319645679186
 30
0.0
 10
189.7110231426429
 20
355.8845056978985
 30
0.0
 10
189.7990114863294
 20
355.8183727401886
 30
0.0
 10
189.8754157968572
 20
355.726828471898
 30
0.0
 10
189.93225717848
 20
355.6064444570478
 30
0.0
 10
189.9424025216786
 20
355.5217685712635
 30
0.0
 10
189.9472438705517
 20
355.4813613128597
 30
0.0
  0
SPLINE
  5
A0
330
1F
100
AcDbEntity
  8
0
  6
Continuous
 62
     7
370
    25
100
AcDbSpline
210
0.0
220
0.0
230
1.0
 70
     8
 71
     3
 72
     8
 73
     4
 74
     0
 42
0.000000001
 43
0.00000001
 40
0.0
 40
0.0
 40
0.0
 40
0.0
 40
0.0000212579143989
 40
0.0000212579143989
 40
0.0000212579143989
 40
0.0000212579143989
 10
189.9472469597885
 20
355.4813635495567
 30
0.0
 10
189.9475572750586
 20
355.4742874151763
 30
0.0
 10
189.9477242126317
 20
355.4672065216929
 30
0.0
 10
189.9477480004913
 20
355.4601415670362
 30
0.0
  0
SPLINE
  5
A1
330
1F
100
AcDbEntity
  8
0
  6
Continuous
 62
     8
370
    18
100
AcDbSpline
210
0.0
220
0.0
230
1.0
 70
     8
 71
     3
 72
    14
 73
    10
 74
     0
 42
0.000000001
 43
0.00000001
 40
0.0
 40
0.0
 40
0.0
 40
0.0
 40
0.25
 40
0.25
 40
0.5
 40
0.5
 40
0.75
 40
0.75
 40
1.0
 40
1.0
 40
1.0
 40
1.0
 10
189.1060848788831
 20
302.8592966274597
 30
0.0
 10
189.1013427303255
 20
307.1913397461273
 30
0.0
 10
189.0965205142758
 20
311.5233373829313
 30
0.0
 10
189.0885422054218
 20
320.1878100859415
 30
0.0
 10
189.0858834191258
 20
324.520228660972
 30
0.0
 10
189.0858836599583
 20
333.1855370279026
 30
0.0
 10
189.088542749311
 20
337.517995865273
 30
0.0
 10
189.0965208736247
 20
346.182084414116
 30
0.0
 10
189.1013428924376
 20
350.5139399967513
 30
0.0
 10
189.1060848924026
 20
354.8458315327553
 30
0.0
  0
ARC
  5
A2
330
1F
100
AcDbEntity
  8
0
  6
Continuous
 62
     8
370
    18
100
AcDbCircle
 10
189.2178893028
 20
346.6739116641
 30
0.0
 40
8.172686182419097
100
AcDbArc
 50
87.2779894148
 51
90.7838452422
  0
SPLINE
  5
A3
330
1F
100
AcDbEntity
  8
0
  6
Continuous
 62
     8
370
    18
100
AcDbSpline
210
0.0
220
0.0
230
1.0
 70
     8
 71
     3
 72
    14
 73
    10
 74
     0
 42
0.000000001
 43
0.00000001
 40
0.0
 40
0.0
 40
0.0
 40
0.0
 40
0.25
 40
0.25
 40
0.5
 40
0.5
 40
0.75
 40
0.75
 40
1.0
 40
1.0
 40
1.0
 40
1.0
 10
189.6060116466338
 20
354.8373762513217
 30
0.0
 10
189.602813970262
 20
350.506893044376
 30
0.0
 10
189.5994927538519
 20
346.1764458692988
 30
0.0
 10
189.5941407237478
 20
337.5151751583982
 30
0.0
 10
189.5924014831221
 20
333.1841262373144
 30
0.0
 10
189.5924013266431
 20
324.521638188239
 30
0.0
 10
189.5941403665471
 20
320.190629307705
 30
0.0
 10
189.5994925094514
 20
311.5289753619091
 30
0.0
 10
189.6028138495987
 20
307.1983864348479
 30
0.0
 10
189.6060116461928
 20
302.86775193138
 30
0.0
  0
ARC
  5
A4
330
1F
100
AcDbEntity
  8
0
  6
Continuous
 62
     8
370
    18
100
AcDbCircle
 10
189.2179006766
 20
311.032344402
 30
0.0
 40
8.173812201223528
100
AcDbArc
 50
269.2161830121
 51
272.7215555036
  0
SPLINE
  5
A5
330
1F
100
AcDbEntity
  8
0
  6
Continuous
 62
     8
370
    18
100
AcDbSpline
210
0.0
220
0.0
230
1.0
 70
     8
 71
     3
 72
    14
 73
    10
 74
     0
 42
0.000000001
 43
0.00000001
 40
0.0
 40
0.0
 40
0.0
 40
0.0
 40
0.25
 40
0.25
 40
0.5
 40
0.5
 40
0.75
 40
0.75
 40
1.0
 40
1.0
 40
1.0
 40
1.0
 10
207.7927202318144
 20
302.8677519538238
 30
0.0
 10
207.7959179081787
 20
307.1982351607713
 30
0.0
 10
207.7992391245876
 20
311.5286823358485
 30
0.0
 10
207.8045911546938
 20
320.1899530467477
 30
0.0
 10
207.8063303953226
 20
324.52100196783
 30
0.0
 10
207.8063305518072
 20
333.1834900169032
 30
0.0
 10
207.8045915119058
 20
337.5144988974366
 30
0.0
 10
207.7992393690037
 20
346.1761528432309
 30
0.0
 10
207.7959180288557
 20
350.5067417702905
 30
0.0
 10
207.792720232258
 20
354.8373762737559
 30
0.0
  0
ARC
  5
A6
330
1F
100
AcDbEntity
  8
0
  6
Continuous
 62
     8
370
    18
100
AcDbCircle
 10
208.1808430243
 20
346.6738711816
 30
0.0
 40
8.172726649305837
100
AcDbArc
 50
89.2161647077
 51
92.7220015378
  0
SPLINE
  5
A7
330
1F
100
AcDbEntity
  8
0
  6
Continuous
 62
     8
370
    18
100
AcDbSpline
210
0.0
220
0.0
230
1.0
 70
     8
 71
     3
 72
    14
 73
    10
 74
     0
 42
0.000000001
 43
0.00000001
 40
0.0
 40
0.0
 40
0.0
 40
0.0
 40
0.2500000000000001
 40
0.2500000000000001
 40
0.5000000000000001
 40
0.5000000000000001
 40
0.75
 40
0.75
 40
1.0
 40
1.0
 40
1.0
 40
1.0
 10
208.292646999568
 20
354.8458315776858
 30
0.0
 10
208.2973891481317
 20
350.5137884590217
 30
0.0
 10
208.3022113641828
 20
346.18179082222
 30
0.0
 10
208.3101896730347
 20
337.517318119213
 30
0.0
 10
208.3128484593271
 20
333.184899544184
 30
0.0
 10
208.3128482184873
 20
324.5195911772574
 30
0.0
 10
208.310189129131
 20
320.1871323398893
 30
0.0
 10
208.3022110048152
 20
311.5230437910493
 30
0.0
 10
208.2973889860044
 20
307.1911882084148
 30
0.0
 10
208.2926469860451
 20
302.8592966724099
 30
0.0
  0
ARC
  5
A8
330
1F
100
AcDbEntity
  8
0
  6
Continuous
 62
     8
370
    18
100
AcDbCircle
 10
208.1808316503
 20
311.0323848851
 30
0.0
 40
8.173852668732325
100
AcDbArc
 50
267.2784535416
 51
270.7838070404
  0
SPLINE
  5
A9
330
1F
100
AcDbEntity
  8
0
  6
Continuous
 62
     8
370
    18
100
AcDbSpline
210
0.0
220
0.0
230
1.0
 70
     8
 71
     3
 72
    26
 73
    22
 74
     0
 42
0.000000001
 43
0.00000001
 40
0.0
 40
0.0
 40
0.0
 40
0.0
 40
0.1250000000000001
 40
0.1250000000000001
 40
0.2500000000000002
 40
0.2500000000000002
 40
0.3124999999999999
 40
0.3124999999999999
 40
0.3749999999999997
 40
0.3749999999999997
 40
0.4999999999999993
 40
0.4999999999999993
 40
0.6249999999999989
 40
0.6249999999999989
 40
0.7499999999999983
 40
0.7499999999999983
 40
0.8124999999999989
 40
0.8124999999999989
 40
0.8749999999999993
 40
0.8749999999999993
 40
1.0
 40
1.0
 40
1.0
 40
1.0
 10
213.7921964639781
 20
355.7609565072277
 30
0.0
 10
214.5690515252886
 20
355.7492183584521
 30
0.0
 10
215.3381076836893
 20
355.6627407664581
 30
0.0
 10
216.8576137840521
 20
355.3408314705047
 30
0.0
 10
217.5896372337695
 20
355.1094109792535
 30
0.0
 10
218.6477285093802
 20
354.6607754872991
 30
0.0
 10
218.9937207227933
 20
354.4941920089956
 30
0.0
 10
219.672004203536
 20
354.1262084828937
 30
0.0
 10
220.0054362387708
 20
353.9238413162487
 30
0.0
 10
220.9643202052168
 20
353.2764386097667
 30
0.0
 10
221.5550707844897
 20
352.7886603571102
 30
0.0
 10
222.6408066387263
 20
351.7021934260381
 30
0.0
 10
223.138417754689
 20
351.0974779808966
 30
0.0
 10
223.9954405334989
 20
349.8231727203709
 30
0.0
 10
224.3604506294534
 20
349.1495647363528
 30
0.0
 10
224.8113377004035
 20
348.0836797425827
 30
0.0
 10
224.9457408945791
 20
347.7175247845863
 30
0.0
 10
225.176235551516
 20
346.9813315010059
 30
0.0
 10
225.273109330796
 20
346.609819688748
 30
0.0
 10
225.5097406013826
 20
345.4852488387735
 30
0.0
 10
225.596020196501
 20
344.7222496125105
 30
0.0
 10
225.6077583435477
 20
343.9453946269704
 30
0.0
  0
ARC
  5
AA
330
1F
100
AcDbEntity
  8
0
  6
Continuous
 62
     8
370
    18
100
AcDbCircle
 10
227.6379910258
 20
159.6830530665
 30
0.0
 40
184.2735265520663
100
AcDbArc
 50
90.631269233
 51
90.9383651725
  0
SPLINE
  5
AB
330
1F
100
AcDbEntity
  8
0
  6
Continuous
 62
     8
370
    18
100
AcDbSpline
210
0.0
220
0.0
230
1.0
 70
     8
 71
     3
 72
    26
 73
    22
 74
     0
 42
0.000000001
 43
0.00000001
 40
0.0
 40
0.0
 40
0.0
 40
0.0
 40
0.1250000000000002
 40
0.1250000000000002
 40
0.1875000000000002
 40
0.1875000000000002
 40
0.2500000000000002
 40
0.2500000000000002
 40
0.3750000000000001
 40
0.3750000000000001
 40
0.5
 40
0.5
 40
0.625
 40
0.625
 40
0.6875
 40
0.6875
 40
0.75
 40
0.75
 40
0.875
 40
0.875
 40
1.0
 40
1.0
 40
1.0
 40
1.0
 10
224.6201753479522
 20
343.9318663914696
 30
0.0
 10
224.6087150888849
 20
344.6444871804665
 30
0.0
 10
224.5288700750036
 20
345.3443429196826
 30
0.0
 10
224.3110113136601
 20
346.3758157956626
 30
0.0
 10
224.2219212077471
 20
346.7165655349862
 30
0.0
 10
224.010114167752
 20
347.3917878611695
 30
0.0
 10
223.8866818340929
 20
347.7276063644413
 30
0.0
 10
223.4727351469792
 20
348.7052293506071
 30
0.0
 10
223.13778742093
 20
349.3231012713994
 30
0.0
 10
222.3514799543841
 20
350.4919845292854
 30
0.0
 10
221.89499162224
 20
351.0466785261558
 30
0.0
 10
220.8990069261488
 20
352.0433279838328
 30
0.0
 10
220.3571051109275
 20
352.4908032442888
 30
0.0
 10
219.4775523114017
 20
353.084773954382
 30
0.0
 10
219.1717170356638
 20
353.2704495377645
 30
0.0
 10
218.5495710819309
 20
353.6081341679969
 30
0.0
 10
218.2322151770036
 20
353.7610292498351
 30
0.0
 10
217.2617086592932
 20
354.1729134294002
 30
0.0
 10
216.5902959837383
 20
354.385550084759
 30
0.0
 10
215.1966699733129
 20
354.6818818409692
 30
0.0
 10
214.491276001682
 20
354.7619134765967
 30
0.0
 10
213.7786681821014
 20
354.7733735491942
 30
0.0
  0
ARC
  5
AC
330
1F
100
AcDbEntity
  8
0
  6
Continuous
 62
     8
370
    18
100
AcDbCircle
 10
30.3000470413
 20
357.780630484
 30
0.0
 40
183.5032635359687
100
AcDbArc
 50
359.0609926801
 51
359.3693788345
  0
SPLINE
  5
AD
330
1F
100
AcDbEntity
  8
0
  6
Continuous
 62
     8
370
    18
100
AcDbSpline
210
0.0
220
0.0
230
1.0
 70
     8
 71
     3
 72
    26
 73
    22
 74
     0
 42
0.000000001
 43
0.00000001
 40
0.0
 40
0.0
 40
0.0
 40
0.0
 40
0.1249999999999998
 40
0.1249999999999998
 40
0.1874999999999998
 40
0.1874999999999998
 40
0.2499999999999998
 40
0.2499999999999998
 40
0.3749999999999999
 40
0.3749999999999999
 40
0.5000000000000001
 40
0.5000000000000001
 40
0.6250000000000002
 40
0.6250000000000002
 40
0.6875000000000002
 40
0.6875000000000002
 40
0.7500000000000001
 40
0.7500000000000001
 40
0.875
 40
0.875
 40
1.0
 40
1.0
 40
1.0
 40
1.0
 10
183.6200636503167
 20
354.773373511299
 30
0.0
 10
182.9074428613195
 20
354.7619132522316
 30
0.0
 10
182.2075871221031
 20
354.6820682383503
 30
0.0
 10
181.1761142461228
 20
354.4642094770062
 30
0.0
 10
180.8353645067991
 20
354.3751193710929
 30
0.0
 10
180.1601421806157
 20
354.1633123310972
 30
0.0
 10
179.8243236773439
 20
354.0398799974378
 30
0.0
 10
178.8467006911781
 20
353.6259333103231
 30
0.0
 10
178.2288287703858
 20
353.2909855842733
 30
0.0
 10
177.0599455124998
 20
352.5046781177263
 30
0.0
 10
176.5052515156292
 20
352.048189785582
 30
0.0
 10
175.5086020579519
 20
351.0522050894902
 30
0.0
 10
175.0611267974957
 20
350.5103032742687
 30
0.0
 10
174.4671560874023
 20
349.6307504747426
 30
0.0
 10
174.2814805040198
 20
349.3249151990045
 30
0.0
 10
173.9437958737873
 20
348.7027692452713
 30
0.0
 10
173.790900791949
 20
348.385413340344
 30
0.0
 10
173.3790166123837
 20
347.4149068226332
 30
0.0
 10
173.1663799570248
 20
346.743494147078
 30
0.0
 10
172.8700482008148
 20
345.3498681366519
 30
0.0
 10
172.7900165651874
 20
344.6444741650207
 30
0.0
 10
172.7785564925902
 20
343.9318663454399
 30
0.0
  0
ARC
  5
AE
330
1F
100
AcDbEntity
  8
0
  6
Continuous
 62
     8
370
    18
100
AcDbCircle
 10
169.7607923832
 20
159.6868622655
 30
0.0
 40
184.2697170093621
100
AcDbArc
 50
89.061631653
 51
89.3687339414
  0
SPLINE
  5
AF
330
1F
100
AcDbEntity
  8
0
  6
Continuous
 62
     8
370
    18
100
AcDbSpline
210
0.0
220
0.0
230
1.0
 70
     8
 71
     3
 72
    26
 73
    22
 74
     0
 42
0.000000001
 43
0.00000001
 40
0.0
 40
0.0
 40
0.0
 40
0.0
 40
0.1249999999999999
 40
0.1249999999999999
 40
0.2499999999999998
 40
0.2499999999999998
 40
0.3125000000000003
 40
0.3125000000000003
 40
0.3750000000000008
 40
0.3750000000000008
 40
0.5000000000000008
 40
0.5000000000000008
 40
0.6250000000000008
 40
0.6250000000000008
 40
0.7500000000000008
 40
0.7500000000000008
 40
0.8125000000000006
 40
0.8125000000000006
 40
0.8750000000000003
 40
0.8750000000000003
 40
1.0
 40
1.0
 40
1.0
 40
1.0
 10
171.7909735345604
 20
343.9453946273163
 30
0.0
 10
171.802711683336
 20
344.7222496886267
 30
0.0
 10
171.8891892753302
 20
345.4913058470275
 30
0.0
 10
172.2110985712835
 20
347.0108119473904
 30
0.0
 10
172.4425190625347
 20
347.7428353971076
 30
0.0
 10
172.891154554489
 20
348.8009266727184
 30
0.0
 10
173.0577380327927
 20
349.1469188861315
 30
0.0
 10
173.4257215588946
 20
349.8252023668741
 30
0.0
 10
173.6280887255394
 20
350.1586344021089
 30
0.0
 10
174.2754914320215
 20
351.117518368555
 30
0.0
 10
174.763269684678
 20
351.7082689478278
 30
0.0
 10
175.8497366157501
 20
352.7940048020644
 30
0.0
 10
176.4544520608917
 20
353.2916159180271
 30
0.0
 10
177.7287573214173
 20
354.1486386968371
 30
0.0
 10
178.4023653054354
 20
354.5136487927916
 30
0.0
 10
179.4682502992056
 20
354.9645358637417
 30
0.0
 10
179.8344052572019
 20
355.0989390579173
 30
0.0
 10
180.5705985407823
 20
355.3294337148542
 30
0.0
 10
180.9421103530402
 20
355.4263074941343
 30
0.0
 10
182.0666812030147
 20
355.6629387647208
 30
0.0
 10
182.8296804292777
 20
355.7492183598392
 30
0.0
 10
183.6065354148178
 20
355.7609565068859
 30
0.0
  0
ARC
  5
B0
330
1F
100
AcDbEntity
  8
0
  6
Continuous
 62
     8
370
    18
100
AcDbCircle
 10
367.5632389945
 20
357.7869941644
 30
0.0
 40
183.9678602492024
100
AcDbArc
 50
180.6310105692
 51
180.9386179162
  0
SPLINE
  5
B1
330
1F
100
AcDbEntity
  8
0
  6
Continuous
 62
     8
370
    18
100
AcDbSpline
210
0.0
220
0.0
230
1.0
 70
     8
 71
     3
 72
    26
 73
    22
 74
     0
 42
0.000000001
 43
0.00000001
 40
0.0
 40
0.0
 40
0.0
 40
0.0
 40
0.1249999999999993
 40
0.1249999999999993
 40
0.2499999999999987
 40
0.2499999999999987
 40
0.3124999999999985
 40
0.3124999999999985
 40
0.3749999999999983
 40
0.3749999999999983
 40
0.4999999999999987
 40
0.4999999999999987
 40
0.6249999999999989
 40
0.6249999999999989
 40
0.7499999999999991
 40
0.7499999999999991
 40
0.8124999999999992
 40
0.8124999999999992
 40
0.8749999999999993
 40
0.8749999999999993
 40
1.0
 40
1.0
 40
1.0
 40
1.0
 10
225.6077583438899
 20
313.7597335778096
 30
0.0
 10
225.5960201951143
 20
312.9828785164991
 30
0.0
 10
225.5095426031201
 20
312.2138223580985
 30
0.0
 10
225.1876333071667
 20
310.6943162577356
 30
0.0
 10
224.9562128159156
 20
309.9622928080182
 30
0.0
 10
224.5075773239613
 20
308.9042015324075
 30
0.0
 10
224.3409938456578
 20
308.5582093189943
 30
0.0
 10
223.9730103195558
 20
307.8799258382516
 30
0.0
 10
223.770643152911
 20
307.546493803017
 30
0.0
 10
223.1232404464289
 20
306.5876098365709
 30
0.0
 10
222.6354621937723
 20
305.996859257298
 30
0.0
 10
221.5489952627002
 20
304.9111234030614
 30
0.0
 10
220.9442798175588
 20
304.4135122870986
 30
0.0
 10
219.6699745570332
 20
303.5564895082886
 30
0.0
 10
218.996366573015
 20
303.1914794123343
 30
0.0
 10
217.9304815792448
 20
302.7405923413842
 30
0.0
 10
217.5643266212485
 20
302.6061891472086
 30
0.0
 10
216.828133337668
 20
302.3756944902717
 30
0.0
 10
216.4566215254102
 20
302.2788207109917
 30
0.0
 10
215.3320506754357
 20
302.0421894404052
 30
0.0
 10
214.5690514491728
 20
301.9559098452867
 30
0.0
 10
213.7921964636326
 20
301.94417169824
 30
0.0
  0
ARC
  5
B2
330
1F
100
AcDbEntity
  8
0
  6
Continuous
 62
     8
370
    18
100
AcDbCircle
 10
30.2928534568
 20
299.9243925645
 30
0.0
 40
183.5104578630047
100
AcDbArc
 50
0.6306298667
 51
0.9390030588
  0
SPLINE
  5
B3
330
1F
100
AcDbEntity
  8
0
  6
Continuous
 62
     8
370
    18
100
AcDbSpline
210
0.0
220
0.0
230
1.0
 70
     8
 71
     3
 72
    26
 73
    22
 74
     0
 42
0.000000001
 43
0.00000001
 40
0.0
 40
0.0
 40
0.0
 40
0.0
 40
0.1249999999999996
 40
0.1249999999999996
 40
0.1874999999999997
 40
0.1874999999999997
 40
0.2499999999999998
 40
0.2499999999999998
 40
0.3749999999999999
 40
0.3749999999999999
 40
0.5000000000000001
 40
0.5000000000000001
 40
0.6250000000000002
 40
0.6250000000000002
 40
0.6875000000000003
 40
0.6875000000000003
 40
0.7500000000000003
 40
0.7500000000000003
 40
0.8750000000000001
 40
0.8750000000000001
 40
1.0
 40
1.0
 40
1.0
 40
1.0
 10
213.7786682281304
 20
302.9317546938672
 30
0.0
 10
214.4912890171257
 20
302.9432149529341
 30
0.0
 10
215.1911447563404
 20
303.0230599668141
 30
0.0
 10
216.2226176323185
 20
303.2409187281556
 30
0.0
 10
216.5633673716415
 20
303.3300088340678
 30
0.0
 10
217.2385896978236
 20
303.5418158740616
 30
0.0
 10
217.5744082010947
 20
303.6652482077203
 30
0.0
 10
218.5520311872586
 20
304.0791948948321
 30
0.0
 10
219.1699031080496
 20
304.4141426208805
 30
0.0
 10
220.3387863659331
 20
305.2004500874247
 30
0.0
 10
220.8934803628024
 20
305.6569384195676
 30
0.0
 10
221.8901298204774
 20
306.6529231156565
 30
0.0
 10
222.3376050809326
 20
307.1948249308764
 30
0.0
 10
222.931575791025
 20
308.0743777304
 30
0.0
 10
223.1172513744071
 20
308.3802130061372
 30
0.0
 10
223.454936004639
 20
309.0023589598686
 30
0.0
 10
223.607831086477
 20
309.3197148647951
 30
0.0
 10
224.0197152660416
 20
310.290221382503
 30
0.0
 10
224.2323519214002
 20
310.9616340580565
 30
0.0
 10
224.5286836776097
 20
312.3552600684789
 30
0.0
 10
224.6087153132367
 20
313.0606540401082
 30
0.0
 10
224.6201753858342
 20
313.7732618596871
 30
0.0
  0
ARC
  5
B4
330
1F
100
AcDbEntity
  8
0
  6
Continuous
 62
     8
370
    18
100
AcDbCircle
 10
227.6345232887
 20
497.7704129192
 30
0.0
 40
184.0218408054119
100
AcDbArc
 50
269.0614311511
 51
269.3689471047
  0
SPLINE
  5
B5
330
1F
100
AcDbEntity
  8
0
  6
Continuous
 62
     8
370
    18
100
AcDbSpline
210
0.0
220
0.0
230
1.0
 70
     8
 71
     3
 72
    26
 73
    22
 74
     0
 42
0.000000001
 43
0.00000001
 40
0.0
 40
0.0
 40
0.0
 40
0.0
 40
0.1249999999999999
 40
0.1249999999999999
 40
0.1874999999999999
 40
0.1874999999999999
 40
0.2499999999999999
 40
0.2499999999999999
 40
0.3749999999999999
 40
0.3749999999999999
 40
0.5
 40
0.5
 40
0.6249999999999998
 40
0.6249999999999998
 40
0.6874999999999998
 40
0.6874999999999998
 40
0.7499999999999999
 40
0.7499999999999999
 40
0.8749999999999999
 40
0.8749999999999999
 40
1.0
 40
1.0
 40
1.0
 40
1.0
 10
172.7785565305025
 20
313.7732618136563
 30
0.0
 10
172.7900167895702
 20
313.0606410246598
 30
0.0
 10
172.8698618034518
 20
312.3607852854443
 30
0.0
 10
173.0877205647957
 20
311.3293124094652
 30
0.0
 10
173.1768106707087
 20
310.9885626701418
 30
0.0
 10
173.3886177107039
 20
310.3133403439591
 30
0.0
 10
173.5120500443631
 20
309.9775218406876
 30
0.0
 10
173.9259967314769
 20
308.9998988545228
 30
0.0
 10
174.2609444575261
 20
308.3820269337311
 30
0.0
 10
175.0472519240719
 20
307.2131436758463
 30
0.0
 10
175.5037402562158
 20
306.6584496789764
 30
0.0
 10
176.4997249523067
 20
305.6618002213006
 30
0.0
 10
177.0416267675276
 20
305.2143249608451
 30
0.0
 10
177.9211795670531
 20
304.6203542507528
 30
0.0
 10
178.227014842791
 20
304.4346786673708
 30
0.0
 10
178.8491607965237
 20
304.0969940371392
 30
0.0
 10
179.1665167014509
 20
303.9440989553013
 30
0.0
 10
180.1370232191609
 20
303.5322147757373
 30
0.0
 10
180.8084358947155
 20
303.3195781203792
 30
0.0
 10
182.2020619051401
 20
303.0232463641703
 30
0.0
 10
182.9074558767705
 20
302.9432147285433
 30
0.0
 10
183.6200636963505
 20
302.9317546559462
 30
0.0
  0
ARC
  5
B6
330
1F
100
AcDbEntity
  8
0
  6
Continuous
 62
     8
370
    18
100
AcDbCircle
 10
367.5704697372
 20
299.918028357
 30
0.0
 40
183.97509173805
100
AcDbArc
 50
179.0613863444
 51
179.3689807302
  0
SPLINE
  5
B7
330
1F
100
AcDbEntity
  8
0
  6
Continuous
 62
     8
370
    18
100
AcDbSpline
210
0.0
220
0.0
230
1.0
 70
     8
 71
     3
 72
    26
 73
    22
 74
     0
 42
0.000000001
 43
0.00000001
 40
0.0
 40
0.0
 40
0.0
 40
0.0
 40
0.1249999999999999
 40
0.1249999999999999
 40
0.2499999999999999
 40
0.2499999999999999
 40
0.3124999999999998
 40
0.3124999999999998
 40
0.3749999999999997
 40
0.3749999999999997
 40
0.4999999999999998
 40
0.4999999999999998
 40
0.6249999999999998
 40
0.6249999999999998
 40
0.7499999999999999
 40
0.7499999999999999
 40
0.8124999999999999
 40
0.8124999999999999
 40
0.8749999999999998
 40
0.8749999999999998
 40
1.0
 40
1.0
 40
1.0
 40
1.0
 10
183.6065354144715
 20
301.9441716978984
 30
0.0
 10
182.8296803531611
 20
301.955909846674
 30
0.0
 10
182.0606241947604
 20
302.0423874386682
 30
0.0
 10
180.5411180943976
 20
302.3642967346216
 30
0.0
 10
179.8090946446802
 20
302.5957172258726
 30
0.0
 10
178.7510033690695
 20
303.0443527178271
 30
0.0
 10
178.4050111556564
 20
303.2109361961305
 30
0.0
 10
177.7267276749137
 20
303.5789197222325
 30
0.0
 10
177.3932956396789
 20
303.7812868888774
 30
0.0
 10
176.4344116732329
 20
304.4286895953595
 30
0.0
 10
175.84366109396
 20
304.916467848016
 30
0.0
 10
174.7579252397234
 20
306.0029347790882
 30
0.0
 10
174.2603141237608
 20
306.6076502242297
 30
0.0
 10
173.4032913449509
 20
307.8819554847553
 30
0.0
 10
173.0382812489964
 20
308.5555634687734
 30
0.0
 10
172.5873941780463
 20
309.6214484625436
 30
0.0
 10
172.4529909838707
 20
309.98760342054
 30
0.0
 10
172.2224963269338
 20
310.7237967041204
 30
0.0
 10
172.1256225476538
 20
311.0953085163783
 30
0.0
 10
171.8889912770672
 20
312.2198793663528
 30
0.0
 10
171.8027116819488
 20
312.9828785926156
 30
0.0
 10
171.7909735349021
 20
313.7597335781557
 30
0.0
  0
ARC
  5
B8
330
1F
100
AcDbEntity
  8
0
  6
Continuous
 62
     8
370
    18
100
AcDbCircle
 10
169.7643383148
 20
497.7615880788
 30
0.0
 40
184.0130150643525
100
AcDbArc
 50
270.6310425664
 51
270.9385732692
  0
SPLINE
  5
B9
330
1F
100
AcDbEntity
  8
0
  6
Continuous
 62
     8
370
    18
100
AcDbSpline
210
0.0
220
0.0
230
1.0
 70
     8
 71
     3
 72
    10
 73
     6
 74
     0
 42
0.000000001
 43
0.00000001
 40
0.0
 40
0.0
 40
0.0
 40
0.0
 40
0.5
 40
0.5
 40
1.0
 40
1.0
 40
1.0
 40
1.0
 10
172.7785564925902
 20
343.9318663454399
 30
0.0
 10
172.6977272506114
 20
338.9057594516131
 30
0.0
 10
172.656515423666
 20
333.8793288365782
 30
0.0
 10
172.6565154086436
 20
323.8257995512435
 30
0.0
 10
172.6977274443706
 20
318.799368709928
 30
0.0
 10
172.7785565305024
 20
313.7732618136563
 30
0.0
  0
SPLINE
  5
BA
330
1F
100
AcDbEntity
  8
0
  6
Continuous
 62
     8
370
    18
100
AcDbSpline
210
0.0
220
0.0
230
1.0
 70
     8
 71
     3
 72
     8
 73
     4
 74
     0
 42
0.000000001
 43
0.00000001
 40
0.0
 40
0.0
 40
0.0
 40
0.0
 40
1.0
 40
1.0
 40
1.0
 40
1.0
 10
189.1060848924026
 20
354.8458315327553
 30
0.0
 10
187.2773419317333
 20
354.8269762364724
 30
0.0
 10
185.4486686223254
 20
354.8027808581443
 30
0.0
 10
183.6200636503167
 20
354.773373511299
 30
0.0
  0
SPLINE
  5
BB
330
1F
100
AcDbEntity
  8
0
  6
Continuous
 62
     8
370
    18
100
AcDbSpline
210
0.0
220
0.0
230
1.0
 70
     8
 71
     3
 72
     8
 73
     4
 74
     0
 42
0.000000001
 43
0.00000001
 40
0.0
 40
0.0
 40
0.0
 40
0.0
 40
1.0
 40
1.0
 40
1.0
 40
1.0
 10
183.6200636963505
 20
302.9317546559463
 30
0.0
 10
185.4486686478922
 20
302.9023472527153
 30
0.0
 10
187.2773419377698
 20
302.8781519010524
 30
0.0
 10
189.1060848788831
 20
302.8592966274596
 30
0.0
  0
SPLINE
  5
BC
330
1F
100
AcDbEntity
  8
0
  6
Continuous
 62
     8
370
    18
100
AcDbSpline
210
0.0
220
0.0
230
1.0
 70
     8
 71
     3
 72
    10
 73
     6
 74
     0
 42
0.000000001
 43
0.00000001
 40
0.0
 40
0.0
 40
0.0
 40
0.0
 40
0.5
 40
0.5
 40
1.0
 40
1.0
 40
1.0
 40
1.0
 10
224.6201753858342
 20
313.7732618596871
 30
0.0
 10
224.7010046278143
 20
318.7993687535136
 30
0.0
 10
224.7422164547679
 20
323.8257993685483
 30
0.0
 10
224.742216469803
 20
333.8793286538826
 30
0.0
 10
224.7010044340819
 20
338.905759495198
 30
0.0
 10
224.6201753479525
 20
343.9318663914696
 30
0.0
  0
SPLINE
  5
BD
330
1F
100
AcDbEntity
  8
0
  6
Continuous
 62
     8
370
    18
100
AcDbSpline
210
0.0
220
0.0
230
1.0
 70
     8
 71
     3
 72
     8
 73
     4
 74
     0
 42
0.000000001
 43
0.00000001
 40
0.0
 40
0.0
 40
0.0
 40
0.0
 40
1.0
 40
1.0
 40
1.0
 40
1.0
 10
208.2926469860451
 20
302.8592966724098
 30
0.0
 10
210.1213899467141
 20
302.8781519686941
 30
0.0
 10
211.9500632561219
 20
302.9023473470231
 30
0.0
 10
213.7786682281304
 20
302.9317546938672
 30
0.0
  0
SPLINE
  5
BE
330
1F
100
AcDbEntity
  8
0
  6
Continuous
 62
     8
370
    18
100
AcDbSpline
210
0.0
220
0.0
230
1.0
 70
     8
 71
     3
 72
     8
 73
     4
 74
     0
 42
0.000000001
 43
0.00000001
 40
0.0
 40
0.0
 40
0.0
 40
0.0
 40
1.0
 40
1.0
 40
1.0
 40
1.0
 10
213.7786681821014
 20
354.7733735491942
 30
0.0
 10
211.9500632305596
 20
354.8027809524264
 30
0.0
 10
210.1213899406819
 20
354.8269763040913
 30
0.0
 10
208.2926469995685
 20
354.845831577686
 30
0.0
  0
SPLINE
  5
BF
330
1F
100
AcDbEntity
  8
0
  6
Continuous
 62
     8
370
    18
100
AcDbSpline
210
0.0
220
0.0
230
1.0
 70
     8
 71
     3
 72
    10
 73
     6
 74
     0
 42
0.000000001
 43
0.00000001
 40
0.0
 40
0.0
 40
0.0
 40
0.0
 40
0.4999999999999999
 40
0.4999999999999999
 40
1.0
 40
1.0
 40
1.0
 40
1.0
 10
171.790973534902
 20
313.7597335781557
 30
0.0
 10
171.7150951330862
 20
318.7903886779031
 30
0.0
 10
171.6771135758642
 20
323.8213330016761
 30
0.0
 10
171.6771135788721
 20
333.8837954012096
 30
0.0
 10
171.7150951286183
 20
338.9147395272241
 30
0.0
 10
171.7909735345604
 20
343.9453946273163
 30
0.0
  0
SPLINE
  5
C0
330
1F
100
AcDbEntity
  8
0
  6
Continuous
 62
     8
370
    18
100
AcDbSpline
210
0.0
220
0.0
230
1.0
 70
     8
 71
     3
 72
    10
 73
     6
 74
     0
 42
0.000000001
 43
0.00000001
 40
0.0
 40
0.0
 40
0.0
 40
0.0
 40
0.5
 40
0.5
 40
1.0
 40
1.0
 40
1.0
 40
1.0
 10
225.6077583435478
 20
343.9453946269704
 30
0.0
 10
225.6836367453636
 20
338.914739527223
 30
0.0
 10
225.7216183025859
 20
333.8837952034498
 30
0.0
 10
225.7216182995781
 20
323.8213328039163
 30
0.0
 10
225.683636749832
 20
318.7903886779018
 30
0.0
 10
225.6077583438898
 20
313.7597335778096
 30
0.0
  0
SPLINE
  5
C1
330
1F
100
AcDbEntity
  8
0
  6
Continuous
 62
     8
370
    18
100
AcDbSpline
210
0.0
220
0.0
230
1.0
 70
     8
 71
     3
 72
    16
 73
    12
 74
     0
 42
0.000000001
 43
0.00000001
 40
0.0
 40
0.0
 40
0.0
 40
0.0
 40
0.0755368869452419
 40
0.1541671022138383
 40
0.2358956136145072
 40
0.3207268446389868
 40
0.4086647505571052
 40
0.4997128817634897
 40
0.6177431765518501
 40
0.7498026419391144
 40
0.9999999999999999
 40
0.9999999999999999
 40
0.9999999999999999
 40
0.9999999999999999
 10
189.6274572708053
 20
302.3760586852854
 30
0.0
 10
189.6419307933767
 20
302.3692518898586
 30
0.0
 10
189.6714705470507
 20
302.3553595523697
 30
0.0
 10
189.716658192592
 20
302.3230194815844
 30
0.0
 10
189.7636143900739
 20
302.2819178057662
 30
0.0
 10
189.8123384487982
 20
302.2311521554128
 30
0.0
 10
189.8628306284416
 20
302.1709895324574
 30
0.0
 10
189.9196574671395
 20
302.0952150686695
 30
0.0
 10
189.9849006917622
 20
301.9987589677777
 30
0.0
 10
190.0805477386178
 20
301.8458498647696
 30
0.0
 10
190.1535997165258
 20
301.7197198318968
 30
0.0
 10
190.2014141981847
 20
301.6371643376293
 30
0.0
  0
SPLINE
  5
C2
330
1F
100
AcDbEntity
  8
0
  6
Continuous
 62
     8
370
    18
100
AcDbSpline
210
0.0
220
0.0
230
1.0
 70
     8
 71
     3
 72
    10
 73
     6
 74
     0
 42
0.000000001
 43
0.00000001
 40
0.0
 40
0.0
 40
0.0
 40
0.0
 40
0.5
 40
0.5
 40
1.0
 40
1.0
 40
1.0
 40
1.0
 10
189.6060116461928
 20
302.86775193138
 30
0.0
 10
189.6061070671932
 20
302.7385274905074
 30
0.0
 10
189.6084633656223
 20
302.6127910623638
 30
0.0
 10
189.6163495620752
 20
302.4321760216935
 30
0.0
 10
189.6218208020323
 20
302.3783661989335
 30
0.0
 10
189.6274572708047
 20
302.3760586852856
 30
0.0
  0
SPLINE
  5
C3
330
1F
100
AcDbEntity
  8
0
  6
Continuous
 62
     8
370
    18
100
AcDbSpline
210
0.0
220
0.0
230
1.0
 70
     8
 71
     3
 72
    10
 73
     6
 74
     0
 42
0.000000001
 43
0.00000001
 40
0.0
 40
0.0
 40
0.0
 40
0.0
 40
0.5
 40
0.5
 40
1.0
 40
1.0
 40
1.0
 40
1.0
 10
189.6274572712915
 20
355.3290695200401
 30
0.0
 10
189.6218209163228
 20
355.3267620529823
 30
0.0
 10
189.6163364122075
 20
355.2727695820798
 30
0.0
 10
189.6084562130975
 20
355.0920544380212
 30
0.0
 10
189.6061070657352
 20
354.9665984640394
 30
0.0
 10
189.6060116466338
 20
354.8373762513217
 30
0.0
  0
ELLIPSE
  5
C4
330
1F
100
AcDbEntity
  8
0
  6
Continuous
 62
     8
370
    18
100
AcDbEllipse
 10
676.214486667
 20
-643.2692393811
 30
0.0
 11
1193.175208228141
 21
0.0
 31
0.0
210
0.0
220
0.0
230
1.0
 40
0.9166081948
 41
1.990555008145741
 42
1.990848982045437
  0
SPLINE
  5
C5
330
1F
100
AcDbEntity
  8
0
  6
Continuous
 62
     8
370
    18
100
AcDbSpline
210
0.0
220
0.0
230
1.0
 70
     8
 71
     3
 72
    10
 73
     6
 74
     0
 42
0.000000001
 43
0.00000001
 40
0.0
 40
0.0
 40
0.0
 40
0.0
 40
0.5
 40
0.5
 40
1.0
 40
1.0
 40
1.0
 40
1.0
 10
207.7712746071567
 20
302.3760586850855
 30
0.0
 10
207.7769109621256
 20
302.3783661521434
 30
0.0
 10
207.782395466241
 20
302.4323586230489
 30
0.0
 10
207.7902756653511
 20
302.6130737671155
 30
0.0
 10
207.7926248127132
 20
302.7385297411027
 30
0.0
 10
207.7927202318144
 20
302.8677519538238
 30
0.0
  0
SPLINE
  5
C6
330
1F
100
AcDbEntity
  8
0
  6
Continuous
 62
     8
370
    18
100
AcDbSpline
210
0.0
220
0.0
230
1.0
 70
     8
 71
     3
 72
    14
 73
    10
 74
     0
 42
0.000000001
 43
0.00000001
 40
0.0
 40
0.0
 40
0.0
 40
0.0
 40
0.2501976898736641
 40
0.3822171810987421
 40
0.5002877815716068
 40
0.6356818023090641
 40
0.764089439336184
 40
0.8855237074794388
 40
1.0
 40
1.0
 40
1.0
 40
1.0
 10
207.1973176802675
 20
301.6371643376301
 30
0.0
 10
207.2451321591658
 20
301.7197191088457
 30
0.0
 10
207.3181764600521
 20
301.8458347894351
 30
0.0
 10
207.4138235221789
 20
301.9987503600446
 30
0.0
 10
207.4875478846694
 20
302.1077297487878
 30
0.0
 10
207.5606159308848
 20
302.202988963455
 30
0.0
 10
207.6343647525892
 20
302.2824844647384
 30
0.0
 10
207.7041390169489
 20
302.3423935790097
 30
0.0
 10
207.749340469522
 20
302.3650598234108
 30
0.0
 10
207.7712746071569
 20
302.3760586850857
 30
0.0
  0
ELLIPSE
  5
C7
330
1F
100
AcDbEntity
  8
0
  6
Continuous
 62
     8
370
    18
100
AcDbEllipse
 10
-278.8157547884
 20
-643.2692393811
 30
0.0
 11
1193.175208227822
 21
0.0
 31
0.0
210
0.0
220
0.0
230
1.0
 40
0.9166081948
 41
1.15074367154396
 42
1.151037645444103
  0
SPLINE
  5
C8
330
1F
100
AcDbEntity
  8
0
  6
Continuous
 62
     8
370
    18
100
AcDbSpline
210
0.0
220
0.0
230
1.0
 70
     8
 71
     3
 72
    10
 73
     6
 74
     0
 42
0.000000001
 43
0.00000001
 40
0.0
 40
0.0
 40
0.0
 40
0.0
 40
0.5
 40
0.5
 40
1.0
 40
1.0
 40
1.0
 40
1.0
 10
207.792720232258
 20
354.8373762737559
 30
0.0
 10
207.7926248112574
 20
354.9666007146268
 30
0.0
 10
207.7902685128283
 20
355.0923371427676
 30
0.0
 10
207.7823823163754
 20
355.272952183434
 30
0.0
 10
207.7769110764183
 20
355.3267620061926
 30
0.0
 10
207.771274607646
 20
355.3290695198405
 30
0.0
  0
SPLINE
  5
C9
330
1F
100
AcDbEntity
  8
0
  6
Continuous
 62
     8
370
    18
100
AcDbSpline
210
0.0
220
0.0
230
1.0
 70
     8
 71
     3
 72
    12
 73
     8
 74
     0
 42
0.000000001
 43
0.00000001
 40
0.0
 40
0.0
 40
0.0
 40
0.0
 40
0.2499999999999988
 40
0.2499999999999988
 40
0.4999999999999976
 40
0.4999999999999976
 40
1.0
 40
1.0
 40
1.0
 40
1.0
 10
189.1231416761137
 20
301.8761578000497
 30
0.0
 10
189.1202907979318
 20
301.8784391980495
 30
0.0
 10
189.117624613644
 20
301.9054520902131
 30
0.0
 10
189.1128714445216
 20
302.0057609910408
 30
0.0
 10
189.110830520649
 20
302.0786607310275
 30
0.0
 10
189.1061254703862
 20
302.3495691587368
 30
0.0
 10
189.1049419069028
 20
302.6009717686008
 30
0.0
 10
189.1060848788826
 20
302.8592966274598
 30
0.0
  0
SPLINE
  5
CA
330
1F
100
AcDbEntity
  8
0
  6
Continuous
 62
     8
370
    18
100
AcDbSpline
210
0.0
220
0.0
230
1.0
 70
     8
 71
     3
 72
     8
 73
     4
 74
     0
 42
0.000000001
 43
0.00000001
 40
0.0
 40
0.0
 40
0.0
 40
0.0
 40
1.0
 40
1.0
 40
1.0
 40
1.0
 10
189.1231416761142
 20
301.8761578000498
 30
0.0
 10
187.2842111435549
 20
301.893763168952
 30
0.0
 10
185.4453422993318
 20
301.9164365953157
 30
0.0
 10
183.6065354144715
 20
301.9441716978984
 30
0.0
  0
ARC
  5
CB
330
1F
100
AcDbEntity
  8
0
  6
Continuous
 62
     8
370
    18
100
AcDbCircle
 10
189.1272837916
 20
302.3763139701
 30
0.0
 40
0.50017357863568
100
AcDbArc
 50
269.525504727
 51
359.9707818246
  0
SPLINE
  5
CC
330
1F
100
AcDbEntity
  8
0
  6
Continuous
 62
     8
370
    18
100
AcDbSpline
210
0.0
220
0.0
230
1.0
 70
     8
 71
     3
 72
    12
 73
     8
 74
     0
 42
0.000000001
 43
0.00000001
 40
0.0
 40
0.0
 40
0.0
 40
0.0
 40
0.25
 40
0.25
 40
0.5
 40
0.5
 40
1.0
 40
1.0
 40
1.0
 40
1.0
 10
208.275590202337
 20
355.8289704050763
 30
0.0
 10
208.2784410805189
 20
355.8266890070765
 30
0.0
 10
208.2811072648068
 20
355.7996761149136
 30
0.0
 10
208.2858604339292
 20
355.6993672140883
 30
0.0
 10
208.2879013578017
 20
355.6264674741034
 30
0.0
 10
208.2926064080647
 20
355.3555590464001
 30
0.0
 10
208.2937899715482
 20
355.1041564365414
 30
0.0
 10
208.2926469995686
 20
354.8458315776858
 30
0.0
  0
SPLINE
  5
CD
330
1F
100
AcDbEntity
  8
0
  6
Continuous
 62
     8
370
    18
100
AcDbSpline
210
0.0
220
0.0
230
1.0
 70
     8
 71
     3
 72
     8
 73
     4
 74
     0
 42
0.000000001
 43
0.00000001
 40
0.0
 40
0.0
 40
0.0
 40
0.0
 40
1.0
 40
1.0
 40
1.0
 40
1.0
 10
208.275590202337
 20
355.8289704050762
 30
0.0
 10
210.1145207348958
 20
355.811365036174
 30
0.0
 10
211.9533895791184
 20
355.7886916098103
 30
0.0
 10
213.7921964639782
 20
355.7609565072277
 30
0.0
  0
ARC
  5
CE
330
1F
100
AcDbEntity
  8
0
  6
Continuous
 62
     8
370
    18
100
AcDbCircle
 10
208.2714471857
 20
355.3288160383
 30
0.0
 40
0.500171813469184
100
AcDbArc
 50
89.5253875755
 51
179.9708782035
  0
SPLINE
  5
CF
330
1F
100
AcDbEntity
  8
0
  6
Continuous
 62
     8
370
    18
100
AcDbSpline
210
0.0
220
0.0
230
1.0
 70
     8
 71
     3
 72
     8
 73
     4
 74
     0
 42
0.000000001
 43
0.00000001
 40
0.0
 40
0.0
 40
0.0
 40
0.0
 40
1.0
 40
1.0
 40
1.0
 40
1.0
 10
213.7921964636327
 20
301.9441716982399
 30
0.0
 10
211.9533895787916
 20
301.916436597164
 30
0.0
 10
210.1145207344777
 20
301.8937631695759
 30
0.0
 10
208.2755902018475
 20
301.8761577998498
 30
0.0
  0
SPLINE
  5
D0
330
1F
100
AcDbEntity
  8
0
  6
Continuous
 62
     8
370
    18
100
AcDbSpline
210
0.0
220
0.0
230
1.0
 70
     8
 71
     3
 72
    12
 73
     8
 74
     0
 42
0.000000001
 43
0.00000001
 40
0.0
 40
0.0
 40
0.0
 40
0.0
 40
0.2499999999999988
 40
0.2499999999999988
 40
0.4999999999999976
 40
0.4999999999999976
 40
1.0
 40
1.0
 40
1.0
 40
1.0
 10
208.2926469860456
 20
302.8592966724099
 30
0.0
 10
208.2932184605445
 20
302.7301368824014
 30
0.0
 10
208.2932272620903
 20
302.6039432328488
 30
0.0
 10
208.2921411740414
 20
302.3677066555117
 30
0.0
 10
208.2910443889923
 20
302.259783463825
 30
0.0
 10
208.2863445399998
 20
301.9887195544443
 30
0.0
 10
208.2812918341805
 20
301.8807204992155
 30
0.0
 10
208.2755902018475
 20
301.8761577998499
 30
0.0
  0
ARC
  5
D1
330
1F
100
AcDbEntity
  8
0
  6
Continuous
 62
     8
370
    18
100
AcDbCircle
 10
208.271448355
 20
302.3763133756
 30
0.0
 40
0.5001729828157422
100
AcDbArc
 50
180.0291501085
 51
270.4744773738
  0
SPLINE
  5
D2
330
1F
100
AcDbEntity
  8
0
  6
Continuous
 62
     8
370
    18
100
AcDbSpline
210
0.0
220
0.0
230
1.0
 70
     8
 71
     3
 72
     8
 73
     4
 74
     0
 42
0.000000001
 43
0.00000001
 40
0.0
 40
0.0
 40
0.0
 40
0.0
 40
1.0
 40
1.0
 40
1.0
 40
1.0
 10
183.6065354148178
 20
355.7609565068859
 30
0.0
 10
185.4453422996583
 20
355.7886916079618
 30
0.0
 10
187.2842111439716
 20
355.8113650355498
 30
0.0
 10
189.1231416766012
 20
355.8289704052758
 30
0.0
  0
SPLINE
  5
D3
330
1F
100
AcDbEntity
  8
0
  6
Continuous
 62
     8
370
    18
100
AcDbSpline
210
0.0
220
0.0
230
1.0
 70
     8
 71
     3
 72
    12
 73
     8
 74
     0
 42
0.000000001
 43
0.00000001
 40
0.0
 40
0.0
 40
0.0
 40
0.0
 40
0.25
 40
0.25
 40
0.5
 40
0.5
 40
1.0
 40
1.0
 40
1.0
 40
1.0
 10
189.106084892402
 20
354.8458315327553
 30
0.0
 10
189.1055134179033
 20
354.9749913227603
 30
0.0
 10
189.1055046163576
 20
355.1011849723084
 30
0.0
 10
189.1065907044067
 20
355.3374215496368
 30
0.0
 10
189.1076874894558
 20
355.4453447413187
 30
0.0
 10
189.1123873384485
 20
355.7164086506874
 30
0.0
 10
189.1174400442678
 20
355.8244077059103
 30
0.0
 10
189.1231416766008
 20
355.8289704052757
 30
0.0
  0
ARC
  5
D4
330
1F
100
AcDbEntity
  8
0
  6
Continuous
 62
     8
370
    18
100
AcDbCircle
 10
189.1272849609
 20
355.3288154438
 30
0.0
 40
0.500172409282894
100
AcDbArc
 50
0.0291898629
 51
90.4746303242
  0
LWPOLYLINE
  5
D5
330
1F
100
AcDbEntity
  8
0
  6
Continuous
 62
     8
370
    18
100
AcDbPolyline
 90
        3
 70
   128
 43
0.0
 10
182.7624838449
 20
356.5948792012
 10
183.1851306021
 20
356.177303961
 10
183.6065354407
 20
355.7609580667
  0
LWPOLYLINE
  5
D6
330
1F
100
AcDbEntity
  8
0
  6
Continuous
 62
     8
370
    18
100
AcDbPolyline
 90
        3
 70
   128
 43
0.0
 10
171.790974459
 20
343.9453952224
 10
171.3746267021
 20
344.366800061
 10
170.9570514619
 20
344.7894454212
  0
LINE
  5
D7
330
1F
100
AcDbEntity
  8
0
  6
Continuous
 62
     8
370
    18
100
AcDbLine
 10
226.4416816294
 20
344.7894454212
 30
0.0
 11
225.6077567697
 21
343.9453952224
 31
0.0
  0
LWPOLYLINE
  5
D8
330
1F
100
AcDbEntity
  8
0
  6
Continuous
 62
     8
370
    18
100
AcDbPolyline
 90
        3
 70
   128
 43
0.0
 10
213.792195788
 20
355.7609580667
 10
214.2136006266
 20
356.177303961
 10
214.6362478495
 20
356.5948792012
  0
LWPOLYLINE
  5
D9
330
1F
100
AcDbEntity
  8
0
  6
Continuous
 62
     8
370
    18
100
AcDbPolyline
 90
        3
 70
   128
 43
0.0
 10
170.9570514619
 20
312.9156821152
 10
171.3746267021
 20
313.3383288142
 10
171.790974459
 20
313.75973358
  0
LWPOLYLINE
  5
DA
330
1F
100
AcDbEntity
  8
0
  6
Continuous
 62
     8
370
    18
100
AcDbPolyline
 90
        3
 70
   128
 43
0.0
 10
183.6065354407
 20
301.9441720308
 10
183.1851306021
 20
301.5278252051
 10
182.7624838449
 20
301.1102490337
  0
LWPOLYLINE
  5
DB
330
1F
100
AcDbEntity
  8
0
  6
Continuous
 62
     8
370
    18
100
AcDbPolyline
 90
        3
 70
   128
 43
0.0
 10
214.6362478495
 20
301.1102490337
 10
214.2136006266
 20
301.5278252051
 10
213.792195788
 20
301.9441720308
  0
LWPOLYLINE
  5
DC
330
1F
100
AcDbEntity
  8
0
  6
Continuous
 62
     8
370
    18
100
AcDbPolyline
 90
        3
 70
   128
 43
0.0
 10
225.6077567697
 20
313.75973358
 10
226.0241063893
 20
313.3383288142
 10
226.4416816294
 20
312.9156821152
  0
ARC
  5
DD
330
1F
100
AcDbEntity
  8
0
  6
Continuous
 62
     8
370
    18
100
AcDbCircle
 10
-773.4224375445
 20
328.8525641026
 30
0.0
 40
999.9911201510922
100
AcDbArc
 50
359.0868371572
 51
0.9131628428
  0
SPLINE
  5
DE
330
1F
100
AcDbEntity
  8
0
  6
Continuous
 62
     8
370
    18
100
AcDbSpline
210
0.0
220
0.0
230
1.0
 70
     8
 71
     3
 72
    14
 73
    10
 74
     0
 42
0.000000001
 43
0.00000001
 40
0.0
 40
0.0
 40
0.0
 40
0.0
 40
0.2501974492071644
 40
0.3822308600766855
 40
0.5002876854245969
 40
0.635694781759607
 40
0.7641067802167985
 40
0.8855367151405262
 40
1.0
 40
1.0
 40
1.0
 40
1.0
 10
190.2014141981845
 20
301.6371643376293
 30
0.0
 10
190.090588640141
 20
301.6572049632885
 30
0.0
 10
189.9212785672219
 20
301.6878213648804
 30
0.0
 10
189.7118018617597
 20
301.7278812456235
 30
0.0
 10
189.5592192910129
 20
301.7587056086028
 30
0.0
 10
189.4207510154529
 20
301.7891660341476
 30
0.0
 10
189.2976453927273
 20
301.8197814988295
 30
0.0
 10
189.1964871547803
 20
301.8486200403615
 30
0.0
 10
189.1471040239134
 20
301.8671610713182
 30
0.0
 10
189.1231416761152
 20
301.8761578000496
 30
0.0
  0
SPLINE
  5
DF
330
1F
100
AcDbEntity
  8
0
  6
Continuous
 62
     8
370
    18
100
AcDbSpline
210
0.0
220
0.0
230
1.0
 70
     8
 71
     3
 72
    16
 73
    12
 74
     0
 42
0.000000001
 43
0.00000001
 40
0.0
 40
0.0
 40
0.0
 40
0.0
 40
0.0755272590884829
 40
0.1541516960516224
 40
0.235878284926145
 40
0.3207114551076675
 40
0.4086551676415504
 40
0.499712978717709
 40
0.6177295130397772
 40
0.749802883023504
 40
1.0
 40
1.0
 40
1.0
 40
1.0
 10
208.2755902018479
 20
301.8761577998499
 30
0.0
 10
208.2602295978026
 20
301.8702252985441
 30
0.0
 10
208.228878491003
 20
301.8581170193723
 30
0.0
 10
208.1698280365505
 20
301.8394967767695
 30
0.0
 10
208.1009660893963
 20
301.8200832305317
 30
0.0
 10
208.0213896624482
 20
301.7998707753375
 30
0.0
 10
207.9313649082956
 20
301.778864238026
 30
0.0
 10
207.8219856473972
 20
301.7551627544523
 30
0.0
 10
207.6869431585168
 20
301.7278844289391
 30
0.0
 10
207.4774729270027
 20
301.6878245959842
 30
0.0
 10
207.3081439654444
 20
301.6572049697614
 30
0.0
 10
207.1973176802676
 20
301.6371643376302
 30
0.0
  0
LWPOLYLINE
  5
E0
330
1F
100
AcDbEntity
  8
0
  6
Continuous
 62
     8
370
    18
100
AcDbPolyline
 90
        5
 70
   128
 43
0.0
 10
189.1231416491
 20
355.8289706917
 10
189.1667759743
 20
355.8468222828
 10
189.2540446249
 20
355.882525465
 10
189.3413132172
 20
355.9182211967
 10
189.4351190537
 20
355.9565805109
  0
LWPOLYLINE
  5
E1
330
1F
100
AcDbEntity
  8
0
  6
Continuous
 62
     8
370
    18
100
AcDbPolyline
 90
        5
 70
   128
 43
0.0
 10
207.9636084497
 20
355.9565805109
 10
208.007242775
 20
355.9387400956
 10
208.0945114255
 20
355.9030480893
 10
208.181780076
 20
355.8673523576
 10
208.2755903363
 20
355.8289706917
  0
SPLINE
  5
E2
330
1F
100
AcDbEntity
  8
0
  6
Continuous
 62
     8
370
    18
100
AcDbSpline
210
0.0
220
0.0
230
1.0
 70
     8
 71
     3
 72
    51
 73
    47
 74
     0
 42
0.000000001
 43
0.00000001
 40
0.0
 40
0.0
 40
0.0
 40
0.0
 40
0.0062846735712568
 40
0.012549522917594
 40
0.0187995019896201
 40
0.0250396002124297
 40
0.0312748307933956
 40
0.0375102187466132
 40
0.0437507887758883
 40
0.0500015531616731
 40
0.056267499797543
 40
0.0625535805173327
 40
0.0937630175360665
 40
0.1249865694308711
 40
0.1562184236702622
 40
0.1874530717828232
 40
0.218713412262696
 40
0.2499720963732996
 40
0.2813191493712049
 40
0.3126631273041854
 40
0.3439042810205426
 40
0.3751566020179101
 40
0.4063912813941232
 40
0.4376530476011378
 40
0.4688867745673191
 40
0.5001419118079964
 40
0.5313392424702492
 40
0.562585495786722
 40
0.5937510415712409
 40
0.6249842815586497
 40
0.6561660652259322
 40
0.6873635313583119
 40
0.7185997548527272
 40
0.7498443009154824
 40
0.7811915337448821
 40
0.8123812407144784
 40
0.8435984114269015
 40
0.8592849091753032
 40
0.8749531056832023
 40
0.9062156740463946
 40
0.937488154351303
 40
0.950023111867697
 40
0.962501730609099
 40
0.9749640158170245
 40
0.9874501285374854
 40
1.0
 40
1.0
 40
1.0
 40
1.0
 10
189.4351191050407
 20
355.9565791050307
 30
0.0
 10
189.364024111128
 20
355.9574541442336
 30
0.0
 10
189.2220583836614
 20
355.9592014624364
 30
0.0
 10
189.0188534222537
 20
355.9619822777236
 30
0.0
 10
188.8233073038186
 20
355.9648804348896
 30
0.0
 10
188.6360814214057
 20
355.9679121152496
 30
0.0
 10
188.4569997185698
 20
355.9710788752423
 30
0.0
 10
188.2861097869655
 20
355.974385914926
 30
0.0
 10
188.1233994175844
 20
355.9778372319765
 30
0.0
 10
187.9688719800643
 20
355.9814367838212
 30
0.0
 10
187.8225279207257
 20
355.9851886796491
 30
0.0
 10
187.5019937603543
 20
355.9942516932555
 30
0.0
 10
187.0931092307631
 20
356.0100738679741
 30
0.0
 10
186.7701394709323
 20
356.0352535490528
 30
0.0
 10
186.6802268357866
 20
356.0636912835436
 30
0.0
 10
186.8325854619059
 20
356.0949769632861
 30
0.0
 10
187.2173571361849
 20
356.1283106937188
 30
0.0
 10
187.8346512656285
 20
356.1628439935362
 30
0.0
 10
188.6660899802364
 20
356.1974416769885
 30
0.0
 10
189.7006644398332
 20
356.2308566639615
 30
0.0
 10
190.9109114079967
 20
356.2618301287221
 30
0.0
 10
192.2766940885643
 20
356.2891034502609
 30
0.0
 10
193.76865838207
 20
356.3116617410963
 30
0.0
 10
195.3597543563646
 20
356.3284573679293
 30
0.0
 10
197.0166172726198
 20
356.3388724297671
 30
0.0
 10
198.7063142406032
 20
356.3423316213192
 30
0.0
 10
200.3960237157483
 20
356.3388070918379
 30
0.0
 10
202.0500454065813
 20
356.328359886953
 30
0.0
 10
203.6391654198592
 20
356.3115410820347
 30
0.0
 10
205.1277417787256
 20
356.2889939774927
 30
0.0
 10
206.4915075044732
 20
356.2617435022117
 30
0.0
 10
207.6985134448057
 20
356.2308364882894
 30
0.0
 10
208.7302803327495
 20
356.1975152878746
 30
0.0
 10
209.5618977498197
 20
356.1629627354409
 30
0.0
 10
210.1777373919656
 20
356.1284682099774
 30
0.0
 10
210.5669747445876
 20
356.0951020165927
 30
0.0
 10
210.6917939017945
 20
356.0690491994989
 30
0.0
 10
210.6737298904773
 20
356.0495773922033
 30
0.0
 10
210.5755867245597
 20
356.031118757631
 30
0.0
 10
210.3059117530732
 20
356.0100863403966
 30
0.0
 10
209.8593542467442
 20
355.9928057060617
 30
0.0
 10
209.4340760698693
 20
355.9813615353534
 30
0.0
 10
209.1168486786283
 20
355.9743102987651
 30
0.0
 10
208.7661625539477
 20
355.967845424202
 30
0.0
 10
208.384646064966
 20
355.961886552086
 30
0.0
 10
208.104192936908
 20
355.9583522132244
 30
0.0
 10
207.9636092601225
 20
355.9565805433714
 30
0.0
  0
SPLINE
  5
E3
330
1F
100
AcDbEntity
  8
0
  6
Continuous
 62
     8
370
    18
100
AcDbSpline
210
0.0
220
0.0
230
1.0
 70
     8
 71
     3
 72
    29
 73
    25
 74
     0
 42
0.000000001
 43
0.00000001
 40
0.0
 40
0.0
 40
0.0
 40
0.0
 40
0.0444405705449228
 40
0.0705295101165872
 40
0.0950548118244137
 40
0.1180161350604419
 40
0.1394131720201557
 40
0.1592458146915769
 40
0.177513839168514
 40
0.2619192248188096
 40
0.3437408048547719
 40
0.4229764304783067
 40
0.4996242729296684
 40
0.57645607786109
 40
0.6558098702577675
 40
0.6828417515622299
 40
0.7101542007520205
 40
0.7377471943165566
 40
0.7656206305280484
 40
0.7937744379578433
 40
0.8222085734079495
 40
0.8817854439248564
 40
0.9554904779860871
 40
1.0
 40
1.0
 40
1.0
 40
1.0
 10
207.5446474015661
 20
355.7479195506568
 30
0.0
 10
207.3523666442553
 20
355.7539049108982
 30
0.0
 10
207.0472070243025
 20
355.7634039906921
 30
0.0
 10
206.5889158574599
 20
355.7756618107413
 30
0.0
 10
206.2218300445569
 20
355.7849432264053
 30
0.0
 10
205.8647558832128
 20
355.7933809946107
 30
0.0
 10
205.5216385228366
 20
355.8009642951717
 30
0.0
 10
205.1949052749173
 20
355.8077196863957
 30
0.0
 10
204.5066228405674
 20
355.8208703232484
 30
0.0
 10
203.4076678651251
 20
355.8379729141391
 30
0.0
 10
201.8474622380472
 20
355.8548638964455
 30
0.0
 10
200.2743272879294
 20
355.8650341797862
 30
0.0
 10
198.7050518566026
 20
355.8685670435739
 30
0.0
 10
197.1350274361842
 20
355.865092677569
 30
0.0
 10
195.9218322578742
 20
355.8572927960654
 30
0.0
 10
195.0606311428906
 20
355.8493060842425
 30
0.0
 10
194.5411292286452
 20
355.8437249393187
 30
0.0
 10
194.0261022057972
 20
355.8373898293557
 30
0.0
 10
193.5170362412898
 20
355.8303150503664
 30
0.0
 10
193.0155961344041
 20
355.8224829314013
 30
0.0
 10
192.344989705705
 20
355.8108634104946
 30
0.0
 10
191.4591485107694
 20
355.7922897221267
 30
0.0
 10
190.5604611605578
 20
355.7697778488816
 30
0.0
 10
190.0473071454505
 20
355.7538875726194
 30
0.0
 10
189.8540970984794
 20
355.7479046494956
 30
0.0
  0
SPLINE
  5
E4
330
1F
100
AcDbEntity
  8
0
  6
Continuous
 62
     7
370
    25
100
AcDbSpline
210
0.0
220
0.0
230
1.0
 70
     8
 71
     3
 72
     9
 73
     5
 74
     0
 42
0.000000001
 43
0.00000001
 40
0.0
 40
0.0
 40
0.0
 40
0.0
 40
0.499390232174287
 40
1.0
 40
1.0
 40
1.0
 40
1.0
 10
208.3122676819511
 20
141.3366087082433
 30
0.0
 10
211.0473602422917
 20
141.3821584202367
 30
0.0
 10
216.5242245943082
 20
141.4733690788735
 30
0.0
 10
222.0006489464997
 20
141.5879947842373
 30
0.0
 10
224.7422004699655
 20
141.6453775319862
 30
0.0
  0
SPLINE
  5
E5
330
1F
100
AcDbEntity
  8
0
  6
Continuous
 62
     7
370
    25
100
AcDbSpline
210
0.0
220
0.0
230
1.0
 70
     8
 71
     3
 72
     9
 73
     5
 74
     0
 42
0.000000001
 43
0.00000001
 40
0.0
 40
0.0
 40
0.0
 40
0.0
 40
0.5006097270474347
 40
1.0
 40
1.0
 40
1.0
 40
1.0
 10
172.6565307587333
 20
141.6453775319862
 30
0.0
 10
175.3980822821682
 20
141.5879947824527
 30
0.0
 10
180.8745070803927
 20
141.473369064187
 30
0.0
 10
186.351371878882
 20
141.3821584178259
 30
0.0
 10
189.0864648855239
 20
141.3366087082433
 30
0.0
  0
ARC
  5
E6
330
1F
100
AcDbEntity
  8
0
  6
Continuous
 62
     7
370
    25
100
AcDbCircle
 10
208.3058543117
 20
141.8361672947
 30
0.0
 40
0.5000000000000033
100
AcDbArc
 50
182.4985675568
 51
270.9890416666
  0
ARC
  5
E7
330
1F
100
AcDbEntity
  8
0
  6
Continuous
 62
     7
370
    25
100
AcDbCircle
 10
189.0928775667
 20
141.8361672946
 30
0.0
 40
0.4999999999999968
100
AcDbArc
 50
269.416573106
 51
357.5014324432
  0
ARC
  5
E8
330
1F
100
AcDbEntity
  8
0
  6
Continuous
 62
     7
370
    25
100
AcDbCircle
 10
171.3299731194
 20
191.1647009379
 30
0.0
 40
0.5000000000000068
100
AcDbArc
 50
90.0
 51
181.0
  0
ARC
  5
E9
330
1F
100
AcDbEntity
  8
0
  6
Continuous
 62
     7
370
    25
100
AcDbCircle
 10
226.068758759
 20
191.1647009379
 30
0.0
 40
0.5
100
AcDbArc
 50
359.0
 51
90.0
  0
LINE
  5
EA
330
1F
100
AcDbEntity
  8
0
  6
Continuous
 62
     7
370
    25
100
AcDbLine
 10
170.8300488651
 20
191.155973852
 30
0.0
 11
171.6771128237
 21
142.6276937429
 31
0.0
  0
LINE
  5
EB
330
1F
100
AcDbEntity
  8
0
  6
Continuous
 62
     7
370
    25
100
AcDbLine
 10
225.7216165423
 20
142.6276937429
 30
0.0
 11
226.5686842263
 21
191.155973852
 31
0.0
  0
ARC
  5
EC
330
1F
100
AcDbEntity
  8
0
  6
Continuous
 62
     7
370
    25
100
AcDbCircle
 10
224.7217706059
 20
142.6451455781
 30
0.0
 40
1.000000000000036
100
AcDbArc
 50
268.3766638542
 51
358.97705409
  0
ARC
  5
ED
330
1F
100
AcDbEntity
  8
0
  6
Continuous
 62
     7
370
    25
100
AcDbCircle
 10
172.6769612725
 20
142.6451455781
 30
0.0
 40
1.000000000000004
100
AcDbArc
 50
180.9863984761
 51
271.623336133
  0
SPLINE
  5
EE
330
1F
100
AcDbEntity
  8
0
  6
Continuous
 62
     7
370
    25
100
AcDbSpline
210
0.0
220
0.0
230
1.0
 70
    24
 71
     3
 72
    26
 73
    22
 74
     0
 42
0.000000001
 43
0.00000001
 40
0.0
 40
0.0
 40
0.0
 40
0.0
 40
0.1249999999999985
 40
0.1249999999999985
 40
0.1874999999999978
 40
0.1874999999999978
 40
0.2499999999999971
 40
0.2499999999999971
 40
0.3749999999999973
 40
0.3749999999999973
 40
0.4999999999999974
 40
0.4999999999999974
 40
0.6249999999999976
 40
0.6249999999999976
 40
0.687499999999998
 40
0.687499999999998
 40
0.7499999999999983
 40
0.7499999999999983
 40
0.8749999999999991
 40
0.8749999999999991
 40
1.0
 40
1.0
 40
1.0
 40
1.0
 10
171.4569109239232
 20
191.6647009379205
 30
0.0
 10
171.4687643984232
 20
191.6647009379205
 30
0.0
 10
171.5518804295745
 20
191.6647009379205
 30
0.0
 10
171.7790624725232
 20
191.6647009379205
 30
0.0
 10
171.8719965890637
 20
191.6647009379205
 30
0.0
 10
172.0929967800167
 20
191.6647009379205
 30
0.0
 10
172.2218181689942
 20
191.6647009379205
 30
0.0
 10
172.6538885691464
 20
191.6647009379205
 30
0.0
 10
173.0035209111663
 20
191.6647009379205
 30
0.0
 10
173.8241644091918
 20
191.6647009379205
 30
0.0
 10
174.3005775215485
 20
191.6647009379205
 30
0.0
 10
175.3400235162734
 20
191.6647009379205
 30
0.0
 10
175.9055000982639
 20
191.6647009379205
 30
0.0
 10
176.8231993060139
 20
191.6647009379205
 30
0.0
 10
177.1423330456007
 20
191.6647009379205
 30
0.0
 10
177.7916411749823
 20
191.6647009379205
 30
0.0
 10
178.1228346993776
 20
191.6647009379205
 30
0.0
 10
179.1356103670285
 20
191.6647009379205
 30
0.0
 10
179.8362069839522
 20
191.6647009379205
 30
0.0
 10
181.2902783602023
 20
191.6647009379205
 30
0.0
 10
182.0267752538914
 20
191.6647009379205
 30
0.0
 10
182.7704512563382
 20
191.6647009379205
 30
0.0
  0
SPLINE
  5
EF
330
1F
100
AcDbEntity
  8
0
  6
Continuous
 62
     7
370
    25
100
AcDbSpline
210
0.0
220
0.0
230
1.0
 70
    24
 71
     3
 72
    26
 73
    22
 74
     0
 42
0.000000001
 43
0.00000001
 40
0.0
 40
0.0
 40
0.0
 40
0.0
 40
0.1250000000000009
 40
0.1250000000000009
 40
0.1875000000000012
 40
0.1875000000000012
 40
0.2500000000000015
 40
0.2500000000000015
 40
0.3750000000000011
 40
0.3750000000000011
 40
0.5000000000000008
 40
0.5000000000000008
 40
0.6250000000000004
 40
0.6250000000000004
 40
0.6875000000000002
 40
0.6875000000000002
 40
0.7499999999999999
 40
0.7499999999999999
 40
0.875
 40
0.875
 40
1.0
 40
1.0
 40
1.0
 40
1.0
 10
214.6282806221117
 20
191.6647009379205
 30
0.0
 10
215.3719558184553
 20
191.6647009379205
 30
0.0
 10
216.1023242020214
 20
191.6647009379205
 30
0.0
 10
217.1787355231407
 20
191.6647009379205
 30
0.0
 10
217.5343262876191
 20
191.6647009379205
 30
0.0
 10
218.238947647984
 20
191.6647009379205
 30
0.0
 10
218.5894088882017
 20
191.6647009379205
 30
0.0
 10
219.6096627957776
 20
191.6647009379205
 30
0.0
 10
220.2544075032199
 20
191.6647009379205
 30
0.0
 10
221.4740785683289
 20
191.6647009379205
 30
0.0
 10
222.0529223166149
 20
191.6647009379205
 30
0.0
 10
223.093063899051
 20
191.6647009379205
 30
0.0
 10
223.5600533778256
 20
191.6647009379205
 30
0.0
 10
224.179924902719
 20
191.6647009379205
 30
0.0
 10
224.3737320210267
 20
191.6647009379205
 30
0.0
 10
224.7262543447679
 20
191.6647009379205
 30
0.0
 10
224.8858548593492
 20
191.6647009379205
 30
0.0
 10
225.3157528677826
 20
191.6647009379205
 30
0.0
 10
225.5376069957466
 20
191.6647009379205
 30
0.0
 10
225.8465970762136
 20
191.6647009379205
 30
0.0
 10
225.9299674671782
 20
191.6647009379205
 30
0.0
 10
225.9418209545267
 20
191.6647009379205
 30
0.0
  0
LINE
  5
F0
330
1F
100
AcDbEntity
  8
0
  6
Continuous
 62
     7
370
    25
100
AcDbLine
 10
182.7704513095
 20
191.6647013578
 30
0.0
 11
214.6282813162
 21
191.6647013578
 31
0.0
  0
SPLINE
  5
F1
330
1F
100
AcDbEntity
  8
0
  6
Continuous
 62
     7
370
    25
100
AcDbSpline
210
0.0
220
0.0
230
1.0
 70
     8
 71
     3
 72
    26
 73
    22
 74
     0
 42
0.000000001
 43
0.00000001
 40
0.0
 40
0.0
 40
0.0
 40
0.0
 40
0.1250000000000002
 40
0.1250000000000002
 40
0.1875000000000002
 40
0.1875000000000002
 40
0.2500000000000002
 40
0.2500000000000002
 40
0.3750000000000001
 40
0.3750000000000001
 40
0.5
 40
0.5
 40
0.625
 40
0.625
 40
0.6875
 40
0.6875
 40
0.75
 40
0.75
 40
0.875
 40
0.875
 40
1.0
 40
1.0
 40
1.0
 40
1.0
 10
224.6201753479522
 20
141.6532910464016
 30
0.0
 10
224.6087150888849
 20
141.6542744068532
 30
0.0
 10
224.5288700750036
 20
141.6545944762836
 30
0.0
 10
224.3110113136601
 20
141.6550054176923
 30
0.0
 10
224.2219212077471
 20
141.6551206384839
 30
0.0
 10
224.010114167752
 20
141.6553587273911
 30
0.0
 10
223.8866818340929
 20
141.6554814826944
 30
0.0
 10
223.4727351469792
 20
141.6558596679116
 30
0.0
 10
223.13778742093
 20
141.6561259788244
 30
0.0
 10
222.3514799543841
 20
141.6565231409198
 30
0.0
 10
221.89499162224
 20
141.6566460646714
 30
0.0
 10
220.8990069261488
 20
141.6566468896458
 30
0.0
 10
220.3571051109275
 20
141.6565283381422
 30
0.0
 10
219.4775523114017
 20
141.6562311097051
 30
0.0
 10
219.1717170356638
 20
141.6561127419328
 30
0.0
 10
218.5495710819309
 20
141.6558651134011
 30
0.0
 10
218.2322151770036
 20
141.6557360603724
 30
0.0
 10
217.2617086592932
 20
141.6553602770569
 30
0.0
 10
216.5902959837383
 20
141.6551504990013
 30
0.0
 10
215.1966699733129
 20
141.6545979050579
 30
0.0
 10
214.491276001682
 20
141.6542743754638
 30
0.0
 10
213.7786681821014
 20
141.6532910666577
 30
0.0
  0
SPLINE
  5
F2
330
1F
100
AcDbEntity
  8
0
  6
Continuous
 62
     7
370
    25
100
AcDbSpline
210
0.0
220
0.0
230
1.0
 70
     8
 71
     3
 72
    17
 73
    13
 74
     0
 42
0.000000001
 43
0.00000001
 40
0.0
 40
0.0
 40
0.0
 40
0.0
 40
0.0745451704630815
 40
0.1530154380143992
 40
0.2352082863876027
 40
0.3207676510389411
 40
0.4092027778918192
 40
0.4999211663383143
 40
0.610559033992592
 40
0.7495804526288763
 40
0.9116127472336752
 40
1.0
 40
1.0
 40
1.0
 40
1.0
 10
207.4514848685881
 20
149.9519968990598
 30
0.0
 10
207.4530750803955
 20
149.951217834852
 30
0.0
 10
207.4563392349309
 20
149.9496186856346
 30
0.0
 10
207.4711034426101
 20
149.9440688438829
 30
0.0
 10
207.4938011979959
 20
149.9355949081322
 30
0.0
 10
207.5254778011355
 20
149.923809732652
 30
0.0
 10
207.5658547619227
 20
149.9088980119504
 30
0.0
 10
207.6178387396111
 20
149.8901988407572
 30
0.0
 10
207.6877118753897
 20
149.8660369843071
 30
0.0
 10
207.7819012163015
 20
149.8334783335832
 30
0.0
 10
207.8781696719822
 20
149.8004361254185
 30
0.0
 10
207.9413198206464
 20
149.7796369936161
 30
0.0
 10
207.9636090876418
 20
149.7722958010485
 30
0.0
  0
SPLINE
  5
F3
330
1F
100
AcDbEntity
  8
0
  6
Continuous
 62
     7
370
    25
100
AcDbSpline
210
0.0
220
0.0
230
1.0
 70
     8
 71
     3
 72
    14
 73
    10
 74
     0
 42
0.000000001
 43
0.00000001
 40
0.0
 40
0.0
 40
0.0
 40
0.0
 40
0.0773729196773545
 40
0.2507038728631325
 40
0.3898322697505698
 40
0.5007297103180512
 40
0.679542826706311
 40
0.8470781180649918
 40
1.0
 40
1.0
 40
1.0
 40
1.0
 10
189.4351195058441
 20
149.7722149741132
 30
0.0
 10
189.4545979756363
 20
149.778643996153
 30
0.0
 10
189.51771214833
 20
149.7994753248764
 30
0.0
 10
189.6143272645204
 20
149.832514128515
 30
0.0
 10
189.7110231426429
 20
149.8659733672312
 30
0.0
 10
189.7990114863294
 20
149.8963783760846
 30
0.0
 10
189.8754157968572
 20
149.9245325952304
 30
0.0
 10
189.93225717848
 20
149.945560838326
 30
0.0
 10
189.9424025216786
 20
149.9498694218114
 30
0.0
 10
189.9472438705517
 20
149.9519254740704
 30
0.0
  0
SPLINE
  5
F4
330
1F
100
AcDbEntity
  8
0
  6
Continuous
 62
     7
370
    25
100
AcDbSpline
210
0.0
220
0.0
230
1.0
 70
     8
 71
     3
 72
     8
 73
     4
 74
     0
 42
0.000000001
 43
0.00000001
 40
0.0
 40
0.0
 40
0.0
 40
0.0
 40
0.0000212579143989
 40
0.0000212579143989
 40
0.0000212579143989
 40
0.0000212579143989
 10
189.9472469597885
 20
149.9519971612561
 30
0.0
 10
189.9475572750586
 20
149.9522045697546
 30
0.0
 10
189.9477242126317
 20
149.9525816395042
 30
0.0
 10
189.9477480004913
 20
149.9531264710909
 30
0.0
  0
LINE
  5
F5
330
1F
100
AcDbEntity
  8
0
  6
Continuous
 62
     7
370
    25
100
AcDbLine
 10
189.9477479862
 20
149.9531269375
 30
0.0
 11
189.6274573052
 21
142.61726293
 31
0.0
  0
LINE
  5
F6
330
1F
100
AcDbEntity
  8
0
  6
Continuous
 62
     7
370
    25
100
AcDbLine
 10
207.7712754369
 20
142.61726293
 30
0.0
 11
207.4509842902
 21
149.9531269375
 31
0.0
  0
SPLINE
  5
F7
330
1F
100
AcDbEntity
  8
0
  6
Continuous
 62
     7
370
    25
100
AcDbSpline
210
0.0
220
0.0
230
1.0
 70
     8
 71
     3
 72
     8
 73
     4
 74
     0
 42
0.000000001
 43
0.00000001
 40
0.0
 40
0.0
 40
0.0
 40
0.0
 40
0.0000212564719424
 40
0.0000212564719424
 40
0.0000212564719424
 40
0.0000212564719424
 10
207.4509838779585
 20
149.9531264710909
 30
0.0
 10
207.4510076642058
 20
149.9525816764758
 30
0.0
 10
207.4511745807103
 20
149.9522046209168
 30
0.0
 10
207.4514848554685
 20
149.9519972035065
 30
0.0
  0
SPLINE
  5
F8
330
1F
100
AcDbEntity
  8
0
  6
Continuous
 62
     7
370
    25
100
AcDbSpline
210
0.0
220
0.0
230
1.0
 70
    24
 71
     3
 72
    10
 73
     6
 74
     0
 42
0.000000001
 43
0.00000001
 40
0.0
 40
0.0
 40
0.0
 40
0.0
 40
0.5
 40
0.5
 40
1.0
 40
1.0
 40
1.0
 40
1.0
 10
207.792720232258
 20
142.1260771328406
 30
0.0
 10
207.7926248112574
 20
142.1282626330658
 30
0.0
 10
207.7902685128283
 20
142.1822307398494
 30
0.0
 10
207.7823823163754
 20
142.3628543344755
 30
0.0
 10
207.7769110764183
 20
142.4881663317108
 30
0.0
 10
207.771274607646
 20
142.6172626909932
 30
0.0
  0
SPLINE
  5
F9
330
1F
100
AcDbEntity
  8
0
  6
Continuous
 62
     7
370
    25
100
AcDbSpline
210
0.0
220
0.0
230
1.0
 70
    24
 71
     3
 72
    10
 73
     6
 74
     0
 42
0.000000001
 43
0.00000001
 40
0.0
 40
0.0
 40
0.0
 40
0.0
 40
0.5
 40
0.5
 40
1.0
 40
1.0
 40
1.0
 40
1.0
 10
189.6274572712915
 20
142.6172627021618
 30
0.0
 10
189.6218209163228
 20
142.4881689494099
 30
0.0
 10
189.6163364122075
 20
142.3625531530034
 30
0.0
 10
189.6084562130975
 20
142.1820669201132
 30
0.0
 10
189.6061070657352
 20
142.1282625996899
 30
0.0
 10
189.6060116466338
 20
142.1260771429622
 30
0.0
  0
SPLINE
  5
FA
330
1F
100
AcDbEntity
  8
0
  6
Continuous
 62
     7
370
    25
100
AcDbSpline
210
0.0
220
0.0
230
1.0
 70
     8
 71
     3
 72
    53
 73
    49
 74
     0
 42
0.000000001
 43
0.00000001
 40
0.0
 40
0.0
 40
0.0
 40
0.0
 40
0.0312499999999999
 40
0.0312499999999999
 40
0.0624999999999998
 40
0.0624999999999998
 40
0.1249999999999996
 40
0.1249999999999996
 40
0.1874999999999993
 40
0.1874999999999993
 40
0.2499999999999991
 40
0.2499999999999991
 40
0.3124999999999989
 40
0.3124999999999989
 40
0.3749999999999988
 40
0.3749999999999988
 40
0.4062499999999987
 40
0.4062499999999987
 40
0.4374999999999987
 40
0.4374999999999987
 40
0.4999999999999988
 40
0.4999999999999988
 40
0.5312499999999989
 40
0.5312499999999989
 40
0.562499999999999
 40
0.562499999999999
 40
0.5937499999999991
 40
0.5937499999999991
 40
0.6249999999999992
 40
0.6249999999999992
 40
0.6874999999999993
 40
0.6874999999999993
 40
0.7187499999999994
 40
0.7187499999999994
 40
0.7499999999999996
 40
0.7812499999999997
 40
0.7812499999999997
 40
0.8124999999999998
 40
0.8124999999999998
 40
0.8437499999999999
 40
0.8437499999999999
 40
0.875
 40
0.875
 40
0.9375000000000001
 40
0.9375000000000001
 40
0.9687500000000001
 40
0.9687500000000001
 40
1.0
 40
1.0
 40
1.0
 40
1.0
 10
207.197317680265
 20
155.7630375905901
 30
0.0
 10
207.2555045430939
 20
156.073151572248
 30
0.0
 10
207.2970832979929
 20
156.3889816277549
 30
0.0
 10
207.3450028356044
 20
157.0240211409164
 30
0.0
 10
207.3512649596981
 20
157.3401481907492
 30
0.0
 10
207.3186683294484
 20
158.2844857285599
 30
0.0
 10
207.2286927673737
 20
158.9100607476059
 30
0.0
 10
206.9084092701056
 20
160.1444864742373
 30
0.0
 10
206.6836490278287
 20
160.7331687877424
 30
0.0
 10
206.1092937674561
 20
161.8554213646476
 30
0.0
 10
205.7546746292278
 20
162.3931710202037
 30
0.0
 10
204.9491561847643
 20
163.3632693202607
 30
0.0
 10
204.4965910458147
 20
163.8016421645327
 30
0.0
 10
203.4885437125161
 20
164.5819470073941
 30
0.0
 10
202.9483661181298
 20
164.9114843313756
 30
0.0
 10
202.0932658684101
 20
165.313448838313
 30
0.0
 10
201.8002966582084
 20
165.4322133291339
 30
0.0
 10
201.1979754915859
 20
165.6383152430042
 30
0.0
 10
200.8909825784546
 20
165.7246559523796
 30
0.0
 10
199.9668195258675
 20
165.9308919040786
 30
0.0
 10
199.3409461137352
 20
166.0005913148126
 30
0.0
 10
198.3871673915654
 20
166.0012230066518
 30
0.0
 10
198.0680224320674
 20
165.9837195732691
 30
0.0
 10
197.4401158955199
 20
165.9146713911875
 30
0.0
 10
197.1295079467627
 20
165.8631599878899
 30
0.0
 10
196.5149166015125
 20
165.7264977367702
 30
0.0
 10
196.2109328805129
 20
165.6413485380977
 30
0.0
 10
195.6097646447793
 20
165.4365231371424
 30
0.0
 10
195.3129076291314
 20
165.3166612597327
 30
0.0
 10
194.4544830789583
 20
164.9139818632482
 30
0.0
 10
193.9170826060976
 20
164.5862454197623
 30
0.0
 10
193.1638716040584
 20
164.0047472686245
 30
0.0
 10
192.921412231346
 20
163.7951872165291
 30
0.0
 10
192.4662829618561
 20
163.3558611040449
 30
0.0
 10
192.037723784373
 20
162.8940793239717
 30
0.0
 10
191.6614959816968
 20
162.3880675611883
 30
0.0
 10
191.3119811485194
 20
161.8594771613518
 30
0.0
 10
191.1502355842268
 20
161.5828929283722
 30
0.0
 10
190.8602783914417
 20
161.0173962118533
 30
0.0
 10
190.7312112030955
 20
160.7273937826124
 30
0.0
 10
190.5049969789993
 20
160.1328356230567
 30
0.0
 10
190.4079603939063
 20
159.8278743639224
 30
0.0
 10
190.170319038502
 20
158.9094659855911
 30
0.0
 10
190.0800087933437
 20
158.2866336614489
 30
0.0
 10
190.0474035486384
 20
157.3364374371179
 30
0.0
 10
190.0541166986021
 20
157.0158879816457
 30
0.0
 10
190.1022009016294
 20
156.3847174467836
 30
0.0
 10
190.1433844929697
 20
156.0723139815842
 30
0.0
 10
190.2014141981804
 20
155.7630375906143
 30
0.0
  0
SPLINE
  5
FB
330
1F
100
AcDbEntity
  8
0
  6
Continuous
 62
     7
370
    25
100
AcDbSpline
210
0.0
220
0.0
230
1.0
 70
    24
 71
     3
 72
    20
 73
    16
 74
     0
 42
0.000000001
 43
0.00000001
 40
0.0
 40
0.0
 40
0.0
 40
0.0
 40
0.25
 40
0.25
 40
0.5
 40
0.5
 40
0.625
 40
0.625
 40
0.75
 40
0.75
 40
0.875
 40
0.875
 40
0.9375
 40
0.9375
 40
1.0
 40
1.0
 40
1.0
 40
1.0
 10
189.9477480004913
 20
149.9531264710909
 30
0.0
 10
189.9628994558077
 20
150.3001518513739
 30
0.0
 10
189.9785779326436
 20
150.6592480089791
 30
0.0
 10
190.0115968360928
 20
151.4155052322459
 30
0.0
 10
190.0289106791242
 20
151.8120574337796
 30
0.0
 10
190.0570987124781
 20
152.4576695409887
 30
0.0
 10
190.0668703382104
 20
152.6814765657886
 30
0.0
 10
190.087529813585
 20
153.1546563461224
 30
0.0
 10
190.0984058320371
 20
153.4037581228489
 30
0.0
 10
190.1219899389576
 20
153.9439229784253
 30
0.0
 10
190.134637619165
 20
154.2336024806277
 30
0.0
 10
190.1563618906862
 20
154.7311701022592
 30
0.0
 10
190.1640678304154
 20
154.9076651391469
 30
0.0
 10
190.1811040165758
 20
155.2978579528057
 30
0.0
 10
190.1903746370848
 20
155.5101900714312
 30
0.0
 10
190.2014141981845
 20
155.7630375906165
 30
0.0
  0
SPLINE
  5
FC
330
1F
100
AcDbEntity
  8
0
  6
Continuous
 62
     7
370
    25
100
AcDbSpline
210
0.0
220
0.0
230
1.0
 70
    24
 71
     3
 72
    20
 73
    16
 74
     0
 42
0.000000001
 43
0.00000001
 40
0.0
 40
0.0
 40
0.0
 40
0.0
 40
0.0624999999999999
 40
0.0624999999999999
 40
0.1249999999999998
 40
0.1249999999999998
 40
0.2499999999999998
 40
0.2499999999999998
 40
0.3749999999999997
 40
0.3749999999999997
 40
0.4999999999999998
 40
0.4999999999999998
 40
0.7499999999999998
 40
0.7499999999999998
 40
1.0
 40
1.0
 40
1.0
 40
1.0
 10
207.1973176802667
 20
155.7630375905861
 30
0.0
 10
207.2083576521237
 20
155.5101806635139
 30
0.0
 10
207.2176342061361
 20
155.2977126453163
 30
0.0
 10
207.2346710977036
 20
154.9075036751788
 30
0.0
 10
207.2423763175192
 20
154.7310251270236
 30
0.0
 10
207.2640974253397
 20
154.2335299660514
 30
0.0
 10
207.2767416119687
 20
153.9439304799492
 30
0.0
 10
207.3003183593999
 20
153.4039341843915
 30
0.0
 10
207.3111973392392
 20
153.1547645807448
 30
0.0
 10
207.3318601219524
 20
152.681509049903
 30
0.0
 10
207.3416327852336
 20
152.457678261327
 30
0.0
 10
207.3698229920807
 20
151.8120163729394
 30
0.0
 10
207.3871370566956
 20
151.4154590963105
 30
0.0
 10
207.4201555472861
 20
150.6592113290626
 30
0.0
 10
207.4358333378625
 20
150.3001308893826
 30
0.0
 10
207.4509838779585
 20
149.9531264710909
 30
0.0
  0
SPLINE
  5
FD
330
1F
100
AcDbEntity
  8
0
  6
Continuous
 62
     7
370
    25
100
AcDbSpline
210
0.0
220
0.0
230
1.0
 70
     8
 71
     3
 72
     9
 73
     5
 74
     0
 42
0.000000001
 43
0.00000001
 40
0.0
 40
0.0
 40
0.0
 40
0.0
 40
0.0001354131231286
 40
1.0
 40
1.0
 40
1.0
 40
1.0
 10
224.7422004699655
 20
141.6453551802444
 30
0.0
 10
224.7422054376963
 20
141.6453551802223
 30
0.0
 10
224.7788911790208
 20
141.6453550165908
 30
0.0
 10
224.7048030147927
 20
141.6489800513166
 30
0.0
 10
224.6307248830743
 20
141.6526045951652
 30
0.0
  0
LINE
  5
FE
330
1F
100
AcDbEntity
  8
0
  6
Continuous
 62
     7
370
    25
100
AcDbLine
 10
208.3120683789
 20
141.3480490747
 30
0.0
 11
208.3121093571
 21
141.347423226
 31
0.0
  0
LINE
  5
FF
330
1F
100
AcDbEntity
  8
0
  6
Continuous
 62
     7
370
    25
100
AcDbLine
 10
172.7714354753
 20
141.6528281126
 30
0.0
 11
172.6565307587
 21
141.6453551802
 31
0.0
  0
SPLINE
  5
100
330
1F
100
AcDbEntity
  8
0
  6
Continuous
 62
     7
370
    25
100
AcDbSpline
210
0.0
220
0.0
230
1.0
 70
     8
 71
     3
 72
     9
 73
     5
 74
     0
 42
0.000000001
 43
0.00000001
 40
0.0
 40
0.0
 40
0.0
 40
0.0
 40
0.4714367712403128
 40
0.9999999999999999
 40
0.9999999999999999
 40
0.9999999999999999
 40
0.9999999999999999
 10
207.8058405429073
 20
141.8255605104971
 30
0.0
 10
207.8051000577138
 20
141.84252600162
 30
0.0
 10
207.803529358866
 20
141.8785127810948
 30
0.0
 10
207.7964578238542
 20
142.0404720841031
 30
0.0
 10
207.7927200704761
 20
142.1260778162288
 30
0.0
  0
SPLINE
  5
101
330
1F
100
AcDbEntity
  8
0
  6
Continuous
 62
     7
370
    25
100
AcDbSpline
210
0.0
220
0.0
230
1.0
 70
     8
 71
     3
 72
    10
 73
     6
 74
     0
 42
0.000000001
 43
0.00000001
 40
0.0
 40
0.0
 40
0.0
 40
0.0
 40
0.4712071109592907
 40
0.9424285158159722
 40
1.0
 40
1.0
 40
1.0
 40
1.0
 10
189.606011623884
 20
142.1260778162288
 30
0.0
 10
189.603096844653
 20
142.0593189479864
 30
0.0
 10
189.5972671977722
 20
141.9257991863954
 30
0.0
 10
189.5912881129281
 20
141.7888481755147
 30
0.0
 10
189.5927334440782
 20
141.8219559538267
 30
0.0
 10
189.5928908022069
 20
141.8255605104971
 30
0.0
  0
LINE
  5
102
330
1F
100
AcDbEntity
  8
0
  6
Continuous
 62
     7
370
    25
100
AcDbLine
 10
171.3299735099
 20
191.6647013578
 30
0.0
 11
171.4569109142
 21
191.6647013578
 31
0.0
  0
LINE
  5
103
330
1F
100
AcDbEntity
  8
0
  6
Continuous
 62
     7
370
    25
100
AcDbLine
 10
225.9418221772
 20
191.6647013578
 30
0.0
 11
226.0687577188
 21
191.6647013578
 31
0.0
  0
SPLINE
  5
104
330
1F
100
AcDbEntity
  8
0
  6
Continuous
 62
     8
370
    18
100
AcDbSpline
210
0.0
220
0.0
230
1.0
 70
     8
 71
     3
 72
    26
 73
    22
 74
     0
 42
0.000000001
 43
0.00000001
 40
0.0
 40
0.0
 40
0.0
 40
0.0
 40
0.1250000000000001
 40
0.1250000000000001
 40
0.2500000000000001
 40
0.2500000000000001
 40
0.3125000000000001
 40
0.3125000000000001
 40
0.3750000000000002
 40
0.3750000000000002
 40
0.4999999999999996
 40
0.4999999999999996
 40
0.624999999999999
 40
0.624999999999999
 40
0.7499999999999987
 40
0.7499999999999987
 40
0.812499999999999
 40
0.812499999999999
 40
0.8749999999999993
 40
0.8749999999999993
 40
1.0
 40
1.0
 40
1.0
 40
1.0
 10
182.7624839582315
 20
191.1559747347018
 30
0.0
 10
181.9876749568139
 20
191.1554291504703
 30
0.0
 10
181.2203903278622
 20
191.1549421791919
 30
0.0
 10
179.7052783817875
 20
191.1540880752283
 30
0.0
 10
178.9752310211113
 20
191.1537308561719
 30
0.0
 10
177.9198130656981
 20
191.1532956900404
 30
0.0
 10
177.5746627876181
 20
191.1531675306963
 30
0.0
 10
176.8979640221346
 20
191.1529457411864
 30
0.0
 10
176.565299904769
 20
191.1528519924366
 30
0.0
 10
175.6085091381748
 20
191.1526289159853
 30
0.0
 10
175.0188516453959
 20
191.152554707265
 30
0.0
 10
173.9347026282156
 20
191.1525533907653
 30
0.0
 10
173.4375320314623
 20
191.1526286905626
 30
0.0
 10
172.5805568765325
 20
191.1529239469772
 30
0.0
 10
172.2152220947372
 20
191.153142759276
 30
0.0
 10
171.7632557566308
 20
191.1535792268325
 30
0.0
 10
171.6284499544738
 20
191.1537435371247
 30
0.0
 10
171.3957388581671
 20
191.1541045466977
 30
0.0
 10
171.2972993798948
 20
191.1543015551184
 30
0.0
 10
171.0560754000909
 20
191.1549424102986
 30
0.0
 10
170.9694098198075
 20
191.1554291500378
 30
0.0
 10
170.9570505678854
 20
191.1559747347018
 30
0.0
  0
LWPOLYLINE
  5
105
330
1F
100
AcDbEntity
  8
0
  6
Continuous
 62
     8
370
    18
100
AcDbPolyline
 90
        3
 70
   128
 43
0.0
 10
182.7624838449
 20
191.155973852
 10
183.1851306021
 20
166.8551609629
 10
183.6065354407
 20
142.6357627216
  0
SPLINE
  5
106
330
1F
100
AcDbEntity
  8
0
  6
Continuous
 62
     8
370
    18
100
AcDbSpline
210
0.0
220
0.0
230
1.0
 70
     8
 71
     3
 72
    26
 73
    22
 74
     0
 42
0.000000001
 43
0.00000001
 40
0.0
 40
0.0
 40
0.0
 40
0.0
 40
0.1249999999999999
 40
0.1249999999999999
 40
0.2499999999999998
 40
0.2499999999999998
 40
0.3125000000000003
 40
0.3125000000000003
 40
0.3750000000000008
 40
0.3750000000000008
 40
0.5000000000000008
 40
0.5000000000000008
 40
0.6250000000000008
 40
0.6250000000000008
 40
0.7500000000000008
 40
0.7500000000000008
 40
0.8125000000000006
 40
0.8125000000000006
 40
0.8750000000000003
 40
0.8750000000000003
 40
1.0
 40
1.0
 40
1.0
 40
1.0
 10
171.7909735345604
 20
142.6357635975903
 30
0.0
 10
171.802711683336
 20
142.6356590520208
 30
0.0
 10
171.8891892753302
 20
142.6350125426108
 30
0.0
 10
172.2110985712835
 20
142.6338605298608
 30
0.0
 10
172.4425190625347
 20
142.6333565805072
 30
0.0
 10
172.891154554489
 20
142.6328626610404
 30
0.0
 10
173.0577380327927
 20
142.6327355405443
 30
0.0
 10
173.4257215588946
 20
142.6325399572642
 30
0.0
 10
173.6280887255394
 20
142.6324710387954
 30
0.0
 10
174.2754914320215
 20
142.6323230897358
 30
0.0
 10
174.763269684678
 20
142.6322943678726
 30
0.0
 10
175.8497366157501
 20
142.6322945817278
 30
0.0
 10
176.4544520608917
 20
142.6323248280937
 30
0.0
 10
177.7287573214173
 20
142.6325240459832
 30
0.0
 10
178.4023653054354
 20
142.6326986985919
 30
0.0
 10
179.4682502992056
 20
142.6331981060126
 30
0.0
 10
179.8344052572019
 20
142.6334058914926
 30
0.0
 10
180.5705985407823
 20
142.6338885484992
 30
0.0
 10
180.9421103530402
 20
142.634164513365
 30
0.0
 10
182.0666812030147
 20
142.6350174186228
 30
0.0
 10
182.8296804292777
 20
142.6356590655959
 30
0.0
 10
183.6065354148178
 20
142.6357635777148
 30
0.0
  0
LWPOLYLINE
  5
107
330
1F
100
AcDbEntity
  8
0
  6
Continuous
 62
     8
370
    18
100
AcDbPolyline
 90
        3
 70
   128
 43
0.0
 10
171.790974459
 20
142.6357627216
 10
171.3746267021
 20
166.8551609629
 10
170.9570514619
 20
191.155973852
  0
ARC
  5
108
330
1F
100
AcDbEntity
  8
0
  6
Continuous
 62
     8
370
    18
100
AcDbCircle
 10
190.7960058677
 20
191.2845825365
 30
0.0
 40
8.034551405301844
100
AcDbArc
 50
177.2882945234
 51
180.9171700034
  0
ARC
  5
109
330
1F
100
AcDbEntity
  8
0
  6
Continuous
 62
     8
370
    18
100
AcDbCircle
 10
171.4569429542
 20
191.1647331309
 30
0.0
 40
0.4999682279532155
100
AcDbArc
 50
90.003671744
 51
181.0038545663
  0
SPLINE
  5
10A
330
1F
100
AcDbEntity
  8
0
  6
Continuous
 62
     8
370
    18
100
AcDbSpline
210
0.0
220
0.0
230
1.0
 70
     8
 71
     3
 72
    26
 73
    22
 74
     0
 42
0.000000001
 43
0.00000001
 40
0.0
 40
0.0
 40
0.0
 40
0.0
 40
0.1250000000000015
 40
0.1250000000000015
 40
0.250000000000003
 40
0.250000000000003
 40
0.312500000000003
 40
0.312500000000003
 40
0.3750000000000031
 40
0.3750000000000031
 40
0.5000000000000021
 40
0.5000000000000021
 40
0.6250000000000011
 40
0.6250000000000011
 40
0.7500000000000002
 40
0.7500000000000002
 40
0.8125000000000002
 40
0.8125000000000002
 40
0.8750000000000001
 40
0.8750000000000001
 40
1.0
 40
1.0
 40
1.0
 40
1.0
 10
226.4416813105645
 20
191.1559747347018
 30
0.0
 10
226.4293220684395
 20
191.1554291504703
 30
0.0
 10
226.3425765187278
 20
191.1549421791919
 30
0.0
 10
226.0210696073568
 20
191.1540880752283
 30
0.0
 10
225.7902339629761
 20
191.1537308561719
 30
0.0
 10
225.3429584967867
 20
191.1532956900404
 30
0.0
 10
225.1769102935075
 20
191.1531675306963
 30
0.0
 10
224.8101613480181
 20
191.1529457411864
 30
0.0
 10
224.6085106966831
 20
191.1528519924366
 30
0.0
 10
223.9634683110504
 20
191.1526289159853
 30
0.0
 10
223.4775172119778
 20
191.1525547072651
 30
0.0
 10
222.3952079978137
 20
191.1525533907653
 30
0.0
 10
221.7928062318228
 20
191.1526286905626
 30
0.0
 10
220.5232115072427
 20
191.1529239469772
 30
0.0
 10
219.8520875054622
 20
191.153142759276
 30
0.0
 10
218.7901599397825
 20
191.1535792268325
 30
0.0
 10
218.4257313597146
 20
191.1537435371247
 30
0.0
 10
217.6885113789729
 20
191.1541045466977
 30
0.0
 10
217.3147537723219
 20
191.1543015551184
 30
0.0
 10
216.1779386208682
 20
191.1549424102986
 30
0.0
 10
215.4110575358256
 20
191.1554291500378
 30
0.0
 10
214.6362479202184
 20
191.1559747347018
 30
0.0
  0
LWPOLYLINE
  5
10B
330
1F
100
AcDbEntity
  8
0
  6
Continuous
 62
     8
370
    18
100
AcDbPolyline
 90
        3
 70
   128
 43
0.0
 10
226.4416816294
 20
191.155973852
 10
226.0241063893
 20
166.8551609629
 10
225.6077567697
 20
142.6357627216
  0
SPLINE
  5
10C
330
1F
100
AcDbEntity
  8
0
  6
Continuous
 62
     8
370
    18
100
AcDbSpline
210
0.0
220
0.0
230
1.0
 70
     8
 71
     3
 72
    26
 73
    22
 74
     0
 42
0.000000001
 43
0.00000001
 40
0.0
 40
0.0
 40
0.0
 40
0.0
 40
0.1250000000000001
 40
0.1250000000000001
 40
0.2500000000000002
 40
0.2500000000000002
 40
0.3124999999999999
 40
0.3124999999999999
 40
0.3749999999999997
 40
0.3749999999999997
 40
0.4999999999999993
 40
0.4999999999999993
 40
0.6249999999999989
 40
0.6249999999999989
 40
0.7499999999999983
 40
0.7499999999999983
 40
0.8124999999999989
 40
0.8124999999999989
 40
0.8749999999999993
 40
0.8749999999999993
 40
1.0
 40
1.0
 40
1.0
 40
1.0
 10
213.7921964639781
 20
142.6357635975933
 30
0.0
 10
214.5690515252886
 20
142.6356590520237
 30
0.0
 10
215.3381076836893
 20
142.6350125426136
 30
0.0
 10
216.8576137840521
 20
142.6338605298637
 30
0.0
 10
217.5896372337695
 20
142.6333565805104
 30
0.0
 10
218.6477285093802
 20
142.6328626610443
 30
0.0
 10
218.9937207227933
 20
142.6327355405484
 30
0.0
 10
219.672004203536
 20
142.6325399572688
 30
0.0
 10
220.0054362387708
 20
142.6324710388002
 30
0.0
 10
220.9643202052168
 20
142.6323230897414
 30
0.0
 10
221.5550707844897
 20
142.6322943678785
 30
0.0
 10
222.6408066387263
 20
142.632294581734
 30
0.0
 10
223.138417754689
 20
142.6323248280998
 30
0.0
 10
223.9954405334989
 20
142.6325240459884
 30
0.0
 10
224.3604506294534
 20
142.6326986985965
 30
0.0
 10
224.8113377004035
 20
142.6331981060164
 30
0.0
 10
224.9457408945791
 20
142.6334058914961
 30
0.0
 10
225.176235551516
 20
142.6338885485025
 30
0.0
 10
225.273109330796
 20
142.6341645133683
 30
0.0
 10
225.5097406013826
 20
142.6350174186264
 30
0.0
 10
225.596020196501
 20
142.6356590656004
 30
0.0
 10
225.6077583435477
 20
142.6357635777206
 30
0.0
  0
LWPOLYLINE
  5
10D
330
1F
100
AcDbEntity
  8
0
  6
Continuous
 62
     8
370
    18
100
AcDbPolyline
 90
        3
 70
   128
 43
0.0
 10
213.792195788
 20
142.6357627216
 10
214.2136006266
 20
166.8551609629
 10
214.6362478495
 20
191.155973852
  0
ARC
  5
10E
330
1F
100
AcDbEntity
  8
0
  6
Continuous
 62
     8
370
    18
100
AcDbCircle
 10
225.941789081
 20
191.1647320931
 30
0.0
 40
0.4999692657857172
100
AcDbArc
 50
358.9962664622
 51
89.9962072275
  0
ARC
  5
10F
330
1F
100
AcDbEntity
  8
0
  6
Continuous
 62
     8
370
    18
100
AcDbCircle
 10
206.6015523516
 20
191.2845788525
 30
0.0
 40
8.035724671110623
100
AcDbArc
 50
359.0829901913
 51
2.7113355517
  0
LINE
  5
110
330
1F
100
AcDbEntity
  8
0
  6
Continuous
 62
     8
370
    18
100
AcDbLine
 10
214.6362478495
 20
191.155973852
 30
0.0
 11
182.7624838449
 21
191.155973852
 31
0.0
  0
LWPOLYLINE
  5
111
330
1F
100
AcDbEntity
  8
0
  6
Continuous
 62
     8
370
    18
100
AcDbPolyline
 90
        5
 70
   128
 43
0.0
 10
189.1231416491
 20
142.6303461495
 10
189.1667759743
 20
143.6292343143
 10
189.2540446249
 20
145.6270106438
 10
189.3413132172
 20
147.6247869733
 10
189.4351190537
 20
149.7722156647
  0
SPLINE
  5
112
330
1F
100
AcDbEntity
  8
0
  6
Continuous
 62
     8
370
    18
100
AcDbSpline
210
0.0
220
0.0
230
1.0
 70
     8
 71
     3
 72
     8
 73
     4
 74
     0
 42
0.000000001
 43
0.00000001
 40
0.0
 40
0.0
 40
0.0
 40
0.0
 40
1.0
 40
1.0
 40
1.0
 40
1.0
 10
183.6065354148178
 20
142.6357635777148
 30
0.0
 10
185.4453422996583
 20
142.6332064163088
 30
0.0
 10
187.2842111439716
 20
142.6315226639943
 30
0.0
 10
189.1231416766012
 20
142.6303461926258
 30
0.0
  0
SPLINE
  5
113
330
1F
100
AcDbEntity
  8
0
  6
Continuous
 62
     8
370
    18
100
AcDbSpline
210
0.0
220
0.0
230
1.0
 70
     8
 71
     3
 72
     8
 73
     4
 74
     0
 42
0.000000001
 43
0.00000001
 40
0.0
 40
0.0
 40
0.0
 40
0.0
 40
1.0
 40
1.0
 40
1.0
 40
1.0
 10
208.275590202337
 20
142.6303461814572
 30
0.0
 10
210.1145207348958
 20
142.631522700037
 30
0.0
 10
211.9533895791184
 20
142.6332065224455
 30
0.0
 10
213.7921964639782
 20
142.6357635975933
 30
0.0
  0
LWPOLYLINE
  5
114
330
1F
100
AcDbEntity
  8
0
  6
Continuous
 62
     8
370
    18
100
AcDbPolyline
 90
        5
 70
   128
 43
0.0
 10
207.9636084497
 20
149.7722957585
 10
208.007242775
 20
148.7734075937
 10
208.0945114255
 20
146.7756312642
 10
208.181780076
 20
144.7778549347
 10
208.2755903363
 20
142.6303461495
  0
SPLINE
  5
115
330
1F
100
AcDbEntity
  8
0
  6
Continuous
 62
     8
370
    18
100
AcDbSpline
210
0.0
220
0.0
230
1.0
 70
     8
 71
     3
 72
    51
 73
    47
 74
     0
 42
0.000000001
 43
0.00000001
 40
0.0
 40
0.0
 40
0.0
 40
0.0
 40
0.0062846735712568
 40
0.012549522917594
 40
0.0187995019896201
 40
0.0250396002124297
 40
0.0312748307933956
 40
0.0375102187466132
 40
0.0437507887758883
 40
0.0500015531616731
 40
0.056267499797543
 40
0.0625535805173327
 40
0.0937630175360665
 40
0.1249865694308711
 40
0.1562184236702622
 40
0.1874530717828232
 40
0.218713412262696
 40
0.2499720963732996
 40
0.2813191493712049
 40
0.3126631273041854
 40
0.3439042810205426
 40
0.3751566020179101
 40
0.4063912813941232
 40
0.4376530476011378
 40
0.4688867745673191
 40
0.5001419118079964
 40
0.5313392424702492
 40
0.562585495786722
 40
0.5937510415712409
 40
0.6249842815586497
 40
0.6561660652259322
 40
0.6873635313583119
 40
0.7185997548527272
 40
0.7498443009154824
 40
0.7811915337448821
 40
0.8123812407144784
 40
0.8435984114269015
 40
0.8592849091753032
 40
0.8749531056832023
 40
0.9062156740463946
 40
0.937488154351303
 40
0.950023111867697
 40
0.962501730609099
 40
0.9749640158170245
 40
0.9874501285374854
 40
1.0
 40
1.0
 40
1.0
 40
1.0
 10
189.4351191050407
 20
149.7722154779914
 30
0.0
 10
189.364024111128
 20
149.860361274845
 30
0.0
 10
189.2220583836614
 20
150.036374823546
 30
0.0
 10
189.0188534222537
 20
150.3074628126124
 30
0.0
 10
188.8233073038186
 20
150.5831011518324
 30
0.0
 10
188.6360814214057
 20
150.8638312293584
 30
0.0
 10
188.4569997185698
 20
151.1495079108198
 30
0.0
 10
188.2861097869655
 20
151.4401690243749
 30
0.0
 10
188.1233994175844
 20
151.7358048712178
 30
0.0
 10
187.9688719800643
 20
152.0364129669663
 30
0.0
 10
187.8225279207257
 20
152.3420093582842
 30
0.0
 10
187.5019937603543
 20
153.062396261858
 30
0.0
 10
187.0931092307631
 20
154.2360878474501
 30
0.0
 10
186.7701394709323
 20
155.8978720831937
 30
0.0
 10
186.6802268357866
 20
157.58905568822
 30
0.0
 10
186.8325854619059
 20
159.2763044749796
 30
0.0
 10
187.2173571361849
 20
160.926635674939
 30
0.0
 10
187.8346512656285
 20
162.5069447016721
 30
0.0
 10
188.6660899802364
 20
163.9876060971862
 30
0.0
 10
189.7006644398332
 20
165.3338369320396
 30
0.0
 10
190.9109114079967
 20
166.522180936522
 30
0.0
 10
192.2766940885643
 20
167.524704033773
 30
0.0
 10
193.76865838207
 20
168.3284089267056
 30
0.0
 10
195.3597543563646
 20
168.9110066145217
 30
0.0
 10
197.0166172726198
 20
169.267663119713
 30
0.0
 10
198.7063142406032
 20
169.3841671905063
 30
0.0
 10
200.3960237157483
 20
169.2653149001526
 30
0.0
 10
202.0500454065813
 20
168.9076269681224
 30
0.0
 10
203.6391654198592
 20
168.3241565424844
 30
0.0
 10
205.1277417787256
 20
167.5205958615284
 30
0.0
 10
206.4915075044732
 20
166.5189279198624
 30
0.0
 10
207.6985134448057
 20
165.3329814288314
 30
0.0
 10
208.7302803327495
 20
163.990502453746
 30
0.0
 10
209.5618977498197
 20
162.5123876716079
 30
0.0
 10
210.1777373919656
 20
160.9332492073917
 30
0.0
 10
210.5669747445876
 20
159.2840265287345
 30
0.0
 10
210.6917939017945
 20
157.8775660131937
 30
0.0
 10
210.6737298904773
 20
156.7496422129881
 30
0.0
 10
210.5755867245597
 20
155.6249873083156
 30
0.0
 10
210.3059117530732
 20
154.237002056631
 30
0.0
 10
209.8593542467442
 20
152.9551051300098
 30
0.0
 10
209.4340760698693
 20
152.0340597847892
 30
0.0
 10
209.1168486786283
 20
151.4375257481428
 30
0.0
 10
208.7661625539477
 20
150.8612151971832
 30
0.0
 10
208.384646064966
 20
150.3029479101089
 30
0.0
 10
208.104192936908
 20
149.949480034302
 30
0.0
 10
207.9636092601225
 20
149.7722960108945
 30
0.0
  0
ARC
  5
116
330
1F
100
AcDbEntity
  8
0
  6
Continuous
 62
     8
370
    18
100
AcDbCircle
 10
224.6079469229
 20
142.653178666
 30
0.0
 40
0.9999615216495525
100
AcDbArc
 50
270.7006536644
 51
359.0020510391
  0
ARC
  5
117
330
1F
100
AcDbEntity
  8
0
  6
Continuous
 62
     8
370
    18
100
AcDbCircle
 10
197.1289657711
 20
142.3738829287
 30
0.0
 40
16.66528774494228
100
AcDbArc
 50
357.5218129684
 51
0.9003879617
  0
SPLINE
  5
118
330
1F
100
AcDbEntity
  8
0
  6
Continuous
 62
     8
370
    18
100
AcDbSpline
210
0.0
220
0.0
230
1.0
 70
     8
 71
     3
 72
    26
 73
    22
 74
     0
 42
0.000000001
 43
0.00000001
 40
0.0
 40
0.0
 40
0.0
 40
0.0
 40
0.1249999999999998
 40
0.1249999999999998
 40
0.1874999999999998
 40
0.1874999999999998
 40
0.2499999999999998
 40
0.2499999999999998
 40
0.3749999999999999
 40
0.3749999999999999
 40
0.5000000000000001
 40
0.5000000000000001
 40
0.6250000000000002
 40
0.6250000000000002
 40
0.6875000000000002
 40
0.6875000000000002
 40
0.7500000000000001
 40
0.7500000000000001
 40
0.875
 40
0.875
 40
1.0
 40
1.0
 40
1.0
 40
1.0
 10
183.6200636503167
 20
141.6532910463959
 30
0.0
 10
182.9074428613195
 20
141.6542744068488
 30
0.0
 10
182.2075871221031
 20
141.6545944762802
 30
0.0
 10
181.1761142461228
 20
141.6550054176892
 30
0.0
 10
180.8353645067991
 20
141.6551206384807
 30
0.0
 10
180.1601421806157
 20
141.6553587273876
 30
0.0
 10
179.8243236773439
 20
141.6554814826907
 30
0.0
 10
178.8467006911781
 20
141.6558596679071
 30
0.0
 10
178.2288287703858
 20
141.6561259788192
 30
0.0
 10
177.0599455124998
 20
141.6565231409138
 30
0.0
 10
176.5052515156292
 20
141.6566460646652
 30
0.0
 10
175.5086020579519
 20
141.6566468896399
 30
0.0
 10
175.0611267974957
 20
141.6565283381367
 30
0.0
 10
174.4671560874023
 20
141.6562311097003
 30
0.0
 10
174.2814805040198
 20
141.6561127419283
 30
0.0
 10
173.9437958737873
 20
141.6558651133971
 30
0.0
 10
173.790900791949
 20
141.6557360603686
 30
0.0
 10
173.3790166123837
 20
141.6553602770538
 30
0.0
 10
173.1663799570248
 20
141.6551504989985
 30
0.0
 10
172.8700482008148
 20
141.6545979050553
 30
0.0
 10
172.7900165651874
 20
141.654274375461
 30
0.0
 10
172.7785564925902
 20
141.6532910666547
 30
0.0
  0
ARC
  5
119
330
1F
100
AcDbEntity
  8
0
  6
Continuous
 62
     8
370
    18
100
AcDbCircle
 10
172.7907873249
 20
142.6531817008
 30
0.0
 40
0.9999645931971984
100
AcDbArc
 50
180.9981198119
 51
269.2991754846
  0
ARC
  5
11A
330
1F
100
AcDbEntity
  8
0
  6
Continuous
 62
     8
370
    18
100
AcDbCircle
 10
200.2742445804
 20
142.3739446052
 30
0.0
 40
16.66976534602141
100
AcDbArc
 50
179.1000659228
 51
182.4777331471
  0
SPLINE
  5
11B
330
1F
100
AcDbEntity
  8
0
  6
Continuous
 62
     8
370
    18
100
AcDbSpline
210
0.0
220
0.0
230
1.0
 70
     8
 71
     3
 72
    54
 73
    50
 74
     0
 42
0.000000001
 43
0.00000001
 40
0.0
 40
0.0
 40
0.0
 40
0.0
 40
0.006649732262038
 40
0.0132929798249912
 40
0.0199297484882665
 40
0.0265600440413578
 40
0.0331838722638561
 40
0.0398012389254575
 40
0.046412149785974
 40
0.0530166105953416
 40
0.05961462709363
 40
0.0662062050110519
 40
0.0727913500679727
 40
0.0793700679749194
 40
0.0859423644325907
 40
0.0925082451318661
 40
0.0990677157538153
 40
0.1056207819697089
 40
0.1121674494410261
 40
0.1187077238194668
 40
0.125241610746959
 40
0.155346634564343
 40
0.1878554260103007
 40
0.2150098860622668
 40
0.2504416456608761
 40
0.3017110049584328
 40
0.3433346349334145
 40
0.3752861859377081
 40
0.4186762402430806
 40
0.4602880811061303
 40
0.5001195754277045
 40
0.5605451873122561
 40
0.6248505062424201
 40
0.6764495496547145
 40
0.7497684790399802
 40
0.7874911422870291
 40
0.8209192854046551
 40
0.8500520748563878
 40
0.8748887388967072
 40
0.8872976048027561
 40
0.899729091467161
 40
0.9121832375701293
 40
0.9246600819168028
 40
0.9371596634374788
 40
0.9496820211878327
 40
0.9622271943491376
 40
0.9747952222284806
 40
0.9873861442589803
 40
1.0
 40
1.0
 40
1.0
 40
1.0
 10
207.4514847108561
 20
149.9519970326558
 30
0.0
 10
207.5254295517462
 20
150.0407892987556
 30
0.0
 10
207.67324712385
 20
150.2182872423373
 30
0.0
 10
207.8845519745567
 20
150.4927306705835
 30
0.0
 10
208.0878710241772
 20
150.7726741646109
 30
0.0
 10
208.2823191507607
 20
151.0584603949005
 30
0.0
 10
208.4679397830646
 20
151.3496486670054
 30
0.0
 10
208.644539093832
 20
151.6460032403959
 30
0.0
 10
208.8119980114301
 20
151.9472292555303
 30
0.0
 10
208.9701888190691
 20
152.2530437483451
 30
0.0
 10
209.118997538092
 20
152.5631570100409
 30
0.0
 10
209.2583179966513
 20
152.8772779354804
 30
0.0
 10
209.3880534629303
 20
153.1951129505749
 30
0.0
 10
209.5081162431533
 20
153.5163666665289
 30
0.0
 10
209.6184278133513
 20
153.8407420362298
 30
0.0
 10
209.7189187961402
 20
154.16794077298
 30
0.0
 10
209.8095289724632
 20
154.4976632118636
 30
0.0
 10
209.8902072568311
 20
154.8296101282653
 30
0.0
 10
209.9609117326599
 20
155.1634772859811
 30
0.0
 10
210.021609433721
 20
155.4989770624715
 30
0.0
 10
210.1332216547597
 20
156.2408515687055
 30
0.0
 10
210.2129365240067
 20
157.4437077479216
 30
0.0
 10
210.0938336759909
 20
159.0044545551512
 30
0.0
 10
209.7459469232126
 20
160.6235082683106
 30
0.0
 10
209.0582177622395
 20
162.4866790827643
 30
0.0
 10
207.8798920071262
 20
164.4047566532085
 30
0.0
 10
206.3729257377265
 20
165.9824324908197
 30
0.0
 10
204.7394689287106
 20
167.2020767366938
 30
0.0
 10
202.9153858881641
 20
168.1287290677273
 30
0.0
 10
200.8161263002872
 20
168.7242302263421
 30
0.0
 10
198.3489550956315
 20
168.9503510065074
 30
0.0
 10
195.4788518550476
 20
168.5557514161033
 30
0.0
 10
192.6416105668637
 20
167.2819980604896
 30
0.0
 10
190.0759654514983
 20
165.1853234490458
 30
0.0
 10
188.4448077907711
 20
162.804139766392
 30
0.0
 10
187.5875739091401
 20
160.434706236398
 30
0.0
 10
187.2637710388004
 20
158.7156759962131
 30
0.0
 10
187.197005560424
 20
157.1944889061113
 30
0.0
 10
187.2878252155089
 20
156.0422422946761
 30
0.0
 10
187.4281186989552
 20
155.1902605799859
 30
0.0
 10
187.5693278545793
 20
154.5575138921731
 30
0.0
 10
187.7463609769521
 20
153.9326223118495
 30
0.0
 10
187.9588523665908
 20
153.3176155757929
 30
0.0
 10
188.2063004194135
 20
152.7145276326577
 30
0.0
 10
188.4881479987369
 20
152.1254174679484
 30
0.0
 10
188.8034837956582
 20
151.5521194868603
 30
0.0
 10
189.1521621815497
 20
150.9971818882888
 30
0.0
 10
189.53061712758
 20
150.460311857357
 30
0.0
 10
189.8083088267607
 20
150.1215113310213
 30
0.0
 10
189.9472810115462
 20
149.9519569313387
 30
0.0
  0
ARC
  5
11C
330
1F
100
AcDbEntity
  8
0
  6
Continuous
 62
     8
370
    18
100
AcDbCircle
 10
189.559092146
 20
149.7084154937
 30
0.0
 40
7.091482107176327
100
AcDbArc
 50
266.4755064044
 51
270.5523663046
  0
ARC
  5
11D
330
1F
100
AcDbEntity
  8
0
  6
Continuous
 62
     8
370
    18
100
AcDbCircle
 10
207.8396401695
 20
149.7084067223
 30
0.0
 40
7.091473332114592
100
AcDbArc
 50
269.4476364585
 51
273.52449529
  0
SPLINE
  5
11E
330
1F
100
AcDbEntity
  8
0
  6
Continuous
 62
     8
370
    18
100
AcDbSpline
210
0.0
220
0.0
230
1.0
 70
     8
 71
     3
 72
    12
 73
     8
 74
     0
 42
0.000000001
 43
0.00000001
 40
0.0
 40
0.0
 40
0.0
 40
0.0
 40
0.25
 40
0.25
 40
0.5
 40
0.5
 40
1.0
 40
1.0
 40
1.0
 40
1.0
 10
208.275590202337
 20
142.6303461814572
 30
0.0
 10
208.2784410805189
 20
142.5012163738493
 30
0.0
 10
208.2811072648068
 20
142.375083352688
 30
0.0
 10
208.2858604339292
 20
142.1389369326347
 30
0.0
 10
208.2879013578017
 20
142.0310868848366
 30
0.0
 10
208.2926064080647
 20
141.7601781403782
 30
0.0
 10
208.2937899715482
 20
141.6523284630942
 30
0.0
 10
208.2926469995686
 20
141.6479584859552
 30
0.0
  0
ARC
  5
11F
330
1F
100
AcDbEntity
  8
0
  6
Continuous
 62
     8
370
    18
100
AcDbCircle
 10
208.2922030558
 20
142.1479192612
 30
0.0
 40
0.499960299777323
100
AcDbArc
 50
182.5038408352
 51
270.0508279362
  0
SPLINE
  5
120
330
1F
100
AcDbEntity
  8
0
  6
Continuous
 62
     8
370
    18
100
AcDbSpline
210
0.0
220
0.0
230
1.0
 70
     8
 71
     3
 72
     8
 73
     4
 74
     0
 42
0.000000001
 43
0.00000001
 40
0.0
 40
0.0
 40
0.0
 40
0.0
 40
1.0
 40
1.0
 40
1.0
 40
1.0
 10
213.7786681821014
 20
141.6532910666577
 30
0.0
 10
211.9500632305596
 20
141.6507678227327
 30
0.0
 10
210.1213899406819
 20
141.6491125077444
 30
0.0
 10
208.2926469995685
 20
141.6479584859552
 30
0.0
  0
SPLINE
  5
121
330
1F
100
AcDbEntity
  8
0
  6
Continuous
 62
     8
370
    18
100
AcDbSpline
210
0.0
220
0.0
230
1.0
 70
     8
 71
     3
 72
    12
 73
     8
 74
     0
 42
0.000000001
 43
0.00000001
 40
0.0
 40
0.0
 40
0.0
 40
0.0
 40
0.25
 40
0.25
 40
0.5
 40
0.5
 40
1.0
 40
1.0
 40
1.0
 40
1.0
 10
189.106084892402
 20
141.6479584956858
 30
0.0
 10
189.1055134179033
 20
141.6501434337766
 30
0.0
 10
189.1055046163576
 20
141.6770777334366
 30
0.0
 10
189.1065907044067
 20
141.7772344212719
 30
0.0
 10
189.1076874894558
 20
141.8500830126533
 30
0.0
 10
189.1123873384485
 20
142.1207909708346
 30
0.0
 10
189.1174400442678
 20
142.3720920452204
 30
0.0
 10
189.1231416766008
 20
142.6303461926258
 30
0.0
  0
SPLINE
  5
122
330
1F
100
AcDbEntity
  8
0
  6
Continuous
 62
     8
370
    18
100
AcDbSpline
210
0.0
220
0.0
230
1.0
 70
     8
 71
     3
 72
     8
 73
     4
 74
     0
 42
0.000000001
 43
0.00000001
 40
0.0
 40
0.0
 40
0.0
 40
0.0
 40
1.0
 40
1.0
 40
1.0
 40
1.0
 10
189.1060848924026
 20
141.6479584956858
 30
0.0
 10
187.2773419317333
 20
141.6491124701123
 30
0.0
 10
185.4486686223254
 20
141.6507677158375
 30
0.0
 10
183.6200636503167
 20
141.6532910463959
 30
0.0
  0
ARC
  5
123
330
1F
100
AcDbEntity
  8
0
  6
Continuous
 62
     8
370
    18
100
AcDbCircle
 10
189.1065296799
 20
142.1479181721
 30
0.0
 40
0.4999592118083028
100
AcDbArc
 50
269.9490259268
 51
357.496278644
  0
LINE
  5
124
330
1F
100
AcDbEntity
  8
0
  6
Continuous
 62
     8
370
    18
100
AcDbLine
 10
224.6307248831
 20
141.6526045952
 30
0.0
 11
224.6201748609
 21
141.6532919112
 31
0.0
  0
SPLINE
  5
125
330
1F
100
AcDbEntity
  8
0
  6
Continuous
 62
     8
370
    18
100
AcDbSpline
210
0.0
220
0.0
230
1.0
 70
     8
 71
     3
 72
     9
 73
     5
 74
     0
 42
0.000000001
 43
0.00000001
 40
0.0
 40
0.0
 40
0.0
 40
0.0
 40
0.5304426657872837
 40
0.9999999999999999
 40
0.9999999999999999
 40
0.9999999999999999
 40
0.9999999999999999
 10
208.2926465779491
 20
141.647959158163
 30
0.0
 10
208.2981501576832
 20
141.5623102859255
 30
0.0
 10
208.3085256046243
 20
141.4008435002356
 30
0.0
 10
208.3109363811305
 20
141.364918106747
 30
0.0
 10
208.3120683789201
 20
141.3480490747499
 30
0.0
  0
LINE
  5
126
330
1F
100
AcDbEntity
  8
0
  6
Continuous
 62
     8
370
    18
100
AcDbLine
 10
172.7785563677
 20
141.6532919112
 30
0.0
 11
172.7714354753
 21
141.6528281126
 31
0.0
  0
SPLINE
  5
127
330
1F
100
AcDbEntity
  8
0
  6
Continuous
 62
     8
370
    18
100
AcDbSpline
210
0.0
220
0.0
230
1.0
 70
     8
 71
     3
 72
    10
 73
     6
 74
     0
 42
0.000000001
 43
0.00000001
 40
0.0
 40
0.0
 40
0.0
 40
0.0
 40
0.0575916165295673
 40
0.5287775800061487
 40
0.9999999999999999
 40
0.9999999999999999
 40
0.9999999999999999
 40
0.9999999999999999
 10
189.086622279039
 20
141.3474232259798
 30
0.0
 10
189.0863848285886
 20
141.3438171858741
 30
0.0
 10
189.0842046766476
 20
141.310708319074
 30
0.0
 10
189.0932783838498
 20
141.4476257733448
 30
0.0
 10
189.1018159402467
 20
141.5811796410726
 30
0.0
 10
189.1060848835804
 20
141.647959158163
 30
0.0
  0
LINE
  5
128
330
1F
100
AcDbEntity
  8
0
  6
Continuous
 62
     8
370
    18
100
AcDbLine
 10
170.9570514619
 20
191.155973852
 30
0.0
 11
170.8300488651
 21
191.155973852
 31
0.0
  0
LINE
  5
129
330
1F
100
AcDbEntity
  8
0
  6
Continuous
 62
     8
370
    18
100
AcDbLine
 10
226.5686842263
 20
191.155973852
 30
0.0
 11
226.4416816294
 21
191.155973852
 31
0.0
  0
LINE
  5
12A
330
1F
100
AcDbEntity
  8
0
  6
Continuous
 62
     8
370
    18
100
AcDbLine
 10
171.6771258622
 20
142.6276937429
 30
0.0
 11
171.790974459
 21
142.6357627216
 31
0.0
  0
SPLINE
  5
12B
330
1F
100
AcDbEntity
  8
0
  6
Continuous
 62
     8
370
    18
100
AcDbSpline
210
0.0
220
0.0
230
1.0
 70
     8
 71
     3
 72
     9
 73
     5
 74
     0
 42
0.000000001
 43
0.00000001
 40
0.0
 40
0.0
 40
0.0
 40
0.0
 40
0.9998854740126235
 40
1.0
 40
1.0
 40
1.0
 40
1.0
 10
225.6077567696519
 20
142.6357627216387
 30
0.0
 10
225.6809447094907
 20
142.6317283862647
 30
0.0
 10
225.7541410322106
 20
142.6276935888015
 30
0.0
 10
225.7216090922157
 20
142.6276937428346
 30
0.0
 10
225.7216053664632
 20
142.6276937428522
 30
0.0
  0
ARC
  5
12C
330
1F
100
AcDbEntity
  8
0
  6
Continuous
 62
     7
370
    25
100
AcDbCircle
 10
356.2878151845
 20
356.2219569224
 30
0.0
 40
0.5000000000000058
100
AcDbArc
 50
89.0
 51
180.0
  0
ARC
  5
12D
330
1F
100
AcDbEntity
  8
0
  6
Continuous
 62
     7
370
    25
100
AcDbCircle
 10
356.2878151845
 20
301.4831712827
 30
0.0
 40
0.5000000000000058
100
AcDbArc
 50
180.0
 51
271.0
  0
LINE
  5
12E
330
1F
100
AcDbEntity
  8
0
  6
Continuous
 62
     7
370
    25
100
AcDbLine
 10
378.1081239528
 20
356.3411571295
 30
0.0
 11
356.2965422704
 21
356.721881798
 31
0.0
  0
LINE
  5
12F
330
1F
100
AcDbEntity
  8
0
  6
Continuous
 62
     7
370
    25
100
AcDbLine
 10
356.2965422704
 20
300.9832473682
 30
0.0
 11
381.4581842695
 21
301.4224451245
 31
0.0
  0
SPLINE
  5
130
330
1F
100
AcDbEntity
  8
0
  6
Continuous
 62
     7
370
    25
100
AcDbSpline
210
0.0
220
0.0
230
1.0
 70
    24
 71
     3
 72
    26
 73
    22
 74
     0
 42
0.000000001
 43
0.00000001
 40
0.0
 40
0.0
 40
0.0
 40
0.0
 40
0.1249999999999985
 40
0.1249999999999985
 40
0.1874999999999978
 40
0.1874999999999978
 40
0.2499999999999971
 40
0.2499999999999971
 40
0.3749999999999973
 40
0.3749999999999973
 40
0.4999999999999974
 40
0.4999999999999974
 40
0.6249999999999976
 40
0.6249999999999976
 40
0.687499999999998
 40
0.687499999999998
 40
0.7499999999999983
 40
0.7499999999999983
 40
0.8749999999999991
 40
0.8749999999999991
 40
1.0
 40
1.0
 40
1.0
 40
1.0
 10
355.7878151844546
 20
344.7814787854499
 30
0.0
 10
355.7878151844546
 20
345.5251539817936
 30
0.0
 10
355.7878151844546
 20
346.2555223653596
 30
0.0
 10
355.7878151844546
 20
347.331933686479
 30
0.0
 10
355.7878151844546
 20
347.6875244509573
 30
0.0
 10
355.7878151844546
 20
348.3921458113223
 30
0.0
 10
355.7878151844546
 20
348.7426070515399
 30
0.0
 10
355.7878151844546
 20
349.7628609591159
 30
0.0
 10
355.7878151844546
 20
350.4076056665581
 30
0.0
 10
355.7878151844546
 20
351.6272767316671
 30
0.0
 10
355.7878151844546
 20
352.2061204799531
 30
0.0
 10
355.7878151844546
 20
353.2462620623892
 30
0.0
 10
355.7878151844546
 20
353.7132515411637
 30
0.0
 10
355.7878151844546
 20
354.3331230660572
 30
0.0
 10
355.7878151844546
 20
354.5269301843649
 30
0.0
 10
355.7878151844546
 20
354.8794525081061
 30
0.0
 10
355.7878151844546
 20
355.0390530226874
 30
0.0
 10
355.7878151844546
 20
355.4689510311208
 30
0.0
 10
355.7878151844546
 20
355.6908051590848
 30
0.0
 10
355.7878151844546
 20
355.9997952395518
 30
0.0
 10
355.7878151844546
 20
356.0831656305164
 30
0.0
 10
355.7878151844546
 20
356.0950191178649
 30
0.0
  0
SPLINE
  5
131
330
1F
100
AcDbEntity
  8
0
  6
Continuous
 62
     7
370
    25
100
AcDbSpline
210
0.0
220
0.0
230
1.0
 70
    24
 71
     3
 72
    26
 73
    22
 74
     0
 42
0.000000001
 43
0.00000001
 40
0.0
 40
0.0
 40
0.0
 40
0.0
 40
0.1250000000000001
 40
0.1250000000000001
 40
0.1875000000000002
 40
0.1875000000000002
 40
0.2500000000000002
 40
0.2500000000000002
 40
0.3750000000000002
 40
0.3750000000000002
 40
0.5000000000000001
 40
0.5000000000000001
 40
0.6250000000000001
 40
0.6250000000000001
 40
0.6874999999999999
 40
0.6874999999999999
 40
0.7499999999999998
 40
0.7499999999999998
 40
0.8749999999999999
 40
0.8749999999999999
 40
1.0
 40
1.0
 40
1.0
 40
1.0
 10
355.7878151844546
 20
301.6101090872614
 30
0.0
 10
355.7878151844546
 20
301.6219625617614
 30
0.0
 10
355.7878151844546
 20
301.7050785929129
 30
0.0
 10
355.7878151844546
 20
301.9322606358615
 30
0.0
 10
355.7878151844546
 20
302.0251947524019
 30
0.0
 10
355.7878151844546
 20
302.246194943355
 30
0.0
 10
355.7878151844546
 20
302.3750163323326
 30
0.0
 10
355.7878151844546
 20
302.8070867324846
 30
0.0
 10
355.7878151844546
 20
303.1567190745045
 30
0.0
 10
355.7878151844546
 20
303.9773625725301
 30
0.0
 10
355.7878151844546
 20
304.4537756848868
 30
0.0
 10
355.7878151844546
 20
305.4932216796116
 30
0.0
 10
355.7878151844546
 20
306.0586982616021
 30
0.0
 10
355.7878151844546
 20
306.9763974693522
 30
0.0
 10
355.7878151844546
 20
307.295531208939
 30
0.0
 10
355.7878151844546
 20
307.9448393383206
 30
0.0
 10
355.7878151844546
 20
308.2760328627159
 30
0.0
 10
355.7878151844546
 20
309.2888085303669
 30
0.0
 10
355.7878151844546
 20
309.9894051472905
 30
0.0
 10
355.7878151844546
 20
311.4434765235407
 30
0.0
 10
355.7878151844546
 20
312.1799734172296
 30
0.0
 10
355.7878151844546
 20
312.9236494196766
 30
0.0
  0
LINE
  5
132
330
1F
100
AcDbEntity
  8
0
  6
Continuous
 62
     7
370
    25
100
AcDbLine
 10
355.7878147646
 20
312.9236494052
 30
0.0
 11
355.7878147646
 21
344.7814788879
 31
0.0
  0
SPLINE
  5
133
330
1F
100
AcDbEntity
  8
0
  6
Continuous
 62
     7
370
    25
100
AcDbSpline
210
0.0
220
0.0
230
1.0
 70
     8
 71
     3
 72
    14
 73
    10
 74
     0
 42
0.000000001
 43
0.00000001
 40
0.0
 40
0.0
 40
0.0
 40
0.0
 40
0.25
 40
0.25
 40
0.5
 40
0.5
 40
0.75
 40
0.75
 40
1.0
 40
1.0
 40
1.0
 40
1.0
 10
405.8045576364006
 20
302.8592966274597
 30
0.0
 10
405.8778217999507
 20
307.1913397461273
 30
0.0
 10
405.9539102678547
 20
311.5233373829313
 30
0.0
 10
406.076493249282
 20
320.1878100859415
 30
0.0
 10
406.1163079512389
 20
324.520228660972
 30
0.0
 10
406.1163043624852
 20
333.1855370279026
 30
0.0
 10
406.0764850539779
 20
337.517995865273
 30
0.0
 10
405.9539046599319
 20
346.182084414116
 30
0.0
 10
405.8778190318571
 20
350.5139399967513
 30
0.0
 10
405.8045576266893
 20
354.8458315327553
 30
0.0
  0
LINE
  5
134
330
1F
100
AcDbEntity
  8
0
  6
Continuous
 62
     7
370
    25
100
AcDbLine
 10
355.7878147646
 20
356.0950197489
 30
0.0
 11
355.7878147646
 21
356.2219552906
 31
0.0
  0
LINE
  5
135
330
1F
100
AcDbEntity
  8
0
  6
Continuous
 62
     7
370
    25
100
AcDbLine
 10
355.7878147646
 20
301.4831710817
 30
0.0
 11
355.7878147646
 21
301.6101094173
 31
0.0
  0
LWPOLYLINE
  5
136
330
1F
100
AcDbEntity
  8
0
  6
Continuous
 62
     7
370
    25
100
AcDbPolyline
 90
        5
 70
   128
 43
0.0
 10
404.8221699728
 20
355.8289706917
 10
403.8232818081
 20
355.8468222828
 10
401.8255054786
 20
355.882525465
 10
399.827729149
 20
355.9182211967
 10
397.6803004576
 20
355.9565805109
  0
SPLINE
  5
137
330
1F
100
AcDbEntity
  8
0
  6
Continuous
 62
     7
370
    25
100
AcDbSpline
210
0.0
220
0.0
230
1.0
 70
     8
 71
     3
 72
    17
 73
    13
 74
     0
 42
0.000000001
 43
0.00000001
 40
0.0
 40
0.0
 40
0.0
 40
0.0
 40
0.1043333811703933
 40
0.2086799084888403
 40
0.312878197594176
 40
0.4171236642364063
 40
0.5213967979543226
 40
0.6256792821220688
 40
0.730047567309039
 40
0.8344102971549952
 40
0.939068071935413
 40
1.0
 40
1.0
 40
1.0
 40
1.0
 10
397.6803004576498
 20
355.9565805108543
 30
0.0
 10
397.2301317161778
 20
355.961176714404
 30
0.0
 10
396.3297375113597
 20
355.9703697006315
 30
0.0
 10
394.814134958626
 20
355.9885469291301
 30
0.0
 10
393.2170721213883
 20
356.0100615865677
 30
0.0
 10
391.5544912025227
 20
356.0352537724742
 30
0.0
 10
389.8634277544529
 20
356.0636927298486
 30
0.0
 10
388.1764958991845
 20
356.0949716629026
 30
0.0
 10
386.5247756834871
 20
356.1283225527151
 30
0.0
 10
384.9497106199043
 20
356.1627914579715
 30
0.0
 10
383.6585061694808
 20
356.1927797532069
 30
0.0
 10
382.9613187180516
 20
356.2101941024048
 30
0.0
 10
382.7047751352796
 20
356.2166020483966
 30
0.0
  0
SPLINE
  5
138
330
1F
100
AcDbEntity
  8
0
  6
Continuous
 62
     7
370
    25
100
AcDbSpline
210
0.0
220
0.0
230
1.0
 70
     8
 71
     3
 72
    14
 73
    10
 74
     0
 42
0.000000001
 43
0.00000001
 40
0.0
 40
0.0
 40
0.0
 40
0.0
 40
0.2501974492071644
 40
0.3822308600766855
 40
0.5002876854245969
 40
0.635694781759607
 40
0.7641067802167985
 40
0.8855367151405262
 40
1.0
 40
1.0
 40
1.0
 40
1.0
 10
391.6894785317546
 20
301.6371643376293
 30
0.0
 10
392.7829742517916
 20
301.6572049632885
 30
0.0
 10
394.4535260934846
 20
301.6878213648804
 30
0.0
 10
396.6412490013606
 20
301.7278812456235
 30
0.0
 10
398.3278256761729
 20
301.7587056086028
 30
0.0
 10
399.9996780391856
 20
301.7891660341476
 30
0.0
 10
401.6875812323662
 20
301.8197814988295
 30
0.0
 10
403.2848045533339
 20
301.8486200403615
 30
0.0
 10
404.3199047054565
 20
301.8671610713182
 30
0.0
 10
404.8221699408853
 20
301.8761578000496
 30
0.0
  0
SPLINE
  5
139
330
1F
100
AcDbEntity
  8
0
  6
Continuous
 62
     7
370
    25
100
AcDbSpline
210
0.0
220
0.0
230
1.0
 70
     8
 71
     3
 72
    24
 73
    20
 74
     0
 42
0.000000001
 43
0.00000001
 40
0.0
 40
0.0
 40
0.0
 40
0.0
 40
0.0146381944011899
 40
0.1092547516114733
 40
0.1578009488888604
 40
0.2067042441595066
 40
0.3013216268366586
 40
0.349868058069065
 40
0.3987714308228207
 40
0.4933991547939913
 40
0.541950986449221
 40
0.590859838011741
 40
0.6505314726210385
 40
0.7108704053591327
 40
0.8054825134262829
 40
0.8540263545091202
 40
0.9029271887936983
 40
0.9512871247583452
 40
0.9999999999999999
 40
0.9999999999999999
 40
0.9999999999999999
 40
0.9999999999999999
 10
381.4581832217658
 20
301.4225028665061
 30
0.0
 10
381.456387723458
 20
301.4224560852289
 30
0.0
 10
381.4429867044349
 20
301.4221069248962
 30
0.0
 10
381.5489443368857
 20
301.4248766841353
 30
0.0
 10
381.7711871319742
 20
301.4306303064368
 30
0.0
 10
382.0779907483894
 20
301.4385120084638
 30
0.0
 10
382.4989832769283
 20
301.4491802824947
 30
0.0
 10
383.0253312307156
 20
301.4622074861126
 30
0.0
 10
383.6194136064795
 20
301.4766591587124
 30
0.0
 10
384.308720103982
 20
301.4929585014402
 30
0.0
 10
385.0759566641707
 20
301.5104417564408
 30
0.0
 10
385.7431765634
 20
301.5252409286806
 30
0.0
 10
386.5020970231257
 20
301.541537750568
 30
0.0
 10
387.5135088083258
 20
301.5624149489975
 30
0.0
 10
388.5186933440405
 20
301.5820425767981
 30
0.0
 10
389.4847316226076
 20
301.5998560355753
 30
0.0
 10
390.2226328097555
 20
301.6129080996455
 30
0.0
 10
390.9612090514747
 20
301.625460767213
 30
0.0
 10
391.4461343763914
 20
301.6332537032011
 30
0.0
 10
391.6894785894686
 20
301.6371643380518
 30
0.0
  0
LINE
  5
13A
330
1F
100
AcDbEntity
  8
0
  6
Continuous
 62
     7
370
    25
100
AcDbLine
 10
398.7986009403
 20
301.7672719644
 30
0.0
 11
397.6731553509
 21
301.7467335076
 31
0.0
  0
SPLINE
  5
13B
330
1F
100
AcDbEntity
  8
0
  6
Continuous
 62
     7
370
    25
100
AcDbSpline
210
0.0
220
0.0
230
1.0
 70
     8
 71
     3
 72
    12
 73
     8
 74
     0
 42
0.000000001
 43
0.00000001
 40
0.0
 40
0.0
 40
0.0
 40
0.0
 40
0.25
 40
0.25
 40
0.5
 40
0.5
 40
1.0
 40
1.0
 40
1.0
 40
1.0
 10
405.8045576266893
 20
354.8458315327553
 30
0.0
 10
405.8023726885985
 20
354.9749913227603
 30
0.0
 10
405.7754383889385
 20
355.1011849723084
 30
0.0
 10
405.6752817011032
 20
355.3374215496368
 30
0.0
 10
405.6024331097217
 20
355.4453447413187
 30
0.0
 10
405.3317251515405
 20
355.7164086506874
 30
0.0
 10
405.0804240771547
 20
355.8244077059103
 30
0.0
 10
404.8221699297493
 20
355.8289704052757
 30
0.0
  0
SPLINE
  5
13C
330
1F
100
AcDbEntity
  8
0
  6
Continuous
 62
     7
370
    25
100
AcDbSpline
210
0.0
220
0.0
230
1.0
 70
     8
 71
     3
 72
    12
 73
     8
 74
     0
 42
0.000000001
 43
0.00000001
 40
0.0
 40
0.0
 40
0.0
 40
0.0
 40
0.2499999999999988
 40
0.2499999999999988
 40
0.4999999999999976
 40
0.4999999999999976
 40
1.0
 40
1.0
 40
1.0
 40
1.0
 10
404.8221699408983
 20
301.8761578000497
 30
0.0
 10
404.9512997485079
 20
301.8784391980495
 30
0.0
 10
405.0774327696708
 20
301.9054520902131
 30
0.0
 10
405.3135791897265
 20
302.0057609910408
 30
0.0
 10
405.4214292375255
 20
302.0786607310275
 30
0.0
 10
405.6923379819846
 20
302.3495691587368
 30
0.0
 10
405.8001876592667
 20
302.6009717686008
 30
0.0
 10
405.8045576364006
 20
302.8592966274598
 30
0.0
  0
SPLINE
  5
13D
330
1F
100
AcDbEntity
  8
0
  6
Continuous
 62
     8
370
    18
100
AcDbSpline
210
0.0
220
0.0
230
1.0
 70
     8
 71
     3
 72
    26
 73
    22
 74
     0
 42
0.000000001
 43
0.00000001
 40
0.0
 40
0.0
 40
0.0
 40
0.0
 40
0.1250000000000001
 40
0.1250000000000001
 40
0.2500000000000001
 40
0.2500000000000001
 40
0.3125000000000001
 40
0.3125000000000001
 40
0.3750000000000002
 40
0.3750000000000002
 40
0.4999999999999996
 40
0.4999999999999996
 40
0.624999999999999
 40
0.624999999999999
 40
0.7499999999999987
 40
0.7499999999999987
 40
0.812499999999999
 40
0.812499999999999
 40
0.8749999999999993
 40
0.8749999999999993
 40
1.0
 40
1.0
 40
1.0
 40
1.0
 10
356.2965413876732
 20
356.5948794739027
 30
0.0
 10
356.2970869719048
 20
356.5825202317777
 30
0.0
 10
356.2975739431831
 20
356.495774682066
 30
0.0
 10
356.2984280471468
 20
356.1742677706951
 30
0.0
 10
356.2987852662033
 20
355.9434321263143
 30
0.0
 10
356.2992204323347
 20
355.4961566601249
 30
0.0
 10
356.2993485916788
 20
355.3301084568457
 30
0.0
 10
356.2995703811887
 20
354.9633595113563
 30
0.0
 10
356.2996641299385
 20
354.7617088600212
 30
0.0
 10
356.2998872063898
 20
354.1166664743886
 30
0.0
 10
356.29996141511
 20
353.6307153753159
 30
0.0
 10
356.2999627316098
 20
352.5484061611518
 30
0.0
 10
356.2998874318125
 20
351.9460043951609
 30
0.0
 10
356.2995921753978
 20
350.6764096705809
 30
0.0
 10
356.2993733630992
 20
350.0052856688004
 30
0.0
 10
356.2989368955426
 20
348.9433581031207
 30
0.0
 10
356.2987725852504
 20
348.5789295230528
 30
0.0
 10
356.2984115756774
 20
347.841709542311
 30
0.0
 10
356.2982145672567
 20
347.4679519356601
 30
0.0
 10
356.2975737120765
 20
346.3311367842064
 30
0.0
 10
356.2970869723373
 20
345.5642556991638
 30
0.0
 10
356.2965413876732
 20
344.7894460835566
 30
0.0
  0
LWPOLYLINE
  5
13E
330
1F
100
AcDbEntity
  8
0
  6
Continuous
 62
     8
370
    18
100
AcDbPolyline
 90
        3
 70
   128
 43
0.0
 10
356.2965422704
 20
356.5948792012
 10
380.5973551595
 20
356.177303961
 10
404.8167534007
 20
355.7609580667
  0
SPLINE
  5
13F
330
1F
100
AcDbEntity
  8
0
  6
Continuous
 62
     8
370
    18
100
AcDbSpline
210
0.0
220
0.0
230
1.0
 70
     8
 71
     3
 72
    26
 73
    22
 74
     0
 42
0.000000001
 43
0.00000001
 40
0.0
 40
0.0
 40
0.0
 40
0.0
 40
0.1249999999999999
 40
0.1249999999999999
 40
0.2499999999999998
 40
0.2499999999999998
 40
0.3125000000000003
 40
0.3125000000000003
 40
0.3750000000000008
 40
0.3750000000000008
 40
0.5000000000000008
 40
0.5000000000000008
 40
0.6250000000000008
 40
0.6250000000000008
 40
0.7500000000000008
 40
0.7500000000000008
 40
0.8125000000000006
 40
0.8125000000000006
 40
0.8750000000000003
 40
0.8750000000000003
 40
1.0
 40
1.0
 40
1.0
 40
1.0
 10
404.8167525247848
 20
343.9453946273163
 30
0.0
 10
404.8168570703543
 20
344.7222496886267
 30
0.0
 10
404.8175035797642
 20
345.4913058470275
 30
0.0
 10
404.8186555925143
 20
347.0108119473904
 30
0.0
 10
404.8191595418679
 20
347.7428353971076
 30
0.0
 10
404.8196534613346
 20
348.8009266727184
 30
0.0
 10
404.8197805818307
 20
349.1469188861315
 30
0.0
 10
404.819976165111
 20
349.8252023668741
 30
0.0
 10
404.8200450835797
 20
350.1586344021089
 30
0.0
 10
404.8201930326393
 20
351.117518368555
 30
0.0
 10
404.8202217545025
 20
351.7082689478278
 30
0.0
 10
404.8202215406473
 20
352.7940048020644
 30
0.0
 10
404.8201912942814
 20
353.2916159180271
 30
0.0
 10
404.8199920763919
 20
354.1486386968371
 30
0.0
 10
404.8198174237832
 20
354.5136487927916
 30
0.0
 10
404.8193180163624
 20
354.9645358637417
 30
0.0
 10
404.8191102308825
 20
355.0989390579173
 30
0.0
 10
404.8186275738759
 20
355.3294337148542
 30
0.0
 10
404.8183516090101
 20
355.4263074941343
 30
0.0
 10
404.8174987037523
 20
355.6629387647208
 30
0.0
 10
404.8168570567792
 20
355.7492183598392
 30
0.0
 10
404.8167525446603
 20
355.7609565068859
 30
0.0
  0
LWPOLYLINE
  5
140
330
1F
100
AcDbEntity
  8
0
  6
Continuous
 62
     8
370
    18
100
AcDbPolyline
 90
        3
 70
   128
 43
0.0
 10
404.8167534007
 20
343.9453952224
 10
380.5973551595
 20
344.366800061
 10
356.2965422704
 20
344.7894454212
  0
ARC
  5
141
330
1F
100
AcDbEntity
  8
0
  6
Continuous
 62
     8
370
    18
100
AcDbCircle
 10
356.2877819537
 20
356.0949887651
 30
0.0
 40
0.4999671901359881
100
AcDbArc
 50
88.9960244062
 51
179.9964492835
  0
ARC
  5
142
330
1F
100
AcDbEntity
  8
0
  6
Continuous
 62
     8
370
    18
100
AcDbCircle
 10
356.1679372698
 20
336.7547499233
 30
0.0
 40
8.035724671110538
100
AcDbArc
 50
89.0829901913
 51
92.7113355517
  0
SPLINE
  5
143
330
1F
100
AcDbEntity
  8
0
  6
Continuous
 62
     8
370
    18
100
AcDbSpline
210
0.0
220
0.0
230
1.0
 70
     8
 71
     3
 72
    26
 73
    22
 74
     0
 42
0.000000001
 43
0.00000001
 40
0.0
 40
0.0
 40
0.0
 40
0.0
 40
0.1249999999999998
 40
0.1249999999999998
 40
0.2499999999999995
 40
0.2499999999999995
 40
0.3124999999999995
 40
0.3124999999999995
 40
0.3749999999999994
 40
0.3749999999999994
 40
0.4999999999999997
 40
0.4999999999999997
 40
0.6249999999999999
 40
0.6249999999999999
 40
0.75
 40
0.75
 40
0.8125
 40
0.8125
 40
0.875
 40
0.875
 40
1.0
 40
1.0
 40
1.0
 40
1.0
 10
356.2965413876732
 20
312.9156821215698
 30
0.0
 10
356.2970869719048
 20
312.1408731201522
 30
0.0
 10
356.2975739431831
 20
311.3735884912005
 30
0.0
 10
356.2984280471468
 20
309.8584765451258
 30
0.0
 10
356.2987852662033
 20
309.1284291844496
 30
0.0
 10
356.2992204323347
 20
308.0730112290364
 30
0.0
 10
356.2993485916788
 20
307.7278609509564
 30
0.0
 10
356.2995703811887
 20
307.0511621854728
 30
0.0
 10
356.2996641299385
 20
306.7184980681072
 30
0.0
 10
356.2998872063898
 20
305.761707301513
 30
0.0
 10
356.29996141511
 20
305.1720498087342
 30
0.0
 10
356.2999627316098
 20
304.0879007915539
 30
0.0
 10
356.2998874318125
 20
303.5907301948005
 30
0.0
 10
356.2995921753978
 20
302.7337550398706
 30
0.0
 10
356.2993733630992
 20
302.3684202580756
 30
0.0
 10
356.2989368955426
 20
301.9164539199691
 30
0.0
 10
356.2987725852504
 20
301.781648117812
 30
0.0
 10
356.2984115756774
 20
301.5489370215054
 30
0.0
 10
356.2982145672567
 20
301.450497543233
 30
0.0
 10
356.2975737120765
 20
301.2092735634292
 30
0.0
 10
356.2970869723373
 20
301.1226079831457
 30
0.0
 10
356.2965413876732
 20
301.1102487312236
 30
0.0
  0
LWPOLYLINE
  5
144
330
1F
100
AcDbEntity
  8
0
  6
Continuous
 62
     8
370
    18
100
AcDbPolyline
 90
        3
 70
   128
 43
0.0
 10
356.2965422704
 20
312.9156821152
 10
380.5973551595
 20
313.3383288142
 10
404.8167534007
 20
313.75973358
  0
SPLINE
  5
145
330
1F
100
AcDbEntity
  8
0
  6
Continuous
 62
     8
370
    18
100
AcDbSpline
210
0.0
220
0.0
230
1.0
 70
     8
 71
     3
 72
    26
 73
    22
 74
     0
 42
0.000000001
 43
0.00000001
 40
0.0
 40
0.0
 40
0.0
 40
0.0
 40
0.1249999999999999
 40
0.1249999999999999
 40
0.2499999999999999
 40
0.2499999999999999
 40
0.3124999999999998
 40
0.3124999999999998
 40
0.3749999999999997
 40
0.3749999999999997
 40
0.4999999999999998
 40
0.4999999999999998
 40
0.6249999999999998
 40
0.6249999999999998
 40
0.7499999999999999
 40
0.7499999999999999
 40
0.8124999999999999
 40
0.8124999999999999
 40
0.8749999999999998
 40
0.8749999999999998
 40
1.0
 40
1.0
 40
1.0
 40
1.0
 10
404.8167525247673
 20
301.9441716978984
 30
0.0
 10
404.8168570703384
 20
301.955909846674
 30
0.0
 10
404.8175035797494
 20
302.0423874386682
 30
0.0
 10
404.8186555925005
 20
302.3642967346216
 30
0.0
 10
404.819159541854
 20
302.5957172258726
 30
0.0
 10
404.8196534613203
 20
303.0443527178271
 30
0.0
 10
404.8197805818163
 20
303.2109361961305
 30
0.0
 10
404.8199761650961
 20
303.5789197222325
 30
0.0
 10
404.8200450835646
 20
303.7812868888774
 30
0.0
 10
404.8201930326238
 20
304.4286895953595
 30
0.0
 10
404.8202217544871
 20
304.916467848016
 30
0.0
 10
404.8202215406322
 20
306.0029347790882
 30
0.0
 10
404.8201912942669
 20
306.6076502242297
 30
0.0
 10
404.8199920763789
 20
307.8819554847553
 30
0.0
 10
404.8198174237713
 20
308.5555634687734
 30
0.0
 10
404.8193180163518
 20
309.6214484625436
 30
0.0
 10
404.8191102308722
 20
309.98760342054
 30
0.0
 10
404.8186275738661
 20
310.7237967041204
 30
0.0
 10
404.8183516090005
 20
311.0953085163783
 30
0.0
 10
404.8174987037428
 20
312.2198793663528
 30
0.0
 10
404.816857056769
 20
312.9828785926156
 30
0.0
 10
404.8167525446491
 20
313.7597335781557
 30
0.0
  0
LWPOLYLINE
  5
146
330
1F
100
AcDbEntity
  8
0
  6
Continuous
 62
     8
370
    18
100
AcDbPolyline
 90
        3
 70
   128
 43
0.0
 10
404.8167534007
 20
301.9441720308
 10
380.5973551595
 20
301.5278252051
 10
356.2965422704
 20
301.1102490337
  0
ARC
  5
147
330
1F
100
AcDbEntity
  8
0
  6
Continuous
 62
     8
370
    18
100
AcDbCircle
 10
356.2877842849
 20
301.6101418422
 30
0.0
 40
0.4999695214089669
100
AcDbArc
 50
180.0037158542
 51
271.0037037209
  0
ARC
  5
148
330
1F
100
AcDbEntity
  8
0
  6
Continuous
 62
     8
370
    18
100
AcDbCircle
 10
356.1679276162
 20
320.9489988653
 30
0.0
 40
8.034346254514091
100
AcDbArc
 50
267.2882678496
 51
270.9172360016
  0
LINE
  5
149
330
1F
100
AcDbEntity
  8
0
  6
Continuous
 62
     8
370
    18
100
AcDbLine
 10
356.2965422704
 20
344.7894454212
 30
0.0
 11
356.2965422704
 21
312.9156821152
 31
0.0
  0
SPLINE
  5
14A
330
1F
100
AcDbEntity
  8
0
  6
Continuous
 62
     8
370
    18
100
AcDbSpline
210
0.0
220
0.0
230
1.0
 70
     8
 71
     3
 72
    10
 73
     6
 74
     0
 42
0.000000001
 43
0.00000001
 40
0.0
 40
0.0
 40
0.0
 40
0.0
 40
0.4999999999999999
 40
0.4999999999999999
 40
1.0
 40
1.0
 40
1.0
 40
1.0
 10
404.8167525446492
 20
313.7597335781557
 30
0.0
 10
404.8237484924896
 20
318.7903886779031
 30
0.0
 10
404.824822893077
 20
323.8213330016761
 30
0.0
 10
404.824823008349
 20
333.8837954012096
 30
0.0
 10
404.8237482366467
 20
338.9147395272241
 30
0.0
 10
404.8167525247848
 20
343.9453946273163
 30
0.0
  0
SPLINE
  5
14B
330
1F
100
AcDbEntity
  8
0
  6
Continuous
 62
     8
370
    18
100
AcDbSpline
210
0.0
220
0.0
230
1.0
 70
     8
 71
     3
 72
    26
 73
    22
 74
     0
 42
0.000000001
 43
0.00000001
 40
0.0
 40
0.0
 40
0.0
 40
0.0
 40
0.1249999999999998
 40
0.1249999999999998
 40
0.1874999999999998
 40
0.1874999999999998
 40
0.2499999999999998
 40
0.2499999999999998
 40
0.3749999999999999
 40
0.3749999999999999
 40
0.5000000000000001
 40
0.5000000000000001
 40
0.6250000000000002
 40
0.6250000000000002
 40
0.6875000000000002
 40
0.6875000000000002
 40
0.7500000000000001
 40
0.7500000000000001
 40
0.875
 40
0.875
 40
1.0
 40
1.0
 40
1.0
 40
1.0
 10
405.7992250759792
 20
354.773373511299
 30
0.0
 10
405.7982417155263
 20
354.7619132522316
 30
0.0
 10
405.7979216460949
 20
354.6820682383503
 30
0.0
 10
405.7975107046859
 20
354.4642094770062
 30
0.0
 10
405.7973954838944
 20
354.3751193710929
 30
0.0
 10
405.7971573949874
 20
354.1633123310972
 30
0.0
 10
405.7970346396844
 20
354.0398799974378
 30
0.0
 10
405.7966564544681
 20
353.6259333103231
 30
0.0
 10
405.7963901435559
 20
353.2909855842733
 30
0.0
 10
405.7959929814613
 20
352.5046781177263
 30
0.0
 10
405.7958700577099
 20
352.048189785582
 30
0.0
 10
405.7958692327351
 20
351.0522050894902
 30
0.0
 10
405.7959877842384
 20
350.5103032742687
 30
0.0
 10
405.7962850126747
 20
349.6307504747426
 30
0.0
 10
405.7964033804468
 20
349.3249151990045
 30
0.0
 10
405.7966510089781
 20
348.7027692452713
 30
0.0
 10
405.7967800620065
 20
348.385413340344
 30
0.0
 10
405.7971558453214
 20
347.4149068226332
 30
0.0
 10
405.7973656233766
 20
346.743494147078
 30
0.0
 10
405.7979182173198
 20
345.3498681366519
 30
0.0
 10
405.7982417469141
 20
344.6444741650207
 30
0.0
 10
405.7992250557203
 20
343.9318663454399
 30
0.0
  0
ARC
  5
14C
330
1F
100
AcDbEntity
  8
0
  6
Continuous
 62
     8
370
    18
100
AcDbCircle
 10
405.0785459311
 20
327.2758279496
 30
0.0
 40
16.6716228481691
100
AcDbArc
 50
87.5224550721
 51
90.899745858
  0
ARC
  5
14D
330
1F
100
AcDbEntity
  8
0
  6
Continuous
 62
     8
370
    18
100
AcDbCircle
 10
404.799329805
 20
354.7611406543
 30
0.0
 40
0.9999692194319915
100
AcDbArc
 50
0.7008683295
 51
89.00162025
  0
SPLINE
  5
14E
330
1F
100
AcDbEntity
  8
0
  6
Continuous
 62
     8
370
    18
100
AcDbSpline
210
0.0
220
0.0
230
1.0
 70
     8
 71
     3
 72
    26
 73
    22
 74
     0
 42
0.000000001
 43
0.00000001
 40
0.0
 40
0.0
 40
0.0
 40
0.0
 40
0.1249999999999999
 40
0.1249999999999999
 40
0.1874999999999999
 40
0.1874999999999999
 40
0.2499999999999999
 40
0.2499999999999999
 40
0.3749999999999999
 40
0.3749999999999999
 40
0.5
 40
0.5
 40
0.6249999999999998
 40
0.6249999999999998
 40
0.6874999999999998
 40
0.6874999999999998
 40
0.7499999999999999
 40
0.7499999999999999
 40
0.8749999999999999
 40
0.8749999999999999
 40
1.0
 40
1.0
 40
1.0
 40
1.0
 10
405.7992250759683
 20
313.7732618136563
 30
0.0
 10
405.7982417155164
 20
313.0606410246598
 30
0.0
 10
405.7979216460856
 20
312.3607852854443
 30
0.0
 10
405.7975107046765
 20
311.3293124094652
 30
0.0
 10
405.7973954838848
 20
310.9885626701418
 30
0.0
 10
405.7971573949773
 20
310.3133403439591
 30
0.0
 10
405.7970346396739
 20
309.9775218406876
 30
0.0
 10
405.7966564544562
 20
308.9998988545228
 30
0.0
 10
405.796390143543
 20
308.3820269337311
 30
0.0
 10
405.7959929814469
 20
307.2131436758463
 30
0.0
 10
405.795870057695
 20
306.6584496789764
 30
0.0
 10
405.7958692327198
 20
305.6618002213006
 30
0.0
 10
405.7959877842231
 20
305.2143249608451
 30
0.0
 10
405.7962850126598
 20
304.6203542507528
 30
0.0
 10
405.796403380432
 20
304.4346786673708
 30
0.0
 10
405.7966510089637
 20
304.0969940371392
 30
0.0
 10
405.7967800619924
 20
303.9440989553013
 30
0.0
 10
405.7971558453075
 20
303.5322147757373
 30
0.0
 10
405.797365623363
 20
303.3195781203792
 30
0.0
 10
405.7979182173052
 20
303.0232463641703
 30
0.0
 10
405.7982417468984
 20
302.9432147285433
 30
0.0
 10
405.7992250557031
 20
302.9317546559462
 30
0.0
  0
ARC
  5
14F
330
1F
100
AcDbEntity
  8
0
  6
Continuous
 62
     8
370
    18
100
AcDbCircle
 10
404.7993334654
 20
302.9439858363
 30
0.0
 40
0.9999655493572649
100
AcDbArc
 50
270.9981736498
 51
359.2991756778
  0
ARC
  5
150
330
1F
100
AcDbEntity
  8
0
  6
Continuous
 62
     8
370
    18
100
AcDbCircle
 10
405.0785686057
 20
330.4278512203
 30
0.0
 40
16.67017375056144
100
AcDbArc
 50
269.1000979802
 51
272.4776824232
  0
SPLINE
  5
151
330
1F
100
AcDbEntity
  8
0
  6
Continuous
 62
     8
370
    18
100
AcDbSpline
210
0.0
220
0.0
230
1.0
 70
     8
 71
     3
 72
    10
 73
     6
 74
     0
 42
0.000000001
 43
0.00000001
 40
0.0
 40
0.0
 40
0.0
 40
0.0
 40
0.5
 40
0.5
 40
1.0
 40
1.0
 40
1.0
 40
1.0
 10
405.7992250557203
 20
343.9318663454399
 30
0.0
 10
405.8061604485608
 20
338.9057594516131
 30
0.0
 10
405.8071615636699
 20
333.8793288365782
 30
0.0
 10
405.8071614481419
 20
323.8257995512435
 30
0.0
 10
405.8061607068466
 20
318.799368709928
 30
0.0
 10
405.7992250759682
 20
313.7732618136563
 30
0.0
  0
SPLINE
  5
152
330
1F
100
AcDbEntity
  8
0
  6
Continuous
 62
     8
370
    18
100
AcDbSpline
210
0.0
220
0.0
230
1.0
 70
     8
 71
     3
 72
     8
 73
     4
 74
     0
 42
0.000000001
 43
0.00000001
 40
0.0
 40
0.0
 40
0.0
 40
0.0
 40
1.0
 40
1.0
 40
1.0
 40
1.0
 10
405.8045576266893
 20
354.8458315327553
 30
0.0
 10
405.8034036522628
 20
354.8269762364724
 30
0.0
 10
405.8017484065376
 20
354.8027808581443
 30
0.0
 10
405.7992250759792
 20
354.773373511299
 30
0.0
  0
SPLINE
  5
153
330
1F
100
AcDbEntity
  8
0
  6
Continuous
 62
     8
370
    18
100
AcDbSpline
210
0.0
220
0.0
230
1.0
 70
     8
 71
     3
 72
     8
 73
     4
 74
     0
 42
0.000000001
 43
0.00000001
 40
0.0
 40
0.0
 40
0.0
 40
0.0
 40
1.0
 40
1.0
 40
1.0
 40
1.0
 10
405.7992250557031
 20
302.9317546559463
 30
0.0
 10
405.8017482996245
 20
302.9023472527153
 30
0.0
 10
405.8034036146124
 20
302.8781519010524
 30
0.0
 10
405.8045576364006
 20
302.8592966274596
 30
0.0
  0
LINE
  5
154
330
1F
100
AcDbEntity
  8
0
  6
Continuous
 62
     8
370
    18
100
AcDbLine
 10
356.2965422704
 20
356.721881798
 30
0.0
 11
356.2965422704
 21
356.5948792012
 31
0.0
  0
LINE
  5
155
330
1F
100
AcDbEntity
  8
0
  6
Continuous
 62
     8
370
    18
100
AcDbLine
 10
356.2965422704
 20
301.1102490337
 30
0.0
 11
356.2965422704
 21
300.9832473682
 31
0.0
  0
SPLINE
  5
156
330
1F
100
AcDbEntity
  8
0
  6
Continuous
 62
     8
370
    18
100
AcDbSpline
210
0.0
220
0.0
230
1.0
 70
     8
 71
     3
 72
     8
 73
     4
 74
     0
 42
0.000000001
 43
0.00000001
 40
0.0
 40
0.0
 40
0.0
 40
0.0
 40
1.0
 40
1.0
 40
1.0
 40
1.0
 10
404.8167525446603
 20
355.7609565068859
 30
0.0
 10
404.8193097060663
 20
355.7886916079618
 30
0.0
 10
404.8209934583808
 20
355.8113650355498
 30
0.0
 10
404.8221699297494
 20
355.8289704052758
 30
0.0
  0
SPLINE
  5
157
330
1F
100
AcDbEntity
  8
0
  6
Continuous
 62
     8
370
    18
100
AcDbSpline
210
0.0
220
0.0
230
1.0
 70
     8
 71
     3
 72
    14
 73
    10
 74
     0
 42
0.000000001
 43
0.00000001
 40
0.0
 40
0.0
 40
0.0
 40
0.0
 40
0.0653295510764259
 40
0.2212041413074387
 40
0.3771344715075972
 40
0.5329767418087372
 40
0.6889541746145219
 40
0.8447917285225146
 40
0.9999999999999999
 40
0.9999999999999999
 40
0.9999999999999999
 40
0.9999999999999999
 10
382.7047751352796
 20
356.2166020483966
 30
0.0
 10
382.5149244492877
 20
356.2212698501727
 30
0.0
 10
381.8720950209585
 20
356.2370749041899
 30
0.0
 10
380.9357750404494
 20
356.2617631149973
 30
0.0
 10
379.9265455485938
 20
356.2891157327971
 30
0.0
 10
379.1237369486543
 20
356.3116788632412
 30
0.0
 10
378.5442597083293
 20
356.3283718649633
 30
0.0
 10
378.1748135379784
 20
356.3391705995097
 30
0.0
 10
378.1303236565244
 20
356.3404908761585
 30
0.0
 10
378.108123719939
 20
356.3411496789451
 30
0.0
  0
SPLINE
  5
158
330
1F
100
AcDbEntity
  8
0
  6
Continuous
 62
     8
370
    18
100
AcDbSpline
210
0.0
220
0.0
230
1.0
 70
     8
 71
     3
 72
     8
 73
     4
 74
     0
 42
0.000000001
 43
0.00000001
 40
0.0
 40
0.0
 40
0.0
 40
0.0
 40
1.0
 40
1.0
 40
1.0
 40
1.0
 10
404.8221699408983
 20
301.8761578000498
 30
0.0
 10
404.8209934223195
 20
301.893763168952
 30
0.0
 10
404.8193095999114
 20
301.9164365953157
 30
0.0
 10
404.8167525247673
 20
301.9441716978984
 30
0.0
  0
ENDSEC
  0
SECTION
  2
OBJECTS
  0
DICTIONARY
  5
C
330
0
100
AcDbDictionary
281
     1
  3
ACAD_GROUP
350
D
  3
ACAD_LAYOUT
350
1A
  3
ACAD_MLINESTYLE
350
17
  3
ACAD_PLOTSETTINGS
350
19
  3
ACAD_PLOTSTYLENAME
350
E
  3
ACAD_SCALELIST
350
47
  0
DICTIONARY
  5
D
102
{ACAD_REACTORS
330
C
102
}
330
C
100
AcDbDictionary
281
     1
  0
DICTIONARY
  5
1A
102
{ACAD_REACTORS
330
C
102
}
330
C
100
AcDbDictionary
281
     1
  3
Layout1
350
1E
  3
Layout2
350
26
  3
Model
350
22
  0
DICTIONARY
  5
17
102
{ACAD_REACTORS
330
C
102
}
330
C
100
AcDbDictionary
281
     1
  3
Standard
350
18
  0
DICTIONARY
  5
19
102
{ACAD_REACTORS
330
C
102
}
330
C
100
AcDbDictionary
281
     1
  0
ACDBDICTIONARYWDFLT
  5
E
102
{ACAD_REACTORS
330
C
102
}
330
C
100
AcDbDictionary
281
     1
  3
Normal
350
F
100
AcDbDictionaryWithDefault
340
F
  0
DICTIONARY
  5
47
102
{ACAD_REACTORS
330
C
102
}
330
C
100
AcDbDictionary
281
     1
  3
A0
350
48
  3
A1
350
49
  3
A2
350
4A
  3
A3
350
4B
  3
A4
350
4C
  3
A5
350
4D
  3
A6
350
4E
  3
A7
350
4F
  3
A8
350
50
  3
A9
350
51
  3
B0
350
52
  3
B1
350
53
  3
B2
350
54
  3
B3
350
55
  3
B4
350
56
  3
B5
350
57
  3
B6
350
58
  3
B7
350
59
  3
B8
350
5A
  3
B9
350
5B
  3
C0
350
5C
  3
C1
350
5D
  3
C2
350
5E
  3
C3
350
5F
  3
C4
350
60
  3
C5
350
61
  3
C6
350
62
  3
C7
350
63
  3
C8
350
64
  3
C9
350
65
  3
D0
350
66
  3
D1
350
67
  3
D2
350
68
  0
LAYOUT
  5
1E
102
{ACAD_REACTORS
330
1A
102
}
330
1A
100
AcDbPlotSettings
  1

  2
none_device
  4

  6

 40
0.0
 41
0.0
 42
0.0
 43
0.0
 44
0.0
 45
0.0
 46
0.0
 47
0.0
 48
0.0
 49
0.0
140
0.0
141
0.0
142
1.0
143
1.0
 70
   688
 72
     1
 73
     0
 74
     5
  7

 75
    16
147
1.0
148
0.0
149
0.0
100
AcDbLayout
  1
Layout1
 70
     1
 71
     1
 10
0.0
 20
0.0
 11
420.0
 21
297.0
 12
0.0
 22
0.0
 32
0.0
 14
1.0000000000E+20
 24
1.0000000000E+20
 34
1.0000000000E+20
 15
-1.0000000000E+20
 25
-1.0000000000E+20
 35
-1.0000000000E+20
146
0.0
 13
0.0
 23
0.0
 33
0.0
 16
1.0
 26
0.0
 36
0.0
 17
0.0
 27
1.0
 37
0.0
 76
     0
330
1B
  0
LAYOUT
  5
26
102
{ACAD_REACTORS
330
1A
102
}
330
1A
100
AcDbPlotSettings
  1

  2
none_device
  4

  6

 40
0.0
 41
0.0
 42
0.0
 43
0.0
 44
0.0
 45
0.0
 46
0.0
 47
0.0
 48
0.0
 49
0.0
140
0.0
141
0.0
142
1.0
143
1.0
 70
   688
 72
     1
 73
     0
 74
     5
  7

 75
    16
147
1.0
148
0.0
149
0.0
100
AcDbLayout
  1
Layout2
 70
     1
 71
     2
 10
0.0
 20
0.0
 11
0.0
 21
0.0
 12
0.0
 22
0.0
 32
0.0
 14
0.0
 24
0.0
 34
0.0
 15
0.0
 25
0.0
 35
0.0
146
0.0
 13
0.0
 23
0.0
 33
0.0
 16
1.0
 26
0.0
 36
0.0
 17
0.0
 27
1.0
 37
0.0
 76
     0
330
23
  0
LAYOUT
  5
22
102
{ACAD_REACTORS
330
1A
102
}
330
1A
100
AcDbPlotSettings
  1

  2
none_device
  4
Letter_(8.50_x_11.00_Inches)
  6

 40
6.35
 41
6.35
 42
6.35000508
 43
6.35000508
 44
215.9
 45
279.4
 46
0.0
 47
0.0
 48
0.0
 49
0.0
140
0.0
141
0.0
142
1.0
143
1.0
 70
  1712
 72
     1
 73
     0
 74
     0
  7

 75
     0
147
1.0
148
0.0
149
0.0
100
AcDbLayout
  1
Model
 70
     1
 71
     0
 10
0.0
 20
0.0
 11
594.0
 21
841.0
 12
0.0
 22
0.0
 32
0.0
 14
0.0
 24
0.0
 34
0.0
 15
594.0
 25
841.0
 35
0.0
146
0.0
 13
0.0
 23
0.0
 33
0.0
 16
1.0
 26
0.0
 36
0.0
 17
0.0
 27
1.0
 37
0.0
 76
     0
330
1F
331
29
  0
MLINESTYLE
  5
18
102
{ACAD_REACTORS
330
17
102
}
330
17
100
AcDbMlineStyle
  2
Standard
 70
     0
  3

 62
   256
 51
90.0
 52
90.0
 71
     2
 49
0.5
 62
   256
  6
BYLAYER
 49
-0.5
 62
   256
  6
BYLAYER
  0
ACDBPLACEHOLDER
  5
F
102
{ACAD_REACTORS
330
E
102
}
330
E
  0
SCALE
  5
48
102
{ACAD_REACTORS
330
47
102
}
330
47
100
AcDbScale
 70
     0
300
1:1
140
1.0
141
1.0
290
     1
  0
SCALE
  5
49
102
{ACAD_REACTORS
330
47
102
}
330
47
100
AcDbScale
 70
     0
300
1:2
140
1.0
141
2.0
290
     0
  0
SCALE
  5
4A
102
{ACAD_REACTORS
330
47
102
}
330
47
100
AcDbScale
 70
     0
300
1:4
140
1.0
141
4.0
290
     0
  0
SCALE
  5
4B
102
{ACAD_REACTORS
330
47
102
}
330
47
100
AcDbScale
 70
     0
300
1:5
140
1.0
141
5.0
290
     0
  0
SCALE
  5
4C
102
{ACAD_REACTORS
330
47
102
}
330
47
100
AcDbScale
 70
     0
300
1:8
140
1.0
141
8.0
290
     0
  0
SCALE
  5
4D
102
{ACAD_REACTORS
330
47
102
}
330
47
100
AcDbScale
 70
     0
300
1:10
140
1.0
141
10.0
290
     0
  0
SCALE
  5
4E
102
{ACAD_REACTORS
330
47
102
}
330
47
100
AcDbScale
 70
     0
300
1:16
140
1.0
141
16.0
290
     0
  0
SCALE
  5
4F
102
{ACAD_REACTORS
330
47
102
}
330
47
100
AcDbScale
 70
     0
300
1:20
140
1.0
141
20.0
290
     0
  0
SCALE
  5
50
102
{ACAD_REACTORS
330
47
102
}
330
47
100
AcDbScale
 70
     0
300
1:30
140
1.0
141
30.0
290
     0
  0
SCALE
  5
51
102
{ACAD_REACTORS
330
47
102
}
330
47
100
AcDbScale
 70
     0
300
1:40
140
1.0
141
40.0
290
     0
  0
SCALE
  5
52
102
{ACAD_REACTORS
330
47
102
}
330
47
100
AcDbScale
 70
     0
300
1:50
140
1.0
141
50.0
290
     0
  0
SCALE
  5
53
102
{ACAD_REACTORS
330
47
102
}
330
47
100
AcDbScale
 70
     0
300
1:100
140
1.0
141
100.0
290
     0
  0
SCALE
  5
54
102
{ACAD_REACTORS
330
47
102
}
330
47
100
AcDbScale
 70
     0
300
2:1
140
2.0
141
1.0
290
     0
  0
SCALE
  5
55
102
{ACAD_REACTORS
330
47
102
}
330
47
100
AcDbScale
 70
     0
300
4:1
140
4.0
141
1.0
290
     0
  0
SCALE
  5
56
102
{ACAD_REACTORS
330
47
102
}
330
47
100
AcDbScale
 70
     0
300
8:1
140
8.0
141
1.0
290
     0
  0
SCALE
  5
57
102
{ACAD_REACTORS
330
47
102
}
330
47
100
AcDbScale
 70
     0
300
10:1
140
10.0
141
1.0
290
     0
  0
SCALE
  5
58
102
{ACAD_REACTORS
330
47
102
}
330
47
100
AcDbScale
 70
     0
300
100:1
140
100.0
141
1.0
290
     0
  0
SCALE
  5
59
102
{ACAD_REACTORS
330
47
102
}
330
47
100
AcDbScale
 70
     0
300
1/128" = 1'-0"
140
0.0078125
141
12.0
290
     0
  0
SCALE
  5
5A
102
{ACAD_REACTORS
330
47
102
}
330
47
100
AcDbScale
 70
     0
300
1/64" = 1'-0"
140
0.015625
141
12.0
290
     0
  0
SCALE
  5
5B
102
{ACAD_REACTORS
330
47
102
}
330
47
100
AcDbScale
 70
     0
300
1/32" = 1'-0"
140
0.03125
141
12.0
290
     0
  0
SCALE
  5
5C
102
{ACAD_REACTORS
330
47
102
}
330
47
100
AcDbScale
 70
     0
300
1/16" = 1'-0"
140
0.0625
141
12.0
290
     0
  0
SCALE
  5
5D
102
{ACAD_REACTORS
330
47
102
}
330
47
100
AcDbScale
 70
     0
300
3/32" = 1'-0"
140
0.09375
141
12.0
290
     0
  0
SCALE
  5
5E
102
{ACAD_REACTORS
330
47
102
}
330
47
100
AcDbScale
 70
     0
300
1/8" = 1'-0"
140
0.125
141
12.0
290
     0
  0
SCALE
  5
5F
102
{ACAD_REACTORS
330
47
102
}
330
47
100
AcDbScale
 70
     0
300
3/16" = 1'-0"
140
0.1875
141
12.0
290
     0
  0
SCALE
  5
60
102
{ACAD_REACTORS
330
47
102
}
330
47
100
AcDbScale
 70
     0
300
1/4" = 1'-0"
140
0.25
141
12.0
290
     0
  0
SCALE
  5
61
102
{ACAD_REACTORS
330
47
102
}
330
47
100
AcDbScale
 70
     0
300
3/8" = 1'-0"
140
0.375
141
12.0
290
     0
  0
SCALE
  5
62
102
{ACAD_REACTORS
330
47
102
}
330
47
100
AcDbScale
 70
     0
300
1/2" = 1'-0"
140
0.5
141
12.0
290
     0
  0
SCALE
  5
63
102
{ACAD_REACTORS
330
47
102
}
330
47
100
AcDbScale
 70
     0
300
3/4" = 1'-0"
140
0.75
141
12.0
290
     0
  0
SCALE
  5
64
102
{ACAD_REACTORS
330
47
102
}
330
47
100
AcDbScale
 70
     0
300
1" = 1'-0"
140
1.0
141
12.0
290
     0
  0
SCALE
  5
65
102
{ACAD_REACTORS
330
47
102
}
330
47
100
AcDbScale
 70
     0
300
1-1/2" = 1'-0"
140
1.5
141
12.0
290
     0
  0
SCALE
  5
66
102
{ACAD_REACTORS
330
47
102
}
330
47
100
AcDbScale
 70
     0
300
3" = 1'-0"
140
3.0
141
12.0
290
     0
  0
SCALE
  5
67
102
{ACAD_REACTORS
330
47
102
}
330
47
100
AcDbScale
 70
     0
300
6" = 1'-0"
140
6.0
141
12.0
290
     0
  0
SCALE
  5
68
102
{ACAD_REACTORS
330
47
102
}
330
47
100
AcDbScale
 70
     0
300
1'-0" = 1'-0"
140
12.0
141
12.0
290
     0
  0
ENDSEC
  0
EOF
