  0
SECTION
  2
HEADER
  9
$ACADVER
  1
AC1015
  9
$ACADMAINTVER
 70
     6
  9
$DWGCODEPAGE
  3
ANSI_1252
  9
$INSBASE
 10
0.0
 20
0.0
 30
0.0
  9
$EXTMIN
 10
0.0
 20
0.0
 30
0.0
  9
$EXTMAX
 10
594.0
 20
841.0
 30
0.0
  9
$LIMMIN
 10
0.0
 20
0.0
  9
$LIMMAX
 10
594.0
 20
841.0
  9
$ORTHOMODE
 70
     0
  9
$REGENMODE
 70
     1
  9
$FILLMODE
 70
     1
  9
$QTEXTMODE
 70
     0
  9
$MIRRTEXT
 70
     1
  9
$LTSCALE
 40
1.0
  9
$ATTMODE
 70
     1
  9
$TEXTSIZE
 40
10.0
  9
$TRACEWID
 40
1.0
  9
$TEXTSTYLE
  7
Standard
  9
$CLAYER
  8
0
  9
$CELTYPE
  6
ByLayer
  9
$CECOLOR
 62
   256
  9
$CELTSCALE
 40
1.0
  9
$DISPSILH
 70
     0
  9
$DIMSCALE
 40
1.0
  9
$DIMASZ
 40
2.5
  9
$DIMEXO
 40
0.0
  9
$DIMDLI
 40
3.75
  9
$DIMRND
 40
0.0
  9
$DIMDLE
 40
0.0
  9
$DIMEXE
 40
1.0
  9
$DIMTP
 40
0.0
  9
$DIMTM
 40
0.0
  9
$DIMTXT
 40
3.5
  9
$DIMCEN
 40
2.5
  9
$DIMTSZ
 40
0.0
  9
$DIMTOL
 70
     0
  9
$DIMLIM
 70
     0
  9
$DIMTIH
 70
     1
  9
$DIMTOH
 70
     1
  9
$DIMSE1
 70
     0
  9
$DIMSE2
 70
     0
  9
$DIMTAD
 70
     1
  9
$DIMZIN
 70
     0
  9
$DIMBLK
  1

  9
$DIMASO
 70
     1
  9
$DIMSHO
 70
     1
  9
$DIMPOST
  1

  9
$DIMAPOST
  1

  9
$DIMALT
 70
     0
  9
$DIMALTD
 70
     3
  9
$DIMALTF
 40
0.0393700787
  9
$DIMLFAC
 40
1.0
  9
$DIMTOFL
 70
     1
  9
$DIMTVP
 40
0.0
  9
$DIMTIX
 70
     0
  9
$DIMSOXD
 70
     0
  9
$DIMSAH
 70
     0
  9
$DIMBLK1
  1

  9
$DIMBLK2
  1

  9
$DIMSTYLE
  2
ISO-25
  9
$DIMCLRD
 70
     0
  9
$DIMCLRE
 70
     0
  9
$DIMCLRT
 70
     0
  9
$DIMTFAC
 40
1.0
  9
$DIMGAP
 40
1.5
  9
$DIMJUST
 70
     0
  9
$DIMSD1
 70
     0
  9
$DIMSD2
 70
     0
  9
$DIMTOLJ
 70
     0
  9
$DIMTZIN
 70
     0
  9
$DIMALTZ
 70
     0
  9
$DIMALTTZ
 70
     0
  9
$DIMUPT
 70
     0
  9
$DIMDEC
 70
     2
  9
$DIMTDEC
 70
     2
  9
$DIMALTU
 70
     2
  9
$DIMALTTD
 70
     3
  9
$DIMTXSTY
  7
Standard
  9
$DIMAUNIT
 70
     0
  9
$DIMADEC
 70
     2
  9
$DIMALTRND
 40
0.0
  9
$DIMAZIN
 70
     0
  9
$DIMDSEP
 70
    44
  9
$DIMATFIT
 70
     3
  9
$DIMFRAC
 70
     0
  9
$DIMLDRBLK
  1

  9
$DIMLUNIT
 70
     2
  9
$DIMLWD
 70
    -2
  9
$DIMLWE
 70
    -2
  9
$DIMTMOVE
 70
     0
  9
$LUNITS
 70
     2
  9
$LUPREC
 70
     2
  9
$SKETCHINC
 40
1.0
  9
$FILLETRAD
 40
10.0
  9
$AUNITS
 70
     0
  9
$AUPREC
 70
     2
  9
$MENU
  1
.
  9
$ELEVATION
 40
0.0
  9
$PELEVATION
 40
0.0
  9
$THICKNESS
 40
0.0
  9
$LIMCHECK
 70
     0
  9
$CHAMFERA
 40
0.0
  9
$CHAMFERB
 40
0.0
  9
$CHAMFERC
 40
0.0
  9
$CHAMFERD
 40
0.0
  9
$SKPOLY
 70
     0
  9
$TDCREATE
 40
2458786.397269433
  9
$TDUCREATE
 40
2458786.355602766
  9
$TDUPDATE
 40
2458786.397269791
  9
$TDUUPDATE
 40
2458786.355603125
  9
$TDINDWG
 40
0.0000000116
  9
$TDUSRTIMER
 40
0.0000000116
  9
$USRTIMER
 70
     1
  9
$ANGBASE
 50
0.0
  9
$ANGDIR
 70
     0
  9
$PDMODE
 70
     0
  9
$PDSIZE
 40
-1.0
  9
$PLINEWID
 40
0.0
  9
$SPLFRAME
 70
     0
  9
$SPLINETYPE
 70
     6
  9
$SPLINESEGS
 70
     8
  9
$HANDSEED
  5
153
  9
$SURFTAB1
 70
     6
  9
$SURFTAB2
 70
     6
  9
$SURFTYPE
 70
     6
  9
$SURFU
 70
     6
  9
$SURFV
 70
     6
  9
$UCSBASE
  2

  9
$UCSNAME
  2

  9
$UCSORG
 10
0.0
 20
0.0
 30
0.0
  9
$UCSXDIR
 10
1.0
 20
0.0
 30
0.0
  9
$UCSYDIR
 10
0.0
 20
1.0
 30
0.0
  9
$UCSORTHOREF
  2

  9
$UCSORTHOVIEW
 70
     0
  9
$UCSORGTOP
 10
0.0
 20
0.0
 30
0.0
  9
$UCSORGBOTTOM
 10
0.0
 20
0.0
 30
0.0
  9
$UCSORGLEFT
 10
0.0
 20
0.0
 30
0.0
  9
$UCSORGRIGHT
 10
0.0
 20
0.0
 30
0.0
  9
$UCSORGFRONT
 10
0.0
 20
0.0
 30
0.0
  9
$UCSORGBACK
 10
0.0
 20
0.0
 30
0.0
  9
$PUCSBASE
  2

  9
$PUCSNAME
  2

  9
$PUCSORG
 10
0.0
 20
0.0
 30
0.0
  9
$PUCSXDIR
 10
1.0
 20
0.0
 30
0.0
  9
$PUCSYDIR
 10
0.0
 20
1.0
 30
0.0
  9
$PUCSORTHOREF
  2

  9
$PUCSORTHOVIEW
 70
     0
  9
$PUCSORGTOP
 10
0.0
 20
0.0
 30
0.0
  9
$PUCSORGBOTTOM
 10
0.0
 20
0.0
 30
0.0
  9
$PUCSORGLEFT
 10
0.0
 20
0.0
 30
0.0
  9
$PUCSORGRIGHT
 10
0.0
 20
0.0
 30
0.0
  9
$PUCSORGFRONT
 10
0.0
 20
0.0
 30
0.0
  9
$PUCSORGBACK
 10
0.0
 20
0.0
 30
0.0
  9
$USERI1
 70
     0
  9
$USERI2
 70
     0
  9
$USERI3
 70
     0
  9
$USERI4
 70
     0
  9
$USERI5
 70
     0
  9
$USERR1
 40
0.0
  9
$USERR2
 40
0.0
  9
$USERR3
 40
0.0
  9
$USERR4
 40
0.0
  9
$USERR5
 40
0.0
  9
$WORLDVIEW
 70
     1
  9
$SHADEDGE
 70
     3
  9
$SHADEDIF
 70
    70
  9
$TILEMODE
 70
     1
  9
$MAXACTVP
 70
    64
  9
$PINSBASE
 10
0.0
 20
0.0
 30
0.0
  9
$PLIMCHECK
 70
     0
  9
$PEXTMIN
 10
1.0000000000E+20
 20
1.0000000000E+20
 30
1.0000000000E+20
  9
$PEXTMAX
 10
-1.0000000000E+20
 20
-1.0000000000E+20
 30
-1.0000000000E+20
  9
$PLIMMIN
 10
0.0
 20
0.0
  9
$PLIMMAX
 10
420.0
 20
297.0
  9
$UNITMODE
 70
     0
  9
$VISRETAIN
 70
     1
  9
$PLINEGEN
 70
     0
  9
$PSLTSCALE
 70
     1
  9
$TREEDEPTH
 70
  3020
  9
$CMLSTYLE
  2
Standard
  9
$CMLJUST
 70
     0
  9
$CMLSCALE
 40
20.0
  9
$PROXYGRAPHICS
 70
     1
  9
$MEASUREMENT
 70
     1
  9
$CELWEIGHT
370
    -1
  9
$ENDCAPS
280
     0
  9
$JOINSTYLE
280
     0
  9
$LWDISPLAY
290
     1
  9
$INSUNITS
 70
     4
  9
$HYPERLINKBASE
  1

  9
$STYLESHEET
  1

  9
$XEDIT
290
     1
  9
$CEPSNTYPE
380
     0
  9
$PSTYLEMODE
290
     1
  9
$FINGERPRINTGUID
  2
{f9562276-b412-4188-9aa7-5186900eb358}
  9
$VERSIONGUID
  2
{FAEB1C32-E019-11D5-929B-00C0DF256EC4}
  9
$EXTNAMES
290
     1
  9
$PSVPSCALE
 40
0.0
  9
$OLESTARTUP
290
     0
  0
ENDSEC
  0
SECTION
  2
CLASSES
  0
CLASS
  1
ACDBDICTIONARYWDFLT
  2
AcDbDictionaryWithDefault
  3
ObjectDBX Classes
 90
        0
280
     0
281
     0
  0
CLASS
  1
VISUALSTYLE
  2
AcDbVisualStyle
  3
ObjectDBX Classes
 90
     4095
280
     0
281
     0
  0
CLASS
  1
MATERIAL
  2
AcDbMaterial
  3
ObjectDBX Classes
 90
     1153
280
     0
281
     0
  0
CLASS
  1
SCALE
  2
AcDbScale
  3
ObjectDBX Classes
 90
     1153
280
     0
281
     0
  0
CLASS
  1
TABLESTYLE
  2
AcDbTableStyle
  3
ObjectDBX Classes
 90
     4095
280
     0
281
     0
  0
CLASS
  1
MLEADERSTYLE
  2
AcDbMLeaderStyle
  3
ACDB_MLEADERSTYLE_CLASS
 90
     4095
280
     0
281
     0
  0
CLASS
  1
SUN
  2
AcDbSun
  3
SCENEOE
 90
     1153
280
     0
281
     0
  0
CLASS
  1
ACDBPLACEHOLDER
  2
AcDbPlaceHolder
  3
ObjectDBX Classes
 90
        0
280
     0
281
     0
  0
CLASS
  1
LAYOUT
  2
AcDbLayout
  3
ObjectDBX Classes
 90
        0
280
     0
281
     0
  0
ENDSEC
  0
SECTION
  2
TABLES
  0
TABLE
  2
VPORT
  5
8
330
0
100
AcDbSymbolTable
 70
     1
  0
VPORT
  5
29
330
8
100
AcDbSymbolTableRecord
100
AcDbViewportTableRecord
  2
*Active
 70
     0
 10
0.0
 20
0.0
 11
1.0
 21
1.0
 12
297.0
 22
420.5
 13
0.0
 23
0.0
 14
10.0
 24
10.0
 15
10.0
 25
10.0
 16
0.0
 26
0.0
 36
1.0
 17
0.0
 27
0.0
 37
0.0
 40
841.0
 41
0.7063020214
 42
50.0
 43
0.0
 44
0.0
 50
0.0
 51
0.0
 71
     0
 72
  2000
 73
     1
 74
     3
 75
     0
 76
     0
 77
     0
 78
     0
281
     0
 65
     1
110
0.0
120
0.0
130
0.0
111
1.0
121
0.0
131
0.0
112
0.0
122
1.0
132
0.0
 79
     0
146
0.0
  0
ENDTAB
  0
TABLE
  2
LTYPE
  5
5
330
0
100
AcDbSymbolTable
 70
     6
  0
LTYPE
  5
14
330
5
100
AcDbSymbolTableRecord
100
AcDbLinetypeTableRecord
  2
ByBlock
 70
     0
  3

 72
    65
 73
     0
 40
0.0
  0
LTYPE
  5
15
330
5
100
AcDbSymbolTableRecord
100
AcDbLinetypeTableRecord
  2
ByLayer
 70
     0
  3

 72
    65
 73
     0
 40
0.0
  0
LTYPE
  5
16
330
5
100
AcDbSymbolTableRecord
100
AcDbLinetypeTableRecord
  2
Continuous
 70
     0
  3
Solid line
 72
    65
 73
     0
 40
0.0
  0
LTYPE
  5
6E
330
5
100
AcDbSymbolTableRecord
100
AcDbLinetypeTableRecord
  2
HIDDEN
 70
     0
  3
Hidden __ __ __ __ __ __ __ __ __ __ __ __ __ __
 72
    65
 73
     2
 40
1.905
 49
1.27
 74
     0
 49
-0.635
 74
     0
  0
LTYPE
  5
6F
330
5
100
AcDbSymbolTableRecord
100
AcDbLinetypeTableRecord
  2
PHANTOM
 70
     0
  3
Phantom ______  __  __  ______  __  __  ______
 72
    65
 73
     6
 40
12.7
 49
6.35
 74
     0
 49
-1.27
 74
     0
 49
1.27
 74
     0
 49
-1.27
 74
     0
 49
1.27
 74
     0
 49
-1.27
 74
     0
  0
LTYPE
  5
70
330
5
100
AcDbSymbolTableRecord
100
AcDbLinetypeTableRecord
  2
CENTER
 70
     0
  3
Center ____ _ ____ _ ____ _ ____ _ ____ _ ____
 72
    65
 73
     4
 40
10.16
 49
6.35
 74
     0
 49
-1.27
 74
     0
 49
1.27
 74
     0
 49
-1.27
 74
     0
  0
LTYPE
  5
71
330
5
100
AcDbSymbolTableRecord
100
AcDbLinetypeTableRecord
  2
CENTERX2
 70
     0
  3
Center (2x) ________  __  ________  __  _____
 72
    65
 73
     4
 40
20.32
 49
12.7
 74
     0
 49
-2.54
 74
     0
 49
2.54
 74
     0
 49
-2.54
 74
     0
  0
LTYPE
  5
72
330
5
100
AcDbSymbolTableRecord
100
AcDbLinetypeTableRecord
  2
DOT2
 70
     0
  3
Dot (.5x) ........................................
 72
    65
 73
     2
 40
0.635
 49
0.0
 74
     0
 49
-0.635
 74
     0
  0
ENDTAB
  0
TABLE
  2
LAYER
  5
2
330
0
100
AcDbSymbolTable
 70
     1
  0
LAYER
  5
10
330
2
100
AcDbSymbolTableRecord
100
AcDbLayerTableRecord
  2
0
 70
     0
 62
     7
  6
Continuous
370
    -3
390
F
  0
ENDTAB
  0
TABLE
  2
STYLE
  5
3
330
0
100
AcDbSymbolTable
 70
     3
  0
STYLE
  5
11
330
3
100
AcDbSymbolTableRecord
100
AcDbTextStyleTableRecord
  2
Standard
 70
     0
 40
0.0
 41
1.0
 50
0.0
 71
     0
 42
10.0
  3
txt
  4

  0
STYLE
  5
76
330
3
100
AcDbSymbolTableRecord
100
AcDbTextStyleTableRecord
  2
SLDTEXTSTYLE0
 70
     0
 40
0.0
 41
0.96
 50
0.0
 71
     0
 42
10.0
  3
ISOCP3
  4

  0
STYLE
  5
8D
330
3
100
AcDbSymbolTableRecord
100
AcDbTextStyleTableRecord
  2
SLDTEXTSTYLE1
 70
     0
 40
0.0
 41
0.605
 50
0.0
 71
     0
 42
10.0
  3
TXT
  4

  0
ENDTAB
  0
TABLE
  2
VIEW
  5
6
330
0
100
AcDbSymbolTable
 70
     0
  0
ENDTAB
  0
TABLE
  2
UCS
  5
7
330
0
100
AcDbSymbolTable
 70
     0
  0
ENDTAB
  0
TABLE
  2
APPID
  5
9
330
0
100
AcDbSymbolTable
 70
     1
  0
APPID
  5
12
330
9
100
AcDbSymbolTableRecord
100
AcDbRegAppTableRecord
  2
ACAD
 70
     0
  0
ENDTAB
  0
TABLE
  2
DIMSTYLE
  5
A
330
0
100
AcDbSymbolTable
 70
     2
100
AcDbDimStyleTable
  0
DIMSTYLE
105
27
330
A
100
AcDbSymbolTableRecord
100
AcDbDimStyleTableRecord
  2
ISO-25
 70
     0
 41
2.5
 42
0.625
 43
3.75
 44
1.25
 73
     0
 74
     0
 77
     1
 78
     8
140
2.5
141
2.5
143
0.0393700787
147
0.625
171
     3
172
     1
178
     0
271
     2
272
     2
274
     3
278
    44
283
     0
284
     8
340
11
  0
DIMSTYLE
105
77
102
{ACAD_REACTORS
330
75
330
82
102
}
330
A
100
AcDbSymbolTableRecord
100
AcDbDimStyleTableRecord
  2
SLDDIMSTYLE0
 70
     0
 41
2.5
 44
0.0
 45
0.000000001
 73
     0
 74
     0
 77
     1
 78
    12
 79
     3
140
6.0
147
1.5
173
     1
178
     0
271
     2
272
     2
276
     2
284
    12
340
76
  0
ENDTAB
  0
TABLE
  2
BLOCK_RECORD
  5
1
330
0
100
AcDbSymbolTable
 70
     3
  0
BLOCK_RECORD
  5
1F
330
1
100
AcDbSymbolTableRecord
100
AcDbBlockTableRecord
  2
*Model_Space
340
22
  0
BLOCK_RECORD
  5
1B
330
1
100
AcDbSymbolTableRecord
100
AcDbBlockTableRecord
  2
*Paper_Space
340
1E
  0
BLOCK_RECORD
  5
23
330
1
100
AcDbSymbolTableRecord
100
AcDbBlockTableRecord
  2
*Paper_Space0
340
26
  0
BLOCK_RECORD
  5
78
330
1
100
AcDbSymbolTableRecord
100
AcDbBlockTableRecord
  2
_D
340
0
  0
BLOCK_RECORD
  5
83
330
1
100
AcDbSymbolTableRecord
100
AcDbBlockTableRecord
  2
_D_1
340
0
  0
ENDTAB
  0
ENDSEC
  0
SECTION
  2
BLOCKS
  0
BLOCK
  5
20
330
1F
100
AcDbEntity
  8
0
100
AcDbBlockBegin
  2
*Model_Space
 70
     0
 10
0.0
 20
0.0
 30
0.0
  3
*Model_Space
  1

  0
ENDBLK
  5
21
330
1F
100
AcDbEntity
  8
0
100
AcDbBlockEnd
  0
BLOCK
  5
1C
330
1B
100
AcDbEntity
 67
     1
  8
0
100
AcDbBlockBegin
  2
*Paper_Space
 70
     0
 10
0.0
 20
0.0
 30
0.0
  3
*Paper_Space
  1

  0
ENDBLK
  5
1D
330
1B
100
AcDbEntity
 67
     1
  8
0
100
AcDbBlockEnd
  0
BLOCK
  5
24
330
23
100
AcDbEntity
  8
0
100
AcDbBlockBegin
  2
*Paper_Space0
 70
     0
 10
0.0
 20
0.0
 30
0.0
  3
*Paper_Space0
  1

  0
ENDBLK
  5
25
330
23
100
AcDbEntity
  8
0
100
AcDbBlockEnd
  0
BLOCK
  5
79
330
78
100
AcDbEntity
  8
0
100
AcDbBlockBegin
  2
_D
 70
     0
 10
0.0
 20
0.0
 30
0.0
  3
_D
  1

  0
SOLID
  5
7B
330
78
100
AcDbEntity
  8
0
  6
Continuous
 62
     7
370
    18
100
AcDbTrace
 10
42.7614395004
 20
152.0299240879
 30
0.0
 11
42.4614395004
 21
149.5299240879
 31
0.0
 12
43.0614395004
 22
149.5299240879
 32
0.0
 13
43.0614395004
 23
149.5299240879
 33
0.0
  0
SOLID
  5
7C
330
78
100
AcDbEntity
  8
0
  6
Continuous
 62
     7
370
    18
100
AcDbTrace
 10
42.7614395004
 20
52.0299240879
 30
0.0
 11
43.0614395004
 21
54.5299240879
 31
0.0
 12
42.4614395004
 22
54.5299240879
 32
0.0
 13
42.4614395004
 23
54.5299240879
 33
0.0
  0
LINE
  5
7D
330
78
100
AcDbEntity
  8
0
  6
Continuous
 62
     7
370
     0
100
AcDbLine
 10
56.6850079902
 20
152.0299240879
 30
0.0
 11
41.7614395004
 21
152.0299240879
 31
0.0
  0
LINE
  5
7E
330
78
100
AcDbEntity
  8
0
  6
Continuous
 62
     7
370
     0
100
AcDbLine
 10
56.6850079902
 20
52.0299240879
 30
0.0
 11
41.7614395004
 21
52.0299240879
 31
0.0
  0
LINE
  5
7F
330
78
100
AcDbEntity
  8
0
  6
Continuous
 62
     7
370
     0
100
AcDbLine
 10
42.7614395004
 20
152.0299240879
 30
0.0
 11
42.7614395004
 21
52.0299240879
 31
0.0
  0
MTEXT
  5
80
330
78
100
AcDbEntity
  8
0
  6
Continuous
 62
     7
370
    18
100
AcDbMText
 10
35.0270332946
 20
94.3680541463
 30
0.0
 40
6.0
 41
0.0
 71
     1
 72
     1
  1
100
  7
SLDTEXTSTYLE0
 11
-7.044195017643634E-15
 21
1.0
 31
0.0
 73
     1
 44
1.0
  0
MTEXT
  5
81
330
78
100
AcDbEntity
  8
0
  6
Continuous
 62
     7
370
    18
100
AcDbMText
 10
35.0270332946
 20
105.7430548466
 30
0.0
 40
6.0
 41
0.0
 71
     1
 72
     1
  1
mm
  7
SLDTEXTSTYLE0
 11
-7.044195017643634E-15
 21
1.0
 31
0.0
 73
     1
 44
1.0
  0
ENDBLK
  5
7A
330
78
100
AcDbEntity
  8
0
100
AcDbBlockEnd
  0
BLOCK
  5
84
330
83
100
AcDbEntity
  8
0
100
AcDbBlockBegin
  2
_D_1
 70
     0
 10
0.0
 20
0.0
 30
0.0
  3
_D_1
  1

  0
SOLID
  5
86
330
83
100
AcDbEntity
  8
0
  6
Continuous
 62
     7
370
    18
100
AcDbTrace
 10
56.6850079902
 20
38.4602342313
 30
0.0
 11
59.1850079902
 21
38.1602342313
 31
0.0
 12
59.1850079902
 22
38.7602342313
 32
0.0
 13
59.1850079902
 23
38.7602342313
 33
0.0
  0
SOLID
  5
87
330
83
100
AcDbEntity
  8
0
  6
Continuous
 62
     7
370
    18
100
AcDbTrace
 10
156.6850079902
 20
38.4602342313
 30
0.0
 11
154.1850079902
 21
38.7602342313
 31
0.0
 12
154.1850079902
 22
38.1602342313
 32
0.0
 13
154.1850079902
 23
38.1602342313
 33
0.0
  0
LINE
  5
88
330
83
100
AcDbEntity
  8
0
  6
Continuous
 62
     7
370
     0
100
AcDbLine
 10
56.6850079902
 20
52.0299240879
 30
0.0
 11
56.6850079902
 21
37.4602342313
 31
0.0
  0
LINE
  5
89
330
83
100
AcDbEntity
  8
0
  6
Continuous
 62
     7
370
     0
100
AcDbLine
 10
156.6850079902
 20
52.0299240879
 30
0.0
 11
156.6850079902
 21
37.4602342313
 31
0.0
  0
LINE
  5
8A
330
83
100
AcDbEntity
  8
0
  6
Continuous
 62
     7
370
     0
100
AcDbLine
 10
56.6850079902
 20
38.4602342313
 30
0.0
 11
156.6850079902
 21
38.4602342313
 31
0.0
  0
MTEXT
  5
8B
330
83
100
AcDbEntity
  8
0
  6
Continuous
 62
     7
370
    18
100
AcDbMText
 10
93.9626484861
 20
46.1946404371
 30
0.0
 40
6.0
 41
0.0
 71
     1
 72
     1
  1
100
  7
SLDTEXTSTYLE0
 73
     1
 44
1.0
  0
MTEXT
  5
8C
330
83
100
AcDbEntity
  8
0
  6
Continuous
 62
     7
370
    18
100
AcDbMText
 10
105.3376491864
 20
46.1946404371
 30
0.0
 40
6.0
 41
0.0
 71
     1
 72
     1
  1
mm
  7
SLDTEXTSTYLE0
 73
     1
 44
1.0
  0
ENDBLK
  5
85
330
83
100
AcDbEntity
  8
0
100
AcDbBlockEnd
  0
ENDSEC
  0
SECTION
  2
ENTITIES
  0
LINE
  5
73
330
1F
100
AcDbEntity
  8
0
  6
Continuous
 62
     7
370
    18
100
AcDbLine
 10
56.6850079902
 20
152.0299240879
 30
0.0
 11
56.6850079902
 21
52.0299240879
 31
0.0
  0
LINE
  5
74
330
1F
100
AcDbEntity
  8
0
  6
Continuous
 62
     7
370
    18
100
AcDbLine
 10
56.6850079902
 20
52.0299240879
 30
0.0
 11
156.6850079902
 21
52.0299240879
 31
0.0
  0
DIMENSION
  5
75
330
1F
100
AcDbEntity
  8
0
  6
Continuous
 62
     7
370
    18
100
AcDbDimension
  2
_D
 10
42.7614395004
 20
52.0299240879
 30
0.0
 11
42.7614395004
 21
105.4472211621
 31
0.0
 70
   160
  1
<>mm
 71
     2
 42
-1.0
  3
SLDDIMSTYLE0
100
AcDbAlignedDimension
 13
56.6850079902
 23
152.0299240879
 33
0.0
 14
56.6850079902
 24
52.0299240879
 34
0.0
 50
90.0
100
AcDbRotatedDimension
  0
DIMENSION
  5
82
330
1F
100
AcDbEntity
  8
0
  6
Continuous
 62
     7
370
    18
100
AcDbDimension
  2
_D_1
 10
156.6850079902
 20
38.4602342313
 30
0.0
 11
105.0418155019
 21
38.4602342313
 31
0.0
 70
   160
  1
<>mm
 71
     2
 42
-1.0
  3
SLDDIMSTYLE0
100
AcDbAlignedDimension
 13
56.6850079902
 23
52.0299240879
 33
0.0
 14
156.6850079902
 24
52.0299240879
 34
0.0
100
AcDbRotatedDimension
  0
MTEXT
  5
8E
330
1F
100
AcDbEntity
  8
0
  6
Continuous
 62
     7
370
     0
100
AcDbMText
 10
412.8252631579
 20
48.4342449499
 30
0.0
 40
10.0
 41
0.0
 71
     1
 72
     1
  1
KLUDI GmbH & Co KG
  7
SLDTEXTSTYLE1
 73
     1
 44
1.0
  0
MTEXT
  5
8F
330
1F
100
AcDbEntity
  8
0
  6
Continuous
 62
     7
370
     0
100
AcDbMText
 10
210.0873490389
 20
48.4342449499
 30
0.0
 40
10.0
 41
0.0
 71
     1
 72
     1
  1
38 533 05 76
  7
SLDTEXTSTYLE1
 73
     1
 44
1.0
  0
LINE
  5
90
330
1F
100
AcDbEntity
  8
0
  6
Continuous
 62
     7
370
    25
100
AcDbLine
 10
121.6458279455
 20
247.2043353624
 30
0.0
 11
121.174582448
 21
337.2044879503
 31
0.0
  0
LINE
  5
91
330
1F
100
AcDbEntity
  8
0
  6
Continuous
 62
     7
370
    25
100
AcDbLine
 10
77.1170716548
 20
337.2044879503
 30
0.0
 11
76.6458261573
 21
247.2043353624
 31
0.0
  0
ARC
  5
92
330
1F
100
AcDbEntity
  8
0
  6
Continuous
 62
     7
370
    25
100
AcDbCircle
 10
77.1858270514
 20
373.1643353624
 30
0.0
 40
0.5400000000000773
100
AcDbArc
 50
90.0
 51
180.0
  0
ARC
  5
93
330
1F
100
AcDbEntity
  8
0
  6
Continuous
 62
     7
370
    25
100
AcDbCircle
 10
121.1058270514
 20
373.1643353624
 30
0.0
 40
0.5400000000000773
100
AcDbArc
 50
0.0
 51
90.0
  0
LINE
  5
94
330
1F
100
AcDbEntity
  8
0
  6
Continuous
 62
     7
370
    25
100
AcDbLine
 10
121.6458279455
 20
344.9186551876
 30
0.0
 11
121.6458279455
 21
373.1643426723
 31
0.0
  0
LINE
  5
95
330
1F
100
AcDbEntity
  8
0
  6
Continuous
 62
     7
370
    25
100
AcDbLine
 10
76.6458261573
 20
373.1643426723
 30
0.0
 11
76.6458261573
 21
344.9189979143
 31
0.0
  0
LINE
  5
96
330
1F
100
AcDbEntity
  8
0
  6
Continuous
 62
     7
370
    25
100
AcDbLine
 10
77.1458271706
 20
339.2043355412
 30
0.0
 11
77.1458271706
 21
337.2043389387
 31
0.0
  0
LINE
  5
97
330
1F
100
AcDbEntity
  8
0
  6
Continuous
 62
     7
370
    25
100
AcDbLine
 10
121.1458269322
 20
337.2043389387
 30
0.0
 11
121.1458269322
 21
339.2043355412
 31
0.0
  0
ARC
  5
98
330
1F
100
AcDbEntity
  8
0
  6
Continuous
 62
     7
370
    25
100
AcDbCircle
 10
99.1459332823
 20
339.2778012675
 30
0.0
 40
22.0
100
AcDbArc
 50
165.7200063085
 51
180.1886900601
  0
ARC
  5
99
330
1F
100
AcDbEntity
  8
0
  6
Continuous
 62
     7
370
    25
100
AcDbCircle
 10
99.1459332823
 20
339.2778012675
 30
0.0
 40
22.0
100
AcDbArc
 50
0.0
 51
14.2799936915
  0
ARC
  5
9A
330
1F
100
AcDbEntity
  8
0
  6
Continuous
 62
     7
370
    25
100
AcDbCircle
 10
99.1458270514
 20
309.2043353624
 30
0.0
 40
10.97500000000002
100
AcDbArc
 50
186.7021420484
 51
353.2978579516
  0
SPLINE
  5
9B
330
1F
100
AcDbEntity
  8
0
  6
Continuous
 62
     7
370
    25
100
AcDbSpline
210
0.0
220
0.0
230
1.0
 70
    24
 71
     3
 72
     8
 73
     4
 74
     0
 42
0.000000001
 43
0.00000001
 40
0.0
 40
0.0
 40
0.0
 40
0.0
 40
1.0
 40
1.0
 40
1.0
 40
1.0
 10
110.0458270513842
 20
307.9234665166488
 30
0.0
 10
110.0458270513842
 20
306.6733149691817
 30
0.0
 10
110.0458270513842
 20
305.4276588419075
 30
0.0
 10
110.0458270513842
 20
304.1853713258618
 30
0.0
  0
ARC
  5
9C
330
1F
100
AcDbEntity
  8
0
  6
Continuous
 62
     7
370
    25
100
AcDbCircle
 10
99.1458270514
 20
309.2043353624
 30
0.0
 40
12.00000000000004
100
AcDbArc
 50
204.7239628407
 51
335.2760371593
  0
SPLINE
  5
9D
330
1F
100
AcDbEntity
  8
0
  6
Continuous
 62
     7
370
    25
100
AcDbSpline
210
0.0
220
0.0
230
1.0
 70
    24
 71
     3
 72
     8
 73
     4
 74
     0
 42
0.000000001
 43
0.00000001
 40
0.0
 40
0.0
 40
0.0
 40
0.0
 40
1.0
 40
1.0
 40
1.0
 40
1.0
 10
88.24582705138414
 20
304.1853713258618
 30
0.0
 10
88.24582705138414
 20
305.4277459382678
 30
0.0
 10
88.24582705138414
 20
306.6734113951172
 30
0.0
 10
88.24582705138414
 20
307.9234665166487
 30
0.0
  0
ARC
  5
9E
330
1F
100
AcDbEntity
  8
0
  6
Continuous
 62
     7
370
    25
100
AcDbCircle
 10
99.1458270514
 20
309.2043353624
 30
0.0
 40
12.00000000000001
100
AcDbArc
 50
24.7239628407
 51
155.2760371593
  0
SPLINE
  5
9F
330
1F
100
AcDbEntity
  8
0
  6
Continuous
 62
     7
370
    25
100
AcDbSpline
210
0.0
220
0.0
230
1.0
 70
    24
 71
     3
 72
     8
 73
     4
 74
     0
 42
0.000000001
 43
0.00000001
 40
0.0
 40
0.0
 40
0.0
 40
0.0
 40
1.0
 40
1.0
 40
1.0
 40
1.0
 10
110.0458270513842
 20
314.2232993989255
 30
0.0
 10
110.0458270513842
 20
312.9809247865195
 30
0.0
 10
110.0458270513842
 20
311.7352593296701
 30
0.0
 10
110.0458270513842
 20
310.4852042081386
 30
0.0
  0
ARC
  5
A0
330
1F
100
AcDbEntity
  8
0
  6
Continuous
 62
     7
370
    25
100
AcDbCircle
 10
99.1458270514
 20
309.2043353624
 30
0.0
 40
10.97500000000002
100
AcDbArc
 50
6.7021420484
 51
173.2978579516
  0
SPLINE
  5
A1
330
1F
100
AcDbEntity
  8
0
  6
Continuous
 62
     7
370
    25
100
AcDbSpline
210
0.0
220
0.0
230
1.0
 70
    24
 71
     3
 72
     8
 73
     4
 74
     0
 42
0.000000001
 43
0.00000001
 40
0.0
 40
0.0
 40
0.0
 40
0.0
 40
1.0
 40
1.0
 40
1.0
 40
1.0
 10
88.24582705138414
 20
310.4852042081386
 30
0.0
 10
88.24582705138414
 20
311.7353557556057
 30
0.0
 10
88.24582705138414
 20
312.9810118828798
 30
0.0
 10
88.24582705138414
 20
314.2232993989255
 30
0.0
  0
LINE
  5
A2
330
1F
100
AcDbEntity
  8
0
  6
Continuous
 62
     7
370
    25
100
AcDbLine
 10
110.0458271617
 20
307.9234677858
 30
0.0
 11
110.0458271617
 21
310.4852009124
 31
0.0
  0
LINE
  5
A3
330
1F
100
AcDbEntity
  8
0
  6
Continuous
 62
     7
370
    25
100
AcDbLine
 10
88.2458269411
 20
310.4852009124
 30
0.0
 11
88.2458269411
 21
307.9234677858
 31
0.0
  0
ARC
  5
A4
330
1F
100
AcDbEntity
  8
0
  6
Continuous
 62
     7
370
    25
100
AcDbCircle
 10
99.1458270514
 20
309.2043353624
 30
0.0
 40
12.00000000000002
100
AcDbArc
 50
155.2760371593
 51
204.7239628407
  0
ARC
  5
A5
330
1F
100
AcDbEntity
  8
0
  6
Continuous
 62
     7
370
    25
100
AcDbCircle
 10
99.1458270514
 20
309.2043353624
 30
0.0
 40
12.00000000000001
100
AcDbArc
 50
335.2760371593
 51
24.7239628407
  0
CIRCLE
  5
A6
330
1F
100
AcDbEntity
  8
0
  6
Continuous
 62
     7
370
    25
100
AcDbCircle
 10
99.1458270514
 20
309.2043353624
 30
0.0
 40
12.79999999999995
  0
CIRCLE
  5
A7
330
1F
100
AcDbEntity
  8
0
  6
Continuous
 62
     7
370
    25
100
AcDbCircle
 10
99.1458270514
 20
309.2043353624
 30
0.0
 40
13.49999999999997
  0
CIRCLE
  5
A8
330
1F
100
AcDbEntity
  8
0
  6
Continuous
 62
     7
370
    25
100
AcDbCircle
 10
99.1458270514
 20
364.2043353624
 30
0.0
 40
5.0
  0
CIRCLE
  5
A9
330
1F
100
AcDbEntity
  8
0
  6
Continuous
 62
     7
370
    25
100
AcDbCircle
 10
99.1458270514
 20
353.0043353624
 30
0.0
 40
3.569682227408606
  0
CIRCLE
  5
AA
330
1F
100
AcDbEntity
  8
0
  6
Continuous
 62
     7
370
    25
100
AcDbCircle
 10
99.1458270514
 20
353.0043353624
 30
0.0
 40
4.0
  0
LINE
  5
AB
330
1F
100
AcDbEntity
  8
0
  6
Continuous
 62
     7
370
    25
100
AcDbLine
 10
76.6458261573
 20
247.2043353624
 30
0.0
 11
121.6458279455
 21
247.2043353624
 31
0.0
  0
LINE
  5
AC
330
1F
100
AcDbEntity
  8
0
  6
Continuous
 62
     7
370
    25
100
AcDbLine
 10
77.1858274752
 20
373.7043309516
 30
0.0
 11
121.1058266276
 21
373.7043309516
 31
0.0
  0
SPLINE
  5
AD
330
1F
100
AcDbEntity
  8
0
  6
Continuous
 62
     7
370
    25
100
AcDbSpline
210
0.0
220
0.0
230
1.0
 70
     8
 71
     3
 72
     9
 73
     5
 74
     0
 42
0.000000001
 43
0.00000001
 40
0.0
 40
0.0
 40
0.0
 40
0.0
 40
0.5960324154570334
 40
1.0
 40
1.0
 40
1.0
 40
1.0
 10
76.69996207593172
 20
344.9189979142736
 30
0.0
 10
76.7017761215382
 20
344.8438725918916
 30
0.0
 10
76.70481965668735
 20
344.7178302484995
 30
0.0
 10
76.9657845307851
 20
344.7082157370726
 30
0.0
 10
77.07120588062494
 20
344.704331786115
 30
0.0
  0
SPLINE
  5
AE
330
1F
100
AcDbEntity
  8
0
  6
Continuous
 62
     7
370
    25
100
AcDbSpline
210
0.0
220
0.0
230
1.0
 70
     8
 71
     3
 72
     9
 73
     5
 74
     0
 42
0.000000001
 43
0.00000001
 40
0.0
 40
0.0
 40
0.0
 40
0.0
 40
0.7867814985041846
 40
1.0
 40
1.0
 40
1.0
 40
1.0
 10
121.2204482221433
 20
344.704331786115
 30
0.0
 10
121.4257871788654
 20
344.7118963821927
 30
0.0
 10
121.6867731795688
 20
344.7215109906858
 30
0.0
 10
121.6086585688243
 20
344.8840078505978
 30
0.0
 10
121.5920030885765
 20
344.9186551875661
 30
0.0
  0
LINE
  5
AF
330
1F
100
AcDbEntity
  8
0
  6
Continuous
 62
     7
370
    25
100
AcDbLine
 10
77.0712058806
 20
344.7043317861
 30
0.0
 11
121.2204482221
 21
344.7043317861
 31
0.0
  0
CIRCLE
  5
B0
330
1F
100
AcDbEntity
  8
0
  6
Continuous
 62
     8
370
    18
100
AcDbCircle
 10
99.1458270514
 20
364.2043353624
 30
0.0
 40
4.5
  0
SPLINE
  5
B1
330
1F
100
AcDbEntity
  8
0
  6
Continuous
 62
     8
370
    18
100
AcDbSpline
210
0.0
220
0.0
230
1.0
 70
    11
 71
     3
 72
   108
 73
   104
 74
     0
 42
0.000000001
 43
0.00000001
 40
0.0
 40
0.0
 40
0.0
 40
0.0
 40
0.0312499999999996
 40
0.0312499999999996
 40
0.0624999999999993
 40
0.0624999999999993
 40
0.0781249999999991
 40
0.0781249999999991
 40
0.0937499999999988
 40
0.0937499999999988
 40
0.1249999999999985
 40
0.1249999999999985
 40
0.1406249999999983
 40
0.1406249999999983
 40
0.1562499999999981
 40
0.1562499999999981
 40
0.1718749999999979
 40
0.1718749999999979
 40
0.1874999999999978
 40
0.1874999999999978
 40
0.2031249999999976
 40
0.2031249999999976
 40
0.2187499999999974
 40
0.2187499999999974
 40
0.2499999999999969
 40
0.2499999999999969
 40
0.2812499999999964
 40
0.2812499999999964
 40
0.2968749999999962
 40
0.2968749999999962
 40
0.3124999999999959
 40
0.3124999999999959
 40
0.3437499999999954
 40
0.3437499999999954
 40
0.3593749999999951
 40
0.3593749999999951
 40
0.3749999999999947
 40
0.3749999999999947
 40
0.4062499999999942
 40
0.4062499999999942
 40
0.4374999999999938
 40
0.4374999999999938
 40
0.4531249999999933
 40
0.4531249999999933
 40
0.468749999999993
 40
0.468749999999993
 40
0.4999999999999921
 40
0.4999999999999921
 40
0.5156249999999918
 40
0.5156249999999918
 40
0.5312499999999916
 40
0.5312499999999916
 40
0.5468749999999912
 40
0.5468749999999912
 40
0.5624999999999909
 40
0.5624999999999909
 40
0.5937499999999906
 40
0.5937499999999906
 40
0.6093749999999905
 40
0.6093749999999905
 40
0.6249999999999905
 40
0.6249999999999905
 40
0.6406249999999903
 40
0.6406249999999903
 40
0.6562499999999902
 40
0.6562499999999902
 40
0.68749999999999
 40
0.68749999999999
 40
0.69531249999999
 40
0.69531249999999
 40
0.70312499999999
 40
0.70312499999999
 40
0.7187499999999902
 40
0.7187499999999902
 40
0.7343749999999906
 40
0.7343749999999906
 40
0.7499999999999908
 40
0.7499999999999908
 40
0.7812499999999918
 40
0.7812499999999918
 40
0.7968749999999923
 40
0.7968749999999923
 40
0.8124999999999929
 40
0.8124999999999929
 40
0.8281249999999936
 40
0.8281249999999936
 40
0.8437499999999941
 40
0.8437499999999941
 40
0.8749999999999949
 40
0.8749999999999949
 40
0.8906249999999956
 40
0.8906249999999956
 40
0.9062499999999961
 40
0.9062499999999961
 40
0.9218749999999967
 40
0.9218749999999967
 40
0.9374999999999973
 40
0.9374999999999973
 40
0.9687499999999987
 40
0.9687499999999987
 40
0.9843749999999993
 40
0.9843749999999993
 40
1.0
 40
1.0
 40
1.0
 40
1.0
 10
111.0863621305857
 20
296.9105015211769
 30
0.0
 10
110.4845770525301
 20
295.9647958089799
 30
0.0
 10
109.8061699986791
 20
295.0779263567694
 30
0.0
 10
108.2752145725752
 20
293.4397883114347
 30
0.0
 10
107.4360215902194
 20
292.7018438190749
 30
0.0
 10
106.0404943774672
 20
291.7345346862481
 30
0.0
 10
105.5498770240332
 20
291.4344730812493
 30
0.0
 10
104.5298604336535
 20
290.8963954878232
 30
0.0
 10
103.9974874657631
 20
290.6570964031739
 30
0.0
 10
102.3706190610355
 20
290.0535041788016
 30
0.0
 10
101.2394147237745
 20
289.7960556325337
 30
0.0
 10
99.46015487763593
 20
289.6624213685977
 30
0.0
 10
98.86855037163646
 20
289.6618933097309
 30
0.0
 10
97.69762098108242
 20
289.7454941819729
 30
0.0
 10
97.11670943271744
 20
289.8295129595392
 30
0.0
 10
95.96388247586695
 20
290.0813582972224
 30
0.0
 10
95.39486695605993
 20
290.2494584711191
 30
0.0
 10
94.3067075769072
 20
290.6517245668026
 30
0.0
 10
93.78348764613634
 20
290.8864150932698
 30
0.0
 10
92.77393341789418
 20
291.4161225087942
 30
0.0
 10
92.28762339557056
 20
291.7111754920636
 30
0.0
 10
91.34896691302966
 20
292.3581012626105
 30
0.0
 10
90.90311291758668
 20
292.7056191590502
 30
0.0
 10
89.63520684801985
 20
293.8058613077305
 30
0.0
 10
88.87768308126334
 20
294.6184778802623
 30
0.0
 10
87.50852985378565
 20
296.3882846273873
 30
0.0
 10
86.91340961843603
 20
297.3244652464441
 30
0.0
 10
86.13450315766804
 20
298.8004797936166
 30
0.0
 10
85.89396532694352
 20
299.3047080431141
 30
0.0
 10
85.44974927077602
 20
300.3386299885987
 30
0.0
 10
85.24542075312053
 20
300.8703420279859
 30
0.0
 10
84.69300655238723
 20
302.4905023999028
 30
0.0
 10
84.4054074035407
 20
303.5998289565799
 30
0.0
 10
84.0920354738206
 20
305.3127847494086
 30
0.0
 10
84.00717313760786
 20
305.8943538889063
 30
0.0
 10
83.87968452409328
 20
307.0635855719995
 30
0.0
 10
83.8371440313917
 20
307.6487382448312
 30
0.0
 10
83.77186122782271
 20
309.4058232968548
 30
0.0
 10
83.81105059292676
 20
310.5803925735226
 30
0.0
 10
84.05985529453314
 20
312.9298349918064
 30
0.0
 10
84.26603791523901
 20
314.0748646391492
 30
0.0
 10
84.69581349297295
 20
315.7527657643695
 30
0.0
 10
84.86003970333327
 20
316.3074068886487
 30
0.0
 10
85.22591136533872
 20
317.3910741300133
 30
0.0
 10
85.4274899528547
 20
317.9206243411339
 30
0.0
 10
86.08877442318858
 20
319.4747208134772
 30
0.0
 10
86.60422949680738
 20
320.4651401303987
 30
0.0
 10
87.50469324604465
 20
321.8839371227636
 30
0.0
 10
87.82553348031912
 20
322.3440641228461
 30
0.0
 10
88.50271052203209
 20
323.2265605311408
 30
0.0
 10
88.86013031135245
 20
323.6507161271811
 30
0.0
 10
89.61597564698901
 20
324.4637191458853
 30
0.0
 10
90.01437669671084
 20
324.8525819503404
 30
0.0
 10
90.85750433662764
 20
325.5921442998558
 30
0.0
 10
91.30519012542523
 20
325.9448315583672
 30
0.0
 10
92.70466032554154
 20
326.9206758598366
 30
0.0
 10
93.70843525789554
 20
327.4632629893036
 30
0.0
 10
95.34910647371254
 20
328.079546752496
 30
0.0
 10
95.91521929420814
 20
328.2496927975972
 30
0.0
 10
97.06841991155939
 20
328.507444049488
 30
0.0
 10
97.64819423544014
 20
328.5938801348195
 30
0.0
 10
98.81407488437469
 20
328.6824966212365
 30
0.0
 10
99.40018070371235
 20
328.6846831904835
 30
0.0
 10
100.578930739899
 20
328.6020613895389
 30
0.0
 10
101.1740533203226
 20
328.5157211506269
 30
0.0
 10
102.8947752352723
 20
328.1389146983084
 30
0.0
 10
103.973097008256
 20
327.7345152420705
 30
0.0
 10
105.2492288368663
 20
327.0650430890068
 30
0.0
 10
105.5004733968162
 20
326.9229095601352
 30
0.0
 10
105.9890506052506
 20
326.6267508806428
 30
0.0
 10
106.2273211053332
 20
326.4722495104492
 30
0.0
 10
106.9253786571799
 20
325.9906227423833
 30
0.0
 10
107.3684778275758
 20
325.6454493831146
 30
0.0
 10
108.2150736183325
 20
324.9108401490744
 30
0.0
 10
108.6194449561943
 20
324.520417306373
 30
0.0
 10
109.3876938431923
 20
323.7011843337557
 30
0.0
 10
109.748293233322
 20
323.2761076324061
 30
0.0
 10
110.7676254790459
 20
321.9574346128568
 30
0.0
 10
111.364579095314
 20
321.0209503980971
 30
0.0
 10
112.1513932634888
 20
319.5298602169152
 30
0.0
 10
112.3951223983281
 20
319.0182803145265
 30
0.0
 10
112.8405041645656
 20
317.9803627306009
 30
0.0
 10
113.0431734576379
 20
317.4521918014671
 30
0.0
 10
113.4099392329088
 20
316.3766813926819
 30
0.0
 10
113.5740326619106
 20
315.8293414276795
 30
0.0
 10
113.8637712964624
 20
314.714171068201
 30
0.0
 10
113.9898126119892
 20
314.1438854744351
 30
0.0
 10
114.3048863523678
 20
312.4208270123429
 30
0.0
 10
114.4320711682255
 20
311.2572489823857
 30
0.0
 10
114.4981167230563
 20
309.4880806088776
 30
0.0
 10
114.4989827258679
 20
308.8927343220531
 30
0.0
 10
114.4585043460819
 20
307.7144416014741
 30
0.0
 10
114.4173654927189
 20
307.129199405928
 30
0.0
 10
114.2938803738923
 20
305.9662324297651
 30
0.0
 10
114.2115354756599
 20
305.3885068776146
 30
0.0
 10
114.0051272374439
 20
304.2403318946524
 30
0.0
 10
113.881162813016
 20
303.6714770717433
 30
0.0
 10
113.4528042193295
 20
302.0020000508525
 30
0.0
 10
113.0910989676831
 20
300.9291263481472
 30
0.0
 10
112.4293808546594
 20
299.3737442786136
 30
0.0
 10
112.1880807309364
 20
298.863084755434
 30
0.0
 10
111.6668298970783
 20
297.8677689380775
 30
0.0
 10
111.3872546696135
 20
297.3833543772753
 30
0.0
 10
111.0863621305857
 20
296.9105015211769
 30
0.0
  0
SPLINE
  5
B2
330
1F
100
AcDbEntity
  8
0
  6
Continuous
 62
     8
370
    18
100
AcDbSpline
210
0.0
220
0.0
230
1.0
 70
    11
 71
     3
 72
    88
 73
    84
 74
     0
 42
0.000000001
 43
0.00000001
 40
0.0
 40
0.0
 40
0.0
 40
0.0
 40
0.0312499999999986
 40
0.0312499999999986
 40
0.0468749999999979
 40
0.0468749999999979
 40
0.0624999999999972
 40
0.0624999999999972
 40
0.0937499999999958
 40
0.0937499999999958
 40
0.1093749999999955
 40
0.1093749999999955
 40
0.1249999999999952
 40
0.1249999999999952
 40
0.1562499999999947
 40
0.1562499999999947
 40
0.1874999999999942
 40
0.1874999999999942
 40
0.2031249999999939
 40
0.2031249999999939
 40
0.2187499999999937
 40
0.2187499999999937
 40
0.2499999999999931
 40
0.2499999999999931
 40
0.2812499999999925
 40
0.2812499999999925
 40
0.3124999999999918
 40
0.3124999999999918
 40
0.3437499999999912
 40
0.3437499999999912
 40
0.3593749999999909
 40
0.3593749999999909
 40
0.3749999999999906
 40
0.3749999999999906
 40
0.4062499999999899
 40
0.4062499999999899
 40
0.4374999999999892
 40
0.4374999999999892
 40
0.4687499999999886
 40
0.4687499999999886
 40
0.4843749999999883
 40
0.4843749999999883
 40
0.499999999999988
 40
0.499999999999988
 40
0.5312499999999883
 40
0.5312499999999883
 40
0.5624999999999888
 40
0.5624999999999888
 40
0.5937499999999891
 40
0.5937499999999891
 40
0.6249999999999895
 40
0.6249999999999895
 40
0.6562499999999899
 40
0.6562499999999899
 40
0.6718749999999905
 40
0.6718749999999905
 40
0.6874999999999909
 40
0.6874999999999909
 40
0.7187499999999916
 40
0.7187499999999916
 40
0.7499999999999921
 40
0.7499999999999921
 40
0.7812499999999927
 40
0.7812499999999927
 40
0.7968749999999929
 40
0.7968749999999929
 40
0.8124999999999931
 40
0.8124999999999931
 40
0.8281249999999932
 40
0.8281249999999932
 40
0.8437499999999934
 40
0.8437499999999934
 40
0.8749999999999943
 40
0.8749999999999943
 40
0.9062499999999953
 40
0.9062499999999953
 40
0.9374999999999962
 40
0.9374999999999962
 40
0.9531249999999972
 40
0.9531249999999972
 40
0.9687499999999982
 40
0.9687499999999982
 40
1.0
 40
1.0
 40
1.0
 40
1.0
 10
93.05207705138415
 20
364.2043353623937
 30
0.0
 10
93.05207705138415
 20
364.6220433340359
 30
0.0
 10
93.08947454536904
 20
365.0336784555604
 30
0.0
 10
93.19991571434943
 20
365.6423435484259
 30
0.0
 10
93.24584999924477
 20
365.8437578202608
 30
0.0
 10
93.35643713975239
 20
366.2435764278381
 30
0.0
 10
93.42120183759003
 20
366.4419264610797
 30
0.0
 10
93.64007058432556
 20
367.0209603630078
 30
0.0
 10
93.81948149220713
 20
367.3897312578346
 30
0.0
 10
94.13999374007837
 20
367.9168830233657
 30
0.0
 10
94.2561139266778
 20
368.0890714146344
 30
0.0
 10
94.50294202131519
 20
368.4195775102365
 30
0.0
 10
94.63341407944057
 20
368.5777906031248
 30
0.0
 10
95.04592722666736
 20
369.0315985313655
 30
0.0
 10
95.34882316183763
 20
369.3065963478431
 30
0.0
 10
96.01534904868564
 20
369.7977762397281
 30
0.0
 10
96.37008534918722
 20
370.0069719686134
 30
0.0
 10
96.92871961438766
 20
370.2627095576892
 30
0.0
 10
97.11969514849308
 20
370.3384374106254
 30
0.0
 10
97.51162520730587
 20
370.4700721941841
 30
0.0
 10
97.71376500056371
 20
370.5261394055978
 30
0.0
 10
98.32080486598316
 20
370.6595511043715
 30
0.0
 10
98.72970737807744
 20
370.7041179415202
 30
0.0
 10
99.55595523307491
 20
370.7045512123474
 30
0.0
 10
99.97564354421164
 20
370.6586652097084
 30
0.0
 10
100.7799319607182
 20
370.4815668889835
 30
0.0
 10
101.1700850616153
 20
370.3509200805182
 30
0.0
 10
101.9264700063398
 20
370.004802207819
 30
0.0
 10
102.2800500051291
 20
369.795010689596
 30
0.0
 10
102.7742429772438
 20
369.4308360090027
 30
0.0
 10
102.9330506956398
 20
369.3010491092117
 30
0.0
 10
103.2388512906194
 20
369.0245730923716
 30
0.0
 10
103.3857832375971
 20
368.8777390462877
 30
0.0
 10
103.7998331408964
 20
368.42158139956
 30
0.0
 10
104.0439307201318
 20
368.0938191580404
 30
0.0
 10
104.470925399206
 20
367.3920299044347
 30
0.0
 10
104.6537061209486
 20
367.0159744391806
 30
0.0
 10
104.9438844563471
 20
366.2470207773894
 30
0.0
 10
105.053742749519
 20
365.8507369427551
 30
0.0
 10
105.1651583240666
 20
365.2382094266802
 30
0.0
 10
105.1932599162977
 20
365.0307315261335
 30
0.0
 10
105.2303756265406
 20
364.6173776781024
 30
0.0
 10
105.2395996900207
 20
364.4105509348544
 30
0.0
 10
105.2395316492312
 20
363.7896249628156
 30
0.0
 10
105.2018086790828
 20
363.3712810290074
 30
0.0
 10
105.0535116059367
 20
362.5573386041985
 30
0.0
 10
104.9437774454851
 20
362.1610344874118
 30
0.0
 10
104.6524529848912
 20
361.3897089987087
 30
0.0
 10
104.4694651979007
 20
361.0139918831645
 30
0.0
 10
104.0432298285912
 20
360.3139498949977
 30
0.0
 10
103.7988316799714
 20
359.985583323726
 30
0.0
 10
103.2431604138229
 20
359.3742112839938
 30
0.0
 10
102.9374581124715
 20
359.0979937357317
 30
0.0
 10
102.4438606069891
 20
358.7344313958995
 30
0.0
 10
102.273087250719
 20
358.6213677738563
 30
0.0
 10
101.9184761520309
 20
358.4121030289744
 30
0.0
 10
101.733435169211
 20
358.3154156874139
 30
0.0
 10
101.1693278328881
 20
358.0576490974855
 30
0.0
 10
100.7802659322939
 20
357.9271882373511
 30
0.0
 10
99.97559930892693
 20
357.7499849152169
 30
0.0
 10
99.55555474080587
 20
357.7041302688862
 30
0.0
 10
98.73039988800248
 20
357.7045418774237
 30
0.0
 10
98.32092980771469
 20
357.7489785837435
 30
0.0
 10
97.7114479948567
 20
357.8830976417867
 30
0.0
 10
97.51007109047555
 20
357.9390760420425
 30
0.0
 10
97.118988577589
 20
358.070515341697
 30
0.0
 10
96.92804728047916
 20
358.1462286291068
 30
0.0
 10
96.55504719825112
 20
358.3170654704717
 30
0.0
 10
96.37298910138996
 20
358.4121903085704
 30
0.0
 10
96.01771293448185
 20
358.6218959277332
 30
0.0
 10
95.84394558534827
 20
358.7370122007
 30
0.0
 10
95.3470753287073
 20
359.1037568011604
 30
0.0
 10
95.04443117248374
 20
359.3784060062785
 30
0.0
 10
94.49303027993334
 20
359.9856315826833
 30
0.0
 10
94.24393367169993
 20
360.3203958758813
 30
0.0
 10
93.81855792986212
 20
361.0209025451044
 30
0.0
 10
93.63917335194733
 20
361.3895213853844
 30
0.0
 10
93.41992203107573
 20
361.970414763361
 30
0.0
 10
93.35526054906471
 20
362.1689790289796
 30
0.0
 10
93.245279314815
 20
362.5673512066111
 30
0.0
 10
93.19954132263182
 20
362.7681612922345
 30
0.0
 10
93.08948728187394
 20
363.3753828569791
 30
0.0
 10
93.05207705138415
 20
363.7866273907516
 30
0.0
 10
93.05207705138415
 20
364.2043353623937
 30
0.0
  0
CIRCLE
  5
B3
330
1F
100
AcDbEntity
  8
0
  6
Continuous
 62
     8
370
    18
100
AcDbCircle
 10
99.1458270514
 20
353.0043353624
 30
0.0
 40
3.781418633081842
  0
SPLINE
  5
B4
330
1F
100
AcDbEntity
  8
0
  6
Continuous
 62
     8
370
    18
100
AcDbSpline
210
0.0
220
0.0
230
1.0
 70
    24
 71
     3
 72
    10
 73
     6
 74
     0
 42
0.000000001
 43
0.00000001
 40
0.0
 40
0.0
 40
0.0
 40
0.0
 40
0.5000000000000001
 40
0.5000000000000001
 40
1.0
 40
1.0
 40
1.0
 40
1.0
 10
118.1983859346417
 20
337.2043353623937
 30
0.0
 10
119.1583170232474
 20
337.2043353623937
 30
0.0
 10
119.8992983343274
 20
337.2043353623937
 30
0.0
 10
120.8930921251871
 20
337.2043353623937
 30
0.0
 10
121.1458270513933
 20
337.2043353623937
 30
0.0
 10
121.1458270513841
 20
337.2043353623937
 30
0.0
  0
LINE
  5
B5
330
1F
100
AcDbEntity
  8
0
  6
Continuous
 62
     8
370
    18
100
AcDbLine
 10
77.1458271706
 20
337.2043389387
 30
0.0
 11
118.1983865613
 21
337.2043389387
 31
0.0
  0
LINE
  5
B6
330
1F
100
AcDbEntity
  8
0
  6
Continuous
 62
     8
370
    18
100
AcDbLine
 10
121.6458279455
 20
373.1643426723
 30
0.0
 11
76.6458261573
 21
373.1643426723
 31
0.0
  0
SPLINE
  5
B7
330
1F
100
AcDbEntity
  8
0
  6
Continuous
 62
     8
370
    18
100
AcDbSpline
210
0.0
220
0.0
230
1.0
 70
    24
 71
     3
 72
    22
 73
    18
 74
     0
 42
0.000000001
 43
0.00000001
 40
0.0
 40
0.0
 40
0.0
 40
0.0
 40
0.1249999999999999
 40
0.1249999999999999
 40
0.2499999999999999
 40
0.2499999999999999
 40
0.3749999999999998
 40
0.3749999999999998
 40
0.4999999999999999
 40
0.4999999999999999
 40
0.6249999999999999
 40
0.6249999999999999
 40
0.7499999999999999
 40
0.7499999999999999
 40
0.875
 40
0.875
 40
1.0
 40
1.0
 40
1.0
 40
1.0
 10
118.1983859346418
 20
339.2043353623937
 30
0.0
 10
116.9984720738957
 20
339.2043353623937
 30
0.0
 10
115.4557209956951
 20
339.2043353623937
 30
0.0
 10
111.8471489714763
 20
339.2043353623937
 30
0.0
 10
109.7820142768561
 20
339.2043353623937
 30
0.0
 10
105.3477108499765
 20
339.2043353623936
 30
0.0
 10
102.9793854005739
 20
339.2043353623937
 30
0.0
 10
98.19000638832121
 20
339.2043353623937
 30
0.0
 10
95.76986363396276
 20
339.2043353623937
 30
0.0
 10
91.13375248429524
 20
339.2043353623937
 30
0.0
 10
88.91866575013525
 20
339.2043353623937
 30
0.0
 10
84.9278980997712
 20
339.2043353623937
 30
0.0
 10
83.15297611808761
 20
339.2043353623937
 30
0.0
 10
80.23113101186688
 20
339.2043353623937
 30
0.0
 10
79.08476354210819
 20
339.2043353623937
 30
0.0
 10
77.54196486287576
 20
339.2043353623937
 30
0.0
 10
77.1458270513842
 20
339.2043353623937
 30
0.0
 10
77.14582705138412
 20
339.2043353623937
 30
0.0
  0
LINE
  5
B8
330
1F
100
AcDbEntity
  8
0
  6
Continuous
 62
     8
370
    18
100
AcDbLine
 10
121.1458269322
 20
339.2043355412
 30
0.0
 11
118.1983865613
 21
339.2043355412
 31
0.0
  0
LINE
  5
B9
330
1F
100
AcDbEntity
  8
0
  6
Continuous
 62
     7
370
    25
100
AcDbLine
 10
274.8298490893
 20
328.630560965
 30
0.0
 11
274.784955616
 21
337.2044879503
 31
0.0
  0
LINE
  5
BA
330
1F
100
AcDbEntity
  8
0
  6
Continuous
 62
     7
370
    25
100
AcDbLine
 10
275.2562011134
 20
247.2043353624
 30
0.0
 11
275.0336559963
 21
289.7066119618
 31
0.0
  0
LINE
  5
BB
330
1F
100
AcDbEntity
  8
0
  6
Continuous
 62
     7
370
    25
100
AcDbLine
 10
230.3857090425
 20
271.9383015788
 30
0.0
 11
230.2561993253
 21
247.2043353624
 31
0.0
  0
LINE
  5
BC
330
1F
100
AcDbEntity
  8
0
  6
Continuous
 62
     7
370
    25
100
AcDbLine
 10
230.7274448227
 20
337.2044879503
 30
0.0
 11
230.4460252177
 21
283.4580186314
 31
0.0
  0
ARC
  5
BD
330
1F
100
AcDbEntity
  8
0
  6
Continuous
 62
     7
370
    25
100
AcDbCircle
 10
230.7962002193
 20
373.1643353624
 30
0.0
 40
0.5400000000000773
100
AcDbArc
 50
90.0
 51
180.0
  0
ARC
  5
BE
330
1F
100
AcDbEntity
  8
0
  6
Continuous
 62
     7
370
    25
100
AcDbCircle
 10
274.7162002193
 20
373.1643353624
 30
0.0
 40
0.5400000000000773
100
AcDbArc
 50
0.0
 51
90.0
  0
LINE
  5
BF
330
1F
100
AcDbEntity
  8
0
  6
Continuous
 62
     7
370
    25
100
AcDbLine
 10
275.2562011134
 20
370.6356007166
 30
0.0
 11
275.2562011134
 21
373.1643426723
 31
0.0
  0
LINE
  5
C0
330
1F
100
AcDbEntity
  8
0
  6
Continuous
 62
     7
370
    25
100
AcDbLine
 10
275.2562011134
 20
356.9673690505
 30
0.0
 11
275.2562011134
 21
357.7806893296
 31
0.0
  0
LINE
  5
C1
330
1F
100
AcDbEntity
  8
0
  6
Continuous
 62
     7
370
    25
100
AcDbLine
 10
275.2562011134
 20
344.7043317861
 30
0.0
 11
275.2562011134
 21
349.041307301
 31
0.0
  0
LINE
  5
C2
330
1F
100
AcDbEntity
  8
0
  6
Continuous
 62
     7
370
    25
100
AcDbLine
 10
230.2561993253
 20
373.1643426723
 30
0.0
 11
230.2561993253
 21
348.6681673235
 31
0.0
  0
LINE
  5
C3
330
1F
100
AcDbEntity
  8
0
  6
Continuous
 62
     7
370
    25
100
AcDbLine
 10
230.7562003386
 20
339.2043355412
 30
0.0
 11
230.7562003386
 21
337.2043389387
 31
0.0
  0
LINE
  5
C4
330
1F
100
AcDbEntity
  8
0
  6
Continuous
 62
     7
370
    25
100
AcDbLine
 10
274.7562001001
 20
337.2043389387
 30
0.0
 11
274.7562001001
 21
339.2043355412
 31
0.0
  0
ARC
  5
C5
330
1F
100
AcDbEntity
  8
0
  6
Continuous
 62
     7
370
    25
100
AcDbCircle
 10
252.7562615518
 20
339.2778012675
 30
0.0
 40
22.00000000000004
100
AcDbArc
 50
155.9508021237
 51
180.1886947347
  0
ARC
  5
C6
330
1F
100
AcDbEntity
  8
0
  6
Continuous
 62
     7
370
    25
100
AcDbCircle
 10
252.7562615518
 20
339.2778012675
 30
0.0
 40
21.99999999999999
100
AcDbArc
 50
0.0
 51
14.2799936915
  0
SPLINE
  5
C7
330
1F
100
AcDbEntity
  8
0
  6
Continuous
 62
     7
370
    25
100
AcDbSpline
210
0.0
220
0.0
230
1.0
 70
     8
 71
     3
 72
    18
 73
    14
 74
     0
 42
0.000000001
 43
0.00000001
 40
0.0
 40
0.0
 40
0.0
 40
0.0
 40
0.0329049794604708
 40
0.1235823576283013
 40
0.2217913564010279
 40
0.3234458868119093
 40
0.4271028719364584
 40
0.5318553101237233
 40
0.6483466596688928
 40
0.7578893305695998
 40
0.8611588284122268
 40
0.9590666191285041
 40
1.0
 40
1.0
 40
1.0
 40
1.0
 10
275.0117792289998
 20
289.7045556015562
 30
0.0
 10
275.0065518278241
 20
289.8082045482317
 30
0.0
 10
274.9869190983057
 20
290.197482444948
 30
0.0
 10
275.091177715915
 20
290.8944955150673
 30
0.0
 10
275.3254195753295
 20
291.7813481091804
 30
0.0
 10
275.7233135176718
 20
292.6570567695736
 30
0.0
 10
276.2659128191929
 20
293.4748297263675
 30
0.0
 10
276.9678726707072
 20
294.227200669475
 30
0.0
 10
277.8056047924993
 20
294.8575632680858
 30
0.0
 10
278.7371160210787
 20
295.3292634569262
 30
0.0
 10
279.677195529895
 20
295.612391600411
 30
0.0
 10
280.4360166539874
 20
295.7389980847199
 30
0.0
 10
280.8739146615677
 20
295.7261855797695
 30
0.0
 10
281.0030164670493
 20
295.7224081761431
 30
0.0
  0
SPLINE
  5
C8
330
1F
100
AcDbEntity
  8
0
  6
Continuous
 62
     7
370
    25
100
AcDbSpline
210
0.0
220
0.0
230
1.0
 70
     8
 71
     3
 72
    18
 73
    14
 74
     0
 42
0.000000001
 43
0.00000001
 40
0.0
 40
0.0
 40
0.0
 40
0.0
 40
0.0455571165226512
 40
0.1490930906106142
 40
0.2540097732564755
 40
0.3596372261738741
 40
0.4724458646894424
 40
0.5787848280341433
 40
0.679415636695233
 40
0.7749370424927314
 40
0.8655631364085439
 40
0.9512465055816486
 40
1.0
 40
1.0
 40
1.0
 40
1.0
 10
280.8181396227624
 20
322.6872700757574
 30
0.0
 10
280.6751090759683
 20
322.6824172088916
 30
0.0
 10
280.2070182945281
 20
322.6665354109516
 30
0.0
 10
279.4150323718461
 20
322.8060218377722
 30
0.0
 10
278.47281754313
 20
323.1025030776972
 30
0.0
 10
277.5673731158172
 20
323.572449934176
 30
0.0
 10
276.7509451485346
 20
324.1908022582112
 30
0.0
 10
276.0637324433004
 20
324.9285154773069
 30
0.0
 10
275.535788333084
 20
325.7217880994531
 30
0.0
 10
275.1553156216237
 20
326.5414593091195
 30
0.0
 10
274.9166904416005
 20
327.3621858562589
 30
0.0
 10
274.799994599872
 20
328.0624944334725
 30
0.0
 10
274.8007067793156
 20
328.4845779772699
 30
0.0
 10
274.8009650510098
 20
328.6376464671682
 30
0.0
  0
LINE
  5
C9
330
1F
100
AcDbEntity
  8
0
  6
Continuous
 62
     7
370
    25
100
AcDbLine
 10
280.9998760473
 20
295.7043367929
 30
0.0
 11
337.7562011134
 21
295.7043367929
 31
0.0
  0
LINE
  5
CA
330
1F
100
AcDbEntity
  8
0
  6
Continuous
 62
     7
370
    25
100
AcDbLine
 10
337.7562011134
 20
322.7043319053
 30
0.0
 11
280.8291012895
 21
322.7043319053
 31
0.0
  0
LINE
  5
CB
330
1F
100
AcDbEntity
  8
0
  6
Continuous
 62
     7
370
    25
100
AcDbLine
 10
345.4697350513
 20
296.4043337411
 30
0.0
 11
353.4197355163
 21
296.4043337411
 31
0.0
  0
LINE
  5
CC
330
1F
100
AcDbEntity
  8
0
  6
Continuous
 62
     7
370
    25
100
AcDbLine
 10
353.4197355163
 20
322.0043349571
 30
0.0
 11
345.4697350513
 21
322.0043349571
 31
0.0
  0
LINE
  5
CD
330
1F
100
AcDbEntity
  8
0
  6
Continuous
 62
     7
370
    25
100
AcDbLine
 10
361.1390064013
 20
321.2043363161
 30
0.0
 11
353.4197355163
 21
321.2043363161
 31
0.0
  0
LINE
  5
CE
330
1F
100
AcDbEntity
  8
0
  6
Continuous
 62
     7
370
    25
100
AcDbLine
 10
353.4197355163
 20
297.2043361075
 30
0.0
 11
361.1390064013
 21
297.2043361075
 31
0.0
  0
LINE
  5
CF
330
1F
100
AcDbEntity
  8
0
  6
Continuous
 62
     7
370
    25
100
AcDbLine
 10
345.4697350513
 20
322.0043349571
 30
0.0
 11
343.9197386157
 21
320.4543385214
 31
0.0
  0
LINE
  5
D0
330
1F
100
AcDbEntity
  8
0
  6
Continuous
 62
     7
370
    25
100
AcDbLine
 10
343.9197386157
 20
297.9543339021
 30
0.0
 11
345.4697350513
 21
296.4043337411
 31
0.0
  0
LINE
  5
D1
330
1F
100
AcDbEntity
  8
0
  6
Continuous
 62
     7
370
    25
100
AcDbLine
 10
337.7562011134
 20
297.9543339021
 30
0.0
 11
343.9197386157
 21
297.9543339021
 31
0.0
  0
LINE
  5
D2
330
1F
100
AcDbEntity
  8
0
  6
Continuous
 62
     7
370
    25
100
AcDbLine
 10
343.9197386157
 20
320.4543385214
 30
0.0
 11
337.7562011134
 21
320.4543385214
 31
0.0
  0
LINE
  5
D3
330
1F
100
AcDbEntity
  8
0
  6
Continuous
 62
     7
370
    25
100
AcDbLine
 10
361.1390064013
 20
297.2043361075
 30
0.0
 11
361.3197351348
 21
298.2293348319
 31
0.0
  0
LINE
  5
D4
330
1F
100
AcDbEntity
  8
0
  6
Continuous
 62
     7
370
    25
100
AcDbLine
 10
361.3197351348
 20
320.1793375916
 30
0.0
 11
361.1390064013
 21
321.2043363161
 31
0.0
  0
SPLINE
  5
D5
330
1F
100
AcDbEntity
  8
0
  6
Continuous
 62
     7
370
    25
100
AcDbSpline
210
0.0
220
0.0
230
1.0
 70
     8
 71
     3
 72
    13
 73
     9
 74
     0
 42
0.000000001
 43
0.00000001
 40
0.0
 40
0.0
 40
0.0
 40
0.0
 40
0.0216581308524089
 40
0.2230648134786496
 40
0.4167920117245837
 40
0.6187270142007225
 40
0.8385546584716415
 40
1.0
 40
1.0
 40
1.0
 40
1.0
 10
275.2616735648658
 20
357.7803391522955
 30
0.0
 10
275.2613235895016
 20
357.7966326651523
 30
0.0
 10
275.2577190684161
 20
357.9644453647375
 30
0.0
 10
275.3490660159397
 20
358.2741090282752
 30
0.0
 10
275.5742138864208
 20
358.6672972729773
 30
0.0
 10
275.9236765550606
 20
358.9795494022906
 30
0.0
 10
276.3305157097417
 20
359.1782162555641
 30
0.0
 10
276.6196325443376
 20
359.1834981617209
 30
0.0
 10
276.7420555007006
 20
359.1857347197126
 30
0.0
  0
SPLINE
  5
D6
330
1F
100
AcDbEntity
  8
0
  6
Continuous
 62
     7
370
    25
100
AcDbSpline
210
0.0
220
0.0
230
1.0
 70
     8
 71
     3
 72
    14
 73
    10
 74
     0
 42
0.000000001
 43
0.00000001
 40
0.0
 40
0.0
 40
0.0
 40
0.0
 40
0.1316100061430708
 40
0.3705425964850761
 40
0.5613044967463586
 40
0.7228084774135403
 40
0.8615155376457984
 40
0.978118722773624
 40
1.0
 40
1.0
 40
1.0
 40
1.0
 10
276.7413476955439
 20
369.2234102196287
 30
0.0
 10
276.6413210116285
 20
369.2226753006499
 30
0.0
 10
276.3596999688064
 20
369.2206061662843
 30
0.0
 10
275.9590679984214
 20
369.4054285656558
 30
0.0
 10
275.6184323865884
 20
369.6984296259715
 30
0.0
 10
275.4101019602468
 20
370.0113676375731
 30
0.0
 10
275.301833233296
 20
370.3081314798092
 30
0.0
 10
275.2597789084312
 20
370.5155971153439
 30
0.0
 10
275.260129859299
 20
370.6202368296138
 30
0.0
 10
275.2601853113915
 20
370.636770457704
 30
0.0
  0
LINE
  5
D7
330
1F
100
AcDbEntity
  8
0
  6
Continuous
 62
     7
370
    25
100
AcDbLine
 10
276.7357802492
 20
359.2043388195
 30
0.0
 11
337.2562001001
 21
359.2043388195
 31
0.0
  0
LINE
  5
D8
330
1F
100
AcDbEntity
  8
0
  6
Continuous
 62
     7
370
    25
100
AcDbLine
 10
337.2562001001
 20
369.2043367333
 30
0.0
 11
276.7379148405
 21
369.2043367333
 31
0.0
  0
ARC
  5
D9
330
1F
100
AcDbEntity
  8
0
  6
Continuous
 62
     7
370
    25
100
AcDbCircle
 10
337.2562002193
 20
368.7043353624
 30
0.0
 40
0.5000000000000568
100
AcDbArc
 50
0.0
 51
90.0
  0
ARC
  5
DA
330
1F
100
AcDbEntity
  8
0
  6
Continuous
 62
     7
370
    25
100
AcDbCircle
 10
337.2562002193
 20
359.7043353624
 30
0.0
 40
0.5
100
AcDbArc
 50
270.0
 51
0.0
  0
LINE
  5
DB
330
1F
100
AcDbEntity
  8
0
  6
Continuous
 62
     7
370
    25
100
AcDbLine
 10
275.2497749877
 20
349.0043375201
 30
0.0
 11
275.6562004339
 21
349.0043375201
 31
0.0
  0
LINE
  5
DC
330
1F
100
AcDbEntity
  8
0
  6
Continuous
 62
     7
370
    25
100
AcDbLine
 10
275.6562004339
 20
357.0043388314
 30
0.0
 11
275.2497749877
 21
357.0043388314
 31
0.0
  0
LINE
  5
DD
330
1F
100
AcDbEntity
  8
0
  6
Continuous
 62
     7
370
    25
100
AcDbLine
 10
275.6562004339
 20
349.0043375201
 30
0.0
 11
276.2567470324
 21
349.2229152031
 31
0.0
  0
LINE
  5
DE
330
1F
100
AcDbEntity
  8
0
  6
Continuous
 62
     7
370
    25
100
AcDbLine
 10
276.2567470324
 20
356.7857536978
 30
0.0
 11
275.6562004339
 21
357.0043388314
 31
0.0
  0
ARC
  5
DF
330
1F
100
AcDbEntity
  8
0
  6
Continuous
 62
     7
370
    25
100
AcDbCircle
 10
276.1883435606
 20
356.5978154713
 30
0.0
 40
0.1999999999999886
100
AcDbArc
 50
0.0
 51
70.0
  0
ARC
  5
E0
330
1F
100
AcDbEntity
  8
0
  6
Continuous
 62
     7
370
    25
100
AcDbCircle
 10
276.1883435606
 20
349.4108552535
 30
0.0
 40
0.2000000000000553
100
AcDbArc
 50
290.0
 51
0.0
  0
LINE
  5
E1
330
1F
100
AcDbEntity
  8
0
  6
Continuous
 62
     7
370
    25
100
AcDbLine
 10
276.3883429122
 20
349.4108560986
 30
0.0
 11
276.3883429122
 21
356.5978128023
 31
0.0
  0
LINE
  5
E2
330
1F
100
AcDbEntity
  8
0
  6
Continuous
 62
     7
370
    25
100
AcDbLine
 10
222.582051019
 20
293.3800499446
 30
0.0
 11
230.3861430388
 21
271.9384841181
 31
0.0
  0
LINE
  5
E3
330
1F
100
AcDbEntity
  8
0
  6
Continuous
 62
     7
370
    25
100
AcDbLine
 10
230.4496480625
 20
283.4592219002
 30
0.0
 11
226.3408205014
 21
294.7481292791
 31
0.0
  0
LINE
  5
E4
330
1F
100
AcDbEntity
  8
0
  6
Continuous
 62
     7
370
    25
100
AcDbLine
 10
207.7026660096
 20
294.6960087425
 30
0.0
 11
220.7026662778
 21
294.6960087425
 31
0.0
  0
LINE
  5
E5
330
1F
100
AcDbEntity
  8
0
  6
Continuous
 62
     7
370
    25
100
AcDbLine
 10
220.7026662778
 20
298.6960093982
 30
0.0
 11
207.7026660096
 21
298.6960093982
 31
0.0
  0
ARC
  5
E6
330
1F
100
AcDbEntity
  8
0
  6
Continuous
 62
     7
370
    25
100
AcDbCircle
 10
220.7026655789
 20
292.6960080949
 30
0.0
 40
2.0
100
AcDbArc
 50
20.0
 51
90.0
  0
ARC
  5
E7
330
1F
100
AcDbEntity
  8
0
  6
Continuous
 62
     7
370
    25
100
AcDbCircle
 10
220.7026655789
 20
292.6960080949
 30
0.0
 40
6.0
100
AcDbArc
 50
20.0
 51
90.0
  0
LINE
  5
E8
330
1F
100
AcDbEntity
  8
0
  6
Continuous
 62
     7
370
    25
100
AcDbLine
 10
274.8106619817
 20
328.6378327317
 30
0.0
 11
274.8066666078
 21
328.6304343052
 31
0.0
  0
LINE
  5
E9
330
1F
100
AcDbEntity
  8
0
  6
Continuous
 62
     7
370
    25
100
AcDbLine
 10
252.7562002193
 20
247.2043353624
 30
0.0
 11
275.2562011134
 21
247.2043353624
 31
0.0
  0
LINE
  5
EA
330
1F
100
AcDbEntity
  8
0
  6
Continuous
 62
     7
370
    25
100
AcDbLine
 10
230.2561993253
 20
247.2043353624
 30
0.0
 11
252.7562002193
 21
247.2043353624
 31
0.0
  0
SPLINE
  5
EB
330
1F
100
AcDbEntity
  8
0
  6
Continuous
 62
     7
370
    25
100
AcDbSpline
210
0.0
220
0.0
230
1.0
 70
     8
 71
     3
 72
    21
 73
    17
 74
     0
 42
0.000000001
 43
0.00000001
 40
0.0
 40
0.0
 40
0.0
 40
0.0
 40
0.0084688375091276
 40
0.0253437484573469
 40
0.0526077137099021
 40
0.1046371304372354
 40
0.1849975215942232
 40
0.2674616203356774
 40
0.4463287396433075
 40
0.629363562340536
 40
0.7387327901977989
 40
0.860611871310946
 40
0.9059160867935614
 40
0.9514958615503066
 40
0.976121403644633
 40
1.0
 40
1.0
 40
1.0
 40
1.0
 10
230.4463418674018
 20
283.4580186314176
 30
0.0
 10
230.446285572113
 20
283.4604243006277
 30
0.0
 10
230.4461171034611
 20
283.4676234794131
 30
0.0
 10
230.4481797947412
 20
283.3793608762107
 30
0.0
 10
230.4539484629059
 20
283.1269800896841
 30
0.0
 10
230.4663420746048
 20
282.5460080437031
 30
0.0
 10
230.481772069409
 20
281.6871947158471
 30
0.0
 10
230.5008977880913
 20
280.2622254433799
 30
0.0
 10
230.5116633020137
 20
278.3574935292036
 30
0.0
 10
230.4982271914245
 20
276.3232028899717
 30
0.0
 10
230.4675160439569
 20
274.5586145606163
 30
0.0
 10
230.4368405781911
 20
273.4043189631095
 30
0.0
 10
230.4101275045689
 20
272.5946943819716
 30
0.0
 10
230.3961476078322
 20
272.2102789515208
 30
0.0
 10
230.3873509321591
 20
271.9813277361733
 30
0.0
 10
230.3862556839708
 20
271.9534230207589
 30
0.0
 10
230.3857164930846
 20
271.9396855241846
 30
0.0
  0
LINE
  5
EC
330
1F
100
AcDbEntity
  8
0
  6
Continuous
 62
     7
370
    25
100
AcDbLine
 10
252.7562002193
 20
373.7043309517
 30
0.0
 11
274.7161997956
 21
373.7043309517
 31
0.0
  0
LINE
  5
ED
330
1F
100
AcDbEntity
  8
0
  6
Continuous
 62
     7
370
    25
100
AcDbLine
 10
230.7962006431
 20
373.7043309517
 30
0.0
 11
252.7562002193
 21
373.7043309517
 31
0.0
  0
LWPOLYLINE
  5
EE
330
1F
100
AcDbEntity
  8
0
  6
Continuous
 62
     7
370
    25
100
AcDbPolyline
 90
       16
 70
   128
 43
0.0
 10
230.2561993253
 20
348.6681673235
 10
230.2815685522
 20
348.6636895246
 10
230.4841721904
 20
348.6279714412
 10
230.8875522118
 20
348.5568407483
 10
231.4880727332
 20
348.4509530968
 10
232.2803209078
 20
348.3112621612
 10
233.2571534913
 20
348.139019639
 10
234.4097638976
 20
347.9357827015
 10
235.7277641546
 20
347.7033841915
 10
237.1992715176
 20
347.4439177222
 10
238.8110211592
 20
347.1597227759
 10
240.5484825846
 20
346.8533623523
 10
242.395993742
 20
346.5275931663
 10
244.3368997898
 20
346.1853581972
 10
246.3537039709
 20
345.8297419853
 10
248.4282245402
 20
345.4639482803
  0
LINE
  5
EF
330
1F
100
AcDbEntity
  8
0
  6
Continuous
 62
     7
370
    25
100
AcDbLine
 10
257.1106333759
 20
344.7043317861
 30
0.0
 11
275.2562011134
 21
344.7043317861
 31
0.0
  0
SPLINE
  5
F0
330
1F
100
AcDbEntity
  8
0
  6
Continuous
 62
     7
370
    25
100
AcDbSpline
210
0.0
220
0.0
230
1.0
 70
     8
 71
     3
 72
    12
 73
     8
 74
     0
 42
0.000000001
 43
0.00000001
 40
0.0
 40
0.0
 40
0.0
 40
0.0
 40
0.1854877718237452
 40
0.4195920377676769
 40
0.6564401449404389
 40
0.8956700527808784
 40
0.9999999999999999
 40
0.9999999999999999
 40
0.9999999999999999
 40
0.9999999999999999
 10
275.2497172456528
 20
356.9673690504621
 30
0.0
 10
275.2474326810328
 20
356.9550814217658
 30
0.0
 10
275.2422647655691
 20
356.927285567013
 30
0.0
 10
275.1469704061362
 20
356.3650370393643
 30
0.0
 10
275.0229010301667
 20
355.4370724031348
 30
0.0
 10
274.9356660377759
 20
354.4430015571182
 30
0.0
 10
274.9130643156785
 20
353.8076110528601
 30
0.0
 10
274.9062007766511
 20
353.6146599359106
 30
0.0
  0
SPLINE
  5
F1
330
1F
100
AcDbEntity
  8
0
  6
Continuous
 62
     7
370
    25
100
AcDbSpline
210
0.0
220
0.0
230
1.0
 70
     8
 71
     3
 72
    12
 73
     8
 74
     0
 42
0.000000001
 43
0.00000001
 40
0.0
 40
0.0
 40
0.0
 40
0.0
 40
0.2366961975543055
 40
0.4732919242221508
 40
0.712073770384667
 40
0.9503936891936513
 40
1.0
 40
1.0
 40
1.0
 40
1.0
 10
274.9062007766511
 20
352.3940089649748
 30
0.0
 10
274.926077692934
 20
351.9583869157842
 30
0.0
 10
274.9658230883074
 20
351.0873277267253
 30
0.0
 10
275.0952354103626
 20
350.0044705517159
 30
0.0
 10
275.2051876450527
 20
349.2870966512349
 30
0.0
 10
275.2634154202398
 20
348.9632055410602
 30
0.0
 10
275.2517304320117
 20
349.0298288812536
 30
0.0
 10
275.2497172456528
 20
349.0413073010038
 30
0.0
  0
SPLINE
  5
F2
330
1F
100
AcDbEntity
  8
0
  6
Continuous
 62
     7
370
    25
100
AcDbSpline
210
0.0
220
0.0
230
1.0
 70
     8
 71
     3
 72
    12
 73
     8
 74
     0
 42
0.000000001
 43
0.00000001
 40
0.0
 40
0.0
 40
0.0
 40
0.0
 40
0.5000000000000003
 40
0.5000000000000003
 40
0.7500000000000002
 40
0.7500000000000002
 40
1.0
 40
1.0
 40
1.0
 40
1.0
 10
248.4282245122972
 20
345.4639477117834
 30
0.0
 10
249.8539931876456
 20
345.2125462260705
 30
0.0
 10
251.2916647973593
 20
345.0227771058617
 30
0.0
 10
253.4661243544727
 20
344.8320288142194
 30
0.0
 10
254.1939475996405
 20
344.7841170837127
 30
0.0
 10
255.6557630954966
 20
344.7201518496713
 30
0.0
 10
256.387041689047
 20
344.7043353623938
 30
0.0
 10
257.1106333956438
 20
344.7043353623938
 30
0.0
  0
SPLINE
  5
F3
330
1F
100
AcDbEntity
  8
0
  6
Continuous
 62
     7
370
    25
100
AcDbSpline
210
0.0
220
0.0
230
1.0
 70
     8
 71
     3
 72
     9
 73
     5
 74
     0
 42
0.000000001
 43
0.00000001
 40
0.0
 40
0.0
 40
0.0
 40
0.0
 40
0.0389167458764389
 40
1.0
 40
1.0
 40
1.0
 40
1.0
 10
280.8291012894656
 20
322.7038923210691
 30
0.0
 10
280.8292549471994
 20
322.7040447334234
 30
0.0
 10
280.8332033177622
 20
322.7079611028646
 30
0.0
 10
280.8254887612546
 20
322.7002217081023
 30
0.0
 10
280.8180744301822
 20
322.6927835053991
 30
0.0
  0
LINE
  5
F4
330
1F
100
AcDbEntity
  8
0
  6
Continuous
 62
     7
370
    25
100
AcDbLine
 10
280.9998760473
 20
295.738114
 30
0.0
 11
281.0031449896
 21
295.734854371
 31
0.0
  0
LINE
  5
F5
330
1F
100
AcDbEntity
  8
0
  6
Continuous
 62
     7
370
    25
100
AcDbLine
 10
337.7562011134
 20
322.7043319053
 30
0.0
 11
337.7562011134
 21
295.7043367929
 31
0.0
  0
LINE
  5
F6
330
1F
100
AcDbEntity
  8
0
  6
Continuous
 62
     7
370
    25
100
AcDbLine
 10
353.4197355163
 20
296.4043337411
 30
0.0
 11
353.4197355163
 21
322.0043349571
 31
0.0
  0
LINE
  5
F7
330
1F
100
AcDbEntity
  8
0
  6
Continuous
 62
     7
370
    25
100
AcDbLine
 10
345.4697350513
 20
313.6585447497
 30
0.0
 11
346.9197372448
 21
313.6585447497
 31
0.0
  0
LINE
  5
F8
330
1F
100
AcDbEntity
  8
0
  6
Continuous
 62
     7
370
    25
100
AcDbLine
 10
345.4697350513
 20
313.6585447497
 30
0.0
 11
345.4697350513
 21
322.0043349571
 31
0.0
  0
LINE
  5
F9
330
1F
100
AcDbEntity
  8
0
  6
Continuous
 62
     7
370
    25
100
AcDbLine
 10
345.4697350513
 20
296.4043337411
 30
0.0
 11
345.4697350513
 21
304.7501239485
 31
0.0
  0
LINE
  5
FA
330
1F
100
AcDbEntity
  8
0
  6
Continuous
 62
     7
370
    25
100
AcDbLine
 10
346.9197372448
 20
304.7501239485
 30
0.0
 11
345.4697350513
 21
304.7501239485
 31
0.0
  0
LINE
  5
FB
330
1F
100
AcDbEntity
  8
0
  6
Continuous
 62
     7
370
    25
100
AcDbLine
 10
346.9197372448
 20
304.7501239485
 30
0.0
 11
346.9197372448
 21
313.6585447497
 31
0.0
  0
LINE
  5
FC
330
1F
100
AcDbEntity
  8
0
  6
Continuous
 62
     7
370
    25
100
AcDbLine
 10
361.1390064013
 20
304.1853699393
 30
0.0
 11
361.1390064013
 21
297.2043361075
 31
0.0
  0
LINE
  5
FD
330
1F
100
AcDbEntity
  8
0
  6
Continuous
 62
     7
370
    25
100
AcDbLine
 10
361.1390064013
 20
321.2043363161
 30
0.0
 11
361.1390064013
 21
314.2232987589
 31
0.0
  0
LINE
  5
FE
330
1F
100
AcDbEntity
  8
0
  6
Continuous
 62
     7
370
    25
100
AcDbLine
 10
361.1390064013
 20
314.2232987589
 30
0.0
 11
357.3197419297
 21
314.2232987589
 31
0.0
  0
LINE
  5
FF
330
1F
100
AcDbEntity
  8
0
  6
Continuous
 62
     7
370
    25
100
AcDbLine
 10
357.3197419297
 20
304.1853699393
 30
0.0
 11
357.3197419297
 21
314.2232987589
 31
0.0
  0
LINE
  5
100
330
1F
100
AcDbEntity
  8
0
  6
Continuous
 62
     7
370
    25
100
AcDbLine
 10
357.3197419297
 20
304.1853699393
 30
0.0
 11
361.1390064013
 21
304.1853699393
 31
0.0
  0
SPLINE
  5
101
330
1F
100
AcDbEntity
  8
0
  6
Continuous
 62
     7
370
    25
100
AcDbSpline
210
0.0
220
0.0
230
1.0
 70
     8
 71
     3
 72
    18
 73
    14
 74
     0
 42
0.000000001
 43
0.00000001
 40
0.0
 40
0.0
 40
0.0
 40
0.0
 40
0.1249999999999994
 40
0.1249999999999994
 40
0.2499999999999989
 40
0.2499999999999989
 40
0.4999999999999978
 40
0.4999999999999978
 40
0.6249999999999983
 40
0.6249999999999983
 40
0.7499999999999989
 40
0.7499999999999989
 40
1.0
 40
1.0
 40
1.0
 40
1.0
 10
345.4697385011153
 20
304.7501238721292
 30
0.0
 10
345.3451883742898
 20
305.1080416824648
 30
0.0
 10
345.2315722928098
 20
305.4726821081241
 30
0.0
 10
345.0329182454666
 20
306.2087083510518
 30
0.0
 10
344.9477806590154
 20
306.5801428781066
 30
0.0
 10
344.740391461827
 20
307.7060260646874
 30
0.0
 10
344.6690525404857
 20
308.4596304663766
 30
0.0
 10
344.6700890062695
 20
309.5931466768359
 30
0.0
 10
344.6883200925237
 20
309.971591861113
 30
0.0
 10
344.7604096347291
 20
310.7296902478827
 30
0.0
 10
344.8142632192439
 20
311.1077126927846
 30
0.0
 10
345.021972473613
 20
312.2228022980676
 30
0.0
 10
345.2223713742397
 20
312.9476916921145
 30
0.0
 10
345.4697385011151
 20
313.6585468526577
 30
0.0
  0
LINE
  5
102
330
1F
100
AcDbEntity
  8
0
  6
Continuous
 62
     7
370
    25
100
AcDbLine
 10
343.9197386157
 20
297.9543339021
 30
0.0
 11
343.9197386157
 21
320.4543385214
 31
0.0
  0
SPLINE
  5
103
330
1F
100
AcDbEntity
  8
0
  6
Continuous
 62
     7
370
    25
100
AcDbSpline
210
0.0
220
0.0
230
1.0
 70
     8
 71
     3
 72
     8
 73
     4
 74
     0
 42
0.000000001
 43
0.00000001
 40
0.0
 40
0.0
 40
0.0
 40
0.0
 40
1.0
 40
1.0
 40
1.0
 40
1.0
 10
361.3197385011151
 20
310.4852042081387
 30
0.0
 10
361.2940119500831
 20
311.7353557556057
 30
0.0
 10
361.2306198528853
 20
312.9810118828799
 30
0.0
 10
361.139003345889
 20
314.2232993989256
 30
0.0
  0
LINE
  5
104
330
1F
100
AcDbEntity
  8
0
  6
Continuous
 62
     7
370
    25
100
AcDbLine
 10
361.3197351348
 20
310.4852009124
 30
0.0
 11
361.3197351348
 21
307.9234677858
 31
0.0
  0
SPLINE
  5
105
330
1F
100
AcDbEntity
  8
0
  6
Continuous
 62
     7
370
    25
100
AcDbSpline
210
0.0
220
0.0
230
1.0
 70
     8
 71
     3
 72
     8
 73
     4
 74
     0
 42
0.000000001
 43
0.00000001
 40
0.0
 40
0.0
 40
0.0
 40
0.0
 40
1.0
 40
1.0
 40
1.0
 40
1.0
 10
361.139003345889
 20
304.1853713258619
 30
0.0
 10
361.2306262760878
 20
305.4277459382679
 30
0.0
 10
361.294013934408
 20
306.6734113951173
 30
0.0
 10
361.3197385011151
 20
307.9234665166488
 30
0.0
  0
LINE
  5
106
330
1F
100
AcDbEntity
  8
0
  6
Continuous
 62
     7
370
    25
100
AcDbLine
 10
361.3197351348
 20
307.9234677858
 30
0.0
 11
361.3197351348
 21
298.2293348319
 31
0.0
  0
LINE
  5
107
330
1F
100
AcDbEntity
  8
0
  6
Continuous
 62
     7
370
    25
100
AcDbLine
 10
361.3197351348
 20
320.1793375916
 30
0.0
 11
361.3197351348
 21
310.4852009124
 31
0.0
  0
LINE
  5
108
330
1F
100
AcDbEntity
  8
0
  6
Continuous
 62
     7
370
    25
100
AcDbLine
 10
337.7562011134
 20
368.70433572
 30
0.0
 11
337.7562011134
 21
359.7043323822
 31
0.0
  0
LINE
  5
109
330
1F
100
AcDbEntity
  8
0
  6
Continuous
 62
     7
370
    25
100
AcDbLine
 10
274.9062007767
 20
352.394008965
 30
0.0
 11
274.9062007767
 21
353.6146599359
 31
0.0
  0
LINE
  5
10A
330
1F
100
AcDbEntity
  8
0
  6
Continuous
 62
     7
370
    25
100
AcDbLine
 10
275.6562004339
 20
353.0043381757
 30
0.0
 11
275.6562004339
 21
357.0043388314
 31
0.0
  0
LINE
  5
10B
330
1F
100
AcDbEntity
  8
0
  6
Continuous
 62
     7
370
    25
100
AcDbLine
 10
275.6562004339
 20
349.0043375201
 30
0.0
 11
275.6562004339
 21
353.0043381757
 31
0.0
  0
LINE
  5
10C
330
1F
100
AcDbEntity
  8
0
  6
Continuous
 62
     7
370
    25
100
AcDbLine
 10
207.7026660096
 20
294.6960087425
 30
0.0
 11
207.7026660096
 21
298.6960093982
 31
0.0
  0
SPLINE
  5
10D
330
1F
100
AcDbEntity
  8
0
  6
Continuous
 62
     8
370
    18
100
AcDbSpline
210
0.0
220
0.0
230
1.0
 70
    24
 71
     3
 72
    38
 73
    34
 74
     0
 42
0.000000001
 43
0.00000001
 40
0.0
 40
0.0
 40
0.0
 40
0.0
 40
0.0624999999999999
 40
0.0624999999999999
 40
0.1249999999999999
 40
0.1249999999999999
 40
0.1874999999999999
 40
0.1874999999999999
 40
0.2499999999999999
 40
0.2499999999999999
 40
0.3124999999999999
 40
0.3124999999999999
 40
0.3749999999999999
 40
0.3749999999999999
 40
0.4374999999999999
 40
0.4374999999999999
 40
0.4999999999999999
 40
0.4999999999999999
 40
0.5624999999999999
 40
0.5624999999999999
 40
0.625
 40
0.625
 40
0.6874999999999999
 40
0.6874999999999999
 40
0.7499999999999999
 40
0.7499999999999999
 40
0.8124999999999999
 40
0.8124999999999999
 40
0.875
 40
0.875
 40
0.9375
 40
0.9375
 40
1.0
 40
1.0
 40
1.0
 40
1.0
 10
230.7562002193476
 20
337.2043353623937
 30
0.0
 10
230.7562002193736
 20
337.2043353623937
 30
0.0
 10
230.8980141527454
 20
337.2043353623937
 30
0.0
 10
231.4598339483528
 20
337.2043353623937
 30
0.0
 10
231.8798259184868
 20
337.2043353623937
 30
0.0
 10
232.9818750899768
 20
337.2043353623937
 30
0.0
 10
233.6639050409953
 20
337.2043353623937
 30
0.0
 10
235.2638324567444
 20
337.2043353623937
 30
0.0
 10
236.1816903601168
 20
337.2043353623937
 30
0.0
 10
238.2180117067881
 20
337.2043353623937
 30
0.0
 10
239.3364247980288
 20
337.2043353623937
 30
0.0
 10
241.7308853882528
 20
337.2043353623937
 30
0.0
 10
243.0068736794794
 20
337.2043353623937
 30
0.0
 10
245.6674557356037
 20
337.2043353623937
 30
0.0
 10
247.0519837123673
 20
337.2043353623937
 30
0.0
 10
249.876442558048
 20
337.2043353623937
 30
0.0
 10
251.3163035866544
 20
337.2043353623937
 30
0.0
 10
254.196096852428
 20
337.2043353623937
 30
0.0
 10
255.6359578810319
 20
337.2043353623937
 30
0.0
 10
258.4604167267028
 20
337.2043353623937
 30
0.0
 10
259.844944703459
 20
337.2043353623937
 30
0.0
 10
262.505526759564
 20
337.2043353623937
 30
0.0
 10
263.7815150507785
 20
337.2043353623937
 30
0.0
 10
266.1759756409743
 20
337.2043353623937
 30
0.0
 10
267.2943887321989
 20
337.2043353623937
 30
0.0
 10
269.3307100788343
 20
337.2043353623937
 30
0.0
 10
270.2485679821871
 20
337.2043353623937
 30
0.0
 10
271.8484953978939
 20
337.2043353623937
 30
0.0
 10
272.53052534889
 20
337.2043353623937
 30
0.0
 10
273.6325745203332
 20
337.2043353623937
 30
0.0
 10
274.0525664904429
 20
337.2043353623937
 30
0.0
 10
274.6143862860005
 20
337.2043353623937
 30
0.0
 10
274.756200219347
 20
337.2043353623937
 30
0.0
 10
274.7562002193476
 20
337.2043353623937
 30
0.0
  0
SPLINE
  5
10E
330
1F
100
AcDbEntity
  8
0
  6
Continuous
 62
     8
370
    18
100
AcDbSpline
210
0.0
220
0.0
230
1.0
 70
     8
 71
     3
 72
    31
 73
    27
 74
     0
 42
0.000000001
 43
0.00000001
 40
0.0
 40
0.0
 40
0.0
 40
0.0
 40
0.0174761804986458
 40
0.0506125899007056
 40
0.0640207499100206
 40
0.1030553967230771
 40
0.1432798862503004
 40
0.1891462076955558
 40
0.2360589657207074
 40
0.2935215295840311
 40
0.3522978042359958
 40
0.3999268011370497
 40
0.4484000867919218
 40
0.4976050822539501
 40
0.5480141576952955
 40
0.5896577109791311
 40
0.6319325160588607
 40
0.6876543452177173
 40
0.7445658332138112
 40
0.7981534510088896
 40
0.8531130287936121
 40
0.8909136137445833
 40
0.9296198681887934
 40
0.9555550217108486
 40
0.9918034854015545
 40
0.9999999999999999
 40
0.9999999999999999
 40
0.9999999999999999
 40
0.9999999999999999
 10
275.0154132496859
 20
289.7065151042532
 30
0.0
 10
275.0183567105941
 20
289.7011422019663
 30
0.0
 10
275.0268812380128
 20
289.6855817938988
 30
0.0
 10
274.9069867511718
 20
289.9044119181954
 30
0.0
 10
274.6857178727431
 20
290.3122870982153
 30
0.0
 10
274.3442953769461
 20
290.9477215503667
 30
0.0
 10
273.7355013089228
 20
292.1141300112975
 30
0.0
 10
272.9723425751348
 20
293.6433282626795
 30
0.0
 10
272.0418954660843
 20
295.6412152724992
 30
0.0
 10
271.0239988718525
 20
298.0762744060141
 30
0.0
 10
270.0921275957269
 20
300.7597696937889
 30
0.0
 10
269.3795592800669
 20
303.4635539119128
 30
0.0
 10
268.9163882503102
 20
306.1145061947814
 30
0.0
 10
268.7147529777669
 20
308.8884598345663
 30
0.0
 10
268.8136318317301
 20
311.5440579731239
 30
0.0
 10
269.1486219009495
 20
314.0183231990429
 30
0.0
 10
269.6898206544204
 20
316.5075263604679
 30
0.0
 10
270.481942143345
 20
319.1282543190345
 30
0.0
 10
271.4684367715092
 20
321.7233980852805
 30
0.0
 10
272.4883202755183
 20
324.0480565143328
 30
0.0
 10
273.3457355454887
 20
325.8238794690329
 30
0.0
 10
274.0065677849166
 20
327.1227094036419
 30
0.0
 10
274.4202765784278
 20
327.9096691698123
 30
0.0
 10
274.6945644144081
 20
328.4231882309461
 30
0.0
 10
274.8320783630408
 20
328.6774650186966
 30
0.0
 10
274.8139966075009
 20
328.6440036550604
 30
0.0
 10
274.8106619816567
 20
328.6378327316831
 30
0.0
  0
LINE
  5
10F
330
1F
100
AcDbEntity
  8
0
  6
Continuous
 62
     8
370
    18
100
AcDbLine
 10
252.7562002193
 20
373.1643426723
 30
0.0
 11
230.2561993253
 21
373.1643426723
 31
0.0
  0
LINE
  5
110
330
1F
100
AcDbEntity
  8
0
  6
Continuous
 62
     8
370
    18
100
AcDbLine
 10
275.2562011134
 20
373.1643426723
 30
0.0
 11
252.7562002193
 21
373.1643426723
 31
0.0
  0
SPLINE
  5
111
330
1F
100
AcDbEntity
  8
0
  6
Continuous
 62
     8
370
    18
100
AcDbSpline
210
0.0
220
0.0
230
1.0
 70
     8
 71
     3
 72
    12
 73
     8
 74
     0
 42
0.000000001
 43
0.00000001
 40
0.0
 40
0.0
 40
0.0
 40
0.0
 40
0.2084975936772058
 40
0.4194267659033102
 40
0.632929055227683
 40
0.8459625272845428
 40
1.0
 40
1.0
 40
1.0
 40
1.0
 10
274.4152913343455
 20
364.2043340510916
 30
0.0
 10
274.4325202801493
 20
364.8938159493839
 30
0.0
 10
274.4671791023013
 20
366.280820747134
 30
0.0
 10
274.7168179442652
 20
368.1801202267819
 30
0.0
 10
275.0035864861638
 20
369.6747585483177
 30
0.0
 10
275.2271517529181
 20
370.5915593083411
 30
0.0
 10
275.2354593660297
 20
370.6225822601452
 30
0.0
 10
275.2389455687548
 20
370.6356007165502
 30
0.0
  0
SPLINE
  5
112
330
1F
100
AcDbEntity
  8
0
  6
Continuous
 62
     8
370
    18
100
AcDbSpline
210
0.0
220
0.0
230
1.0
 70
     8
 71
     3
 72
    12
 73
     8
 74
     0
 42
0.000000001
 43
0.00000001
 40
0.0
 40
0.0
 40
0.0
 40
0.0
 40
0.1391562189350836
 40
0.3412739515964565
 40
0.552037320173569
 40
0.7729197784184081
 40
1.0
 40
1.0
 40
1.0
 40
1.0
 10
275.236987928703
 20
357.7806893295835
 30
0.0
 10
275.2362211887132
 20
357.7832220084585
 30
0.0
 10
275.2343407956689
 20
357.7894332819064
 30
0.0
 10
275.0330655359578
 20
358.6071389684859
 30
0.0
 10
274.7507571014041
 20
360.0261278369487
 30
0.0
 10
274.4763366003432
 20
361.9705804660165
 30
0.0
 10
274.4358265810689
 20
363.4529132776867
 30
0.0
 10
274.4152913343455
 20
364.2043340510916
 30
0.0
  0
SPLINE
  5
113
330
1F
100
AcDbEntity
  8
0
  6
Continuous
 62
     8
370
    18
100
AcDbSpline
210
0.0
220
0.0
230
1.0
 70
    24
 71
     3
 72
    38
 73
    34
 74
     0
 42
0.000000001
 43
0.00000001
 40
0.0
 40
0.0
 40
0.0
 40
0.0
 40
0.0625
 40
0.0625
 40
0.1249999999999999
 40
0.1249999999999999
 40
0.1875
 40
0.1875
 40
0.25
 40
0.25
 40
0.3125
 40
0.3125
 40
0.3750000000000001
 40
0.3750000000000001
 40
0.4375000000000001
 40
0.4375000000000001
 40
0.5000000000000001
 40
0.5000000000000001
 40
0.5625000000000001
 40
0.5625000000000001
 40
0.625
 40
0.625
 40
0.6875
 40
0.6875
 40
0.75
 40
0.75
 40
0.8125
 40
0.8125
 40
0.8749999999999999
 40
0.8749999999999999
 40
0.9374999999999999
 40
0.9374999999999999
 40
1.0
 40
1.0
 40
1.0
 40
1.0
 10
274.7562002193476
 20
339.2043353623937
 30
0.0
 10
274.7562002193495
 20
339.2043353623937
 30
0.0
 10
274.6143862860038
 20
339.2043353623937
 30
0.0
 10
274.0525664904441
 20
339.2043353623937
 30
0.0
 10
273.6325745203316
 20
339.2043353623937
 30
0.0
 10
272.5305253488796
 20
339.2043353623937
 30
0.0
 10
271.8484953978775
 20
339.2043353623937
 30
0.0
 10
270.2485679821558
 20
339.2043353623937
 30
0.0
 10
269.3307100787944
 20
339.2043353623937
 30
0.0
 10
267.2943887321396
 20
339.2043353623937
 30
0.0
 10
266.1759756409044
 20
339.2043353623937
 30
0.0
 10
263.7815150506864
 20
339.2043353623937
 30
0.0
 10
262.5055267594603
 20
339.2043353623937
 30
0.0
 10
259.8449447033323
 20
339.2043353623937
 30
0.0
 10
258.4604167265647
 20
339.2043353623937
 30
0.0
 10
255.6359578808721
 20
339.2043353623937
 30
0.0
 10
254.196096852258
 20
339.2043353623937
 30
0.0
 10
251.3163035864662
 20
339.2043353623937
 30
0.0
 10
249.8764425578518
 20
339.2043353623937
 30
0.0
 10
247.0519837121585
 20
339.2043353623937
 30
0.0
 10
245.6674557353904
 20
339.2043353623937
 30
0.0
 10
243.0068736792609
 20
339.2043353623937
 30
0.0
 10
241.7308853880339
 20
339.2043353623937
 30
0.0
 10
239.3364247978138
 20
339.2043353623937
 30
0.0
 10
238.2180117065774
 20
339.2043353623937
 30
0.0
 10
236.1816903599199
 20
339.2043353623937
 30
0.0
 10
235.2638324565571
 20
339.2043353623937
 30
0.0
 10
233.6639050408322
 20
339.2043353623937
 30
0.0
 10
232.9818750898285
 20
339.2043353623937
 30
0.0
 10
231.8798259183729
 20
339.2043353623937
 30
0.0
 10
231.4598339482586
 20
339.2043353623937
 30
0.0
 10
230.8980141526952
 20
339.2043353623938
 30
0.0
 10
230.7562002193476
 20
339.2043353623937
 30
0.0
 10
230.7562002193476
 20
339.2043353623937
 30
0.0
  0
SPLINE
  5
114
330
1F
100
AcDbEntity
  8
0
  6
Continuous
 62
     8
370
    18
100
AcDbSpline
210
0.0
220
0.0
230
1.0
 70
     8
 71
     3
 72
    31
 73
    27
 74
     0
 42
0.000000001
 43
0.00000001
 40
0.0
 40
0.0
 40
0.0
 40
0.0
 40
0.0370319751719191
 40
0.0499916548015274
 40
0.0928157799856049
 40
0.1370183749298378
 40
0.1603886807796466
 40
0.2163839507930604
 40
0.2738062073573897
 40
0.3281217452659444
 40
0.3836937879003969
 40
0.4207175258286793
 40
0.4587337597606012
 40
0.4883749676516786
 40
0.5188951466234661
 40
0.544390008601025
 40
0.5873689295561697
 40
0.6318508730383472
 40
0.6890240572157922
 40
0.7475958696560436
 40
0.7959992924114063
 40
0.8453045702361999
 40
0.8874331166510663
 40
0.9306433780016737
 40
0.9724492237575848
 40
1.0
 40
1.0
 40
1.0
 40
1.0
 10
280.8180744301822
 20
322.6927835053991
 30
0.0
 10
280.7963470407992
 20
322.6710199045372
 30
0.0
 10
280.767015952065
 20
322.6416399317847
 30
0.0
 10
280.5425332568049
 20
322.4147933980989
 30
0.0
 10
280.1803362823902
 20
322.0461172594133
 30
0.0
 10
279.5979245145202
 20
321.4378385027359
 30
0.0
 10
278.8371717495199
 20
320.6171127640831
 30
0.0
 10
277.8769163831086
 20
319.5382735821867
 30
0.0
 10
276.6028338069441
 20
317.9673126116671
 30
0.0
 10
275.3362042424877
 20
316.1685851785268
 30
0.0
 10
274.3224808772133
 20
314.3747066825985
 30
0.0
 10
273.6056455621924
 20
312.6095380244836
 30
0.0
 10
273.2160852500058
 20
311.0870063487966
 30
0.0
 10
273.0649162659352
 20
309.6016778575724
 30
0.0
 10
273.1179136048605
 20
308.2950410428532
 30
0.0
 10
273.3694524774235
 20
306.8183516882831
 30
0.0
 10
273.8866359737628
 20
305.213095985018
 30
0.0
 10
274.7961997092863
 20
303.3391383421631
 30
0.0
 10
275.9803052633882
 20
301.4850953337851
 30
0.0
 10
277.2542649005458
 20
299.8234467168231
 30
0.0
 10
278.4268178042935
 20
298.4478306979609
 30
0.0
 10
279.3822423336053
 20
297.4017473843105
 30
0.0
 10
280.1590281401462
 20
296.5881730539111
 30
0.0
 10
280.6992277906564
 20
296.0385152668664
 30
0.0
 10
281.0069983632712
 20
295.7309507994871
 30
0.0
 10
281.0019009219652
 20
295.7360775019078
 30
0.0
 10
280.9998760473277
 20
295.7381140000414
 30
0.0
  0
SPLINE
  5
115
330
1F
100
AcDbEntity
  8
0
  6
Continuous
 62
     8
370
    18
100
AcDbSpline
210
0.0
220
0.0
230
1.0
 70
     8
 71
     3
 72
    14
 73
    10
 74
     0
 42
0.000000001
 43
0.00000001
 40
0.0
 40
0.0
 40
0.0
 40
0.0
 40
0.0054922732333575
 40
0.212617480178977
 40
0.2197540962589394
 40
0.4371352715837781
 40
0.6491276296579338
 40
0.8556239575121904
 40
1.0
 40
1.0
 40
1.0
 40
1.0
 10
275.8592306178357
 20
364.2043340510916
 30
0.0
 10
275.8592454014698
 20
364.1898962829416
 30
0.0
 10
275.8598177071244
 20
363.6309798283121
 30
0.0
 10
275.8984617265893
 20
363.0465324634988
 30
0.0
 10
276.028110016484
 20
361.9846824503796
 30
0.0
 10
276.2181948765914
 20
360.9743782864089
 30
0.0
 10
276.52106981452
 20
359.8922518376303
 30
0.0
 10
276.7332626241113
 20
359.2683824968732
 30
0.0
 10
276.7351465977101
 20
359.2641765496629
 30
0.0
 10
276.7359218102242
 20
359.2624458975386
 30
0.0
  0
SPLINE
  5
116
330
1F
100
AcDbEntity
  8
0
  6
Continuous
 62
     8
370
    18
100
AcDbSpline
210
0.0
220
0.0
230
1.0
 70
     8
 71
     3
 72
    12
 73
     8
 74
     0
 42
0.000000001
 43
0.00000001
 40
0.0
 40
0.0
 40
0.0
 40
0.0
 40
0.1599222853463965
 40
0.3772859538080138
 40
0.5914481236485906
 40
0.7985200236774902
 40
1.0
 40
1.0
 40
1.0
 40
1.0
 10
276.7381513964679
 20
369.1524881429266
 30
0.0
 10
276.7345044351752
 20
369.1426681925115
 30
0.0
 10
276.7259005857067
 20
369.1195011313936
 30
0.0
 10
276.4893878815071
 20
368.4207654933247
 30
0.0
 10
276.1843201353896
 20
367.277212921903
 30
0.0
 10
275.9156806073248
 20
365.8147557416441
 30
0.0
 10
275.8778747959976
 20
364.7362205790811
 30
0.0
 10
275.8592306178357
 20
364.2043340510916
 30
0.0
  0
LINE
  5
117
330
1F
100
AcDbEntity
  8
0
  6
Continuous
 62
     8
370
    18
100
AcDbLine
 10
337.2562001001
 20
359.2043388195
 30
0.0
 11
337.2562001001
 21
369.2043367333
 31
0.0
  0
LINE
  5
118
330
1F
100
AcDbEntity
  8
0
  6
Continuous
 62
     8
370
    18
100
AcDbLine
 10
276.2567470324
 20
349.2229152031
 30
0.0
 11
276.2567470324
 21
356.7857536978
 31
0.0
  0
LWPOLYLINE
  5
119
330
1F
100
AcDbEntity
  8
0
  6
Continuous
 62
     8
370
    18
100
AcDbPolyline
 90
       12
 70
   128
 43
0.0
 10
222.582051019
 20
293.3800499446
 10
222.5884696942
 20
293.3823857016
 10
222.7403460544
 20
293.4376615591
 10
223.0787272107
 20
293.5608233816
 10
223.5669469934
 20
293.7385197289
 10
224.1520988297
 20
293.9514983005
 10
224.7707726907
 20
294.1766771979
 10
225.355924527
 20
294.3896557695
 10
225.8441443097
 20
294.5673521168
 10
226.1825273287
 20
294.6905139393
 10
226.3344018262
 20
294.7457935221
 10
226.3408205014
 20
294.7481292791
  0
LINE
  5
11A
330
1F
100
AcDbEntity
  8
0
  6
Continuous
 62
     8
370
    18
100
AcDbLine
 10
220.7026662778
 20
294.6960087425
 30
0.0
 11
220.7026662778
 21
298.6960093982
 31
0.0
  0
SPLINE
  5
11B
330
1F
100
AcDbEntity
  8
0
  6
Continuous
 62
     7
370
    25
100
AcDbSpline
210
0.0
220
0.0
230
1.0
 70
     8
 71
     3
 72
    12
 73
     8
 74
     0
 42
0.000000001
 43
0.00000001
 40
0.0
 40
0.0
 40
0.0
 40
0.0
 40
0.2457630281165996
 40
0.5043845186770448
 40
0.744196609941644
 40
0.9942109100713996
 40
0.9999999999999999
 40
0.9999999999999999
 40
0.9999999999999999
 40
0.9999999999999999
 10
93.12984503818839
 20
147.7601173717097
 30
0.0
 10
93.26947913222024
 20
147.6993921371065
 30
0.0
 10
93.55605305608867
 20
147.5747644888322
 30
0.0
 10
93.8838528926018
 20
147.2334161620813
 30
0.0
 10
94.08217687433645
 20
146.8202048232088
 30
0.0
 10
94.16936651301248
 20
146.5104801282766
 30
0.0
 10
94.14463595430614
 20
146.3549011292937
 30
0.0
 10
94.14407627670258
 20
146.3513802188948
 30
0.0
  0
SPLINE
  5
11C
330
1F
100
AcDbEntity
  8
0
  6
Continuous
 62
     7
370
    25
100
AcDbSpline
210
0.0
220
0.0
230
1.0
 70
     8
 71
     3
 72
    14
 73
    10
 74
     0
 42
0.000000001
 43
0.00000001
 40
0.0
 40
0.0
 40
0.0
 40
0.0
 40
0.0785222484853345
 40
0.3279005521763914
 40
0.5402131863237664
 40
0.7222905069064691
 40
0.8745978742875475
 40
0.995194013994312
 40
1.0
 40
1.0
 40
1.0
 40
1.0
 10
104.1628412717411
 20
146.332135369213
 30
0.0
 10
104.1571605760412
 20
146.3761501085021
 30
0.0
 10
104.133438595422
 20
146.5599509750745
 30
0.0
 10
104.2254963222349
 20
146.8618676015869
 30
0.0
 10
104.3881796917236
 20
147.1853447993653
 30
0.0
 10
104.5901096445061
 20
147.4222815885324
 30
0.0
 10
104.7912956627075
 20
147.5814084272318
 30
0.0
 10
104.9251472855611
 20
147.6643098572315
 30
0.0
 10
104.990006137159
 20
147.6921659366565
 30
0.0
 10
104.9924918265471
 20
147.6932335096911
 30
0.0
  0
LINE
  5
11D
330
1F
100
AcDbEntity
  8
0
  6
Continuous
 62
     7
370
    25
100
AcDbLine
 10
94.1458271631
 20
146.3434229988
 30
0.0
 11
94.1458271631
 21
84.9464535165
 31
0.0
  0
LINE
  5
11E
330
1F
100
AcDbEntity
  8
0
  6
Continuous
 62
     7
370
    25
100
AcDbLine
 10
104.1458269396
 20
84.9464535165
 30
0.0
 11
104.1458269396
 21
146.3259923655
 31
0.0
  0
ARC
  5
11F
330
1F
100
AcDbEntity
  8
0
  6
Continuous
 62
     7
370
    25
100
AcDbCircle
 10
103.6458270514
 20
84.9464533973
 30
0.0
 40
0.5
100
AcDbArc
 50
270.0
 51
0.0
  0
ARC
  5
120
330
1F
100
AcDbEntity
  8
0
  6
Continuous
 62
     7
370
    25
100
AcDbCircle
 10
94.6458270514
 20
84.9464533973
 30
0.0
 40
0.5
100
AcDbArc
 50
180.0
 51
270.0
  0
SPLINE
  5
121
330
1F
100
AcDbEntity
  8
0
  6
Continuous
 62
     7
370
    25
100
AcDbSpline
210
0.0
220
0.0
230
1.0
 70
     8
 71
     3
 72
    12
 73
     8
 74
     0
 42
0.000000001
 43
0.00000001
 40
0.0
 40
0.0
 40
0.0
 40
0.0
 40
0.2066874542720555
 40
0.4457718161555875
 40
0.6684616887608688
 40
0.8723570998662069
 40
0.9999999999999999
 40
0.9999999999999999
 40
0.9999999999999999
 40
0.9999999999999999
 10
112.6498451271483
 20
149.106651489766
 30
0.0
 10
112.6538663439623
 20
149.3289854168524
 30
0.0
 10
112.6625390770443
 20
149.8085026609898
 30
0.0
 10
112.7970806289537
 20
150.5176043321743
 30
0.0
 10
113.009088956267
 20
151.2006824545742
 30
0.0
 10
113.2449671103129
 20
151.7494473965757
 30
0.0
 10
113.4253231106995
 20
152.0536186014785
 30
0.0
 10
113.4947605246136
 20
152.1707251119927
 30
0.0
  0
SPLINE
  5
122
330
1F
100
AcDbEntity
  8
0
  6
Continuous
 62
     7
370
    25
100
AcDbSpline
210
0.0
220
0.0
230
1.0
 70
     8
 71
     3
 72
    12
 73
     8
 74
     0
 42
0.000000001
 43
0.00000001
 40
0.0
 40
0.0
 40
0.0
 40
0.0
 40
0.0866196658068781
 40
0.2755630033305046
 40
0.5107426819881706
 40
0.7457680346579174
 40
1.0
 40
1.0
 40
1.0
 40
1.0
 10
84.69945581643074
 20
152.3277405101374
 30
0.0
 10
84.75207297599286
 20
152.2473210787918
 30
0.0
 10
84.91946386096792
 20
151.9914828713674
 30
0.0
 10
85.1780609293301
 20
151.4643150737993
 30
0.0
 10
85.43481345253987
 20
150.7556391794833
 30
0.0
 10
85.61592350492108
 20
149.9413285195807
 30
0.0
 10
85.63765884995053
 20
149.3802142894027
 30
0.0
 10
85.64895315108984
 20
149.0886434364632
 30
0.0
  0
LINE
  5
123
330
1F
100
AcDbEntity
  8
0
  6
Continuous
 62
     7
370
    25
100
AcDbLine
 10
85.6458267012
 20
149.0886303979
 30
0.0
 11
85.6458267012
 21
84.4464525032
 31
0.0
  0
LINE
  5
124
330
1F
100
AcDbEntity
  8
0
  6
Continuous
 62
     7
370
    25
100
AcDbLine
 10
112.6458274016
 20
84.4464525032
 30
0.0
 11
112.6458274016
 21
149.1075399715
 31
0.0
  0
LINE
  5
125
330
1F
100
AcDbEntity
  8
0
  6
Continuous
 62
     7
370
    25
100
AcDbLine
 10
86.3458273747
 20
75.2829163719
 30
0.0
 11
86.3458273747
 21
68.7829181004
 31
0.0
  0
LINE
  5
126
330
1F
100
AcDbEntity
  8
0
  6
Continuous
 62
     7
370
    25
100
AcDbLine
 10
111.945826728
 20
68.7829181004
 30
0.0
 11
111.945826728
 21
75.2829163719
 31
0.0
  0
LINE
  5
127
330
1F
100
AcDbEntity
  8
0
  6
Continuous
 62
     7
370
    25
100
AcDbLine
 10
111.1458271557
 20
77.5329172063
 30
0.0
 11
110.3958274984
 21
78.2829150009
 31
0.0
  0
LINE
  5
128
330
1F
100
AcDbEntity
  8
0
  6
Continuous
 62
     7
370
    25
100
AcDbLine
 10
87.8958266043
 20
78.2829150009
 30
0.0
 11
87.1458269471
 21
77.5329172063
 31
0.0
  0
LINE
  5
129
330
1F
100
AcDbEntity
  8
0
  6
Continuous
 62
     7
370
    25
100
AcDbLine
 10
111.1458271557
 20
64.8829116869
 30
0.0
 11
111.1458271557
 21
68.7829181004
 31
0.0
  0
LINE
  5
12A
330
1F
100
AcDbEntity
  8
0
  6
Continuous
 62
     7
370
    25
100
AcDbLine
 10
87.1458269471
 20
68.7829181004
 30
0.0
 11
87.1458269471
 21
64.8829116869
 31
0.0
  0
LINE
  5
12B
330
1F
100
AcDbEntity
  8
0
  6
Continuous
 62
     7
370
    25
100
AcDbLine
 10
87.8958266043
 20
84.4464525032
 30
0.0
 11
87.8958266043
 21
78.2829150009
 31
0.0
  0
LINE
  5
12C
330
1F
100
AcDbEntity
  8
0
  6
Continuous
 62
     7
370
    25
100
AcDbLine
 10
110.3958274984
 20
78.2829150009
 30
0.0
 11
110.3958274984
 21
84.4464525032
 31
0.0
  0
LINE
  5
12D
330
1F
100
AcDbEntity
  8
0
  6
Continuous
 62
     7
370
    25
100
AcDbLine
 10
97.1458269564
 20
214.499987607
 30
0.0
 11
97.1458269564
 21
201.4999873388
 31
0.0
  0
LINE
  5
12E
330
1F
100
AcDbEntity
  8
0
  6
Continuous
 62
     7
370
    25
100
AcDbLine
 10
101.1458271464
 20
201.4999873388
 30
0.0
 11
101.1458271464
 21
214.499987607
 31
0.0
  0
LINE
  5
12F
330
1F
100
AcDbEntity
  8
0
  6
Continuous
 62
     7
370
    25
100
AcDbLine
 10
101.1458271464
 20
197.7412178564
 30
0.0
 11
101.1458271464
 21
201.4999873388
 31
0.0
  0
LINE
  5
130
330
1F
100
AcDbEntity
  8
0
  6
Continuous
 62
     7
370
    25
100
AcDbLine
 10
97.1458269564
 20
201.4999873388
 30
0.0
 11
97.1458269564
 21
197.7412178564
 31
0.0
  0
LINE
  5
131
330
1F
100
AcDbEntity
  8
0
  6
Continuous
 62
     7
370
    25
100
AcDbLine
 10
97.1458269564
 20
197.7412178564
 30
0.0
 11
97.1458269564
 21
191.8573881883
 31
0.0
  0
LINE
  5
132
330
1F
100
AcDbEntity
  8
0
  6
Continuous
 62
     7
370
    25
100
AcDbLine
 10
101.1458271464
 20
191.8573881883
 30
0.0
 11
101.1458271464
 21
197.7412178564
 31
0.0
  0
CIRCLE
  5
133
330
1F
100
AcDbEntity
  8
0
  6
Continuous
 62
     7
370
    25
100
AcDbCircle
 10
99.1458270514
 20
169.4464533973
 30
0.0
 40
22.5
  0
LINE
  5
134
330
1F
100
AcDbEntity
  8
0
  6
Continuous
 62
     7
370
    25
100
AcDbLine
 10
103.6458268577
 20
84.4464525032
 30
0.0
 11
94.6458277108
 21
84.4464525032
 31
0.0
  0
LINE
  5
135
330
1F
100
AcDbEntity
  8
0
  6
Continuous
 62
     7
370
    25
100
AcDbLine
 10
103.0989905634
 20
147.29645284
 30
0.0
 11
103.1458272414
 21
147.29645284
 31
0.0
  0
LINE
  5
136
330
1F
100
AcDbEntity
  8
0
  6
Continuous
 62
     7
370
    25
100
AcDbLine
 10
112.6458274016
 20
84.4464525032
 30
0.0
 11
103.6458268577
 21
84.4464525032
 31
0.0
  0
LINE
  5
137
330
1F
100
AcDbEntity
  8
0
  6
Continuous
 62
     7
370
    25
100
AcDbLine
 10
94.6458272451
 20
84.4464525032
 30
0.0
 11
85.6458267012
 21
84.4464525032
 31
0.0
  0
LINE
  5
138
330
1F
100
AcDbEntity
  8
0
  6
Continuous
 62
     7
370
    25
100
AcDbLine
 10
99.1458270514
 20
68.7829181004
 30
0.0
 11
111.945826728
 21
68.7829181004
 31
0.0
  0
LINE
  5
139
330
1F
100
AcDbEntity
  8
0
  6
Continuous
 62
     7
370
    25
100
AcDbLine
 10
86.3458273747
 20
68.7829181004
 30
0.0
 11
99.1458270514
 21
68.7829181004
 31
0.0
  0
LINE
  5
13A
330
1F
100
AcDbEntity
  8
0
  6
Continuous
 62
     7
370
    25
100
AcDbLine
 10
87.1458269471
 20
76.7329185653
 30
0.0
 11
87.1458269471
 21
75.2829163719
 31
0.0
  0
LINE
  5
13B
330
1F
100
AcDbEntity
  8
0
  6
Continuous
 62
     7
370
    25
100
AcDbLine
 10
87.1458269471
 20
76.7329185653
 30
0.0
 11
111.1458271557
 21
76.7329185653
 31
0.0
  0
LINE
  5
13C
330
1F
100
AcDbEntity
  8
0
  6
Continuous
 62
     7
370
    25
100
AcDbLine
 10
111.1458271557
 20
75.2829163719
 30
0.0
 11
111.1458271557
 21
76.7329185653
 31
0.0
  0
LINE
  5
13D
330
1F
100
AcDbEntity
  8
0
  6
Continuous
 62
     7
370
    25
100
AcDbLine
 10
111.1458271557
 20
75.2829163719
 30
0.0
 11
111.945826728
 21
75.2829163719
 31
0.0
  0
LINE
  5
13E
330
1F
100
AcDbEntity
  8
0
  6
Continuous
 62
     7
370
    25
100
AcDbLine
 10
86.3458273747
 20
75.2829163719
 30
0.0
 11
87.1458269471
 21
75.2829163719
 31
0.0
  0
SPLINE
  5
13F
330
1F
100
AcDbEntity
  8
0
  6
Continuous
 62
     7
370
    25
100
AcDbSpline
210
0.0
220
0.0
230
1.0
 70
    24
 71
     3
 72
     9
 73
     5
 74
     0
 42
0.000000001
 43
0.00000001
 40
0.0
 40
0.0
 40
0.0
 40
0.0
 40
0.6923768124560898
 40
1.0
 40
1.0
 40
1.0
 40
1.0
 10
111.1458271556923
 20
76.73291856530463
 30
0.0
 10
111.1458271556923
 20
77.04070308497411
 30
0.0
 10
111.1458271556923
 20
77.48523634220105
 30
0.0
 10
111.1458271556923
 20
77.50422494202355
 30
0.0
 10
111.1458271556923
 20
77.51006627562796
 30
0.0
  0
SPLINE
  5
140
330
1F
100
AcDbEntity
  8
0
  6
Continuous
 62
     7
370
    25
100
AcDbSpline
210
0.0
220
0.0
230
1.0
 70
    24
 71
     3
 72
     9
 73
     5
 74
     0
 42
0.000000001
 43
0.00000001
 40
0.0
 40
0.0
 40
0.0
 40
0.0
 40
0.3076054573235644
 40
1.0
 40
1.0
 40
1.0
 40
1.0
 10
87.14582694707602
 20
77.50774914506232
 30
0.0
 10
87.14582694707602
 20
77.50279684434386
 30
0.0
 10
87.14582694707602
 20
77.48669732269829
 30
0.0
 10
87.145826947076
 20
77.04130546023008
 30
0.0
 10
87.14582694707602
 20
76.73291856530463
 30
0.0
  0
LINE
  5
141
330
1F
100
AcDbEntity
  8
0
  6
Continuous
 62
     7
370
    25
100
AcDbLine
 10
99.1458270514
 20
78.2829150009
 30
0.0
 11
110.3958274984
 21
78.2829150009
 31
0.0
  0
LINE
  5
142
330
1F
100
AcDbEntity
  8
0
  6
Continuous
 62
     7
370
    25
100
AcDbLine
 10
87.8958266043
 20
78.2829150009
 30
0.0
 11
99.1458270514
 21
78.2829150009
 31
0.0
  0
LINE
  5
143
330
1F
100
AcDbEntity
  8
0
  6
Continuous
 62
     7
370
    25
100
AcDbLine
 10
110.0458271617
 20
64.8829116869
 30
0.0
 11
111.1458271557
 21
64.8829116869
 31
0.0
  0
LINE
  5
144
330
1F
100
AcDbEntity
  8
0
  6
Continuous
 62
     7
370
    25
100
AcDbLine
 10
110.0458271617
 20
64.8829116869
 30
0.0
 11
110.0458271617
 21
61.0636472154
 31
0.0
  0
LINE
  5
145
330
1F
100
AcDbEntity
  8
0
  6
Continuous
 62
     7
370
    25
100
AcDbLine
 10
110.0458271617
 20
61.0636472154
 30
0.0
 11
88.2458269411
 21
61.0636472154
 31
0.0
  0
LINE
  5
146
330
1F
100
AcDbEntity
  8
0
  6
Continuous
 62
     7
370
    25
100
AcDbLine
 10
88.2458269411
 20
61.0636472154
 30
0.0
 11
88.2458269411
 21
64.8829116869
 31
0.0
  0
LINE
  5
147
330
1F
100
AcDbEntity
  8
0
  6
Continuous
 62
     7
370
    25
100
AcDbLine
 10
87.1458269471
 20
64.8829116869
 30
0.0
 11
88.2458269411
 21
64.8829116869
 31
0.0
  0
SPLINE
  5
148
330
1F
100
AcDbEntity
  8
0
  6
Continuous
 62
     7
370
    25
100
AcDbSpline
210
0.0
220
0.0
230
1.0
 70
    24
 71
     3
 72
     8
 73
     4
 74
     0
 42
0.000000001
 43
0.00000001
 40
0.0
 40
0.0
 40
0.0
 40
0.0
 40
1.0
 40
1.0
 40
1.0
 40
1.0
 10
110.0458270513842
 20
61.06365027076411
 30
0.0
 10
110.0458270513842
 20
60.97202734056521
 30
0.0
 10
110.0458270513842
 20
60.90863968224507
 30
0.0
 10
110.0458270513842
 20
60.88291511553793
 30
0.0
  0
LINE
  5
149
330
1F
100
AcDbEntity
  8
0
  6
Continuous
 62
     7
370
    25
100
AcDbLine
 10
110.0458271617
 20
60.8829184819
 30
0.0
 11
88.2458269411
 21
60.8829184819
 31
0.0
  0
SPLINE
  5
14A
330
1F
100
AcDbEntity
  8
0
  6
Continuous
 62
     7
370
    25
100
AcDbSpline
210
0.0
220
0.0
230
1.0
 70
    24
 71
     3
 72
     8
 73
     4
 74
     0
 42
0.000000001
 43
0.00000001
 40
0.0
 40
0.0
 40
0.0
 40
0.0
 40
1.0
 40
1.0
 40
1.0
 40
1.0
 10
88.24582705138414
 20
60.88291511553788
 30
0.0
 10
88.24582705138414
 20
60.90864166656984
 30
0.0
 10
88.24582705138414
 20
60.97203376376768
 30
0.0
 10
88.24582705138414
 20
61.06365027076406
 30
0.0
  0
LINE
  5
14B
330
1F
100
AcDbEntity
  8
0
  6
Continuous
 62
     7
370
    25
100
AcDbLine
 10
97.1458269564
 20
214.499987607
 30
0.0
 11
101.1458271464
 21
214.499987607
 31
0.0
  0
CIRCLE
  5
14C
330
1F
100
AcDbEntity
  8
0
  6
Continuous
 62
     8
370
    18
100
AcDbCircle
 10
99.1458270514
 20
169.4464533973
 30
0.0
 40
21.96000000000001
  0
ARC
  5
14D
330
1F
100
AcDbEntity
  8
0
  6
Continuous
 62
     8
370
    18
100
AcDbCircle
 10
99.1456536832
 20
159.9151696661
 30
0.0
 40
14.46342189218178
100
AcDbArc
 50
249.7762210523
 51
290.0231632821
  0
LINE
  5
14E
330
1F
100
AcDbEntity
  8
0
  6
Continuous
 62
     8
370
    18
100
AcDbLine
 10
94.1458271631
 20
84.9464535165
 30
0.0
 11
104.1458269396
 21
84.9464535165
 31
0.0
  0
SPLINE
  5
14F
330
1F
100
AcDbEntity
  8
0
  6
Continuous
 62
     8
370
    18
100
AcDbSpline
210
0.0
220
0.0
230
1.0
 70
     8
 71
     3
 72
    18
 73
    14
 74
     0
 42
0.000000001
 43
0.00000001
 40
0.0
 40
0.0
 40
0.0
 40
0.0
 40
0.0045825646775693
 40
0.0902369874209431
 40
0.1788889460420486
 40
0.2007299412362462
 40
0.3268458854695796
 40
0.4569404089488536
 40
0.5970391369763677
 40
0.7399307753379206
 40
0.8579608006554594
 40
0.978378627176757
 40
0.9999999999999999
 40
0.9999999999999999
 40
0.9999999999999999
 40
0.9999999999999999
 10
112.6443438047001
 20
149.1068973589257
 30
0.0
 10
112.6448336518687
 20
149.107857508535
 30
0.0
 10
112.6544794148655
 20
149.1267641720109
 30
0.0
 10
112.5763051487817
 20
149.0290421058752
 30
0.0
 10
112.3850534701466
 20
148.7808236901171
 30
0.0
 10
112.0651233287055
 20
148.3739706062619
 30
0.0
 10
111.5626467190558
 20
147.7523620079579
 30
0.0
 10
110.5928458310505
 20
146.6715835447718
 30
0.0
 10
109.3312161986156
 20
145.4579520942531
 30
0.0
 10
107.8632000846625
 20
144.2813842825327
 30
0.0
 10
106.230949751044
 20
143.2646129031933
 30
0.0
 10
105.0134396518107
 20
142.6170006056818
 30
0.0
 10
104.2604481808191
 20
142.3671611245602
 30
0.0
 10
104.1458269396254
 20
142.3291302669362
 30
0.0
  0
SPLINE
  5
150
330
1F
100
AcDbEntity
  8
0
  6
Continuous
 62
     8
370
    18
100
AcDbSpline
210
0.0
220
0.0
230
1.0
 70
     8
 71
     3
 72
    17
 73
    13
 74
     0
 42
0.000000001
 43
0.00000001
 40
0.0
 40
0.0
 40
0.0
 40
0.0
 40
0.0665112774683209
 40
0.1271307351571065
 40
0.2723750003868672
 40
0.4213206784865156
 40
0.5622079425750255
 40
0.7063544124076461
 40
0.8023890526578744
 40
0.9009980952238266
 40
0.9778834367826904
 40
1.0
 40
1.0
 40
1.0
 40
1.0
 10
94.14582716314285
 20
142.3410307067946
 30
0.0
 10
93.80157569974861
 20
142.4681196085251
 30
0.0
 10
93.14356786579799
 20
142.7110393978045
 30
0.0
 10
91.8736878934511
 20
143.3708747684403
 30
0.0
 10
90.35933253798095
 20
144.3237948253471
 30
0.0
 10
88.79857490979578
 20
145.6002035445726
 30
0.0
 10
87.5109528636181
 20
146.8667334402912
 30
0.0
 10
86.62535844614334
 20
147.8788107482924
 30
0.0
 10
86.04590820208576
 20
148.60033029101
 30
0.0
 10
85.75700649320227
 20
148.9748103969559
 30
0.0
 10
85.63815679998471
 20
149.127377252495
 30
0.0
 10
85.65621275303431
 20
149.0963694986452
 30
0.0
 10
85.66024636862963
 20
149.0894425112322
 30
0.0
  0
LINE
  5
151
330
1F
100
AcDbEntity
  8
0
  6
Continuous
 62
     8
370
    18
100
AcDbLine
 10
97.1458269564
 20
201.4999873388
 30
0.0
 11
101.1458271464
 21
201.4999873388
 31
0.0
  0
ARC
  5
152
330
1F
100
AcDbEntity
  8
0
  6
Continuous
 62
     8
370
    18
100
AcDbCircle
 10
99.1458270514
 20
197.8278073966
 30
0.0
 40
2.001873654464803
100
AcDbArc
 50
182.4790593087
 51
357.5209406913
  0
ENDSEC
  0
SECTION
  2
OBJECTS
  0
DICTIONARY
  5
C
330
0
100
AcDbDictionary
281
     1
  3
ACAD_GROUP
350
D
  3
ACAD_LAYOUT
350
1A
  3
ACAD_MLINESTYLE
350
17
  3
ACAD_PLOTSETTINGS
350
19
  3
ACAD_PLOTSTYLENAME
350
E
  3
ACAD_SCALELIST
350
47
  0
DICTIONARY
  5
D
102
{ACAD_REACTORS
330
C
102
}
330
C
100
AcDbDictionary
281
     1
  0
DICTIONARY
  5
1A
102
{ACAD_REACTORS
330
C
102
}
330
C
100
AcDbDictionary
281
     1
  3
Layout1
350
1E
  3
Layout2
350
26
  3
Model
350
22
  0
DICTIONARY
  5
17
102
{ACAD_REACTORS
330
C
102
}
330
C
100
AcDbDictionary
281
     1
  3
Standard
350
18
  0
DICTIONARY
  5
19
102
{ACAD_REACTORS
330
C
102
}
330
C
100
AcDbDictionary
281
     1
  0
ACDBDICTIONARYWDFLT
  5
E
102
{ACAD_REACTORS
330
C
102
}
330
C
100
AcDbDictionary
281
     1
  3
Normal
350
F
100
AcDbDictionaryWithDefault
340
F
  0
DICTIONARY
  5
47
102
{ACAD_REACTORS
330
C
102
}
330
C
100
AcDbDictionary
281
     1
  3
A0
350
48
  3
A1
350
49
  3
A2
350
4A
  3
A3
350
4B
  3
A4
350
4C
  3
A5
350
4D
  3
A6
350
4E
  3
A7
350
4F
  3
A8
350
50
  3
A9
350
51
  3
B0
350
52
  3
B1
350
53
  3
B2
350
54
  3
B3
350
55
  3
B4
350
56
  3
B5
350
57
  3
B6
350
58
  3
B7
350
59
  3
B8
350
5A
  3
B9
350
5B
  3
C0
350
5C
  3
C1
350
5D
  3
C2
350
5E
  3
C3
350
5F
  3
C4
350
60
  3
C5
350
61
  3
C6
350
62
  3
C7
350
63
  3
C8
350
64
  3
C9
350
65
  3
D0
350
66
  3
D1
350
67
  3
D2
350
68
  0
LAYOUT
  5
1E
102
{ACAD_REACTORS
330
1A
102
}
330
1A
100
AcDbPlotSettings
  1

  2
none_device
  4

  6

 40
0.0
 41
0.0
 42
0.0
 43
0.0
 44
0.0
 45
0.0
 46
0.0
 47
0.0
 48
0.0
 49
0.0
140
0.0
141
0.0
142
1.0
143
1.0
 70
   688
 72
     1
 73
     0
 74
     5
  7

 75
    16
147
1.0
148
0.0
149
0.0
100
AcDbLayout
  1
Layout1
 70
     1
 71
     1
 10
0.0
 20
0.0
 11
420.0
 21
297.0
 12
0.0
 22
0.0
 32
0.0
 14
1.0000000000E+20
 24
1.0000000000E+20
 34
1.0000000000E+20
 15
-1.0000000000E+20
 25
-1.0000000000E+20
 35
-1.0000000000E+20
146
0.0
 13
0.0
 23
0.0
 33
0.0
 16
1.0
 26
0.0
 36
0.0
 17
0.0
 27
1.0
 37
0.0
 76
     0
330
1B
  0
LAYOUT
  5
26
102
{ACAD_REACTORS
330
1A
102
}
330
1A
100
AcDbPlotSettings
  1

  2
none_device
  4

  6

 40
0.0
 41
0.0
 42
0.0
 43
0.0
 44
0.0
 45
0.0
 46
0.0
 47
0.0
 48
0.0
 49
0.0
140
0.0
141
0.0
142
1.0
143
1.0
 70
   688
 72
     1
 73
     0
 74
     5
  7

 75
    16
147
1.0
148
0.0
149
0.0
100
AcDbLayout
  1
Layout2
 70
     1
 71
     2
 10
0.0
 20
0.0
 11
0.0
 21
0.0
 12
0.0
 22
0.0
 32
0.0
 14
0.0
 24
0.0
 34
0.0
 15
0.0
 25
0.0
 35
0.0
146
0.0
 13
0.0
 23
0.0
 33
0.0
 16
1.0
 26
0.0
 36
0.0
 17
0.0
 27
1.0
 37
0.0
 76
     0
330
23
  0
LAYOUT
  5
22
102
{ACAD_REACTORS
330
1A
102
}
330
1A
100
AcDbPlotSettings
  1

  2
none_device
  4
Letter_(8.50_x_11.00_Inches)
  6

 40
6.35
 41
6.35
 42
6.35000508
 43
6.35000508
 44
215.9
 45
279.4
 46
0.0
 47
0.0
 48
0.0
 49
0.0
140
0.0
141
0.0
142
1.0
143
1.0
 70
  1712
 72
     1
 73
     0
 74
     0
  7

 75
     0
147
1.0
148
0.0
149
0.0
100
AcDbLayout
  1
Model
 70
     1
 71
     0
 10
0.0
 20
0.0
 11
594.0
 21
841.0
 12
0.0
 22
0.0
 32
0.0
 14
0.0
 24
0.0
 34
0.0
 15
594.0
 25
841.0
 35
0.0
146
0.0
 13
0.0
 23
0.0
 33
0.0
 16
1.0
 26
0.0
 36
0.0
 17
0.0
 27
1.0
 37
0.0
 76
     0
330
1F
331
29
  0
MLINESTYLE
  5
18
102
{ACAD_REACTORS
330
17
102
}
330
17
100
AcDbMlineStyle
  2
Standard
 70
     0
  3

 62
   256
 51
90.0
 52
90.0
 71
     2
 49
0.5
 62
   256
  6
BYLAYER
 49
-0.5
 62
   256
  6
BYLAYER
  0
ACDBPLACEHOLDER
  5
F
102
{ACAD_REACTORS
330
E
102
}
330
E
  0
SCALE
  5
48
102
{ACAD_REACTORS
330
47
102
}
330
47
100
AcDbScale
 70
     0
300
1:1
140
1.0
141
1.0
290
     1
  0
SCALE
  5
49
102
{ACAD_REACTORS
330
47
102
}
330
47
100
AcDbScale
 70
     0
300
1:2
140
1.0
141
2.0
290
     0
  0
SCALE
  5
4A
102
{ACAD_REACTORS
330
47
102
}
330
47
100
AcDbScale
 70
     0
300
1:4
140
1.0
141
4.0
290
     0
  0
SCALE
  5
4B
102
{ACAD_REACTORS
330
47
102
}
330
47
100
AcDbScale
 70
     0
300
1:5
140
1.0
141
5.0
290
     0
  0
SCALE
  5
4C
102
{ACAD_REACTORS
330
47
102
}
330
47
100
AcDbScale
 70
     0
300
1:8
140
1.0
141
8.0
290
     0
  0
SCALE
  5
4D
102
{ACAD_REACTORS
330
47
102
}
330
47
100
AcDbScale
 70
     0
300
1:10
140
1.0
141
10.0
290
     0
  0
SCALE
  5
4E
102
{ACAD_REACTORS
330
47
102
}
330
47
100
AcDbScale
 70
     0
300
1:16
140
1.0
141
16.0
290
     0
  0
SCALE
  5
4F
102
{ACAD_REACTORS
330
47
102
}
330
47
100
AcDbScale
 70
     0
300
1:20
140
1.0
141
20.0
290
     0
  0
SCALE
  5
50
102
{ACAD_REACTORS
330
47
102
}
330
47
100
AcDbScale
 70
     0
300
1:30
140
1.0
141
30.0
290
     0
  0
SCALE
  5
51
102
{ACAD_REACTORS
330
47
102
}
330
47
100
AcDbScale
 70
     0
300
1:40
140
1.0
141
40.0
290
     0
  0
SCALE
  5
52
102
{ACAD_REACTORS
330
47
102
}
330
47
100
AcDbScale
 70
     0
300
1:50
140
1.0
141
50.0
290
     0
  0
SCALE
  5
53
102
{ACAD_REACTORS
330
47
102
}
330
47
100
AcDbScale
 70
     0
300
1:100
140
1.0
141
100.0
290
     0
  0
SCALE
  5
54
102
{ACAD_REACTORS
330
47
102
}
330
47
100
AcDbScale
 70
     0
300
2:1
140
2.0
141
1.0
290
     0
  0
SCALE
  5
55
102
{ACAD_REACTORS
330
47
102
}
330
47
100
AcDbScale
 70
     0
300
4:1
140
4.0
141
1.0
290
     0
  0
SCALE
  5
56
102
{ACAD_REACTORS
330
47
102
}
330
47
100
AcDbScale
 70
     0
300
8:1
140
8.0
141
1.0
290
     0
  0
SCALE
  5
57
102
{ACAD_REACTORS
330
47
102
}
330
47
100
AcDbScale
 70
     0
300
10:1
140
10.0
141
1.0
290
     0
  0
SCALE
  5
58
102
{ACAD_REACTORS
330
47
102
}
330
47
100
AcDbScale
 70
     0
300
100:1
140
100.0
141
1.0
290
     0
  0
SCALE
  5
59
102
{ACAD_REACTORS
330
47
102
}
330
47
100
AcDbScale
 70
     0
300
1/128" = 1'-0"
140
0.0078125
141
12.0
290
     0
  0
SCALE
  5
5A
102
{ACAD_REACTORS
330
47
102
}
330
47
100
AcDbScale
 70
     0
300
1/64" = 1'-0"
140
0.015625
141
12.0
290
     0
  0
SCALE
  5
5B
102
{ACAD_REACTORS
330
47
102
}
330
47
100
AcDbScale
 70
     0
300
1/32" = 1'-0"
140
0.03125
141
12.0
290
     0
  0
SCALE
  5
5C
102
{ACAD_REACTORS
330
47
102
}
330
47
100
AcDbScale
 70
     0
300
1/16" = 1'-0"
140
0.0625
141
12.0
290
     0
  0
SCALE
  5
5D
102
{ACAD_REACTORS
330
47
102
}
330
47
100
AcDbScale
 70
     0
300
3/32" = 1'-0"
140
0.09375
141
12.0
290
     0
  0
SCALE
  5
5E
102
{ACAD_REACTORS
330
47
102
}
330
47
100
AcDbScale
 70
     0
300
1/8" = 1'-0"
140
0.125
141
12.0
290
     0
  0
SCALE
  5
5F
102
{ACAD_REACTORS
330
47
102
}
330
47
100
AcDbScale
 70
     0
300
3/16" = 1'-0"
140
0.1875
141
12.0
290
     0
  0
SCALE
  5
60
102
{ACAD_REACTORS
330
47
102
}
330
47
100
AcDbScale
 70
     0
300
1/4" = 1'-0"
140
0.25
141
12.0
290
     0
  0
SCALE
  5
61
102
{ACAD_REACTORS
330
47
102
}
330
47
100
AcDbScale
 70
     0
300
3/8" = 1'-0"
140
0.375
141
12.0
290
     0
  0
SCALE
  5
62
102
{ACAD_REACTORS
330
47
102
}
330
47
100
AcDbScale
 70
     0
300
1/2" = 1'-0"
140
0.5
141
12.0
290
     0
  0
SCALE
  5
63
102
{ACAD_REACTORS
330
47
102
}
330
47
100
AcDbScale
 70
     0
300
3/4" = 1'-0"
140
0.75
141
12.0
290
     0
  0
SCALE
  5
64
102
{ACAD_REACTORS
330
47
102
}
330
47
100
AcDbScale
 70
     0
300
1" = 1'-0"
140
1.0
141
12.0
290
     0
  0
SCALE
  5
65
102
{ACAD_REACTORS
330
47
102
}
330
47
100
AcDbScale
 70
     0
300
1-1/2" = 1'-0"
140
1.5
141
12.0
290
     0
  0
SCALE
  5
66
102
{ACAD_REACTORS
330
47
102
}
330
47
100
AcDbScale
 70
     0
300
3" = 1'-0"
140
3.0
141
12.0
290
     0
  0
SCALE
  5
67
102
{ACAD_REACTORS
330
47
102
}
330
47
100
AcDbScale
 70
     0
300
6" = 1'-0"
140
6.0
141
12.0
290
     0
  0
SCALE
  5
68
102
{ACAD_REACTORS
330
47
102
}
330
47
100
AcDbScale
 70
     0
300
1'-0" = 1'-0"
140
12.0
141
12.0
290
     0
  0
ENDSEC
  0
EOF
