  0
SECTION
  2
HEADER
  9
$ACADVER
  1
AC1009
  9
$DWGCODEPAGE
  3
ansi_1252
  9
$INSBASE
 10
0.0
 20
0.0
 30
0.0
  9
$EXTMIN
 10
0.0
 20
0.0
 30
0.0
  9
$EXTMAX
 10
841.0
 20
594.0
 30
0.0
  9
$LIMMIN
 10
0.0
 20
0.0
  9
$LIMMAX
 10
841.0
 20
594.0
  9
$ORTHOMODE
 70
     0
  9
$REGENMODE
 70
     1
  9
$FILLMODE
 70
     1
  9
$QTEXTMODE
 70
     0
  9
$MIRRTEXT
 70
     1
  9
$DRAGMODE
 70
     2
  9
$LTSCALE
 40
1.0
  9
$OSMODE
 70
    37
  9
$ATTMODE
 70
     1
  9
$TEXTSIZE
 40
10.0
  9
$TRACEWID
 40
1.0
  9
$TEXTSTYLE
  7
STANDARD
  9
$CLAYER
  8
0
  9
$CELTYPE
  6
BYLAYER
  9
$CECOLOR
 62
   256
  9
$DIMSCALE
 40
1.0
  9
$DIMASZ
 40
2.5
  9
$DIMEXO
 40
0.0
  9
$DIMDLI
 40
3.75
  9
$DIMRND
 40
0.0
  9
$DIMDLE
 40
0.0
  9
$DIMEXE
 40
1.0
  9
$DIMTP
 40
0.0
  9
$DIMTM
 40
0.0
  9
$DIMTXT
 40
3.5
  9
$DIMCEN
 40
2.5
  9
$DIMTSZ
 40
0.0
  9
$DIMTOL
 70
     0
  9
$DIMLIM
 70
     0
  9
$DIMTIH
 70
     1
  9
$DIMTOH
 70
     1
  9
$DIMSE1
 70
     0
  9
$DIMSE2
 70
     0
  9
$DIMTAD
 70
     1
  9
$DIMZIN
 70
     0
  9
$DIMBLK
  1

  9
$DIMASO
 70
     1
  9
$DIMSHO
 70
     1
  9
$DIMPOST
  1

  9
$DIMAPOST
  1

  9
$DIMALT
 70
     0
  9
$DIMALTD
 70
     3
  9
$DIMALTF
 40
0.0393700787
  9
$DIMLFAC
 40
2.0
  9
$DIMTOFL
 70
     1
  9
$DIMTVP
 40
0.0
  9
$DIMTIX
 70
     0
  9
$DIMSOXD
 70
     0
  9
$DIMSAH
 70
     0
  9
$DIMBLK1
  1

  9
$DIMBLK2
  1

  9
$DIMSTYLE
  2
ISO-25
  9
$DIMCLRD
 70
     0
  9
$DIMCLRE
 70
     0
  9
$DIMCLRT
 70
     0
  9
$DIMTFAC
 40
1.0
  9
$DIMGAP
 40
1.5
  9
$LUNITS
 70
     2
  9
$LUPREC
 70
     2
  9
$SKETCHINC
 40
1.0
  9
$FILLETRAD
 40
10.0
  9
$AUNITS
 70
     0
  9
$AUPREC
 70
     2
  9
$MENU
  1
.
  9
$ELEVATION
 40
0.0
  9
$PELEVATION
 40
0.0
  9
$THICKNESS
 40
0.0
  9
$LIMCHECK
 70
     0
  9
$CHAMFERA
 40
0.0
  9
$CHAMFERB
 40
0.0
  9
$SKPOLY
 70
     0
  9
$TDCREATE
 40
2458702.547174502
  9
$TDUPDATE
 40
2458702.547174884
  9
$TDINDWG
 40
0.0000000116
  9
$TDUSRTIMER
 40
0.0000000116
  9
$USRTIMER
 70
     1
  9
$ANGBASE
 50
0.0
  9
$ANGDIR
 70
     0
  9
$PDMODE
 70
     0
  9
$PDSIZE
 40
-1.0
  9
$PLINEWID
 40
0.0
  9
$COORDS
 70
     1
  9
$SPLFRAME
 70
     0
  9
$SPLINETYPE
 70
     6
  9
$SPLINESEGS
 70
     8
  9
$ATTDIA
 70
     0
  9
$ATTREQ
 70
     1
  9
$HANDLING
 70
     1
  9
$HANDSEED
  5
237
  9
$SURFTAB1
 70
     6
  9
$SURFTAB2
 70
     6
  9
$SURFTYPE
 70
     6
  9
$SURFU
 70
     6
  9
$SURFV
 70
     6
  9
$UCSNAME
  2

  9
$UCSORG
 10
0.0
 20
0.0
 30
0.0
  9
$UCSXDIR
 10
1.0
 20
0.0
 30
0.0
  9
$UCSYDIR
 10
0.0
 20
1.0
 30
0.0
  9
$PUCSNAME
  2

  9
$PUCSORG
 10
0.0
 20
0.0
 30
0.0
  9
$PUCSXDIR
 10
1.0
 20
0.0
 30
0.0
  9
$PUCSYDIR
 10
0.0
 20
1.0
 30
0.0
  9
$USERI1
 70
     0
  9
$USERI2
 70
     0
  9
$USERI3
 70
     0
  9
$USERI4
 70
     0
  9
$USERI5
 70
     0
  9
$USERR1
 40
0.0
  9
$USERR2
 40
0.0
  9
$USERR3
 40
0.0
  9
$USERR4
 40
0.0
  9
$USERR5
 40
0.0
  9
$WORLDVIEW
 70
     1
  9
$SHADEDGE
 70
     3
  9
$SHADEDIF
 70
    70
  9
$TILEMODE
 70
     1
  9
$MAXACTVP
 70
    64
  9
$PLIMCHECK
 70
     0
  9
$PEXTMIN
 10
1.0000000000E+20
 20
1.0000000000E+20
 30
1.0000000000E+20
  9
$PEXTMAX
 10
-1.0000000000E+20
 20
-1.0000000000E+20
 30
-1.0000000000E+20
  9
$PLIMMIN
 10
0.0
 20
0.0
  9
$PLIMMAX
 10
420.0
 20
297.0
  9
$UNITMODE
 70
     0
  9
$VISRETAIN
 70
     1
  9
$PLINEGEN
 70
     0
  9
$PSLTSCALE
 70
     1
  0
ENDSEC
  0
SECTION
  2
TABLES
  0
TABLE
  2
VPORT
 70
     1
  0
VPORT
  2
*ACTIVE
 70
     0
 10
0.0
 20
0.0
 11
1.0
 21
1.0
 12
420.5
 22
297.0
 13
0.0
 23
0.0
 14
10.0
 24
10.0
 15
10.0
 25
10.0
 16
0.0
 26
0.0
 36
1.0
 17
0.0
 27
0.0
 37
0.0
 40
594.0
 41
1.4158249158
 42
50.0
 43
0.0
 44
0.0
 50
0.0
 51
0.0
 71
     0
 72
  2000
 73
     1
 74
     3
 75
     0
 76
     0
 77
     0
 78
     0
  0
ENDTAB
  0
TABLE
  2
LTYPE
 70
     6
  0
LTYPE
  2
CONTINUOUS
 70
     0
  3
Solid line
 72
    65
 73
     0
 40
0.0
  0
LTYPE
  2
HIDDEN
 70
     0
  3
Hidden __ __ __ __ __ __ __ __ __ __ __ __ __ __
 72
    65
 73
     2
 40
1.905
 49
1.27
 49
-0.635
  0
LTYPE
  2
PHANTOM
 70
     0
  3
Phantom ______  __  __  ______  __  __  ______
 72
    65
 73
     6
 40
12.7
 49
6.35
 49
-1.27
 49
1.27
 49
-1.27
 49
1.27
 49
-1.27
  0
LTYPE
  2
CENTER
 70
     0
  3
Center ____ _ ____ _ ____ _ ____ _ ____ _ ____
 72
    65
 73
     4
 40
10.16
 49
6.35
 49
-1.27
 49
1.27
 49
-1.27
  0
LTYPE
  2
CENTERX2
 70
     0
  3
Center (2x) ________  __  ________  __  _____
 72
    65
 73
     4
 40
20.32
 49
12.7
 49
-2.54
 49
2.54
 49
-2.54
  0
LTYPE
  2
DOT2
 70
     0
  3
Dot (.5x) ........................................
 72
    65
 73
     2
 40
0.635
 49
0.0
 49
-0.635
  0
ENDTAB
  0
TABLE
  2
LAYER
 70
     1
  0
LAYER
  2
0
 70
     0
 62
     7
  6
CONTINUOUS
  0
ENDTAB
  0
TABLE
  2
STYLE
 70
     1
  0
STYLE
  2
STANDARD
 70
     0
 40
0.0
 41
1.0
 50
0.0
 71
     0
 42
10.0
  3
txt
  4

  0
ENDTAB
  0
TABLE
  2
VIEW
 70
     0
  0
ENDTAB
  0
TABLE
  2
UCS
 70
     0
  0
ENDTAB
  0
TABLE
  2
APPID
 70
     1
  0
APPID
  2
ACAD
 70
     0
  0
ENDTAB
  0
TABLE
  2
DIMSTYLE
 70
     2
  0
DIMSTYLE
  2
ISO-25
 70
     0
  3

  4

  5

  6

  7

 40
1.0
 41
2.5
 42
0.625
 43
3.75
 44
1.25
 45
0.0
 46
0.0
 47
0.0
 48
0.0
140
2.5
141
2.5
142
0.0
143
0.0393700787
144
1.0
145
0.0
146
1.0
147
0.625
 71
     0
 72
     0
 73
     0
 74
     0
 75
     0
 76
     0
 77
     1
 78
     8
170
     0
171
     3
172
     1
173
     0
174
     0
175
     0
176
     0
177
     0
178
     0
  0
DIMSTYLE
  2
SLDDIMSTYLE0
 70
     0
  3

  4

  5

  6

  7

 40
1.0
 41
2.5
 42
0.0625
 43
0.38
 44
0.0
 45
0.000000001
 46
0.0
 47
0.0
 48
0.0
140
6.0
141
0.09
142
0.0
143
25.4
144
2.0
145
0.0
146
1.0
147
1.5
 71
     0
 72
     0
 73
     0
 74
     0
 75
     0
 76
     0
 77
     1
 78
    12
170
     0
171
     2
172
     0
173
     1
174
     0
175
     0
176
     0
177
     0
178
     0
  0
ENDTAB
  0
ENDSEC
  0
SECTION
  2
BLOCKS
  0
BLOCK
  8
0
  2
$MODEL_SPACE
 70
     0
 10
0.0
 20
0.0
 30
0.0
  3
$MODEL_SPACE
  1

  0
ENDBLK
  5
21
  8
0
  0
BLOCK
 67
     1
  8
0
  2
$PAPER_SPACE
 70
     0
 10
0.0
 20
0.0
 30
0.0
  3
$PAPER_SPACE
  1

  0
ENDBLK
  5
1D
 67
     1
  8
0
  0
BLOCK
  8
0
  2
_D
 70
     0
 10
0.0
 20
0.0
 30
0.0
  3
_D
  1

  0
SOLID
  5
7A
  8
0
  6
CONTINUOUS
 62
     7
 10
42.7614395004
 20
152.0299240879
 30
0.0
 11
42.4614395004
 21
149.5299240879
 31
0.0
 12
43.0614395004
 22
149.5299240879
 32
0.0
 13
43.0614395004
 23
149.5299240879
 33
0.0
  0
SOLID
  5
7B
  8
0
  6
CONTINUOUS
 62
     7
 10
42.7614395004
 20
52.0299240879
 30
0.0
 11
43.0614395004
 21
54.5299240879
 31
0.0
 12
42.4614395004
 22
54.5299240879
 32
0.0
 13
42.4614395004
 23
54.5299240879
 33
0.0
  0
LINE
  5
7C
  8
0
  6
CONTINUOUS
 62
     7
 10
56.6850079902
 20
152.0299240879
 30
0.0
 11
41.7614395004
 21
152.0299240879
 31
0.0
  0
LINE
  5
7D
  8
0
  6
CONTINUOUS
 62
     7
 10
56.6850079902
 20
52.0299240879
 30
0.0
 11
41.7614395004
 21
52.0299240879
 31
0.0
  0
LINE
  5
7E
  8
0
  6
CONTINUOUS
 62
     7
 10
42.7614395004
 20
152.0299240879
 30
0.0
 11
42.7614395004
 21
52.0299240879
 31
0.0
  0
TEXT
  5
7F
  8
0
  6
CONTINUOUS
 62
     7
 10
40.6418793617
 20
94.3680541463
 30
0.0
 40
6.0
  1
100
 50
90.0
 41
0.7
 11
42.7614397332
 21
94.3680541463
 31
0.0
 73
     1
  0
TEXT
  5
80
  8
0
  6
CONTINUOUS
 62
     7
 10
40.6418793617
 20
105.7430548466
 30
0.0
 40
6.0
  1
mm
 50
90.0
 41
0.7
 11
42.7614397332
 21
105.7430548466
 31
0.0
 73
     1
  0
ENDBLK
  5
79
  8
0
  0
BLOCK
  8
0
  2
_D_1
 70
     0
 10
0.0
 20
0.0
 30
0.0
  3
_D_1
  1

  0
SOLID
  5
85
  8
0
  6
CONTINUOUS
 62
     7
 10
56.6850079902
 20
38.4602342313
 30
0.0
 11
59.1850079902
 21
38.1602342313
 31
0.0
 12
59.1850079902
 22
38.7602342313
 32
0.0
 13
59.1850079902
 23
38.7602342313
 33
0.0
  0
SOLID
  5
86
  8
0
  6
CONTINUOUS
 62
     7
 10
156.6850079902
 20
38.4602342313
 30
0.0
 11
154.1850079902
 21
38.7602342313
 31
0.0
 12
154.1850079902
 22
38.1602342313
 32
0.0
 13
154.1850079902
 23
38.1602342313
 33
0.0
  0
LINE
  5
87
  8
0
  6
CONTINUOUS
 62
     7
 10
56.6850079902
 20
52.0299240879
 30
0.0
 11
56.6850079902
 21
37.4602342313
 31
0.0
  0
LINE
  5
88
  8
0
  6
CONTINUOUS
 62
     7
 10
156.6850079902
 20
52.0299240879
 30
0.0
 11
156.6850079902
 21
37.4602342313
 31
0.0
  0
LINE
  5
89
  8
0
  6
CONTINUOUS
 62
     7
 10
56.6850079902
 20
38.4602342313
 30
0.0
 11
156.6850079902
 21
38.4602342313
 31
0.0
  0
TEXT
  5
8A
  8
0
  6
CONTINUOUS
 62
     7
 10
93.9626484861
 20
40.57979437
 30
0.0
 40
6.0
  1
100
 41
0.7
 11
93.9626484861
 21
38.4602339984
 31
0.0
 73
     1
  0
TEXT
  5
8B
  8
0
  6
CONTINUOUS
 62
     7
 10
105.3376491864
 20
40.57979437
 30
0.0
 40
6.0
  1
mm
 41
0.7
 11
105.3376491864
 21
38.4602339984
 31
0.0
 73
     1
  0
ENDBLK
  5
84
  8
0
  0
ENDSEC
  0
SECTION
  2
ENTITIES
  0
LINE
  5
73
  8
0
  6
CONTINUOUS
 62
     7
 10
56.6850079902
 20
152.0299240879
 30
0.0
 11
56.6850079902
 21
52.0299240879
 31
0.0
  0
LINE
  5
74
  8
0
  6
CONTINUOUS
 62
     7
 10
56.6850079902
 20
52.0299240879
 30
0.0
 11
156.6850079902
 21
52.0299240879
 31
0.0
  0
DIMENSION
  5
75
  8
0
  6
CONTINUOUS
 62
     7
  2
_D
 10
42.7614395004
 20
52.0299240879
 30
0.0
 11
42.7614395004
 21
105.4472211621
 31
0.0
 70
   160
  1
<>mm
  3
SLDDIMSTYLE0
 13
56.6850079902
 23
152.0299240879
 33
0.0
 14
56.6850079902
 24
52.0299240879
 34
0.0
 50
90.0
  0
DIMENSION
  5
81
  8
0
  6
CONTINUOUS
 62
     7
  2
_D_1
 10
156.6850079902
 20
38.4602342313
 30
0.0
 11
105.0418155019
 21
38.4602342313
 31
0.0
 70
   160
  1
<>mm
  3
SLDDIMSTYLE0
 13
56.6850079902
 23
52.0299240879
 33
0.0
 14
156.6850079902
 24
52.0299240879
 34
0.0
  0
TEXT
  5
8C
  8
0
  6
CONTINUOUS
 62
     7
 10
664.658399795
 20
39.0761681714
 30
0.0
 40
10.0
  1
KLUDI GmbH & Co KG
 41
0.6222222222
 11
664.658399795
 21
35.5435675522
 31
0.0
 73
     1
  0
TEXT
  5
8D
  8
0
  6
CONTINUOUS
 62
     7
 10
349.0758972247
 20
39.0761681714
 30
0.0
 40
10.0
  1
20 146 05 15
 41
0.6125
 11
349.0758972247
 21
35.5435675522
 31
0.0
 73
     1
  0
ARC
  5
8E
  8
0
  6
CONTINUOUS
 62
     7
 10
265.0514323723
 20
392.5092675472
 30
0.0
 40
20.26614015164588
 50
249.6515164373
 51
271.5803785426
  0
POLYLINE
  5
8F
  8
0
  6
CONTINUOUS
 62
     7
 66
     1
 10
0.0
 20
0.0
 30
0.0
 70
   128
  0
VERTEX
  5
1A0
  8
0
  6
CONTINUOUS
 62
     7
 10
265.610358566
 20
372.2508362616
 30
0.0
  0
VERTEX
  5
1A1
  8
0
  6
CONTINUOUS
 62
     7
 10
266.5343484614
 20
372.2658645086
 30
0.0
  0
VERTEX
  5
1A2
  8
0
  6
CONTINUOUS
 62
     7
 10
268.2682345982
 20
372.3772780719
 30
0.0
  0
VERTEX
  5
1A3
  8
0
  6
CONTINUOUS
 62
     7
 10
269.9203027096
 20
372.5945840557
 30
0.0
  0
VERTEX
  5
1A4
  8
0
  6
CONTINUOUS
 62
     7
 10
271.4383792229
 20
372.9120461936
 30
0.0
  0
VERTEX
  5
1A5
  8
0
  6
CONTINUOUS
 62
     7
 10
272.7773028297
 20
373.3224385855
 30
0.0
  0
VERTEX
  5
1A6
  8
0
  6
CONTINUOUS
 62
     7
 10
273.8991315226
 20
373.8192583592
 30
0.0
  0
VERTEX
  5
1A7
  8
0
  6
CONTINUOUS
 62
     7
 10
274.1746096681
 20
374.0028837772
 30
0.0
  0
SEQEND
  5
22E
  8
0
  6
CONTINUOUS
 62
     7
  0
LINE
  5
90
  8
0
  6
CONTINUOUS
 62
     7
 10
275.610358566
 20
375.9342296375
 30
0.0
 11
275.610358566
 21
394.3522050049
 31
0.0
  0
LINE
  5
91
  8
0
  6
CONTINUOUS
 62
     7
 10
255.610358566
 20
394.3522050049
 30
0.0
 11
255.610358566
 21
375.9342296375
 31
0.0
  0
LINE
  5
92
  8
0
  6
CONTINUOUS
 62
     7
 10
255.610358566
 20
433.8309964053
 30
0.0
 11
255.610358566
 21
394.3522050049
 31
0.0
  0
LINE
  5
93
  8
0
  6
CONTINUOUS
 62
     7
 10
275.610358566
 20
394.3522050049
 30
0.0
 11
275.610358566
 21
433.8309964053
 31
0.0
  0
ARC
  5
94
  8
0
  6
CONTINUOUS
 62
     7
 10
158.011016489
 20
440.3309964032
 30
0.0
 40
1.999999999999943
 50
270.0
 51
319.4583981265
  0
ARC
  5
95
  8
0
  6
CONTINUOUS
 62
     7
 10
89.4103585657
 20
437.5309964032
 30
0.0
 40
0.799999999999983
 50
90.0
 51
180.0
  0
ARC
  5
96
  8
0
  6
CONTINUOUS
 62
     7
 10
158.011016489
 20
427.3309964032
 30
0.0
 40
2.0
 50
40.5416018735
 51
90.0
  0
LINE
  5
97
  8
0
  6
CONTINUOUS
 62
     7
 10
89.4103585657
 20
438.3309964032
 30
0.0
 11
158.011016489
 21
438.3309964032
 31
0.0
  0
LINE
  5
98
  8
0
  6
CONTINUOUS
 62
     7
 10
88.6103585657
 20
430.1309964032
 30
0.0
 11
88.6103585657
 21
437.5309964032
 31
0.0
  0
LINE
  5
99
  8
0
  6
CONTINUOUS
 62
     7
 10
158.011016489
 20
429.3309964032
 30
0.0
 11
89.4103585657
 21
429.3309964032
 31
0.0
  0
ARC
  5
9A
  8
0
  6
CONTINUOUS
 62
     7
 10
165.6103585657
 20
433.8309964032
 30
0.0
 40
7.999999999999966
 50
220.5416018735
 51
139.4583981265
  0
ARC
  5
9B
  8
0
  6
CONTINUOUS
 62
     7
 10
89.4103585657
 20
430.1309964032
 30
0.0
 40
0.8000000000000114
 50
180.0
 51
270.0
  0
ARC
  5
9C
  8
0
  6
CONTINUOUS
 62
     7
 10
165.6103585657
 20
433.8309964078
 30
0.0
 40
28.49999999999999
 50
189.0847202967
 51
270.0
  0
ARC
  5
9D
  8
0
  6
CONTINUOUS
 62
     7
 10
165.6103585657
 20
433.8309964078
 30
0.0
 40
28.5
 50
270.0
 51
170.9152797219
  0
POLYLINE
  5
9E
  8
0
  6
CONTINUOUS
 62
     7
 66
     1
 10
0.0
 20
0.0
 30
0.0
 70
   128
  0
VERTEX
  5
1A8
  8
0
  6
CONTINUOUS
 62
     7
 10
265.610358566
 20
372.270412788
 30
0.0
  0
VERTEX
  5
1A9
  8
0
  6
CONTINUOUS
 62
     7
 10
263.734767506
 20
372.3335940308
 30
0.0
  0
VERTEX
  5
1AA
  8
0
  6
CONTINUOUS
 62
     7
 10
261.9312543585
 20
372.5207097394
 30
0.0
  0
VERTEX
  5
1AB
  8
0
  6
CONTINUOUS
 62
     7
 10
260.2691271225
 20
372.824569162
 30
0.0
  0
VERTEX
  5
1AC
  8
0
  6
CONTINUOUS
 62
     7
 10
258.8122604155
 20
373.2334951516
 30
0.0
  0
VERTEX
  5
1AD
  8
0
  6
CONTINUOUS
 62
     7
 10
257.616640808
 20
373.7317729115
 30
0.0
  0
VERTEX
  5
1AE
  8
0
  6
CONTINUOUS
 62
     7
 10
256.728215291
 20
374.300253907
 30
0.0
  0
VERTEX
  5
1AF
  8
0
  6
CONTINUOUS
 62
     7
 10
256.1811255589
 20
374.9170917322
 30
0.0
  0
VERTEX
  5
1B0
  8
0
  6
CONTINUOUS
 62
     7
 10
255.9963959632
 20
375.5585816553
 30
0.0
  0
VERTEX
  5
1B1
  8
0
  6
CONTINUOUS
 62
     7
 10
256.1811255589
 20
376.2000715785
 30
0.0
  0
VERTEX
  5
1B2
  8
0
  6
CONTINUOUS
 62
     7
 10
256.728215291
 20
376.8169094037
 30
0.0
  0
VERTEX
  5
1B3
  8
0
  6
CONTINUOUS
 62
     7
 10
257.616640808
 20
377.3853903991
 30
0.0
  0
VERTEX
  5
1B4
  8
0
  6
CONTINUOUS
 62
     7
 10
258.8122604155
 20
377.8836681591
 30
0.0
  0
VERTEX
  5
1B5
  8
0
  6
CONTINUOUS
 62
     7
 10
260.2691271225
 20
378.2925941486
 30
0.0
  0
VERTEX
  5
1B6
  8
0
  6
CONTINUOUS
 62
     7
 10
261.9312543585
 20
378.5964535713
 30
0.0
  0
VERTEX
  5
1B7
  8
0
  6
CONTINUOUS
 62
     7
 10
263.734767506
 20
378.7835692799
 30
0.0
  0
VERTEX
  5
1B8
  8
0
  6
CONTINUOUS
 62
     7
 10
265.610358566
 20
378.8467505226
 30
0.0
  0
VERTEX
  5
1B9
  8
0
  6
CONTINUOUS
 62
     7
 10
267.485949626
 20
378.7835692799
 30
0.0
  0
VERTEX
  5
1BA
  8
0
  6
CONTINUOUS
 62
     7
 10
269.2894627734
 20
378.5964535713
 30
0.0
  0
VERTEX
  5
1BB
  8
0
  6
CONTINUOUS
 62
     7
 10
270.9515900094
 20
378.2925941486
 30
0.0
  0
VERTEX
  5
1BC
  8
0
  6
CONTINUOUS
 62
     7
 10
272.4084567164
 20
377.8836681591
 30
0.0
  0
VERTEX
  5
1BD
  8
0
  6
CONTINUOUS
 62
     7
 10
273.604076324
 20
377.3853903991
 30
0.0
  0
VERTEX
  5
1BE
  8
0
  6
CONTINUOUS
 62
     7
 10
274.492501841
 20
376.8169094037
 30
0.0
  0
VERTEX
  5
1BF
  8
0
  6
CONTINUOUS
 62
     7
 10
275.0395915731
 20
376.2000715785
 30
0.0
  0
VERTEX
  5
1C0
  8
0
  6
CONTINUOUS
 62
     7
 10
275.2243211687
 20
375.5585816553
 30
0.0
  0
VERTEX
  5
1C1
  8
0
  6
CONTINUOUS
 62
     7
 10
275.0395915731
 20
374.9170917322
 30
0.0
  0
VERTEX
  5
1C2
  8
0
  6
CONTINUOUS
 62
     7
 10
274.492501841
 20
374.300253907
 30
0.0
  0
VERTEX
  5
1C3
  8
0
  6
CONTINUOUS
 62
     7
 10
273.604076324
 20
373.7317729115
 30
0.0
  0
VERTEX
  5
1C4
  8
0
  6
CONTINUOUS
 62
     7
 10
272.4084567164
 20
373.2334951516
 30
0.0
  0
VERTEX
  5
1C5
  8
0
  6
CONTINUOUS
 62
     7
 10
270.9515900094
 20
372.824569162
 30
0.0
  0
VERTEX
  5
1C6
  8
0
  6
CONTINUOUS
 62
     7
 10
269.2894627734
 20
372.5207097394
 30
0.0
  0
VERTEX
  5
1C7
  8
0
  6
CONTINUOUS
 62
     7
 10
267.485949626
 20
372.3335940308
 30
0.0
  0
VERTEX
  5
1C8
  8
0
  6
CONTINUOUS
 62
     7
 10
265.610358566
 20
372.270412788
 30
0.0
  0
SEQEND
  5
22F
  8
0
  6
CONTINUOUS
 62
     7
  0
POLYLINE
  5
9F
  8
0
  6
CONTINUOUS
 62
     7
 66
     1
 10
0.0
 20
0.0
 30
0.0
 70
   128
  0
VERTEX
  5
1C9
  8
0
  6
CONTINUOUS
 62
     7
 10
257.8271605452
 20
373.7867944398
 30
0.0
  0
VERTEX
  5
1CA
  8
0
  6
CONTINUOUS
 62
     7
 10
257.4645990455
 20
373.950318164
 30
0.0
  0
VERTEX
  5
1CB
  8
0
  6
CONTINUOUS
 62
     7
 10
256.5140386124
 20
374.5134266146
 30
0.0
  0
VERTEX
  5
1CC
  8
0
  6
CONTINUOUS
 62
     7
 10
255.8922428827
 20
375.1278865883
 30
0.0
  0
VERTEX
  5
1CD
  8
0
  6
CONTINUOUS
 62
     7
 10
255.6216851741
 20
375.7714899008
 30
0.0
  0
VERTEX
  5
1CE
  8
0
  6
CONTINUOUS
 62
     7
 10
255.7121441472
 20
376.4209750513
 30
0.0
  0
VERTEX
  5
1CF
  8
0
  6
CONTINUOUS
 62
     7
 10
256.1603503788
 20
377.0528679544
 30
0.0
  0
VERTEX
  5
1D0
  8
0
  6
CONTINUOUS
 62
     7
 10
256.9501045281
 20
377.6443303541
 30
0.0
  0
VERTEX
  5
1D1
  8
0
  6
CONTINUOUS
 62
     7
 10
258.0528628224
 20
378.1739852583
 30
0.0
  0
VERTEX
  5
1D2
  8
0
  6
CONTINUOUS
 62
     7
 10
259.4287687038
 20
378.6226895587
 30
0.0
  0
VERTEX
  5
1D3
  8
0
  6
CONTINUOUS
 62
     7
 10
261.0280933487
 20
378.9742259129
 30
0.0
  0
VERTEX
  5
1D4
  8
0
  6
CONTINUOUS
 62
     7
 10
262.7930329976
 20
379.215888881
 30
0.0
  0
VERTEX
  5
1D5
  8
0
  6
CONTINUOUS
 62
     7
 10
264.6597981329
 20
379.3389441338
 30
0.0
  0
VERTEX
  5
1D6
  8
0
  6
CONTINUOUS
 62
     7
 10
266.560918999
 20
379.3389441338
 30
0.0
  0
VERTEX
  5
1D7
  8
0
  6
CONTINUOUS
 62
     7
 10
268.4276841344
 20
379.215888881
 30
0.0
  0
VERTEX
  5
1D8
  8
0
  6
CONTINUOUS
 62
     7
 10
270.1926237832
 20
378.9742259129
 30
0.0
  0
VERTEX
  5
1D9
  8
0
  6
CONTINUOUS
 62
     7
 10
271.7919484282
 20
378.6226895587
 30
0.0
  0
VERTEX
  5
1DA
  8
0
  6
CONTINUOUS
 62
     7
 10
273.1678543095
 20
378.1739852583
 30
0.0
  0
VERTEX
  5
1DB
  8
0
  6
CONTINUOUS
 62
     7
 10
274.2706126038
 20
377.6443303541
 30
0.0
  0
VERTEX
  5
1DC
  8
0
  6
CONTINUOUS
 62
     7
 10
275.0603667531
 20
377.0528679544
 30
0.0
  0
VERTEX
  5
1DD
  8
0
  6
CONTINUOUS
 62
     7
 10
275.5085729848
 20
376.4209750513
 30
0.0
  0
VERTEX
  5
1DE
  8
0
  6
CONTINUOUS
 62
     7
 10
275.5990319578
 20
375.7714899008
 30
0.0
  0
VERTEX
  5
1DF
  8
0
  6
CONTINUOUS
 62
     7
 10
275.3284742492
 20
375.1278865883
 30
0.0
  0
VERTEX
  5
1E0
  8
0
  6
CONTINUOUS
 62
     7
 10
274.7066785195
 20
374.5134266146
 30
0.0
  0
VERTEX
  5
1E1
  8
0
  6
CONTINUOUS
 62
     7
 10
274.3583853348
 20
374.2772125433
 30
0.0
  0
SEQEND
  5
230
  8
0
  6
CONTINUOUS
 62
     7
  0
POLYLINE
  5
A0
  8
0
  6
CONTINUOUS
 62
     7
 66
     1
 10
0.0
 20
0.0
 30
0.0
 70
   128
  0
VERTEX
  5
1E2
  8
0
  6
CONTINUOUS
 62
     7
 10
265.610358566
 20
372.5868369007
 30
0.0
  0
VERTEX
  5
1E3
  8
0
  6
CONTINUOUS
 62
     7
 10
263.7813867971
 20
372.648447724
 30
0.0
  0
VERTEX
  5
1E4
  8
0
  6
CONTINUOUS
 62
     7
 10
262.0227013875
 20
372.8309125244
 30
0.0
  0
VERTEX
  5
1E5
  8
0
  6
CONTINUOUS
 62
     7
 10
260.4018876314
 20
373.1272192821
 30
0.0
  0
VERTEX
  5
1E6
  8
0
  6
CONTINUOUS
 62
     7
 10
258.9812324923
 20
373.5259810945
 30
0.0
  0
VERTEX
  5
1E7
  8
0
  6
CONTINUOUS
 62
     7
 10
257.8153309506
 20
374.0118737688
 30
0.0
  0
VERTEX
  5
1E8
  8
0
  6
CONTINUOUS
 62
     7
 10
256.9489879487
 20
374.566224722
 30
0.0
  0
VERTEX
  5
1E9
  8
0
  6
CONTINUOUS
 62
     7
 10
256.4154965622
 20
375.1677305578
 30
0.0
  0
VERTEX
  5
1EA
  8
0
  6
CONTINUOUS
 62
     7
 10
256.235358566
 20
375.7932757444
 30
0.0
  0
VERTEX
  5
1EB
  8
0
  6
CONTINUOUS
 62
     7
 10
256.4154965622
 20
376.4188209309
 30
0.0
  0
VERTEX
  5
1EC
  8
0
  6
CONTINUOUS
 62
     7
 10
256.7159958607
 20
376.8067719263
 30
0.0
  0
SEQEND
  5
231
  8
0
  6
CONTINUOUS
 62
     7
  0
POLYLINE
  5
A1
  8
0
  6
CONTINUOUS
 62
     7
 66
     1
 10
0.0
 20
0.0
 30
0.0
 70
   128
  0
VERTEX
  5
1ED
  8
0
  6
CONTINUOUS
 62
     7
 10
274.5047212712
 20
376.8067719263
 30
0.0
  0
VERTEX
  5
1EE
  8
0
  6
CONTINUOUS
 62
     7
 10
274.8052205697
 20
376.4188209309
 30
0.0
  0
VERTEX
  5
1EF
  8
0
  6
CONTINUOUS
 62
     7
 10
274.985358566
 20
375.7932757444
 30
0.0
  0
VERTEX
  5
1F0
  8
0
  6
CONTINUOUS
 62
     7
 10
274.8052205697
 20
375.1677305578
 30
0.0
  0
VERTEX
  5
1F1
  8
0
  6
CONTINUOUS
 62
     7
 10
274.2717291833
 20
374.566224722
 30
0.0
  0
VERTEX
  5
1F2
  8
0
  6
CONTINUOUS
 62
     7
 10
273.4053861813
 20
374.0118737688
 30
0.0
  0
VERTEX
  5
1F3
  8
0
  6
CONTINUOUS
 62
     7
 10
272.2394846396
 20
373.5259810945
 30
0.0
  0
VERTEX
  5
1F4
  8
0
  6
CONTINUOUS
 62
     7
 10
270.8188295005
 20
373.1272192821
 30
0.0
  0
VERTEX
  5
1F5
  8
0
  6
CONTINUOUS
 62
     7
 10
269.1980157444
 20
372.8309125244
 30
0.0
  0
VERTEX
  5
1F6
  8
0
  6
CONTINUOUS
 62
     7
 10
267.4393303349
 20
372.648447724
 30
0.0
  0
VERTEX
  5
1F7
  8
0
  6
CONTINUOUS
 62
     7
 10
265.610358566
 20
372.5868369007
 30
0.0
  0
SEQEND
  5
232
  8
0
  6
CONTINUOUS
 62
     7
  0
ARC
  5
A2
  8
0
  6
CONTINUOUS
 62
     7
 10
265.610358566
 20
433.8309964053
 30
0.0
 40
10.00000000000003
 50
0.0
 51
180.0
  0
LINE
  5
A3
  8
0
  6
CONTINUOUS
 62
     7
 10
276.5272552958
 20
407.504747797
 30
0.0
 11
275.610358566
 21
407.1429841152
 31
0.0
  0
ARC
  5
A4
  8
0
  6
CONTINUOUS
 62
     7
 10
265.610358566
 20
433.8309964053
 30
0.0
 40
28.50000000000001
 50
292.5226735859
 51
249.4590224625
  0
LINE
  5
A5
  8
0
  6
CONTINUOUS
 62
     7
 10
442.6103585657
 20
437.5309964032
 30
0.0
 11
442.6103585657
 21
430.1309964032
 31
0.0
  0
LINE
  5
A6
  8
0
  6
CONTINUOUS
 62
     7
 10
441.8103585657
 20
429.3309964032
 30
0.0
 11
373.2097006425
 21
429.3309964032
 31
0.0
  0
ARC
  5
A7
  8
0
  6
CONTINUOUS
 62
     7
 10
441.8103585657
 20
430.1309964032
 30
0.0
 40
0.7999999999999545
 50
270.0
 51
0.0
  0
LINE
  5
A8
  8
0
  6
CONTINUOUS
 62
     7
 10
373.2097006425
 20
438.3309964032
 30
0.0
 11
441.8103585657
 21
438.3309964032
 31
0.0
  0
ARC
  5
A9
  8
0
  6
CONTINUOUS
 62
     7
 10
373.2097006425
 20
427.3309964032
 30
0.0
 40
2.000000000000057
 50
90.0
 51
139.4583981265
  0
ARC
  5
AA
  8
0
  6
CONTINUOUS
 62
     7
 10
373.2097006425
 20
440.3309964032
 30
0.0
 40
2.0
 50
220.5416018735
 51
270.0
  0
ARC
  5
AB
  8
0
  6
CONTINUOUS
 62
     7
 10
441.8103585657
 20
437.5309964032
 30
0.0
 40
0.8000000000000114
 50
0.0
 51
90.0
  0
ARC
  5
AC
  8
0
  6
CONTINUOUS
 62
     7
 10
365.6103585657
 20
433.8309964032
 30
0.0
 40
8.00000000000003
 50
40.5416018735
 51
319.4583981265
  0
ARC
  5
AD
  8
0
  6
CONTINUOUS
 62
     7
 10
365.6103585657
 20
433.8309964078
 30
0.0
 40
28.49999999999998
 50
9.0847202781
 51
270.0
  0
ARC
  5
AE
  8
0
  6
CONTINUOUS
 62
     7
 10
365.6103585657
 20
433.8309964078
 30
0.0
 40
28.5
 50
270.0
 51
350.9152797033
  0
ARC
  5
AF
  8
0
  6
CONTINUOUS
 62
     8
 10
158.011016489
 20
440.3309964032
 30
0.0
 40
2.799999999999929
 50
270.0
 51
319.4583981265
  0
LINE
  5
B0
  8
0
  6
CONTINUOUS
 62
     8
 10
158.011016489
 20
437.5309964032
 30
0.0
 11
158.011016489
 21
438.3309964032
 31
0.0
  0
LINE
  5
B1
  8
0
  6
CONTINUOUS
 62
     8
 10
160.1388322705
 20
438.5109964032
 30
0.0
 11
159.5308849043
 21
439.0309964032
 31
0.0
  0
LINE
  5
B2
  8
0
  6
CONTINUOUS
 62
     8
 10
89.4103585657
 20
437.5309964032
 30
0.0
 11
89.4103585657
 21
438.3309964032
 31
0.0
  0
LINE
  5
B3
  8
0
  6
CONTINUOUS
 62
     8
 10
88.6103585657
 20
437.5309964032
 30
0.0
 11
89.4103585657
 21
437.5309964032
 31
0.0
  0
ARC
  5
B4
  8
0
  6
CONTINUOUS
 62
     8
 10
165.6103585657
 20
433.8309964032
 30
0.0
 40
7.199999999999954
 50
220.5416018735
 51
139.4583981265
  0
ARC
  5
B5
  8
0
  6
CONTINUOUS
 62
     8
 10
158.011016489
 20
427.3309964032
 30
0.0
 40
2.799999999999955
 50
40.5416018735
 51
90.0
  0
LINE
  5
B6
  8
0
  6
CONTINUOUS
 62
     8
 10
89.4103585657
 20
430.1309964032
 30
0.0
 11
158.011016489
 21
430.1309964032
 31
0.0
  0
LINE
  5
B7
  8
0
  6
CONTINUOUS
 62
     8
 10
89.4103585657
 20
437.5309964032
 30
0.0
 11
89.4103585657
 21
430.1309964032
 31
0.0
  0
LINE
  5
B8
  8
0
  6
CONTINUOUS
 62
     8
 10
158.011016489
 20
437.5309964032
 30
0.0
 11
89.4103585657
 21
437.5309964032
 31
0.0
  0
LINE
  5
B9
  8
0
  6
CONTINUOUS
 62
     8
 10
160.1388322705
 20
429.1509964032
 30
0.0
 11
159.5308849043
 21
428.6309964032
 31
0.0
  0
LINE
  5
BA
  8
0
  6
CONTINUOUS
 62
     8
 10
158.011016489
 20
429.3309964032
 30
0.0
 11
158.011016489
 21
430.1309964032
 31
0.0
  0
LINE
  5
BB
  8
0
  6
CONTINUOUS
 62
     8
 10
88.6103585657
 20
430.1309964032
 30
0.0
 11
89.4103585657
 21
430.1309964032
 31
0.0
  0
LINE
  5
BC
  8
0
  6
CONTINUOUS
 62
     8
 10
89.4103585657
 20
429.3309964032
 30
0.0
 11
89.4103585657
 21
430.1309964032
 31
0.0
  0
ARC
  5
BD
  8
0
  6
CONTINUOUS
 62
     8
 10
165.6103585657
 20
433.8309964078
 30
0.0
 40
8.500000000000005
 50
212.3133902419
 51
270.0
  0
ARC
  5
BE
  8
0
  6
CONTINUOUS
 62
     8
 10
165.6103585657
 20
433.8309964078
 30
0.0
 40
8.500000000000014
 50
270.0
 51
147.6866098422
  0
ARC
  5
BF
  8
0
  6
CONTINUOUS
 62
     8
 10
165.6103585657
 20
433.8309964078
 30
0.0
 40
27.70000000000003
 50
270.0
 51
170.6505853204
  0
ARC
  5
C0
  8
0
  6
CONTINUOUS
 62
     8
 10
165.6103585657
 20
433.8309964078
 30
0.0
 40
27.69999999999999
 50
189.3494146987
 51
270.0
  0
ARC
  5
C1
  8
0
  6
CONTINUOUS
 62
     8
 10
265.610358566
 20
433.8309964053
 30
0.0
 40
10.80000000000003
 50
337.8083934337
 51
202.1916065663
  0
ARC
  5
C2
  8
0
  6
CONTINUOUS
 62
     8
 10
265.610358566
 20
433.8309964053
 30
0.0
 40
27.70000000000001
 50
291.1622875528
 51
248.8377124472
  0
LINE
  5
C3
  8
0
  6
CONTINUOUS
 62
     8
 10
442.6103585657
 20
430.1309964032
 30
0.0
 11
441.8103585657
 21
430.1309964032
 31
0.0
  0
LINE
  5
C4
  8
0
  6
CONTINUOUS
 62
     8
 10
441.8103585657
 20
430.1309964032
 30
0.0
 11
441.8103585657
 21
437.5309964032
 31
0.0
  0
LINE
  5
C5
  8
0
  6
CONTINUOUS
 62
     8
 10
442.6103585657
 20
437.5309964032
 30
0.0
 11
441.8103585657
 21
437.5309964032
 31
0.0
  0
LINE
  5
C6
  8
0
  6
CONTINUOUS
 62
     8
 10
373.2097006425
 20
430.1309964032
 30
0.0
 11
441.8103585657
 21
430.1309964032
 31
0.0
  0
LINE
  5
C7
  8
0
  6
CONTINUOUS
 62
     8
 10
441.8103585657
 20
430.1309964032
 30
0.0
 11
441.8103585657
 21
429.3309964032
 31
0.0
  0
LINE
  5
C8
  8
0
  6
CONTINUOUS
 62
     8
 10
373.2097006425
 20
430.1309964032
 30
0.0
 11
373.2097006425
 21
429.3309964032
 31
0.0
  0
LINE
  5
C9
  8
0
  6
CONTINUOUS
 62
     8
 10
441.8103585657
 20
438.3309964032
 30
0.0
 11
441.8103585657
 21
437.5309964032
 31
0.0
  0
LINE
  5
CA
  8
0
  6
CONTINUOUS
 62
     8
 10
441.8103585657
 20
437.5309964032
 30
0.0
 11
373.2097006425
 21
437.5309964032
 31
0.0
  0
LINE
  5
CB
  8
0
  6
CONTINUOUS
 62
     8
 10
373.2097006425
 20
438.3309964032
 30
0.0
 11
373.2097006425
 21
437.5309964032
 31
0.0
  0
ARC
  5
CC
  8
0
  6
CONTINUOUS
 62
     8
 10
373.2097006425
 20
427.3309964032
 30
0.0
 40
2.800000000000015
 50
90.0
 51
139.4583981265
  0
LINE
  5
CD
  8
0
  6
CONTINUOUS
 62
     8
 10
371.081884861
 20
429.1509964032
 30
0.0
 11
371.6898322272
 21
428.6309964032
 31
0.0
  0
ARC
  5
CE
  8
0
  6
CONTINUOUS
 62
     8
 10
373.2097006425
 20
440.3309964032
 30
0.0
 40
2.800000000000015
 50
220.5416018735
 51
270.0
  0
LINE
  5
CF
  8
0
  6
CONTINUOUS
 62
     8
 10
371.081884861
 20
438.5109964032
 30
0.0
 11
371.6898322272
 21
439.0309964032
 31
0.0
  0
ARC
  5
D0
  8
0
  6
CONTINUOUS
 62
     8
 10
365.6103585657
 20
433.8309964032
 30
0.0
 40
7.200000000000012
 50
40.5416018735
 51
319.4583981265
  0
ARC
  5
D1
  8
0
  6
CONTINUOUS
 62
     8
 10
365.6103585657
 20
433.8309964078
 30
0.0
 40
8.5
 50
32.3133901577
 51
270.0
  0
ARC
  5
D2
  8
0
  6
CONTINUOUS
 62
     8
 10
365.6103585657
 20
433.8309964078
 30
0.0
 40
8.5
 50
270.0
 51
327.6866097581
  0
ARC
  5
D3
  8
0
  6
CONTINUOUS
 62
     8
 10
365.6103585657
 20
433.8309964078
 30
0.0
 40
27.69999999999999
 50
270.0
 51
350.6505853013
  0
ARC
  5
D4
  8
0
  6
CONTINUOUS
 62
     8
 10
365.6103585657
 20
433.8309964078
 30
0.0
 40
27.69999999999999
 50
9.3494146796
 51
270.0
  0
LINE
  5
D5
  8
0
  6
CONTINUOUS
 62
     7
 10
137.1103585657
 20
319.0528775232
 30
0.0
 11
137.1103585657
 21
311.8528775232
 31
0.0
  0
LINE
  5
D6
  8
0
  6
CONTINUOUS
 62
     7
 10
194.1103585657
 20
311.8528775232
 30
0.0
 11
194.1103585657
 21
319.0528775232
 31
0.0
  0
ARC
  5
D7
  8
0
  6
CONTINUOUS
 62
     7
 10
193.3103585657
 20
311.8528775232
 30
0.0
 40
0.8000000000000114
 50
270.0
 51
0.0
  0
ARC
  5
D8
  8
0
  6
CONTINUOUS
 62
     7
 10
137.9103585657
 20
311.8528775232
 30
0.0
 40
0.8000000000000114
 50
180.0
 51
270.0
  0
ARC
  5
D9
  8
0
  6
CONTINUOUS
 62
     7
 10
174.1103585657
 20
310.5528775232
 30
0.0
 40
0.5
 50
90.0
 51
180.0
  0
ARC
  5
DA
  8
0
  6
CONTINUOUS
 62
     7
 10
157.1103585657
 20
310.5528775232
 30
0.0
 40
0.5
 50
0.0
 51
90.0
  0
LINE
  5
DB
  8
0
  6
CONTINUOUS
 62
     7
 10
157.6103585657
 20
310.5528775232
 30
0.0
 11
157.6103585657
 21
284.3528775232
 31
0.0
  0
LINE
  5
DC
  8
0
  6
CONTINUOUS
 62
     7
 10
173.6103585657
 20
284.3528775232
 30
0.0
 11
173.6103585657
 21
310.5528775232
 31
0.0
  0
ARC
  5
DD
  8
0
  6
CONTINUOUS
 62
     7
 10
173.3103585657
 20
284.3528775232
 30
0.0
 40
0.3000000000000114
 50
270.0
 51
0.0
  0
ARC
  5
DE
  8
0
  6
CONTINUOUS
 62
     7
 10
157.9103585657
 20
284.3528775232
 30
0.0
 40
0.2999999999999829
 50
180.0
 51
270.0
  0
ARC
  5
DF
  8
0
  6
CONTINUOUS
 62
     7
 10
157.9103585657
 20
283.4528775232
 30
0.0
 40
0.3000000000000114
 50
90.0
 51
180.0
  0
ARC
  5
E0
  8
0
  6
CONTINUOUS
 62
     7
 10
173.3103585657
 20
283.4528775232
 30
0.0
 40
0.3000000000000114
 50
0.0
 51
90.0
  0
LINE
  5
E1
  8
0
  6
CONTINUOUS
 62
     7
 10
157.6103585657
 20
283.4528775232
 30
0.0
 11
157.6103585657
 21
273.7528775232
 31
0.0
  0
LINE
  5
E2
  8
0
  6
CONTINUOUS
 62
     7
 10
173.6103585657
 20
264.5528775232
 30
0.0
 11
173.6103585657
 21
283.4528775232
 31
0.0
  0
ARC
  5
E3
  8
0
  6
CONTINUOUS
 62
     7
 10
172.8103585657
 20
264.5528775232
 30
0.0
 40
0.8000000000000114
 50
270.0
 51
0.0
  0
ARC
  5
E4
  8
0
  6
CONTINUOUS
 62
     7
 10
171.7103585657
 20
283.7528775232
 30
0.0
 40
0.3000000000000114
 50
90.0
 51
180.0
  0
ARC
  5
E5
  8
0
  6
CONTINUOUS
 62
     7
 10
159.5103585657
 20
283.7528775232
 30
0.0
 40
0.2999999999999829
 50
0.0
 51
90.0
  0
ARC
  5
E6
  8
0
  6
CONTINUOUS
 62
     7
 10
156.6103585657
 20
273.7528775232
 30
0.0
 40
1.0
 50
270.0
 51
0.0
  0
LINE
  5
E7
  8
0
  6
CONTINUOUS
 62
     7
 10
237.110358566
 20
319.0528775232
 30
0.0
 11
237.110358566
 21
311.8528775232
 31
0.0
  0
LINE
  5
E8
  8
0
  6
CONTINUOUS
 62
     7
 10
294.110358566
 20
311.8528775232
 30
0.0
 11
294.110358566
 21
319.0528775232
 31
0.0
  0
ARC
  5
E9
  8
0
  6
CONTINUOUS
 62
     7
 10
237.910358566
 20
311.8528775232
 30
0.0
 40
0.8000000000000114
 50
180.0
 51
270.0
  0
ARC
  5
EA
  8
0
  6
CONTINUOUS
 62
     7
 10
293.310358566
 20
311.8528775232
 30
0.0
 40
0.8000000000000114
 50
270.0
 51
0.0
  0
ARC
  5
EB
  8
0
  6
CONTINUOUS
 62
     7
 10
254.810358566
 20
310.2528775232
 30
0.0
 40
0.8000000000000114
 50
0.0
 51
90.0
  0
ARC
  5
EC
  8
0
  6
CONTINUOUS
 62
     7
 10
276.410358566
 20
310.2528775232
 30
0.0
 40
0.8000000000000114
 50
90.0
 51
180.0
  0
LINE
  5
ED
  8
0
  6
CONTINUOUS
 62
     7
 10
255.610358566
 20
310.2528775232
 30
0.0
 11
255.610358566
 21
284.3528775232
 31
0.0
  0
LINE
  5
EE
  8
0
  6
CONTINUOUS
 62
     7
 10
275.610358566
 20
284.3528775232
 30
0.0
 11
275.610358566
 21
310.2528775232
 31
0.0
  0
ARC
  5
EF
  8
0
  6
CONTINUOUS
 62
     7
 10
255.910358566
 20
284.3528775232
 30
0.0
 40
0.2999999999999545
 50
180.0
 51
270.0
  0
ARC
  5
F0
  8
0
  6
CONTINUOUS
 62
     7
 10
275.310358566
 20
284.3528775232
 30
0.0
 40
0.3000000000000114
 50
270.0
 51
0.0
  0
LINE
  5
F1
  8
0
  6
CONTINUOUS
 62
     7
 10
255.610358566
 20
283.6528775232
 30
0.0
 11
255.610358566
 21
142.2748376369
 31
0.0
  0
LINE
  5
F2
  8
0
  6
CONTINUOUS
 62
     7
 10
275.610358566
 20
142.2748376369
 30
0.0
 11
275.610358566
 21
283.6528775232
 31
0.0
  0
ARC
  5
F3
  8
0
  6
CONTINUOUS
 62
     7
 10
275.210358566
 20
283.6528775232
 30
0.0
 40
0.4000000000000341
 50
0.0
 51
90.0
  0
ARC
  5
F4
  8
0
  6
CONTINUOUS
 62
     7
 10
256.010358566
 20
283.6528775232
 30
0.0
 40
0.4000000000000341
 50
90.0
 51
180.0
  0
LINE
  5
F5
  8
0
  6
CONTINUOUS
 62
     7
 10
255.610358566
 20
142.2748376369
 30
0.0
 11
255.610358566
 21
85.8932803897
 31
0.0
  0
LINE
  5
F6
  8
0
  6
CONTINUOUS
 62
     7
 10
275.610358566
 20
85.8932803897
 30
0.0
 11
275.610358566
 21
142.2748376369
 31
0.0
  0
LINE
  5
F7
  8
0
  6
CONTINUOUS
 62
     7
 10
275.610358566
 20
79.1896855805
 30
0.0
 11
275.610358566
 21
85.8932803897
 31
0.0
  0
LINE
  5
F8
  8
0
  6
CONTINUOUS
 62
     7
 10
255.610358566
 20
85.8932803897
 30
0.0
 11
255.610358566
 21
79.1896855805
 31
0.0
  0
LINE
  5
F9
  8
0
  6
CONTINUOUS
 62
     7
 10
337.1103585657
 20
319.0528775232
 30
0.0
 11
337.1103585657
 21
311.8528775232
 31
0.0
  0
LINE
  5
FA
  8
0
  6
CONTINUOUS
 62
     7
 10
394.1103585657
 20
311.8528775232
 30
0.0
 11
394.1103585657
 21
319.0528775232
 31
0.0
  0
ARC
  5
FB
  8
0
  6
CONTINUOUS
 62
     7
 10
393.3103585657
 20
311.8528775232
 30
0.0
 40
0.8000000000000114
 50
270.0
 51
0.0
  0
ARC
  5
FC
  8
0
  6
CONTINUOUS
 62
     7
 10
337.9103585657
 20
311.8528775232
 30
0.0
 40
0.8000000000000114
 50
180.0
 51
270.0
  0
ARC
  5
FD
  8
0
  6
CONTINUOUS
 62
     7
 10
374.1103585657
 20
310.5528775232
 30
0.0
 40
0.5
 50
90.0
 51
180.0
  0
ARC
  5
FE
  8
0
  6
CONTINUOUS
 62
     7
 10
357.1103585657
 20
310.5528775232
 30
0.0
 40
0.5
 50
0.0
 51
90.0
  0
LINE
  5
FF
  8
0
  6
CONTINUOUS
 62
     7
 10
357.6103585657
 20
310.5528775232
 30
0.0
 11
357.6103585657
 21
284.3528775232
 31
0.0
  0
LINE
  5
100
  8
0
  6
CONTINUOUS
 62
     7
 10
373.6103585657
 20
284.3528775232
 30
0.0
 11
373.6103585657
 21
310.5528775232
 31
0.0
  0
ARC
  5
101
  8
0
  6
CONTINUOUS
 62
     7
 10
373.3103585657
 20
284.3528775232
 30
0.0
 40
0.3000000000000114
 50
270.0
 51
0.0
  0
ARC
  5
102
  8
0
  6
CONTINUOUS
 62
     7
 10
357.9103585657
 20
284.3528775232
 30
0.0
 40
0.3000000000000114
 50
180.0
 51
270.0
  0
ARC
  5
103
  8
0
  6
CONTINUOUS
 62
     7
 10
357.9103585657
 20
283.4528775232
 30
0.0
 40
0.3000000000000114
 50
90.0
 51
180.0
  0
ARC
  5
104
  8
0
  6
CONTINUOUS
 62
     7
 10
373.3103585657
 20
283.4528775232
 30
0.0
 40
0.3000000000000114
 50
0.0
 51
90.0
  0
LINE
  5
105
  8
0
  6
CONTINUOUS
 62
     7
 10
357.6103585657
 20
283.4528775232
 30
0.0
 11
357.6103585657
 21
264.5528775232
 31
0.0
  0
LINE
  5
106
  8
0
  6
CONTINUOUS
 62
     7
 10
373.6103585657
 20
273.7528775232
 30
0.0
 11
373.6103585657
 21
283.4528775232
 31
0.0
  0
ARC
  5
107
  8
0
  6
CONTINUOUS
 62
     7
 10
358.4103585657
 20
264.5528775232
 30
0.0
 40
0.8000000000000114
 50
180.0
 51
270.0
  0
ARC
  5
108
  8
0
  6
CONTINUOUS
 62
     7
 10
371.7103585657
 20
283.7528775232
 30
0.0
 40
0.3000000000000114
 50
90.0
 51
180.0
  0
ARC
  5
109
  8
0
  6
CONTINUOUS
 62
     7
 10
359.5103585657
 20
283.7528775232
 30
0.0
 40
0.3000000000000114
 50
0.0
 51
90.0
  0
ARC
  5
10A
  8
0
  6
CONTINUOUS
 62
     7
 10
374.6103585657
 20
273.7528775232
 30
0.0
 40
1.0
 50
180.0
 51
270.0
  0
LINE
  5
10B
  8
0
  6
CONTINUOUS
 62
     7
 10
165.6103585657
 20
319.0528775232
 30
0.0
 11
194.1103585657
 21
319.0528775232
 31
0.0
  0
LINE
  5
10C
  8
0
  6
CONTINUOUS
 62
     7
 10
137.1103585657
 20
319.0528775232
 30
0.0
 11
165.6103585657
 21
319.0528775232
 31
0.0
  0
LINE
  5
10D
  8
0
  6
CONTINUOUS
 62
     7
 10
193.3103585657
 20
311.0528775232
 30
0.0
 11
137.9103585657
 21
311.0528775232
 31
0.0
  0
LINE
  5
10E
  8
0
  6
CONTINUOUS
 62
     7
 10
173.3103585657
 20
284.0528775232
 30
0.0
 11
157.9103585657
 21
284.0528775232
 31
0.0
  0
LINE
  5
10F
  8
0
  6
CONTINUOUS
 62
     7
 10
165.6103585657
 20
283.7528775232
 30
0.0
 11
173.3103585657
 21
283.7528775232
 31
0.0
  0
LINE
  5
110
  8
0
  6
CONTINUOUS
 62
     7
 10
157.9103585657
 20
283.7528775232
 30
0.0
 11
165.6103585657
 21
283.7528775232
 31
0.0
  0
LINE
  5
111
  8
0
  6
CONTINUOUS
 62
     7
 10
158.5174043152
 20
273.7528775232
 30
0.0
 11
159.5308849043
 21
273.7528775232
 31
0.0
  0
LINE
  5
112
  8
0
  6
CONTINUOUS
 62
     7
 10
159.5308849043
 20
273.7528775232
 30
0.0
 11
159.5308849043
 21
271.9528775232
 31
0.0
  0
LINE
  5
113
  8
0
  6
CONTINUOUS
 62
     7
 10
172.8103585657
 20
263.7528775232
 30
0.0
 11
160.1388322705
 21
263.7528775232
 31
0.0
  0
ARC
  5
114
  8
0
  6
CONTINUOUS
 62
     7
 10
157.4418728928
 20
273.8306212854
 30
0.0
 40
1.078337578513372
 50
268.0984564409
 51
355.8656199576
  0
LINE
  5
115
  8
0
  6
CONTINUOUS
 62
     7
 10
159.5308849043
 20
271.9528775232
 30
0.0
 11
158.011016489
 21
271.9528775232
 31
0.0
  0
LINE
  5
116
  8
0
  6
CONTINUOUS
 62
     7
 10
157.4060913833
 20
271.9528775232
 30
0.0
 11
158.011016489
 21
271.9528775232
 31
0.0
  0
LINE
  5
117
  8
0
  6
CONTINUOUS
 62
     7
 10
160.1388322705
 20
263.7528775232
 30
0.0
 11
158.011016489
 21
263.7528775232
 31
0.0
  0
LINE
  5
118
  8
0
  6
CONTINUOUS
 62
     7
 10
89.4103585657
 20
272.7528775232
 30
0.0
 11
157.4060913833
 21
272.7528775232
 31
0.0
  0
ARC
  5
119
  8
0
  6
CONTINUOUS
 62
     7
 10
89.4103585657
 20
271.9528775232
 30
0.0
 40
0.8000000000000114
 50
90.0
 51
180.0
  0
LINE
  5
11A
  8
0
  6
CONTINUOUS
 62
     7
 10
88.6103585657
 20
264.5528775232
 30
0.0
 11
88.6103585657
 21
271.9528775232
 31
0.0
  0
LINE
  5
11B
  8
0
  6
CONTINUOUS
 62
     7
 10
158.011016489
 20
263.7528775232
 30
0.0
 11
89.4103585657
 21
263.7528775232
 31
0.0
  0
ARC
  5
11C
  8
0
  6
CONTINUOUS
 62
     7
 10
89.4103585657
 20
264.5528775232
 30
0.0
 40
0.8000000000000114
 50
180.0
 51
270.0
  0
LINE
  5
11D
  8
0
  6
CONTINUOUS
 62
     7
 10
237.110358566
 20
319.0528775232
 30
0.0
 11
294.110358566
 21
319.0528775232
 31
0.0
  0
LINE
  5
11E
  8
0
  6
CONTINUOUS
 62
     7
 10
293.310358566
 20
311.0528775232
 30
0.0
 11
237.910358566
 21
311.0528775232
 31
0.0
  0
LINE
  5
11F
  8
0
  6
CONTINUOUS
 62
     7
 10
275.310358566
 20
284.0528775232
 30
0.0
 11
255.910358566
 21
284.0528775232
 31
0.0
  0
POLYLINE
  5
120
  8
0
  6
CONTINUOUS
 62
     7
 66
     1
 10
0.0
 20
0.0
 30
0.0
 70
   128
  0
VERTEX
  5
1F8
  8
0
  6
CONTINUOUS
 62
     7
 10
255.610358566
 20
79.1896855805
 30
0.0
  0
VERTEX
  5
1F9
  8
0
  6
CONTINUOUS
 62
     7
 10
255.7121441472
 20
77.852363547
 30
0.0
  0
VERTEX
  5
1FA
  8
0
  6
CONTINUOUS
 62
     7
 10
256.1603503788
 20
76.1162520643
 30
0.0
  0
VERTEX
  5
1FB
  8
0
  6
CONTINUOUS
 62
     7
 10
256.9501045281
 20
74.4912224766
 30
0.0
  0
VERTEX
  5
1FC
  8
0
  6
CONTINUOUS
 62
     7
 10
258.0528628224
 20
73.0360075872
 30
0.0
  0
VERTEX
  5
1FD
  8
0
  6
CONTINUOUS
 62
     7
 10
259.4287687038
 20
71.8032026538
 30
0.0
  0
VERTEX
  5
1FE
  8
0
  6
CONTINUOUS
 62
     7
 10
261.0280933487
 20
70.8373644586
 30
0.0
  0
VERTEX
  5
1FF
  8
0
  6
CONTINUOUS
 62
     7
 10
262.7930329976
 20
70.1734009105
 30
0.0
  0
VERTEX
  5
200
  8
0
  6
CONTINUOUS
 62
     7
 10
264.6597981329
 20
69.8353093821
 30
0.0
  0
VERTEX
  5
201
  8
0
  6
CONTINUOUS
 62
     7
 10
266.560918999
 20
69.8353093821
 30
0.0
  0
VERTEX
  5
202
  8
0
  6
CONTINUOUS
 62
     7
 10
268.4276841344
 20
70.1734009105
 30
0.0
  0
VERTEX
  5
203
  8
0
  6
CONTINUOUS
 62
     7
 10
270.1926237832
 20
70.8373644586
 30
0.0
  0
VERTEX
  5
204
  8
0
  6
CONTINUOUS
 62
     7
 10
271.7919484282
 20
71.8032026538
 30
0.0
  0
VERTEX
  5
205
  8
0
  6
CONTINUOUS
 62
     7
 10
273.1678543095
 20
73.0360075872
 30
0.0
  0
VERTEX
  5
206
  8
0
  6
CONTINUOUS
 62
     7
 10
274.2706126038
 20
74.4912224766
 30
0.0
  0
VERTEX
  5
207
  8
0
  6
CONTINUOUS
 62
     7
 10
275.0603667531
 20
76.1162520643
 30
0.0
  0
VERTEX
  5
208
  8
0
  6
CONTINUOUS
 62
     7
 10
275.5085729848
 20
77.852363547
 30
0.0
  0
VERTEX
  5
209
  8
0
  6
CONTINUOUS
 62
     7
 10
275.610358566
 20
79.1896855805
 30
0.0
  0
SEQEND
  5
233
  8
0
  6
CONTINUOUS
 62
     7
  0
LINE
  5
121
  8
0
  6
CONTINUOUS
 62
     7
 10
365.6103585657
 20
319.0528775232
 30
0.0
 11
394.1103585657
 21
319.0528775232
 31
0.0
  0
LINE
  5
122
  8
0
  6
CONTINUOUS
 62
     7
 10
337.1103585657
 20
319.0528775232
 30
0.0
 11
365.6103585657
 21
319.0528775232
 31
0.0
  0
LINE
  5
123
  8
0
  6
CONTINUOUS
 62
     7
 10
393.3103585657
 20
311.0528775232
 30
0.0
 11
337.9103585657
 21
311.0528775232
 31
0.0
  0
LINE
  5
124
  8
0
  6
CONTINUOUS
 62
     7
 10
373.3103585657
 20
284.0528775232
 30
0.0
 11
357.9103585657
 21
284.0528775232
 31
0.0
  0
LINE
  5
125
  8
0
  6
CONTINUOUS
 62
     7
 10
357.9103585657
 20
283.7528775232
 30
0.0
 11
373.3103585657
 21
283.7528775232
 31
0.0
  0
LINE
  5
126
  8
0
  6
CONTINUOUS
 62
     7
 10
371.6898322272
 20
273.7528775232
 30
0.0
 11
372.7033128163
 21
273.7528775232
 31
0.0
  0
LINE
  5
127
  8
0
  6
CONTINUOUS
 62
     7
 10
371.6898322272
 20
271.9528775232
 30
0.0
 11
371.6898322272
 21
273.7528775232
 31
0.0
  0
LINE
  5
128
  8
0
  6
CONTINUOUS
 62
     7
 10
371.081884861
 20
263.7528775232
 30
0.0
 11
358.4103585657
 21
263.7528775232
 31
0.0
  0
LINE
  5
129
  8
0
  6
CONTINUOUS
 62
     7
 10
373.2097006425
 20
271.9528775232
 30
0.0
 11
373.8146257481
 21
271.9528775232
 31
0.0
  0
LINE
  5
12A
  8
0
  6
CONTINUOUS
 62
     7
 10
373.2097006425
 20
271.9528775232
 30
0.0
 11
371.6898322272
 21
271.9528775232
 31
0.0
  0
ARC
  5
12B
  8
0
  6
CONTINUOUS
 62
     7
 10
373.7788442387
 20
273.8306212854
 30
0.0
 40
1.078337578515725
 50
184.1343800425
 51
271.9015435592
  0
LINE
  5
12C
  8
0
  6
CONTINUOUS
 62
     7
 10
373.2097006425
 20
263.7528775232
 30
0.0
 11
371.081884861
 21
263.7528775232
 31
0.0
  0
LINE
  5
12D
  8
0
  6
CONTINUOUS
 62
     7
 10
373.8146257481
 20
272.7528775232
 30
0.0
 11
441.8103585657
 21
272.7528775232
 31
0.0
  0
ARC
  5
12E
  8
0
  6
CONTINUOUS
 62
     7
 10
441.8103585657
 20
271.9528775232
 30
0.0
 40
0.8000000000000682
 50
0.0
 51
90.0
  0
LINE
  5
12F
  8
0
  6
CONTINUOUS
 62
     7
 10
442.6103585657
 20
271.9528775232
 30
0.0
 11
442.6103585657
 21
264.5528775232
 31
0.0
  0
ARC
  5
130
  8
0
  6
CONTINUOUS
 62
     7
 10
441.8103585657
 20
264.5528775232
 30
0.0
 40
0.8000000000000114
 50
270.0
 51
0.0
  0
LINE
  5
131
  8
0
  6
CONTINUOUS
 62
     7
 10
441.8103585657
 20
263.7528775232
 30
0.0
 11
373.2097006425
 21
263.7528775232
 31
0.0
  0
LINE
  5
132
  8
0
  6
CONTINUOUS
 62
     8
 10
157.6103585657
 20
273.7528775232
 30
0.0
 11
158.5174043152
 21
273.7528775232
 31
0.0
  0
LINE
  5
133
  8
0
  6
CONTINUOUS
 62
     8
 10
159.5308849043
 20
264.5528775232
 30
0.0
 11
173.6103585657
 21
264.5528775232
 31
0.0
  0
LINE
  5
134
  8
0
  6
CONTINUOUS
 62
     8
 10
159.5308849043
 20
271.9528775232
 30
0.0
 11
159.5308849043
 21
264.5528775232
 31
0.0
  0
ARC
  5
135
  8
0
  6
CONTINUOUS
 62
     8
 10
160.2500261069
 20
264.4683775232
 30
0.0
 40
0.7240886128535068
 50
173.2984027432
 51
261.1664861355
  0
LINE
  5
136
  8
0
  6
CONTINUOUS
 62
     8
 10
158.011016489
 20
264.5528775232
 30
0.0
 11
159.5308849043
 21
264.5528775232
 31
0.0
  0
LINE
  5
137
  8
0
  6
CONTINUOUS
 62
     8
 10
158.011016489
 20
264.5528775232
 30
0.0
 11
158.011016489
 21
271.9528775232
 31
0.0
  0
LINE
  5
138
  8
0
  6
CONTINUOUS
 62
     8
 10
158.011016489
 20
263.7528775232
 30
0.0
 11
158.011016489
 21
264.5528775232
 31
0.0
  0
LINE
  5
139
  8
0
  6
CONTINUOUS
 62
     8
 10
157.4060913833
 20
271.9528775232
 30
0.0
 11
89.4103585657
 21
271.9528775232
 31
0.0
  0
LINE
  5
13A
  8
0
  6
CONTINUOUS
 62
     8
 10
89.4103585657
 20
272.7528775232
 30
0.0
 11
89.4103585657
 21
271.9528775232
 31
0.0
  0
LINE
  5
13B
  8
0
  6
CONTINUOUS
 62
     8
 10
89.4103585657
 20
264.5528775232
 30
0.0
 11
158.011016489
 21
264.5528775232
 31
0.0
  0
LINE
  5
13C
  8
0
  6
CONTINUOUS
 62
     8
 10
89.4103585657
 20
271.9528775232
 30
0.0
 11
89.4103585657
 21
264.5528775232
 31
0.0
  0
LINE
  5
13D
  8
0
  6
CONTINUOUS
 62
     8
 10
88.6103585657
 20
271.9528775232
 30
0.0
 11
89.4103585657
 21
271.9528775232
 31
0.0
  0
LINE
  5
13E
  8
0
  6
CONTINUOUS
 62
     8
 10
88.6103585657
 20
264.5528775232
 30
0.0
 11
89.4103585657
 21
264.5528775232
 31
0.0
  0
LINE
  5
13F
  8
0
  6
CONTINUOUS
 62
     8
 10
89.4103585657
 20
263.7528775232
 30
0.0
 11
89.4103585657
 21
264.5528775232
 31
0.0
  0
POLYLINE
  5
140
  8
0
  6
CONTINUOUS
 62
     8
 66
     1
 10
0.0
 20
0.0
 30
0.0
 70
   128
  0
VERTEX
  5
20A
  8
0
  6
CONTINUOUS
 62
     8
 10
255.610358566
 20
85.8932803897
 30
0.0
  0
VERTEX
  5
20B
  8
0
  6
CONTINUOUS
 62
     8
 10
255.7910715933
 20
84.1149004117
 30
0.0
  0
VERTEX
  5
20C
  8
0
  6
CONTINUOUS
 62
     8
 10
256.3266792358
 20
82.4007957197
 30
0.0
  0
VERTEX
  5
20D
  8
0
  6
CONTINUOUS
 62
     8
 10
257.1978232377
 20
80.8129185231
 30
0.0
  0
VERTEX
  5
20E
  8
0
  6
CONTINUOUS
 62
     8
 10
258.3730181849
 20
79.4086588412
 30
0.0
  0
VERTEX
  5
20F
  8
0
  6
CONTINUOUS
 62
     8
 10
259.8097894703
 20
78.2387702776
 30
0.0
  0
VERTEX
  5
210
  8
0
  6
CONTINUOUS
 62
     8
 10
261.4562084359
 20
77.3455356531
 30
0.0
  0
VERTEX
  5
211
  8
0
  6
CONTINUOUS
 62
     8
 10
263.2527692109
 20
76.7612387943
 30
0.0
  0
VERTEX
  5
212
  8
0
  6
CONTINUOUS
 62
     8
 10
265.1345394077
 20
76.506997712
 30
0.0
  0
VERTEX
  5
213
  8
0
  6
CONTINUOUS
 62
     8
 10
267.0335069487
 20
76.5920013414
 30
0.0
  0
VERTEX
  5
214
  8
0
  6
CONTINUOUS
 62
     8
 10
268.8810381991
 20
77.0131774299
 30
0.0
  0
VERTEX
  5
215
  8
0
  6
CONTINUOUS
 62
     8
 10
270.610358566
 20
77.7553035762
 30
0.0
  0
VERTEX
  5
216
  8
0
  6
CONTINUOUS
 62
     8
 10
272.1589659054
 20
78.7915574079
 30
0.0
  0
VERTEX
  5
217
  8
0
  6
CONTINUOUS
 62
     8
 10
273.4708895134
 20
80.0844860115
 30
0.0
  0
VERTEX
  5
218
  8
0
  6
CONTINUOUS
 62
     8
 10
274.4987130525
 20
81.5873595786
 30
0.0
  0
VERTEX
  5
219
  8
0
  6
CONTINUOUS
 62
     8
 10
275.2052883021
 20
83.2458603427
 30
0.0
  0
VERTEX
  5
21A
  8
0
  6
CONTINUOUS
 62
     8
 10
275.5650777917
 20
85.0000457652
 30
0.0
  0
VERTEX
  5
21B
  8
0
  6
CONTINUOUS
 62
     8
 10
275.610358566
 20
85.8932803897
 30
0.0
  0
SEQEND
  5
234
  8
0
  6
CONTINUOUS
 62
     8
  0
LINE
  5
141
  8
0
  6
CONTINUOUS
 62
     8
 10
372.7033128163
 20
273.7528775232
 30
0.0
 11
373.6103585657
 21
273.7528775232
 31
0.0
  0
LINE
  5
142
  8
0
  6
CONTINUOUS
 62
     8
 10
371.6898322272
 20
264.5528775232
 30
0.0
 11
371.6898322272
 21
271.9528775232
 31
0.0
  0
LINE
  5
143
  8
0
  6
CONTINUOUS
 62
     8
 10
357.6103585657
 20
264.5528775232
 30
0.0
 11
371.6898322272
 21
264.5528775232
 31
0.0
  0
ARC
  5
144
  8
0
  6
CONTINUOUS
 62
     8
 10
370.9706910246
 20
264.4683775232
 30
0.0
 40
0.7240886128535002
 50
278.8335138645
 51
6.7015972568
  0
LINE
  5
145
  8
0
  6
CONTINUOUS
 62
     8
 10
371.6898322272
 20
264.5528775232
 30
0.0
 11
373.2097006425
 21
264.5528775232
 31
0.0
  0
LINE
  5
146
  8
0
  6
CONTINUOUS
 62
     8
 10
373.2097006425
 20
271.9528775232
 30
0.0
 11
373.2097006425
 21
264.5528775232
 31
0.0
  0
LINE
  5
147
  8
0
  6
CONTINUOUS
 62
     8
 10
373.2097006425
 20
264.5528775232
 30
0.0
 11
373.2097006425
 21
263.7528775232
 31
0.0
  0
LINE
  5
148
  8
0
  6
CONTINUOUS
 62
     8
 10
441.8103585657
 20
272.7528775232
 30
0.0
 11
441.8103585657
 21
271.9528775232
 31
0.0
  0
LINE
  5
149
  8
0
  6
CONTINUOUS
 62
     8
 10
441.8103585657
 20
271.9528775232
 30
0.0
 11
373.8146257481
 21
271.9528775232
 31
0.0
  0
LINE
  5
14A
  8
0
  6
CONTINUOUS
 62
     8
 10
441.8103585657
 20
264.5528775232
 30
0.0
 11
441.8103585657
 21
271.9528775232
 31
0.0
  0
LINE
  5
14B
  8
0
  6
CONTINUOUS
 62
     8
 10
373.2097006425
 20
264.5528775232
 30
0.0
 11
441.8103585657
 21
264.5528775232
 31
0.0
  0
LINE
  5
14C
  8
0
  6
CONTINUOUS
 62
     8
 10
441.8103585657
 20
271.9528775232
 30
0.0
 11
442.6103585657
 21
271.9528775232
 31
0.0
  0
LINE
  5
14D
  8
0
  6
CONTINUOUS
 62
     8
 10
441.8103585657
 20
264.5528775232
 30
0.0
 11
442.6103585657
 21
264.5528775232
 31
0.0
  0
LINE
  5
14E
  8
0
  6
CONTINUOUS
 62
     8
 10
441.8103585657
 20
264.5528775232
 30
0.0
 11
441.8103585657
 21
263.7528775232
 31
0.0
  0
LINE
  5
14F
  8
0
  6
CONTINUOUS
 62
     7
 10
514.3126204847
 20
405.3309964078
 30
0.0
 11
521.5126204847
 21
405.3309964078
 31
0.0
  0
LINE
  5
150
  8
0
  6
CONTINUOUS
 62
     7
 10
521.5126204847
 20
462.3309964078
 30
0.0
 11
514.3126204847
 21
462.3309964078
 31
0.0
  0
ARC
  5
151
  8
0
  6
CONTINUOUS
 62
     7
 10
521.5126204847
 20
461.5309964078
 30
0.0
 40
0.8000000000000682
 50
0.0
 51
90.0
  0
ARC
  5
152
  8
0
  6
CONTINUOUS
 62
     7
 10
521.5126204847
 20
406.1309964078
 30
0.0
 40
0.8000000000000682
 50
270.0
 51
0.0
  0
LINE
  5
153
  8
0
  6
CONTINUOUS
 62
     7
 10
561.5144231998
 20
429.3233118889
 30
0.0
 11
561.469118295
 21
429.3309964032
 31
0.0
  0
LINE
  5
154
  8
0
  6
CONTINUOUS
 62
     7
 10
561.4691181246
 20
438.3309964032
 30
0.0
 11
561.5144232728
 21
438.3386809602
 31
0.0
  0
ARC
  5
155
  8
0
  6
CONTINUOUS
 62
     7
 10
522.8126204847
 20
442.3309964078
 30
0.0
 40
0.5000000000001137
 50
180.0
 51
270.0
  0
ARC
  5
156
  8
0
  6
CONTINUOUS
 62
     7
 10
522.8126204847
 20
425.3309964078
 30
0.0
 40
0.5000000000001137
 50
90.0
 51
180.0
  0
LINE
  5
157
  8
0
  6
CONTINUOUS
 62
     7
 10
549.9126204847
 20
425.8309964032
 30
0.0
 11
568.8126204847
 21
425.8309964032
 31
0.0
  0
LINE
  5
158
  8
0
  6
CONTINUOUS
 62
     7
 10
568.8126204847
 20
441.8309964032
 30
0.0
 11
549.9126204847
 21
441.8309964032
 31
0.0
  0
ARC
  5
159
  8
0
  6
CONTINUOUS
 62
     7
 10
549.9126204847
 20
426.1309964032
 30
0.0
 40
0.3000000000001819
 50
180.0
 51
270.0
  0
ARC
  5
15A
  8
0
  6
CONTINUOUS
 62
     7
 10
549.9126204847
 20
441.5309964032
 30
0.0
 40
0.3000000000001819
 50
90.0
 51
180.0
  0
LINE
  5
15B
  8
0
  6
CONTINUOUS
 62
     7
 10
522.8126204847
 20
425.8309964078
 30
0.0
 11
549.0126204847
 21
425.8309964078
 31
0.0
  0
LINE
  5
15C
  8
0
  6
CONTINUOUS
 62
     7
 10
549.0126204847
 20
441.8309964078
 30
0.0
 11
522.8126204847
 21
441.8309964078
 31
0.0
  0
ARC
  5
15D
  8
0
  6
CONTINUOUS
 62
     7
 10
549.0126204847
 20
441.5309964078
 30
0.0
 40
0.3000000000000682
 50
0.0
 51
90.0
  0
ARC
  5
15E
  8
0
  6
CONTINUOUS
 62
     7
 10
549.0126204847
 20
426.1309964078
 30
0.0
 40
0.3000000000000114
 50
270.0
 51
0.0
  0
ARC
  5
15F
  8
0
  6
CONTINUOUS
 62
     7
 10
549.6126204847
 20
439.9309964078
 30
0.0
 40
0.2999999999999545
 50
180.0
 51
270.0
  0
ARC
  5
160
  8
0
  6
CONTINUOUS
 62
     7
 10
549.6126204847
 20
427.7309964078
 30
0.0
 40
0.3000000000000114
 50
90.0
 51
180.0
  0
ARC
  5
161
  8
0
  6
CONTINUOUS
 62
     7
 10
568.8126204847
 20
441.0309964032
 30
0.0
 40
0.8000000000000682
 50
0.0
 51
90.0
  0
ARC
  5
162
  8
0
  6
CONTINUOUS
 62
     7
 10
568.8126204847
 20
426.6309964032
 30
0.0
 40
0.8000000000000682
 50
270.0
 51
0.0
  0
ARC
  5
163
  8
0
  6
CONTINUOUS
 62
     7
 10
523.1126204847
 20
423.0309964053
 30
0.0
 40
0.8000000000000682
 50
90.0
 51
180.0
  0
ARC
  5
164
  8
0
  6
CONTINUOUS
 62
     7
 10
523.1126204847
 20
444.6309964053
 30
0.0
 40
0.8000000000000682
 50
180.0
 51
270.0
  0
LINE
  5
165
  8
0
  6
CONTINUOUS
 62
     7
 10
523.1126204847
 20
423.8309964053
 30
0.0
 11
549.0126204847
 21
423.8309964053
 31
0.0
  0
LINE
  5
166
  8
0
  6
CONTINUOUS
 62
     7
 10
549.0126204847
 20
443.8309964053
 30
0.0
 11
523.1126204847
 21
443.8309964053
 31
0.0
  0
ARC
  5
167
  8
0
  6
CONTINUOUS
 62
     7
 10
549.0126204847
 20
424.1309964053
 30
0.0
 40
0.3000000000000114
 50
270.0
 51
360.0
  0
ARC
  5
168
  8
0
  6
CONTINUOUS
 62
     7
 10
549.0126204847
 20
443.5309964053
 30
0.0
 40
0.3000000000000682
 50
0.0
 51
90.0
  0
ARC
  5
169
  8
0
  6
CONTINUOUS
 62
     7
 10
549.7126204847
 20
443.4309964053
 30
0.0
 40
0.3999999999999773
 50
90.0
 51
180.0
  0
ARC
  5
16A
  8
0
  6
CONTINUOUS
 62
     7
 10
549.7126204847
 20
424.2309964053
 30
0.0
 40
0.4000000000000341
 50
180.0
 51
270.0
  0
LINE
  5
16B
  8
0
  6
CONTINUOUS
 62
     7
 10
549.7126204847
 20
423.8309964053
 30
0.0
 11
691.0906603711
 21
423.8309964053
 31
0.0
  0
LINE
  5
16C
  8
0
  6
CONTINUOUS
 62
     7
 10
691.0906603711
 20
443.8309964053
 30
0.0
 11
549.7126204847
 21
443.8309964053
 31
0.0
  0
ARC
  5
16D
  8
0
  6
CONTINUOUS
 62
     7
 10
691.0906603711
 20
373.8309964053
 30
0.0
 40
50.00000000000004
 50
20.0
 51
90.0
  0
ARC
  5
16E
  8
0
  6
CONTINUOUS
 62
     7
 10
691.0906603711
 20
373.8309964053
 30
0.0
 40
70.00000000000006
 50
20.0
 51
90.0
  0
LINE
  5
16F
  8
0
  6
CONTINUOUS
 62
     7
 10
763.5727386353
 20
379.3544310707
 30
0.0
 11
756.8691438261
 21
397.7724064381
 31
0.0
  0
LINE
  5
170
  8
0
  6
CONTINUOUS
 62
     7
 10
738.0752914104
 20
390.9320035716
 30
0.0
 11
744.7788862196
 21
372.5140282042
 31
0.0
  0
ARC
  5
171
  8
0
  6
CONTINUOUS
 62
     7
 10
745.1547632679
 20
372.6508362616
 30
0.0
 40
0.4000000000000126
 50
200.0
 51
287.9995981046
  0
ARC
  5
172
  8
0
  6
CONTINUOUS
 62
     7
 10
763.196861587
 20
379.2176230134
 30
0.0
 40
0.3999999999999725
 50
292.0004018954
 51
20.0
  0
LINE
  5
173
  8
0
  6
CONTINUOUS
 62
     7
 10
560.6126204847
 20
430.1309964032
 30
0.0
 11
560.6126204847
 21
437.5309964032
 31
0.0
  0
ARC
  5
174
  8
0
  6
CONTINUOUS
 62
     7
 10
561.4126204847
 20
430.1309964032
 30
0.0
 40
0.8000000000000114
 50
180.0
 51
270.0
  0
LINE
  5
175
  8
0
  6
CONTINUOUS
 62
     7
 10
568.8126204847
 20
429.3309964032
 30
0.0
 11
561.4126204847
 21
429.3309964032
 31
0.0
  0
ARC
  5
176
  8
0
  6
CONTINUOUS
 62
     7
 10
561.4126204847
 20
437.5309964032
 30
0.0
 40
0.7999999999999545
 50
90.0
 51
180.0
  0
LINE
  5
177
  8
0
  6
CONTINUOUS
 62
     7
 10
561.4126204847
 20
438.3309964032
 30
0.0
 11
568.8126204847
 21
438.3309964032
 31
0.0
  0
LINE
  5
178
  8
0
  6
CONTINUOUS
 62
     7
 10
569.6126204847
 20
437.5309964032
 30
0.0
 11
569.6126204847
 21
430.1309964032
 31
0.0
  0
ARC
  5
179
  8
0
  6
CONTINUOUS
 62
     7
 10
568.8126204847
 20
437.5309964032
 30
0.0
 40
0.8000000000000682
 50
0.0
 51
90.0
  0
ARC
  5
17A
  8
0
  6
CONTINUOUS
 62
     7
 10
568.8126204847
 20
430.1309964032
 30
0.0
 40
0.8000000000000682
 50
270.0
 51
0.0
  0
LINE
  5
17B
  8
0
  6
CONTINUOUS
 62
     7
 10
514.3126204847
 20
405.3309964078
 30
0.0
 11
514.3126204847
 21
462.3309964078
 31
0.0
  0
LINE
  5
17C
  8
0
  6
CONTINUOUS
 62
     7
 10
522.3126204847
 20
461.5309963966
 30
0.0
 11
522.3126204847
 21
406.1309964078
 31
0.0
  0
LINE
  5
17D
  8
0
  6
CONTINUOUS
 62
     7
 10
561.4126204847
 20
428.6309964032
 30
0.0
 11
559.6126204847
 21
428.6309964032
 31
0.0
  0
LINE
  5
17E
  8
0
  6
CONTINUOUS
 62
     7
 10
559.6126204847
 20
428.6309964032
 30
0.0
 11
559.6126204847
 21
430.1309964032
 31
0.0
  0
LINE
  5
17F
  8
0
  6
CONTINUOUS
 62
     7
 10
559.6126204847
 20
437.5309964032
 30
0.0
 11
559.6126204847
 21
439.0309964032
 31
0.0
  0
LINE
  5
180
  8
0
  6
CONTINUOUS
 62
     7
 10
559.6126204847
 20
439.0309964032
 30
0.0
 11
561.4126204847
 21
439.0309964032
 31
0.0
  0
LINE
  5
181
  8
0
  6
CONTINUOUS
 62
     7
 10
549.6126204847
 20
426.1309973307
 30
0.0
 11
549.6126204847
 21
441.5309964032
 31
0.0
  0
LINE
  5
182
  8
0
  6
CONTINUOUS
 62
     7
 10
549.3126204847
 20
441.5309954803
 30
0.0
 11
549.3126204847
 21
426.1309964078
 31
0.0
  0
LINE
  5
183
  8
0
  6
CONTINUOUS
 62
     7
 10
569.6126204847
 20
438.5109964032
 30
0.0
 11
569.6126204847
 21
437.5309964032
 31
0.0
  0
LINE
  5
184
  8
0
  6
CONTINUOUS
 62
     7
 10
569.6126204847
 20
430.1309964032
 30
0.0
 11
569.6126204847
 21
429.1509964032
 31
0.0
  0
LINE
  5
185
  8
0
  6
CONTINUOUS
 62
     7
 10
569.6126204847
 20
429.1509964032
 30
0.0
 11
569.6126204847
 21
426.6309964032
 31
0.0
  0
LINE
  5
186
  8
0
  6
CONTINUOUS
 62
     7
 10
569.6126204847
 20
441.0309964032
 30
0.0
 11
569.6126204847
 21
438.5109964032
 31
0.0
  0
LINE
  5
187
  8
0
  6
CONTINUOUS
 62
     7
 10
549.3126204847
 20
443.5309964053
 30
0.0
 11
549.3126204847
 21
441.5309964078
 31
0.0
  0
LINE
  5
188
  8
0
  6
CONTINUOUS
 62
     7
 10
549.3126204847
 20
426.1309964078
 30
0.0
 11
549.3126204847
 21
424.1309964053
 31
0.0
  0
LINE
  5
189
  8
0
  6
CONTINUOUS
 62
     7
 10
745.2783673972
 20
372.270412788
 30
0.0
 11
763.3467068258
 21
378.8467505226
 31
0.0
  0
LINE
  5
18A
  8
0
  6
CONTINUOUS
 62
     8
 10
568.8126204847
 20
437.5309964032
 30
0.0
 11
561.4126204847
 21
437.5309964032
 31
0.0
  0
LINE
  5
18B
  8
0
  6
CONTINUOUS
 62
     8
 10
568.8126204847
 20
430.1309964032
 30
0.0
 11
568.8126204847
 21
437.5309964032
 31
0.0
  0
LINE
  5
18C
  8
0
  6
CONTINUOUS
 62
     8
 10
561.4126204847
 20
430.1309964032
 30
0.0
 11
568.8126204847
 21
430.1309964032
 31
0.0
  0
LINE
  5
18D
  8
0
  6
CONTINUOUS
 62
     8
 10
561.4126204847
 20
437.5309964032
 30
0.0
 11
561.4126204847
 21
430.1309964032
 31
0.0
  0
LINE
  5
18E
  8
0
  6
CONTINUOUS
 62
     8
 10
560.6126204847
 20
437.5309964032
 30
0.0
 11
561.4126204847
 21
437.5309964032
 31
0.0
  0
LINE
  5
18F
  8
0
  6
CONTINUOUS
 62
     8
 10
560.6126204847
 20
430.1309964032
 30
0.0
 11
561.4126204847
 21
430.1309964032
 31
0.0
  0
LINE
  5
190
  8
0
  6
CONTINUOUS
 62
     8
 10
561.4126204847
 20
429.3309964032
 30
0.0
 11
561.4126204847
 21
430.1309964032
 31
0.0
  0
LINE
  5
191
  8
0
  6
CONTINUOUS
 62
     8
 10
568.8126204847
 20
429.3309964032
 30
0.0
 11
568.8126204847
 21
430.1309964032
 31
0.0
  0
LINE
  5
192
  8
0
  6
CONTINUOUS
 62
     8
 10
561.4126204847
 20
437.5309964032
 30
0.0
 11
561.4126204847
 21
438.3309964032
 31
0.0
  0
LINE
  5
193
  8
0
  6
CONTINUOUS
 62
     8
 10
568.8126204847
 20
437.5309964032
 30
0.0
 11
568.8126204847
 21
438.3309964032
 31
0.0
  0
LINE
  5
194
  8
0
  6
CONTINUOUS
 62
     8
 10
568.8126204847
 20
437.5309964032
 30
0.0
 11
569.6126204847
 21
437.5309964032
 31
0.0
  0
LINE
  5
195
  8
0
  6
CONTINUOUS
 62
     8
 10
568.8126204847
 20
430.1309964032
 30
0.0
 11
569.6126204847
 21
430.1309964032
 31
0.0
  0
LINE
  5
196
  8
0
  6
CONTINUOUS
 62
     8
 10
559.6126204847
 20
430.1309964032
 30
0.0
 11
559.6126204847
 21
437.5309964032
 31
0.0
  0
LINE
  5
197
  8
0
  6
CONTINUOUS
 62
     8
 10
568.8126204847
 20
428.6309964032
 30
0.0
 11
561.4126204847
 21
428.6309964032
 31
0.0
  0
LINE
  5
198
  8
0
  6
CONTINUOUS
 62
     8
 10
568.8126204847
 20
439.0309964032
 30
0.0
 11
568.8126204847
 21
441.8309964032
 31
0.0
  0
LINE
  5
199
  8
0
  6
CONTINUOUS
 62
     8
 10
568.8126204847
 20
425.8309964032
 30
0.0
 11
568.8126204847
 21
428.6309964032
 31
0.0
  0
LINE
  5
19A
  8
0
  6
CONTINUOUS
 62
     8
 10
561.4126204847
 20
439.0309964032
 30
0.0
 11
568.8126204847
 21
439.0309964032
 31
0.0
  0
LINE
  5
19B
  8
0
  6
CONTINUOUS
 62
     8
 10
568.8126204847
 20
428.6309964032
 30
0.0
 11
568.8126204847
 21
429.3309964032
 31
0.0
  0
LINE
  5
19C
  8
0
  6
CONTINUOUS
 62
     8
 10
568.8126204847
 20
438.3309964032
 30
0.0
 11
568.8126204847
 21
439.0309964032
 31
0.0
  0
POLYLINE
  5
19D
  8
0
  6
CONTINUOUS
 62
     8
 66
     1
 10
0.0
 20
0.0
 30
0.0
 70
   128
  0
VERTEX
  5
21C
  8
0
  6
CONTINUOUS
 62
     8
 10
569.6126204847
 20
438.5109964032
 30
0.0
  0
VERTEX
  5
21D
  8
0
  6
CONTINUOUS
 62
     8
 10
569.5972487091
 20
438.6124433707
 30
0.0
  0
VERTEX
  5
21E
  8
0
  6
CONTINUOUS
 62
     8
 10
569.5517241108
 20
438.709991788
 30
0.0
  0
VERTEX
  5
21F
  8
0
  6
CONTINUOUS
 62
     8
 10
569.4777961746
 20
438.7998929244
 30
0.0
  0
VERTEX
  5
220
  8
0
  6
CONTINUOUS
 62
     8
 10
569.3783059097
 20
438.8786919294
 30
0.0
  0
VERTEX
  5
221
  8
0
  6
CONTINUOUS
 62
     8
 10
569.2570766712
 20
438.9433606016
 30
0.0
  0
VERTEX
  5
222
  8
0
  6
CONTINUOUS
 62
     8
 10
569.1187672306
 20
438.9914137601
 30
0.0
  0
VERTEX
  5
223
  8
0
  6
CONTINUOUS
 62
     8
 10
568.9686927424
 20
439.021004749
 30
0.0
  0
VERTEX
  5
224
  8
0
  6
CONTINUOUS
 62
     8
 10
568.8126204847
 20
439.0309964032
 30
0.0
  0
SEQEND
  5
235
  8
0
  6
CONTINUOUS
 62
     8
  0
POLYLINE
  5
19E
  8
0
  6
CONTINUOUS
 62
     8
 66
     1
 10
0.0
 20
0.0
 30
0.0
 70
   128
  0
VERTEX
  5
225
  8
0
  6
CONTINUOUS
 62
     8
 10
569.6126204847
 20
429.1509964032
 30
0.0
  0
VERTEX
  5
226
  8
0
  6
CONTINUOUS
 62
     8
 10
569.5972487091
 20
429.0495494358
 30
0.0
  0
VERTEX
  5
227
  8
0
  6
CONTINUOUS
 62
     8
 10
569.5517241108
 20
428.9520010184
 30
0.0
  0
VERTEX
  5
228
  8
0
  6
CONTINUOUS
 62
     8
 10
569.4777961746
 20
428.862099882
 30
0.0
  0
VERTEX
  5
229
  8
0
  6
CONTINUOUS
 62
     8
 10
569.3783059097
 20
428.783300877
 30
0.0
  0
VERTEX
  5
22A
  8
0
  6
CONTINUOUS
 62
     8
 10
569.2570766712
 20
428.7186322048
 30
0.0
  0
VERTEX
  5
22B
  8
0
  6
CONTINUOUS
 62
     8
 10
569.1187672306
 20
428.6705790463
 30
0.0
  0
VERTEX
  5
22C
  8
0
  6
CONTINUOUS
 62
     8
 10
568.9686927424
 20
428.6409880574
 30
0.0
  0
VERTEX
  5
22D
  8
0
  6
CONTINUOUS
 62
     8
 10
568.8126204847
 20
428.6309964032
 30
0.0
  0
SEQEND
  5
236
  8
0
  6
CONTINUOUS
 62
     8
  0
LINE
  5
19F
  8
0
  6
CONTINUOUS
 62
     8
 10
744.7788862196
 20
372.5140282042
 30
0.0
 11
763.5727386353
 21
379.3544310707
 31
0.0
  0
ENDSEC
  0
EOF
