  0
SECTION
  2
HEADER
  9
$ACADVER
  1
AC1015
  9
$ACADMAINTVER
 70
     6
  9
$DWGCODEPAGE
  3
ANSI_1252
  9
$INSBASE
 10
0.0
 20
0.0
 30
0.0
  9
$EXTMIN
 10
0.0
 20
0.0
 30
0.0
  9
$EXTMAX
 10
594.0
 20
841.0
 30
0.0
  9
$LIMMIN
 10
0.0
 20
0.0
  9
$LIMMAX
 10
594.0
 20
841.0
  9
$ORTHOMODE
 70
     0
  9
$REGENMODE
 70
     1
  9
$FILLMODE
 70
     1
  9
$QTEXTMODE
 70
     0
  9
$MIRRTEXT
 70
     1
  9
$LTSCALE
 40
1.0
  9
$ATTMODE
 70
     1
  9
$TEXTSIZE
 40
10.0
  9
$TRACEWID
 40
1.0
  9
$TEXTSTYLE
  7
Standard
  9
$CLAYER
  8
0
  9
$CELTYPE
  6
ByLayer
  9
$CECOLOR
 62
   256
  9
$CELTSCALE
 40
1.0
  9
$DISPSILH
 70
     0
  9
$DIMSCALE
 40
1.0
  9
$DIMASZ
 40
2.5
  9
$DIMEXO
 40
0.0
  9
$DIMDLI
 40
3.75
  9
$DIMRND
 40
0.0
  9
$DIMDLE
 40
0.0
  9
$DIMEXE
 40
1.0
  9
$DIMTP
 40
0.0
  9
$DIMTM
 40
0.0
  9
$DIMTXT
 40
3.5
  9
$DIMCEN
 40
2.5
  9
$DIMTSZ
 40
0.0
  9
$DIMTOL
 70
     0
  9
$DIMLIM
 70
     0
  9
$DIMTIH
 70
     1
  9
$DIMTOH
 70
     1
  9
$DIMSE1
 70
     0
  9
$DIMSE2
 70
     0
  9
$DIMTAD
 70
     1
  9
$DIMZIN
 70
     0
  9
$DIMBLK
  1

  9
$DIMASO
 70
     1
  9
$DIMSHO
 70
     1
  9
$DIMPOST
  1

  9
$DIMAPOST
  1

  9
$DIMALT
 70
     0
  9
$DIMALTD
 70
     3
  9
$DIMALTF
 40
0.0393700787
  9
$DIMLFAC
 40
1.0
  9
$DIMTOFL
 70
     1
  9
$DIMTVP
 40
0.0
  9
$DIMTIX
 70
     0
  9
$DIMSOXD
 70
     0
  9
$DIMSAH
 70
     0
  9
$DIMBLK1
  1

  9
$DIMBLK2
  1

  9
$DIMSTYLE
  2
ISO-25
  9
$DIMCLRD
 70
     0
  9
$DIMCLRE
 70
     0
  9
$DIMCLRT
 70
     0
  9
$DIMTFAC
 40
1.0
  9
$DIMGAP
 40
1.5
  9
$DIMJUST
 70
     0
  9
$DIMSD1
 70
     0
  9
$DIMSD2
 70
     0
  9
$DIMTOLJ
 70
     0
  9
$DIMTZIN
 70
     0
  9
$DIMALTZ
 70
     0
  9
$DIMALTTZ
 70
     0
  9
$DIMUPT
 70
     0
  9
$DIMDEC
 70
     2
  9
$DIMTDEC
 70
     2
  9
$DIMALTU
 70
     2
  9
$DIMALTTD
 70
     3
  9
$DIMTXSTY
  7
Standard
  9
$DIMAUNIT
 70
     0
  9
$DIMADEC
 70
     2
  9
$DIMALTRND
 40
0.0
  9
$DIMAZIN
 70
     0
  9
$DIMDSEP
 70
    44
  9
$DIMATFIT
 70
     3
  9
$DIMFRAC
 70
     0
  9
$DIMLDRBLK
  1

  9
$DIMLUNIT
 70
     2
  9
$DIMLWD
 70
    -2
  9
$DIMLWE
 70
    -2
  9
$DIMTMOVE
 70
     0
  9
$LUNITS
 70
     2
  9
$LUPREC
 70
     2
  9
$SKETCHINC
 40
1.0
  9
$FILLETRAD
 40
10.0
  9
$AUNITS
 70
     0
  9
$AUPREC
 70
     2
  9
$MENU
  1
.
  9
$ELEVATION
 40
0.0
  9
$PELEVATION
 40
0.0
  9
$THICKNESS
 40
0.0
  9
$LIMCHECK
 70
     0
  9
$CHAMFERA
 40
0.0
  9
$CHAMFERB
 40
0.0
  9
$CHAMFERC
 40
0.0
  9
$CHAMFERD
 40
0.0
  9
$SKPOLY
 70
     0
  9
$TDCREATE
 40
2460006.285037893
  9
$TDUCREATE
 40
2460006.243371227
  9
$TDUPDATE
 40
2460006.285039838
  9
$TDUUPDATE
 40
2460006.243373171
  9
$TDINDWG
 40
0.0000000116
  9
$TDUSRTIMER
 40
0.0000000116
  9
$USRTIMER
 70
     1
  9
$ANGBASE
 50
0.0
  9
$ANGDIR
 70
     0
  9
$PDMODE
 70
     0
  9
$PDSIZE
 40
-1.0
  9
$PLINEWID
 40
0.0
  9
$SPLFRAME
 70
     0
  9
$SPLINETYPE
 70
     6
  9
$SPLINESEGS
 70
     8
  9
$HANDSEED
  5
144
  9
$SURFTAB1
 70
     6
  9
$SURFTAB2
 70
     6
  9
$SURFTYPE
 70
     6
  9
$SURFU
 70
     6
  9
$SURFV
 70
     6
  9
$UCSBASE
  2

  9
$UCSNAME
  2

  9
$UCSORG
 10
0.0
 20
0.0
 30
0.0
  9
$UCSXDIR
 10
1.0
 20
0.0
 30
0.0
  9
$UCSYDIR
 10
0.0
 20
1.0
 30
0.0
  9
$UCSORTHOREF
  2

  9
$UCSORTHOVIEW
 70
     0
  9
$UCSORGTOP
 10
0.0
 20
0.0
 30
0.0
  9
$UCSORGBOTTOM
 10
0.0
 20
0.0
 30
0.0
  9
$UCSORGLEFT
 10
0.0
 20
0.0
 30
0.0
  9
$UCSORGRIGHT
 10
0.0
 20
0.0
 30
0.0
  9
$UCSORGFRONT
 10
0.0
 20
0.0
 30
0.0
  9
$UCSORGBACK
 10
0.0
 20
0.0
 30
0.0
  9
$PUCSBASE
  2

  9
$PUCSNAME
  2

  9
$PUCSORG
 10
0.0
 20
0.0
 30
0.0
  9
$PUCSXDIR
 10
1.0
 20
0.0
 30
0.0
  9
$PUCSYDIR
 10
0.0
 20
1.0
 30
0.0
  9
$PUCSORTHOREF
  2

  9
$PUCSORTHOVIEW
 70
     0
  9
$PUCSORGTOP
 10
0.0
 20
0.0
 30
0.0
  9
$PUCSORGBOTTOM
 10
0.0
 20
0.0
 30
0.0
  9
$PUCSORGLEFT
 10
0.0
 20
0.0
 30
0.0
  9
$PUCSORGRIGHT
 10
0.0
 20
0.0
 30
0.0
  9
$PUCSORGFRONT
 10
0.0
 20
0.0
 30
0.0
  9
$PUCSORGBACK
 10
0.0
 20
0.0
 30
0.0
  9
$USERI1
 70
     0
  9
$USERI2
 70
     0
  9
$USERI3
 70
     0
  9
$USERI4
 70
     0
  9
$USERI5
 70
     0
  9
$USERR1
 40
0.0
  9
$USERR2
 40
0.0
  9
$USERR3
 40
0.0
  9
$USERR4
 40
0.0
  9
$USERR5
 40
0.0
  9
$WORLDVIEW
 70
     1
  9
$SHADEDGE
 70
     3
  9
$SHADEDIF
 70
    70
  9
$TILEMODE
 70
     1
  9
$MAXACTVP
 70
    64
  9
$PINSBASE
 10
0.0
 20
0.0
 30
0.0
  9
$PLIMCHECK
 70
     0
  9
$PEXTMIN
 10
1.0000000000E+20
 20
1.0000000000E+20
 30
1.0000000000E+20
  9
$PEXTMAX
 10
-1.0000000000E+20
 20
-1.0000000000E+20
 30
-1.0000000000E+20
  9
$PLIMMIN
 10
0.0
 20
0.0
  9
$PLIMMAX
 10
420.0
 20
297.0
  9
$UNITMODE
 70
     0
  9
$VISRETAIN
 70
     1
  9
$PLINEGEN
 70
     0
  9
$PSLTSCALE
 70
     1
  9
$TREEDEPTH
 70
  3020
  9
$CMLSTYLE
  2
Standard
  9
$CMLJUST
 70
     0
  9
$CMLSCALE
 40
20.0
  9
$PROXYGRAPHICS
 70
     1
  9
$MEASUREMENT
 70
     1
  9
$CELWEIGHT
370
    -1
  9
$ENDCAPS
280
     0
  9
$JOINSTYLE
280
     0
  9
$LWDISPLAY
290
     1
  9
$INSUNITS
 70
     4
  9
$HYPERLINKBASE
  1

  9
$STYLESHEET
  1

  9
$XEDIT
290
     1
  9
$CEPSNTYPE
380
     0
  9
$PSTYLEMODE
290
     1
  9
$FINGERPRINTGUID
  2
{4473bfbc-142e-42a0-a37f-e3c34ba81c66}
  9
$VERSIONGUID
  2
{FAEB1C32-E019-11D5-929B-00C0DF256EC4}
  9
$EXTNAMES
290
     1
  9
$PSVPSCALE
 40
0.0
  9
$OLESTARTUP
290
     0
  0
ENDSEC
  0
SECTION
  2
CLASSES
  0
CLASS
  1
ACDBDICTIONARYWDFLT
  2
AcDbDictionaryWithDefault
  3
ObjectDBX Classes
 90
        0
280
     0
281
     0
  0
CLASS
  1
VISUALSTYLE
  2
AcDbVisualStyle
  3
ObjectDBX Classes
 90
     4095
280
     0
281
     0
  0
CLASS
  1
MATERIAL
  2
AcDbMaterial
  3
ObjectDBX Classes
 90
     1153
280
     0
281
     0
  0
CLASS
  1
SCALE
  2
AcDbScale
  3
ObjectDBX Classes
 90
     1153
280
     0
281
     0
  0
CLASS
  1
TABLESTYLE
  2
AcDbTableStyle
  3
ObjectDBX Classes
 90
     4095
280
     0
281
     0
  0
CLASS
  1
MLEADERSTYLE
  2
AcDbMLeaderStyle
  3
ACDB_MLEADERSTYLE_CLASS
 90
     4095
280
     0
281
     0
  0
CLASS
  1
SUN
  2
AcDbSun
  3
SCENEOE
 90
     1153
280
     0
281
     0
  0
CLASS
  1
ACDBPLACEHOLDER
  2
AcDbPlaceHolder
  3
ObjectDBX Classes
 90
        0
280
     0
281
     0
  0
CLASS
  1
LAYOUT
  2
AcDbLayout
  3
ObjectDBX Classes
 90
        0
280
     0
281
     0
  0
ENDSEC
  0
SECTION
  2
TABLES
  0
TABLE
  2
VPORT
  5
8
330
0
100
AcDbSymbolTable
 70
     1
  0
VPORT
  5
29
330
8
100
AcDbSymbolTableRecord
100
AcDbViewportTableRecord
  2
*Active
 70
     0
 10
0.0
 20
0.0
 11
1.0
 21
1.0
 12
297.0
 22
420.5
 13
0.0
 23
0.0
 14
10.0
 24
10.0
 15
10.0
 25
10.0
 16
0.0
 26
0.0
 36
1.0
 17
0.0
 27
0.0
 37
0.0
 40
841.0
 41
0.7063020214
 42
50.0
 43
0.0
 44
0.0
 50
0.0
 51
0.0
 71
     0
 72
  2000
 73
     1
 74
     3
 75
     0
 76
     0
 77
     0
 78
     0
281
     0
 65
     1
110
0.0
120
0.0
130
0.0
111
1.0
121
0.0
131
0.0
112
0.0
122
1.0
132
0.0
 79
     0
146
0.0
  0
ENDTAB
  0
TABLE
  2
LTYPE
  5
5
330
0
100
AcDbSymbolTable
 70
     6
  0
LTYPE
  5
14
330
5
100
AcDbSymbolTableRecord
100
AcDbLinetypeTableRecord
  2
ByBlock
 70
     0
  3

 72
    65
 73
     0
 40
0.0
  0
LTYPE
  5
15
330
5
100
AcDbSymbolTableRecord
100
AcDbLinetypeTableRecord
  2
ByLayer
 70
     0
  3

 72
    65
 73
     0
 40
0.0
  0
LTYPE
  5
16
330
5
100
AcDbSymbolTableRecord
100
AcDbLinetypeTableRecord
  2
Continuous
 70
     0
  3
Solid line
 72
    65
 73
     0
 40
0.0
  0
LTYPE
  5
6E
330
5
100
AcDbSymbolTableRecord
100
AcDbLinetypeTableRecord
  2
HIDDEN
 70
     0
  3
Hidden __ __ __ __ __ __ __ __ __ __ __ __ __ __
 72
    65
 73
     2
 40
1.905
 49
1.27
 74
     0
 49
-0.635
 74
     0
  0
LTYPE
  5
6F
330
5
100
AcDbSymbolTableRecord
100
AcDbLinetypeTableRecord
  2
PHANTOM
 70
     0
  3
Phantom ______  __  __  ______  __  __  ______
 72
    65
 73
     6
 40
12.7
 49
6.35
 74
     0
 49
-1.27
 74
     0
 49
1.27
 74
     0
 49
-1.27
 74
     0
 49
1.27
 74
     0
 49
-1.27
 74
     0
  0
LTYPE
  5
70
330
5
100
AcDbSymbolTableRecord
100
AcDbLinetypeTableRecord
  2
CENTER
 70
     0
  3
Center ____ _ ____ _ ____ _ ____ _ ____ _ ____
 72
    65
 73
     4
 40
10.16
 49
6.35
 74
     0
 49
-1.27
 74
     0
 49
1.27
 74
     0
 49
-1.27
 74
     0
  0
LTYPE
  5
71
330
5
100
AcDbSymbolTableRecord
100
AcDbLinetypeTableRecord
  2
CENTERX2
 70
     0
  3
Center (2x) ________  __  ________  __  _____
 72
    65
 73
     4
 40
20.32
 49
12.7
 74
     0
 49
-2.54
 74
     0
 49
2.54
 74
     0
 49
-2.54
 74
     0
  0
LTYPE
  5
72
330
5
100
AcDbSymbolTableRecord
100
AcDbLinetypeTableRecord
  2
DOT2
 70
     0
  3
Dot (.5x) ........................................
 72
    65
 73
     2
 40
0.635
 49
0.0
 74
     0
 49
-0.635
 74
     0
  0
ENDTAB
  0
TABLE
  2
LAYER
  5
2
330
0
100
AcDbSymbolTable
 70
     1
  0
LAYER
  5
10
330
2
100
AcDbSymbolTableRecord
100
AcDbLayerTableRecord
  2
0
 70
     0
 62
     7
  6
Continuous
370
    -3
390
F
  0
ENDTAB
  0
TABLE
  2
STYLE
  5
3
330
0
100
AcDbSymbolTable
 70
     3
  0
STYLE
  5
11
330
3
100
AcDbSymbolTableRecord
100
AcDbTextStyleTableRecord
  2
Standard
 70
     0
 40
0.0
 41
1.0
 50
0.0
 71
     0
 42
10.0
  3
txt
  4

  0
STYLE
  5
76
330
3
100
AcDbSymbolTableRecord
100
AcDbTextStyleTableRecord
  2
SLDTEXTSTYLE0
 70
     0
 40
0.0
 41
0.96
 50
0.0
 71
     0
 42
10.0
  3
ISOCP3
  4

  0
STYLE
  5
8D
330
3
100
AcDbSymbolTableRecord
100
AcDbTextStyleTableRecord
  2
SLDTEXTSTYLE1
 70
     0
 40
0.0
 41
0.605
 50
0.0
 71
     0
 42
10.0
  3
TXT
  4

  0
ENDTAB
  0
TABLE
  2
VIEW
  5
6
330
0
100
AcDbSymbolTable
 70
     0
  0
ENDTAB
  0
TABLE
  2
UCS
  5
7
330
0
100
AcDbSymbolTable
 70
     0
  0
ENDTAB
  0
TABLE
  2
APPID
  5
9
330
0
100
AcDbSymbolTable
 70
     1
  0
APPID
  5
12
330
9
100
AcDbSymbolTableRecord
100
AcDbRegAppTableRecord
  2
ACAD
 70
     0
  0
ENDTAB
  0
TABLE
  2
DIMSTYLE
  5
A
330
0
100
AcDbSymbolTable
 70
     2
100
AcDbDimStyleTable
  0
DIMSTYLE
105
27
330
A
100
AcDbSymbolTableRecord
100
AcDbDimStyleTableRecord
  2
ISO-25
 70
     0
 41
2.5
 42
0.625
 43
3.75
 44
1.25
 73
     0
 74
     0
 77
     1
 78
     8
140
2.5
141
2.5
143
0.0393700787
147
0.625
171
     3
172
     1
178
     0
271
     2
272
     2
274
     3
278
    44
283
     0
284
     8
340
11
  0
DIMSTYLE
105
77
102
{ACAD_REACTORS
330
75
330
82
102
}
330
A
100
AcDbSymbolTableRecord
100
AcDbDimStyleTableRecord
  2
SLDDIMSTYLE0
 70
     0
 41
2.5
 44
0.0
 45
0.000000001
 73
     0
 74
     0
 77
     1
 78
    12
 79
     3
140
6.0
147
1.5
173
     1
178
     0
271
     2
272
     2
276
     2
284
    12
340
76
  0
ENDTAB
  0
TABLE
  2
BLOCK_RECORD
  5
1
330
0
100
AcDbSymbolTable
 70
     3
  0
BLOCK_RECORD
  5
1F
330
1
100
AcDbSymbolTableRecord
100
AcDbBlockTableRecord
  2
*Model_Space
340
22
  0
BLOCK_RECORD
  5
1B
330
1
100
AcDbSymbolTableRecord
100
AcDbBlockTableRecord
  2
*Paper_Space
340
1E
  0
BLOCK_RECORD
  5
23
330
1
100
AcDbSymbolTableRecord
100
AcDbBlockTableRecord
  2
*Paper_Space0
340
26
  0
BLOCK_RECORD
  5
78
330
1
100
AcDbSymbolTableRecord
100
AcDbBlockTableRecord
  2
_D
340
0
  0
BLOCK_RECORD
  5
83
330
1
100
AcDbSymbolTableRecord
100
AcDbBlockTableRecord
  2
_D_1
340
0
  0
ENDTAB
  0
ENDSEC
  0
SECTION
  2
BLOCKS
  0
BLOCK
  5
20
330
1F
100
AcDbEntity
  8
0
100
AcDbBlockBegin
  2
*Model_Space
 70
     0
 10
0.0
 20
0.0
 30
0.0
  3
*Model_Space
  1

  0
ENDBLK
  5
21
330
1F
100
AcDbEntity
  8
0
100
AcDbBlockEnd
  0
BLOCK
  5
1C
330
1B
100
AcDbEntity
 67
     1
  8
0
100
AcDbBlockBegin
  2
*Paper_Space
 70
     0
 10
0.0
 20
0.0
 30
0.0
  3
*Paper_Space
  1

  0
ENDBLK
  5
1D
330
1B
100
AcDbEntity
 67
     1
  8
0
100
AcDbBlockEnd
  0
BLOCK
  5
24
330
23
100
AcDbEntity
  8
0
100
AcDbBlockBegin
  2
*Paper_Space0
 70
     0
 10
0.0
 20
0.0
 30
0.0
  3
*Paper_Space0
  1

  0
ENDBLK
  5
25
330
23
100
AcDbEntity
  8
0
100
AcDbBlockEnd
  0
BLOCK
  5
79
330
78
100
AcDbEntity
  8
0
100
AcDbBlockBegin
  2
_D
 70
     0
 10
0.0
 20
0.0
 30
0.0
  3
_D
  1

  0
SOLID
  5
7B
330
78
100
AcDbEntity
  8
0
  6
Continuous
 62
     7
370
    18
100
AcDbTrace
 10
42.7614395004
 20
152.0299240879
 30
0.0
 11
42.4614395004
 21
149.5299240879
 31
0.0
 12
43.0614395004
 22
149.5299240879
 32
0.0
 13
43.0614395004
 23
149.5299240879
 33
0.0
  0
SOLID
  5
7C
330
78
100
AcDbEntity
  8
0
  6
Continuous
 62
     7
370
    18
100
AcDbTrace
 10
42.7614395004
 20
52.0299240879
 30
0.0
 11
43.0614395004
 21
54.5299240879
 31
0.0
 12
42.4614395004
 22
54.5299240879
 32
0.0
 13
42.4614395004
 23
54.5299240879
 33
0.0
  0
LINE
  5
7D
330
78
100
AcDbEntity
  8
0
  6
Continuous
 62
     7
370
     0
100
AcDbLine
 10
56.6850079902
 20
152.0299240879
 30
0.0
 11
41.7614395004
 21
152.0299240879
 31
0.0
  0
LINE
  5
7E
330
78
100
AcDbEntity
  8
0
  6
Continuous
 62
     7
370
     0
100
AcDbLine
 10
56.6850079902
 20
52.0299240879
 30
0.0
 11
41.7614395004
 21
52.0299240879
 31
0.0
  0
LINE
  5
7F
330
78
100
AcDbEntity
  8
0
  6
Continuous
 62
     7
370
     0
100
AcDbLine
 10
42.7614395004
 20
152.0299240879
 30
0.0
 11
42.7614395004
 21
52.0299240879
 31
0.0
  0
MTEXT
  5
80
330
78
100
AcDbEntity
  8
0
  6
Continuous
 62
     7
370
    18
100
AcDbMText
 10
35.0270332946
 20
94.3680541463
 30
0.0
 40
6.0
 41
0.0
 71
     1
 72
     1
  1
100
  7
SLDTEXTSTYLE0
 11
-7.044195017643634E-15
 21
1.0
 31
0.0
 73
     1
 44
1.0
  0
MTEXT
  5
81
330
78
100
AcDbEntity
  8
0
  6
Continuous
 62
     7
370
    18
100
AcDbMText
 10
35.0270332946
 20
105.7430548466
 30
0.0
 40
6.0
 41
0.0
 71
     1
 72
     1
  1
mm
  7
SLDTEXTSTYLE0
 11
-7.044195017643634E-15
 21
1.0
 31
0.0
 73
     1
 44
1.0
  0
ENDBLK
  5
7A
330
78
100
AcDbEntity
  8
0
100
AcDbBlockEnd
  0
BLOCK
  5
84
330
83
100
AcDbEntity
  8
0
100
AcDbBlockBegin
  2
_D_1
 70
     0
 10
0.0
 20
0.0
 30
0.0
  3
_D_1
  1

  0
SOLID
  5
86
330
83
100
AcDbEntity
  8
0
  6
Continuous
 62
     7
370
    18
100
AcDbTrace
 10
56.6850079902
 20
38.4602342313
 30
0.0
 11
59.1850079902
 21
38.1602342313
 31
0.0
 12
59.1850079902
 22
38.7602342313
 32
0.0
 13
59.1850079902
 23
38.7602342313
 33
0.0
  0
SOLID
  5
87
330
83
100
AcDbEntity
  8
0
  6
Continuous
 62
     7
370
    18
100
AcDbTrace
 10
156.6850079902
 20
38.4602342313
 30
0.0
 11
154.1850079902
 21
38.7602342313
 31
0.0
 12
154.1850079902
 22
38.1602342313
 32
0.0
 13
154.1850079902
 23
38.1602342313
 33
0.0
  0
LINE
  5
88
330
83
100
AcDbEntity
  8
0
  6
Continuous
 62
     7
370
     0
100
AcDbLine
 10
56.6850079902
 20
52.0299240879
 30
0.0
 11
56.6850079902
 21
37.4602342313
 31
0.0
  0
LINE
  5
89
330
83
100
AcDbEntity
  8
0
  6
Continuous
 62
     7
370
     0
100
AcDbLine
 10
156.6850079902
 20
52.0299240879
 30
0.0
 11
156.6850079902
 21
37.4602342313
 31
0.0
  0
LINE
  5
8A
330
83
100
AcDbEntity
  8
0
  6
Continuous
 62
     7
370
     0
100
AcDbLine
 10
56.6850079902
 20
38.4602342313
 30
0.0
 11
156.6850079902
 21
38.4602342313
 31
0.0
  0
MTEXT
  5
8B
330
83
100
AcDbEntity
  8
0
  6
Continuous
 62
     7
370
    18
100
AcDbMText
 10
93.9626484861
 20
46.1946404371
 30
0.0
 40
6.0
 41
0.0
 71
     1
 72
     1
  1
100
  7
SLDTEXTSTYLE0
 73
     1
 44
1.0
  0
MTEXT
  5
8C
330
83
100
AcDbEntity
  8
0
  6
Continuous
 62
     7
370
    18
100
AcDbMText
 10
105.3376491864
 20
46.1946404371
 30
0.0
 40
6.0
 41
0.0
 71
     1
 72
     1
  1
mm
  7
SLDTEXTSTYLE0
 73
     1
 44
1.0
  0
ENDBLK
  5
85
330
83
100
AcDbEntity
  8
0
100
AcDbBlockEnd
  0
ENDSEC
  0
SECTION
  2
ENTITIES
  0
LINE
  5
73
330
1F
100
AcDbEntity
  8
0
  6
Continuous
 62
     7
370
    18
100
AcDbLine
 10
56.6850079902
 20
152.0299240879
 30
0.0
 11
56.6850079902
 21
52.0299240879
 31
0.0
  0
LINE
  5
74
330
1F
100
AcDbEntity
  8
0
  6
Continuous
 62
     7
370
    18
100
AcDbLine
 10
56.6850079902
 20
52.0299240879
 30
0.0
 11
156.6850079902
 21
52.0299240879
 31
0.0
  0
DIMENSION
  5
75
330
1F
100
AcDbEntity
  8
0
  6
Continuous
 62
     7
370
    18
100
AcDbDimension
  2
_D
 10
42.7614395004
 20
52.0299240879
 30
0.0
 11
42.7614395004
 21
105.4472211621
 31
0.0
 70
   160
  1
<>mm
 71
     2
 42
-1.0
  3
SLDDIMSTYLE0
100
AcDbAlignedDimension
 13
56.6850079902
 23
152.0299240879
 33
0.0
 14
56.6850079902
 24
52.0299240879
 34
0.0
 50
90.0
100
AcDbRotatedDimension
  0
DIMENSION
  5
82
330
1F
100
AcDbEntity
  8
0
  6
Continuous
 62
     7
370
    18
100
AcDbDimension
  2
_D_1
 10
156.6850079902
 20
38.4602342313
 30
0.0
 11
105.0418155019
 21
38.4602342313
 31
0.0
 70
   160
  1
<>mm
 71
     2
 42
-1.0
  3
SLDDIMSTYLE0
100
AcDbAlignedDimension
 13
56.6850079902
 23
52.0299240879
 33
0.0
 14
156.6850079902
 24
52.0299240879
 34
0.0
100
AcDbRotatedDimension
  0
MTEXT
  5
8E
330
1F
100
AcDbEntity
  8
0
  6
Continuous
 62
     7
370
     0
100
AcDbMText
 10
412.8252631579
 20
48.4342449499
 30
0.0
 40
10.0
 41
0.0
 71
     1
 72
     1
  1
KLUDI GmbH & Co KG
  7
SLDTEXTSTYLE1
 73
     1
 44
1.0
  0
MTEXT
  5
8F
330
1F
100
AcDbEntity
  8
0
  6
Continuous
 62
     7
370
     0
100
AcDbMText
 10
210.0873490389
 20
48.4342449499
 30
0.0
 40
10.0
 41
0.0
 71
     1
 72
     1
  1
52 755 .. 75
  7
SLDTEXTSTYLE1
 73
     1
 44
1.0
  0
LINE
  5
90
330
1F
100
AcDbEntity
  8
0
  6
Continuous
 62
     7
370
    25
100
AcDbLine
 10
338.1972002887
 20
288.3332512262
 30
0.0
 11
344.2336002313
 21
288.4913199217
 31
0.0
  0
LINE
  5
91
330
1F
100
AcDbEntity
  8
0
  6
Continuous
 62
     7
370
    25
100
AcDbLine
 10
344.2336002313
 20
437.1751825308
 30
0.0
 11
338.1972002887
 21
437.3332512262
 31
0.0
  0
ARC
  5
92
330
1F
100
AcDbEntity
  8
0
  6
Continuous
 62
     7
370
    25
100
AcDbCircle
 10
344.207423283
 20
436.1755252058
 30
0.0
 40
0.9999999999996357
100
AcDbArc
 50
0.6004114401
 51
88.5
  0
ARC
  5
93
330
1F
100
AcDbEntity
  8
0
  6
Continuous
 62
     7
370
    25
100
AcDbCircle
 10
344.207423283
 20
289.4909772467
 30
0.0
 40
0.9999999999996363
100
AcDbArc
 50
271.5
 51
359.3995885599
  0
ARC
  5
94
330
1F
100
AcDbEntity
  8
0
  6
Continuous
 62
     7
370
    25
100
AcDbCircle
 10
-6654.408290617
 20
362.8332512262
 30
0.0
 40
7000.000000000001
100
AcDbArc
 50
0.3226962482
 51
0.6004114401
  0
ARC
  5
95
330
1F
100
AcDbEntity
  8
0
  6
Continuous
 62
     7
370
    25
100
AcDbCircle
 10
-6654.408290617
 20
362.8332512262
 30
0.0
 40
7000.000000000002
100
AcDbArc
 50
359.3995885599
 51
359.922846016
  0
LINE
  5
96
330
1F
100
AcDbEntity
  8
0
  6
Continuous
 62
     7
370
    25
100
AcDbLine
 10
375.1972002887
 20
402.3332512262
 30
0.0
 11
345.4804234432
 21
402.3332512262
 31
0.0
  0
LINE
  5
97
330
1F
100
AcDbEntity
  8
0
  6
Continuous
 62
     7
370
    25
100
AcDbLine
 10
345.5851048623
 20
353.3332512262
 30
0.0
 11
375.1972002887
 21
353.3332512262
 31
0.0
  0
ARC
  5
98
330
1F
100
AcDbEntity
  8
0
  6
Continuous
 62
     7
370
    25
100
AcDbCircle
 10
375.1972002887
 20
377.8332512262
 30
0.0
 40
24.49999999999994
100
AcDbArc
 50
49.9128673364
 51
90.0
  0
ARC
  5
99
330
1F
100
AcDbEntity
  8
0
  6
Continuous
 62
     7
370
    25
100
AcDbCircle
 10
375.1972002887
 20
377.8332512262
 30
0.0
 40
24.50000000000006
100
AcDbArc
 50
270.0
 51
284.1769156109
  0
ARC
  5
9A
330
1F
100
AcDbEntity
  8
0
  6
Continuous
 62
     7
370
    25
100
AcDbCircle
 10
391.6534620818
 20
398.6388013635
 30
0.0
 40
0.200000000000017
100
AcDbArc
 50
52.6838875772
 51
167.0448914736
  0
ARC
  5
9B
330
1F
100
AcDbEntity
  8
0
  6
Continuous
 62
     7
370
    25
100
AcDbCircle
 10
380.9111252414
 20
351.941734629
 30
0.0
 40
0.199999999999978
100
AcDbArc
 50
167.0448914736
 51
281.4058953701
  0
ARC
  5
9C
330
1F
100
AcDbEntity
  8
0
  6
Continuous
 62
     7
370
    25
100
AcDbCircle
 10
375.710084503
 20
377.7223315041
 30
0.0
 40
26.50000000000001
100
AcDbArc
 50
17.0802347944
 51
52.6838875772
  0
ARC
  5
9D
330
1F
100
AcDbEntity
  8
0
  6
Continuous
 62
     7
370
    25
100
AcDbCircle
 10
375.710084503
 20
377.7223315041
 30
0.0
 40
26.50000000000006
100
AcDbArc
 50
281.4058953701
 51
330.0095809612
  0
SPLINE
  5
9E
330
1F
100
AcDbEntity
  8
0
  6
Continuous
 62
     7
370
    25
100
AcDbSpline
210
0.0
220
0.0
230
1.0
 70
     8
 71
     3
 72
    27
 73
    23
 74
     0
 42
0.00000001
 43
0.00000001
 40
0.0
 40
0.0
 40
0.0
 40
0.0
 40
0.0064470865895689
 40
0.0192819968108175
 40
0.0332318652227674
 40
0.0668779409503476
 40
0.1246018952198139
 40
0.1727290435989949
 40
0.2178588198989745
 40
0.290981480338098
 40
0.354504042973357
 40
0.3962334997593553
 40
0.4324496430128627
 40
0.4654409527956663
 40
0.4991785124043967
 40
0.5337330519979133
 40
0.5691043560996402
 40
0.6573255208062544
 40
0.7488043775782252
 40
0.8361455669856722
 40
0.918392185386103
 40
1.0
 40
1.0
 40
1.0
 40
1.0
 10
430.1222588429904
 20
287.1837002162631
 30
0.0
 10
430.1384932335846
 20
287.3770921941527
 30
0.0
 10
430.1870471754797
 20
287.9554904286263
 30
0.0
 10
430.2456223358923
 20
288.9746247771576
 30
0.0
 10
430.3094037820982
 20
290.8269392107356
 30
0.0
 10
430.2457219250862
 20
294.0683159218146
 30
0.0
 10
430.0522837665045
 20
298.3510380607646
 30
0.0
 10
429.8158900537555
 20
302.9872544184541
 30
0.0
 10
429.4758396195879
 20
308.0911307833085
 30
0.0
 10
429.0140656249631
 20
313.6609071248352
 30
0.0
 10
428.4559106198485
 20
319.1166251454724
 30
0.0
 10
427.9503594133138
 20
323.4364992626084
 30
0.0
 10
427.517465022926
 20
326.8195919631414
 30
0.0
 10
427.0859030146041
 20
329.9549914977585
 30
0.0
 10
426.6330916549398
 20
333.0357700031606
 30
0.0
 10
426.140238460175
 20
336.1844858262904
 30
0.0
 10
425.3425075551606
 20
340.9806898318791
 30
0.0
 10
424.1489851189801
 20
347.484856301353
 30
0.0
 10
422.4594137000478
 20
355.5202296568219
 30
0.0
 10
420.564490355472
 20
363.3205858235871
 30
0.0
 10
418.5246610220509
 20
370.7708310970631
 30
0.0
 10
417.0120956795357
 20
375.5762631180862
 30
0.0
 10
416.2587614560264
 20
377.96961188685
 30
0.0
  0
ARC
  5
9F
330
1F
100
AcDbEntity
  8
0
  6
Continuous
 62
     7
370
    25
100
AcDbCircle
 10
399.9599890688
 20
363.7243984943
 30
0.0
 40
1.49999999999999
100
AcDbArc
 50
89.1310978604
 51
149.969248916
  0
LINE
  5
A0
330
1F
100
AcDbEntity
  8
0
  6
Continuous
 62
     7
370
    25
100
AcDbLine
 10
399.9817375767
 20
365.2242408421
 30
0.0
 11
402.0569099638
 21
365.1945051091
 31
0.0
  0
LINE
  5
A1
330
1F
100
AcDbEntity
  8
0
  6
Continuous
 62
     7
370
    25
100
AcDbLine
 10
338.1972002887
 20
437.3332512262
 30
0.0
 11
338.1972002887
 21
288.3332512262
 31
0.0
  0
SPLINE
  5
A2
330
1F
100
AcDbEntity
  8
0
  6
Continuous
 62
     7
370
    25
100
AcDbSpline
210
0.0
220
0.0
230
1.0
 70
     8
 71
     3
 72
    12
 73
     8
 74
     0
 42
0.00000001
 43
0.00000001
 40
0.0
 40
0.0
 40
0.0
 40
0.0
 40
0.21172176930895
 40
0.4295834754860623
 40
0.6413052478272332
 40
0.859166981036499
 40
1.0
 40
1.0
 40
1.0
 40
1.0
 10
345.4956389688429
 20
395.1574702020418
 30
0.0
 10
345.4936814848387
 20
396.0709499558091
 30
0.0
 10
345.4897097497431
 20
397.924400400184
 30
0.0
 10
345.4852579553673
 20
400.0018731963685
 30
0.0
 10
345.4821013606085
 20
401.4749279776686
 30
0.0
 10
345.4804187944179
 20
402.2601130658927
 30
0.0
 10
345.4804222207533
 20
402.2585141336804
 30
0.0
 10
345.4804235660229
 20
402.2578863507279
 30
0.0
  0
SPLINE
  5
A3
330
1F
100
AcDbEntity
  8
0
  6
Continuous
 62
     7
370
    25
100
AcDbSpline
210
0.0
220
0.0
230
1.0
 70
     8
 71
     3
 72
    22
 73
    18
 74
     0
 42
0.00000001
 43
0.00000001
 40
0.0
 40
0.0
 40
0.0
 40
0.0
 40
0.0515073667139567
 40
0.1220733498802262
 40
0.1946857495432492
 40
0.2652517697224965
 40
0.337864202385483
 40
0.4084303473932248
 40
0.4810429064343372
 40
0.5516092093804176
 40
0.6242219327930539
 40
0.6947883575705611
 40
0.7674012113121016
 40
0.837967668419889
 40
0.9105805613294475
 40
0.955042086919146
 40
1.0
 40
1.0
 40
1.0
 40
1.0
 10
345.5851046573814
 20
353.4071217463683
 30
0.0
 10
345.585093125068
 20
353.4125034888426
 30
0.0
 10
345.585065793286
 20
353.4252583115786
 30
0.0
 10
345.5832863299406
 20
354.2556737133125
 30
0.0
 10
345.5801032778512
 20
355.74109599222
 30
0.0
 10
345.5754867772681
 20
357.8954587812096
 30
0.0
 10
345.5697189191133
 20
360.5871187209303
 30
0.0
 10
345.5628408000434
 20
363.7968961031328
 30
0.0
 10
345.5551757995748
 20
367.3738797432731
 30
0.0
 10
345.5468015786769
 20
371.2818268559073
 30
0.0
 10
345.5381063168271
 20
375.3395872216594
 30
0.0
 10
345.5291792293413
 20
379.5055268288048
 30
0.0
 10
345.5204348599652
 20
383.5861934905375
 30
0.0
 10
345.511958963117
 20
387.5415692676382
 30
0.0
 10
345.5051127423304
 20
390.7364339924138
 30
0.0
 10
345.4996744745791
 20
393.2742597403716
 30
0.0
 10
345.4969891064497
 20
394.5274145330973
 30
0.0
 10
345.4956389688429
 20
395.1574702020418
 30
0.0
  0
LINE
  5
A4
330
1F
100
AcDbEntity
  8
0
  6
Continuous
 62
     7
370
    25
100
AcDbLine
 10
380.7162160408
 20
351.9865721526
 30
0.0
 11
391.4585528787
 21
398.683638876
 31
0.0
  0
ARC
  5
A5
330
1F
100
AcDbEntity
  8
0
  6
Continuous
 62
     7
370
    25
100
AcDbCircle
 10
409.2978897966
 20
392.2305724363
 30
0.0
 40
1.400000000000015
100
AcDbArc
 50
23.9988470938
 51
111.8507129132
  0
SPLINE
  5
A6
330
1F
100
AcDbEntity
  8
0
  6
Continuous
 62
     7
370
    25
100
AcDbSpline
210
0.0
220
0.0
230
1.0
 70
     8
 71
     3
 72
    12
 73
     8
 74
     0
 42
0.00000001
 43
0.00000001
 40
0.0
 40
0.0
 40
0.0
 40
0.0
 40
0.2500000000000148
 40
0.2500000000000148
 40
0.5000000000000295
 40
0.5000000000000295
 40
1.0
 40
1.0
 40
1.0
 40
1.0
 10
430.1243175573925
 20
287.1621175134867
 30
0.0
 10
430.1095536361022
 20
286.988847294677
 30
0.0
 10
430.063295566659
 20
286.8220729611891
 30
0.0
 10
429.9114126900208
 20
286.5110909490303
 30
0.0
 10
429.807334620374
 20
286.3711909156996
 30
0.0
 10
429.4280010612329
 20
286.0197183218155
 30
0.0
 10
429.0888615027423
 20
285.8839341222454
 30
0.0
 10
428.7410774999549
 20
285.8810262402346
 30
0.0
  0
SPLINE
  5
A7
330
1F
100
AcDbEntity
  8
0
  6
Continuous
 62
     7
370
    25
100
AcDbSpline
210
0.0
220
0.0
230
1.0
 70
     8
 71
     3
 72
    36
 73
    32
 74
     0
 42
0.00000001
 43
0.00000001
 40
0.3263893148542756
 40
0.3263893148542756
 40
0.3263893148542756
 40
0.3263893148542756
 40
0.3353815197775997
 40
0.3747975427885294
 40
0.375
 40
0.4057753401473175
 40
0.4326064602317594
 40
0.4536904548572391
 40
0.4769531624837474
 40
0.4952294468297677
 40
0.5
 40
0.5144770574504495
 40
0.5295967956749399
 40
0.546882330785724
 40
0.560460179085403
 40
0.6073137108659041
 40
0.625
 40
0.6440958459039247
 40
0.6576721119780163
 40
0.6683364856813307
 40
0.720820618962955
 40
0.75
 40
0.7620717860475947
 40
0.7962145523251454
 40
0.8231075609306195
 40
0.875
 40
0.8904516613162841
 40
0.9441411256153615
 40
0.9751799444406782
 40
0.987531234415655
 40
1.0
 40
1.0
 40
1.0
 40
1.0
 10
412.5491007503948
 20
348.0916608357114
 30
0.0
 10
412.5858430743932
 20
347.8414508219158
 30
0.0
 10
412.77836739163
 20
346.4924399371601
 30
0.0
 10
412.9454261150158
 20
345.1289679402038
 30
0.0
 10
413.1678083521854
 20
343.1555738588223
 30
0.0
 10
413.3379261129241
 20
341.5357046636117
 30
0.0
 10
413.5417874020424
 20
339.3321172429403
 30
0.0
 10
413.7079349625223
 20
337.3396841522959
 30
0.0
 10
413.8409114309087
 20
335.5871731757355
 30
0.0
 10
413.9313709457352
 20
334.2913715033135
 30
0.0
 10
414.0015759696214
 20
333.2414343622777
 30
0.0
 10
414.0635989744897
 20
332.279832614595
 30
0.0
 10
414.1444672697123
 20
330.9680578996673
 30
0.0
 10
414.2209275276163
 20
329.6814054060246
 30
0.0
 10
414.3476902839519
 20
327.5066851828429
 30
0.0
 10
414.473557248098
 20
325.3204045344597
 30
0.0
 10
414.6195650318761
 20
322.9789023253031
 30
0.0
 10
414.7130259211092
 20
321.5687238145514
 30
0.0
 10
414.8001328332995
 20
320.3554845482469
 30
0.0
 10
414.9653993068758
 20
318.2084303124159
 30
0.0
 10
415.2045170762764
 20
315.6288828110461
 30
0.0
 10
415.5363370583365
 20
313.0236478979881
 30
0.0
 10
415.847594970452
 20
310.9355752891462
 30
0.0
 10
416.1988925807726
 20
308.9181529134143
 30
0.0
 10
416.8498756100707
 20
305.8127732600225
 30
0.0
 10
417.5160875079872
 20
303.2296878734356
 30
0.0
 10
418.5200410368388
 20
299.9139537551997
 30
0.0
 10
419.491007229747
 20
297.1830635228694
 30
0.0
 10
420.655779709099
 20
294.6022144261192
 30
0.0
 10
421.4017582478177
 20
293.1449408410471
 30
0.0
 10
421.7534755068099
 20
292.5053223469583
 30
0.0
 10
421.9355306558654
 20
292.1862099321427
 30
0.0
  0
SPLINE
  5
A8
330
1F
100
AcDbEntity
  8
0
  6
Continuous
 62
     7
370
    25
100
AcDbSpline
210
0.0
220
0.0
230
1.0
 70
     8
 71
     3
 72
    15
 73
    11
 74
     0
 42
0.00000001
 43
0.00000001
 40
0.0622547575187158
 40
0.0622547575187158
 40
0.0622547575187158
 40
0.0622547575187158
 40
0.0687156676530896
 40
0.0687156676530896
 40
0.1167394990828607
 40
0.1407514147977463
 40
0.1647633305126318
 40
0.1887752462275173
 40
0.2127871619424028
 40
0.2608110001131804
 40
0.2608110001131804
 40
0.2608110001131804
 40
0.2608110001131804
 10
408.7768244972138
 20
393.5299919042677
 30
0.0
 10
408.72904860467
 20
393.5108338414823
 30
0.0
 10
408.680367130585
 20
393.4913126418282
 30
0.0
 10
408.2606300283744
 20
393.3229986799258
 30
0.0
 10
407.6922913443762
 20
393.0102719321454
 30
0.0
 10
407.0405129399537
 20
392.3823896294826
 30
0.0
 10
406.6363317931841
 20
391.8419568609209
 30
0.0
 10
406.3179685767583
 20
391.2681477932163
 30
0.0
 10
405.993379881254
 20
390.5068900146312
 30
0.0
 10
405.8310672756099
 20
389.9740925479676
 30
0.0
 10
405.7393647267177
 20
389.6440221942097
 30
0.0
  0
SPLINE
  5
A9
330
1F
100
AcDbEntity
  8
0
  6
Continuous
 62
     7
370
    25
100
AcDbSpline
210
0.0
220
0.0
230
1.0
 70
     8
 71
     3
 72
    18
 73
    14
 74
     0
 42
0.00000001
 43
0.00000001
 40
0.0
 40
0.0
 40
0.0
 40
0.0
 40
0.013671875
 40
0.0341796875
 40
0.068359375
 40
0.247802734375
 40
0.546875
 40
0.669921875
 40
0.875
 40
0.93359375
 40
0.96875
 40
0.984375
 40
1.0
 40
1.0
 40
1.0
 40
1.0
 10
428.4973718583925
 20
285.8789885753467
 30
0.0
 10
428.4606208617051
 20
285.8786812939269
 30
0.0
 10
428.3688803517721
 20
285.8796701537414
 30
0.0
 10
428.296357298321
 20
285.885472618677
 30
0.0
 10
427.879307036306
 20
285.9335528969712
 30
0.0
 10
426.8881788539167
 20
286.2748488052553
 30
0.0
 10
425.5656008720406
 20
287.286972095753
 30
0.0
 10
424.1071686018417
 20
288.8962378740297
 30
0.0
 10
423.1831835382458
 20
290.1522279468347
 30
0.0
 10
422.4676041756785
 20
291.2844638379877
 30
0.0
 10
422.2060070206537
 20
291.7200482246544
 30
0.0
 10
422.0473696329109
 20
291.9911054241733
 30
0.0
 10
421.9586373701358
 20
292.1457077024524
 30
0.0
 10
421.9355306558654
 20
292.1862099321427
 30
0.0
  0
LINE
  5
AA
330
1F
100
AcDbEntity
  8
0
  6
Continuous
 62
     7
370
    25
100
AcDbLine
 10
428.7410775
 20
285.8810262402
 30
0.0
 11
428.4973718584
 21
285.8789885753
 31
0.0
  0
LINE
  5
AB
330
1F
100
AcDbEntity
  8
0
  6
Continuous
 62
     7
370
    25
100
AcDbLine
 10
430.1243175574
 20
287.1621175135
 30
0.0
 11
430.1368525673
 21
287.3642854717
 31
0.0
  0
LINE
  5
AC
330
1F
100
AcDbEntity
  8
0
  6
Continuous
 62
     7
370
    25
100
AcDbLine
 10
419.7469373114
 20
366.1550182551
 30
0.0
 11
416.5396958724
 21
377.0354386494
 31
0.0
  0
SPLINE
  5
AD
330
1F
100
AcDbEntity
  8
0
  6
Continuous
 62
     7
370
    25
100
AcDbSpline
210
0.0
220
0.0
230
1.0
 70
     8
 71
     3
 72
     9
 73
     5
 74
     0
 42
0.00000001
 43
0.00000001
 40
0.0781920662502744
 40
0.0781920662502744
 40
0.0781920662502744
 40
0.0781920662502744
 40
0.5
 40
1.0
 40
1.0
 40
1.0
 40
1.0
 10
410.5768648951491
 20
392.7999780011587
 30
0.0
 10
411.5630779455476
 20
390.5847872634283
 30
0.0
 10
413.5999537136195
 20
385.6960789140907
 30
0.0
 10
415.3769068568434
 20
380.7063528612516
 30
0.0
 10
416.2638422511845
 20
377.9712594858306
 30
0.0
  0
SPLINE
  5
AE
330
1F
100
AcDbEntity
  8
0
  6
Continuous
 62
     7
370
    25
100
AcDbSpline
210
0.0
220
0.0
230
1.0
 70
     8
 71
     3
 72
    18
 73
    14
 74
     0
 42
0.00000001
 43
0.00000001
 40
0.0
 40
0.0
 40
0.0
 40
0.0
 40
0.019917435736085
 40
0.0394517236453393
 40
0.1045333281637571
 40
0.1640305119845419
 40
0.2204476473955322
 40
0.3418374828892372
 40
0.4623418677948817
 40
0.626189953021385
 40
0.7927564362738575
 40
0.9623681568417135
 40
1.0
 40
1.0
 40
1.0
 40
1.0
 10
402.0494189789789
 20
365.1946487067
 30
0.0
 10
402.1935173456164
 20
365.1926513053562
 30
0.0
 10
402.4789420867153
 20
365.1886949262885
 30
0.0
 10
403.2341128232698
 20
365.1430758428625
 30
0.0
 10
404.2625082269768
 20
364.9061372333654
 30
0.0
 10
405.4447535377644
 20
364.3228595927274
 30
0.0
 10
406.8252996354128
 20
363.2900212972424
 30
0.0
 10
408.2356545026041
 20
361.6227234697254
 30
0.0
 10
409.6806351419895
 20
359.0580213332526
 30
0.0
 10
410.8587712823771
 20
356.0039765868427
 30
0.0
 10
411.7927001697895
 20
352.5049671145859
 30
0.0
 10
412.2871878010622
 20
349.8437622304704
 30
0.0
 10
412.5088505089726
 20
348.360919349296
 30
0.0
 10
412.5491006190756
 20
348.0916607545805
 30
0.0
  0
SPLINE
  5
AF
330
1F
100
AcDbEntity
  8
0
  6
Continuous
 62
     7
370
    25
100
AcDbSpline
210
0.0
220
0.0
230
1.0
 70
     8
 71
     3
 72
     9
 73
     5
 74
     0
 42
0.00000001
 43
0.00000001
 40
0.0
 40
0.0
 40
0.0
 40
0.0
 40
0.05
 40
0.8947959768602173
 40
0.8947959768602173
 40
0.8947959768602173
 40
0.8947959768602173
 10
405.7393646881004
 20
389.644022055212
 30
0.0
 10
405.6926667186008
 20
389.4759393197415
 30
0.0
 10
404.9159319982343
 20
386.5210962563136
 30
0.0
 10
404.509250089517
 20
384.7700464427145
 30
0.0
 10
402.7244902524378
 20
384.4686107661263
 30
0.0
  0
SPLINE
  5
B0
330
1F
100
AcDbEntity
  8
0
  6
Continuous
 62
     7
370
    25
100
AcDbSpline
210
0.0
220
0.0
230
1.0
 70
     8
 71
     3
 72
    14
 73
    10
 74
     0
 42
0.00000001
 43
0.00000001
 40
0.0
 40
0.0
 40
0.0
 40
0.0
 40
0.25
 40
0.25
 40
0.5
 40
0.5
 40
0.75
 40
0.75
 40
1.0
 40
1.0
 40
1.0
 40
1.0
 10
401.0408722008812
 20
385.5070084151755
 30
0.0
 10
401.0937498817153
 20
385.334955778649
 30
0.0
 10
401.1779117441995
 20
385.1725702281556
 30
0.0
 10
401.3981049692449
 20
384.8877761503174
 30
0.0
 10
401.534075077452
 20
384.7654468482864
 30
0.0
 10
401.8404774302282
 20
384.5764745201329
 30
0.0
 10
402.0108244383955
 20
384.5098840631935
 30
0.0
 10
402.3641551870994
 20
384.4409597064661
 30
0.0
 10
402.5470406364789
 20
384.4386449803698
 30
0.0
 10
402.7245217365293
 20
384.4686248333817
 30
0.0
  0
LINE
  5
B1
330
1F
100
AcDbEntity
  8
0
  6
Continuous
 62
     8
370
    18
100
AcDbLine
 10
345.2073683771
 20
436.1860041705
 30
0.0
 11
345.2073683771
 21
289.4804982819
 31
0.0
  0
LINE
  5
B2
330
1F
100
AcDbEntity
  8
0
  6
Continuous
 62
     8
370
    18
100
AcDbLine
 10
375.1972002887
 20
400.9040475884
 30
0.0
 11
375.1972002887
 21
353.3332512262
 31
0.0
  0
LINE
  5
B3
330
1F
100
AcDbEntity
  8
0
  6
Continuous
 62
     8
370
    18
100
AcDbLine
 10
375.1972002887
 20
402.3332512262
 30
0.0
 11
375.1972002887
 21
400.9040475884
 31
0.0
  0
SPLINE
  5
B4
330
1F
100
AcDbEntity
  8
0
  6
Continuous
 62
     8
370
    18
100
AcDbSpline
210
0.0
220
0.0
230
1.0
 70
     8
 71
     3
 72
    30
 73
    26
 74
     0
 42
0.00000001
 43
0.00000001
 40
0.0
 40
0.0
 40
0.0
 40
0.0
 40
0.1250000000000004
 40
0.1250000000000004
 40
0.2500000000000007
 40
0.2500000000000007
 40
0.3125000000000005
 40
0.3125000000000005
 40
0.3437500000000008
 40
0.3437500000000008
 40
0.3750000000000012
 40
0.3750000000000012
 40
0.5000000000000013
 40
0.5000000000000013
 40
0.5625000000000013
 40
0.5625000000000013
 40
0.6250000000000012
 40
0.6250000000000012
 40
0.7500000000000009
 40
0.7500000000000009
 40
0.8125000000000007
 40
0.8125000000000007
 40
0.8750000000000004
 40
0.8750000000000004
 40
1.0
 40
1.0
 40
1.0
 40
1.0
 10
400.5780689854631
 20
377.2206163999553
 30
0.0
 10
400.6242087716508
 20
377.7864662203922
 30
0.0
 10
400.6632718125315
 20
378.3453586121755
 30
0.0
 10
400.7267371239139
 20
379.433950454296
 30
0.0
 10
400.7513437918753
 20
379.965859435638
 30
0.0
 10
400.7778409532652
 20
380.7449707722922
 30
0.0
 10
400.7849323039817
 20
381.0015400926388
 30
0.0
 10
400.7929316005932
 20
381.3815946427684
 30
0.0
 10
400.7951594269877
 20
381.5074774529714
 30
0.0
 10
400.798717354771
 20
381.7576274508972
 30
0.0
 10
400.7997603784052
 20
381.8826692695758
 30
0.0
 10
400.8071949443698
 20
382.4906445450321
 30
0.0
 10
400.8198590290939
 20
382.9257244855198
 30
0.0
 10
400.848457333844
 20
383.5034828373867
 30
0.0
 10
400.8597357562797
 20
383.6846905852285
 30
0.0
 10
400.8848730721137
 20
384.0104700797077
 30
0.0
 10
400.8994972194769
 20
384.1539223554087
 30
0.0
 10
400.9410146968909
 20
384.5513025296931
 30
0.0
 10
400.964239985868
 20
384.7760651866759
 30
0.0
 10
400.9924456913932
 20
385.0507171588281
 30
0.0
 10
401.0007201067301
 20
385.1315815882704
 30
0.0
 10
401.0148674202392
 20
385.2692491851798
 30
0.0
 10
401.0207919397893
 20
385.3264464598699
 30
0.0
 10
401.035207245455
 20
385.4634579441125
 30
0.0
 10
401.0405007939524
 20
385.5084927458314
 30
0.0
 10
401.0408695396024
 20
385.5070161623364
 30
0.0
  0
SPLINE
  5
B5
330
1F
100
AcDbEntity
  8
0
  6
Continuous
 62
     8
370
    18
100
AcDbSpline
210
0.0
220
0.0
230
1.0
 70
     8
 71
     3
 72
    18
 73
    14
 74
     0
 42
0.00000001
 43
0.00000001
 40
0.0
 40
0.0
 40
0.0
 40
0.0
 40
0.1249999999999993
 40
0.1249999999999993
 40
0.2499999999999987
 40
0.2499999999999987
 40
0.4999999999999988
 40
0.4999999999999988
 40
0.6249999999999991
 40
0.6249999999999991
 40
0.7499999999999993
 40
0.7499999999999993
 40
1.0
 40
1.0
 40
1.0
 40
1.0
 10
399.2422464118631
 20
368.0590231852788
 30
0.0
 10
399.3183482656772
 20
368.4001754714495
 30
0.0
 10
399.3924731857074
 20
368.7505539233213
 30
0.0
 10
399.5353217020464
 20
369.4617426014412
 30
0.0
 10
399.6042507256627
 20
369.8234375614151
 30
0.0
 10
399.8038130721864
 20
370.9265861052648
 30
0.0
 10
399.927275804659
 20
371.6859602300826
 30
0.0
 10
400.098161597427
 20
372.862481313696
 30
0.0
 10
400.1523879967082
 20
373.2588170262279
 30
0.0
 10
400.2541227336646
 20
374.0491231772314
 30
0.0
 10
400.3018624613416
 20
374.4446680793351
 30
0.0
 10
400.4359358869538
 20
375.6324507295873
 30
0.0
 10
400.5132015581771
 20
376.4258266933296
 30
0.0
 10
400.5780685624155
 20
377.2207641948823
 30
0.0
  0
SPLINE
  5
B6
330
1F
100
AcDbEntity
  8
0
  6
Continuous
 62
     8
370
    18
100
AcDbSpline
210
0.0
220
0.0
230
1.0
 70
     8
 71
     3
 72
    12
 73
     8
 74
     0
 42
0.00000001
 43
0.00000001
 40
0.0
 40
0.0
 40
0.0
 40
0.0
 40
0.2500000000000007
 40
0.2500000000000007
 40
0.5000000000000013
 40
0.5000000000000013
 40
1.0
 40
1.0
 40
1.0
 40
1.0
 10
398.8162641000962
 20
365.7760357479577
 30
0.0
 10
398.8323788259182
 20
365.9115214725856
 30
0.0
 10
398.8537720535019
 20
366.0623799128667
 30
0.0
 10
398.9067820679045
 20
366.3941327738863
 30
0.0
 10
398.9386178488227
 20
366.576083353643
 30
0.0
 10
399.0469259993956
 20
367.154008951267
 30
0.0
 10
399.1363106216673
 20
367.5841301938292
 30
0.0
 10
399.2422464118631
 20
368.0590231852788
 30
0.0
  0
SPLINE
  5
B7
330
1F
100
AcDbEntity
  8
0
  6
Continuous
 62
     8
370
    18
100
AcDbSpline
210
0.0
220
0.0
230
1.0
 70
     8
 71
     3
 72
    10
 73
     6
 74
     0
 42
0.00000001
 43
0.00000001
 40
0.0
 40
0.0
 40
0.0
 40
0.0
 40
0.3334808985934535
 40
0.6619811816131586
 40
1.0
 40
1.0
 40
1.0
 40
1.0
 10
398.6611308337691
 20
364.4763238777976
 30
0.0
 10
398.6645660054367
 20
364.5050110613737
 30
0.0
 10
398.671385043676
 20
364.5619569786989
 30
0.0
 10
398.7241879901421
 20
365.0029950994095
 30
0.0
 10
398.7852812399423
 20
365.5159138735729
 30
0.0
 10
398.8162641000962
 20
365.7760357479577
 30
0.0
  0
SPLINE
  5
B8
330
1F
100
AcDbEntity
  8
0
  6
Continuous
 62
     8
370
    18
100
AcDbSpline
210
0.0
220
0.0
230
1.0
 70
     8
 71
     3
 72
    38
 73
    34
 74
     0
 42
0.00000001
 43
0.00000001
 40
0.0
 40
0.0
 40
0.0
 40
0.0
 40
0.0312500000000002
 40
0.0312500000000002
 40
0.0625000000000003
 40
0.0625000000000003
 40
0.1250000000000006
 40
0.1250000000000006
 40
0.1875000000000008
 40
0.1875000000000008
 40
0.2500000000000011
 40
0.2500000000000011
 40
0.3125000000000013
 40
0.3125000000000013
 40
0.3750000000000016
 40
0.3750000000000016
 40
0.5000000000000021
 40
0.5000000000000021
 40
0.562500000000002
 40
0.562500000000002
 40
0.6250000000000019
 40
0.6250000000000019
 40
0.7500000000000016
 40
0.7500000000000016
 40
0.8125000000000016
 40
0.8125000000000016
 40
0.8750000000000016
 40
0.8750000000000016
 40
0.9375000000000016
 40
0.9375000000000016
 40
0.9687500000000008
 40
0.9687500000000008
 40
1.0
 40
1.0
 40
1.0
 40
1.0
 10
410.5768648951491
 20
392.7999780011587
 30
0.0
 10
410.5768651044298
 20
392.7999775310809
 30
0.0
 10
410.5793845700711
 20
392.7936941786697
 30
0.0
 10
410.5893130374841
 20
392.7688588058928
 30
0.0
 10
410.5967219571157
 20
392.7503069655418
 30
0.0
 10
410.6261317844426
 20
392.6765133065396
 30
0.0
 10
410.6552930733897
 20
392.6031909881115
 30
0.0
 10
410.7324772157148
 20
392.4082981164306
 30
0.0
 10
410.7804304668194
 20
392.2868975543006
 30
0.0
 10
410.892975477121
 20
392.0008929729713
 30
0.0
 10
410.9577198472988
 20
391.835905379559
 30
0.0
 10
411.1038255127431
 20
391.4622646919759
 30
0.0
 10
411.1851805200435
 20
391.2536275445229
 30
0.0
 10
411.3639790720448
 20
390.7927243533093
 30
0.0
 10
411.4620170101205
 20
390.5389099496091
 30
0.0
 10
411.7754813621049
 20
389.7223069698914
 30
0.0
 10
412.0090577243159
 20
389.1076043596643
 30
0.0
 10
412.393237276817
 20
388.080245334463
 30
0.0
 10
412.5269908881887
 20
387.7200836340019
 30
0.0
 10
412.8055956152843
 20
386.9637457166199
 30
0.0
 10
412.9497223047724
 20
386.5694966182444
 30
0.0
 10
413.3882901198564
 20
385.3595547282655
 30
0.0
 10
413.6916004337758
 20
384.5095347877246
 30
0.0
 10
414.1609998786384
 20
383.1675491013547
 30
0.0
 10
414.3199141911415
 20
382.7089483621064
 30
0.0
 10
414.6427698602828
 20
381.7683462321476
 30
0.0
 10
414.806263284082
 20
381.2875922969325
 30
0.0
 10
415.1311261683854
 20
380.3233622225932
 30
0.0
 10
415.2933497073906
 20
379.8374068339177
 30
0.0
 10
415.5363003747482
 20
379.102674166397
 30
0.0
 10
415.6172195764685
 20
378.856794726448
 30
0.0
 10
415.7789139715351
 20
378.3630685007958
 30
0.0
 10
415.8602219270211
 20
378.1135788590115
 30
0.0
 10
415.9403834131746
 20
377.8663683349026
 30
0.0
  0
SPLINE
  5
B9
330
1F
100
AcDbEntity
  8
0
  6
Continuous
 62
     8
370
    18
100
AcDbSpline
210
0.0
220
0.0
230
1.0
 70
     8
 71
     3
 72
    28
 73
    24
 74
     0
 42
0.00000001
 43
0.00000001
 40
0.0
 40
0.0
 40
0.0
 40
0.0
 40
0.0624999999999999
 40
0.0624999999999999
 40
0.1249999999999998
 40
0.1249999999999998
 40
0.1874999999999998
 40
0.1874999999999998
 40
0.2187499999999997
 40
0.2187499999999997
 40
0.2499999999999996
 40
0.2499999999999996
 40
0.3124999999999995
 40
0.3124999999999995
 40
0.3437499999999993
 40
0.3437499999999993
 40
0.3593749999999993
 40
0.3593749999999993
 40
0.3749999999999993
 40
0.3749999999999993
 40
0.4999999999999993
 40
0.4999999999999993
 40
1.0
 40
1.0
 40
1.0
 40
1.0
 10
429.9391422267901
 20
292.4139126645608
 30
0.0
 10
429.9493866795881
 20
292.0244645176938
 30
0.0
 10
429.9597130057366
 20
291.6385850158405
 30
0.0
 10
429.9779340782012
 20
290.8869708345941
 30
0.0
 10
429.9859898213111
 20
290.5269022421861
 30
0.0
 10
430.0000825226312
 20
289.851056647037
 30
0.0
 10
430.0061776359661
 20
289.5302445313222
 30
0.0
 10
430.0141761846552
 20
289.1079643288591
 30
0.0
 10
430.016673987818
 20
288.9759761696482
 30
0.0
 10
430.0214488598826
 20
288.7289577913522
 30
0.0
 10
430.0237390741173
 20
288.6132706116485
 30
0.0
 10
430.0303856486452
 20
288.2975537608804
 30
0.0
 10
430.0344662859313
 20
288.1291596394262
 30
0.0
 10
430.0414110784856
 20
287.9402379770812
 30
0.0
 10
430.0438789553635
 20
287.888121820999
 30
0.0
 10
430.0479118095184
 20
287.8289781540756
 30
0.0
 10
430.0493152404502
 20
287.8123185473187
 30
0.0
 10
430.0522772010564
 20
287.7851609942606
 30
0.0
 10
430.0538766647071
 20
287.7756087641617
 30
0.0
 10
430.0678086994974
 20
287.6868025515566
 30
0.0
 10
430.077908709402
 20
287.6153634719
 30
0.0
 10
430.1193130912678
 20
287.2963064870308
 30
0.0
 10
430.1245581843496
 20
287.162166527452
 30
0.0
 10
430.1243175573928
 20
287.1621175134869
 30
0.0
  0
SPLINE
  5
BA
330
1F
100
AcDbEntity
  8
0
  6
Continuous
 62
     8
370
    18
100
AcDbSpline
210
0.0
220
0.0
230
1.0
 70
     8
 71
     3
 72
    24
 73
    20
 74
     0
 42
0.00000001
 43
0.00000001
 40
0.0
 40
0.0
 40
0.0
 40
0.0
 40
0.1249999999999999
 40
0.1249999999999999
 40
0.2499999999999999
 40
0.2499999999999999
 40
0.3749999999999998
 40
0.3749999999999998
 40
0.4999999999999998
 40
0.4999999999999998
 40
0.7499999999999997
 40
0.7499999999999997
 40
0.8749999999999997
 40
0.8749999999999997
 40
0.9374999999999996
 40
0.9374999999999996
 40
0.9687499999999998
 40
0.9687499999999998
 40
1.0
 40
1.0
 40
1.0
 40
1.0
 10
415.9414507772336
 20
377.8630766419554
 30
0.0
 10
417.0580851539983
 20
374.4194001909142
 30
0.0
 10
418.1017975070936
 20
370.9546713902374
 30
0.0
 10
420.038865432274
 20
363.9818072030927
 30
0.0
 10
420.9312095934254
 20
360.472304853733
 30
0.0
 10
422.5637617303425
 20
353.4191245434782
 30
0.0
 10
423.3076952884215
 20
349.8757843385187
 30
0.0
 10
424.6873188111788
 20
342.768155334007
 30
0.0
 10
425.3196796132871
 20
339.2044877645268
 30
0.0
 10
427.0384556878845
 20
328.4838150396252
 30
0.0
 10
427.9490789167512
 20
321.2957274921755
 30
0.0
 10
428.960454064648
 20
310.4856631251292
 30
0.0
 10
429.2386359642857
 20
306.8761587226449
 30
0.0
 10
429.5675190164091
 20
301.4562348198938
 30
0.0
 10
429.6623269974985
 20
299.6487625506051
 30
0.0
 10
429.7826860318581
 20
296.9363247286352
 30
0.0
 10
429.8192053398578
 20
296.0320319572285
 30
0.0
 10
429.8847701561061
 20
294.223171124572
 30
0.0
 10
429.9153428663514
 20
293.3186346631909
 30
0.0
 10
429.9391422267975
 20
292.4139126645618
 30
0.0
  0
LWPOLYLINE
  5
BB
330
1F
100
AcDbEntity
  8
0
  6
Continuous
 62
     8
370
    18
100
AcDbPolyline
 90
        3
 70
   128
 43
0.0
 10
412.5491007504
 20
348.0916608357
 10
412.5489670267
 20
348.094541928
 10
412.5493527839
 20
348.0975303548
  0
LINE
  5
BC
330
1F
100
AcDbEntity
  8
0
  6
Continuous
 62
     8
370
    18
100
AcDbLine
 10
414.6098809293
 20
377.4349133229
 30
0.0
 11
414.6087347849
 21
377.4384487442
 31
0.0
  0
LINE
  5
BD
330
1F
100
AcDbEntity
  8
0
  6
Continuous
 62
     8
370
    18
100
AcDbLine
 10
415.9403834134
 20
377.866368335
 30
0.0
 11
415.9414507773
 21
377.863076642
 31
0.0
  0
SPLINE
  5
BE
330
1F
100
AcDbEntity
  8
0
  6
Continuous
 62
     8
370
    18
100
AcDbSpline
210
0.0
220
0.0
230
1.0
 70
    24
 71
     3
 72
     9
 73
     5
 74
     0
 42
0.00000001
 43
0.00000001
 40
0.0
 40
0.0
 40
0.0
 40
0.0
 40
0.4965931580808086
 40
0.9999999999999999
 40
0.9999999999999999
 40
0.9999999999999999
 40
0.9999999999999999
 10
416.2410688414204
 20
377.9638745302195
 30
0.0
 10
416.2266447162614
 20
377.9591970785277
 30
0.0
 10
416.1975985545807
 20
377.9497779964971
 30
0.0
 10
416.0265103740757
 20
377.8942975641993
 30
0.0
 10
415.9403834134381
 20
377.866368334988
 30
0.0
  0
SPLINE
  5
BF
330
1F
100
AcDbEntity
  8
0
  6
Continuous
 62
     8
370
    18
100
AcDbSpline
210
0.0
220
0.0
230
1.0
 70
     8
 71
     3
 72
    38
 73
    34
 74
     0
 42
0.00000001
 43
0.00000001
 40
0.0
 40
0.0
 40
0.0
 40
0.0
 40
0.0312499999999999
 40
0.0312499999999999
 40
0.0624999999999999
 40
0.0624999999999999
 40
0.1249999999999997
 40
0.1249999999999997
 40
0.1874999999999996
 40
0.1874999999999996
 40
0.2499999999999994
 40
0.2499999999999994
 40
0.3749999999999992
 40
0.3749999999999992
 40
0.4374999999999994
 40
0.4374999999999994
 40
0.4999999999999998
 40
0.4999999999999998
 40
0.5625000000000001
 40
0.5625000000000001
 40
0.6250000000000003
 40
0.6250000000000003
 40
0.7500000000000001
 40
0.7500000000000001
 40
0.8749999999999998
 40
0.8749999999999998
 40
0.9374999999999999
 40
0.9374999999999999
 40
0.96875
 40
0.96875
 40
0.984375
 40
0.984375
 40
1.0
 40
1.0
 40
1.0
 40
1.0
 10
402.7244902524378
 20
384.4686107661263
 30
0.0
 10
402.7256433739543
 20
384.4691484529026
 30
0.0
 10
402.7270409764117
 20
384.4672602752878
 30
0.0
 10
402.7289634794104
 20
384.4582706687357
 30
0.0
 10
402.7295018104249
 20
384.4511754970741
 30
0.0
 10
402.7279767597184
 20
384.4215752794472
 30
0.0
 10
402.7222158048044
 20
384.3905800605361
 30
0.0
 10
402.7038566729658
 20
384.3077592202736
 30
0.0
 10
402.6918335617565
 20
384.2558378732645
 30
0.0
 10
402.6633900176028
 20
384.1310794706451
 30
0.0
 10
402.6467670537576
 20
384.0579019558547
 30
0.0
 10
402.5911006346338
 20
383.8094905165902
 30
0.0
 10
402.5466836242939
 20
383.6068628557048
 30
0.0
 10
402.4721153507031
 20
383.2505013321168
 30
0.0
 10
402.4436717930426
 20
383.1232939462387
 30
0.0
 10
402.3960307987391
 20
382.8299671321761
 30
0.0
 10
402.3756962685482
 20
382.6653303306847
 30
0.0
 10
402.3431778688127
 20
382.3136000846657
 30
0.0
 10
402.3304804082489
 20
382.1252272288233
 30
0.0
 10
402.3112046529923
 20
381.7235276388998
 30
0.0
 10
402.3046029604282
 20
381.5087538731512
 30
0.0
 10
402.2947465875088
 20
380.8342298670636
 30
0.0
 10
402.2772728113885
 20
380.3734430539141
 30
0.0
 10
402.2250864843957
 20
379.4298611718678
 30
0.0
 10
402.1903810806258
 20
378.9471954581812
 30
0.0
 10
402.1293507512019
 20
378.2068118743085
 30
0.0
 10
402.1075210934798
 20
377.9572772731198
 30
0.0
 10
402.0730262658012
 20
377.5787618628322
 30
0.0
 10
402.061251141934
 20
377.4520851132664
 30
0.0
 10
402.0432595222836
 20
377.261611129695
 30
0.0
 10
402.0372069845546
 20
377.1980367360675
 30
0.0
 10
402.0250008580566
 20
377.0707208848563
 30
0.0
 10
402.018722897676
 20
377.0056991744528
 30
0.0
 10
402.0126478468737
 20
376.9431551079425
 30
0.0
  0
SPLINE
  5
C0
330
1F
100
AcDbEntity
  8
0
  6
Continuous
 62
     8
370
    18
100
AcDbSpline
210
0.0
220
0.0
230
1.0
 70
     8
 71
     3
 72
    16
 73
    12
 74
     0
 42
0.00000001
 43
0.00000001
 40
0.0
 40
0.0
 40
0.0
 40
0.0
 40
0.2500000000000016
 40
0.2500000000000016
 40
0.3750000000000014
 40
0.3750000000000014
 40
0.5000000000000013
 40
0.5000000000000013
 40
0.7500000000000007
 40
0.7500000000000007
 40
1.0
 40
1.0
 40
1.0
 40
1.0
 10
402.0126481625769
 20
376.9430540829627
 30
0.0
 10
401.9436178854871
 20
376.1884221016105
 30
0.0
 10
401.8614355969527
 20
375.4356191490576
 30
0.0
 10
401.7189278135559
 20
374.309081496581
 30
0.0
 10
401.668198710944
 20
373.9340162829652
 30
0.0
 10
401.5601265078036
 20
373.1848012885239
 30
0.0
 10
401.502517071175
 20
372.8090362271209
 30
0.0
 10
401.3211958982632
 20
371.6948534422505
 30
0.0
 10
401.190457313321
 20
370.9772148793369
 30
0.0
 10
400.9093755833893
 20
369.5896572402767
 30
0.0
 10
400.7590350300594
 20
368.9197449920903
 30
0.0
 10
400.5980512291524
 20
368.2746306196034
 30
0.0
  0
SPLINE
  5
C1
330
1F
100
AcDbEntity
  8
0
  6
Continuous
 62
     8
370
    18
100
AcDbSpline
210
0.0
220
0.0
230
1.0
 70
     8
 71
     3
 72
    12
 73
     8
 74
     0
 42
0.00000001
 43
0.00000001
 40
0.0
 40
0.0
 40
0.0
 40
0.0
 40
0.4999999999999997
 40
0.4999999999999997
 40
0.7499999999999998
 40
0.7499999999999998
 40
1.0
 40
1.0
 40
1.0
 40
1.0
 10
400.5980512291524
 20
368.2746306196034
 30
0.0
 10
400.4864676936952
 20
367.8897308896774
 30
0.0
 10
400.3918208337569
 20
367.5397290131032
 30
0.0
 10
400.2767490456054
 20
367.0680722620535
 30
0.0
 10
400.2428350696763
 20
366.9192749115276
 30
0.0
 10
400.1863071824812
 20
366.6477594727627
 30
0.0
 10
400.1634568645383
 20
366.5241695416346
 30
0.0
 10
400.1462357788619
 20
366.4131157813651
 30
0.0
  0
SPLINE
  5
C2
330
1F
100
AcDbEntity
  8
0
  6
Continuous
 62
     8
370
    18
100
AcDbSpline
210
0.0
220
0.0
230
1.0
 70
     8
 71
     3
 72
    11
 73
     7
 74
     0
 42
0.00000001
 43
0.00000001
 40
0.0
 40
0.0
 40
0.0
 40
0.0
 40
0.328582517073092
 40
0.6666980164110625
 40
0.9951882482284499
 40
1.0
 40
1.0
 40
1.0
 40
1.0
 10
400.1462357788619
 20
366.4131157813651
 30
0.0
 10
400.1138583122824
 20
366.1789890312483
 30
0.0
 10
400.0481640296493
 20
365.7039429415107
 30
0.0
 10
399.9977270745364
 20
365.3410990562953
 30
0.0
 10
399.9754379385624
 20
365.1807770185756
 30
0.0
 10
399.9816612921421
 20
365.2255429180523
 30
0.0
 10
399.9817511362897
 20
365.2261891860216
 30
0.0
  0
LINE
  5
C3
330
1F
100
AcDbEntity
  8
0
  6
Continuous
 62
     7
370
    25
100
AcDbLine
 10
165.0418006416
 20
345.7779389204
 30
0.0
 11
165.0417998369
 21
345.7459569593
 31
0.0
  0
LINE
  5
C4
330
1F
100
AcDbEntity
  8
0
  6
Continuous
 62
     7
370
    25
100
AcDbLine
 10
199.5280815862
 20
345.7459569695
 30
0.0
 11
199.5280807814
 21
345.7779389429
 31
0.0
  0
SPLINE
  5
C5
330
1F
100
AcDbEntity
  8
0
  6
Continuous
 62
     7
370
    25
100
AcDbSpline
210
0.0
220
0.0
230
1.0
 70
     8
 71
     3
 72
    21
 73
    17
 74
     0
 42
0.00000001
 43
0.00000001
 40
0.0
 40
0.0
 40
0.0
 40
0.0
 40
0.0430345369545218
 40
0.1161422357897933
 40
0.1872144146516626
 40
0.2618665023979476
 40
0.3370589502193378
 40
0.4127672627190638
 40
0.4888291304001331
 40
0.5649877175940515
 40
0.6406682880990773
 40
0.7164611663809158
 40
0.7926332952483397
 40
0.8684896714936983
 40
0.9435294993978582
 40
0.9999999999999999
 40
0.9999999999999999
 40
0.9999999999999999
 40
0.9999999999999999
 10
182.2838627676005
 20
393.6485011893031
 30
0.0
 10
181.9233384755287
 20
393.6381288707349
 30
0.0
 10
180.9503502595293
 20
393.6101359061515
 30
0.0
 10
179.3909266018985
 20
393.4216209656188
 30
0.0
 10
177.5996451897576
 20
393.0415695059123
 30
0.0
 10
175.8463855891028
 20
392.4715359959238
 30
0.0
 10
174.1339171738332
 20
391.7110072943703
 30
0.0
 10
172.5094304938196
 20
390.7720954982861
 30
0.0
 10
170.9968590210595
 20
389.6653422808171
 30
0.0
 10
169.6223869767782
 20
388.4059914377281
 30
0.0
 10
168.4055936634226
 20
387.0090152543488
 30
0.0
 10
167.3567891426506
 20
385.4919803709444
 30
0.0
 10
166.4866009028606
 20
383.8707061283179
 30
0.0
 10
165.8179196018906
 20
382.1694803077475
 30
0.0
 10
165.3769917430817
 20
380.5568997721929
 30
0.0
 10
165.2448037039205
 20
379.5098980082013
 30
0.0
 10
165.1880421945407
 20
379.0603157250798
 30
0.0
  0
SPLINE
  5
C6
330
1F
100
AcDbEntity
  8
0
  6
Continuous
 62
     7
370
    25
100
AcDbSpline
210
0.0
220
0.0
230
1.0
 70
     8
 71
     3
 72
    21
 73
    17
 74
     0
 42
0.00000001
 43
0.00000001
 40
0.0
 40
0.0
 40
0.0
 40
0.0
 40
0.0515952829585412
 40
0.1214551066161681
 40
0.1950641910573788
 40
0.2692545504815704
 40
0.3443726899039105
 40
0.4199705914536043
 40
0.4953564636229391
 40
0.570328876348558
 40
0.6458459343447428
 40
0.7216506713763167
 40
0.7974616554696543
 40
0.8731037367455495
 40
0.9461223019724035
 40
1.0
 40
1.0
 40
1.0
 40
1.0
 10
199.3941161690856
 20
378.9347420331605
 30
0.0
 10
199.3470194559506
 20
379.3481273037714
 30
0.0
 10
199.2361539661792
 20
380.3212347127558
 30
0.0
 10
198.8492086817999
 20
381.8532806365811
 30
0.0
 10
198.2449821608965
 20
383.5070509861886
 30
0.0
 10
197.4314741477041
 20
385.1223119542704
 30
0.0
 10
196.4318918967975
 20
386.6551047193556
 30
0.0
 10
195.2562545128689
 20
388.0805303635724
 30
0.0
 10
193.9224610731319
 20
389.3706047815979
 30
0.0
 10
192.4479243821517
 20
390.5117681502598
 30
0.0
 10
190.8477781414907
 20
391.4950027089729
 30
0.0
 10
189.1366881486616
 20
392.3086497831944
 30
0.0
 10
187.3397407160076
 20
392.9402261142414
 30
0.0
 10
185.5015033473036
 20
393.3700524704653
 30
0.0
 10
183.8084534246986
 20
393.5949887603566
 30
0.0
 10
182.7400475118311
 20
393.6345384748101
 30
0.0
 10
182.2864230341035
 20
393.6513305183088
 30
0.0
  0
SPLINE
  5
C7
330
1F
100
AcDbEntity
  8
0
  6
Continuous
 62
     7
370
    25
100
AcDbSpline
210
0.0
220
0.0
230
1.0
 70
     8
 71
     3
 72
    24
 73
    20
 74
     0
 42
0.00000001
 43
0.00000001
 40
0.0
 40
0.0
 40
0.0
 40
0.0
 40
0.0312499999999998
 40
0.0312499999999998
 40
0.0624999999999996
 40
0.0624999999999996
 40
0.1249999999999997
 40
0.1249999999999997
 40
0.2499999999999996
 40
0.2499999999999996
 40
0.4999999999999997
 40
0.4999999999999997
 40
0.6249999999999998
 40
0.6249999999999998
 40
0.7499999999999999
 40
0.7499999999999999
 40
0.875
 40
0.875
 40
1.0
 40
1.0
 40
1.0
 40
1.0
 10
165.1602547825624
 20
292.3711770645701
 30
0.0
 10
165.1562114491679
 20
293.2718165090444
 30
0.0
 10
165.1522752842703
 20
294.1722659225531
 30
0.0
 10
165.1446427037492
 20
295.9729529324462
 30
0.0
 10
165.140939255848
 20
296.8731601765808
 30
0.0
 10
165.1301513551367
 20
299.5733461245484
 30
0.0
 10
165.1233856680045
 20
301.3726564653737
 30
0.0
 10
165.1042422749377
 20
306.7681035105475
 30
0.0
 10
165.0930354717263
 20
310.3613096169145
 30
0.0
 10
165.0644636657363
 20
321.1225663154664
 30
0.0
 10
165.0520784383643
 20
328.2782206155256
 30
0.0
 10
165.0430544398019
 20
338.9505627516959
 30
0.0
 10
165.0416441922548
 20
342.4981607320361
 30
0.0
 10
165.0419756869434
 20
349.5737707079468
 30
0.0
 10
165.043723203824
 20
353.1011526795381
 30
0.0
 10
165.0503233484313
 20
360.1225884328068
 30
0.0
 10
165.0551740321679
 20
363.6162943363439
 30
0.0
 10
165.0678340881139
 20
370.5577221764077
 30
0.0
 10
165.0756615131909
 20
374.0068010979169
 30
0.0
 10
165.0848858426923
 20
377.4349133226401
 30
0.0
  0
SPLINE
  5
C8
330
1F
100
AcDbEntity
  8
0
  6
Continuous
 62
     7
370
    25
100
AcDbSpline
210
0.0
220
0.0
230
1.0
 70
     8
 71
     3
 72
    24
 73
    20
 74
     0
 42
0.00000001
 43
0.00000001
 40
0.0
 40
0.0
 40
0.0
 40
0.0
 40
0.0312499999999999
 40
0.0312499999999999
 40
0.0624999999999999
 40
0.0624999999999999
 40
0.1249999999999999
 40
0.1249999999999999
 40
0.2500000000000001
 40
0.2500000000000001
 40
0.5
 40
0.5
 40
0.625
 40
0.625
 40
0.75
 40
0.75
 40
0.875
 40
0.875
 40
1.0
 40
1.0
 40
1.0
 40
1.0
 10
199.4096266404896
 20
292.3711770645701
 30
0.0
 10
199.4136699738841
 20
293.2718165090444
 30
0.0
 10
199.4176061387817
 20
294.1722659225532
 30
0.0
 10
199.4252387193028
 20
295.9729529324463
 30
0.0
 10
199.428942167204
 20
296.8731601765808
 30
0.0
 10
199.4397300679152
 20
299.5733461245484
 30
0.0
 10
199.4464957550475
 20
301.3726564653738
 30
0.0
 10
199.4656391481142
 20
306.7681035105476
 30
0.0
 10
199.4768459513256
 20
310.3613096169145
 30
0.0
 10
199.5054177573157
 20
321.1225663154667
 30
0.0
 10
199.5178029846874
 20
328.2782206155215
 30
0.0
 10
199.5268269832503
 20
338.9505627516982
 30
0.0
 10
199.5282372307972
 20
342.4981607320363
 30
0.0
 10
199.5279057361086
 20
349.5737707079471
 30
0.0
 10
199.526158219228
 20
353.1011526795381
 30
0.0
 10
199.5195580746206
 20
360.1225884328072
 30
0.0
 10
199.5147073908846
 20
363.616294336344
 30
0.0
 10
199.5020473349377
 20
370.5577221764078
 30
0.0
 10
199.4942199098611
 20
374.0068010979168
 30
0.0
 10
199.4849955803597
 20
377.4349133226401
 30
0.0
  0
SPLINE
  5
C9
330
1F
100
AcDbEntity
  8
0
  6
Continuous
 62
     7
370
    25
100
AcDbSpline
210
0.0
220
0.0
230
1.0
 70
     8
 71
     3
 72
    13
 73
     9
 74
     0
 42
0.00000001
 43
0.00000001
 40
0.0
 40
0.0
 40
0.0
 40
0.0
 40
0.0444603875757406
 40
0.2764942363045774
 40
0.4593267050164362
 40
0.6424735024026441
 40
0.8242617290588063
 40
1.0
 40
1.0
 40
1.0
 40
1.0
 10
165.042776026017
 20
344.2848533301295
 30
0.0
 10
165.0425600096195
 20
343.5255107062993
 30
0.0
 10
165.0412166275187
 20
338.8032428558047
 30
0.0
 10
165.0496000334522
 20
330.8852197919738
 30
0.0
 10
165.0663794821797
 20
320.5540928732406
 30
0.0
 10
165.0903810886789
 20
311.0526239725348
 30
0.0
 10
165.1208919898544
 20
301.6541772467239
 30
0.0
 10
165.1472827102673
 20
295.4276511575353
 30
0.0
 10
165.1602547825624
 20
292.3670698125504
 30
0.0
  0
SPLINE
  5
CA
330
1F
100
AcDbEntity
  8
0
  6
Continuous
 62
     7
370
    25
100
AcDbSpline
210
0.0
220
0.0
230
1.0
 70
     8
 71
     3
 72
    13
 73
     9
 74
     0
 42
0.00000001
 43
0.00000001
 40
0.0
 40
0.0
 40
0.0
 40
0.0
 40
0.0444603875757314
 40
0.2764942363045704
 40
0.459326705016431
 40
0.6424735024026408
 40
0.8242617290588048
 40
1.0
 40
1.0
 40
1.0
 40
1.0
 10
199.527105397035
 20
344.284853330129
 30
0.0
 10
199.5273214134326
 20
343.525510706299
 30
0.0
 10
199.5286647955334
 20
338.8032428558046
 30
0.0
 10
199.5202813895999
 20
330.8852197919738
 30
0.0
 10
199.5035019408723
 20
320.5540928732406
 30
0.0
 10
199.4795003343731
 20
311.0526239725348
 30
0.0
 10
199.4489894331976
 20
301.6541772467239
 30
0.0
 10
199.4225987127847
 20
295.4276511575352
 30
0.0
 10
199.4096266404896
 20
292.3670698125504
 30
0.0
  0
SPLINE
  5
CB
330
1F
100
AcDbEntity
  8
0
  6
Continuous
 62
     7
370
    25
100
AcDbSpline
210
0.0
220
0.0
230
1.0
 70
     8
 71
     3
 72
    11
 73
     7
 74
     0
 42
0.00000001
 43
0.00000001
 40
0.0
 40
0.0
 40
0.0
 40
0.0
 40
0.5690114841821641
 40
0.5690114841821641
 40
0.784505742091082
 40
1.0
 40
1.0
 40
1.0
 40
1.0
 10
182.284940711526
 20
285.8789885753467
 30
0.0
 10
178.3741555433264
 20
285.8789885753468
 30
0.0
 10
174.4705300748585
 20
286.062483124705
 30
0.0
 10
169.100892501393
 20
286.5785342481223
 30
0.0
 10
166.3136780494083
 20
287.9887614565386
 30
0.0
 10
165.1668811898407
 20
290.8871633627829
 30
0.0
 10
165.1602547825624
 20
292.3670698125507
 30
0.0
  0
SPLINE
  5
CC
330
1F
100
AcDbEntity
  8
0
  6
Continuous
 62
     7
370
    25
100
AcDbSpline
210
0.0
220
0.0
230
1.0
 70
     8
 71
     3
 72
    11
 73
     7
 74
     0
 42
0.00000001
 43
0.00000001
 40
0.0
 40
0.0
 40
0.0
 40
0.0
 40
0.5690114841821641
 40
0.5690114841821641
 40
0.784505742091082
 40
1.0
 40
1.0
 40
1.0
 40
1.0
 10
182.284940711526
 20
285.8789885753467
 30
0.0
 10
186.1957258797256
 20
285.8789885753468
 30
0.0
 10
190.0993513481936
 20
286.062483124705
 30
0.0
 10
195.468988921659
 20
286.5785342481223
 30
0.0
 10
198.2562033736438
 20
287.9887614565386
 30
0.0
 10
199.4030002332113
 20
290.8871633627829
 30
0.0
 10
199.4096266404896
 20
292.3670698125507
 30
0.0
  0
LINE
  5
CD
330
1F
100
AcDbEntity
  8
0
  6
Continuous
 62
     7
370
    25
100
AcDbLine
 10
165.0848956758
 20
377.4384487442
 30
0.0
 11
165.2056786559
 21
379.0417409159
 31
0.0
  0
LINE
  5
CE
330
1F
100
AcDbEntity
  8
0
  6
Continuous
 62
     7
370
    25
100
AcDbLine
 10
199.4849857472
 20
377.4384487442
 30
0.0
 11
199.3736132374
 21
378.9168248607
 31
0.0
  0
LWPOLYLINE
  5
CF
330
1F
100
AcDbEntity
  8
0
  6
Continuous
 62
     7
370
    25
100
AcDbPolyline
 90
       49
 70
   128
 43
0.0
 10
199.5383949885
 20
358.8170879311
 10
200.9458476772
 20
360.3469805085
 10
202.3570846423
 20
362.2013786056
 10
203.5750158889
 20
364.1816517478
 10
204.5879120732
 20
366.2687288222
 10
205.3860184513
 20
368.4425101357
 10
205.9616488223
 20
370.6820609859
 10
206.3092595513
 20
372.9658132739
 10
206.4255029568
 20
375.2717732167
 10
206.3092595513
 20
377.5777331595
 10
205.9616488223
 20
379.8614854475
 10
205.3860184513
 20
382.1010362978
 10
204.5879120732
 20
384.2748176113
 10
203.5750158889
 20
386.3618946857
 10
202.3570846423
 20
388.3421678279
 10
200.9458476772
 20
390.1965659249
 10
199.3548959768
 20
391.9072301095
 10
197.5995512758
 20
393.4576857504
 10
195.6967185033
 20
394.8330011121
 10
193.6647229791
 20
396.0199311559
 10
191.5231339308
 20
397.0070450967
 10
189.2925760316
 20
397.7848364875
 10
186.9945307736
 20
398.3458147722
 10
184.6511295888
 20
398.6845774231
 10
182.2849407115
 20
398.7978619708
 10
179.9187518343
 20
398.6845774231
 10
177.5753506494
 20
398.3458147722
 10
175.2773053914
 20
397.7848364875
 10
173.0467474923
 20
397.0070450967
 10
170.905158444
 20
396.0199311559
 10
168.8731629197
 20
394.8330011121
 10
166.9703301472
 20
393.4576857504
 10
165.2149854463
 20
391.9072301095
 10
163.6240337459
 20
390.1965659249
 10
162.2127967807
 20
388.3421678279
 10
160.9948655341
 20
386.3618946857
 10
159.9819693498
 20
384.2748176113
 10
159.1838629718
 20
382.1010362978
 10
158.6082326007
 20
379.8614854475
 10
158.2606218718
 20
377.5777331595
 10
158.1443784663
 20
375.2717732167
 10
158.2606218718
 20
372.9658132739
 10
158.6082326007
 20
370.6820609859
 10
159.1838629718
 20
368.4425101357
 10
159.9819693498
 20
366.2687288222
 10
160.9948655341
 20
364.1816517478
 10
162.2127967807
 20
362.2013786056
 10
163.6240337459
 20
360.3469805085
 10
165.0331754285
 20
358.8154061254
  0
ARC
  5
D0
330
1F
100
AcDbEntity
  8
0
  6
Continuous
 62
     7
370
    25
100
AcDbCircle
 10
182.2849407115
 20
377.8332512262
 30
0.0
 40
24.5
100
AcDbArc
 50
109.6668951191
 51
191.1615442272
  0
ARC
  5
D1
330
1F
100
AcDbEntity
  8
0
  6
Continuous
 62
     7
370
    25
100
AcDbCircle
 10
182.2849407115
 20
377.8332512262
 30
0.0
 40
24.50000000000003
100
AcDbArc
 50
348.8384557725
 51
109.6668951191
  0
ARC
  5
D2
330
1F
100
AcDbEntity
  8
0
  6
Continuous
 62
     7
370
    25
100
AcDbCircle
 10
182.2849407115
 20
362.8332512262
 30
0.0
 40
74.50000000000003
100
AcDbArc
 50
282.9261074615
 51
257.0342907525
  0
SPLINE
  5
D3
330
1F
100
AcDbEntity
  8
0
  6
Continuous
 62
     8
370
    18
100
AcDbSpline
210
0.0
220
0.0
230
1.0
 70
     8
 71
     3
 72
    28
 73
    24
 74
     0
 42
0.00000001
 43
0.00000001
 40
0.0
 40
0.0
 40
0.0
 40
0.0
 40
0.0624999999999999
 40
0.0624999999999999
 40
0.1249999999999998
 40
0.1249999999999998
 40
0.1874999999999998
 40
0.1874999999999998
 40
0.2187499999999997
 40
0.2187499999999997
 40
0.2499999999999996
 40
0.2499999999999996
 40
0.3124999999999995
 40
0.3124999999999995
 40
0.3437499999999993
 40
0.3437499999999993
 40
0.3593749999999993
 40
0.3593749999999993
 40
0.3749999999999993
 40
0.3749999999999993
 40
0.4999999999999993
 40
0.4999999999999993
 40
1.0
 40
1.0
 40
1.0
 40
1.0
 10
166.4997403659609
 20
292.4139126645608
 30
0.0
 10
166.5016928598835
 20
292.0244645176938
 30
0.0
 10
166.55387710671
 20
291.6385850158405
 30
0.0
 10
166.7502054229043
 20
290.8869708345943
 30
0.0
 10
166.893028707152
 20
290.5269022421862
 30
0.0
 10
167.2595458649409
 20
289.8510566470371
 30
0.0
 10
167.4877698552913
 20
289.5302445313222
 30
0.0
 10
167.8796772433869
 20
289.1079643288592
 30
0.0
 10
168.0189345302623
 20
288.9759761696482
 30
0.0
 10
168.3141142729788
 20
288.7289577913522
 30
0.0
 10
168.471106257779
 20
288.6132706116486
 30
0.0
 10
168.9594680851905
 20
288.2975537608805
 30
0.0
 10
169.3050793453662
 20
288.1291596394262
 30
0.0
 10
169.8537928921729
 20
287.9402379770813
 30
0.0
 10
170.0423493251374
 20
287.8881218209991
 30
0.0
 10
170.3252182796431
 20
287.8289781540756
 30
0.0
 10
170.4198280509215
 20
287.8123185473187
 30
0.0
 10
170.6096928172364
 20
287.7851609942607
 30
0.0
 10
170.7050466333534
 20
287.7756087641618
 30
0.0
 10
171.5629388020594
 20
287.6868025515566
 30
0.0
 10
172.3263253436253
 20
287.6153634719001
 30
0.0
 10
176.1473752867223
 20
287.296306487031
 30
0.0
 10
179.2160227887012
 20
287.162166527452
 30
0.0
 10
182.284940711526
 20
287.162117513487
 30
0.0
  0
SPLINE
  5
D4
330
1F
100
AcDbEntity
  8
0
  6
Continuous
 62
     8
370
    18
100
AcDbSpline
210
0.0
220
0.0
230
1.0
 70
     8
 71
     3
 72
    34
 73
    30
 74
     0
 42
0.00000001
 43
0.00000001
 40
0.0
 40
0.0
 40
0.0
 40
0.0
 40
0.4999999999999982
 40
0.4999999999999982
 40
0.5624999999999981
 40
0.5624999999999981
 40
0.5937499999999983
 40
0.5937499999999983
 40
0.6249999999999984
 40
0.6249999999999984
 40
0.6874999999999992
 40
0.6874999999999992
 40
0.75
 40
0.75
 40
0.8125000000000007
 40
0.8125000000000007
 40
0.8437500000000002
 40
0.8437500000000002
 40
0.8749999999999998
 40
0.8749999999999998
 40
0.9062499999999993
 40
0.9062499999999993
 40
0.9374999999999989
 40
0.9374999999999989
 40
0.9687499999999984
 40
0.9687499999999984
 40
0.9843749999999992
 40
0.9843749999999992
 40
1.0
 40
1.0
 40
1.0
 40
1.0
 10
182.284940711526
 20
285.8810262402346
 30
0.0
 10
178.8716712955989
 20
285.8810284158474
 30
0.0
 10
175.4578427944193
 20
286.0221938146613
 30
0.0
 10
171.6338329863887
 20
286.3423067297492
 30
0.0
 10
171.2091748981885
 20
286.3801058934438
 30
0.0
 10
170.5725369027828
 20
286.4401509726375
 30
0.0
 10
170.3603899350247
 20
286.4608723713767
 30
0.0
 10
169.939189267483
 20
286.5329363931606
 30
0.0
 10
169.7295252441773
 20
286.5806006142267
 30
0.0
 10
169.1055420103299
 20
286.7585586645098
 30
0.0
 10
168.7092630945994
 20
286.9194500758649
 30
0.0
 10
167.9541864839717
 20
287.321553626502
 30
0.0
 10
167.5925451271442
 20
287.5661019313665
 30
0.0
 10
166.9402072436309
 20
288.1181839692645
 30
0.0
 10
166.6461296865577
 20
288.4271988547965
 30
0.0
 10
166.2552022908422
 20
288.9422808332505
 30
0.0
 10
166.1338963290173
 20
289.1218565416041
 30
0.0
 10
165.9134075895909
 20
289.4890108942004
 30
0.0
 10
165.8134446156825
 20
289.6775866607554
 30
0.0
 10
165.6336298511796
 20
290.0645148020722
 30
0.0
 10
165.5537780710014
 20
290.2628672234349
 30
0.0
 10
165.4146258850682
 20
290.669562218742
 30
0.0
 10
165.3553048525781
 20
290.8784852955256
 30
0.0
 10
165.2600886091838
 20
291.2984566902496
 30
0.0
 10
165.2238140076394
 20
291.5104202957453
 30
0.0
 10
165.1867226771592
 20
291.8313901893569
 30
0.0
 10
165.1772518786754
 20
291.9389051889106
 30
0.0
 10
165.1642489199432
 20
292.1548928425046
 30
0.0
 10
165.1607323378466
 20
292.2645583737208
 30
0.0
 10
165.1602547825624
 20
292.3711770635253
 30
0.0
  0
ARC
  5
D5
330
1F
100
AcDbEntity
  8
0
  6
Continuous
 62
     8
370
    18
100
AcDbCircle
 10
166.2308880032
 20
279.8272140826
 30
0.0
 40
12.58956960292553
100
AcDbArc
 50
88.7763460344
 51
94.8783991229
  0
SPLINE
  5
D6
330
1F
100
AcDbEntity
  8
0
  6
Continuous
 62
     8
370
    18
100
AcDbSpline
210
0.0
220
0.0
230
1.0
 70
     8
 71
     3
 72
    34
 73
    30
 74
     0
 42
0.00000001
 43
0.00000001
 40
0.0
 40
0.0
 40
0.0
 40
0.0
 40
0.5000000000000008
 40
0.5000000000000008
 40
0.5625000000000009
 40
0.5625000000000009
 40
0.5937500000000007
 40
0.5937500000000007
 40
0.6250000000000006
 40
0.6250000000000006
 40
0.6875000000000007
 40
0.6875000000000007
 40
0.7500000000000007
 40
0.7500000000000007
 40
0.8125000000000008
 40
0.8125000000000008
 40
0.8437500000000007
 40
0.8437500000000007
 40
0.8750000000000004
 40
0.8750000000000004
 40
0.9062500000000003
 40
0.9062500000000003
 40
0.9375000000000001
 40
0.9375000000000001
 40
0.96875
 40
0.96875
 40
0.984375
 40
0.984375
 40
1.0
 40
1.0
 40
1.0
 40
1.0
 10
182.284940711526
 20
285.8810262402346
 30
0.0
 10
185.6982101274531
 20
285.8810284158474
 30
0.0
 10
189.1120386286327
 20
286.0221938146613
 30
0.0
 10
192.9360484366633
 20
286.3423067297492
 30
0.0
 10
193.3607065248635
 20
286.3801058934438
 30
0.0
 10
193.9973445202692
 20
286.4401509726375
 30
0.0
 10
194.2094914880273
 20
286.4608723713768
 30
0.0
 10
194.630692155569
 20
286.5329363931605
 30
0.0
 10
194.8403561788747
 20
286.5806006142266
 30
0.0
 10
195.4643394127221
 20
286.7585586645098
 30
0.0
 10
195.8606183284525
 20
286.9194500758649
 30
0.0
 10
196.6156949390803
 20
287.321553626502
 30
0.0
 10
196.9773362959078
 20
287.5661019313665
 30
0.0
 10
197.6296741794212
 20
288.1181839692645
 30
0.0
 10
197.9237517364944
 20
288.4271988547965
 30
0.0
 10
198.3146791322098
 20
288.9422808332506
 30
0.0
 10
198.4359850940347
 20
289.1218565416041
 30
0.0
 10
198.6564738334611
 20
289.4890108942004
 30
0.0
 10
198.7564368073695
 20
289.6775866607554
 30
0.0
 10
198.9362515718724
 20
290.0645148020722
 30
0.0
 10
199.0161033520505
 20
290.2628672234349
 30
0.0
 10
199.1552555379839
 20
290.669562218742
 30
0.0
 10
199.214576570474
 20
290.8784852955256
 30
0.0
 10
199.3097928138681
 20
291.2984566902496
 30
0.0
 10
199.3460674154126
 20
291.5104202957453
 30
0.0
 10
199.3831587458928
 20
291.8313901893569
 30
0.0
 10
199.3926295443766
 20
291.9389051889106
 30
0.0
 10
199.4056325031088
 20
292.1548928425047
 30
0.0
 10
199.4091496358481
 20
292.2645583706887
 30
0.0
 10
199.4096266404896
 20
292.3711770635253
 30
0.0
  0
SPLINE
  5
D7
330
1F
100
AcDbEntity
  8
0
  6
Continuous
 62
     8
370
    18
100
AcDbSpline
210
0.0
220
0.0
230
1.0
 70
     8
 71
     3
 72
    28
 73
    24
 74
     0
 42
0.00000001
 43
0.00000001
 40
0.0
 40
0.0
 40
0.0
 40
0.0
 40
0.0624999999999988
 40
0.0624999999999988
 40
0.1249999999999977
 40
0.1249999999999977
 40
0.1874999999999965
 40
0.1874999999999965
 40
0.2187499999999968
 40
0.2187499999999968
 40
0.2499999999999972
 40
0.2499999999999972
 40
0.3124999999999991
 40
0.3124999999999991
 40
0.3437499999999997
 40
0.3437499999999997
 40
0.3593750000000001
 40
0.3593750000000001
 40
0.3750000000000005
 40
0.3750000000000005
 40
0.5000000000000006
 40
0.5000000000000006
 40
1.0
 40
1.0
 40
1.0
 40
1.0
 10
198.0701410570911
 20
292.4139126645608
 30
0.0
 10
198.0681885631685
 20
292.0244645176938
 30
0.0
 10
198.0160043163423
 20
291.6385850158404
 30
0.0
 10
197.8196760001474
 20
290.8869708345943
 30
0.0
 10
197.6768527158995
 20
290.5269022421865
 30
0.0
 10
197.3103355581108
 20
289.8510566470372
 30
0.0
 10
197.0821115677607
 20
289.5302445313222
 30
0.0
 10
196.6902041796651
 20
289.1079643288592
 30
0.0
 10
196.5509468927898
 20
288.9759761696482
 30
0.0
 10
196.2557671500732
 20
288.7289577913523
 30
0.0
 10
196.0987751652731
 20
288.6132706116486
 30
0.0
 10
195.6104133378616
 20
288.2975537608804
 30
0.0
 10
195.2648020776856
 20
288.1291596394265
 30
0.0
 10
194.7160885308791
 20
287.9402379770813
 30
0.0
 10
194.5275320979147
 20
287.8881218209984
 30
0.0
 10
194.244663143409
 20
287.8289781540751
 30
0.0
 10
194.1500533721304
 20
287.8123185473196
 30
0.0
 10
193.9601886058155
 20
287.7851609942615
 30
0.0
 10
193.8648347896986
 20
287.775608764162
 30
0.0
 10
193.0069426209926
 20
287.6868025515568
 30
0.0
 10
192.2435560794268
 20
287.6153634718993
 30
0.0
 10
188.4225061363298
 20
287.29630648703
 30
0.0
 10
185.3538586343508
 20
287.162166527452
 30
0.0
 10
182.284940711526
 20
287.162117513487
 30
0.0
  0
ARC
  5
D8
330
1F
100
AcDbEntity
  8
0
  6
Continuous
 62
     8
370
    18
100
AcDbCircle
 10
198.3389934198
 20
279.8272140826
 30
0.0
 40
12.58956960292638
100
AcDbArc
 50
85.1216008771
 51
91.2236539656
  0
SPLINE
  5
D9
330
1F
100
AcDbEntity
  8
0
  6
Continuous
 62
     8
370
    18
100
AcDbSpline
210
0.0
220
0.0
230
1.0
 70
     8
 71
     3
 72
    24
 73
    20
 74
     0
 42
0.00000001
 43
0.00000001
 40
0.0
 40
0.0
 40
0.0
 40
0.0
 40
0.1249999999999999
 40
0.1249999999999999
 40
0.2499999999999999
 40
0.2499999999999999
 40
0.3749999999999998
 40
0.3749999999999998
 40
0.4999999999999998
 40
0.4999999999999998
 40
0.7499999999999997
 40
0.7499999999999997
 40
0.8749999999999997
 40
0.8749999999999997
 40
0.9374999999999996
 40
0.9374999999999996
 40
0.9687499999999998
 40
0.9687499999999998
 40
1.0
 40
1.0
 40
1.0
 40
1.0
 10
166.424799066508
 20
377.8630766419554
 30
0.0
 10
166.4156134326453
 20
374.4194001909143
 30
0.0
 10
166.4080215061736
 20
370.9546713902375
 30
0.0
 10
166.3956576725351
 20
363.9818072030928
 30
0.0
 10
166.3908129838893
 20
360.472304853733
 30
0.0
 10
166.383725541148
 20
353.4191245434783
 30
0.0
 10
166.3816623052896
 20
349.8757843385187
 30
0.0
 10
166.3818950777002
 20
342.7681553340071
 30
0.0
 10
166.3837917061701
 20
339.2044877645268
 30
0.0
 10
166.3933216095182
 20
328.4838150396253
 30
0.0
 10
166.4053732024324
 20
321.2957274921755
 30
0.0
 10
166.4334815714928
 20
310.4856631251292
 30
0.0
 10
166.4444765999636
 20
306.876158722645
 30
0.0
 10
166.4637517621641
 20
301.4562348198939
 30
0.0
 10
166.4708643300287
 20
299.6487625506052
 30
0.0
 10
166.4814378454723
 20
296.9363247286352
 30
0.0
 10
166.4848843187198
 20
296.0320319572286
 30
0.0
 10
166.4916605044984
 20
294.223171124572
 30
0.0
 10
166.4951906063036
 20
293.3186346631909
 30
0.0
 10
166.4997403661302
 20
292.4139126645618
 30
0.0
  0
LWPOLYLINE
  5
DA
330
1F
100
AcDbEntity
  8
0
  6
Continuous
 62
     8
370
    18
100
AcDbPolyline
 90
        9
 70
   128
 43
0.0
 10
166.424799067
 20
377.863076642
 10
166.1603828822
 20
377.8523584189
 10
165.9077667327
 20
377.8263363003
 10
165.6761367339
 20
377.7859565525
 10
165.4739158623
 20
377.7326875417
 10
165.3084576629
 20
377.6684663384
 10
165.1857788456
 20
377.5956282778
 10
165.1103404941
 20
377.5168220379
 10
165.0848858427
 20
377.4349133229
  0
SPLINE
  5
DB
330
1F
100
AcDbEntity
  8
0
  6
Continuous
 62
     8
370
    18
100
AcDbSpline
210
0.0
220
0.0
230
1.0
 70
     8
 71
     3
 72
    24
 73
    20
 74
     0
 42
0.00000001
 43
0.00000001
 40
0.0
 40
0.0
 40
0.0
 40
0.0
 40
0.125
 40
0.125
 40
0.2500000000000001
 40
0.2500000000000001
 40
0.3750000000000001
 40
0.3750000000000001
 40
0.5000000000000001
 40
0.5000000000000001
 40
0.7499999999999999
 40
0.7499999999999999
 40
0.8749999999999999
 40
0.8749999999999999
 40
0.9374999999999997
 40
0.9374999999999997
 40
0.9687499999999999
 40
0.9687499999999999
 40
1.0
 40
1.0
 40
1.0
 40
1.0
 10
198.145082356544
 20
377.8630766419554
 30
0.0
 10
198.1542679904067
 20
374.4194001909143
 30
0.0
 10
198.1618599168789
 20
370.9546713902374
 30
0.0
 10
198.1742237505163
 20
363.9818072030928
 30
0.0
 10
198.1790684391627
 20
360.472304853733
 30
0.0
 10
198.1861558819041
 20
353.4191245434783
 30
0.0
 10
198.1882191177624
 20
349.8757843385187
 30
0.0
 10
198.1879863453519
 20
342.7681553340071
 30
0.0
 10
198.1860897168819
 20
339.2044877645268
 30
0.0
 10
198.1765598135338
 20
328.4838150396253
 30
0.0
 10
198.1645082206198
 20
321.2957274921754
 30
0.0
 10
198.136399851559
 20
310.4856631251292
 30
0.0
 10
198.1254048230885
 20
306.876158722645
 30
0.0
 10
198.1061296608879
 20
301.4562348198939
 30
0.0
 10
198.0990170930233
 20
299.6487625506051
 30
0.0
 10
198.0884435775797
 20
296.9363247286353
 30
0.0
 10
198.0849971043321
 20
296.0320319572286
 30
0.0
 10
198.0782209185536
 20
294.223171124572
 30
0.0
 10
198.0746908167484
 20
293.3186346631909
 30
0.0
 10
198.0701410569218
 20
292.4139126645619
 30
0.0
  0
LWPOLYLINE
  5
DC
330
1F
100
AcDbEntity
  8
0
  6
Continuous
 62
     8
370
    18
100
AcDbPolyline
 90
        9
 70
   128
 43
0.0
 10
198.1450823561
 20
377.863076642
 10
198.4094985409
 20
377.8523584189
 10
198.6621146903
 20
377.8263363003
 10
198.8937446891
 20
377.7859565525
 10
199.0959655608
 20
377.7326875417
 10
199.2614237602
 20
377.6684663384
 10
199.3841025775
 20
377.5956282778
 10
199.4595409289
 20
377.5168220379
 10
199.4849955804
 20
377.4349133229
  0
LINE
  5
DD
330
1F
100
AcDbEntity
  8
0
  6
Continuous
 62
     8
370
    18
100
AcDbLine
 10
198.1450732818
 20
377.866368335
 30
0.0
 11
198.1450823561
 21
377.863076642
 31
0.0
  0
LINE
  5
DE
330
1F
100
AcDbEntity
  8
0
  6
Continuous
 62
     8
370
    18
100
AcDbLine
 10
166.4248081412
 20
377.866368335
 30
0.0
 11
166.424799067
 21
377.863076642
 31
0.0
  0
LINE
  5
DF
330
1F
100
AcDbEntity
  8
0
  6
Continuous
 62
     8
370
    18
100
AcDbLine
 10
165.1602547826
 20
292.3711770646
 30
0.0
 11
165.1602547826
 21
292.3670698126
 31
0.0
  0
LINE
  5
E0
330
1F
100
AcDbEntity
  8
0
  6
Continuous
 62
     8
370
    18
100
AcDbLine
 10
199.4096266405
 20
292.3711770646
 30
0.0
 11
199.4096266405
 21
292.3670698126
 31
0.0
  0
LINE
  5
E1
330
1F
100
AcDbEntity
  8
0
  6
Continuous
 62
     8
370
    18
100
AcDbLine
 10
182.2849407115
 20
285.8810262402
 30
0.0
 11
182.2849407115
 21
285.8789885753
 31
0.0
  0
SPLINE
  5
E2
330
1F
100
AcDbEntity
  8
0
  6
Continuous
 62
     8
370
    18
100
AcDbSpline
210
0.0
220
0.0
230
1.0
 70
     8
 71
     3
 72
    38
 73
    34
 74
     0
 42
0.00000001
 43
0.00000001
 40
0.0
 40
0.0
 40
0.0
 40
0.0
 40
0.0312500000000002
 40
0.0312500000000002
 40
0.0625000000000003
 40
0.0625000000000003
 40
0.1250000000000006
 40
0.1250000000000006
 40
0.1875000000000008
 40
0.1875000000000008
 40
0.2500000000000011
 40
0.2500000000000011
 40
0.3125000000000013
 40
0.3125000000000013
 40
0.3750000000000016
 40
0.3750000000000016
 40
0.5000000000000021
 40
0.5000000000000021
 40
0.562500000000002
 40
0.562500000000002
 40
0.6250000000000019
 40
0.6250000000000019
 40
0.7500000000000016
 40
0.7500000000000016
 40
0.8125000000000016
 40
0.8125000000000016
 40
0.8750000000000016
 40
0.8750000000000016
 40
0.9375000000000016
 40
0.9375000000000016
 40
0.9687500000000008
 40
0.9687500000000008
 40
1.0
 40
1.0
 40
1.0
 40
1.0
 10
182.284940711526
 20
392.7999780011588
 30
0.0
 10
182.0250572575689
 20
392.799977531081
 30
0.0
 10
181.7626319151484
 20
392.7936941786697
 30
0.0
 10
181.2425798049512
 20
392.7688588058928
 30
0.0
 10
180.983299848251
 20
392.7503069655418
 30
0.0
 10
180.2076642190616
 20
392.6765133065397
 30
0.0
 10
179.6935057887798
 20
392.6031909881116
 30
0.0
 10
178.6710420530508
 20
392.4082981164306
 30
0.0
 10
178.1648402224847
 20
392.2868975543007
 30
0.0
 10
177.1763843684193
 20
392.0008929729713
 30
0.0
 10
176.6919955132902
 20
391.8359053795591
 30
0.0
 10
175.7427276441741
 20
391.462264691976
 30
0.0
 10
175.2778414718512
 20
391.2536275445229
 30
0.0
 10
174.3674845251363
 20
390.7927243533094
 30
0.0
 10
173.9196797353331
 20
390.5389099496092
 30
0.0
 10
172.6260050710516
 20
389.7223069698915
 30
0.0
 10
171.8308191254509
 20
389.1076043596643
 30
0.0
 10
170.7378316852399
 20
388.0802453344631
 30
0.0
 10
170.3902863299352
 20
387.7200836340019
 30
0.0
 10
169.7291758873415
 20
386.9637457166199
 30
0.0
 10
169.4176620507972
 20
386.5694966182445
 30
0.0
 10
168.5541330022418
 20
385.3595547282656
 30
0.0
 10
168.0655062328256
 20
384.5095347877246
 30
0.0
 10
167.4653141397539
 20
383.1675491013547
 30
0.0
 10
167.2876102222151
 20
382.7089483621064
 30
0.0
 10
166.9785856098517
 20
381.7683462321477
 30
0.0
 10
166.8480224455945
 20
381.2875922969326
 30
0.0
 10
166.6395075181165
 20
380.3233622225933
 30
0.0
 10
166.5606866135382
 20
379.8374068339177
 30
0.0
 10
166.4807100953881
 20
379.1026741663971
 30
0.0
 10
166.4604396828677
 20
378.856794726448
 30
0.0
 10
166.4328453535404
 20
378.3630685007959
 30
0.0
 10
166.4255170412227
 20
378.1135788590115
 30
0.0
 10
166.4248081347603
 20
377.8663683349026
 30
0.0
  0
LWPOLYLINE
  5
E3
330
1F
100
AcDbEntity
  8
0
  6
Continuous
 62
     8
370
    18
100
AcDbPolyline
 90
        9
 70
   128
 43
0.0
 10
166.4248081412
 20
377.866368335
 10
166.160392135
 20
377.8556996795
 10
165.907776155
 20
377.8297246027
 10
165.6761463076
 20
377.7893876602
 10
165.4739255615
 20
377.7361556612
 10
165.3084674549
 20
377.6719643298
 10
165.1857886927
 20
377.599147914
 10
165.1103503552
 20
377.5203543041
 10
165.0848956758
 20
377.4384487442
  0
LWPOLYLINE
  5
E4
330
1F
100
AcDbEntity
  8
0
  6
Continuous
 62
     8
370
    18
100
AcDbPolyline
 90
        9
 70
   128
 43
0.0
 10
198.1450732818
 20
377.866368335
 10
198.4094892881
 20
377.8556996795
 10
198.6621052681
 20
377.8297246027
 10
198.8937351154
 20
377.7893876602
 10
199.0959558616
 20
377.7361556612
 10
199.2614139682
 20
377.6719643298
 10
199.3840927304
 20
377.599147914
 10
199.4595310679
 20
377.5203543041
 10
199.4849857472
 20
377.4384487442
  0
SPLINE
  5
E5
330
1F
100
AcDbEntity
  8
0
  6
Continuous
 62
     8
370
    18
100
AcDbSpline
210
0.0
220
0.0
230
1.0
 70
     8
 71
     3
 72
    38
 73
    34
 74
     0
 42
0.00000001
 43
0.00000001
 40
0.0
 40
0.0
 40
0.0
 40
0.0
 40
0.0312499999999999
 40
0.0312499999999999
 40
0.0624999999999999
 40
0.0624999999999999
 40
0.1249999999999998
 40
0.1249999999999998
 40
0.1874999999999997
 40
0.1874999999999997
 40
0.2499999999999997
 40
0.2499999999999997
 40
0.3124999999999996
 40
0.3124999999999996
 40
0.3749999999999994
 40
0.3749999999999994
 40
0.4999999999999997
 40
0.4999999999999997
 40
0.5624999999999993
 40
0.5624999999999993
 40
0.624999999999999
 40
0.624999999999999
 40
0.7499999999999984
 40
0.7499999999999984
 40
0.8124999999999983
 40
0.8124999999999983
 40
0.8749999999999984
 40
0.8749999999999984
 40
0.9374999999999984
 40
0.9374999999999984
 40
0.9687499999999992
 40
0.9687499999999992
 40
1.0
 40
1.0
 40
1.0
 40
1.0
 10
182.284940711526
 20
392.7999780011588
 30
0.0
 10
182.5448241654841
 20
392.7999780012188
 30
0.0
 10
182.8072495079036
 20
392.7936941786697
 30
0.0
 10
183.3273016181008
 20
392.7688588058928
 30
0.0
 10
183.586581574801
 20
392.7503069655418
 30
0.0
 10
184.3622172039905
 20
392.6765133065397
 30
0.0
 10
184.8763756342721
 20
392.6031909881116
 30
0.0
 10
185.8988393700012
 20
392.4082981164307
 30
0.0
 10
186.4050412005673
 20
392.2868975543007
 30
0.0
 10
187.3934970546327
 20
392.0008929729714
 30
0.0
 10
187.8778859097618
 20
391.8359053795591
 30
0.0
 10
188.8271537788779
 20
391.462264691976
 30
0.0
 10
189.2920399512008
 20
391.2536275445229
 30
0.0
 10
190.2023968979157
 20
390.7927243533094
 30
0.0
 10
190.6502016877188
 20
390.5389099496092
 30
0.0
 10
191.9438763520004
 20
389.7223069698915
 30
0.0
 10
192.739062297601
 20
389.1076043596643
 30
0.0
 10
193.8320497378121
 20
388.0802453344631
 30
0.0
 10
194.1795950931168
 20
387.7200836340019
 30
0.0
 10
194.8407055357105
 20
386.9637457166199
 30
0.0
 10
195.1522193722547
 20
386.5694966182444
 30
0.0
 10
196.0157484208102
 20
385.3595547282655
 30
0.0
 10
196.5043751902263
 20
384.5095347877246
 30
0.0
 10
197.1045672832981
 20
383.1675491013547
 30
0.0
 10
197.2822712008369
 20
382.7089483621064
 30
0.0
 10
197.5912958132004
 20
381.7683462321477
 30
0.0
 10
197.7218589774575
 20
381.2875922969326
 30
0.0
 10
197.9303739049355
 20
380.3233622225933
 30
0.0
 10
198.0091948095137
 20
379.8374068339178
 30
0.0
 10
198.0891713276638
 20
379.1026741663971
 30
0.0
 10
198.1094417401845
 20
378.856794726448
 30
0.0
 10
198.1370360695118
 20
378.3630685007958
 30
0.0
 10
198.1443648822513
 20
378.1135788446278
 30
0.0
 10
198.1450732882917
 20
377.8663683349026
 30
0.0
  0
ARC
  5
E6
330
1F
100
AcDbEntity
  8
0
  6
Continuous
 62
     8
370
    18
100
AcDbCircle
 10
182.2849407115
 20
362.8332512262
 30
0.0
 40
73.35275294427503
100
AcDbArc
 50
283.4044022762
 51
256.5764156103
  0
ARC
  5
E7
330
1F
100
AcDbEntity
  8
0
  6
Continuous
 62
     8
370
    18
100
AcDbCircle
 10
182.2849407115
 20
362.8332512262
 30
0.0
 40
74.34193130454274
100
AcDbArc
 50
283.0236640697
 51
256.9525347453
  0
LINE
  5
E8
330
1F
100
AcDbEntity
  8
0
  6
Continuous
 62
     7
370
    25
100
AcDbLine
 10
107.7849407115
 20
208.6429578141
 30
0.0
 11
107.9430094069
 21
202.6065578715
 31
0.0
  0
LINE
  5
E9
330
1F
100
AcDbEntity
  8
0
  6
Continuous
 62
     7
370
    25
100
AcDbLine
 10
256.626872016
 20
202.6065578715
 30
0.0
 11
256.7849407115
 21
208.6429578141
 31
0.0
  0
ARC
  5
EA
330
1F
100
AcDbEntity
  8
0
  6
Continuous
 62
     7
370
    25
100
AcDbCircle
 10
255.627214691
 20
202.6327348198
 30
0.0
 40
0.9999999999996073
100
AcDbArc
 50
270.6004114401
 51
358.5
  0
ARC
  5
EB
330
1F
100
AcDbEntity
  8
0
  6
Continuous
 62
     7
370
    25
100
AcDbCircle
 10
108.9426667319
 20
202.6327348198
 30
0.0
 40
0.9999999999996076
100
AcDbArc
 50
181.5
 51
269.3995885599
  0
ARC
  5
EC
330
1F
100
AcDbEntity
  8
0
  6
Continuous
 62
     7
370
    25
100
AcDbCircle
 10
182.2849407115
 20
7201.2484487197
 30
0.0
 40
7000.000000000003
100
AcDbArc
 50
269.3995885599
 51
269.842204388
  0
ARC
  5
ED
330
1F
100
AcDbEntity
  8
0
  6
Continuous
 62
     7
370
    25
100
AcDbCircle
 10
182.2849407115
 20
7201.2484487197
 30
0.0
 40
7000.000000000002
100
AcDbArc
 50
270.1581706908
 51
270.6004114401
  0
LINE
  5
EE
330
1F
100
AcDbEntity
  8
0
  6
Continuous
 62
     7
370
    25
100
AcDbLine
 10
206.7849407115
 20
171.6429578141
 30
0.0
 11
206.7849407115
 21
201.3073935208
 31
0.0
  0
LINE
  5
EF
330
1F
100
AcDbEntity
  8
0
  6
Continuous
 62
     7
370
    25
100
AcDbLine
 10
157.7849407115
 20
201.3073983107
 30
0.0
 11
157.7849407115
 21
171.6429578141
 31
0.0
  0
ARC
  5
F0
330
1F
100
AcDbEntity
  8
0
  6
Continuous
 62
     7
370
    25
100
AcDbCircle
 10
182.2849407115
 20
171.6429578141
 30
0.0
 40
24.50000000000001
100
AcDbArc
 50
180.0
 51
207.9015476134
  0
ARC
  5
F1
330
1F
100
AcDbEntity
  8
0
  6
Continuous
 62
     7
370
    25
100
AcDbCircle
 10
182.2849407115
 20
171.6429578141
 30
0.0
 40
24.50000000000003
100
AcDbArc
 50
332.0984523866
 51
0.0
  0
ARC
  5
F2
330
1F
100
AcDbEntity
  8
0
  6
Continuous
 62
     7
370
    25
100
AcDbCircle
 10
182.2849407115
 20
171.1300735998
 30
0.0
 40
26.50000000000001
100
AcDbArc
 50
205.0404577293
 51
250.044623581
  0
ARC
  5
F3
330
1F
100
AcDbEntity
  8
0
  6
Continuous
 62
     7
370
    25
100
AcDbCircle
 10
182.2849407115
 20
171.1300735998
 30
0.0
 40
26.50000000000001
100
AcDbArc
 50
289.965160466
 51
334.9595422707
  0
SPLINE
  5
F4
330
1F
100
AcDbEntity
  8
0
  6
Continuous
 62
     7
370
    25
100
AcDbSpline
210
0.0
220
0.0
230
1.0
 70
     8
 71
     3
 72
    11
 73
     7
 74
     0
 42
0.00000001
 43
0.00000001
 40
0.0
 40
0.0
 40
0.0
 40
0.0
 40
0.181736965349602
 40
0.4326565480303026
 40
0.698651233019822
 40
1.0
 40
1.0
 40
1.0
 40
1.0
 10
169.3963564895035
 20
138.3557629670121
 30
0.0
 10
168.9513857881922
 20
138.0799533347845
 30
0.0
 10
167.8920554134741
 20
137.4233403933085
 30
0.0
 10
166.5217769659206
 20
136.1053283104878
 30
0.0
 10
165.4231373548146
 20
134.5189782163652
 30
0.0
 10
165.2191104284793
 20
133.4008673923505
 30
0.0
 10
165.110739982908
 20
132.8069743686552
 30
0.0
  0
SPLINE
  5
F5
330
1F
100
AcDbEntity
  8
0
  6
Continuous
 62
     7
370
    25
100
AcDbSpline
210
0.0
220
0.0
230
1.0
 70
     8
 71
     3
 72
    11
 73
     7
 74
     0
 42
0.00000001
 43
0.00000001
 40
0.0
 40
0.0
 40
0.0
 40
0.0
 40
0.3013487669801476
 40
0.5673434519696683
 40
0.8182630346503933
 40
1.0
 40
1.0
 40
1.0
 40
1.0
 10
199.459141440144
 20
132.8069743686554
 30
0.0
 10
199.3507709945727
 20
133.4008673923507
 30
0.0
 10
199.1467440682373
 20
134.5189782163654
 30
0.0
 10
198.048104457131
 20
136.1053283104883
 30
0.0
 10
196.6778260095773
 20
137.4233403933089
 30
0.0
 10
195.6184956348588
 20
138.079953334785
 30
0.0
 10
195.1735249335475
 20
138.3557629670127
 30
0.0
  0
SPLINE
  5
F6
330
1F
100
AcDbEntity
  8
0
  6
Continuous
 62
     7
370
    25
100
AcDbSpline
210
0.0
220
0.0
230
1.0
 70
     8
 71
     3
 72
    11
 73
     7
 74
     0
 42
0.00000001
 43
0.00000001
 40
0.0
 40
0.0
 40
0.0
 40
0.0
 40
0.2595204408210729
 40
0.519701165021419
 40
0.7701658834117857
 40
1.0
 40
1.0
 40
1.0
 40
1.0
 10
173.7435493687461
 20
143.2852939329409
 30
0.0
 10
173.4818193063598
 20
142.6150664704656
 30
0.0
 10
172.957693276391
 20
141.2729063231734
 30
0.0
 10
171.6259581123633
 20
139.8775520246326
 30
0.0
 10
170.3300519182032
 20
138.8900870899904
 30
0.0
 10
169.588642542824
 20
138.480824500572
 30
0.0
 10
169.2338609851546
 20
138.2849828727325
 30
0.0
  0
SPLINE
  5
F7
330
1F
100
AcDbEntity
  8
0
  6
Continuous
 62
     7
370
    25
100
AcDbSpline
210
0.0
220
0.0
230
1.0
 70
     8
 71
     3
 72
    12
 73
     8
 74
     0
 42
0.00000001
 43
0.00000001
 40
0.0
 40
0.0
 40
0.0
 40
0.0
 40
0.22968099981587
 40
0.4799788572117153
 40
0.7399862475601942
 40
0.8700660744218224
 40
1.0
 40
1.0
 40
1.0
 40
1.0
 10
195.3360204378974
 20
138.2849828727325
 30
0.0
 10
194.9819931529377
 20
138.4812311660746
 30
0.0
 10
194.2421600287657
 20
138.8913435900174
 30
0.0
 10
192.9334488519632
 20
139.871904728943
 30
0.0
 10
191.8680658027982
 20
141.0559115907731
 30
0.0
 10
191.1619701713499
 20
142.2525354419446
 30
0.0
 10
190.9381695663098
 20
142.9411699068882
 30
0.0
 10
190.826332054306
 20
143.2852939329404
 30
0.0
  0
LINE
  5
F8
330
1F
100
AcDbEntity
  8
0
  6
Continuous
 62
     7
370
    25
100
AcDbLine
 10
191.2854577516
 20
146.2017392109
 30
0.0
 11
191.3264024306
 21
146.2190483624
 31
0.0
  0
SPLINE
  5
F9
330
1F
100
AcDbEntity
  8
0
  6
Continuous
 62
     7
370
    25
100
AcDbSpline
210
0.0
220
0.0
230
1.0
 70
     8
 71
     3
 72
    12
 73
     8
 74
     0
 42
0.00000001
 43
0.00000001
 40
0.0
 40
0.0
 40
0.0
 40
0.0
 40
0.2335048842371529
 40
0.4830607589316672
 40
0.660943573332133
 40
0.8448389281640601
 40
1.0
 40
1.0
 40
1.0
 40
1.0
 10
182.284940711526
 20
116.65396031681
 30
0.0
 10
183.53460293193
 20
116.6523729773377
 30
0.0
 10
186.1198284297552
 20
116.6490891855974
 30
0.0
 10
189.552357508235
 20
116.6679983548356
 30
0.0
 10
192.6205466966528
 20
116.7087268514907
 30
0.0
 10
195.1663077004695
 20
116.7623334817097
 30
0.0
 10
196.7017584414101
 20
116.8190817374438
 30
0.0
 10
197.4044207830651
 20
116.8450512206683
 30
0.0
  0
SPLINE
  5
FA
330
1F
100
AcDbEntity
  8
0
  6
Continuous
 62
     7
370
    25
100
AcDbSpline
210
0.0
220
0.0
230
1.0
 70
     8
 71
     3
 72
    11
 73
     7
 74
     0
 42
0.00000001
 43
0.00000001
 40
0.0
 40
0.0
 40
0.0
 40
0.0
 40
0.1684248122329449
 40
0.3996258279485327
 40
0.6788545766784768
 40
1.0
 40
1.0
 40
1.0
 40
1.0
 10
167.2126622826532
 20
116.8429175275493
 30
0.0
 10
168.0925742148311
 20
116.8100296465034
 30
0.0
 10
170.180363595484
 20
116.7319957361892
 30
0.0
 10
173.6212910439436
 20
116.6392474128913
 30
0.0
 10
177.7817290128845
 20
116.5934823096131
 30
0.0
 10
180.715591742141
 20
116.6328840040323
 30
0.0
 10
182.284940711526
 20
116.65396031681
 30
0.0
  0
SPLINE
  5
FB
330
1F
100
AcDbEntity
  8
0
  6
Continuous
 62
     7
370
    25
100
AcDbSpline
210
0.0
220
0.0
230
1.0
 70
     8
 71
     3
 72
     9
 73
     5
 74
     0
 42
0.00000001
 43
0.00000001
 40
0.0
 40
0.0
 40
0.0
 40
0.0
 40
0.3850247701167557
 40
1.0
 40
1.0
 40
1.0
 40
1.0
 10
199.244515818037
 20
117.7395940371051
 30
0.0
 10
199.2783793886132
 20
117.8113444646183
 30
0.0
 10
199.3663310561536
 20
117.9976972218485
 30
0.0
 10
199.3866788266246
 20
118.1223851494005
 30
0.0
 10
199.3991922014477
 20
118.1990651363103
 30
0.0
  0
SPLINE
  5
FC
330
1F
100
AcDbEntity
  8
0
  6
Continuous
 62
     7
370
    25
100
AcDbSpline
210
0.0
220
0.0
230
1.0
 70
     8
 71
     3
 72
     9
 73
     5
 74
     0
 42
0.00000001
 43
0.00000001
 40
0.0
 40
0.0
 40
0.0
 40
0.0
 40
0.4374214131190349
 40
1.0
 40
1.0
 40
1.0
 40
1.0
 10
165.1712814852153
 20
118.2036488769538
 30
0.0
 10
165.1771912564627
 20
118.1549063185077
 30
0.0
 10
165.1907017318765
 20
118.0434747402075
 30
0.0
 10
165.279213942316
 20
117.8503109205811
 30
0.0
 10
165.3290090165868
 20
117.7416410918991
 30
0.0
  0
LINE
  5
FD
330
1F
100
AcDbEntity
  8
0
  6
Continuous
 62
     7
370
    25
100
AcDbLine
 10
165.0417961145
 20
124.2420274413
 30
0.0
 11
165.04179692
 21
124.0892310703
 31
0.0
  0
LINE
  5
FE
330
1F
100
AcDbEntity
  8
0
  6
Continuous
 62
     7
370
    25
100
AcDbLine
 10
199.528084503
 20
124.0892310701
 30
0.0
 11
199.5280853085
 21
124.2420274412
 31
0.0
  0
SPLINE
  5
FF
330
1F
100
AcDbEntity
  8
0
  6
Continuous
 62
     7
370
    25
100
AcDbSpline
210
0.0
220
0.0
230
1.0
 70
     8
 71
     3
 72
    12
 73
     8
 74
     0
 42
0.00000001
 43
0.00000001
 40
0.0
 40
0.0
 40
0.0
 40
0.0
 40
0.0865445267656132
 40
0.3524223417895891
 40
0.6184922067490911
 40
0.8965641715110347
 40
0.9999999999999999
 40
0.9999999999999999
 40
0.9999999999999999
 40
0.9999999999999999
 10
173.2999416136004
 20
146.1921683875078
 30
0.0
 10
173.3077404694353
 20
146.1888305321957
 30
0.0
 10
173.3394985844695
 20
146.1752382828691
 30
0.0
 10
173.5319993088949
 20
146.0508325873696
 30
0.0
 10
173.7862191723164
 20
145.7337192240585
 30
0.0
 10
173.9413663348807
 20
145.3371931013914
 30
0.0
 10
173.9162979670496
 20
145.121996650351
 30
0.0
 10
173.9095013368329
 20
145.0636517787782
 30
0.0
  0
SPLINE
  5
100
330
1F
100
AcDbEntity
  8
0
  6
Continuous
 62
     7
370
    25
100
AcDbSpline
210
0.0
220
0.0
230
1.0
 70
     8
 71
     3
 72
    12
 73
     8
 74
     0
 42
0.00000001
 43
0.00000001
 40
0.0
 40
0.0
 40
0.0
 40
0.0
 40
0.0819343532053812
 40
0.3755594619892156
 40
0.640469750167011
 40
0.8904507329389814
 40
1.0
 40
1.0
 40
1.0
 40
1.0
 10
190.656650453926
 20
145.0629463537557
 30
0.0
 10
190.6508234446067
 20
145.1091554647167
 30
0.0
 10
190.6241143976765
 20
145.3209624561993
 30
0.0
 10
190.776246139639
 20
145.7243278817888
 30
0.0
 10
191.0348206468092
 20
146.0463329637539
 30
0.0
 10
191.2294053335143
 20
146.1749451610767
 30
0.0
 10
191.2655696351927
 20
146.1904827124182
 30
0.0
 10
191.2765889381429
 20
146.1952170215957
 30
0.0
  0
LINE
  5
101
330
1F
100
AcDbEntity
  8
0
  6
Continuous
 62
     7
370
    25
100
AcDbLine
 10
190.6449075837
 20
144.8208302721
 30
0.0
 11
190.6406788457
 21
145.0630933258
 31
0.0
  0
LINE
  5
102
330
1F
100
AcDbEntity
  8
0
  6
Continuous
 62
     7
370
    25
100
AcDbLine
 10
173.9291316198
 20
145.0590281897
 30
0.0
 11
173.9249737935
 21
144.8208276415
 31
0.0
  0
SPLINE
  5
103
330
1F
100
AcDbEntity
  8
0
  6
Continuous
 62
     7
370
    25
100
AcDbSpline
210
0.0
220
0.0
230
1.0
 70
     8
 71
     3
 72
    10
 73
     6
 74
     0
 42
0.00000001
 43
0.00000001
 40
0.0
 40
0.0
 40
0.0
 40
0.0
 40
0.0141706675913221
 40
0.3658770003449736
 40
0.9999999999999999
 40
0.9999999999999999
 40
0.9999999999999999
 40
0.9999999999999999
 10
173.9278284870798
 20
144.8219144662445
 30
0.0
 10
173.9275304297653
 20
144.8103098305405
 30
0.0
 10
173.9198347926006
 20
144.5106860284762
 30
0.0
 10
173.8942436118626
 20
143.6490048420509
 30
0.0
 10
173.6053199029805
 20
142.8675326613608
 30
0.0
 10
173.4194731616383
 20
142.3648599703835
 30
0.0
  0
LINE
  5
104
330
1F
100
AcDbEntity
  8
0
  6
Continuous
 62
     7
370
    25
100
AcDbLine
 10
173.243283834
 20
142.0262053736
 30
0.0
 11
173.0160933964
 21
141.651616957
 31
0.0
  0
LINE
  5
105
330
1F
100
AcDbEntity
  8
0
  6
Continuous
 62
     7
370
    25
100
AcDbLine
 10
165.2039337222
 20
117.9999864598
 30
0.0
 11
165.3035060862
 21
117.7313967086
 31
0.0
  0
SPLINE
  5
106
330
1F
100
AcDbEntity
  8
0
  6
Continuous
 62
     7
370
    25
100
AcDbSpline
210
0.0
220
0.0
230
1.0
 70
     8
 71
     3
 72
    12
 73
     8
 74
     0
 42
0.00000001
 43
0.00000001
 40
0.0
 40
0.0
 40
0.0
 40
0.0
 40
0.148425551232255
 40
0.4185158328581025
 40
0.6465989670177678
 40
0.8330357074976482
 40
1.0
 40
1.0
 40
1.0
 40
1.0
 10
165.4810531585494
 20
117.425622888284
 30
0.0
 10
165.5157231598305
 20
117.3785301907666
 30
0.0
 10
165.6134822339313
 20
117.2457428144732
 30
0.0
 10
165.8223152987028
 20
117.0986244560486
 30
0.0
 10
166.0501211460003
 20
116.9859273801965
 30
0.0
 10
166.2271295525086
 20
116.9315949104348
 30
0.0
 10
166.3013946972605
 20
116.9164816102236
 30
0.0
 10
166.3364812595335
 20
116.9093413326306
 30
0.0
  0
SPLINE
  5
107
330
1F
100
AcDbEntity
  8
0
  6
Continuous
 62
     7
370
    25
100
AcDbSpline
210
0.0
220
0.0
230
1.0
 70
     8
 71
     3
 72
    11
 73
     7
 74
     0
 42
0.00000001
 43
0.00000001
 40
0.0
 40
0.0
 40
0.0
 40
0.0
 40
0.2671110558387264
 40
0.5328071767364532
 40
0.8801443741660919
 40
1.0
 40
1.0
 40
1.0
 40
1.0
 10
198.2291157502599
 20
116.9103832280313
 30
0.0
 10
198.2784756287881
 20
116.9192079573829
 30
0.0
 10
198.3769339177576
 20
116.9368106699193
 30
0.0
 10
198.6430471870084
 20
117.0387453976416
 30
0.0
 10
198.8706822119889
 20
117.1681689408409
 30
0.0
 10
198.9763926607596
 20
117.2970040787573
 30
0.0
 10
199.0035120670598
 20
117.3300559907634
 30
0.0
  0
SPLINE
  5
108
330
1F
100
AcDbEntity
  8
0
  6
Continuous
 62
     7
370
    25
100
AcDbSpline
210
0.0
220
0.0
230
1.0
 70
     8
 71
     3
 72
    10
 73
     6
 74
     0
 42
0.00000001
 43
0.00000001
 40
0.0
 40
0.0
 40
0.0
 40
0.0
 40
0.3015200352788097
 40
0.9644789771132923
 40
1.0
 40
1.0
 40
1.0
 40
1.0
 10
199.315560492692
 20
117.8161040079297
 30
0.0
 10
199.326029688633
 20
117.8367676471047
 30
0.0
 10
199.3595177431929
 20
117.9028648985077
 30
0.0
 10
199.3740725344188
 20
117.9794116653045
 30
0.0
 10
199.3838684573126
 20
118.0321230102698
 30
0.0
 10
199.384366626507
 20
118.0348036324572
 30
0.0
  0
LINE
  5
109
330
1F
100
AcDbEntity
  8
0
  6
Continuous
 62
     7
370
    25
100
AcDbLine
 10
256.7849407115
 20
208.6429578141
 30
0.0
 11
107.7849407115
 21
208.6429578141
 31
0.0
  0
SPLINE
  5
10A
330
1F
100
AcDbEntity
  8
0
  6
Continuous
 62
     7
370
    25
100
AcDbSpline
210
0.0
220
0.0
230
1.0
 70
     8
 71
     3
 72
    21
 73
    17
 74
     0
 42
0.00000001
 43
0.00000001
 40
0.0
 40
0.0
 40
0.0
 40
0.0
 40
0.0705684030511749
 40
0.1431832916434232
 40
0.2137516957052594
 40
0.2863665933075208
 40
0.3569349090134155
 40
0.4295497129773339
 40
0.5001179930290245
 40
0.5727327543934086
 40
0.6433011027376832
 40
0.715915930036942
 40
0.7864844206901302
 40
0.8590993935614647
 40
0.9296680381711045
 40
1.0
 40
1.0
 40
1.0
 40
1.0
 10
164.9609274098163
 20
201.3445191339239
 30
0.0
 10
165.9673227416653
 20
201.3464774006534
 30
0.0
 10
168.0092988964074
 20
201.3504507238991
 30
0.0
 10
171.5919027651245
 20
201.3548904576308
 30
0.0
 10
175.4766259536365
 20
201.358092333806
 30
0.0
 10
179.5279799497918
 20
201.3598127514194
 30
0.0
 10
183.6922935170809
 20
201.3600595735024
 30
0.0
 10
187.7799244987409
 20
201.3588145296609
 30
0.0
 10
191.7479147112234
 20
201.3560922920387
 30
0.0
 10
195.4126692228714
 20
201.3520184188557
 30
0.0
 10
198.7367108976426
 20
201.3466350345123
 30
0.0
 10
201.5648227861794
 20
201.3401913585823
 30
0.0
 10
203.8727953936854
 20
201.3327538551674
 30
0.0
 10
205.5353451300087
 20
201.3246667512331
 30
0.0
 10
206.5929093615114
 20
201.3161054920321
 30
0.0
 10
206.7137330721456
 20
201.3102942573447
 30
0.0
 10
206.7740434485106
 20
201.3073935208145
 30
0.0
  0
SPLINE
  5
10B
330
1F
100
AcDbEntity
  8
0
  6
Continuous
 62
     7
370
    25
100
AcDbSpline
210
0.0
220
0.0
230
1.0
 70
     8
 71
     3
 72
    13
 73
     9
 74
     0
 42
0.00000001
 43
0.00000001
 40
0.0
 40
0.0
 40
0.0
 40
0.0
 40
0.084493012606325
 40
0.3023011356707787
 40
0.5139709266510855
 40
0.7317791672031748
 40
0.8651451064037479
 40
1.0
 40
1.0
 40
1.0
 40
1.0
 10
157.8661086237045
 20
201.3073983106792
 30
0.0
 10
157.8459207064901
 20
201.3085590423904
 30
0.0
 10
157.7736918900178
 20
201.3127119362651
 30
0.0
 10
158.3770829953482
 20
201.3197237516991
 30
0.0
 10
159.6545759850065
 20
201.3281989984534
 30
0.0
 10
161.372378842867
 20
201.3350453824813
 30
0.0
 10
163.1894914596645
 20
201.340483623769
 30
0.0
 10
164.3682675423815
 20
201.3431689948385
 30
0.0
 10
164.9609274098163
 20
201.3445191339239
 30
0.0
  0
LWPOLYLINE
  5
10C
330
1F
100
AcDbEntity
  8
0
  6
Continuous
 62
     7
370
    25
100
AcDbPolyline
 90
       29
 70
   128
 43
0.0
 10
203.9368889797
 20
160.1780925209
 10
203.6124438153
 20
159.7380077344
 10
203.0217505631
 20
159.243786874
 10
202.2038604826
 20
158.766115702
 10
201.1677345489
 20
158.3102276835
 10
199.9247247744
 20
157.8811176231
 10
198.4884498343
 20
157.4834869405
 10
196.8746458575
 20
157.1216921605
 10
195.100994018
 20
156.7996971826
 10
193.1869268166
 20
156.5210298511
 10
191.153415174
 20
156.2887433035
 10
189.0227386693
 20
156.10538252
 10
186.8182414403
 20
155.9729564396
 10
184.5640764198
 20
155.8929159502
 10
182.2849407115
 20
155.866137992
 10
180.0058050033
 20
155.8929159502
 10
177.7516399828
 20
155.9729564396
 10
175.5471427537
 20
156.10538252
 10
173.4164662491
 20
156.2887433035
 10
171.3829546065
 20
156.5210298511
 10
169.468887405
 20
156.7996971826
 10
167.6952355656
 20
157.1216921605
 10
166.0814315888
 20
157.4834869405
 10
164.6451566487
 20
157.8811176231
 10
163.4021468742
 20
158.3102276835
 10
162.3660209404
 20
158.766115702
 10
161.54813086
 20
159.243786874
 10
160.9574376078
 20
159.7380077344
 10
160.6329924433
 20
160.1780925209
  0
LWPOLYLINE
  5
10D
330
1F
100
AcDbEntity
  8
0
  6
Continuous
 62
     7
370
    25
100
AcDbPolyline
 90
       39
 70
   128
 43
0.0
 10
205.6590832915
 20
161.8303460932
 10
205.9616488223
 20
161.5332989298
 10
206.3092595513
 20
161.0079375302
 10
206.4255029568
 20
160.4774674133
 10
206.3092595513
 20
159.9469972965
 10
205.9616488223
 20
159.4216358969
 10
205.3860184513
 20
158.906442732
 10
204.5879120732
 20
158.4063793935
 10
203.5750158889
 20
157.9262617649
 10
202.3570846423
 20
157.4707136412
 10
200.9458476772
 20
157.0441222001
 10
199.3548959768
 20
156.6505957502
 10
197.5995512758
 20
156.2939241665
 10
195.6967185033
 20
155.9775423911
 10
193.6647229791
 20
155.7044973536
 10
191.5231339308
 20
155.477418627
 10
189.2925760316
 20
155.2984931035
 10
186.9945307736
 20
155.1694439337
 10
184.6511295888
 20
155.0915139317
 10
182.2849407115
 20
155.0654536059
 10
179.9187518343
 20
155.0915139317
 10
177.5753506494
 20
155.1694439337
 10
175.2773053914
 20
155.2984931035
 10
173.0467474923
 20
155.477418627
 10
170.905158444
 20
155.7044973536
 10
168.8731629197
 20
155.9775423911
 10
166.9703301472
 20
156.2939241665
 10
165.2149854463
 20
156.6505957502
 10
163.6240337459
 20
157.0441222001
 10
162.2127967807
 20
157.4707136412
 10
160.9948655341
 20
157.9262617649
 10
159.9819693498
 20
158.4063793935
 10
159.1838629718
 20
158.906442732
 10
158.6082326007
 20
159.4216358969
 10
158.2606218718
 20
159.9469972965
 10
158.1443784663
 20
160.4774674133
 10
158.2606218718
 20
161.0079375302
 10
158.6082326007
 20
161.5332989298
 10
158.9316237756
 20
161.8483030233
  0
LWPOLYLINE
  5
10E
330
1F
100
AcDbEntity
  8
0
  6
Continuous
 62
     7
370
    25
100
AcDbPolyline
 90
       17
 70
   128
 43
0.0
 10
182.2849407115
 20
155.3816052241
 10
184.6704239529
 20
155.4082957665
 10
187.0321991902
 20
155.4881021312
 10
189.3467940398
 20
155.6202311667
 10
191.5912050184
 20
155.8033697151
 10
193.7431261614
 20
156.0356976635
 10
195.7811707095
 20
156.3149060322
 10
197.6850836604
 20
156.638219923
 10
199.4359430719
 20
157.0024260972
 10
201.0163481166
 20
157.4039049103
 10
202.410592019
 20
157.8386662853
 10
203.6048181568
 20
158.3023893686
 10
204.5871577743
 20
158.7904654716
 10
205.3478479389
 20
159.2980438749
 10
205.87932857
 20
159.8200800362
 10
206.1763175743
 20
160.3513857256
 10
206.2328784677
 20
160.5942906653
  0
LWPOLYLINE
  5
10F
330
1F
100
AcDbEntity
  8
0
  6
Continuous
 62
     7
370
    25
100
AcDbPolyline
 90
        3
 70
   128
 43
0.0
 10
205.9051650863
 20
161.6519994618
 10
205.6426236945
 20
161.9479710576
 10
204.9993039641
 20
162.4610352468
  0
LWPOLYLINE
  5
110
330
1F
100
AcDbEntity
  8
0
  6
Continuous
 62
     7
370
    25
100
AcDbPolyline
 90
        3
 70
   128
 43
0.0
 10
159.570577459
 20
162.4610352468
 10
158.9272577285
 20
161.9479710576
 10
158.5819497726
 20
161.5349177893
  0
LWPOLYLINE
  5
111
330
1F
100
AcDbEntity
  8
0
  6
Continuous
 62
     7
370
    25
100
AcDbPolyline
 90
       17
 70
   128
 43
0.0
 10
158.3444825824
 20
160.5451215961
 10
158.3935638487
 20
160.3513857256
 10
158.6905528531
 20
159.8200800362
 10
159.2220334842
 20
159.2980438749
 10
159.9827236488
 20
158.7904654716
 10
160.9650632662
 20
158.3023893686
 10
162.1592894041
 20
157.8386662853
 10
163.5535333065
 20
157.4039049103
 10
165.1339383511
 20
157.0024260972
 10
166.8847977626
 20
156.638219923
 10
168.7887107136
 20
156.3149060322
 10
170.8267552617
 20
156.0356976635
 10
172.9786764046
 20
155.8033697151
 10
175.2230873832
 20
155.6202311667
 10
177.5376822329
 20
155.4881021312
 10
179.8994574701
 20
155.4082957665
 10
182.2849407115
 20
155.3816052241
  0
LINE
  5
112
330
1F
100
AcDbEntity
  8
0
  6
Continuous
 62
     7
370
    25
100
AcDbLine
 10
165.1486055073
 20
132.8042150607
 30
0.0
 11
165.0848858427
 21
132.3693943187
 31
0.0
  0
LINE
  5
113
330
1F
100
AcDbEntity
  8
0
  6
Continuous
 62
     7
370
    25
100
AcDbLine
 10
169.2730921158
 20
138.272489118
 30
0.0
 11
169.4027145424
 21
138.3464988602
 31
0.0
  0
LINE
  5
114
330
1F
100
AcDbEntity
  8
0
  6
Continuous
 62
     7
370
    25
100
AcDbLine
 10
195.2967893073
 20
138.272489118
 30
0.0
 11
195.1671668806
 21
138.3464988602
 31
0.0
  0
LINE
  5
115
330
1F
100
AcDbEntity
  8
0
  6
Continuous
 62
     7
370
    25
100
AcDbLine
 10
173.7184037982
 20
143.2869576213
 30
0.0
 11
173.6672573668
 21
143.1193697143
 31
0.0
  0
SPLINE
  5
116
330
1F
100
AcDbEntity
  8
0
  6
Continuous
 62
     7
370
    25
100
AcDbSpline
210
0.0
220
0.0
230
1.0
 70
     8
 71
     3
 72
     9
 73
     5
 74
     0
 42
0.00000001
 43
0.00000001
 40
0.0
 40
0.0
 40
0.0
 40
0.0
 40
0.6054718326891166
 40
1.0
 40
1.0
 40
1.0
 40
1.0
 10
190.6449076205738
 20
144.8208270625904
 30
0.0
 10
190.6560980679622
 20
144.4120049086437
 30
0.0
 10
190.6745802611613
 20
143.7367924018441
 30
0.0
 10
190.8969169858935
 20
143.1013499123122
 30
0.0
 10
190.9846350864279
 20
142.8506499514857
 30
0.0
  0
SPLINE
  5
117
330
1F
100
AcDbEntity
  8
0
  6
Continuous
 62
     7
370
    25
100
AcDbSpline
210
0.0
220
0.0
230
1.0
 70
     8
 71
     3
 72
    10
 73
     6
 74
     0
 42
0.00000001
 43
0.00000001
 40
0.0
 40
0.0
 40
0.0
 40
0.0
 40
0.1068853594225167
 40
0.5387947902750408
 40
1.0
 40
1.0
 40
1.0
 40
1.0
 10
198.0701410570911
 20
116.9010158759765
 30
0.0
 10
198.0679939283532
 20
116.8987618142001
 30
0.0
 10
198.0571705397783
 20
116.8873993904908
 30
0.0
 10
197.9381182111984
 20
116.8663928197256
 30
0.0
 10
197.5861226688891
 20
116.8535573602901
 30
0.0
 10
197.404351851866
 20
116.8469291174062
 30
0.0
  0
SPLINE
  5
118
330
1F
100
AcDbEntity
  8
0
  6
Continuous
 62
     7
370
    25
100
AcDbSpline
210
0.0
220
0.0
230
1.0
 70
     8
 71
     3
 72
    10
 73
     6
 74
     0
 42
0.00000001
 43
0.00000001
 40
0.0
 40
0.0
 40
0.0
 40
0.0
 40
0.0949124989258815
 40
0.4784412030753525
 40
1.0
 40
1.0
 40
1.0
 40
1.0
 10
166.4997403659609
 20
116.9010158759765
 30
0.0
 10
166.5018239148279
 20
116.8987602805759
 30
0.0
 10
166.5123268057842
 20
116.887390126072
 30
0.0
 10
166.6558575743312
 20
116.8639618512643
 30
0.0
 10
167.0624576227177
 20
116.8494313653296
 30
0.0
 10
167.2967618549763
 20
116.8410581387037
 30
0.0
  0
SPLINE
  5
119
330
1F
100
AcDbEntity
  8
0
  6
Continuous
 62
     7
370
    25
100
AcDbSpline
210
0.0
220
0.0
230
1.0
 70
     8
 71
     3
 72
    16
 73
    12
 74
     0
 42
0.00000001
 43
0.00000001
 40
0.0
 40
0.0
 40
0.0
 40
0.0
 40
0.0191953275262511
 40
0.116869895983028
 40
0.3122635953757723
 40
0.4099384142148225
 40
0.6053322308194627
 40
0.7030067736884635
 40
0.8006850743152786
 40
0.9002884134280374
 40
1.0
 40
1.0
 40
1.0
 40
1.0
 10
199.4254876541929
 20
118.4298274312229
 30
0.0
 10
199.4277213131369
 20
118.4493112370374
 30
0.0
 10
199.4413208460484
 20
118.5679375202189
 30
0.0
 10
199.47219529924
 20
119.0718463463261
 30
0.0
 10
199.5012557327969
 20
120.0605188927176
 30
0.0
 10
199.5231234279442
 20
121.8028061353852
 30
0.0
 10
199.5299135282834
 20
123.5940222742385
 30
0.0
 10
199.5261108909615
 20
125.7610106748754
 30
0.0
 10
199.5178759550083
 20
127.6274137968423
 30
0.0
 10
199.5047152703834
 20
129.7585215580781
 30
0.0
 10
199.4915711898738
 20
131.406060376856
 30
0.0
 10
199.4849955803597
 20
132.23027717344
 30
0.0
  0
ARC
  5
11A
330
1F
100
AcDbEntity
  8
0
  6
Continuous
 62
     7
370
    25
100
AcDbCircle
 10
198.0100658725
 20
118.2993258633
 30
0.0
 40
1.399599888676043
100
AcDbArc
 50
272.4600690272
 51
349.1021298506
  0
ARC
  5
11B
330
1F
100
AcDbEntity
  8
0
  6
Continuous
 62
     7
370
    25
100
AcDbCircle
 10
166.5598199265
 20
118.2993359448
 30
0.0
 40
1.399610148734986
100
AcDbArc
 50
192.4281854355
 51
267.5397697164
  0
SPLINE
  5
11C
330
1F
100
AcDbEntity
  8
0
  6
Continuous
 62
     7
370
    25
100
AcDbSpline
210
0.0
220
0.0
230
1.0
 70
     8
 71
     3
 72
    16
 73
    12
 74
     0
 42
0.00000001
 43
0.00000001
 40
0.0
 40
0.0
 40
0.0
 40
0.0
 40
0.0178024565414708
 40
0.1156157372245395
 40
0.3112869243551298
 40
0.4091004557760514
 40
0.6047717602849958
 40
0.70258501534395
 40
0.8004020334972861
 40
0.9002005720285642
 40
1.0
 40
1.0
 40
1.0
 40
1.0
 10
165.143902786552
 20
118.4342851684758
 30
0.0
 10
165.1418351937034
 20
118.452365391414
 30
0.0
 10
165.1284074810214
 20
118.5697850463537
 30
0.0
 10
165.097697269117
 20
119.07222761597
 30
0.0
 10
165.0686239258871
 20
120.0604597253586
 30
0.0
 10
165.0467588135961
 20
121.8028312350669
 30
0.0
 10
165.0399671571276
 20
123.5940158565637
 30
0.0
 10
165.043771618114
 20
125.7610156309354
 30
0.0
 10
165.0520028690594
 20
127.6277370229932
 30
0.0
 10
165.0651846149263
 20
129.7589915130424
 30
0.0
 10
165.0783187472611
 20
131.4065128394355
 30
0.0
 10
165.0848858426924
 20
132.23027717344
 30
0.0
  0
SPLINE
  5
11D
330
1F
100
AcDbEntity
  8
0
  6
Continuous
 62
     7
370
    25
100
AcDbSpline
210
0.0
220
0.0
230
1.0
 70
     8
 71
     3
 72
     9
 73
     5
 74
     0
 42
0.00000001
 43
0.00000001
 40
0.0
 40
0.0
 40
0.0
 40
0.0
 40
0.7406882506072525
 40
1.0
 40
1.0
 40
1.0
 40
1.0
 10
165.0848858426924
 20
132.3693943186771
 30
0.0
 10
165.0749157871388
 20
131.1439115800235
 30
0.0
 10
165.0614552583058
 20
129.4893926408491
 30
0.0
 10
165.055660931226
 20
128.2129403879603
 30
0.0
 10
165.0541583941344
 20
127.8819413212474
 30
0.0
  0
SPLINE
  5
11E
330
1F
100
AcDbEntity
  8
0
  6
Continuous
 62
     7
370
    25
100
AcDbSpline
210
0.0
220
0.0
230
1.0
 70
     8
 71
     3
 72
     9
 73
     5
 74
     0
 42
0.00000001
 43
0.00000001
 40
0.0
 40
0.0
 40
0.0
 40
0.0
 40
0.74084311483324
 40
1.0
 40
1.0
 40
1.0
 40
1.0
 10
199.4849955803597
 20
132.3693943186771
 30
0.0
 10
199.4949659290333
 20
131.1438971245035
 30
0.0
 10
199.5084240397642
 20
129.4897045300977
 30
0.0
 10
199.5142175512678
 20
128.2134995917436
 30
0.0
 10
199.5157189796633
 20
127.8827622950853
 30
0.0
  0
LINE
  5
11F
330
1F
100
AcDbEntity
  8
0
  6
Continuous
 62
     8
370
    18
100
AcDbLine
 10
256.626872016
 20
202.6065578715
 30
0.0
 11
107.9430094069
 21
202.6065578715
 31
0.0
  0
LINE
  5
120
330
1F
100
AcDbEntity
  8
0
  6
Continuous
 62
     8
370
    18
100
AcDbLine
 10
255.6376936557
 20
201.6327897256
 30
0.0
 11
108.9321877672
 21
201.6327897256
 31
0.0
  0
LINE
  5
121
330
1F
100
AcDbEntity
  8
0
  6
Continuous
 62
     8
370
    18
100
AcDbLine
 10
174.0394355593
 20
171.6429578141
 30
0.0
 11
157.7849407115
 21
171.6429578141
 31
0.0
  0
LINE
  5
122
330
1F
100
AcDbEntity
  8
0
  6
Continuous
 62
     8
370
    18
100
AcDbLine
 10
206.7849407115
 20
171.6429578141
 30
0.0
 11
174.0394355593
 21
171.6429578141
 31
0.0
  0
ARC
  5
123
330
1F
100
AcDbEntity
  8
0
  6
Continuous
 62
     8
370
    18
100
AcDbCircle
 10
204.7973728109
 20
160.7291458984
 30
0.0
 40
1.441826073030749
100
AcDbArc
 50
354.6332321989
 51
39.7962092366
  0
ARC
  5
124
330
1F
100
AcDbEntity
  8
0
  6
Continuous
 62
     8
370
    18
100
AcDbCircle
 10
159.7197516571
 20
160.7385576829
 30
0.0
 40
1.388806159115743
100
AcDbArc
 50
145.0114005653
 51
188.0063169588
  0
SPLINE
  5
125
330
1F
100
AcDbEntity
  8
0
  6
Continuous
 62
     8
370
    18
100
AcDbSpline
210
0.0
220
0.0
230
1.0
 70
     8
 71
     3
 72
    15
 73
    11
 74
     0
 42
0.00000001
 43
0.00000001
 40
0.0
 40
0.0
 40
0.0
 40
0.0
 40
0.1646711777776372
 40
0.3371701593872518
 40
0.4269043990895989
 40
0.5199245729960938
 40
0.6379851229863783
 40
0.7601635785722812
 40
0.8786573053913934
 40
0.9999999999999999
 40
0.9999999999999999
 40
0.9999999999999999
 40
0.9999999999999999
 10
173.2403603980892
 20
146.2230567767114
 30
0.0
 10
173.4179299067277
 20
146.1760445862683
 30
0.0
 10
173.7815098624796
 20
146.0797854354032
 30
0.0
 10
174.5889152658842
 20
146.0438903166626
 30
0.0
 10
175.4746602896012
 20
146.0257532548264
 30
0.0
 10
176.4365848135437
 20
145.9826852875541
 30
0.0
 10
177.6999503233565
 20
145.9055515550973
 30
0.0
 10
179.1602732895092
 20
145.845796100475
 30
0.0
 10
180.7077910800122
 20
145.8076777675552
 30
0.0
 10
181.7575796576376
 20
145.8021070225414
 30
0.0
 10
182.2887090583354
 20
145.7992885631642
 30
0.0
  0
SPLINE
  5
126
330
1F
100
AcDbEntity
  8
0
  6
Continuous
 62
     8
370
    18
100
AcDbSpline
210
0.0
220
0.0
230
1.0
 70
     8
 71
     3
 72
    15
 73
    11
 74
     0
 42
0.00000001
 43
0.00000001
 40
0.0
 40
0.0
 40
0.0
 40
0.0
 40
0.1184692101639283
 40
0.2397814786750915
 40
0.3582444561739205
 40
0.4799597607104542
 40
0.5696465524216257
 40
0.6626721790464976
 40
0.8934530246364608
 40
1.0
 40
1.0
 40
1.0
 40
1.0
 10
182.2811723647166
 20
145.7992885631642
 30
0.0
 10
182.7997951271785
 20
145.8019912007189
 30
0.0
 10
183.8494867110558
 20
145.8074613345055
 30
0.0
 10
185.3823825063816
 20
145.8449792651462
 30
0.0
 10
186.8548636302148
 20
145.9046610511647
 30
0.0
 10
188.1089178846978
 20
145.9813342615564
 30
0.0
 10
189.0854217327428
 20
146.0254763375801
 30
0.0
 10
190.1205449144973
 20
146.0460517124922
 30
0.0
 10
190.8827810067449
 20
146.0913308090302
 30
0.0
 10
191.2240865847632
 20
146.1915181540442
 30
0.0
 10
191.3318899580804
 20
146.2231629159579
 30
0.0
  0
SPLINE
  5
127
330
1F
100
AcDbEntity
  8
0
  6
Continuous
 62
     8
370
    18
100
AcDbSpline
210
0.0
220
0.0
230
1.0
 70
     8
 71
     3
 72
    30
 73
    26
 74
     0
 42
0.00000001
 43
0.00000001
 40
0.0
 40
0.0
 40
0.0
 40
0.0
 40
0.1249999999999991
 40
0.1249999999999991
 40
0.1874999999999988
 40
0.1874999999999988
 40
0.2499999999999986
 40
0.2499999999999986
 40
0.3749999999999991
 40
0.3749999999999991
 40
0.4374999999999993
 40
0.4374999999999993
 40
0.4999999999999996
 40
0.4999999999999996
 40
0.6250000000000001
 40
0.6250000000000001
 40
0.6875000000000001
 40
0.6875000000000001
 40
0.75
 40
0.75
 40
0.8125
 40
0.8125
 40
0.875
 40
0.875
 40
1.0
 40
1.0
 40
1.0
 40
1.0
 10
199.4849857472215
 20
132.2314233178462
 30
0.0
 10
199.4818644339887
 20
132.580496180658
 30
0.0
 10
199.3643971228447
 20
132.9331947410435
 30
0.0
 10
199.0233451968467
 20
133.4656490109429
 30
0.0
 10
198.880996807437
 20
133.6446512161901
 30
0.0
 10
198.5442466885804
 20
133.9984736097967
 30
0.0
 10
198.3506720265397
 20
134.1728017093804
 30
0.0
 10
197.6971745366039
 20
134.6878271635385
 30
0.0
 10
197.1655065778761
 20
135.0207200284379
 30
0.0
 10
196.2264288005188
 20
135.5011629899413
 30
0.0
 10
195.8876805826891
 20
135.6589187650185
 30
0.0
 10
195.1693936114944
 20
135.963266518889
 30
0.0
 10
194.7919033231973
 20
136.1091516632513
 30
0.0
 10
193.6051693424964
 20
136.5274117213665
 30
0.0
 10
192.7423449627704
 20
136.7806406396088
 30
0.0
 10
191.3394259767896
 20
137.1190255775335
 30
0.0
 10
190.8542189277902
 20
137.2245247711718
 30
0.0
 10
189.8679367509425
 20
137.4165287108466
 30
0.0
 10
189.3643743960172
 20
137.5036610892315
 30
0.0
 10
188.3363534469161
 20
137.6597864955918
 30
0.0
 10
187.8118926687147
 20
137.7287856351207
 30
0.0
 10
186.7418883305752
 20
137.8484546913836
 30
0.0
 10
186.1940055989649
 20
137.8992858120687
 30
0.0
 10
184.5348315902056
 20
138.0216909632082
 30
0.0
 10
183.4163237528322
 20
138.0633336055521
 30
0.0
 10
182.284940711526
 20
138.0633336055521
 30
0.0
  0
ARC
  5
128
330
1F
100
AcDbEntity
  8
0
  6
Continuous
 62
     8
370
    18
100
AcDbCircle
 10
198.1203092111
 20
132.2646305459
 30
0.0
 40
1.365080498854024
100
AcDbArc
 50
271.0394658614
 51
358.6060736207
  0
SPLINE
  5
129
330
1F
100
AcDbEntity
  8
0
  6
Continuous
 62
     8
370
    18
100
AcDbSpline
210
0.0
220
0.0
230
1.0
 70
     8
 71
     3
 72
    38
 73
    34
 74
     0
 42
0.00000001
 43
0.00000001
 40
0.0
 40
0.0
 40
0.0
 40
0.0
 40
0.0312499999999999
 40
0.0312499999999999
 40
0.0624999999999999
 40
0.0624999999999999
 40
0.1249999999999998
 40
0.1249999999999998
 40
0.1874999999999997
 40
0.1874999999999997
 40
0.2499999999999997
 40
0.2499999999999997
 40
0.3124999999999996
 40
0.3124999999999996
 40
0.3749999999999994
 40
0.3749999999999994
 40
0.4999999999999997
 40
0.4999999999999997
 40
0.5624999999999993
 40
0.5624999999999993
 40
0.624999999999999
 40
0.624999999999999
 40
0.7499999999999984
 40
0.7499999999999984
 40
0.8124999999999983
 40
0.8124999999999983
 40
0.8749999999999984
 40
0.8749999999999984
 40
0.9374999999999984
 40
0.9374999999999984
 40
0.9687499999999992
 40
0.9687499999999992
 40
1.0
 40
1.0
 40
1.0
 40
1.0
 10
182.284940711526
 20
136.2632932076176
 30
0.0
 10
182.5448241654841
 20
136.2632932074677
 30
0.0
 10
182.8072495079036
 20
136.2607735326956
 30
0.0
 10
183.3273016181008
 20
136.2508450652825
 30
0.0
 10
183.586581574801
 20
136.243436145651
 30
0.0
 10
184.3622172039905
 20
136.2140263183242
 30
0.0
 10
184.8763756342721
 20
136.184865029377
 30
0.0
 10
185.8988393700012
 20
136.1076808870519
 30
0.0
 10
186.4050412005673
 20
136.0597276359473
 30
0.0
 10
187.3934970546327
 20
135.9471826256455
 30
0.0
 10
187.8778859097618
 20
135.8824382554677
 30
0.0
 10
188.8271537788779
 20
135.7363325900235
 30
0.0
 10
189.2920399512008
 20
135.6549775827232
 30
0.0
 10
190.2023968979157
 20
135.4761790307219
 30
0.0
 10
190.6502016877188
 20
135.3781410926462
 30
0.0
 10
191.9438763520004
 20
135.0646767406619
 30
0.0
 10
192.739062297601
 20
134.8311003784508
 30
0.0
 10
193.8320497378121
 20
134.4469208259496
 30
0.0
 10
194.1795950931168
 20
134.313167214578
 30
0.0
 10
194.8407055357105
 20
134.0345624874824
 30
0.0
 10
195.1522193722547
 20
133.8904357979943
 30
0.0
 10
196.0157484208102
 20
133.4518679829101
 30
0.0
 10
196.5043751902263
 20
133.148557668991
 30
0.0
 10
197.1045672832981
 20
132.6791582241283
 30
0.0
 10
197.2822712008369
 20
132.5202439116251
 30
0.0
 10
197.5912958132004
 20
132.1973882424836
 30
0.0
 10
197.7218589774575
 20
132.0338948186845
 30
0.0
 10
197.9303739049355
 20
131.7090319343812
 30
0.0
 10
198.0091948095137
 20
131.5468083953761
 30
0.0
 10
198.0891713276638
 20
131.3038577280185
 30
0.0
 10
198.1094417401845
 20
131.2229385262982
 30
0.0
 10
198.1370360695118
 20
131.0612441312315
 30
0.0
 10
198.1443648822513
 20
130.9799362245291
 30
0.0
 10
198.1450732882917
 20
130.899774689592
 30
0.0
  0
SPLINE
  5
12A
330
1F
100
AcDbEntity
  8
0
  6
Continuous
 62
     8
370
    18
100
AcDbSpline
210
0.0
220
0.0
230
1.0
 70
     8
 71
     3
 72
    38
 73
    34
 74
     0
 42
0.00000001
 43
0.00000001
 40
0.0
 40
0.0
 40
0.0
 40
0.0
 40
0.0312500000000002
 40
0.0312500000000002
 40
0.0625000000000003
 40
0.0625000000000003
 40
0.1250000000000006
 40
0.1250000000000006
 40
0.1875000000000008
 40
0.1875000000000008
 40
0.2500000000000011
 40
0.2500000000000011
 40
0.3125000000000013
 40
0.3125000000000013
 40
0.3750000000000016
 40
0.3750000000000016
 40
0.5000000000000021
 40
0.5000000000000021
 40
0.562500000000002
 40
0.562500000000002
 40
0.6250000000000019
 40
0.6250000000000019
 40
0.7500000000000016
 40
0.7500000000000016
 40
0.8125000000000016
 40
0.8125000000000016
 40
0.8750000000000016
 40
0.8750000000000016
 40
0.9375000000000016
 40
0.9375000000000016
 40
0.9687500000000008
 40
0.9687500000000008
 40
1.0
 40
1.0
 40
1.0
 40
1.0
 10
182.284940711526
 20
136.2632932076176
 30
0.0
 10
182.0250572575689
 20
136.2632929983368
 30
0.0
 10
181.7626319151484
 20
136.2607735326956
 30
0.0
 10
181.2425798049512
 20
136.2508450652825
 30
0.0
 10
180.983299848251
 20
136.2434361456509
 30
0.0
 10
180.2076642190616
 20
136.2140263183241
 30
0.0
 10
179.6935057887798
 20
136.1848650293769
 30
0.0
 10
178.6710420530508
 20
136.1076808870519
 30
0.0
 10
178.1648402224847
 20
136.0597276359472
 30
0.0
 10
177.1763843684193
 20
135.9471826256456
 30
0.0
 10
176.6919955132902
 20
135.8824382554678
 30
0.0
 10
175.7427276441741
 20
135.7363325900236
 30
0.0
 10
175.2778414718512
 20
135.6549775827231
 30
0.0
 10
174.3674845251363
 20
135.4761790307219
 30
0.0
 10
173.9196797353331
 20
135.3781410926462
 30
0.0
 10
172.6260050710516
 20
135.0646767406618
 30
0.0
 10
171.8308191254509
 20
134.8311003784507
 30
0.0
 10
170.7378316852399
 20
134.4469208259496
 30
0.0
 10
170.3902863299352
 20
134.313167214578
 30
0.0
 10
169.7291758873415
 20
134.0345624874824
 30
0.0
 10
169.4176620507972
 20
133.8904357979943
 30
0.0
 10
168.5541330022418
 20
133.4518679829102
 30
0.0
 10
168.0655062328256
 20
133.1485576689908
 30
0.0
 10
167.4653141397539
 20
132.6791582241282
 30
0.0
 10
167.2876102222151
 20
132.5202439116251
 30
0.0
 10
166.9785856098517
 20
132.1973882424838
 30
0.0
 10
166.8480224455945
 20
132.0338948186846
 30
0.0
 10
166.6395075181165
 20
131.7090319343812
 30
0.0
 10
166.5606866135382
 20
131.546808395376
 30
0.0
 10
166.4807100953881
 20
131.3038577280184
 30
0.0
 10
166.4604396828677
 20
131.2229385262982
 30
0.0
 10
166.4328453535404
 20
131.0612441312315
 30
0.0
 10
166.4255170412227
 20
130.9799361757455
 30
0.0
 10
166.4248081347603
 20
130.899774689592
 30
0.0
  0
ARC
  5
12B
330
1F
100
AcDbEntity
  8
0
  6
Continuous
 62
     8
370
    18
100
AcDbCircle
 10
166.449572212
 20
132.2646305459
 30
0.0
 40
1.36508049885391
100
AcDbArc
 50
181.3939263793
 51
268.9605341386
  0
SPLINE
  5
12C
330
1F
100
AcDbEntity
  8
0
  6
Continuous
 62
     8
370
    18
100
AcDbSpline
210
0.0
220
0.0
230
1.0
 70
     8
 71
     3
 72
    30
 73
    26
 74
     0
 42
0.00000001
 43
0.00000001
 40
0.0
 40
0.0
 40
0.0
 40
0.0
 40
0.1249999999999993
 40
0.1249999999999993
 40
0.187499999999999
 40
0.187499999999999
 40
0.2499999999999987
 40
0.2499999999999987
 40
0.3749999999999989
 40
0.3749999999999989
 40
0.437499999999999
 40
0.437499999999999
 40
0.4999999999999991
 40
0.4999999999999991
 40
0.6249999999999986
 40
0.6249999999999986
 40
0.6874999999999987
 40
0.6874999999999987
 40
0.7499999999999989
 40
0.7499999999999989
 40
0.8124999999999991
 40
0.8124999999999991
 40
0.8749999999999993
 40
0.8749999999999993
 40
1.0
 40
1.0
 40
1.0
 40
1.0
 10
165.0848956758305
 20
132.2314233178462
 30
0.0
 10
165.0880169890632
 20
132.5804961806579
 30
0.0
 10
165.2054843002074
 20
132.9331947410438
 30
0.0
 10
165.5465362262053
 20
133.465649010943
 30
0.0
 10
165.688884615615
 20
133.6446512161901
 30
0.0
 10
166.0256347344716
 20
133.9984736097968
 30
0.0
 10
166.2192093965123
 20
134.1728017093806
 30
0.0
 10
166.8727068864482
 20
134.6878271635387
 30
0.0
 10
167.404374845176
 20
135.020720028438
 30
0.0
 10
168.3434526225332
 20
135.5011629899413
 30
0.0
 10
168.682200840363
 20
135.6589187650186
 30
0.0
 10
169.4004878115576
 20
135.963266518889
 30
0.0
 10
169.7779780998547
 20
136.1091516632515
 30
0.0
 10
170.9647120805556
 20
136.5274117213665
 30
0.0
 10
171.8275364602816
 20
136.7806406396084
 30
0.0
 10
173.2304554462624
 20
137.1190255775329
 30
0.0
 10
173.7156624952618
 20
137.224524771172
 30
0.0
 10
174.7019446721095
 20
137.4165287108467
 30
0.0
 10
175.2055070270348
 20
137.5036610892307
 30
0.0
 10
176.2335279761359
 20
137.659786495591
 30
0.0
 10
176.7579887543374
 20
137.7287856351211
 30
0.0
 10
177.8279930924768
 20
137.8484546913839
 30
0.0
 10
178.3758758240871
 20
137.8992858120692
 30
0.0
 10
180.0350498328464
 20
138.0216909632085
 30
0.0
 10
181.1535576702198
 20
138.063333605552
 30
0.0
 10
182.284940711526
 20
138.0633336055521
 30
0.0
  0
SPLINE
  5
12D
330
1F
100
AcDbEntity
  8
0
  6
Continuous
 62
     8
370
    18
100
AcDbSpline
210
0.0
220
0.0
230
1.0
 70
     8
 71
     3
 72
    13
 73
     9
 74
     0
 42
0.00000001
 43
0.00000001
 40
0.0
 40
0.0
 40
0.0
 40
0.0
 40
0.1070926722017989
 40
0.2858144337835682
 40
0.4643643701787661
 40
0.642983912270981
 40
0.8215364515744843
 40
1.0
 40
1.0
 40
1.0
 40
1.0
 10
169.4027145424332
 20
138.3464988602277
 30
0.0
 10
169.6743983671004
 20
138.5119240032422
 30
0.0
 10
170.3994821372494
 20
138.9534191364964
 30
0.0
 10
172.0576144641514
 20
139.5871226955496
 30
0.0
 10
174.2504088369814
 20
140.2191401317734
 30
0.0
 10
176.7499434418778
 20
140.7014427897997
 30
0.0
 10
179.4534053909628
 20
141.0334849283994
 30
0.0
 10
181.341252461439
 20
141.0783609812229
 30
0.0
 10
182.284940711526
 20
141.1007934146663
 30
0.0
  0
LINE
  5
12E
330
1F
100
AcDbEntity
  8
0
  6
Continuous
 62
     8
370
    18
100
AcDbLine
 10
165.0848858427
 20
132.2302771734
 30
0.0
 11
165.0848956758
 21
132.2314233178
 31
0.0
  0
LINE
  5
12F
330
1F
100
AcDbEntity
  8
0
  6
Continuous
 62
     8
370
    18
100
AcDbLine
 10
165.0848858427
 20
132.3693943187
 30
0.0
 11
165.0848858427
 21
132.2302771734
 31
0.0
  0
LINE
  5
130
330
1F
100
AcDbEntity
  8
0
  6
Continuous
 62
     8
370
    18
100
AcDbLine
 10
199.4849955804
 20
132.2302771734
 30
0.0
 11
199.4849857472
 21
132.2314233178
 31
0.0
  0
SPLINE
  5
131
330
1F
100
AcDbEntity
  8
0
  6
Continuous
 62
     8
370
    18
100
AcDbSpline
210
0.0
220
0.0
230
1.0
 70
     8
 71
     3
 72
    13
 73
     9
 74
     0
 42
0.00000001
 43
0.00000001
 40
0.0
 40
0.0
 40
0.0
 40
0.0
 40
0.1070926722016863
 40
0.285814433783478
 40
0.4643643701786986
 40
0.6429839122709358
 40
0.8215364515744616
 40
1.0
 40
1.0
 40
1.0
 40
1.0
 10
195.1671668806178
 20
138.3464988602282
 30
0.0
 10
194.8954830559509
 20
138.5119240032425
 30
0.0
 10
194.1703992858023
 20
138.9534191364964
 30
0.0
 10
192.5122669589006
 20
139.5871226955496
 30
0.0
 10
190.3194725860706
 20
140.2191401317735
 30
0.0
 10
187.8199379811742
 20
140.7014427897997
 30
0.0
 10
185.1164760320892
 20
141.0334849283994
 30
0.0
 10
183.228628961613
 20
141.078360981223
 30
0.0
 10
182.284940711526
 20
141.1007934146663
 30
0.0
  0
SPLINE
  5
132
330
1F
100
AcDbEntity
  8
0
  6
Continuous
 62
     8
370
    18
100
AcDbSpline
210
0.0
220
0.0
230
1.0
 70
     8
 71
     3
 72
    10
 73
     6
 74
     0
 42
0.00000001
 43
0.00000001
 40
0.0
 40
0.0
 40
0.0
 40
0.0
 40
0.9116420736218339
 40
0.9758496191717778
 40
0.9999999999999999
 40
0.9999999999999999
 40
0.9999999999999999
 40
0.9999999999999999
 10
199.429127721955
 20
132.8049708997164
 30
0.0
 10
199.4565080130621
 20
132.6732699680565
 30
0.0
 10
199.4858167159212
 20
132.5322932539233
 30
0.0
 10
199.484986214013
 20
132.3858617998667
 30
0.0
 10
199.484993569834
 20
132.3729291327001
 30
0.0
 10
199.4849955803597
 20
132.3693943186771
 30
0.0
  0
LINE
  5
133
330
1F
100
AcDbEntity
  8
0
  6
Continuous
 62
     8
370
    18
100
AcDbLine
 10
199.4849955804
 20
132.3693943187
 30
0.0
 11
199.4849955804
 21
132.2302771734
 31
0.0
  0
SPLINE
  5
134
330
1F
100
AcDbEntity
  8
0
  6
Continuous
 62
     8
370
    18
100
AcDbSpline
210
0.0
220
0.0
230
1.0
 70
     8
 71
     3
 72
     9
 73
     5
 74
     0
 42
0.00000001
 43
0.00000001
 40
0.0
 40
0.0
 40
0.0
 40
0.0
 40
0.7832804026981554
 40
1.0
 40
1.0
 40
1.0
 40
1.0
 10
173.9249738024782
 20
144.8208270625904
 30
0.0
 10
173.9210988842956
 20
144.4105777207336
 30
0.0
 10
173.9161518459562
 20
143.8868197657999
 30
0.0
 10
173.7536262745856
 20
143.3938038352528
 30
0.0
 10
173.7184037982069
 20
143.2869576213213
 30
0.0
  0
SPLINE
  5
135
330
1F
100
AcDbEntity
  8
0
  6
Continuous
 62
     8
370
    18
100
AcDbSpline
210
0.0
220
0.0
230
1.0
 70
     8
 71
     3
 72
    20
 73
    16
 74
     0
 42
0.00000001
 43
0.00000001
 40
0.8481203338387294
 40
0.8481203338387294
 40
0.8481203338387294
 40
0.8481203338387294
 40
0.8556648285143569
 40
0.8838822876808691
 40
0.9050453820557531
 40
0.9198820411095416
 40
0.927300370636436
 40
0.9347187001633303
 40
0.9421370296902245
 40
0.9495553592171189
 40
0.9525226910278766
 40
0.9643920182709074
 40
0.9715136146167259
 40
0.9857568073083629
 40
1.0
 40
1.0
 40
1.0
 40
1.0
 10
174.1040766318762
 20
144.8275100887878
 30
0.0
 10
174.0981546030055
 20
144.8274002324385
 30
0.0
 10
174.0707805702907
 20
144.826879214964
 30
0.0
 10
174.03246782132
 20
144.8260478414638
 30
0.0
 10
173.9974415851963
 20
144.8251074241608
 30
0.0
 10
173.977798958332
 20
144.8244705705643
 30
0.0
 10
173.9660810530386
 20
144.8240349587531
 30
0.0
 10
173.9581458491156
 20
144.8237080840546
 30
0.0
 10
173.9510639708968
 20
144.8233810604385
 30
0.0
 10
173.9460808264934
 20
144.8231193359495
 30
0.0
 10
173.9404499473004
 20
144.8227920997873
 30
0.0
 10
173.9357290636967
 20
144.8224691199142
 30
0.0
 10
173.9302480326079
 20
144.8219801302475
 30
0.0
 10
173.9261553991014
 20
144.8214560630285
 30
0.0
 10
173.9255520581443
 20
144.8210367294031
 30
0.0
 10
173.9249738024782
 20
144.8208270625904
 30
0.0
  0
SPLINE
  5
136
330
1F
100
AcDbEntity
  8
0
  6
Continuous
 62
     8
370
    18
100
AcDbSpline
210
0.0
220
0.0
230
1.0
 70
     8
 71
     3
 72
    38
 73
    34
 74
     0
 42
0.00000001
 43
0.00000001
 40
0.0
 40
0.0
 40
0.0
 40
0.0
 40
0.0312499999999999
 40
0.0312499999999999
 40
0.0624999999999999
 40
0.0624999999999999
 40
0.1249999999999997
 40
0.1249999999999997
 40
0.1874999999999996
 40
0.1874999999999996
 40
0.2499999999999994
 40
0.2499999999999994
 40
0.3749999999999992
 40
0.3749999999999992
 40
0.4374999999999994
 40
0.4374999999999994
 40
0.4999999999999998
 40
0.4999999999999998
 40
0.5625000000000001
 40
0.5625000000000001
 40
0.6250000000000003
 40
0.6250000000000003
 40
0.7500000000000001
 40
0.7500000000000001
 40
0.8749999999999998
 40
0.8749999999999998
 40
0.9374999999999999
 40
0.9374999999999999
 40
0.96875
 40
0.96875
 40
0.984375
 40
0.984375
 40
1.0
 40
1.0
 40
1.0
 40
1.0
 10
182.284940711526
 20
144.1156678503288
 30
0.0
 10
182.1575533921224
 20
144.1145147288124
 30
0.0
 10
182.027207119293
 20
144.113117126355
 30
0.0
 10
181.7706612037387
 20
144.1111946233562
 30
0.0
 10
181.6427989179461
 20
144.1106562923417
 30
0.0
 10
181.2605775048143
 20
144.1121813430483
 30
0.0
 10
181.007627013835
 20
144.1179422979623
 30
0.0
 10
180.5051166865925
 20
144.1363014298008
 30
0.0
 10
180.2555546838321
 20
144.1483245410101
 30
0.0
 10
179.759762998161
 20
144.1767680851639
 30
0.0
 10
179.5125412922093
 20
144.193391049009
 30
0.0
 10
178.7836057177422
 20
144.2490574681329
 30
0.0
 10
178.3168871630602
 20
144.2934744784728
 30
0.0
 10
177.6438103781893
 20
144.3680427520636
 30
0.0
 10
177.4240200026897
 20
144.3964863097241
 30
0.0
 10
177.0029668000059
 20
144.4441273040276
 30
0.0
 10
176.8001189177173
 20
144.4644618342185
 30
0.0
 10
176.4269749175859
 20
144.4969802339539
 30
0.0
 10
176.2545601674777
 20
144.5096776945178
 30
0.0
 10
175.9380455608988
 20
144.5289534497744
 30
0.0
 10
175.7952035959151
 20
144.5355551423385
 30
0.0
 10
175.4033301562187
 20
144.5454115152579
 30
0.0
 10
175.1719372388817
 20
144.5628852913781
 30
0.0
 10
174.7676548901414
 20
144.615071618371
 30
0.0
 10
174.5944360536605
 20
144.6497770221408
 30
0.0
 10
174.3775705744202
 20
144.7108073515647
 30
0.0
 10
174.3124645842323
 20
144.7326370092869
 30
0.0
 10
174.2257682706163
 20
144.7671318369654
 30
0.0
 10
174.1987461606765
 20
144.7789069608326
 30
0.0
 10
174.1610945804805
 20
144.796898580483
 30
0.0
 10
174.1490226120913
 20
144.8029511182121
 30
0.0
 10
174.1258358644421
 20
144.8151572447101
 30
0.0
 10
174.114507755431
 20
144.8214352050907
 30
0.0
 10
174.1040856401289
 20
144.8275102558929
 30
0.0
  0
SPLINE
  5
137
330
1F
100
AcDbEntity
  8
0
  6
Continuous
 62
     8
370
    18
100
AcDbSpline
210
0.0
220
0.0
230
1.0
 70
     8
 71
     3
 72
    30
 73
    26
 74
     0
 42
0.00000001
 43
0.00000001
 40
0.0
 40
0.0
 40
0.0
 40
0.0
 40
0.1250000000000004
 40
0.1250000000000004
 40
0.2500000000000007
 40
0.2500000000000007
 40
0.3750000000000011
 40
0.3750000000000011
 40
0.4375000000000009
 40
0.4375000000000009
 40
0.5000000000000007
 40
0.5000000000000007
 40
0.5625000000000004
 40
0.5625000000000004
 40
0.6250000000000001
 40
0.6250000000000001
 40
0.7500000000000001
 40
0.7500000000000001
 40
0.8125000000000001
 40
0.8125000000000001
 40
0.8750000000000001
 40
0.8750000000000001
 40
0.9375
 40
0.9375
 40
1.0
 40
1.0
 40
1.0
 40
1.0
 10
190.4657957829231
 20
144.8275102558929
 30
0.0
 10
190.3806811671312
 20
144.7778969477896
 30
0.0
 10
190.2648247627777
 20
144.7312558038811
 30
0.0
 10
189.9765030615283
 20
144.6500332914976
 30
0.0
 10
189.8037303169414
 20
144.6153415714239
 30
0.0
 10
189.4001584504888
 20
144.5630959738795
 30
0.0
 10
189.1690335145905
 20
144.5454487141443
 30
0.0
 10
188.7772089180502
 20
144.5356312359791
 30
0.0
 10
188.6345151495933
 20
144.5290904780738
 30
0.0
 10
188.3181264922711
 20
144.5098742249473
 30
0.0
 10
188.1457541850487
 20
144.4972037037332
 30
0.0
 10
187.7726631241734
 20
144.464738934126
 30
0.0
 10
187.5698142200427
 20
144.4444356379422
 30
0.0
 10
187.1486388433429
 20
144.3968200503562
 30
0.0
 10
186.928772753844
 20
144.3683603434683
 30
0.0
 10
186.2553706380498
 20
144.2937015120138
 30
0.0
 10
185.7884105218899
 20
144.2492435693648
 30
0.0
 10
185.0590818480553
 20
144.1935125886172
 30
0.0
 10
184.8117044471821
 20
144.1768684426138
 30
0.0
 10
184.3156073799268
 20
144.1483886978464
 30
0.0
 10
184.0658905480422
 20
144.1363509292523
 30
0.0
 10
183.5630663931844
 20
144.1179636277432
 30
0.0
 10
183.3099570549747
 20
144.112189340993
 30
0.0
 10
182.8000060445685
 20
144.110143879937
 30
0.0
 10
182.545025215357
 20
144.1133135419183
 30
0.0
 10
182.284940711526
 20
144.1156678503288
 30
0.0
  0
SPLINE
  5
138
330
1F
100
AcDbEntity
  8
0
  6
Continuous
 62
     8
370
    18
100
AcDbSpline
210
0.0
220
0.0
230
1.0
 70
     8
 71
     3
 72
     8
 73
     4
 74
     0
 42
0.00000001
 43
0.00000001
 40
0.0
 40
0.0
 40
0.0
 40
0.0
 40
1.0
 40
1.0
 40
1.0
 40
1.0
 10
190.6449076205738
 20
144.8208270625904
 30
0.0
 10
190.6449076205738
 20
144.823065141822
 30
0.0
 10
190.5849405591399
 20
144.825303192028
 30
0.0
 10
190.4658398988613
 20
144.8275101072799
 30
0.0
  0
SPLINE
  5
139
330
1F
100
AcDbEntity
  8
0
  6
Continuous
 62
     8
370
    18
100
AcDbSpline
210
0.0
220
0.0
230
1.0
 70
     8
 71
     3
 72
    10
 73
     6
 74
     0
 42
0.00000001
 43
0.00000001
 40
0.0
 40
0.0
 40
0.0
 40
0.0
 40
0.5
 40
0.5
 40
1.0
 40
1.0
 40
1.0
 40
1.0
 10
173.1426653738371
 20
146.2620775927589
 30
0.0
 10
173.4302804579888
 20
146.1574823085325
 30
0.0
 10
173.6827341295867
 20
145.9594223430355
 30
0.0
 10
174.0248723037132
 20
145.4489013183777
 30
0.0
 10
174.113716540316
 20
145.13769399486
 30
0.0
 10
174.1040679455051
 20
144.8275199564655
 30
0.0
  0
SPLINE
  5
13A
330
1F
100
AcDbEntity
  8
0
  6
Continuous
 62
     8
370
    18
100
AcDbSpline
210
0.0
220
0.0
230
1.0
 70
     8
 71
     3
 72
    10
 73
     6
 74
     0
 42
0.00000001
 43
0.00000001
 40
0.0
 40
0.0
 40
0.0
 40
0.0
 40
0.5
 40
0.5
 40
1.0
 40
1.0
 40
1.0
 40
1.0
 10
191.4272184653526
 20
146.2620787750074
 30
0.0
 10
191.1396121926299
 20
146.1574786077705
 30
0.0
 10
190.8871685911145
 20
145.9594176401156
 30
0.0
 10
190.5450443657314
 20
145.4488983722511
 30
0.0
 10
190.4562040375068
 20
145.1376939648807
 30
0.0
 10
190.465850888881
 20
144.8275218659209
 30
0.0
  0
LINE
  5
13B
330
1F
100
AcDbEntity
  8
0
  6
Continuous
 62
     8
370
    18
100
AcDbLine
 10
198.1450732818
 20
130.8997746893
 30
0.0
 11
198.1450823561
 21
130.8987073255
 31
0.0
  0
SPLINE
  5
13C
330
1F
100
AcDbEntity
  8
0
  6
Continuous
 62
     8
370
    18
100
AcDbSpline
210
0.0
220
0.0
230
1.0
 70
     8
 71
     3
 72
    24
 73
    20
 74
     0
 42
0.00000001
 43
0.00000001
 40
0.0
 40
0.0
 40
0.0
 40
0.0
 40
0.125
 40
0.125
 40
0.2500000000000001
 40
0.2500000000000001
 40
0.3750000000000001
 40
0.3750000000000001
 40
0.5000000000000001
 40
0.5000000000000001
 40
0.7499999999999999
 40
0.7499999999999999
 40
0.8749999999999999
 40
0.8749999999999999
 40
0.9374999999999997
 40
0.9374999999999997
 40
0.9687499999999999
 40
0.9687499999999999
 40
1.0
 40
1.0
 40
1.0
 40
1.0
 10
198.145082356544
 20
130.8987073255331
 30
0.0
 10
198.1542679904067
 20
129.7820729487684
 30
0.0
 10
198.1618599168789
 20
128.7383605956732
 30
0.0
 10
198.1742237505163
 20
126.8012926704926
 30
0.0
 10
198.1790684391627
 20
125.9089485093412
 30
0.0
 10
198.1861558819041
 20
124.276396372424
 30
0.0
 10
198.1882191177624
 20
123.532462814345
 30
0.0
 10
198.1879863453519
 20
122.1528392915879
 30
0.0
 10
198.1860897168819
 20
121.5204784894794
 30
0.0
 10
198.1765598135338
 20
119.8017024148821
 30
0.0
 10
198.1645082206198
 20
118.8910791860157
 30
0.0
 10
198.136399851559
 20
117.8797040381184
 30
0.0
 10
198.1254048230885
 20
117.6015221384809
 30
0.0
 10
198.1061296608879
 20
117.2726390863576
 30
0.0
 10
198.0990170930233
 20
117.177831105268
 30
0.0
 10
198.0884435775797
 20
117.0574720709083
 30
0.0
 10
198.0849971043321
 20
117.0209527629088
 30
0.0
 10
198.0782209185536
 20
116.9553879466606
 30
0.0
 10
198.0746908167484
 20
116.9248152364153
 30
0.0
 10
198.0701410569218
 20
116.9010158759692
 30
0.0
  0
LINE
  5
13D
330
1F
100
AcDbEntity
  8
0
  6
Continuous
 62
     8
370
    18
100
AcDbLine
 10
166.4248081412
 20
130.8997746893
 30
0.0
 11
166.424799067
 21
130.8987073255
 31
0.0
  0
SPLINE
  5
13E
330
1F
100
AcDbEntity
  8
0
  6
Continuous
 62
     8
370
    18
100
AcDbSpline
210
0.0
220
0.0
230
1.0
 70
     8
 71
     3
 72
    24
 73
    20
 74
     0
 42
0.00000001
 43
0.00000001
 40
0.0
 40
0.0
 40
0.0
 40
0.0
 40
0.1249999999999999
 40
0.1249999999999999
 40
0.2499999999999999
 40
0.2499999999999999
 40
0.3749999999999998
 40
0.3749999999999998
 40
0.4999999999999998
 40
0.4999999999999998
 40
0.7499999999999997
 40
0.7499999999999997
 40
0.8749999999999997
 40
0.8749999999999997
 40
0.9374999999999996
 40
0.9374999999999996
 40
0.9687499999999998
 40
0.9687499999999998
 40
1.0
 40
1.0
 40
1.0
 40
1.0
 10
166.424799066508
 20
130.8987073255331
 30
0.0
 10
166.4156134326453
 20
129.7820729487684
 30
0.0
 10
166.4080215061736
 20
128.7383605956731
 30
0.0
 10
166.3956576725351
 20
126.8012926704927
 30
0.0
 10
166.3908129838893
 20
125.9089485093413
 30
0.0
 10
166.383725541148
 20
124.2763963724242
 30
0.0
 10
166.3816623052896
 20
123.5324628143452
 30
0.0
 10
166.3818950777002
 20
122.1528392915878
 30
0.0
 10
166.3837917061701
 20
121.5204784894796
 30
0.0
 10
166.3933216095182
 20
119.8017024148821
 30
0.0
 10
166.4053732024324
 20
118.8910791860154
 30
0.0
 10
166.4334815714928
 20
117.8797040381186
 30
0.0
 10
166.4444765999636
 20
117.6015221384809
 30
0.0
 10
166.4637517621641
 20
117.2726390863576
 30
0.0
 10
166.4708643300287
 20
117.1778311052681
 30
0.0
 10
166.4814378454723
 20
117.0574720709085
 30
0.0
 10
166.4848843187198
 20
117.0209527629089
 30
0.0
 10
166.4916605044984
 20
116.9553879466606
 30
0.0
 10
166.4951906063036
 20
116.9248152364153
 30
0.0
 10
166.4997403661302
 20
116.9010158759692
 30
0.0
  0
ARC
  5
13F
330
1F
100
AcDbEntity
  8
0
  6
Continuous
 62
     8
370
    18
100
AcDbCircle
 10
198.1204158683
 20
132.2634677324
 30
0.0
 40
1.364983298030399
100
AcDbArc
 50
271.0354431306
 51
358.6066742367
  0
ARC
  5
140
330
1F
100
AcDbEntity
  8
0
  6
Continuous
 62
     8
370
    18
100
AcDbCircle
 10
166.4494655548
 20
132.2634677324
 30
0.0
 40
1.3649832980304
100
AcDbArc
 50
181.3933257633
 51
268.9645568694
  0
SPLINE
  5
141
330
1F
100
AcDbEntity
  8
0
  6
Continuous
 62
     8
370
    18
100
AcDbSpline
210
0.0
220
0.0
230
1.0
 70
     8
 71
     3
 72
     9
 73
     5
 74
     0
 42
0.00000001
 43
0.00000001
 40
0.0
 40
0.0
 40
0.0
 40
0.0
 40
0.9861838536566154
 40
1.0
 40
1.0
 40
1.0
 40
1.0
 10
174.1040325069532
 20
144.8275099401898
 30
0.0
 10
173.9871979718706
 20
144.8922531195117
 30
0.0
 10
173.8687266192425
 20
144.9579033317736
 30
0.0
 10
173.9307774146416
 20
145.0589200786634
 30
0.0
 10
173.9316347175115
 20
145.0603157408216
 30
0.0
  0
LINE
  5
142
330
1F
100
AcDbEntity
  8
0
  6
Continuous
 62
     8
370
    18
100
AcDbLine
 10
190.6213606928
 20
145.0632373802
 30
0.0
 11
190.4658489161
 21
144.8275099402
 31
0.0
  0
ENDSEC
  0
SECTION
  2
OBJECTS
  0
DICTIONARY
  5
C
330
0
100
AcDbDictionary
281
     1
  3
ACAD_GROUP
350
D
  3
ACAD_LAYOUT
350
1A
  3
ACAD_MLINESTYLE
350
17
  3
ACAD_PLOTSETTINGS
350
19
  3
ACAD_PLOTSTYLENAME
350
E
  3
ACAD_SCALELIST
350
47
  3
DWGPROPS
350
143
  0
DICTIONARY
  5
D
102
{ACAD_REACTORS
330
C
102
}
330
C
100
AcDbDictionary
281
     1
  0
DICTIONARY
  5
1A
102
{ACAD_REACTORS
330
C
102
}
330
C
100
AcDbDictionary
281
     1
  3
Layout1
350
1E
  3
Layout2
350
26
  3
Model
350
22
  0
DICTIONARY
  5
17
102
{ACAD_REACTORS
330
C
102
}
330
C
100
AcDbDictionary
281
     1
  3
Standard
350
18
  0
DICTIONARY
  5
19
102
{ACAD_REACTORS
330
C
102
}
330
C
100
AcDbDictionary
281
     1
  0
ACDBDICTIONARYWDFLT
  5
E
102
{ACAD_REACTORS
330
C
102
}
330
C
100
AcDbDictionary
281
     1
  3
Normal
350
F
100
AcDbDictionaryWithDefault
340
F
  0
DICTIONARY
  5
47
102
{ACAD_REACTORS
330
C
102
}
330
C
100
AcDbDictionary
281
     1
  3
A0
350
48
  3
A1
350
49
  3
A2
350
4A
  3
A3
350
4B
  3
A4
350
4C
  3
A5
350
4D
  3
A6
350
4E
  3
A7
350
4F
  3
A8
350
50
  3
A9
350
51
  3
B0
350
52
  3
B1
350
53
  3
B2
350
54
  3
B3
350
55
  3
B4
350
56
  3
B5
350
57
  3
B6
350
58
  3
B7
350
59
  3
B8
350
5A
  3
B9
350
5B
  3
C0
350
5C
  3
C1
350
5D
  3
C2
350
5E
  3
C3
350
5F
  3
C4
350
60
  3
C5
350
61
  3
C6
350
62
  3
C7
350
63
  3
C8
350
64
  3
C9
350
65
  3
D0
350
66
  3
D1
350
67
  3
D2
350
68
  0
XRECORD
  5
143
102
{ACAD_REACTORS
330
C
102
}
330
C
100
AcDbXrecord
280
     1
  1
DWGPROPS COOKIE
  2

  3

  4

  6

  7

  8
estudent
  9

300
=
301
=
302
=
303
=
304
=
305
=
306
=
307
=
308
=
309
=
 40
0.0
 41
2460006.243371227
 42
2460006.243373171
  1

 90
        0
  0
LAYOUT
  5
1E
102
{ACAD_REACTORS
330
1A
102
}
330
1A
100
AcDbPlotSettings
  1

  2
none_device
  4

  6

 40
0.0
 41
0.0
 42
0.0
 43
0.0
 44
0.0
 45
0.0
 46
0.0
 47
0.0
 48
0.0
 49
0.0
140
0.0
141
0.0
142
1.0
143
1.0
 70
   688
 72
     1
 73
     0
 74
     5
  7

 75
    16
147
1.0
148
0.0
149
0.0
100
AcDbLayout
  1
Layout1
 70
     1
 71
     1
 10
0.0
 20
0.0
 11
420.0
 21
297.0
 12
0.0
 22
0.0
 32
0.0
 14
1.0000000000E+20
 24
1.0000000000E+20
 34
1.0000000000E+20
 15
-1.0000000000E+20
 25
-1.0000000000E+20
 35
-1.0000000000E+20
146
0.0
 13
0.0
 23
0.0
 33
0.0
 16
1.0
 26
0.0
 36
0.0
 17
0.0
 27
1.0
 37
0.0
 76
     0
330
1B
  0
LAYOUT
  5
26
102
{ACAD_REACTORS
330
1A
102
}
330
1A
100
AcDbPlotSettings
  1

  2
none_device
  4

  6

 40
0.0
 41
0.0
 42
0.0
 43
0.0
 44
0.0
 45
0.0
 46
0.0
 47
0.0
 48
0.0
 49
0.0
140
0.0
141
0.0
142
1.0
143
1.0
 70
   688
 72
     1
 73
     0
 74
     5
  7

 75
    16
147
1.0
148
0.0
149
0.0
100
AcDbLayout
  1
Layout2
 70
     1
 71
     2
 10
0.0
 20
0.0
 11
0.0
 21
0.0
 12
0.0
 22
0.0
 32
0.0
 14
0.0
 24
0.0
 34
0.0
 15
0.0
 25
0.0
 35
0.0
146
0.0
 13
0.0
 23
0.0
 33
0.0
 16
1.0
 26
0.0
 36
0.0
 17
0.0
 27
1.0
 37
0.0
 76
     0
330
23
  0
LAYOUT
  5
22
102
{ACAD_REACTORS
330
1A
102
}
330
1A
100
AcDbPlotSettings
  1

  2
none_device
  4
Letter_(8.50_x_11.00_Inches)
  6

 40
6.35
 41
6.35
 42
6.35000508
 43
6.35000508
 44
215.9
 45
279.4
 46
0.0
 47
0.0
 48
0.0
 49
0.0
140
0.0
141
0.0
142
1.0
143
1.0
 70
  1712
 72
     1
 73
     0
 74
     0
  7

 75
     0
147
1.0
148
0.0
149
0.0
100
AcDbLayout
  1
Model
 70
     1
 71
     0
 10
0.0
 20
0.0
 11
594.0
 21
841.0
 12
0.0
 22
0.0
 32
0.0
 14
0.0
 24
0.0
 34
0.0
 15
594.0
 25
841.0
 35
0.0
146
0.0
 13
0.0
 23
0.0
 33
0.0
 16
1.0
 26
0.0
 36
0.0
 17
0.0
 27
1.0
 37
0.0
 76
     0
330
1F
331
29
  0
MLINESTYLE
  5
18
102
{ACAD_REACTORS
330
17
102
}
330
17
100
AcDbMlineStyle
  2
Standard
 70
     0
  3

 62
   256
 51
90.0
 52
90.0
 71
     2
 49
0.5
 62
   256
  6
BYLAYER
 49
-0.5
 62
   256
  6
BYLAYER
  0
ACDBPLACEHOLDER
  5
F
102
{ACAD_REACTORS
330
E
102
}
330
E
  0
SCALE
  5
48
102
{ACAD_REACTORS
330
47
102
}
330
47
100
AcDbScale
 70
     0
300
1:1
140
1.0
141
1.0
290
     1
  0
SCALE
  5
49
102
{ACAD_REACTORS
330
47
102
}
330
47
100
AcDbScale
 70
     0
300
1:2
140
1.0
141
2.0
290
     0
  0
SCALE
  5
4A
102
{ACAD_REACTORS
330
47
102
}
330
47
100
AcDbScale
 70
     0
300
1:4
140
1.0
141
4.0
290
     0
  0
SCALE
  5
4B
102
{ACAD_REACTORS
330
47
102
}
330
47
100
AcDbScale
 70
     0
300
1:5
140
1.0
141
5.0
290
     0
  0
SCALE
  5
4C
102
{ACAD_REACTORS
330
47
102
}
330
47
100
AcDbScale
 70
     0
300
1:8
140
1.0
141
8.0
290
     0
  0
SCALE
  5
4D
102
{ACAD_REACTORS
330
47
102
}
330
47
100
AcDbScale
 70
     0
300
1:10
140
1.0
141
10.0
290
     0
  0
SCALE
  5
4E
102
{ACAD_REACTORS
330
47
102
}
330
47
100
AcDbScale
 70
     0
300
1:16
140
1.0
141
16.0
290
     0
  0
SCALE
  5
4F
102
{ACAD_REACTORS
330
47
102
}
330
47
100
AcDbScale
 70
     0
300
1:20
140
1.0
141
20.0
290
     0
  0
SCALE
  5
50
102
{ACAD_REACTORS
330
47
102
}
330
47
100
AcDbScale
 70
     0
300
1:30
140
1.0
141
30.0
290
     0
  0
SCALE
  5
51
102
{ACAD_REACTORS
330
47
102
}
330
47
100
AcDbScale
 70
     0
300
1:40
140
1.0
141
40.0
290
     0
  0
SCALE
  5
52
102
{ACAD_REACTORS
330
47
102
}
330
47
100
AcDbScale
 70
     0
300
1:50
140
1.0
141
50.0
290
     0
  0
SCALE
  5
53
102
{ACAD_REACTORS
330
47
102
}
330
47
100
AcDbScale
 70
     0
300
1:100
140
1.0
141
100.0
290
     0
  0
SCALE
  5
54
102
{ACAD_REACTORS
330
47
102
}
330
47
100
AcDbScale
 70
     0
300
2:1
140
2.0
141
1.0
290
     0
  0
SCALE
  5
55
102
{ACAD_REACTORS
330
47
102
}
330
47
100
AcDbScale
 70
     0
300
4:1
140
4.0
141
1.0
290
     0
  0
SCALE
  5
56
102
{ACAD_REACTORS
330
47
102
}
330
47
100
AcDbScale
 70
     0
300
8:1
140
8.0
141
1.0
290
     0
  0
SCALE
  5
57
102
{ACAD_REACTORS
330
47
102
}
330
47
100
AcDbScale
 70
     0
300
10:1
140
10.0
141
1.0
290
     0
  0
SCALE
  5
58
102
{ACAD_REACTORS
330
47
102
}
330
47
100
AcDbScale
 70
     0
300
100:1
140
100.0
141
1.0
290
     0
  0
SCALE
  5
59
102
{ACAD_REACTORS
330
47
102
}
330
47
100
AcDbScale
 70
     0
300
1/128" = 1'-0"
140
0.0078125
141
12.0
290
     0
  0
SCALE
  5
5A
102
{ACAD_REACTORS
330
47
102
}
330
47
100
AcDbScale
 70
     0
300
1/64" = 1'-0"
140
0.015625
141
12.0
290
     0
  0
SCALE
  5
5B
102
{ACAD_REACTORS
330
47
102
}
330
47
100
AcDbScale
 70
     0
300
1/32" = 1'-0"
140
0.03125
141
12.0
290
     0
  0
SCALE
  5
5C
102
{ACAD_REACTORS
330
47
102
}
330
47
100
AcDbScale
 70
     0
300
1/16" = 1'-0"
140
0.0625
141
12.0
290
     0
  0
SCALE
  5
5D
102
{ACAD_REACTORS
330
47
102
}
330
47
100
AcDbScale
 70
     0
300
3/32" = 1'-0"
140
0.09375
141
12.0
290
     0
  0
SCALE
  5
5E
102
{ACAD_REACTORS
330
47
102
}
330
47
100
AcDbScale
 70
     0
300
1/8" = 1'-0"
140
0.125
141
12.0
290
     0
  0
SCALE
  5
5F
102
{ACAD_REACTORS
330
47
102
}
330
47
100
AcDbScale
 70
     0
300
3/16" = 1'-0"
140
0.1875
141
12.0
290
     0
  0
SCALE
  5
60
102
{ACAD_REACTORS
330
47
102
}
330
47
100
AcDbScale
 70
     0
300
1/4" = 1'-0"
140
0.25
141
12.0
290
     0
  0
SCALE
  5
61
102
{ACAD_REACTORS
330
47
102
}
330
47
100
AcDbScale
 70
     0
300
3/8" = 1'-0"
140
0.375
141
12.0
290
     0
  0
SCALE
  5
62
102
{ACAD_REACTORS
330
47
102
}
330
47
100
AcDbScale
 70
     0
300
1/2" = 1'-0"
140
0.5
141
12.0
290
     0
  0
SCALE
  5
63
102
{ACAD_REACTORS
330
47
102
}
330
47
100
AcDbScale
 70
     0
300
3/4" = 1'-0"
140
0.75
141
12.0
290
     0
  0
SCALE
  5
64
102
{ACAD_REACTORS
330
47
102
}
330
47
100
AcDbScale
 70
     0
300
1" = 1'-0"
140
1.0
141
12.0
290
     0
  0
SCALE
  5
65
102
{ACAD_REACTORS
330
47
102
}
330
47
100
AcDbScale
 70
     0
300
1-1/2" = 1'-0"
140
1.5
141
12.0
290
     0
  0
SCALE
  5
66
102
{ACAD_REACTORS
330
47
102
}
330
47
100
AcDbScale
 70
     0
300
3" = 1'-0"
140
3.0
141
12.0
290
     0
  0
SCALE
  5
67
102
{ACAD_REACTORS
330
47
102
}
330
47
100
AcDbScale
 70
     0
300
6" = 1'-0"
140
6.0
141
12.0
290
     0
  0
SCALE
  5
68
102
{ACAD_REACTORS
330
47
102
}
330
47
100
AcDbScale
 70
     0
300
1'-0" = 1'-0"
140
12.0
141
12.0
290
     0
  0
ENDSEC
  0
EOF
