  0
SECTION
  2
HEADER
  9
$ACADVER
  1
AC1024
  9
$ACADMAINTVER
 70
     6
  9
$DWGCODEPAGE
  3
ANSI_1252
  9
$INSBASE
 10
0.0
 20
0.0
 30
0.0
  9
$EXTMIN
 10
0.0
 20
0.0
 30
0.0
  9
$EXTMAX
 10
594.0
 20
841.0
 30
0.0
  9
$LIMMIN
 10
0.0
 20
0.0
  9
$LIMMAX
 10
594.0
 20
841.0
  9
$ORTHOMODE
 70
     0
  9
$REGENMODE
 70
     1
  9
$FILLMODE
 70
     1
  9
$QTEXTMODE
 70
     0
  9
$MIRRTEXT
 70
     1
  9
$LTSCALE
 40
1.0
  9
$ATTMODE
 70
     1
  9
$TEXTSIZE
 40
10.0
  9
$TRACEWID
 40
1.0
  9
$TEXTSTYLE
  7
Standard
  9
$CLAYER
  8
0
  9
$CELTYPE
  6
ByLayer
  9
$CECOLOR
 62
   256
  9
$CELTSCALE
 40
1.0
  9
$DISPSILH
 70
     0
  9
$DIMSCALE
 40
1.0
  9
$DIMASZ
 40
2.5
  9
$DIMEXO
 40
0.0
  9
$DIMDLI
 40
3.75
  9
$DIMRND
 40
0.0
  9
$DIMDLE
 40
0.0
  9
$DIMEXE
 40
1.0
  9
$DIMTP
 40
0.0
  9
$DIMTM
 40
0.0
  9
$DIMTXT
 40
3.5
  9
$DIMCEN
 40
2.5
  9
$DIMTSZ
 40
0.0
  9
$DIMTOL
 70
     0
  9
$DIMLIM
 70
     0
  9
$DIMTIH
 70
     1
  9
$DIMTOH
 70
     1
  9
$DIMSE1
 70
     0
  9
$DIMSE2
 70
     0
  9
$DIMTAD
 70
     1
  9
$DIMZIN
 70
     0
  9
$DIMBLK
  1

  9
$DIMASO
 70
     1
  9
$DIMSHO
 70
     1
  9
$DIMPOST
  1

  9
$DIMAPOST
  1

  9
$DIMALT
 70
     0
  9
$DIMALTD
 70
     3
  9
$DIMALTF
 40
0.0393700787
  9
$DIMLFAC
 40
1.0
  9
$DIMTOFL
 70
     1
  9
$DIMTVP
 40
0.0
  9
$DIMTIX
 70
     0
  9
$DIMSOXD
 70
     0
  9
$DIMSAH
 70
     0
  9
$DIMBLK1
  1

  9
$DIMBLK2
  1

  9
$DIMSTYLE
  2
ISO-25
  9
$DIMCLRD
 70
     0
  9
$DIMCLRE
 70
     0
  9
$DIMCLRT
 70
     0
  9
$DIMTFAC
 40
1.0
  9
$DIMGAP
 40
1.5
  9
$DIMJUST
 70
     0
  9
$DIMSD1
 70
     0
  9
$DIMSD2
 70
     0
  9
$DIMTOLJ
 70
     0
  9
$DIMTZIN
 70
     0
  9
$DIMALTZ
 70
     0
  9
$DIMALTTZ
 70
     0
  9
$DIMUPT
 70
     0
  9
$DIMDEC
 70
     2
  9
$DIMTDEC
 70
     2
  9
$DIMALTU
 70
     2
  9
$DIMALTTD
 70
     3
  9
$DIMTXSTY
  7
Standard
  9
$DIMAUNIT
 70
     0
  9
$DIMADEC
 70
     2
  9
$DIMALTRND
 40
0.0
  9
$DIMAZIN
 70
     0
  9
$DIMDSEP
 70
    44
  9
$DIMATFIT
 70
     3
  9
$DIMFRAC
 70
     0
  9
$DIMLDRBLK
  1

  9
$DIMLUNIT
 70
     2
  9
$DIMLWD
 70
    -2
  9
$DIMLWE
 70
    -2
  9
$DIMTMOVE
 70
     0
  9
$DIMFXL
 40
1.0
  9
$DIMFXLON
 70
     0
  9
$DIMJOGANG
 40
0.7853981634
  9
$DIMTFILL
 70
     0
  9
$DIMTFILLCLR
 70
     0
  9
$DIMARCSYM
 70
     0
  9
$DIMLTYPE
  6

  9
$DIMLTEX1
  6

  9
$DIMLTEX2
  6

  9
$DIMTXTDIRECTION
 70
     0
  9
$LUNITS
 70
     2
  9
$LUPREC
 70
     2
  9
$SKETCHINC
 40
1.0
  9
$FILLETRAD
 40
10.0
  9
$AUNITS
 70
     0
  9
$AUPREC
 70
     2
  9
$MENU
  1
.
  9
$ELEVATION
 40
0.0
  9
$PELEVATION
 40
0.0
  9
$THICKNESS
 40
0.0
  9
$LIMCHECK
 70
     0
  9
$CHAMFERA
 40
10.0
  9
$CHAMFERB
 40
10.0
  9
$CHAMFERC
 40
20.0
  9
$CHAMFERD
 40
0.0
  9
$SKPOLY
 70
     0
  9
$TDCREATE
 40
2456168.429111065
  9
$TDUCREATE
 40
2456168.345777731
  9
$TDUPDATE
 40
2456168.429111077
  9
$TDUUPDATE
 40
2456168.345777743
  9
$TDINDWG
 40
0.0000000116
  9
$TDUSRTIMER
 40
0.0000000116
  9
$USRTIMER
 70
     1
  9
$ANGBASE
 50
0.0
  9
$ANGDIR
 70
     0
  9
$PDMODE
 70
     0
  9
$PDSIZE
 40
-1.0
  9
$PLINEWID
 40
0.0
  9
$SPLFRAME
 70
     0
  9
$SPLINETYPE
 70
     6
  9
$SPLINESEGS
 70
     8
  9
$HANDSEED
  5
16A
  9
$SURFTAB1
 70
     6
  9
$SURFTAB2
 70
     6
  9
$SURFTYPE
 70
     6
  9
$SURFU
 70
     6
  9
$SURFV
 70
     6
  9
$UCSBASE
  2

  9
$UCSNAME
  2

  9
$UCSORG
 10
0.0
 20
0.0
 30
0.0
  9
$UCSXDIR
 10
1.0
 20
0.0
 30
0.0
  9
$UCSYDIR
 10
0.0
 20
1.0
 30
0.0
  9
$UCSORTHOREF
  2

  9
$UCSORTHOVIEW
 70
     0
  9
$UCSORGTOP
 10
0.0
 20
0.0
 30
0.0
  9
$UCSORGBOTTOM
 10
0.0
 20
0.0
 30
0.0
  9
$UCSORGLEFT
 10
0.0
 20
0.0
 30
0.0
  9
$UCSORGRIGHT
 10
0.0
 20
0.0
 30
0.0
  9
$UCSORGFRONT
 10
0.0
 20
0.0
 30
0.0
  9
$UCSORGBACK
 10
0.0
 20
0.0
 30
0.0
  9
$PUCSBASE
  2

  9
$PUCSNAME
  2

  9
$PUCSORG
 10
0.0
 20
0.0
 30
0.0
  9
$PUCSXDIR
 10
1.0
 20
0.0
 30
0.0
  9
$PUCSYDIR
 10
0.0
 20
1.0
 30
0.0
  9
$PUCSORTHOREF
  2

  9
$PUCSORTHOVIEW
 70
     0
  9
$PUCSORGTOP
 10
0.0
 20
0.0
 30
0.0
  9
$PUCSORGBOTTOM
 10
0.0
 20
0.0
 30
0.0
  9
$PUCSORGLEFT
 10
0.0
 20
0.0
 30
0.0
  9
$PUCSORGRIGHT
 10
0.0
 20
0.0
 30
0.0
  9
$PUCSORGFRONT
 10
0.0
 20
0.0
 30
0.0
  9
$PUCSORGBACK
 10
0.0
 20
0.0
 30
0.0
  9
$USERI1
 70
     0
  9
$USERI2
 70
     0
  9
$USERI3
 70
     0
  9
$USERI4
 70
     0
  9
$USERI5
 70
     0
  9
$USERR1
 40
0.0
  9
$USERR2
 40
0.0
  9
$USERR3
 40
0.0
  9
$USERR4
 40
0.0
  9
$USERR5
 40
0.0
  9
$WORLDVIEW
 70
     1
  9
$SHADEDGE
 70
     3
  9
$SHADEDIF
 70
    70
  9
$TILEMODE
 70
     1
  9
$MAXACTVP
 70
    64
  9
$PINSBASE
 10
0.0
 20
0.0
 30
0.0
  9
$PLIMCHECK
 70
     0
  9
$PEXTMIN
 10
1.0000000000E+20
 20
1.0000000000E+20
 30
1.0000000000E+20
  9
$PEXTMAX
 10
-1.0000000000E+20
 20
-1.0000000000E+20
 30
-1.0000000000E+20
  9
$PLIMMIN
 10
0.0
 20
0.0
  9
$PLIMMAX
 10
420.0
 20
297.0
  9
$UNITMODE
 70
     0
  9
$VISRETAIN
 70
     1
  9
$PLINEGEN
 70
     0
  9
$PSLTSCALE
 70
     1
  9
$TREEDEPTH
 70
  3020
  9
$CMLSTYLE
  2
Standard
  9
$CMLJUST
 70
     0
  9
$CMLSCALE
 40
20.0
  9
$PROXYGRAPHICS
 70
     1
  9
$MEASUREMENT
 70
     1
  9
$CELWEIGHT
370
    -1
  9
$ENDCAPS
280
     0
  9
$JOINSTYLE
280
     0
  9
$LWDISPLAY
290
     1
  9
$INSUNITS
 70
     4
  9
$HYPERLINKBASE
  1

  9
$STYLESHEET
  1

  9
$XEDIT
290
     1
  9
$CEPSNTYPE
380
     0
  9
$PSTYLEMODE
290
     1
  9
$FINGERPRINTGUID
  2
{EA75ABA9-5D24-4864-9680-AE771D38428A}
  9
$VERSIONGUID
  2
{FAEB1C32-E019-11D5-929B-00C0DF256EC4}
  9
$EXTNAMES
290
     1
  9
$PSVPSCALE
 40
0.0
  9
$OLESTARTUP
290
     0
  9
$SORTENTS
280
   127
  9
$INDEXCTL
280
     0
  9
$HIDETEXT
280
     1
  9
$XCLIPFRAME
280
     2
  9
$HALOGAP
280
     0
  9
$OBSCOLOR
 70
   257
  9
$OBSLTYPE
280
     0
  9
$INTERSECTIONDISPLAY
280
     0
  9
$INTERSECTIONCOLOR
 70
   257
  9
$DIMASSOC
280
     2
  9
$PROJECTNAME
  1

  9
$CAMERADISPLAY
290
     0
  9
$LENSLENGTH
 40
50.0
  9
$CAMERAHEIGHT
 40
0.0
  9
$STEPSPERSEC
 40
2.0
  9
$STEPSIZE
 40
6.0
  9
$3DDWFPREC
 40
2.0
  9
$PSOLWIDTH
 40
5.0
  9
$PSOLHEIGHT
 40
80.0
  9
$LOFTANG1
 40
1.5707963268
  9
$LOFTANG2
 40
1.5707963268
  9
$LOFTMAG1
 40
0.0
  9
$LOFTMAG2
 40
0.0
  9
$LOFTPARAM
 70
     7
  9
$LOFTNORMALS
280
     1
  9
$LATITUDE
 40
37.795
  9
$LONGITUDE
 40
-122.394
  9
$NORTHDIRECTION
 40
0.0
  9
$TIMEZONE
 70
 -8000
  9
$LIGHTGLYPHDISPLAY
280
     1
  9
$TILEMODELIGHTSYNCH
280
     1
  9
$SOLIDHIST
280
     1
  9
$SHOWHIST
280
     1
  9
$DWFFRAME
280
     2
  9
$DGNFRAME
280
     2
  9
$REALWORLDSCALE
290
     1
  9
$INTERFERECOLOR
 62
   256
  9
$CSHADOW
280
     0
  9
$SHADOWPLANELOCATION
 40
0.0
  0
ENDSEC
  0
SECTION
  2
CLASSES
  0
CLASS
  1
ACDBDICTIONARYWDFLT
  2
AcDbDictionaryWithDefault
  3
ObjectDBX Classes
 90
        0
 91
        4
280
     0
281
     0
  0
CLASS
  1
VISUALSTYLE
  2
AcDbVisualStyle
  3
ObjectDBX Classes
 90
     4095
 91
        4
280
     0
281
     0
  0
CLASS
  1
MATERIAL
  2
AcDbMaterial
  3
ObjectDBX Classes
 90
     1153
 91
        4
280
     0
281
     0
  0
ENDSEC
  0
SECTION
  2
TABLES
  0
TABLE
  2
VPORT
  5
8
330
0
100
AcDbSymbolTable
 70
     1
  0
VPORT
  5
29
330
8
100
AcDbSymbolTableRecord
100
AcDbViewportTableRecord
  2
*Active
 70
     0
 10
0.0
 20
0.0
 11
1.0
 21
1.0
 12
297.0
 22
420.5
 13
0.0
 23
0.0
 14
10.0
 24
10.0
 15
10.0
 25
10.0
 16
0.0
 26
0.0
 36
1.0
 17
0.0
 27
0.0
 37
0.0
 40
841.0
 41
0.7063020214
 42
50.0
 43
0.0
 44
0.0
 50
0.0
 51
0.0
 71
     0
 72
  2000
 73
     1
 74
     3
 75
     0
 76
     0
 77
     0
 78
     0
281
     0
 65
     1
110
0.0
120
0.0
130
0.0
111
1.0
121
0.0
131
0.0
112
0.0
122
1.0
132
0.0
 79
     0
146
0.0
 60
     3
 61
     5
292
     1
282
     1
141
0.0
142
0.0
 63
   250
  0
ENDTAB
  0
TABLE
  2
LTYPE
  5
5
330
0
100
AcDbSymbolTable
 70
     6
  0
LTYPE
  5
14
330
5
100
AcDbSymbolTableRecord
100
AcDbLinetypeTableRecord
  2
ByBlock
 70
     0
  3

 72
    65
 73
     0
 40
0.0
  0
LTYPE
  5
15
330
5
100
AcDbSymbolTableRecord
100
AcDbLinetypeTableRecord
  2
ByLayer
 70
     0
  3

 72
    65
 73
     0
 40
0.0
  0
LTYPE
  5
16
330
5
100
AcDbSymbolTableRecord
100
AcDbLinetypeTableRecord
  2
Continuous
 70
     0
  3
Solid line
 72
    65
 73
     0
 40
0.0
  0
LTYPE
  5
3F
330
5
100
AcDbSymbolTableRecord
100
AcDbLinetypeTableRecord
  2
HIDDEN
 70
     0
  3
Hidden __ __ __ __ __ __ __ __ __ __ __ __ __ __
 72
    65
 73
     2
 40
1.905
 49
1.27
 74
     0
 49
-0.635
 74
     0
  0
LTYPE
  5
40
330
5
100
AcDbSymbolTableRecord
100
AcDbLinetypeTableRecord
  2
PHANTOM
 70
     0
  3
Phantom ______  __  __  ______  __  __  ______
 72
    65
 73
     6
 40
12.7
 49
6.35
 74
     0
 49
-1.27
 74
     0
 49
1.27
 74
     0
 49
-1.27
 74
     0
 49
1.27
 74
     0
 49
-1.27
 74
     0
  0
LTYPE
  5
41
330
5
100
AcDbSymbolTableRecord
100
AcDbLinetypeTableRecord
  2
CENTER
 70
     0
  3
Center ____ _ ____ _ ____ _ ____ _ ____ _ ____
 72
    65
 73
     4
 40
10.16
 49
6.35
 74
     0
 49
-1.27
 74
     0
 49
1.27
 74
     0
 49
-1.27
 74
     0
  0
LTYPE
  5
42
330
5
100
AcDbSymbolTableRecord
100
AcDbLinetypeTableRecord
  2
CENTERX2
 70
     0
  3
Center (2x) ________  __  ________  __  _____
 72
    65
 73
     4
 40
20.32
 49
12.7
 74
     0
 49
-2.54
 74
     0
 49
2.54
 74
     0
 49
-2.54
 74
     0
  0
LTYPE
  5
43
330
5
100
AcDbSymbolTableRecord
100
AcDbLinetypeTableRecord
  2
DOT2
 70
     0
  3
Dot (.5x) ........................................
 72
    65
 73
     2
 40
0.635
 49
0.0
 74
     0
 49
-0.635
 74
     0
  0
ENDTAB
  0
TABLE
  2
LAYER
  5
2
330
0
100
AcDbSymbolTable
 70
     1
  0
LAYER
  5
10
330
2
100
AcDbSymbolTableRecord
100
AcDbLayerTableRecord
  2
0
 70
     0
 62
     7
  6
Continuous
370
    -3
390
F
347
3E
  0
ENDTAB
  0
TABLE
  2
STYLE
  5
3
330
0
100
AcDbSymbolTable
 70
     3
  0
STYLE
  5
11
330
3
100
AcDbSymbolTableRecord
100
AcDbTextStyleTableRecord
  2
Standard
 70
     0
 40
0.0
 41
1.0
 50
0.0
 71
     0
 42
2.5
  3
txt
  4

  0
STYLE
  5
47
330
3
100
AcDbSymbolTableRecord
100
AcDbTextStyleTableRecord
  2
SLDTEXTSTYLE0
 70
     0
 40
0.0
 41
0.96
 50
0.0
 71
     0
 42
0.2
  3
ISOCP3
  4

  0
STYLE
  5
5E
330
3
100
AcDbSymbolTableRecord
100
AcDbTextStyleTableRecord
  2
SLDTEXTSTYLE1
 70
     0
 40
0.0
 41
0.605
 50
0.0
 71
     0
 42
0.2
  3
TXT
  4

  0
ENDTAB
  0
TABLE
  2
VIEW
  5
6
330
0
100
AcDbSymbolTable
 70
     0
  0
ENDTAB
  0
TABLE
  2
UCS
  5
7
330
0
100
AcDbSymbolTable
 70
     0
  0
ENDTAB
  0
TABLE
  2
APPID
  5
9
330
0
100
AcDbSymbolTable
 70
     1
  0
APPID
  5
12
330
9
100
AcDbSymbolTableRecord
100
AcDbRegAppTableRecord
  2
ACAD
 70
     0
  0
ENDTAB
  0
TABLE
  2
DIMSTYLE
  5
A
330
0
100
AcDbSymbolTable
 70
     2
100
AcDbDimStyleTable
  0
DIMSTYLE
105
27
330
A
100
AcDbSymbolTableRecord
100
AcDbDimStyleTableRecord
  2
ISO-25
 70
     0
 41
2.5
 42
0.625
 43
3.75
 44
1.25
 73
     0
 74
     0
 77
     1
 78
     8
140
2.5
141
2.5
143
0.0393700787
147
0.625
171
     3
172
     1
178
     0
271
     2
272
     2
274
     3
278
    44
283
     0
284
     8
340
11
  0
DIMSTYLE
105
48
102
{ACAD_REACTORS
330
46
330
53
102
}
330
A
100
AcDbSymbolTableRecord
100
AcDbDimStyleTableRecord
  2
SLDDIMSTYLE0
 70
     0
 41
2.5
 44
0.0
 45
0.000000001
 73
     0
 74
     0
 77
     1
 78
    12
 79
     3
140
6.0
147
1.5
173
     1
178
     0
271
     2
272
     2
276
     2
284
    12
340
47
  0
ENDTAB
  0
TABLE
  2
BLOCK_RECORD
  5
1
330
0
100
AcDbSymbolTable
 70
     3
  0
BLOCK_RECORD
  5
1F
330
1
100
AcDbSymbolTableRecord
100
AcDbBlockTableRecord
  2
*Model_Space
340
22
 70
     0
280
     1
281
     0
  0
BLOCK_RECORD
  5
1B
330
1
100
AcDbSymbolTableRecord
100
AcDbBlockTableRecord
  2
*Paper_Space
340
1E
 70
     0
280
     1
281
     0
  0
BLOCK_RECORD
  5
23
330
1
100
AcDbSymbolTableRecord
100
AcDbBlockTableRecord
  2
*Paper_Space0
340
26
 70
     0
280
     1
281
     0
  0
BLOCK_RECORD
  5
49
330
1
100
AcDbSymbolTableRecord
100
AcDbBlockTableRecord
  2
*D1
340
0
 70
     0
280
     1
281
     0
  0
BLOCK_RECORD
  5
54
330
1
100
AcDbSymbolTableRecord
100
AcDbBlockTableRecord
  2
*D2
340
0
 70
     0
280
     1
281
     0
  0
ENDTAB
  0
ENDSEC
  0
SECTION
  2
BLOCKS
  0
BLOCK
  5
20
330
1F
100
AcDbEntity
  8
0
100
AcDbBlockBegin
  2
*Model_Space
 70
     0
 10
0.0
 20
0.0
 30
0.0
  3
*Model_Space
  1

  0
ENDBLK
  5
21
330
1F
100
AcDbEntity
  8
0
100
AcDbBlockEnd
  0
BLOCK
  5
1C
330
1B
100
AcDbEntity
 67
     1
  8
0
100
AcDbBlockBegin
  2
*Paper_Space
 70
     0
 10
0.0
 20
0.0
 30
0.0
  3
*Paper_Space
  1

  0
ENDBLK
  5
1D
330
1B
100
AcDbEntity
 67
     1
  8
0
100
AcDbBlockEnd
  0
BLOCK
  5
24
330
23
100
AcDbEntity
  8
0
100
AcDbBlockBegin
  2
*Paper_Space0
 70
     0
 10
0.0
 20
0.0
 30
0.0
  3
*Paper_Space0
  1

  0
ENDBLK
  5
25
330
23
100
AcDbEntity
  8
0
100
AcDbBlockEnd
  0
BLOCK
  5
4A
330
49
100
AcDbEntity
  8
0
100
AcDbBlockBegin
  2
*D1
 70
     1
 10
0.0
 20
0.0
 30
0.0
  3
*D1
  1

  0
SOLID
  5
4C
330
49
100
AcDbEntity
  8
0
  6
Continuous
 62
     7
370
     0
100
AcDbTrace
 10
42.7614395004
 20
152.0299240879
 30
0.0
 11
42.4614395004
 21
149.5299240879
 31
0.0
 12
43.0614395004
 22
149.5299240879
 32
0.0
 13
43.0614395004
 23
149.5299240879
 33
0.0
  0
SOLID
  5
4D
330
49
100
AcDbEntity
  8
0
  6
Continuous
 62
     7
370
     0
100
AcDbTrace
 10
42.7614395004
 20
52.0299240879
 30
0.0
 11
43.0614395004
 21
54.5299240879
 31
0.0
 12
42.4614395004
 22
54.5299240879
 32
0.0
 13
42.4614395004
 23
54.5299240879
 33
0.0
  0
LINE
  5
4E
330
49
100
AcDbEntity
  8
0
  6
Continuous
 62
     7
370
     0
100
AcDbLine
 10
56.6850079902
 20
152.0299240879
 30
0.0
 11
41.7614395004
 21
152.0299240879
 31
0.0
  0
LINE
  5
4F
330
49
100
AcDbEntity
  8
0
  6
Continuous
 62
     7
370
     0
100
AcDbLine
 10
56.6850079902
 20
52.0299240879
 30
0.0
 11
41.7614395004
 21
52.0299240879
 31
0.0
  0
LINE
  5
50
330
49
100
AcDbEntity
  8
0
  6
Continuous
 62
     7
370
     0
100
AcDbLine
 10
42.7614395004
 20
152.0299240879
 30
0.0
 11
42.7614395004
 21
52.0299240879
 31
0.0
  0
MTEXT
  5
51
330
49
100
AcDbEntity
  8
0
  6
Continuous
 62
     7
370
     0
100
AcDbMText
 10
35.0270332946
 20
91.6722208134
 30
0.1
 40
6.0
 41
0.0
 46
0.0
 71
     1
 72
     1
  1
100
  7
SLDTEXTSTYLE0
 11
-7.044195017643634E-15
 21
1.0
 31
0.0
 73
     1
 44
1.0
  0
MTEXT
  5
52
330
49
100
AcDbEntity
  8
0
  6
Continuous
 62
     7
370
     0
100
AcDbMText
 10
35.0270332946
 20
108.4388881795
 30
0.1
 40
6.0
 41
0.0
 46
0.0
 71
     1
 72
     1
  1
mm
  7
SLDTEXTSTYLE0
 11
-7.044195017643634E-15
 21
1.0
 31
0.0
 73
     1
 44
1.0
  0
ENDBLK
  5
4B
330
49
100
AcDbEntity
  8
0
100
AcDbBlockEnd
  0
BLOCK
  5
55
330
54
100
AcDbEntity
  8
0
100
AcDbBlockBegin
  2
*D2
 70
     1
 10
0.0
 20
0.0
 30
0.0
  3
*D2
  1

  0
SOLID
  5
57
330
54
100
AcDbEntity
  8
0
  6
Continuous
 62
     7
370
     0
100
AcDbTrace
 10
56.6850079902
 20
38.4602342313
 30
0.0
 11
59.1850079902
 21
38.1602342313
 31
0.0
 12
59.1850079902
 22
38.7602342313
 32
0.0
 13
59.1850079902
 23
38.7602342313
 33
0.0
  0
SOLID
  5
58
330
54
100
AcDbEntity
  8
0
  6
Continuous
 62
     7
370
     0
100
AcDbTrace
 10
156.6850079902
 20
38.4602342313
 30
0.0
 11
154.1850079902
 21
38.7602342313
 31
0.0
 12
154.1850079902
 22
38.1602342313
 32
0.0
 13
154.1850079902
 23
38.1602342313
 33
0.0
  0
LINE
  5
59
330
54
100
AcDbEntity
  8
0
  6
Continuous
 62
     7
370
     0
100
AcDbLine
 10
56.6850079902
 20
52.0299240879
 30
0.0
 11
56.6850079902
 21
37.4602342313
 31
0.0
  0
LINE
  5
5A
330
54
100
AcDbEntity
  8
0
  6
Continuous
 62
     7
370
     0
100
AcDbLine
 10
156.6850079902
 20
52.0299240879
 30
0.0
 11
156.6850079902
 21
37.4602342313
 31
0.0
  0
LINE
  5
5B
330
54
100
AcDbEntity
  8
0
  6
Continuous
 62
     7
370
     0
100
AcDbLine
 10
56.6850079902
 20
38.4602342313
 30
0.0
 11
156.6850079902
 21
38.4602342313
 31
0.0
  0
MTEXT
  5
5C
330
54
100
AcDbEntity
  8
0
  6
Continuous
 62
     7
370
     0
100
AcDbMText
 10
91.2668151533
 20
46.1946404371
 30
0.1
 40
6.0
 41
0.0
 46
0.0
 71
     1
 72
     1
  1
100
  7
SLDTEXTSTYLE0
 73
     1
 44
1.0
  0
MTEXT
  5
5D
330
54
100
AcDbEntity
  8
0
  6
Continuous
 62
     7
370
     0
100
AcDbMText
 10
108.0334825193
 20
46.1946404371
 30
0.1
 40
6.0
 41
0.0
 46
0.0
 71
     1
 72
     1
  1
mm
  7
SLDTEXTSTYLE0
 73
     1
 44
1.0
  0
ENDBLK
  5
56
330
54
100
AcDbEntity
  8
0
100
AcDbBlockEnd
  0
ENDSEC
  0
SECTION
  2
ENTITIES
  0
LINE
  5
44
330
1F
100
AcDbEntity
  8
0
  6
Continuous
 62
     7
370
     0
100
AcDbLine
 10
56.6850079902
 20
152.0299240879
 30
0.0
 11
56.6850079902
 21
52.0299240879
 31
0.0
  0
LINE
  5
45
330
1F
100
AcDbEntity
  8
0
  6
Continuous
 62
     7
370
     0
100
AcDbLine
 10
56.6850079902
 20
52.0299240879
 30
0.0
 11
156.6850079902
 21
52.0299240879
 31
0.0
  0
DIMENSION
  5
46
330
1F
100
AcDbEntity
  8
0
  6
Continuous
 62
     7
370
     0
100
AcDbDimension
280
     0
  2
*D1
 10
42.7614395004
 20
52.0299240879
 30
0.0
 11
42.7614395004
 21
105.4472211621
 31
0.0
 70
   160
  1
<>mm
 71
     2
 42
-1.0
 73
     0
 74
     0
 75
     0
  3
SLDDIMSTYLE0
100
AcDbAlignedDimension
 13
56.6850079902
 23
152.0299240879
 33
0.0
 14
56.6850079902
 24
52.0299240879
 34
0.0
 50
90.0
100
AcDbRotatedDimension
  0
DIMENSION
  5
53
330
1F
100
AcDbEntity
  8
0
  6
Continuous
 62
     7
370
     0
100
AcDbDimension
280
     0
  2
*D2
 10
156.6850079902
 20
38.4602342313
 30
0.0
 11
105.0418155019
 21
38.4602342313
 31
0.0
 70
   160
  1
<>mm
 71
     2
 42
-1.0
 73
     0
 74
     0
 75
     0
  3
SLDDIMSTYLE0
100
AcDbAlignedDimension
 13
56.6850079902
 23
52.0299240879
 33
0.0
 14
156.6850079902
 24
52.0299240879
 34
0.0
100
AcDbRotatedDimension
  0
MTEXT
  5
5F
330
1F
100
AcDbEntity
  8
0
  6
Continuous
 62
     7
370
     0
100
AcDbMText
 10
286.6693358357
 20
48.2910170953
 30
0.0
 40
10.0
 41
0.0
 46
0.0
 71
     1
 72
     1
  1
42 817 05 77
  7
SLDTEXTSTYLE1
 73
     1
 44
1.0
  0
MTEXT
  5
60
330
1F
100
AcDbEntity
  8
0
  6
Continuous
 62
     7
370
     0
100
AcDbMText
 10
412.8252631579
 20
48.4342449499
 30
0.0
 40
10.0
 41
0.0
 46
0.0
 71
     1
 72
     1
  1
KLUDI GmbH & Co KG
  7
SLDTEXTSTYLE1
 73
     1
 44
1.0
  0
LINE
  5
61
330
1F
100
AcDbEntity
  8
0
  6
Continuous
 62
     7
370
    15
100
AcDbLine
 10
169.4201279248
 20
699.1062824649
 30
0.0
 11
169.4201279248
 21
690.5676312095
 31
0.0
  0
LINE
  5
62
330
1F
100
AcDbEntity
  8
0
  6
Continuous
 62
     7
370
    15
100
AcDbLine
 10
188.4771279248
 20
690.5676312095
 30
0.0
 11
188.4771279248
 21
699.0756566136
 31
0.0
  0
SPLINE
  5
63
330
1F
100
AcDbEntity
  8
0
  6
Continuous
 62
     7
370
    15
100
AcDbSpline
210
0.0
220
0.0
230
1.0
 70
     8
 71
     3
 72
    12
 73
     8
 74
     0
 42
0.00000001
 43
0.00000001
 40
0.0
 40
0.0
 40
0.0
 40
0.0
 40
0.2647310141709658
 40
0.5214200939845858
 40
0.7384430831794541
 40
0.9189930286460809
 40
0.9999999999999999
 40
0.9999999999999999
 40
0.9999999999999999
 40
0.9999999999999999
 10
166.2985274195351
 20
502.1062047757461
 30
0.0
 10
166.3398769670366
 20
501.9755886659489
 30
0.0
 10
166.421319955543
 20
501.718324270768
 30
0.0
 10
166.393383710002
 20
501.3319103650521
 30
0.0
 10
166.2954025257328
 20
501.0096807663501
 30
0.0
 10
166.1810470330732
 20
500.7891817761036
 30
0.0
 10
166.0959591895504
 20
500.6850981567543
 30
0.0
 10
166.0696065754173
 20
500.6528623479157
 30
0.0
  0
SPLINE
  5
64
330
1F
100
AcDbEntity
  8
0
  6
Continuous
 62
     7
370
    15
100
AcDbSpline
210
0.0
220
0.0
230
1.0
 70
     8
 71
     3
 72
    13
 73
     9
 74
     0
 42
0.00000001
 43
0.00000001
 40
0.0
 40
0.0
 40
0.0
 40
0.0
 40
0.0318290703189197
 40
0.2150904812618845
 40
0.4210934619168751
 40
0.6989551947011716
 40
0.9807816493141159
 40
1.0
 40
1.0
 40
1.0
 40
1.0
 10
176.9079387766041
 20
504.5677370743863
 30
0.0
 10
176.8878362434989
 20
504.5697976710575
 30
0.0
 10
176.7519898779956
 20
504.5837225116277
 30
0.0
 10
176.4979238213996
 20
504.6797136952398
 30
0.0
 10
176.1326999600017
 20
504.9034048918119
 30
0.0
 10
175.8294127589815
 20
505.2859254827424
 30
0.0
 10
175.6599573250338
 20
505.6371966276506
 30
0.0
 10
175.6653815905271
 20
505.8283388007101
 30
0.0
 10
175.6657278693355
 20
505.8405410950134
 30
0.0
  0
LINE
  5
65
330
1F
100
AcDbEntity
  8
0
  6
Continuous
 62
     7
370
    15
100
AcDbLine
 10
175.7357796499
 20
505.5340383747
 30
0.0
 11
154.6737822051
 21
563.4014007629
 31
0.0
  0
LINE
  5
66
330
1F
100
AcDbEntity
  8
0
  6
Continuous
 62
     7
370
    15
100
AcDbLine
 10
145.2486652186
 20
559.9709387254
 30
0.0
 11
166.309209333
 21
502.1075693295
 31
0.0
  0
ARC
  5
67
330
1F
100
AcDbEntity
  8
0
  6
Continuous
 62
     7
370
    15
100
AcDbCircle
 10
145.7199210679
 20
560.1424618272
 30
0.0
 40
0.5015000000000045
100
AcDbArc
 50
110.0
 51
200.0
  0
ARC
  5
68
330
1F
100
AcDbEntity
  8
0
  6
Continuous
 62
     7
370
    15
100
AcDbCircle
 10
154.2025263557
 20
563.229877661
 30
0.0
 40
0.501500000000041
100
AcDbArc
 50
20.0
 51
110.0
  0
LINE
  5
69
330
1F
100
AcDbEntity
  8
0
  6
Continuous
 62
     7
370
    15
100
AcDbLine
 10
189.9816279248
 20
664.5899312082
 30
0.0
 11
189.9816279248
 21
704.7099312082
 31
0.0
  0
LINE
  5
6A
330
1F
100
AcDbEntity
  8
0
  6
Continuous
 62
     7
370
    15
100
AcDbLine
 10
167.9156279248
 20
704.7099312082
 30
0.0
 11
167.9156279248
 21
664.5899312082
 31
0.0
  0
LINE
  5
6B
330
1F
100
AcDbEntity
  8
0
  6
Continuous
 62
     7
370
    15
100
AcDbLine
 10
203.0206279246
 20
411.8339312082
 30
0.0
 11
203.0206279246
 21
513.9398323374
 31
0.0
  0
LINE
  5
6C
330
1F
100
AcDbEntity
  8
0
  6
Continuous
 62
     7
370
    15
100
AcDbLine
 10
154.8766279249
 20
513.9398323374
 30
0.0
 11
154.8766279249
 21
411.8339312082
 31
0.0
  0
ARC
  5
6D
330
1F
100
AcDbEntity
  8
0
  6
Continuous
 62
     7
370
    15
100
AcDbCircle
 10
202.8200279015
 20
513.9398327082
 30
0.0
 40
0.2006000231938873
100
AcDbArc
 50
359.9998940873
 51
89.9999966786
  0
ARC
  5
6E
330
1F
100
AcDbEntity
  8
0
  6
Continuous
 62
     7
370
    15
100
AcDbCircle
 10
155.077227948
 20
513.9398327082
 30
0.0
 40
0.2006000231938873
100
AcDbArc
 50
90.0000033214
 51
180.0001059127
  0
LINE
  5
6F
330
1F
100
AcDbEntity
  8
0
  6
Continuous
 62
     7
370
    15
100
AcDbLine
 10
154.8766279248
 20
526.4798345962
 30
0.0
 11
154.8766279248
 21
514.3410327082
 31
0.0
  0
LINE
  5
70
330
1F
100
AcDbEntity
  8
0
  6
Continuous
 62
     7
370
    15
100
AcDbLine
 10
203.0206279248
 20
514.3410327082
 30
0.0
 11
203.0206279248
 21
526.4798345962
 31
0.0
  0
ARC
  5
71
330
1F
100
AcDbEntity
  8
0
  6
Continuous
 62
     7
370
    15
100
AcDbCircle
 10
155.0772279248
 20
514.3410327082
 30
0.0
 40
0.200600000000037
100
AcDbArc
 50
180.0
 51
270.0
  0
ARC
  5
72
330
1F
100
AcDbEntity
  8
0
  6
Continuous
 62
     7
370
    15
100
AcDbCircle
 10
202.8200279248
 20
514.3410327082
 30
0.0
 40
0.200600000000037
100
AcDbArc
 50
270.0
 51
0.0
  0
ARC
  5
73
330
1F
100
AcDbEntity
  8
0
  6
Continuous
 62
     7
370
    15
100
AcDbCircle
 10
155.0772279248
 20
526.4798345962
 30
0.0
 40
0.200600000000105
100
AcDbArc
 50
128.0189425932
 51
180.0
  0
ARC
  5
74
330
1F
100
AcDbEntity
  8
0
  6
Continuous
 62
     7
370
    15
100
AcDbCircle
 10
202.8200279248
 20
526.4798345962
 30
0.0
 40
0.200600000000105
100
AcDbArc
 50
0.0
 51
51.9810574068
  0
LINE
  5
75
330
1F
100
AcDbEntity
  8
0
  6
Continuous
 62
     7
370
    15
100
AcDbLine
 10
202.9435818712
 20
526.6378687137
 30
0.0
 11
192.1237397581
 21
535.0970180022
 31
0.0
  0
LINE
  5
76
330
1F
100
AcDbEntity
  8
0
  6
Continuous
 62
     7
370
    15
100
AcDbLine
 10
165.7735160914
 20
535.0970180022
 30
0.0
 11
165.1524614387
 21
534.6114661828
 31
0.0
  0
LINE
  5
77
330
1F
100
AcDbEntity
  8
0
  6
Continuous
 62
     7
370
    15
100
AcDbLine
 10
156.8432231524
 20
528.1151526135
 30
0.0
 11
154.9536739783
 21
526.6378687137
 31
0.0
  0
ARC
  5
78
330
1F
100
AcDbEntity
  8
0
  6
Continuous
 62
     7
370
    15
100
AcDbCircle
 10
166.0824009575
 20
534.7019327082
 30
0.0
 40
0.5015000000000782
100
AcDbArc
 50
90.0
 51
128.0189425932
  0
ARC
  5
79
330
1F
100
AcDbEntity
  8
0
  6
Continuous
 62
     7
370
    15
100
AcDbCircle
 10
191.814854892
 20
534.7019327082
 30
0.0
 40
0.5015000000000782
100
AcDbArc
 50
51.9810574068
 51
90.0
  0
LINE
  5
7A
330
1F
100
AcDbEntity
  8
0
  6
Continuous
 62
     7
370
    15
100
AcDbLine
 10
190.9344779248
 20
535.2034327082
 30
0.0
 11
190.9344779248
 21
535.4040327082
 31
0.0
  0
LINE
  5
7B
330
1F
100
AcDbEntity
  8
0
  6
Continuous
 62
     7
370
    15
100
AcDbLine
 10
166.9627779248
 20
535.4040327082
 30
0.0
 11
166.9627779248
 21
535.2034327082
 31
0.0
  0
LINE
  5
7C
330
1F
100
AcDbEntity
  8
0
  6
Continuous
 62
     7
370
    15
100
AcDbLine
 10
167.9156279248
 20
664.5899312082
 30
0.0
 11
167.9156279248
 21
535.4040327082
 31
0.0
  0
LINE
  5
7D
330
1F
100
AcDbEntity
  8
0
  6
Continuous
 62
     7
370
    15
100
AcDbLine
 10
189.9816279248
 20
535.4040327082
 30
0.0
 11
189.9816279248
 21
664.5899312082
 31
0.0
  0
CIRCLE
  5
7E
330
1F
100
AcDbEntity
  8
0
  6
Continuous
 62
     7
370
    15
100
AcDbCircle
 10
178.9486279248
 20
704.7099312082
 30
0.0
 40
11.03300000000002
  0
LINE
  5
7F
330
1F
100
AcDbEntity
  8
0
  6
Continuous
 62
     7
370
    15
100
AcDbLine
 10
178.9486279248
 20
690.5676312095
 30
0.0
 11
188.4771279248
 21
690.5676312095
 31
0.0
  0
LINE
  5
80
330
1F
100
AcDbEntity
  8
0
  6
Continuous
 62
     7
370
    15
100
AcDbLine
 10
169.4201279248
 20
690.5676312095
 30
0.0
 11
178.9486279248
 21
690.5676312095
 31
0.0
  0
CIRCLE
  5
81
330
1F
100
AcDbEntity
  8
0
  6
Continuous
 62
     7
370
    15
100
AcDbCircle
 10
178.9486279292
 20
482.0439312084
 30
0.0
 40
22.56749999999999
  0
LINE
  5
82
330
1F
100
AcDbEntity
  8
0
  6
Continuous
 62
     7
370
    15
100
AcDbLine
 10
145.548397966
 20
560.6137176766
 30
0.0
 11
154.0310032539
 21
563.7011335104
 31
0.0
  0
LINE
  5
83
330
1F
100
AcDbEntity
  8
0
  6
Continuous
 62
     7
370
    15
100
AcDbLine
 10
167.6242518682
 20
501.5644476739
 30
0.0
 11
167.5801077214
 21
501.5483805184
 31
0.0
  0
ARC
  5
84
330
1F
100
AcDbEntity
  8
0
  6
Continuous
 62
     7
370
    15
100
AcDbCircle
 10
178.9486279247
 20
482.0439312045
 30
0.0
 40
23.06899883841402
100
AcDbArc
 50
270.0000000001
 51
89.9999999999
  0
LINE
  5
85
330
1F
100
AcDbEntity
  8
0
  6
Continuous
 62
     7
370
    15
100
AcDbLine
 10
178.9486279248
 20
505.1129299962
 30
0.0
 11
176.326915173
 21
504.9634715373
 31
0.0
  0
ARC
  5
86
330
1F
100
AcDbEntity
  8
0
  6
Continuous
 62
     7
370
    15
100
AcDbCircle
 10
178.9486279247
 20
482.0439312045
 30
0.0
 40
23.06899883841396
100
AcDbArc
 50
123.437776033
 51
270.0000000001
  0
LINE
  5
87
330
1F
100
AcDbEntity
  8
0
  6
Continuous
 62
     7
370
    15
100
AcDbLine
 10
178.9486279248
 20
411.8339312082
 30
0.0
 11
203.0206279246
 21
411.8339312082
 31
0.0
  0
LINE
  5
88
330
1F
100
AcDbEntity
  8
0
  6
Continuous
 62
     7
370
    15
100
AcDbLine
 10
154.8766279249
 20
411.8339312082
 30
0.0
 11
178.9486279248
 21
411.8339312082
 31
0.0
  0
LINE
  5
89
330
1F
100
AcDbEntity
  8
0
  6
Continuous
 62
     7
370
    15
100
AcDbLine
 10
178.9486279248
 20
514.1404327315
 30
0.0
 11
202.8200279248
 21
514.1404327082
 31
0.0
  0
LWPOLYLINE
  5
8A
330
1F
100
AcDbEntity
  8
0
  6
Continuous
 62
     7
370
    15
100
AcDbPolyline
 90
        8
 70
   128
 43
0.0
 10
155.0772279248
 20
514.1404327082
 10
155.1790591192
 20
514.1404327104
 10
155.6298910025
 20
514.1404327132
 10
156.4342111676
 20
514.140432716
 10
157.5798269409
 20
514.1404327186
 10
159.049371955
 20
514.1404327211
 10
160.8205694053
 20
514.1404327234
 10
161.9296052302
 20
514.1404327082
  0
LWPOLYLINE
  5
8B
330
1F
100
AcDbEntity
  8
0
  6
Continuous
 62
     7
370
    15
100
AcDbPolyline
 90
        4
 70
   128
 43
0.0
 10
172.6033082881
 20
514.1404327082
 10
173.1260659491
 20
514.1404327308
 10
176.0151123843
 20
514.1404327314
 10
178.9486279248
 20
514.1404327315
  0
LINE
  5
8C
330
1F
100
AcDbEntity
  8
0
  6
Continuous
 62
     7
370
    15
100
AcDbLine
 10
166.0824009575
 20
535.2034327082
 30
0.0
 11
191.814854892
 21
535.2034327082
 31
0.0
  0
LINE
  5
8D
330
1F
100
AcDbEntity
  8
0
  6
Continuous
 62
     7
370
    15
100
AcDbLine
 10
190.9344779248
 20
535.4040327082
 30
0.0
 11
166.9627779248
 21
535.4040327082
 31
0.0
  0
CIRCLE
  5
8E
330
1F
100
AcDbEntity
  8
0
  6
Continuous
 62
     8
370
     0
100
AcDbCircle
 10
178.9486279248
 20
704.7099312082
 30
0.0
 40
10.03
  0
CIRCLE
  5
8F
330
1F
100
AcDbEntity
  8
0
  6
Continuous
 62
     8
370
     0
100
AcDbCircle
 10
178.9486279292
 20
482.0439312084
 30
0.0
 40
22.02588000000003
  0
ARC
  5
90
330
1F
100
AcDbEntity
  8
0
  6
Continuous
 62
     8
370
     0
100
AcDbCircle
 10
175.6743565438
 20
491.0400606628
 30
0.0
 40
14.49410786186727
100
AcDbArc
 50
89.7571913145
 51
130.1941569881
  0
LINE
  5
91
330
1F
100
AcDbEntity
  8
0
  6
Continuous
 62
     8
370
     0
100
AcDbLine
 10
154.6737822051
 20
563.4014007629
 30
0.0
 11
145.2486652186
 21
559.9709387254
 31
0.0
  0
LINE
  5
92
330
1F
100
AcDbEntity
  8
0
  6
Continuous
 62
     8
370
     0
100
AcDbLine
 10
178.9486279248
 20
504.7117310771
 30
0.0
 11
176.8598784922
 21
504.6152907321
 31
0.0
  0
ARC
  5
93
330
1F
100
AcDbEntity
  8
0
  6
Continuous
 62
     8
370
     0
100
AcDbCircle
 10
178.9486279248
 20
482.0439312054
 30
0.0
 40
22.66779987161317
100
AcDbArc
 50
124.4785008248
 51
90.0
  0
LINE
  5
94
330
1F
100
AcDbEntity
  8
0
  6
Continuous
 62
     8
370
     0
100
AcDbLine
 10
178.9486279248
 20
505.1129299962
 30
0.0
 11
178.9486279248
 21
504.7117310771
 31
0.0
  0
SPLINE
  5
95
330
1F
100
AcDbEntity
  8
0
  6
Continuous
 62
     8
370
     0
100
AcDbSpline
210
0.0
220
0.0
230
1.0
 70
     8
 71
     3
 72
     9
 73
     5
 74
     0
 42
0.00000001
 43
0.00000001
 40
0.0
 40
0.0
 40
0.0
 40
0.0
 40
0.5986431466378339
 40
1.0
 40
1.0
 40
1.0
 40
1.0
 10
178.9486279247667
 20
511.0305640573906
 30
0.0
 10
177.9169069602374
 20
511.0552232178516
 30
0.0
 10
176.1934746110595
 20
511.0964149705668
 30
0.0
 10
174.5515081674164
 20
510.7410522226186
 30
0.0
 10
173.8924936822696
 20
510.5984249483
 30
0.0
  0
SPLINE
  5
96
330
1F
100
AcDbEntity
  8
0
  6
Continuous
 62
     8
370
     0
100
AcDbSpline
210
0.0
220
0.0
230
1.0
 70
     8
 71
     3
 72
    12
 73
     8
 74
     0
 42
0.00000001
 43
0.00000001
 40
0.0
 40
0.0
 40
0.0
 40
0.0
 40
0.4999999999999999
 40
0.4999999999999999
 40
0.75
 40
0.75
 40
1.0
 40
1.0
 40
1.0
 40
1.0
 10
190.5372929237367
 20
508.1464155315106
 30
0.0
 10
188.8926657837698
 20
509.0887322863888
 30
0.0
 10
187.0630739679716
 20
509.8799583308421
 30
0.0
 10
184.1209713770224
 20
510.6567205277971
 30
0.0
 10
183.1082176539788
 20
510.847378532574
 30
0.0
 10
181.0465821615054
 20
511.0654327255075
 30
0.0
 10
179.9975005150336
 20
511.0927831148259
 30
0.0
 10
178.9486279247667
 20
511.0305640573906
 30
0.0
  0
SPLINE
  5
97
330
1F
100
AcDbEntity
  8
0
  6
Continuous
 62
     8
370
     0
100
AcDbSpline
210
0.0
220
0.0
230
1.0
 70
     8
 71
     3
 72
    12
 73
     8
 74
     0
 42
0.00000001
 43
0.00000001
 40
0.0
 40
0.0
 40
0.0
 40
0.0
 40
0.5
 40
0.5
 40
0.75
 40
0.75
 40
1.0
 40
1.0
 40
1.0
 40
1.0
 10
167.3596262487868
 20
455.9415707053206
 30
0.0
 10
169.0042881812473
 20
454.9992165188407
 30
0.0
 10
170.8339150884978
 20
454.2078845607426
 30
0.0
 10
173.7761054335536
 20
453.4310831402113
 30
0.0
 10
174.7889005229422
 20
453.2404317540939
 30
0.0
 10
176.8505948900223
 20
453.0223710654778
 30
0.0
 10
177.899717443682
 20
452.9950289379242
 30
0.0
 10
178.9486279247667
 20
453.0572312082406
 30
0.0
  0
SPLINE
  5
98
330
1F
100
AcDbEntity
  8
0
  6
Continuous
 62
     8
370
     0
100
AcDbSpline
210
0.0
220
0.0
230
1.0
 70
     8
 71
     3
 72
    12
 73
     8
 74
     0
 42
0.00000001
 43
0.00000001
 40
0.0
 40
0.0
 40
0.0
 40
0.0
 40
0.2500000000000001
 40
0.2500000000000001
 40
0.5000000000000001
 40
0.5000000000000001
 40
1.0
 40
1.0
 40
1.0
 40
1.0
 10
178.9486279247667
 20
453.0572312082406
 30
0.0
 10
179.9975383815216
 20
452.995028939367
 30
0.0
 10
181.0466609108416
 20
453.0223710642094
 30
0.0
 10
183.1083552777339
 20
453.2404317451957
 30
0.0
 10
184.121150391121
 20
453.4310831337599
 30
0.0
 10
187.0633407625076
 20
454.2078845606996
 30
0.0
 10
188.8929676682861
 20
454.9992165188407
 30
0.0
 10
190.5376296007468
 20
455.9415707053206
 30
0.0
  0
SPLINE
  5
99
330
1F
100
AcDbEntity
  8
0
  6
Continuous
 62
     8
370
     0
100
AcDbSpline
210
0.0
220
0.0
230
1.0
 70
     8
 71
     3
 72
    10
 73
     6
 74
     0
 42
0.00000001
 43
0.00000001
 40
0.0
 40
0.0
 40
0.0
 40
0.0
 40
0.5
 40
0.5
 40
1.0
 40
1.0
 40
1.0
 40
1.0
 10
193.8593922242505
 20
506.0819600220159
 30
0.0
 10
193.3596782444603
 20
506.410042191099
 30
0.0
 10
192.8297474306889
 20
506.750550476194
 30
0.0
 10
191.7199023986547
 20
507.4471641047373
 30
0.0
 10
191.1396210400492
 20
507.8013015247287
 30
0.0
 10
190.5372929237367
 20
508.1464155315106
 30
0.0
  0
SPLINE
  5
9A
330
1F
100
AcDbEntity
  8
0
  6
Continuous
 62
     8
370
     0
100
AcDbSpline
210
0.0
220
0.0
230
1.0
 70
     8
 71
     3
 72
    14
 73
    10
 74
     0
 42
0.00000001
 43
0.00000001
 40
0.0
 40
0.0
 40
0.0
 40
0.0
 40
0.2499999999999997
 40
0.2499999999999997
 40
0.4999999999999998
 40
0.4999999999999998
 40
0.7499999999999999
 40
0.7499999999999999
 40
1.0
 40
1.0
 40
1.0
 40
1.0
 10
198.0766807155767
 20
502.2706130280505
 30
0.0
 10
197.8046990156124
 20
502.6309433880351
 30
0.0
 10
197.5135199599771
 20
503.0000642990249
 30
0.0
 10
196.8937560116303
 20
503.7031216935894
 30
0.0
 10
196.5651139948637
 20
504.0369249611908
 30
0.0
 10
195.867438833436
 20
504.6584582681454
 30
0.0
 10
195.4982160086214
 20
504.9478479768011
 30
0.0
 10
194.7138987785011
 20
505.5144715324894
 30
0.0
 10
194.298394796606
 20
505.7937373146346
 30
0.0
 10
193.8593922242505
 20
506.0819600220159
 30
0.0
  0
SPLINE
  5
9B
330
1F
100
AcDbEntity
  8
0
  6
Continuous
 62
     8
370
     0
100
AcDbSpline
210
0.0
220
0.0
230
1.0
 70
     8
 71
     3
 72
    14
 73
    10
 74
     0
 42
0.00000001
 43
0.00000001
 40
0.0
 40
0.0
 40
0.0
 40
0.0
 40
0.25
 40
0.25
 40
0.5
 40
0.5
 40
0.75
 40
0.75
 40
1.0
 40
1.0
 40
1.0
 40
1.0
 10
164.0378640341112
 20
506.081960290428
 30
0.0
 10
163.5988614131694
 20
505.7937375552982
 30
0.0
 10
163.1833573860585
 20
505.5144717500164
 30
0.0
 10
162.3990400736921
 20
504.9478481550321
 30
0.0
 10
162.0298172119366
 20
504.6584584307878
 30
0.0
 10
161.3321419836914
 20
504.0369250879548
 30
0.0
 10
161.0034999370318
 20
503.7031218002837
 30
0.0
 10
160.3837359347191
 20
503.0000643560141
 30
0.0
 10
160.0925568550284
 20
502.6309434159987
 30
0.0
 10
159.8205751339568
 20
502.2706130280505
 30
0.0
  0
LINE
  5
9C
330
1F
100
AcDbEntity
  8
0
  6
Continuous
 62
     8
370
     0
100
AcDbLine
 10
164.71050869
 20
506.4999632467
 30
0.0
 11
164.0378625927
 21
506.0819602904
 31
0.0
  0
SPLINE
  5
9D
330
1F
100
AcDbEntity
  8
0
  6
Continuous
 62
     8
370
     0
100
AcDbSpline
210
0.0
220
0.0
230
1.0
 70
     8
 71
     3
 72
    20
 73
    16
 74
     0
 42
0.00000001
 43
0.00000001
 40
0.0
 40
0.0
 40
0.0
 40
0.0
 40
0.1249999999999996
 40
0.1249999999999996
 40
0.2499999999999993
 40
0.2499999999999993
 40
0.374999999999999
 40
0.374999999999999
 40
0.4999999999999987
 40
0.4999999999999987
 40
0.624999999999999
 40
0.624999999999999
 40
0.7499999999999993
 40
0.7499999999999993
 40
1.0
 40
1.0
 40
1.0
 40
1.0
 10
159.8204645732667
 20
461.8172839116906
 30
0.0
 10
160.0338456393082
 20
461.5346029683076
 30
0.0
 10
160.259073790536
 20
461.2462052254654
 30
0.0
 10
160.7326004771913
 20
460.6849053955506
 30
0.0
 10
160.9808752229213
 20
460.4122341580558
 30
0.0
 10
161.5013410964671
 20
459.8950541578136
 30
0.0
 10
161.773492404251
 20
459.651120372528
 30
0.0
 10
162.3439880162483
 20
459.183813688064
 30
0.0
 10
162.6423296070774
 20
458.9607892233703
 30
0.0
 10
163.2677026121207
 20
458.5177889636271
 30
0.0
 10
163.5948736780041
 20
458.2974172195551
 30
0.0
 10
164.2780393888159
 20
457.8471705599384
 30
0.0
 10
164.6341913918059
 20
457.6167150062561
 30
0.0
 10
165.740915463098
 20
456.9100536797307
 30
0.0
 10
166.5293323349908
 20
456.4173103905031
 30
0.0
 10
167.3596262487868
 20
455.9415707053206
 30
0.0
  0
SPLINE
  5
9E
330
1F
100
AcDbEntity
  8
0
  6
Continuous
 62
     8
370
     0
100
AcDbSpline
210
0.0
220
0.0
230
1.0
 70
     8
 71
     3
 72
    20
 73
    16
 74
     0
 42
0.00000001
 43
0.00000001
 40
0.0
 40
0.0
 40
0.0
 40
0.0
 40
0.2499999999999994
 40
0.2499999999999994
 40
0.3749999999999994
 40
0.3749999999999994
 40
0.4999999999999994
 40
0.4999999999999994
 40
0.6249999999999996
 40
0.6249999999999996
 40
0.7499999999999997
 40
0.7499999999999997
 40
0.8749999999999998
 40
0.8749999999999998
 40
1.0
 40
1.0
 40
1.0
 40
1.0
 10
190.5376296007468
 20
455.9415707053206
 30
0.0
 10
191.3679235145426
 20
456.4173103905031
 30
0.0
 10
192.1563403864355
 20
456.9100536797307
 30
0.0
 10
193.2630644577275
 20
457.6167150062561
 30
0.0
 10
193.6192164607176
 20
457.8471705599384
 30
0.0
 10
194.3023821715293
 20
458.2974172195551
 30
0.0
 10
194.6295532374425
 20
458.5177889636533
 30
0.0
 10
195.2549262424172
 20
458.9607892233361
 30
0.0
 10
195.5532678328975
 20
459.1838136877272
 30
0.0
 10
196.1237634400186
 20
459.6511203678799
 30
0.0
 10
196.3959147437958
 20
459.8950541495659
 30
0.0
 10
196.9163806143208
 20
460.4122341458256
 30
0.0
 10
197.1646553606712
 20
460.6849053826692
 30
0.0
 10
197.6381820484318
 20
461.2462052119224
 30
0.0
 10
197.8634102005132
 20
461.5346029554413
 30
0.0
 10
198.0767912762667
 20
461.8172839116906
 30
0.0
  0
SPLINE
  5
9F
330
1F
100
AcDbEntity
  8
0
  6
Continuous
 62
     8
370
     0
100
AcDbSpline
210
0.0
220
0.0
230
1.0
 70
     8
 71
     3
 72
    16
 73
    12
 74
     0
 42
0.00000001
 43
0.00000001
 40
0.0
 40
0.0
 40
0.0
 40
0.0
 40
0.2500000000000009
 40
0.2500000000000009
 40
0.5000000000000018
 40
0.5000000000000018
 40
0.6250000000000019
 40
0.6250000000000019
 40
0.750000000000002
 40
0.750000000000002
 40
1.0
 40
1.0
 40
1.0
 40
1.0
 10
159.8205751339568
 20
502.2706130280505
 30
0.0
 10
159.2878742639857
 20
501.5648732910397
 30
0.0
 10
158.8314621160293
 20
500.9008252774952
 30
0.0
 10
158.0467293992399
 20
499.6069791358752
 30
0.0
 10
157.7166820707368
 20
498.9722068772405
 30
0.0
 10
157.2855132898989
 20
497.9665642200461
 30
0.0
 10
157.1527244288121
 20
497.6238940045357
 30
0.0
 10
156.9063450706089
 20
496.9242614304129
 30
0.0
 10
156.7925520644598
 20
496.5656860340163
 30
0.0
 10
156.4782136485192
 20
495.4860742676882
 30
0.0
 10
156.3048749636015
 20
494.7644056340946
 30
0.0
 10
156.1645634746667
 20
494.1192902722606
 30
0.0
  0
SPLINE
  5
A0
330
1F
100
AcDbEntity
  8
0
  6
Continuous
 62
     8
370
     0
100
AcDbSpline
210
0.0
220
0.0
230
1.0
 70
     8
 71
     3
 72
    38
 73
    34
 74
     0
 42
0.00000001
 43
0.00000001
 40
0.0
 40
0.0
 40
0.0
 40
0.0
 40
0.0625
 40
0.0625
 40
0.1250000000000001
 40
0.1250000000000001
 40
0.1875000000000001
 40
0.1875000000000001
 40
0.2500000000000002
 40
0.2500000000000002
 40
0.3750000000000002
 40
0.3750000000000002
 40
0.5000000000000003
 40
0.5000000000000003
 40
0.6250000000000003
 40
0.6250000000000003
 40
0.7500000000000003
 40
0.7500000000000003
 40
0.8125000000000003
 40
0.8125000000000003
 40
0.8750000000000003
 40
0.8750000000000003
 40
0.9062500000000003
 40
0.9062500000000003
 40
0.9375000000000003
 40
0.9375000000000003
 40
0.9687500000000003
 40
0.9687500000000003
 40
0.9843750000000002
 40
0.9843750000000002
 40
0.9921875000000001
 40
0.9921875000000001
 40
1.0
 40
1.0
 40
1.0
 40
1.0
 10
156.1645634746667
 20
494.1192902722606
 30
0.0
 10
156.0848593700909
 20
493.7528317181678
 30
0.0
 10
156.0229458653168
 20
493.4904595399943
 30
0.0
 10
155.914147497631
 20
493.019364010197
 30
0.0
 10
155.867351004522
 20
492.8116643355241
 30
0.0
 10
155.7829011525166
 20
492.4160132067362
 30
0.0
 10
155.7455847775264
 20
492.2304543008506
 30
0.0
 10
155.6770731830548
 20
491.8645936913879
 30
0.0
 10
155.6458811644583
 20
491.6845342211456
 30
0.0
 10
155.559933213573
 20
491.1481254014897
 30
0.0
 10
155.5126070950303
 20
490.7943319172313
 30
0.0
 10
155.4296809511827
 20
490.0652286297151
 30
0.0
 10
155.3944978965073
 20
489.6915811785385
 30
0.0
 10
155.3327283348644
 20
488.9102686889173
 30
0.0
 10
155.3061460332278
 20
488.5031652778786
 30
0.0
 10
155.2594892270053
 20
487.636830722853
 30
0.0
 10
155.2393383115926
 20
487.1810445776881
 30
0.0
 10
155.2129435952976
 20
486.4303508473794
 30
0.0
 10
155.2047901454031
 20
486.1683626322968
 30
0.0
 10
155.1896376652517
 20
485.6132794992748
 30
0.0
 10
155.1826327682963
 20
485.3219453768756
 30
0.0
 10
155.1729705150284
 20
484.839734873277
 30
0.0
 10
155.1698889678231
 20
484.6719393950739
 30
0.0
 10
155.1640105940261
 20
484.3141365778865
 30
0.0
 10
155.1612180570191
 20
484.123011023529
 30
0.0
 10
155.1559727443629
 20
483.6980858160547
 30
0.0
 10
155.1534704506533
 20
483.4712140212964
 30
0.0
 10
155.1502526198091
 20
483.0386118787534
 30
0.0
 10
155.149245567791
 20
482.8804650512041
 30
0.0
 10
155.1480427837278
 20
482.5995207324294
 30
0.0
 10
155.1476953409407
 20
482.4985729500094
 30
0.0
 10
155.1472244551319
 20
482.278433693458
 30
0.0
 10
155.147099663508
 20
482.1605713106698
 30
0.0
 10
155.1470998335267
 20
482.0433661882506
 30
0.0
  0
SPLINE
  5
A1
330
1F
100
AcDbEntity
  8
0
  6
Continuous
 62
     8
370
     0
100
AcDbSpline
210
0.0
220
0.0
230
1.0
 70
     8
 71
     3
 72
    26
 73
    22
 74
     0
 42
0.00000001
 43
0.00000001
 40
0.0
 40
0.0
 40
0.0
 40
0.0
 40
0.015625
 40
0.015625
 40
0.03125
 40
0.03125
 40
0.0625
 40
0.0625
 40
0.1250000000000007
 40
0.1250000000000007
 40
0.1875000000000013
 40
0.1875000000000013
 40
0.250000000000002
 40
0.250000000000002
 40
0.3750000000000019
 40
0.3750000000000019
 40
0.5000000000000019
 40
0.5000000000000019
 40
0.7500000000000009
 40
0.7500000000000009
 40
1.0
 40
1.0
 40
1.0
 40
1.0
 10
155.1470998335267
 20
482.0433661882506
 30
0.0
 10
155.1471000031479
 20
481.9272001368888
 30
0.0
 10
155.1472189585031
 20
481.8101555630478
 30
0.0
 10
155.1476853627333
 20
481.5921904588912
 30
0.0
 10
155.1480257216866
 20
481.4921139051307
 30
0.0
 10
155.1492079738435
 20
481.2131888984998
 30
0.0
 10
155.1502150808938
 20
481.0561214385153
 30
0.0
 10
155.1534041064399
 20
480.6267572036002
 30
0.0
 10
155.1558666307129
 20
480.3992954659579
 30
0.0
 10
155.1610542012531
 20
479.9759662671676
 30
0.0
 10
155.1638159796018
 20
479.7857217340601
 30
0.0
 10
155.169628984927
 20
479.4299252030958
 30
0.0
 10
155.1726759583239
 20
479.2632529570367
 30
0.0
 10
155.1822229258808
 20
478.7838340466154
 30
0.0
 10
155.1891380689182
 20
478.4944183325782
 30
0.0
 10
155.2040946600956
 20
477.9432940333365
 30
0.0
 10
155.2121403711932
 20
477.6828034251669
 30
0.0
 10
155.2381702408878
 20
476.9360725463638
 30
0.0
 10
155.2580177104323
 20
476.4828913454415
 30
0.0
 10
155.3039166736304
 20
475.6216637679855
 30
0.0
 10
155.3300462728925
 20
475.216620710411
 30
0.0
 10
155.3603596372321
 20
474.8280784410177
 30
0.0
  0
SPLINE
  5
A2
330
1F
100
AcDbEntity
  8
0
  6
Continuous
 62
     8
370
     0
100
AcDbSpline
210
0.0
220
0.0
230
1.0
 70
     8
 71
     3
 72
    19
 73
    15
 74
     0
 42
0.00000001
 43
0.00000001
 40
0.0
 40
0.0
 40
0.0
 40
0.0
 40
0.2500000000000003
 40
0.2500000000000003
 40
0.5000000000000004
 40
0.5000000000000004
 40
0.6250000000000007
 40
0.6250000000000007
 40
0.7500000000000007
 40
0.8125000000000007
 40
0.8125000000000007
 40
0.8750000000000006
 40
0.8750000000000006
 40
1.0
 40
1.0
 40
1.0
 40
1.0
 10
155.3603596372321
 20
474.8280784410177
 30
0.0
 10
155.3912140855713
 20
474.4326008145723
 30
0.0
 10
155.4263560620457
 20
474.0547841344917
 30
0.0
 10
155.5093762360897
 20
473.318125719405
 30
0.0
 10
155.5569096038392
 20
472.960459530105
 30
0.0
 10
155.6430410678417
 20
472.4197833754583
 30
0.0
 10
155.6742048599624
 20
472.2389544545131
 30
0.0
 10
155.7428027002712
 20
471.8713896808057
 30
0.0
 10
155.7992272970928
 20
471.5896521509768
 30
0.0
 10
155.8666385023092
 20
471.2814137529193
 30
0.0
 10
155.9144121391536
 20
471.0680985230629
 30
0.0
 10
155.9396732586615
 20
470.9579622636008
 30
0.0
 10
156.0217851195286
 20
470.6023050851143
 30
0.0
 10
156.0841217052917
 20
470.338251745764
 30
0.0
 10
156.1645234950867
 20
469.9685845613606
 30
0.0
  0
SPLINE
  5
A3
330
1F
100
AcDbEntity
  8
0
  6
Continuous
 62
     8
370
     0
100
AcDbSpline
210
0.0
220
0.0
230
1.0
 70
     8
 71
     3
 72
    16
 73
    12
 74
     0
 42
0.00000001
 43
0.00000001
 40
0.0
 40
0.0
 40
0.0
 40
0.0
 40
0.2499999999999997
 40
0.2499999999999997
 40
0.3749999999999999
 40
0.3749999999999999
 40
0.4999999999999999
 40
0.4999999999999999
 40
0.75
 40
0.75
 40
1.0
 40
1.0
 40
1.0
 40
1.0
 10
156.1645234950867
 20
469.9685845613606
 30
0.0
 10
156.3048274098035
 20
469.323502489491
 30
0.0
 10
156.4781605325298
 20
468.6018658747835
 30
0.0
 10
156.7924880384608
 20
467.5222536422509
 30
0.0
 10
156.9062814697372
 20
467.1636417246231
 30
0.0
 10
157.1526555170402
 20
466.463992421939
 30
0.0
 10
157.285438227039
 20
466.1213369440234
 30
0.0
 10
157.7166047877388
 20
465.1156329302999
 30
0.0
 10
158.0466616744314
 20
464.4807489230332
 30
0.0
 10
158.8313821089036
 20
463.1868860417352
 30
0.0
 10
159.2877709039171
 20
462.5229807543793
 30
0.0
 10
159.8204645732667
 20
461.8172839116906
 30
0.0
  0
SPLINE
  5
A4
330
1F
100
AcDbEntity
  8
0
  6
Continuous
 62
     8
370
     0
100
AcDbSpline
210
0.0
220
0.0
230
1.0
 70
     8
 71
     3
 72
    16
 73
    12
 74
     0
 42
0.00000001
 43
0.00000001
 40
0.0
 40
0.0
 40
0.0
 40
0.0
 40
0.2500000000000001
 40
0.2500000000000001
 40
0.5000000000000001
 40
0.5000000000000001
 40
0.6250000000000002
 40
0.6250000000000002
 40
0.7500000000000002
 40
0.7500000000000002
 40
1.0
 40
1.0
 40
1.0
 40
1.0
 10
198.0767912762667
 20
461.8172839116906
 30
0.0
 10
198.6094849456163
 20
462.5229807543793
 30
0.0
 10
199.0658737404595
 20
463.186886041376
 30
0.0
 10
199.850594175402
 20
464.4807489236657
 30
0.0
 10
200.1806510642761
 20
465.115632934157
 30
0.0
 10
200.6118176300808
 20
466.1213369621342
 30
0.0
 10
200.7446003416421
 20
466.4639924454376
 30
0.0
 10
200.9909743899957
 20
467.1636417548012
 30
0.0
 10
201.1047678203328
 20
467.5222536730349
 30
0.0
 10
201.4190953228372
 20
468.6018658990698
 30
0.0
 10
201.5924284420909
 20
469.323502500346
 30
0.0
 10
201.7327323544467
 20
469.9685845613606
 30
0.0
  0
SPLINE
  5
A5
330
1F
100
AcDbEntity
  8
0
  6
Continuous
 62
     8
370
     0
100
AcDbSpline
210
0.0
220
0.0
230
1.0
 70
     8
 71
     3
 72
    39
 73
    35
 74
     0
 42
0.00000001
 43
0.00000001
 40
0.0
 40
0.0
 40
0.0
 40
0.0
 40
0.0625000000000003
 40
0.0625000000000003
 40
0.0937500000000003
 40
0.0937500000000003
 40
0.1250000000000003
 40
0.1875000000000004
 40
0.1875000000000004
 40
0.2500000000000007
 40
0.2500000000000007
 40
0.3750000000000004
 40
0.3750000000000004
 40
0.5000000000000002
 40
0.5000000000000002
 40
0.6250000000000001
 40
0.6250000000000001
 40
0.75
 40
0.75
 40
0.8124999999999999
 40
0.8124999999999999
 40
0.8749999999999998
 40
0.8749999999999998
 40
0.9062499999999998
 40
0.9062499999999998
 40
0.9374999999999997
 40
0.9374999999999997
 40
0.9687499999999997
 40
0.9687499999999997
 40
0.9843749999999998
 40
0.9843749999999998
 40
0.9921874999999999
 40
0.9921874999999999
 40
1.0
 40
1.0
 40
1.0
 40
1.0
 10
201.7327323544467
 20
469.9685845613606
 30
0.0
 10
201.8124291547776
 20
470.3350103817235
 30
0.0
 10
201.8743613665347
 20
470.5975468407729
 30
0.0
 10
201.9559743894858
 20
470.9509740573139
 30
0.0
 10
201.9810911879166
 20
471.0604040702038
 30
0.0
 10
202.0285939266802
 20
471.2722581653308
 30
0.0
 10
202.0956578030812
 20
471.5784347682595
 30
0.0
 10
202.1518662042063
 20
471.8582733067715
 30
0.0
 10
202.2202107076087
 20
472.2230473984059
 30
0.0
 10
202.251261050164
 20
472.4023346687126
 30
0.0
 10
202.3371630875255
 20
472.9384572085373
 30
0.0
 10
202.3846210473844
 20
473.2927973606534
 30
0.0
 10
202.4675803043208
 20
474.0220182050762
 30
0.0
 10
202.5027492338995
 20
474.3957392014149
 30
0.0
 10
202.5645183576687
 20
475.1773230431018
 30
0.0
 10
202.591111782377
 20
475.5846637721868
 30
0.0
 10
202.6377650626395
 20
476.45082423816
 30
0.0
 10
202.6579080086226
 20
476.9066752911082
 30
0.0
 10
202.6843067808251
 20
477.6575814951502
 30
0.0
 10
202.6924618401571
 20
477.9195446365907
 30
0.0
 10
202.7076133198875
 20
478.4739641440991
 30
0.0
 10
202.7146149279052
 20
478.764983208266
 30
0.0
 10
202.7242768680875
 20
479.2470493158947
 30
0.0
 10
202.7273593508361
 20
479.4147349098932
 30
0.0
 10
202.7332398406911
 20
479.7723859316063
 30
0.0
 10
202.736033400674
 20
479.9635317679466
 30
0.0
 10
202.7412793560471
 20
480.3891019316811
 30
0.0
 10
202.743769499815
 20
480.6176367536647
 30
0.0
 10
202.7469963807733
 20
481.0492072249212
 30
0.0
 10
202.7480153499341
 20
481.2070702621307
 30
0.0
 10
202.7492146498592
 20
481.4877152893582
 30
0.0
 10
202.7495600770418
 20
481.5884476258056
 30
0.0
 10
202.7500347581944
 20
481.8080662269986
 30
0.0
 10
202.7501558448717
 20
481.9261633447443
 30
0.0
 10
202.7501560160067
 20
482.0433661882506
 30
0.0
  0
SPLINE
  5
A6
330
1F
100
AcDbEntity
  8
0
  6
Continuous
 62
     8
370
     0
100
AcDbSpline
210
0.0
220
0.0
230
1.0
 70
     8
 71
     3
 72
    30
 73
    26
 74
     0
 42
0.00000001
 43
0.00000001
 40
0.0
 40
0.0
 40
0.0
 40
0.0
 40
0.0078124999999999
 40
0.0078124999999999
 40
0.0156249999999998
 40
0.0156249999999998
 40
0.0312499999999998
 40
0.0312499999999998
 40
0.0624999999999999
 40
0.0624999999999999
 40
0.1250000000000002
 40
0.1250000000000002
 40
0.1875000000000006
 40
0.1875000000000006
 40
0.2500000000000009
 40
0.2500000000000009
 40
0.3750000000000006
 40
0.3750000000000006
 40
0.5000000000000002
 40
0.5000000000000002
 40
0.7499999999999996
 40
0.7499999999999996
 40
0.8749999999999998
 40
0.8749999999999998
 40
1.0
 40
1.0
 40
1.0
 40
1.0
 10
202.7501560160067
 20
482.0433661882506
 30
0.0
 10
202.7501561706223
 20
482.1499529282837
 30
0.0
 10
202.7500529801358
 20
482.257083232234
 30
0.0
 10
202.7496614343164
 20
482.4597206261726
 30
0.0
 10
202.7493679331349
 20
482.5539174733131
 30
0.0
 10
202.7483361325718
 20
482.816770101615
 30
0.0
 10
202.7474481007342
 20
482.9662794501727
 30
0.0
 10
202.7446167422677
 20
483.3759303333655
 30
0.0
 10
202.742400881356
 20
483.5927082217713
 30
0.0
 10
202.7354065171697
 20
484.1933590498917
 30
0.0
 10
202.730183109951
 20
484.5196627071155
 30
0.0
 10
202.7188381088673
 20
485.1255580501322
 30
0.0
 10
202.7127009171231
 20
485.4005833898411
 30
0.0
 10
202.6994845699715
 20
485.9214048498698
 30
0.0
 10
202.6924125183563
 20
486.1679647134756
 30
0.0
 10
202.6696598224982
 20
486.8752557608077
 30
0.0
 10
202.6524393727404
 20
487.3033392983529
 30
0.0
 10
202.6130812932778
 20
488.1183022168079
 30
0.0
 10
202.5909516575081
 20
488.5020050389111
 30
0.0
 10
202.5148233438185
 20
489.603760630159
 30
0.0
 10
202.4519097109501
 20
490.2732508262145
 30
0.0
 10
202.3218960697133
 20
491.2491232315162
 30
0.0
 10
202.272247451338
 20
491.5706026980494
 30
0.0
 10
202.1534690029897
 20
492.2309808403613
 30
0.0
 10
202.0852769261581
 20
492.5635987461054
 30
0.0
 10
201.9976309250173
 20
492.9532788177894
 30
0.0
  0
SPLINE
  5
A7
330
1F
100
AcDbEntity
  8
0
  6
Continuous
 62
     8
370
     0
100
AcDbSpline
210
0.0
220
0.0
230
1.0
 70
     8
 71
     3
 72
    10
 73
     6
 74
     0
 42
0.00000001
 43
0.00000001
 40
0.0
 40
0.0
 40
0.0
 40
0.0
 40
0.5
 40
0.5
 40
1.0
 40
1.0
 40
1.0
 40
1.0
 10
201.9976309250173
 20
492.9532788177894
 30
0.0
 10
201.9627050513325
 20
493.1085616234393
 30
0.0
 10
201.9248473001099
 20
493.2715988840378
 30
0.0
 10
201.838730013519
 20
493.643874362588
 30
0.0
 10
201.790459720933
 20
493.853691176381
 30
0.0
 10
201.7326923748667
 20
494.1192902722606
 30
0.0
  0
SPLINE
  5
A8
330
1F
100
AcDbEntity
  8
0
  6
Continuous
 62
     8
370
     0
100
AcDbSpline
210
0.0
220
0.0
230
1.0
 70
     8
 71
     3
 72
    16
 73
    12
 74
     0
 42
0.00000001
 43
0.00000001
 40
0.0
 40
0.0
 40
0.0
 40
0.0
 40
0.2500000000000011
 40
0.2500000000000011
 40
0.375000000000001
 40
0.375000000000001
 40
0.5000000000000008
 40
0.5000000000000008
 40
0.7500000000000004
 40
0.7500000000000004
 40
1.0
 40
1.0
 40
1.0
 40
1.0
 10
201.7326923748667
 20
494.1192902722606
 30
0.0
 10
201.592380885932
 20
494.7644056340946
 30
0.0
 10
201.4190422010143
 20
495.4860742676882
 30
0.0
 10
201.1047037830129
 20
496.5656860404915
 30
0.0
 10
200.9909107758171
 20
496.9242614404489
 30
0.0
 10
200.7445314139416
 20
497.6238940233916
 30
0.0
 10
200.6117425505313
 20
497.9665642436617
 30
0.0
 10
200.180573764354
 20
498.9722069080707
 30
0.0
 10
199.8505264374038
 20
499.6069791579302
 30
0.0
 10
199.0657937305015
 20
500.9008252811959
 30
0.0
 10
198.6093815855478
 20
501.5648732910397
 30
0.0
 10
198.0766807155767
 20
502.2706130280505
 30
0.0
  0
LINE
  5
A9
330
1F
100
AcDbEntity
  8
0
  6
Continuous
 62
     8
370
     0
100
AcDbLine
 10
154.8766279248
 20
526.4798345962
 30
0.0
 11
157.4384302343
 21
526.4798345962
 31
0.0
  0
LINE
  5
AA
330
1F
100
AcDbEntity
  8
0
  6
Continuous
 62
     8
370
     0
100
AcDbLine
 10
168.1121332923
 20
526.4798345962
 30
0.0
 11
203.0206279248
 21
526.4798345962
 31
0.0
  0
LINE
  5
AB
330
1F
100
AcDbEntity
  8
0
  6
Continuous
 62
     8
370
     0
100
AcDbLine
 10
154.9536739783
 20
526.6378687137
 30
0.0
 11
157.3809105195
 21
526.6378687137
 31
0.0
  0
LINE
  5
AC
330
1F
100
AcDbEntity
  8
0
  6
Continuous
 62
     8
370
     0
100
AcDbLine
 10
168.0546135775
 20
526.6378687137
 30
0.0
 11
202.9435818712
 21
526.6378687137
 31
0.0
  0
SPLINE
  5
AD
330
1F
100
AcDbEntity
  8
0
  6
Continuous
 62
     7
370
    15
100
AcDbSpline
210
0.0
220
0.0
230
1.0
 70
     8
 71
     3
 72
    14
 73
    10
 74
     0
 42
0.00000001
 43
0.00000001
 40
0.0
 40
0.0
 40
0.0
 40
0.0
 40
0.0723048531540654
 40
0.241994236440128
 40
0.4126609166433706
 40
0.5859337417272922
 40
0.765063636381045
 40
0.9040024013207613
 40
1.0
 40
1.0
 40
1.0
 40
1.0
 10
379.3020126871898
 20
563.715558134205
 30
0.0
 10
379.1255382414531
 20
563.7157192497342
 30
0.0
 10
378.5349029398882
 20
563.7162584808888
 30
0.0
 10
377.5628802763279
 20
563.5986313820779
 30
0.0
 10
376.4800078229268
 20
563.3714378660006
 30
0.0
 10
375.5704581838531
 20
563.0338032645035
 30
0.0
 10
374.9536142055742
 20
562.625286709909
 30
0.0
 10
374.5745128388242
 20
562.1603789659264
 30
0.0
 10
374.559202183815
 20
561.8263238068762
 30
0.0
 10
374.552946080705
 20
561.6898251712404
 30
0.0
  0
SPLINE
  5
AE
330
1F
100
AcDbEntity
  8
0
  6
Continuous
 62
     7
370
    15
100
AcDbSpline
210
0.0
220
0.0
230
1.0
 70
     8
 71
     3
 72
    15
 73
    11
 74
     0
 42
0.00000001
 43
0.00000001
 40
0.0
 40
0.0
 40
0.0
 40
0.0
 40
0.030810906695324
 40
0.1563711853885484
 40
0.2811565851735933
 40
0.4296262693988892
 40
0.5932021858972032
 40
0.7529523673360456
 40
0.9102658698057777
 40
1.0
 40
1.0
 40
1.0
 40
1.0
 10
384.5260633644201
 20
561.6217427097862
 30
0.0
 10
384.5371264180986
 20
561.6673137984629
 30
0.0
 10
384.5932735102573
 20
561.8985957021829
 30
0.0
 10
384.3867954467934
 20
562.3180826443732
 30
0.0
 10
383.9748780373501
 20
562.7480237289798
 30
0.0
 10
383.3116491586433
 20
563.120579309938
 30
0.0
 10
382.3833587709822
 20
563.4303921671427
 30
0.0
 10
381.2490906216987
 20
563.6386399069679
 30
0.0
 10
380.1910323521442
 20
563.7378216239132
 30
0.0
 10
379.5388883590884
 20
563.7214901504375
 30
0.0
 10
379.3020126871898
 20
563.715558134205
 30
0.0
  0
LINE
  5
AF
330
1F
100
AcDbEntity
  8
0
  6
Continuous
 62
     7
370
    15
100
AcDbLine
 10
384.5551593847
 20
504.6639668249
 30
0.0
 11
384.5551593847
 21
561.6861697441
 31
0.0
  0
LINE
  5
B0
330
1F
100
AcDbEntity
  8
0
  6
Continuous
 62
     7
370
    15
100
AcDbLine
 10
374.5251593847
 20
561.6861697441
 30
0.0
 11
374.5251593847
 21
504.6618997639
 31
0.0
  0
ARC
  5
B1
330
1F
100
AcDbEntity
  8
0
  6
Continuous
 62
     7
370
    15
100
AcDbCircle
 10
275.2281593831
 20
514.3410327082
 30
0.0
 40
0.2006000000000085
100
AcDbArc
 50
180.0
 51
270.0
  0
ARC
  5
B2
330
1F
100
AcDbEntity
  8
0
  6
Continuous
 62
     7
370
    15
100
AcDbCircle
 10
322.9709593831
 20
514.3410327082
 30
0.0
 40
0.2006000000000085
100
AcDbArc
 50
270.0
 51
0.0
  0
LINE
  5
B3
330
1F
100
AcDbEntity
  8
0
  6
Continuous
 62
     7
370
    15
100
AcDbLine
 10
275.0275593831
 20
526.4798345962
 30
0.0
 11
275.0275593831
 21
514.3410327082
 31
0.0
  0
LINE
  5
B4
330
1F
100
AcDbEntity
  8
0
  6
Continuous
 62
     7
370
    15
100
AcDbLine
 10
323.1715593831
 20
514.3410327082
 30
0.0
 11
323.1715593831
 21
526.4798345962
 31
0.0
  0
ARC
  5
B5
330
1F
100
AcDbEntity
  8
0
  6
Continuous
 62
     7
370
    15
100
AcDbCircle
 10
275.2281593831
 20
526.4798345962
 30
0.0
 40
0.200600000000105
100
AcDbArc
 50
128.0189425932
 51
180.0
  0
ARC
  5
B6
330
1F
100
AcDbEntity
  8
0
  6
Continuous
 62
     7
370
    15
100
AcDbCircle
 10
322.9709593831
 20
526.4798345962
 30
0.0
 40
0.200600000000105
100
AcDbArc
 50
0.0
 51
51.9810574068
  0
LINE
  5
B7
330
1F
100
AcDbEntity
  8
0
  6
Continuous
 62
     7
370
    15
100
AcDbLine
 10
275.0275593839
 20
513.9398323374
 30
0.0
 11
275.0275593839
 21
411.8339312082
 31
0.0
  0
ARC
  5
B8
330
1F
100
AcDbEntity
  8
0
  6
Continuous
 62
     7
370
    15
100
AcDbCircle
 10
275.228159407
 20
513.9398327082
 30
0.0
 40
0.2006000231939441
100
AcDbArc
 50
90.0000034106
 51
180.0001059127
  0
LINE
  5
B9
330
1F
100
AcDbEntity
  8
0
  6
Continuous
 62
     7
370
    15
100
AcDbLine
 10
323.0945133296
 20
526.6378687137
 30
0.0
 11
312.2746712165
 21
535.0970180022
 31
0.0
  0
LINE
  5
BA
330
1F
100
AcDbEntity
  8
0
  6
Continuous
 62
     7
370
    15
100
AcDbLine
 10
285.9244475498
 20
535.0970180022
 30
0.0
 11
275.1046054367
 21
526.6378687137
 31
0.0
  0
LINE
  5
BB
330
1F
100
AcDbEntity
  8
0
  6
Continuous
 62
     7
370
    15
100
AcDbLine
 10
352.0579609896
 20
505.1129300302
 30
0.0
 11
329.0891922339
 21
505.1129312121
 31
0.0
  0
ARC
  5
BC
330
1F
100
AcDbEntity
  8
0
  6
Continuous
 62
     7
370
    15
100
AcDbCircle
 10
351.7570593847
 20
459.3761312026
 30
0.0
 40
0.5015000107815331
100
AcDbArc
 50
306.8701287354
 51
0.0000149883
  0
LINE
  5
BD
330
1F
100
AcDbEntity
  8
0
  6
Continuous
 62
     7
370
    15
100
AcDbLine
 10
363.7174027129
 20
459.4764312084
 30
0.0
 11
388.5270393847
 21
459.4764312084
 31
0.0
  0
LINE
  5
BE
330
1F
100
AcDbEntity
  8
0
  6
Continuous
 62
     7
370
    15
100
AcDbLine
 10
388.5270393847
 20
504.6114312084
 30
0.0
 11
384.5704633497
 21
504.6114312084
 31
0.0
  0
LINE
  5
BF
330
1F
100
AcDbEntity
  8
0
  6
Continuous
 62
     7
370
    15
100
AcDbLine
 10
374.5034199484
 20
504.6114312084
 30
0.0
 11
371.8970594672
 21
504.6114312084
 31
0.0
  0
LINE
  5
C0
330
1F
100
AcDbEntity
  8
0
  6
Continuous
 62
     7
370
    15
100
AcDbLine
 10
364.7160593022
 20
504.6114312084
 30
0.0
 11
359.9816593847
 21
504.6114312084
 31
0.0
  0
ARC
  5
C1
330
1F
100
AcDbEntity
  8
0
  6
Continuous
 62
     7
370
    15
100
AcDbCircle
 10
388.5270393847
 20
504.0698112084
 30
0.0
 40
0.5416200000000231
100
AcDbArc
 50
0.0
 51
90.0
  0
ARC
  5
C2
330
1F
100
AcDbEntity
  8
0
  6
Continuous
 62
     7
370
    15
100
AcDbCircle
 10
388.5270393847
 20
460.0180512084
 30
0.0
 40
0.5416199999999662
100
AcDbArc
 50
270.0
 51
0.0
  0
LINE
  5
C3
330
1F
100
AcDbEntity
  8
0
  6
Continuous
 62
     7
370
    15
100
AcDbLine
 10
354.2645593847
 20
504.1099312063
 30
0.0
 11
352.2585593847
 21
504.1099312063
 31
0.0
  0
LINE
  5
C4
330
1F
100
AcDbEntity
  8
0
  6
Continuous
 62
     7
370
    15
100
AcDbLine
 10
352.2585593847
 20
459.9779312063
 30
0.0
 11
354.2645593847
 21
459.9779312063
 31
0.0
  0
ARC
  5
C5
330
1F
100
AcDbEntity
  8
0
  6
Continuous
 62
     7
370
    15
100
AcDbCircle
 10
354.3382456875
 20
482.0440542392
 30
0.0
 40
22.06600000000005
100
AcDbArc
 50
269.814578935
 51
292.4741498083
  0
ARC
  5
C6
330
1F
100
AcDbEntity
  8
0
  6
Continuous
 62
     7
370
    15
100
AcDbCircle
 10
354.3382456875
 20
482.0440542392
 30
0.0
 40
22.06600000000002
100
AcDbArc
 50
75.181877441
 51
90.1843276442
  0
SPLINE
  5
C7
330
1F
100
AcDbEntity
  8
0
  6
Continuous
 62
     7
370
    15
100
AcDbSpline
210
0.0
220
0.0
230
1.0
 70
     8
 71
     3
 72
    10
 73
     6
 74
     0
 42
0.00000001
 43
0.00000001
 40
0.0
 40
0.0
 40
0.0
 40
0.0
 40
0.4168847558160357
 40
0.8417728272982111
 40
1.0
 40
1.0
 40
1.0
 40
1.0
 10
374.5129002982976
 20
504.6605017935344
 30
0.0
 10
374.5031796945696
 20
504.5371415559058
 30
0.0
 10
374.4835518718465
 20
504.2880528220147
 30
0.0
 10
374.2730915123961
 20
504.0848895203035
 30
0.0
 10
374.3019983156157
 20
504.1033272553116
 30
0.0
 10
374.3098421197195
 20
504.1083302983815
 30
0.0
  0
SPLINE
  5
C8
330
1F
100
AcDbEntity
  8
0
  6
Continuous
 62
     7
370
    15
100
AcDbSpline
210
0.0
220
0.0
230
1.0
 70
     8
 71
     3
 72
    10
 73
     6
 74
     0
 42
0.00000001
 43
0.00000001
 40
0.0
 40
0.0
 40
0.0
 40
0.0
 40
0.0823271501770157
 40
0.5401393654270887
 40
1.0
 40
1.0
 40
1.0
 40
1.0
 10
384.7824907420162
 20
504.0991981033205
 30
0.0
 10
384.7886644422705
 20
504.0958343314597
 30
0.0
 10
384.8291694097152
 20
504.0737649947408
 30
0.0
 10
384.6114497652914
 20
504.2469804041454
 30
0.0
 10
384.5753720291952
 20
504.5255369565322
 30
0.0
 10
384.5572928949826
 20
504.6651261281742
 30
0.0
  0
ARC
  5
C9
330
1F
100
AcDbEntity
  8
0
  6
Continuous
 62
     7
370
    15
100
AcDbCircle
 10
286.2333324159
 20
534.7019327082
 30
0.0
 40
0.5015000000000782
100
AcDbArc
 50
90.0
 51
128.0189425932
  0
ARC
  5
CA
330
1F
100
AcDbEntity
  8
0
  6
Continuous
 62
     7
370
    15
100
AcDbCircle
 10
311.9657863504
 20
534.7019327082
 30
0.0
 40
0.5015000000000782
100
AcDbArc
 50
51.9810574068
 51
90.0
  0
LINE
  5
CB
330
1F
100
AcDbEntity
  8
0
  6
Continuous
 62
     7
370
    15
100
AcDbLine
 10
311.0854093831
 20
535.2034327082
 30
0.0
 11
311.0854093831
 21
535.4040327082
 31
0.0
  0
LINE
  5
CC
330
1F
100
AcDbEntity
  8
0
  6
Continuous
 62
     7
370
    15
100
AcDbLine
 10
287.1137093831
 20
535.4040327082
 30
0.0
 11
287.1137093831
 21
535.2034327082
 31
0.0
  0
LINE
  5
CD
330
1F
100
AcDbEntity
  8
0
  6
Continuous
 62
     7
370
    15
100
AcDbLine
 10
372.3185593847
 20
503.2482312249
 30
0.0
 11
372.3185593847
 21
503.6274491074
 31
0.0
  0
LINE
  5
CE
330
1F
100
AcDbEntity
  8
0
  6
Continuous
 62
     7
370
    15
100
AcDbLine
 10
364.2945593847
 20
503.6274491074
 30
0.0
 11
364.2945593847
 21
503.2482312249
 31
0.0
  0
LINE
  5
CF
330
1F
100
AcDbEntity
  8
0
  6
Continuous
 62
     7
370
    15
100
AcDbLine
 10
372.2831993672
 20
503.8092283734
 30
0.0
 11
372.0658945164
 21
504.365317905
 31
0.0
  0
LINE
  5
D0
330
1F
100
AcDbEntity
  8
0
  6
Continuous
 62
     7
370
    15
100
AcDbLine
 10
364.547224253
 20
504.365317905
 30
0.0
 11
364.3299194023
 21
503.8092283734
 31
0.0
  0
SPLINE
  5
D1
330
1F
100
AcDbEntity
  8
0
  6
Continuous
 62
     7
370
    15
100
AcDbSpline
210
0.0
220
0.0
230
1.0
 70
     8
 71
     3
 72
    10
 73
     6
 74
     0
 42
0.00000001
 43
0.00000001
 40
0.0
 40
0.0
 40
0.0
 40
0.0
 40
0.0460889617756007
 40
0.8903793746079486
 40
1.0
 40
1.0
 40
1.0
 40
1.0
 10
367.8214602824908
 20
503.1096623245137
 30
0.0
 10
367.8025344083277
 20
503.1101393936726
 30
0.0
 10
367.4369108977942
 20
503.1193557553129
 30
0.0
 10
367.014019062612
 20
503.1576796840242
 30
0.0
 10
366.6955636881103
 20
503.2342534342239
 30
0.0
 10
366.658967741619
 20
503.243053062333
 30
0.0
  0
LINE
  5
D2
330
1F
100
AcDbEntity
  8
0
  6
Continuous
 62
     7
370
    15
100
AcDbLine
 10
368.3065593847
 20
503.0968707223
 30
0.0
 11
367.8214602825
 21
503.1096623245
 31
0.0
  0
ARC
  5
D3
330
1F
100
AcDbEntity
  8
0
  6
Continuous
 62
     7
370
    15
100
AcDbCircle
 10
339.2195593831
 20
664.5899312082
 30
0.0
 40
29.08699999999999
100
AcDbArc
 50
90.0
 51
180.0
  0
ARC
  5
D4
330
1F
100
AcDbEntity
  8
0
  6
Continuous
 62
     7
370
    15
100
AcDbCircle
 10
339.2195593831
 20
664.5899312082
 30
0.0
 40
51.15300000000002
100
AcDbArc
 50
90.0
 51
180.0
  0
LINE
  5
D5
330
1F
100
AcDbEntity
  8
0
  6
Continuous
 62
     7
370
    15
100
AcDbLine
 10
288.0665593831
 20
664.5899312082
 30
0.0
 11
288.0665593831
 21
535.4040327082
 31
0.0
  0
LINE
  5
D6
330
1F
100
AcDbEntity
  8
0
  6
Continuous
 62
     7
370
    15
100
AcDbLine
 10
310.1325593831
 20
535.4040327082
 30
0.0
 11
310.1325593831
 21
664.5899312082
 31
0.0
  0
LINE
  5
D7
330
1F
100
AcDbEntity
  8
0
  6
Continuous
 62
     7
370
    15
100
AcDbLine
 10
519.2580593831
 20
693.6769312082
 30
0.0
 11
524.7745593831
 21
693.6769312082
 31
0.0
  0
LINE
  5
D8
330
1F
100
AcDbEntity
  8
0
  6
Continuous
 62
     7
370
    15
100
AcDbLine
 10
339.2195593831
 20
693.6769312082
 30
0.0
 11
500.2237469038
 21
693.6769312082
 31
0.0
  0
LINE
  5
D9
330
1F
100
AcDbEntity
  8
0
  6
Continuous
 62
     7
370
    15
100
AcDbLine
 10
524.7745593831
 20
715.7429312082
 30
0.0
 11
339.2195593831
 21
715.7429312082
 31
0.0
  0
LINE
  5
DA
330
1F
100
AcDbEntity
  8
0
  6
Continuous
 62
     7
370
    15
100
AcDbLine
 10
524.7745593831
 20
693.6769312082
 30
0.0
 11
524.9751593831
 21
693.6769312082
 31
0.0
  0
LINE
  5
DB
330
1F
100
AcDbEntity
  8
0
  6
Continuous
 62
     7
370
    15
100
AcDbLine
 10
524.9751593831
 20
715.7429312082
 30
0.0
 11
524.7745593831
 21
715.7429312082
 31
0.0
  0
ARC
  5
DC
330
1F
100
AcDbEntity
  8
0
  6
Continuous
 62
     7
370
    15
100
AcDbCircle
 10
524.9751593831
 20
694.6799312082
 30
0.0
 40
1.002999999999929
100
AcDbArc
 50
270.0
 51
0.0
  0
ARC
  5
DD
330
1F
100
AcDbEntity
  8
0
  6
Continuous
 62
     7
370
    15
100
AcDbCircle
 10
524.9751593831
 20
714.7399312082
 30
0.0
 40
1.003000000000156
100
AcDbArc
 50
0.0
 51
90.0
  0
LINE
  5
DE
330
1F
100
AcDbEntity
  8
0
  6
Continuous
 62
     7
370
    15
100
AcDbLine
 10
500.2010593831
 20
693.6965188721
 30
0.0
 11
500.2010593831
 21
690.5676312095
 31
0.0
  0
LINE
  5
DF
330
1F
100
AcDbEntity
  8
0
  6
Continuous
 62
     7
370
    15
100
AcDbLine
 10
519.2580593831
 20
690.5676312095
 30
0.0
 11
519.2580593831
 21
693.6769312082
 31
0.0
  0
LINE
  5
E0
330
1F
100
AcDbEntity
  8
0
  6
Continuous
 62
     7
370
    15
100
AcDbLine
 10
384.5551593847
 20
561.6861697441
 30
0.0
 11
384.5538726481
 21
561.647317231
 31
0.0
  0
LWPOLYLINE
  5
E1
330
1F
100
AcDbEntity
  8
0
  6
Continuous
 62
     7
370
    15
100
AcDbPolyline
 90
       27
 70
   128
 43
0.0
 10
275.2281594001
 20
514.1404327082
 10
275.273435592
 20
514.140432685
 10
275.6346153417
 20
514.1404326853
 10
276.3514997242
 20
514.140432686
 10
277.413221503
 20
514.1404326871
 10
278.8036860582
 20
514.1404326884
 10
280.5018153646
 20
514.1404326901
 10
282.4818675128
 20
514.140432692
 10
284.7138269306
 20
514.1404326942
 10
287.1638593884
 20
514.1404326966
 10
289.7948248915
 20
514.1404326992
 10
292.5668406848
 20
514.1404327019
 10
295.4378858345
 20
514.1404327047
 10
298.3644382226
 20
514.1404327075
 10
301.3021342983
 20
514.1404327104
 10
304.2064415833
 20
514.1404327132
 10
307.0333337399
 20
514.140432716
 10
309.7399579645
 20
514.1404327186
 10
312.2852845929
 20
514.1404327211
 10
314.6307290678
 20
514.1404327234
 10
316.7407368419
 20
514.1404327255
 10
318.5833223482
 20
514.1404327272
 10
320.1305538686
 20
514.1404327288
 10
321.3589769503
 20
514.14043273
 10
322.2499699518
 20
514.1404327308
 10
322.7900263273
 20
514.1404327314
 10
322.9709593726
 20
514.1404327315
  0
LINE
  5
E2
330
1F
100
AcDbEntity
  8
0
  6
Continuous
 62
     7
370
    15
100
AcDbLine
 10
323.1715593836
 20
453.0572308798
 30
0.0
 11
323.1715593836
 21
411.8339312082
 31
0.0
  0
LINE
  5
E3
330
1F
100
AcDbEntity
  8
0
  6
Continuous
 62
     7
370
    15
100
AcDbLine
 10
323.1715593842
 20
513.9398325228
 30
0.0
 11
323.1715593836
 21
511.0305639388
 31
0.0
  0
LINE
  5
E4
330
1F
100
AcDbEntity
  8
0
  6
Continuous
 62
     7
370
    15
100
AcDbLine
 10
275.0275593839
 20
411.8339312082
 30
0.0
 11
323.1715593836
 21
411.8339312082
 31
0.0
  0
ARC
  5
E5
330
1F
100
AcDbEntity
  8
0
  6
Continuous
 62
     7
370
    15
100
AcDbCircle
 10
322.9709593605
 20
513.9398327082
 30
0.0
 40
0.2006000236563925
100
AcDbArc
 50
359.9999470437
 51
89.9999965369
  0
LINE
  5
E6
330
1F
100
AcDbEntity
  8
0
  6
Continuous
 62
     7
370
    15
100
AcDbLine
 10
352.0579610094
 20
458.974932366
 30
0.0
 11
329.0892594309
 21
458.9749312091
 31
0.0
  0
LINE
  5
E7
330
1F
100
AcDbEntity
  8
0
  6
Continuous
 62
     7
370
    15
100
AcDbLine
 10
352.2585593843
 20
504.7117310771
 30
0.0
 11
352.2585593843
 21
459.3761313338
 31
0.0
  0
ARC
  5
E8
330
1F
100
AcDbEntity
  8
0
  6
Continuous
 62
     7
370
    15
100
AcDbCircle
 10
351.7570593847
 20
504.7117312082
 30
0.0
 40
0.5014999995768962
100
AcDbArc
 50
359.9999850117
 51
53.1298716798
  0
ELLIPSE
  5
E9
330
1F
100
AcDbEntity
  8
0
  6
Continuous
 62
     7
370
    15
100
AcDbEllipse
 10
359.9781222655
 20
482.0439312084
 30
0.0
 11
-3.752383812888411
 21
22.56642540476082
 31
0.0
210
0.0
220
0.0
230
0.9999999999999999
 40
0.0586903576
 41
1.91099224262122
 42
3.131833830351855
  0
SPLINE
  5
EA
330
1F
100
AcDbEntity
  8
0
  6
Continuous
 62
     7
370
    15
100
AcDbSpline
210
0.0
220
0.0
230
1.0
 70
     8
 71
     3
 72
    17
 73
    13
 74
     0
 42
0.00000001
 43
0.00000001
 40
0.0
 40
0.0
 40
0.0
 40
0.0
 40
0.0666534487276539
 40
0.1858971672913803
 40
0.3012905416206583
 40
0.4199569893244832
 40
0.536701367550543
 40
0.6567626973038957
 40
0.7746393441752594
 40
0.8959798034521151
 40
0.9478449200435326
 40
1.0
 40
1.0
 40
1.0
 40
1.0
 10
364.3078308464534
 20
503.2482874523885
 30
0.0
 10
364.3061424828264
 20
503.2052346667131
 30
0.0
 10
364.3014336189698
 20
503.0851599961023
 30
0.0
 10
364.416921461269
 20
502.8726852550479
 30
0.0
 10
364.6410008109123
 20
502.6207137936376
 30
0.0
 10
364.9688138329266
 20
502.3733786547181
 30
0.0
 10
365.3922235843929
 20
502.1376541028024
 30
0.0
 10
365.8967202601861
 20
501.9279432328894
 30
0.0
 10
366.4763564866356
 20
501.7521913327432
 30
0.0
 10
366.9899552685351
 20
501.647920821085
 30
0.0
 10
367.402483395589
 20
501.5906786604787
 30
0.0
 10
367.596914215882
 20
501.5732075700126
 30
0.0
 10
367.6944006205892
 20
501.5644476738537
 30
0.0
  0
SPLINE
  5
EB
330
1F
100
AcDbEntity
  8
0
  6
Continuous
 62
     7
370
    15
100
AcDbSpline
210
0.0
220
0.0
230
1.0
 70
     8
 71
     3
 72
    16
 73
    12
 74
     0
 42
0.00000001
 43
0.00000001
 40
0.0
 40
0.0
 40
0.0
 40
0.0
 40
0.1166880426969996
 40
0.2367984388880211
 40
0.3534743099166331
 40
0.4734730651802164
 40
0.5912027350599707
 40
0.7123550504642859
 40
0.8298250790978478
 40
0.9507955515631321
 40
1.0
 40
1.0
 40
1.0
 40
1.0
 10
368.9187181488505
 20
501.5644476738537
 30
0.0
 10
369.1360600924948
 20
501.5870113310747
 30
0.0
 10
369.5771184200692
 20
501.632800416932
 30
0.0
 10
370.194599658076
 20
501.7681163866383
 30
0.0
 10
370.7648316264185
 20
501.9453671572606
 30
0.0
 10
371.2622508578771
 20
502.1577962156612
 30
0.0
 10
371.6815889978675
 20
502.3974845185366
 30
0.0
 10
372.0045488771844
 20
502.6497618816291
 30
0.0
 10
372.2179673340282
 20
502.9057637670158
 30
0.0
 10
372.3192322442954
 20
503.1080118281994
 30
0.0
 10
372.3084154852584
 20
503.2167378962066
 30
0.0
 10
372.3052879229862
 20
503.2481749973884
 30
0.0
  0
LINE
  5
EC
330
1F
100
AcDbEntity
  8
0
  6
Continuous
 62
     7
370
    15
100
AcDbLine
 10
359.9816593847
 20
504.6114312084
 30
0.0
 11
359.9816593847
 21
474.3065444392
 31
0.0
  0
LINE
  5
ED
330
1F
100
AcDbEntity
  8
0
  6
Continuous
 62
     7
370
    15
100
AcDbLine
 10
389.0686593847
 20
504.0698112084
 30
0.0
 11
389.0686593847
 21
460.0180512084
 31
0.0
  0
LINE
  5
EE
330
1F
100
AcDbEntity
  8
0
  6
Continuous
 62
     7
370
    15
100
AcDbLine
 10
299.0995593831
 20
535.2034327082
 30
0.0
 11
311.9657863504
 21
535.2034327082
 31
0.0
  0
LINE
  5
EF
330
1F
100
AcDbEntity
  8
0
  6
Continuous
 62
     7
370
    15
100
AcDbLine
 10
286.2333324159
 20
535.2034327082
 30
0.0
 11
299.0995593831
 21
535.2034327082
 31
0.0
  0
LINE
  5
F0
330
1F
100
AcDbEntity
  8
0
  6
Continuous
 62
     7
370
    15
100
AcDbLine
 10
311.0854093831
 20
535.4040327082
 30
0.0
 11
287.1137093831
 21
535.4040327082
 31
0.0
  0
ARC
  5
F1
330
1F
100
AcDbEntity
  8
0
  6
Continuous
 62
     7
370
    15
100
AcDbCircle
 10
368.3065593847
 20
513.2079193247
 30
0.0
 40
11.65955275458908
100
AcDbArc
 50
266.9904293754
 51
273.0095706246
  0
LWPOLYLINE
  5
F2
330
1F
100
AcDbEntity
  8
0
  6
Continuous
 62
     7
370
    15
100
AcDbPolyline
 90
       14
 70
   128
 43
0.0
 10
372.2831993672
 20
503.8092283734
 10
372.307341019
 20
503.7299926071
 10
372.2179701684
 20
503.3221092608
 10
371.7810533047
 20
502.9413566999
 10
371.0354124087
 20
502.6215664603
 10
370.0473009461
 20
502.3911533081
 10
368.9045169566
 20
502.270590463
 10
367.7086018128
 20
502.270590463
 10
366.5658178234
 20
502.3911533081
 10
365.5777063608
 20
502.6215664603
 10
364.8320654647
 20
502.9413566999
 10
364.395148601
 20
503.3221092608
 10
364.3057777504
 20
503.7299926071
 10
364.3299194023
 20
503.8092283734
  0
LWPOLYLINE
  5
F3
330
1F
100
AcDbEntity
  8
0
  6
Continuous
 62
     7
370
    15
100
AcDbPolyline
 90
        5
 70
   128
 43
0.0
 10
365.3559615519
 20
503.3784140765
 10
365.2381497519
 20
503.4309962317
 10
364.6994275244
 20
503.7926147802
 10
364.5137964957
 20
504.1934720292
 10
364.547224253
 20
504.365317905
  0
LWPOLYLINE
  5
F4
330
1F
100
AcDbEntity
  8
0
  6
Continuous
 62
     7
370
    15
100
AcDbPolyline
 90
        5
 70
   128
 43
0.0
 10
372.0658945164
 20
504.365317905
 10
372.0993222737
 20
504.1934720292
 10
371.913691245
 20
503.7926147802
 10
371.3749690175
 20
503.4309962317
 10
371.0299039769
 20
503.290613699
  0
LWPOLYLINE
  5
F5
330
1F
100
AcDbEntity
  8
0
  6
Continuous
 62
     7
370
    15
100
AcDbPolyline
 90
       21
 70
   128
 43
0.0
 10
368.3065593847
 20
503.0915976245
 10
369.4129611349
 20
503.1515321475
 10
370.4110605731
 20
503.3254689077
 10
371.203156772
 20
503.5963817632
 10
371.7117138368
 20
503.937751876
 10
371.8869506588
 20
504.3161635612
 10
371.7117138368
 20
504.6945752464
 10
371.203156772
 20
505.0359453593
 10
370.4110605731
 20
505.3068582148
 10
369.4129611349
 20
505.480794975
 10
368.3065593847
 20
505.5407294979
 10
367.2001576345
 20
505.480794975
 10
366.2020581964
 20
505.3068582148
 10
365.4099619975
 20
505.0359453593
 10
364.9014049326
 20
504.6945752464
 10
364.7261681106
 20
504.3161635612
 10
364.9014049326
 20
503.937751876
 10
365.4099619975
 20
503.5963817632
 10
366.2020581964
 20
503.3254689077
 10
367.2001576345
 20
503.1515321475
 10
368.3065593847
 20
503.0915976245
  0
ARC
  5
F6
330
1F
100
AcDbEntity
  8
0
  6
Continuous
 62
     7
370
    15
100
AcDbCircle
 10
329.0892593847
 20
453.0572312082
 30
0.0
 40
5.917699999432102
100
AcDbArc
 50
90.0
 51
180.0
  0
ARC
  5
F7
330
1F
100
AcDbEntity
  8
0
  6
Continuous
 62
     7
370
    15
100
AcDbCircle
 10
329.0891922339
 20
511.0305640574
 30
0.0
 40
5.917632848582059
100
AcDbArc
 50
180.0
 51
270.0
  0
SPLINE
  5
F8
330
1F
100
AcDbEntity
  8
0
  6
Continuous
 62
     7
370
    15
100
AcDbSpline
210
0.0
220
0.0
230
1.0
 70
     8
 71
     3
 72
    42
 73
    38
 74
     0
 42
0.00000001
 43
0.00000001
 40
0.0
 40
0.0
 40
0.0
 40
0.0
 40
0.0203975738893531
 40
0.0620140255121563
 40
0.0832779778930325
 40
0.1036714305487206
 40
0.1450681108139151
 40
0.1660845904385923
 40
0.2225731685848991
 40
0.251558535716188
 40
0.2807245000706972
 40
0.3385203154874225
 40
0.3680413646847291
 40
0.3977813830716263
 40
0.4129012708082651
 40
0.4434318600475623
 40
0.4589001544860524
 40
0.4717426464384985
 40
0.4978408221536396
 40
0.5111436987908712
 40
0.5500126560928684
 40
0.5632558588818037
 40
0.5846228962421554
 40
0.6280821886984561
 40
0.650132392135198
 40
0.6822041753780153
 40
0.7144996014416177
 40
0.7474911772479403
 40
0.7807397148195384
 40
0.8050337016655732
 40
0.8543094795962918
 40
0.8793847556894744
 40
0.8994006218985354
 40
0.9400559733825259
 40
0.9607653903580797
 40
0.9807862985816813
 40
1.0
 40
1.0
 40
1.0
 40
1.0
 10
519.258059383137
 20
693.67693120824
 30
0.0
 10
519.2534907235984
 20
693.6808766762845
 30
0.0
 10
519.2396007889066
 20
693.6928719438239
 30
0.0
 10
519.109560976669
 20
693.805111773379
 30
0.0
 10
518.8978950118515
 20
693.9865817236271
 30
0.0
 10
518.6314280978303
 20
694.2138096668995
 30
0.0
 10
518.2905251070711
 20
694.5018644992779
 30
0.0
 10
517.7099857493887
 20
694.9844920948831
 30
0.0
 10
517.0952621425317
 20
695.484814878772
 30
0.0
 10
516.3460482934323
 20
696.0690870191016
 30
0.0
 10
515.5314024621401
 20
696.6811724778698
 30
0.0
 10
514.6312788366066
 20
697.3123110862796
 30
0.0
 10
513.6455252033253
 20
697.9174489476367
 30
0.0
 10
512.9800242358128
 20
698.2758249472572
 30
0.0
 10
512.2738637748046
 20
698.6032607912277
 30
0.0
 10
511.6727908599519
 20
698.8314856734266
 30
0.0
 10
511.0690977588446
 20
698.9943754333862
 30
0.0
 10
510.4986862381971
 20
699.1065657737007
 30
0.0
 10
509.9368124961185
 20
699.1567365802946
 30
0.0
 10
509.0952736611915
 20
699.1348545542901
 30
0.0
 10
508.3986362305683
 20
699.0094808774716
 30
0.0
 10
507.6560966171863
 20
698.7809287741865
 30
0.0
 10
506.8924506532011
 20
698.4862905852347
 30
0.0
 10
506.09773897271
 20
698.0798496032447
 30
0.0
 10
505.2633129814566
 20
697.583567488202
 30
0.0
 10
504.5629575900321
 20
697.1252804255746
 30
0.0
 10
503.8237898566871
 20
696.6023745980232
 30
0.0
 10
503.1267910728178
 20
696.0804085265697
 30
0.0
 10
502.53653968822
 20
695.6193257513352
 30
0.0
 10
501.8972378255001
 20
695.1062433593403
 30
0.0
 10
501.3788757723774
 20
694.677866354402
 30
0.0
 10
500.9702942582758
 20
694.3343537188675
 30
0.0
 10
500.6523353804793
 20
694.0646931011257
 30
0.0
 10
500.4215787147256
 20
693.8669416968269
 30
0.0
 10
500.2806663621043
 20
693.7456416587048
 30
0.0
 10
500.206604184335
 20
693.6817240930577
 30
0.0
 10
500.2181115811367
 20
693.6916554428717
 30
0.0
 10
500.2237469038343
 20
693.6965189547492
 30
0.0
  0
LINE
  5
F9
330
1F
100
AcDbEntity
  8
0
  6
Continuous
 62
     7
370
    15
100
AcDbLine
 10
525.9781593831
 20
704.7099312082
 30
0.0
 11
525.9781593831
 21
714.7399312082
 31
0.0
  0
LINE
  5
FA
330
1F
100
AcDbEntity
  8
0
  6
Continuous
 62
     7
370
    15
100
AcDbLine
 10
525.9781593831
 20
694.6799312082
 30
0.0
 11
525.9781593831
 21
704.7099312082
 31
0.0
  0
LINE
  5
FB
330
1F
100
AcDbEntity
  8
0
  6
Continuous
 62
     7
370
    15
100
AcDbLine
 10
500.2010593831
 20
690.5676312095
 30
0.0
 11
519.2580593831
 21
690.5676312095
 31
0.0
  0
LWPOLYLINE
  5
FC
330
1F
100
AcDbEntity
  8
0
  6
Continuous
 62
     8
370
     0
100
AcDbPolyline
 90
       23
 70
   128
 43
0.0
 10
379.5401593847
 20
560.6137176766
 10
380.81175928
 20
560.6762486939
 10
381.9803417143
 20
560.8587758547
 10
382.9512350886
 20
561.146511894
 10
383.6457833958
 20
561.5161461491
 10
384.0077184626
 20
561.9377330509
 10
384.0077184626
 20
562.377118136
 10
383.6457833958
 20
562.7987050378
 10
382.9512350886
 20
563.1683392929
 10
381.9803417143
 20
563.4560753322
 10
380.81175928
 20
563.638602493
 10
379.5401593847
 20
563.7011335104
 10
378.2685594894
 20
563.638602493
 10
377.0999770551
 20
563.4560753322
 10
376.1290836809
 20
563.1683392929
 10
375.4345353737
 20
562.7987050378
 10
375.0726003068
 20
562.377118136
 10
375.0726003068
 20
561.9377330509
 10
375.4345353737
 20
561.5161461491
 10
376.1290836809
 20
561.146511894
 10
377.0999770551
 20
560.8587758547
 10
378.2685594894
 20
560.6762486939
 10
379.5401593847
 20
560.6137176766
  0
LWPOLYLINE
  5
FD
330
1F
100
AcDbEntity
  8
0
  6
Continuous
 62
     8
370
     0
100
AcDbPolyline
 90
        7
 70
   128
 43
0.0
 10
379.5401593847
 20
559.9709387254
 10
378.1871285774
 20
560.0345441444
 10
376.9344458753
 20
560.2206430784
 10
375.8750170239
 20
560.5154334209
 10
375.0874150144
 20
560.8970519208
 10
374.630052685
 20
561.3371956796
 10
374.5251642765
 20
561.6885654666
  0
LWPOLYLINE
  5
FE
330
1F
100
AcDbEntity
  8
0
  6
Continuous
 62
     8
370
     0
100
AcDbPolyline
 90
        7
 70
   128
 43
0.0
 10
384.5538726481
 20
561.647317231
 10
384.4502660844
 20
561.3371956796
 10
383.992903755
 20
560.8970519208
 10
383.2053017456
 20
560.5154334209
 10
382.1458728941
 20
560.2206430784
 10
380.8931901921
 20
560.0345441444
 10
379.5401593847
 20
559.9709387254
  0
SPLINE
  5
FF
330
1F
100
AcDbEntity
  8
0
  6
Continuous
 62
     8
370
     0
100
AcDbSpline
210
0.0
220
0.0
230
1.0
 70
     8
 71
     3
 72
    42
 73
    38
 74
     0
 42
0.00000001
 43
0.00000001
 40
0.0
 40
0.0
 40
0.0
 40
0.0
 40
0.0060544076340048
 40
0.0326915838405079
 40
0.0591715035088693
 40
0.0858590486760289
 40
0.1131917424962304
 40
0.1407418724919233
 40
0.1673745318259797
 40
0.1941966222532603
 40
0.2216038948900787
 40
0.2492091199679701
 40
0.2752760036359829
 40
0.3282398955522681
 40
0.3552017194186929
 40
0.3811654196104845
 40
0.4340018730166038
 40
0.4609533709620033
 40
0.4826902016917392
 40
0.5267340382733051
 40
0.549079368097468
 40
0.5756803568653927
 40
0.6024900181150264
 40
0.6299442916633977
 40
0.6576145115645627
 40
0.6841434709818195
 40
0.7108558790330676
 40
0.7381368443711059
 40
0.7656114852194862
 40
0.7913274799339616
 40
0.8435655457673474
 40
0.8701523507089147
 40
0.8955245451845981
 40
0.9471287824562573
 40
0.9734323794642404
 40
0.9994332248060653
 40
1.0
 40
1.0
 40
1.0
 40
1.0
 10
374.5321788127521
 20
504.6617471731641
 30
0.0
 10
374.5297910651533
 20
504.6516042764586
 30
0.0
 10
374.5168981026155
 20
504.5968363490117
 30
0.0
 10
374.5499782520287
 20
504.4787576603156
 30
0.0
 10
374.6061960869899
 20
504.317464529123
 30
0.0
 10
374.7042488956778
 20
504.1441074211318
 30
0.0
 10
374.8368944342952
 20
503.9623363356507
 30
0.0
 10
375.0041891029072
 20
503.7760526281673
 30
0.0
 10
375.2024251676739
 20
503.5890504636956
 30
0.0
 10
375.4304303951596
 20
503.4028817019114
 30
0.0
 10
375.6903493991665
 20
503.2175724167999
 30
0.0
 10
375.9754388613835
 20
503.0397281554602
 30
0.0
 10
376.3830836731136
 20
502.8167647064847
 30
0.0
 10
376.833878701679
 20
502.6154308722768
 30
0.0
 10
377.3206565223719
 20
502.4451179747965
 30
0.0
 10
377.8283109452925
 20
502.2980530437479
 30
0.0
 10
378.364477827772
 20
502.1892945960763
 30
0.0
 10
378.8939068035342
 20
502.1287922955838
 30
0.0
 10
379.382672224732
 20
502.0988113988696
 30
0.0
 10
379.8509342448743
 20
502.1036383379636
 30
0.0
 10
380.3392625192918
 20
502.1439459481171
 30
0.0
 10
380.7318745077355
 20
502.1973089300004
 30
0.0
 10
381.1414249567096
 20
502.2769798406368
 30
0.0
 10
381.5435828453426
 20
502.3793797397494
 30
0.0
 10
381.9284757800476
 20
502.5012662938312
 30
0.0
 10
382.2918103110162
 20
502.6390410903483
 30
0.0
 10
382.6335811831507
 20
502.790449315318
 30
0.0
 10
382.9569517951351
 20
502.9558023414417
 30
0.0
 10
383.2519568372414
 20
503.1287387387841
 30
0.0
 10
383.6048400401731
 20
503.364048927529
 30
0.0
 10
383.9033701604957
 20
503.6060804346565
 30
0.0
 10
384.1420829484841
 20
503.8460001770365
 30
0.0
 10
384.3386100199291
 20
504.080653797007
 30
0.0
 10
384.4770223047535
 20
504.3071287542888
 30
0.0
 10
384.5378688996555
 20
504.5135758911848
 30
0.0
 10
384.5663730030763
 20
504.6189630787199
 30
0.0
 10
384.5546635097717
 20
504.663006249946
 30
0.0
 10
384.5544137075611
 20
504.6639458364204
 30
0.0
  0
LINE
  5
100
330
1F
100
AcDbEntity
  8
0
  6
Continuous
 62
     8
370
     0
100
AcDbLine
 10
299.0995593831
 20
526.4798345962
 30
0.0
 11
323.1715593831
 21
526.4798345962
 31
0.0
  0
LINE
  5
101
330
1F
100
AcDbEntity
  8
0
  6
Continuous
 62
     8
370
     0
100
AcDbLine
 10
275.0275593831
 20
526.4798345962
 30
0.0
 11
299.0995593831
 21
526.4798345962
 31
0.0
  0
LINE
  5
102
330
1F
100
AcDbEntity
  8
0
  6
Continuous
 62
     8
370
     0
100
AcDbLine
 10
299.0995593831
 20
526.6378687137
 30
0.0
 11
323.0945133296
 21
526.6378687137
 31
0.0
  0
LINE
  5
103
330
1F
100
AcDbEntity
  8
0
  6
Continuous
 62
     8
370
     0
100
AcDbLine
 10
275.1046054367
 20
526.6378687137
 30
0.0
 11
299.0995593831
 21
526.6378687137
 31
0.0
  0
SPLINE
  5
104
330
1F
100
AcDbEntity
  8
0
  6
Continuous
 62
     8
370
     0
100
AcDbSpline
210
0.0
220
0.0
230
1.0
 70
     8
 71
     3
 72
    10
 73
     6
 74
     0
 42
0.00000001
 43
0.00000001
 40
0.0
 40
0.0
 40
0.0
 40
0.0
 40
0.5
 40
0.5
 40
1.0
 40
1.0
 40
1.0
 40
1.0
 10
320.1984699642297
 20
508.1464155315106
 30
0.0
 10
319.8676387671896
 20
507.8013015717865
 30
0.0
 10
319.5151539318443
 20
507.4471642013135
 30
0.0
 10
318.7774997870238
 20
506.7505506645762
 30
0.0
 10
318.3917329571505
 20
506.4100424209007
 30
0.0
 10
317.9974479473181
 20
506.0819602904281
 30
0.0
  0
SPLINE
  5
105
330
1F
100
AcDbEntity
  8
0
  6
Continuous
 62
     8
370
     0
100
AcDbSpline
210
0.0
220
0.0
230
1.0
 70
     8
 71
     3
 72
    14
 73
    10
 74
     0
 42
0.00000001
 43
0.00000001
 40
0.0
 40
0.0
 40
0.0
 40
0.0
 40
0.25
 40
0.25
 40
0.5
 40
0.5
 40
0.75
 40
0.75
 40
1.0
 40
1.0
 40
1.0
 40
1.0
 10
317.9974479473181
 20
506.081960290428
 30
0.0
 10
317.6510654613508
 20
505.7937375552982
 30
0.0
 10
317.2983876902392
 20
505.5144717500164
 30
0.0
 10
316.5882060218436
 20
504.9478481550321
 30
0.0
 10
316.2303985846992
 20
504.6584584307878
 30
0.0
 10
315.5120976276236
 20
504.0369250879548
 30
0.0
 10
315.1513394642162
 20
503.7031218002837
 30
0.0
 10
314.4303195027663
 20
503.0000643560141
 30
0.0
 10
314.0698789218087
 20
502.6309434159987
 30
0.0
 10
313.7138941433897
 20
502.2706130280505
 30
0.0
  0
SPLINE
  5
106
330
1F
100
AcDbEntity
  8
0
  6
Continuous
 62
     8
370
     0
100
AcDbSpline
210
0.0
220
0.0
230
1.0
 70
     8
 71
     3
 72
    16
 73
    12
 74
     0
 42
0.00000001
 43
0.00000001
 40
0.0
 40
0.0
 40
0.0
 40
0.0
 40
0.2500000000000009
 40
0.2500000000000009
 40
0.5000000000000018
 40
0.5000000000000018
 40
0.6250000000000019
 40
0.6250000000000019
 40
0.750000000000002
 40
0.750000000000002
 40
1.0
 40
1.0
 40
1.0
 40
1.0
 10
313.7138941433897
 20
502.2706130280505
 30
0.0
 10
313.0166656678036
 20
501.5648732910397
 30
0.0
 10
312.3404073031087
 20
500.9008252774952
 30
0.0
 10
311.0638172446745
 20
499.6069791358752
 30
0.0
 10
310.4607210106275
 20
498.9722068772405
 30
0.0
 10
309.6007893441985
 20
497.9665642200461
 30
0.0
 10
309.3216414105386
 20
497.6238940045357
 30
0.0
 10
308.7788138468119
 20
496.9242614304129
 30
0.0
 10
308.5147263608017
 20
496.5656860340163
 30
0.0
 10
307.750571983011
 20
495.4860742676882
 30
0.0
 10
307.2794539290185
 20
494.7644056340946
 30
0.0
 10
306.8679305921198
 20
494.1192902722606
 30
0.0
  0
SPLINE
  5
107
330
1F
100
AcDbEntity
  8
0
  6
Continuous
 62
     8
370
     0
100
AcDbSpline
210
0.0
220
0.0
230
1.0
 70
     8
 71
     3
 72
    38
 73
    34
 74
     0
 42
0.00000001
 43
0.00000001
 40
0.0
 40
0.0
 40
0.0
 40
0.0
 40
0.0625
 40
0.0625
 40
0.1250000000000001
 40
0.1250000000000001
 40
0.1875000000000001
 40
0.1875000000000001
 40
0.2500000000000002
 40
0.2500000000000002
 40
0.3750000000000002
 40
0.3750000000000002
 40
0.5000000000000003
 40
0.5000000000000003
 40
0.6250000000000003
 40
0.6250000000000003
 40
0.7500000000000003
 40
0.7500000000000003
 40
0.8125000000000003
 40
0.8125000000000003
 40
0.8750000000000003
 40
0.8750000000000003
 40
0.9062500000000003
 40
0.9062500000000003
 40
0.9375000000000003
 40
0.9375000000000003
 40
0.9687500000000003
 40
0.9687500000000003
 40
0.9843750000000002
 40
0.9843750000000002
 40
0.9921875000000001
 40
0.9921875000000001
 40
1.0
 40
1.0
 40
1.0
 40
1.0
 10
306.8679305921198
 20
494.1192902722606
 30
0.0
 10
306.6341642653447
 20
493.7528317181678
 30
0.0
 10
306.4417832000472
 20
493.4904595399943
 30
0.0
 10
306.0929442828306
 20
493.019364010197
 30
0.0
 10
305.9362894167572
 20
492.8116643355241
 30
0.0
 10
305.6445841459478
 20
492.4160132067362
 30
0.0
 10
305.5103456644013
 20
492.2304543008506
 30
0.0
 10
305.2568673899711
 20
491.8645936913879
 30
0.0
 10
305.1376562467273
 20
491.6845342211456
 30
0.0
 10
304.7994580700392
 20
491.1481254014897
 30
0.0
 10
304.599449875849
 20
490.7943319172313
 30
0.0
 10
304.2334224382815
 20
490.0652286297151
 30
0.0
 10
304.0682913816581
 20
489.6915811785385
 30
0.0
 10
303.7658229063605
 20
488.9102686889173
 30
0.0
 10
303.6284775461469
 20
488.5031652778786
 30
0.0
 10
303.3776428924633
 20
487.636830722853
 30
0.0
 10
303.2639329576685
 20
487.1810445776881
 30
0.0
 10
303.1097296684031
 20
486.4303508473794
 30
0.0
 10
303.0610773147613
 20
486.1683626322968
 30
0.0
 10
302.9691443523585
 20
485.6132794992748
 30
0.0
 10
302.9258288043378
 20
485.3219453768756
 30
0.0
 10
302.865156054369
 20
484.839734873277
 30
0.0
 10
302.8456395909966
 20
484.6719393950739
 30
0.0
 10
302.8081325584867
 20
484.3141365778865
 30
0.0
 10
302.7901701860014
 20
484.123011023529
 30
0.0
 10
302.7562027661439
 20
483.6980858160547
 30
0.0
 10
302.7398678480301
 20
483.4712140212964
 30
0.0
 10
302.7187534890846
 20
483.0386118787534
 30
0.0
 10
302.7121222366723
 20
482.8804650512041
 30
0.0
 10
302.7041866165729
 20
482.5995207324294
 30
0.0
 10
302.7018911893529
 20
482.4985729500094
 30
0.0
 10
302.6987788059946
 20
482.278433693458
 30
0.0
 10
302.6979529819038
 20
482.1605713106698
 30
0.0
 10
302.6979541102097
 20
482.0433661882506
 30
0.0
  0
SPLINE
  5
108
330
1F
100
AcDbEntity
  8
0
  6
Continuous
 62
     8
370
     0
100
AcDbSpline
210
0.0
220
0.0
230
1.0
 70
     8
 71
     3
 72
    26
 73
    22
 74
     0
 42
0.00000001
 43
0.00000001
 40
0.0
 40
0.0
 40
0.0
 40
0.0
 40
0.015625
 40
0.015625
 40
0.03125
 40
0.03125
 40
0.0625
 40
0.0625
 40
0.1250000000000007
 40
0.1250000000000007
 40
0.1875000000000013
 40
0.1875000000000013
 40
0.250000000000002
 40
0.250000000000002
 40
0.3750000000000019
 40
0.3750000000000019
 40
0.5000000000000019
 40
0.5000000000000019
 40
0.7500000000000009
 40
0.7500000000000009
 40
1.0
 40
1.0
 40
1.0
 40
1.0
 10
302.6979541102097
 20
482.0433661882506
 30
0.0
 10
302.6979552297094
 20
481.9272001368888
 30
0.0
 10
302.6987423903536
 20
481.8101555630478
 30
0.0
 10
302.7018252236509
 20
481.5921904588912
 30
0.0
 10
302.7040737913717
 20
481.4921139051307
 30
0.0
 10
302.7118740698795
 20
481.2131888984998
 30
0.0
 10
302.7185069148935
 20
481.0561214385153
 30
0.0
 10
302.7394352243836
 20
480.6267572036002
 30
0.0
 10
302.7555114391951
 20
480.3992954659579
 30
0.0
 10
302.7891129078076
 20
479.9759662671676
 30
0.0
 10
302.806882930221
 20
479.7857217340601
 30
0.0
 10
302.8439877646078
 20
479.4299252030958
 30
0.0
 10
302.8632944795385
 20
479.2632529570367
 30
0.0
 10
302.9232773738891
 20
478.7838340466154
 30
0.0
 10
302.9660704009175
 20
478.4944183325782
 30
0.0
 10
303.0568943623284
 20
477.9432940333365
 30
0.0
 10
303.1049569164577
 20
477.6828034251669
 30
0.0
 10
303.2572395683865
 20
476.9360725463638
 30
0.0
 10
303.3694328602883
 20
476.4828913454415
 30
0.0
 10
303.616771427972
 20
475.6216637679855
 30
0.0
 10
303.7521576891362
 20
475.216620710411
 30
0.0
 10
303.9011001332264
 20
474.8280784410177
 30
0.0
  0
SPLINE
  5
109
330
1F
100
AcDbEntity
  8
0
  6
Continuous
 62
     8
370
     0
100
AcDbSpline
210
0.0
220
0.0
230
1.0
 70
     8
 71
     3
 72
    19
 73
    15
 74
     0
 42
0.00000001
 43
0.00000001
 40
0.0
 40
0.0
 40
0.0
 40
0.0
 40
0.2500000000000003
 40
0.2500000000000003
 40
0.5000000000000004
 40
0.5000000000000004
 40
0.6250000000000007
 40
0.6250000000000007
 40
0.7500000000000007
 40
0.8125000000000007
 40
0.8125000000000007
 40
0.8750000000000006
 40
0.8750000000000006
 40
1.0
 40
1.0
 40
1.0
 40
1.0
 10
303.9011001332264
 20
474.8280784410177
 30
0.0
 10
304.0527011530015
 20
474.4326008145723
 30
0.0
 10
304.2182686550108
 20
474.0547841344917
 30
0.0
 10
304.5856967393062
 20
473.318125719405
 30
0.0
 10
304.7868288303628
 20
472.960459530105
 30
0.0
 10
305.1265490355919
 20
472.4197833754583
 30
0.0
 10
305.2460848738765
 20
472.2389544545131
 30
0.0
 10
305.500544214634
 20
471.8713896808057
 30
0.0
 10
305.7035593846579
 20
471.5896521509768
 30
0.0
 10
305.9325783485731
 20
471.2814137529193
 30
0.0
 10
306.091897145071
 20
471.0680985230629
 30
0.0
 10
306.1747675493217
 20
470.9579622636008
 30
0.0
 10
306.4382172264942
 20
470.6023050851143
 30
0.0
 10
306.6319968070043
 20
470.338251745764
 30
0.0
 10
306.8678133313898
 20
469.9685845613606
 30
0.0
  0
SPLINE
  5
10A
330
1F
100
AcDbEntity
  8
0
  6
Continuous
 62
     8
370
     0
100
AcDbSpline
210
0.0
220
0.0
230
1.0
 70
     8
 71
     3
 72
    16
 73
    12
 74
     0
 42
0.00000001
 43
0.00000001
 40
0.0
 40
0.0
 40
0.0
 40
0.0
 40
0.2499999999999997
 40
0.2499999999999997
 40
0.3749999999999999
 40
0.3749999999999999
 40
0.4999999999999999
 40
0.4999999999999999
 40
0.75
 40
0.75
 40
1.0
 40
1.0
 40
1.0
 40
1.0
 10
306.8678133313898
 20
469.9685845613606
 30
0.0
 10
307.2793213745803
 20
469.323502489491
 30
0.0
 10
307.7504259041027
 20
468.6018658747835
 30
0.0
 10
308.5145728038627
 20
467.5222536422509
 30
0.0
 10
308.7786668502122
 20
467.1636417246231
 30
0.0
 10
309.321494899061
 20
466.463992421939
 30
0.0
 10
309.6006377255226
 20
466.1213369440234
 30
0.0
 10
310.4605786631323
 20
465.1156329302999
 30
0.0
 10
311.0636949181982
 20
464.4807489230332
 30
0.0
 10
312.3402901227041
 20
463.1868860417352
 30
0.0
 10
313.0165194546933
 20
462.5229807543793
 30
0.0
 10
313.7137494305497
 20
461.8172839116906
 30
0.0
  0
SPLINE
  5
10B
330
1F
100
AcDbEntity
  8
0
  6
Continuous
 62
     8
370
     0
100
AcDbSpline
210
0.0
220
0.0
230
1.0
 70
     8
 71
     3
 72
    20
 73
    16
 74
     0
 42
0.00000001
 43
0.00000001
 40
0.0
 40
0.0
 40
0.0
 40
0.0
 40
0.1249999999999996
 40
0.1249999999999996
 40
0.2499999999999993
 40
0.2499999999999993
 40
0.374999999999999
 40
0.374999999999999
 40
0.4999999999999987
 40
0.4999999999999987
 40
0.624999999999999
 40
0.624999999999999
 40
0.7499999999999993
 40
0.7499999999999993
 40
1.0
 40
1.0
 40
1.0
 40
1.0
 10
313.7137494305497
 20
461.8172839116906
 30
0.0
 10
313.9930388041474
 20
461.5346029683076
 30
0.0
 10
314.2751158618233
 20
461.2462052254654
 30
0.0
 10
314.8403927508195
 20
460.6849053955506
 30
0.0
 10
315.1235572789361
 20
460.4122341580558
 30
0.0
 10
315.6887376301454
 20
459.8950541578136
 30
0.0
 10
315.9707208974783
 20
459.651120372528
 30
0.0
 10
316.5324915983251
 20
459.183813688064
 30
0.0
 10
316.8123059987623
 20
458.9607892233703
 30
0.0
 10
317.3682370246263
 20
458.5177889636271
 30
0.0
 10
317.6444786586859
 20
458.2974172195551
 30
0.0
 10
318.1895040342275
 20
457.8471705599384
 30
0.0
 10
318.4583686728013
 20
457.6167150062561
 30
0.0
 10
319.2449955119355
 20
456.9100536797307
 30
0.0
 10
319.742225381947
 20
456.4173103905031
 30
0.0
 10
320.1982850411197
 20
455.9415707053206
 30
0.0
  0
SPLINE
  5
10C
330
1F
100
AcDbEntity
  8
0
  6
Continuous
 62
     8
370
     0
100
AcDbSpline
210
0.0
220
0.0
230
1.0
 70
     8
 71
     3
 72
    12
 73
     8
 74
     0
 42
0.00000001
 43
0.00000001
 40
0.0
 40
0.0
 40
0.0
 40
0.0
 40
0.5
 40
0.5
 40
0.75
 40
0.75
 40
1.0
 40
1.0
 40
1.0
 40
1.0
 10
320.1982850411197
 20
455.9415707053206
 30
0.0
 10
321.1016566549313
 20
454.9992165188407
 30
0.0
 10
321.853261287969
 20
454.2078845607426
 30
0.0
 10
322.6311154547863
 20
453.4310831402113
 30
0.0
 10
322.8322310196255
 20
453.2404317540939
 30
0.0
 10
323.1024620227359
 20
453.0223710654778
 30
0.0
 10
323.1715593847197
 20
452.9950289379242
 30
0.0
 10
323.1715593847197
 20
453.0572312082406
 30
0.0
  0
SPLINE
  5
10D
330
1F
100
AcDbEntity
  8
0
  6
Continuous
 62
     8
370
     0
100
AcDbSpline
210
0.0
220
0.0
230
1.0
 70
     8
 71
     3
 72
    12
 73
     8
 74
     0
 42
0.00000001
 43
0.00000001
 40
0.0
 40
0.0
 40
0.0
 40
0.0
 40
0.2499999999999998
 40
0.2499999999999998
 40
0.4999999999999996
 40
0.4999999999999996
 40
1.0
 40
1.0
 40
1.0
 40
1.0
 10
323.1715593847197
 20
511.0305640573906
 30
0.0
 10
323.1715593847197
 20
511.0927831148259
 30
0.0
 10
323.1024619858553
 20
511.0654327255075
 30
0.0
 10
322.8322586847408
 20
510.847378532574
 30
0.0
 10
322.6311536172729
 20
510.656720527797
 30
0.0
 10
321.8533501747029
 20
509.8799583308421
 30
0.0
 10
321.1017883104134
 20
509.0887322863888
 30
0.0
 10
320.1984699642297
 20
508.1464155315106
 30
0.0
  0
SPLINE
  5
10E
330
1F
100
AcDbEntity
  8
0
  6
Continuous
 62
     8
370
     0
100
AcDbSpline
210
0.0
220
0.0
230
1.0
 70
     8
 71
     3
 72
    17
 73
    13
 74
     0
 42
0.00000001
 43
0.00000001
 40
0.0
 40
0.0
 40
0.0
 40
0.0
 40
0.0563538146638356
 40
0.1149636980182025
 40
0.175940939467526
 40
0.2393843707904123
 40
0.3053817445039637
 40
0.374011016290931
 40
0.4846732050839238
 40
0.6229912083000081
 40
0.8008359370204248
 40
1.0
 40
1.0
 40
1.0
 40
1.0
 10
314.6360920722198
 20
487.9532309425466
 30
0.0
 10
314.592336031928
 20
487.9026915699455
 30
0.0
 10
314.5030722219698
 20
487.799589531434
 30
0.0
 10
314.3762103732944
 20
487.6338997209106
 30
0.0
 10
314.2511624178422
 20
487.4565153822809
 30
0.0
 10
314.1286772302762
 20
487.2667217087352
 30
0.0
 10
314.0085725113623
 20
487.0646290089433
 30
0.0
 10
313.8682541731708
 20
486.8092468757865
 30
0.0
 10
313.7008242484827
 20
486.470518568703
 30
0.0
 10
313.4895829359962
 20
486.0075086339194
 30
0.0
 10
313.2456929488989
 20
485.4415463827414
 30
0.0
 10
313.0760904775968
 20
485.0218057265717
 30
0.0
 10
312.9864938474397
 20
484.8000675169573
 30
0.0
  0
SPLINE
  5
10F
330
1F
100
AcDbEntity
  8
0
  6
Continuous
 62
     8
370
     0
100
AcDbSpline
210
0.0
220
0.0
230
1.0
 70
     8
 71
     3
 72
    16
 73
    12
 74
     0
 42
0.00000001
 43
0.00000001
 40
0.0
 40
0.0
 40
0.0
 40
0.0
 40
0.1456446914930266
 40
0.273042694291089
 40
0.3822728532919588
 40
0.4734612287852312
 40
0.6899564737939365
 40
0.7481680001955104
 40
0.8102478408626456
 40
0.9051103832177924
 40
1.0
 40
1.0
 40
1.0
 40
1.0
 10
312.9864938474397
 20
484.8000675169573
 30
0.0
 10
312.9361158474587
 20
484.6721745929436
 30
0.0
 10
312.8416713146246
 20
484.432411452966
 30
0.0
 10
312.717993592215
 20
484.0927817155992
 30
0.0
 10
312.6197068701131
 20
483.7984532723376
 30
0.0
 10
312.5096265500979
 20
483.4193171662225
 30
0.0
 10
312.4460935398796
 20
483.0760723769299
 30
0.0
 10
312.4286577284321
 20
482.7569350705496
 30
0.0
 10
312.4286305209478
 20
482.5527329965501
 30
0.0
 10
312.4345817191895
 20
482.3138072602405
 30
0.0
 10
312.4405979528247
 20
482.1338000057785
 30
0.0
 10
312.4436064988497
 20
482.0437835365506
 30
0.0
  0
SPLINE
  5
110
330
1F
100
AcDbEntity
  8
0
  6
Continuous
 62
     8
370
     0
100
AcDbSpline
210
0.0
220
0.0
230
1.0
 70
     8
 71
     3
 72
    16
 73
    12
 74
     0
 42
0.00000001
 43
0.00000001
 40
0.0
 40
0.0
 40
0.0
 40
0.0
 40
0.0451079396551953
 40
0.1054423885481416
 40
0.1728786906099809
 40
0.2840101300585385
 40
0.3822398838888194
 40
0.4950071303974014
 40
0.6208833611186586
 40
0.7891735579132958
 40
0.9999999999999999
 40
0.9999999999999999
 40
0.9999999999999999
 40
0.9999999999999999
 10
312.4436064988497
 20
482.0437835365506
 30
0.0
 10
312.4430405997857
 20
481.9889600064616
 30
0.0
 10
312.4417177783613
 20
481.8608068696656
 30
0.0
 10
312.4332165862227
 20
481.6508659293509
 30
0.0
 10
312.4244040934805
 20
481.3606665974564
 30
0.0
 10
312.4458740779629
 20
481.0240493231847
 30
0.0
 10
312.5195354682219
 20
480.6394173498033
 30
0.0
 10
312.6297242982411
 20
480.2456170633556
 30
0.0
 10
312.7938138339123
 20
479.7806186380172
 30
0.0
 10
313.0147702471288
 20
479.2111480335007
 30
0.0
 10
313.1903882651503
 20
478.7894627371197
 30
0.0
 10
313.2880492963703
 20
478.5549639006175
 30
0.0
  0
SPLINE
  5
111
330
1F
100
AcDbEntity
  8
0
  6
Continuous
 62
     8
370
     0
100
AcDbSpline
210
0.0
220
0.0
230
1.0
 70
     8
 71
     3
 72
    15
 73
    11
 74
     0
 42
0.00000001
 43
0.00000001
 40
0.0
 40
0.0
 40
0.0
 40
0.0
 40
0.1495663411710867
 40
0.2791435943512538
 40
0.3887609063575118
 40
0.5275572288900283
 40
0.6577666855645647
 40
0.779669668144557
 40
0.8936079251357596
 40
1.0
 40
1.0
 40
1.0
 40
1.0
 10
313.2880492963703
 20
478.5549639006175
 30
0.0
 10
313.3425655641115
 20
478.4264949575379
 30
0.0
 10
313.4443121657112
 20
478.186726556085
 30
0.0
 10
313.5910823341895
 20
477.8560556779428
 30
0.0
 10
313.738930304862
 20
477.5375332391503
 30
0.0
 10
313.8973791108138
 20
477.2241073282225
 30
0.0
 10
314.0751042796516
 20
476.9086622273876
 30
0.0
 10
314.2566177553986
 20
476.6228224063373
 30
0.0
 10
314.4401471030794
 20
476.3648032778033
 30
0.0
 10
314.572317049263
 20
476.2096610754855
 30
0.0
 10
314.6361386515397
 20
476.1347467381602
 30
0.0
  0
SPLINE
  5
112
330
1F
100
AcDbEntity
  8
0
  6
Continuous
 62
     8
370
     0
100
AcDbSpline
210
0.0
220
0.0
230
1.0
 70
     8
 71
     3
 72
    29
 73
    25
 74
     0
 42
0.00000001
 43
0.00000001
 40
0.0
 40
0.0
 40
0.0
 40
0.0
 40
0.0387733510723907
 40
0.0770524170461501
 40
0.1148432504013195
 40
0.1521521412352678
 40
0.1889856265560599
 40
0.2253504997558727
 40
0.2612538202353009
 40
0.2967029231437041
 40
0.3317054291943486
 40
0.3662692545062426
 40
0.4004026204171022
 40
0.4341140632037814
 40
0.4674124436380859
 40
0.5003069562968672
 40
0.5652984949265287
 40
0.6293975305067667
 40
0.6926851678084098
 40
0.7552456674444589
 40
0.8171662585535666
 40
0.8785368989567424
 40
0.9394499830830945
 40
0.9999999999999999
 40
0.9999999999999999
 40
0.9999999999999999
 40
0.9999999999999999
 10
326.3520779513697
 20
462.0321199169239
 30
0.0
 10
326.4207170065112
 20
461.9603777007534
 30
0.0
 10
326.5571201018366
 20
461.8178078426603
 30
0.0
 10
326.7536625528534
 20
461.6128568485082
 30
0.0
 10
326.9425887045512
 20
461.4161165482162
 30
0.0
 10
327.1234336237149
 20
461.2280252366208
 30
0.0
 10
327.2963194515982
 20
461.048355016732
 30
0.0
 10
327.461214014973
 20
460.8770479352801
 30
0.0
 10
327.6181256916149
 20
460.7139964749376
 30
0.0
 10
327.7670521782482
 20
460.5591015043099
 30
0.0
 10
327.9079940034297
 20
460.4122572929012
 30
0.0
 10
328.0409507998975
 20
460.2733557074648
 30
0.0
 10
328.165922923584
 20
460.1422853076733
 30
0.0
 10
328.2829086827664
 20
460.018931976951
 30
0.0
 10
328.3919136538631
 20
459.9031784166789
 30
0.0
 10
328.5261686220207
 20
459.7592617712563
 30
0.0
 10
328.6752477304702
 20
459.5966174628707
 30
0.0
 10
328.8248703803916
 20
459.4280994650869
 30
0.0
 10
328.9445899270016
 20
459.2865711201294
 30
0.0
 10
329.0343524675288
 20
459.1717365919493
 30
0.0
 10
329.0943576672542
 20
459.083050689971
 30
0.0
 10
329.1238453894372
 20
459.0207214238993
 30
0.0
 10
329.1256025955746
 20
458.9820450212753
 30
0.0
 10
329.1013496233616
 20
458.9772977497576
 30
0.0
 10
329.0892593847197
 20
458.9749312090696
 30
0.0
  0
SPLINE
  5
113
330
1F
100
AcDbEntity
  8
0
  6
Continuous
 62
     8
370
     0
100
AcDbSpline
210
0.0
220
0.0
230
1.0
 70
     8
 71
     3
 72
    14
 73
    10
 74
     0
 42
0.00000001
 43
0.00000001
 40
0.0
 40
0.0
 40
0.0
 40
0.0
 40
0.1172106750887379
 40
0.2380343354057198
 40
0.3624725273286193
 40
0.4905266653604763
 40
0.7219089093148797
 40
0.8917343070858855
 40
1.0
 40
1.0
 40
1.0
 40
1.0
 10
324.4255116334504
 20
464.3089167298843
 30
0.0
 10
324.499457257814
 20
464.2094071006141
 30
0.0
 10
324.6496278590689
 20
464.0073204864734
 30
0.0
 10
324.8806281910729
 20
463.7101325362081
 30
0.0
 10
325.1200412132134
 20
463.4123374960032
 30
0.0
 10
325.4329302116046
 20
463.0385906676718
 30
0.0
 10
325.7758206416607
 20
462.6481135263702
 30
0.0
 10
326.1050366822456
 20
462.2908273276053
 30
0.0
 10
326.2828515385941
 20
462.1046154398923
 30
0.0
 10
326.3520779513697
 20
462.0321199169239
 30
0.0
  0
SPLINE
  5
114
330
1F
100
AcDbEntity
  8
0
  6
Continuous
 62
     8
370
     0
100
AcDbSpline
210
0.0
220
0.0
230
1.0
 70
     8
 71
     3
 72
    17
 73
    13
 74
     0
 42
0.00000001
 43
0.00000001
 40
0.0
 40
0.0
 40
0.0
 40
0.0
 40
0.0785198924556773
 40
0.1453703545944143
 40
0.2005531538915441
 40
0.2440715683492471
 40
0.3702713948005701
 40
0.4913176338110105
 40
0.6077052835256654
 40
0.7408201869766518
 40
0.8153278988879725
 40
1.0
 40
1.0
 40
1.0
 40
1.0
 10
321.0208730941297
 20
468.7521522697079
 30
0.0
 10
321.1246374695609
 20
468.6300434032127
 30
0.0
 10
321.3167450180935
 20
468.4039731849994
 30
0.0
 10
321.5798042984278
 20
468.0962538497977
 30
0.0
 10
321.7952228819823
 20
467.8439976013524
 30
0.0
 10
322.083508762709
 20
467.5024012919104
 30
0.0
 10
322.4420362304221
 20
467.0610339158188
 30
0.0
 10
322.8649543151334
 20
466.5124785671119
 30
0.0
 10
323.2655655887494
 20
465.9570324151007
 30
0.0
 10
323.5989968368066
 20
465.4812416755743
 30
0.0
 10
323.986049513646
 20
464.9152442244848
 30
0.0
 10
324.2426659805674
 20
464.5611895461636
 30
0.0
 10
324.4255116334504
 20
464.3089167298843
 30
0.0
  0
SPLINE
  5
115
330
1F
100
AcDbEntity
  8
0
  6
Continuous
 62
     8
370
     0
100
AcDbSpline
210
0.0
220
0.0
230
1.0
 70
     8
 71
     3
 72
     8
 73
     4
 74
     0
 42
0.00000001
 43
0.00000001
 40
0.0
 40
0.0
 40
0.0
 40
0.0
 40
1.0
 40
1.0
 40
1.0
 40
1.0
 10
321.0208730941297
 20
468.7521522696306
 30
0.0
 10
320.8240390798915
 20
468.9842847553563
 30
0.0
 10
320.6323253783636
 20
469.2145142063299
 30
0.0
 10
320.4452060658729
 20
469.4421675870723
 30
0.0
  0
SPLINE
  5
116
330
1F
100
AcDbEntity
  8
0
  6
Continuous
 62
     8
370
     0
100
AcDbSpline
210
0.0
220
0.0
230
1.0
 70
     8
 71
     3
 72
    18
 73
    14
 74
     0
 42
0.00000001
 43
0.00000001
 40
0.0
 40
0.0
 40
0.0
 40
0.0
 40
0.0450285988209091
 40
0.1016858951961791
 40
0.1579963091052576
 40
0.2143690592055787
 40
0.2995374660684812
 40
0.3804509236618355
 40
0.4571372425838577
 40
0.5791689112749473
 40
0.7144457095324493
 40
0.8189310604131603
 40
1.0
 40
1.0
 40
1.0
 40
1.0
 10
314.6361386515397
 20
476.1347467381602
 30
0.0
 10
314.7287066238774
 20
476.0322215859435
 30
0.0
 10
314.9377483746788
 20
475.8006940199905
 30
0.0
 10
315.2683400850356
 20
475.4477821814339
 30
0.0
 10
315.6233025602654
 20
475.0719029595055
 30
0.0
 10
316.0393240333484
 20
474.6362484597989
 30
0.0
 10
316.5034832232477
 20
474.1467847405121
 30
0.0
 10
316.9988826418145
 20
473.6083820898086
 30
0.0
 10
317.5571643393267
 20
472.9845199419989
 30
0.0
 10
318.19843532661
 20
472.2300762579581
 30
0.0
 10
318.8655426654506
 20
471.4106448141087
 30
0.0
 10
319.6165931506347
 20
470.4600336717253
 30
0.0
 10
320.1236702909123
 20
469.8371406829007
 30
0.0
 10
320.4452060658729
 20
469.4421664985595
 30
0.0
  0
SPLINE
  5
117
330
1F
100
AcDbEntity
  8
0
  6
Continuous
 62
     8
370
     0
100
AcDbSpline
210
0.0
220
0.0
230
1.0
 70
     8
 71
     3
 72
     8
 73
     4
 74
     0
 42
0.00000001
 43
0.00000001
 40
0.0
 40
0.0
 40
0.0
 40
0.0
 40
1.0
 40
1.0
 40
1.0
 40
1.0
 10
314.6360920722198
 20
487.9532309428206
 30
0.0
 10
314.8581952183824
 20
488.2021956561256
 30
0.0
 10
315.1060021878881
 20
488.4680482497836
 30
0.0
 10
315.3691773458785
 20
488.746599205537
 30
0.0
  0
SPLINE
  5
118
330
1F
100
AcDbEntity
  8
0
  6
Continuous
 62
     8
370
     0
100
AcDbSpline
210
0.0
220
0.0
230
1.0
 70
     8
 71
     3
 72
    19
 73
    15
 74
     0
 42
0.00000001
 43
0.00000001
 40
0.0
 40
0.0
 40
0.0
 40
0.0
 40
0.0408220227067237
 40
0.0900089647237836
 40
0.14756081901235
 40
0.2333603357917993
 40
0.2859025352178575
 40
0.4160332044162402
 40
0.5400683301081634
 40
0.777537329946065
 40
0.8916957581795008
 40
0.9467983377205926
 40
0.9736638793205787
 40
1.0
 40
1.0
 40
1.0
 40
1.0
 10
321.0208898442297
 20
495.335857760576
 30
0.0
 10
320.948910085552
 20
495.250629437997
 30
0.0
 10
320.7902010571876
 20
495.0627084930798
 30
0.0
 10
320.5306629692624
 20
494.7503035325841
 30
0.0
 10
320.1924443713982
 20
494.3379315738589
 30
0.0
 10
319.8483888318439
 20
493.9118576745326
 30
0.0
 10
319.3760580952744
 20
493.3204397105918
 30
0.0
 10
318.8311334433569
 20
492.6361277152711
 30
0.0
 10
317.933645561492
 20
491.5307351849723
 30
0.0
 10
317.0042544672083
 20
490.473293564771
 30
0.0
 10
316.1671608266537
 20
489.5865205214879
 30
0.0
 10
315.7597872847315
 20
489.1583935047229
 30
0.0
 10
315.5344994974262
 20
488.9213722095983
 30
0.0
 10
315.4239179228995
 20
488.804505299849
 30
0.0
 10
315.3691773458785
 20
488.7466533285624
 30
0.0
  0
SPLINE
  5
119
330
1F
100
AcDbEntity
  8
0
  6
Continuous
 62
     8
370
     0
100
AcDbSpline
210
0.0
220
0.0
230
1.0
 70
     8
 71
     3
 72
    17
 73
    13
 74
     0
 42
0.00000001
 43
0.00000001
 40
0.0
 40
0.0
 40
0.0
 40
0.0
 40
0.077461705560419
 40
0.1459141357122374
 40
0.2053588834139638
 40
0.2557984397990317
 40
0.3845362588792297
 40
0.5056491445340312
 40
0.6257324929360824
 40
0.7545880759908193
 40
0.8526809920680275
 40
1.0
 40
1.0
 40
1.0
 40
1.0
 10
324.0404492949592
 20
499.2430739572073
 30
0.0
 10
323.9738447530139
 20
499.1481205836561
 30
0.0
 10
323.8483821892585
 20
498.9692575011246
 30
0.0
 10
323.6698997401292
 20
498.711990989739
 30
0.0
 10
323.5132207661458
 20
498.4858813905537
 30
0.0
 10
323.3002743014262
 20
498.1803658151683
 30
0.0
 10
323.0221867612026
 20
497.7914103116772
 30
0.0
 10
322.6604970631768
 20
497.3066261068076
 30
0.0
 10
322.2755018721706
 20
496.8200017888904
 30
0.0
 10
321.896878285508
 20
496.3612376912737
 30
0.0
 10
321.4723098652236
 20
495.8659421856507
 30
0.0
 10
321.1902239716048
 20
495.5347000346902
 30
0.0
 10
321.0208898442297
 20
495.335857760576
 30
0.0
  0
SPLINE
  5
11A
330
1F
100
AcDbEntity
  8
0
  6
Continuous
 62
     8
370
     0
100
AcDbSpline
210
0.0
220
0.0
230
1.0
 70
     8
 71
     3
 72
    14
 73
    10
 74
     0
 42
0.00000001
 43
0.00000001
 40
0.0
 40
0.0
 40
0.0
 40
0.0
 40
0.1420404257341144
 40
0.2642153313241587
 40
0.3665245764962343
 40
0.4489681148234763
 40
0.5115460674885315
 40
0.702272042854472
 40
0.9999999999999999
 40
0.9999999999999999
 40
0.9999999999999999
 40
0.9999999999999999
 10
325.71302389616
 20
501.3653019790108
 30
0.0
 10
325.6326359165904
 20
501.2744147604332
 30
0.0
 10
325.4831028766359
 20
501.1053516472701
 30
0.0
 10
325.2760036184523
 20
500.8616881157106
 30
0.0
 10
325.1029004276333
 20
500.6530496547785
 30
0.0
 10
324.96377261408
 20
500.481525712466
 30
0.0
 10
324.7758082248313
 20
500.2449397587103
 30
0.0
 10
324.471927785509
 20
499.8467013782642
 30
0.0
 10
324.2038506798453
 20
499.4716683337896
 30
0.0
 10
324.0404492949565
 20
499.2430739572035
 30
0.0
  0
SPLINE
  5
11B
330
1F
100
AcDbEntity
  8
0
  6
Continuous
 62
     8
370
     0
100
AcDbSpline
210
0.0
220
0.0
230
1.0
 70
     8
 71
     3
 72
    10
 73
     6
 74
     0
 42
0.00000001
 43
0.00000001
 40
0.0
 40
0.0
 40
0.0
 40
0.0
 40
0.284472207658353
 40
0.6178045841992507
 40
0.9999999999999999
 40
0.9999999999999999
 40
0.9999999999999999
 40
0.9999999999999999
 10
326.3521912803398
 20
502.0559326870912
 30
0.0
 10
326.2921409583741
 20
501.9928522751474
 30
0.0
 10
326.1617262352684
 20
501.8558569321121
 30
0.0
 10
325.9484735602919
 20
501.6267416127113
 30
0.0
 10
325.795000647326
 20
501.456327684551
 30
0.0
 10
325.71302389616
 20
501.3653019790108
 30
0.0
  0
SPLINE
  5
11C
330
1F
100
AcDbEntity
  8
0
  6
Continuous
 62
     8
370
     0
100
AcDbSpline
210
0.0
220
0.0
230
1.0
 70
     8
 71
     3
 72
    30
 73
    26
 74
     0
 42
0.00000001
 43
0.00000001
 40
0.0
 40
0.0
 40
0.0
 40
0.0
 40
0.0302333116997198
 40
0.0605460324354669
 40
0.0909501454457869
 40
0.1214575262729835
 40
0.1520799303157383
 40
0.1828289810521587
 40
0.2137161589811251
 40
0.2447527913211833
 40
0.27595004249753
 40
0.3073189054389892
 40
0.3388701936984545
 40
0.3706145344022018
 40
0.4025623620258608
 40
0.434723912987808
 40
0.4671092210443355
 40
0.4997281134652222
 40
0.5659183610609221
 40
0.6337597321181849
 40
0.7033218349533061
 40
0.7746692414302516
 40
0.8478617982188325
 40
0.9229549402955652
 40
0.9999999999999999
 40
0.9999999999999999
 40
0.9999999999999999
 40
0.9999999999999999
 10
329.0891922338697
 20
505.1129312121417
 30
0.0
 10
329.095959284065
 20
505.1123417722611
 30
0.0
 10
329.1095111583911
 20
505.1111613443117
 30
0.0
 10
329.120319420303
 20
505.1015769835839
 30
0.0
 10
329.1241976756284
 20
505.0862000869487
 30
0.0
 10
329.1204557386192
 20
505.0644108653747
 30
0.0
 10
329.1092795302218
 20
505.0363027406574
 30
0.0
 10
329.0906190981351
 20
505.0017791709882
 30
0.0
 10
329.0644880446052
 20
504.9607969254413
 30
0.0
 10
329.03088285169
 20
504.9133006109341
 30
0.0
 10
328.9898046246448
 20
504.8592403937442
 30
0.0
 10
328.9412532367153
 20
504.7985672929312
 30
0.0
 10
328.8852288662937
 20
504.7312345188396
 30
0.0
 10
328.8217317360839
 20
504.657197199618
 30
0.0
 10
328.7507615955323
 20
504.576412470569
 30
0.0
 10
328.6723200697014
 20
504.4888397394076
 30
0.0
 10
328.5864016898634
 20
504.3944398722
 30
0.0
 10
328.4612294531271
 20
504.2586942449363
 30
0.0
 10
328.2847847536774
 20
504.0705802069409
 30
0.0
 10
328.0425108227407
 20
503.8159609548824
 30
0.0
 10
327.7682829789298
 20
503.529982453817
 30
0.0
 10
327.4622161388825
 20
503.2119073348983
 30
0.0
 10
327.1238538430669
 20
502.8603906735306
 30
0.0
 10
326.7549857898641
 20
502.4766834845613
 30
0.0
 10
326.4875996292469
 20
502.1973774422694
 30
0.0
 10
326.3521912803398
 20
502.0559326870912
 30
0.0
  0
SPLINE
  5
11D
330
1F
100
AcDbEntity
  8
0
  6
Continuous
 62
     8
370
     0
100
AcDbSpline
210
0.0
220
0.0
230
1.0
 70
     8
 71
     3
 72
    22
 73
    18
 74
     0
 42
0.00000001
 43
0.00000001
 40
0.0
 40
0.0
 40
0.0
 40
0.0
 40
0.0063930836498788
 40
0.0832661804601429
 40
0.1575995936939974
 40
0.2302019293260834
 40
0.3045829439117008
 40
0.382916800911528
 40
0.4632859722887108
 40
0.5292495930974213
 40
0.6077470659759131
 40
0.6848895815907814
 40
0.7621698184057524
 40
0.8381091196645039
 40
0.9113466966284355
 40
0.9842787995581418
 40
1.0
 40
1.0
 40
1.0
 40
1.0
 10
384.8219939749708
 20
504.1948184567452
 30
0.0
 10
384.8638680022265
 20
504.1882446213234
 30
0.0
 10
385.4092527494023
 20
504.1026242546076
 30
0.0
 10
385.9365363298366
 20
503.755890596828
 30
0.0
 10
386.167715977122
 20
503.1034396441368
 30
0.0
 10
385.6142108786732
 20
502.2872705659433
 30
0.0
 10
384.4265691493661
 20
501.4525801461151
 30
0.0
 10
382.6870833558012
 20
500.7446035921873
 30
0.0
 10
380.6942703821867
 20
500.3655179911312
 30
0.0
 10
378.6110552533559
 20
500.3465121925306
 30
0.0
 10
376.6259906689011
 20
500.6815725432396
 30
0.0
 10
374.8368986373512
 20
501.3560395156064
 30
0.0
 10
373.5501979508985
 20
502.2011624224784
 30
0.0
 10
372.9263027657361
 20
503.0446343797587
 30
0.0
 10
373.0998285829399
 20
503.7076912225801
 30
0.0
 10
373.6148107016131
 20
504.0724202757533
 30
0.0
 10
374.180113062674
 20
504.1690790463956
 30
0.0
 10
374.2803601080801
 20
504.1862198843559
 30
0.0
  0
ARC
  5
11E
330
1F
100
AcDbEntity
  8
0
  6
Continuous
 62
     8
370
     0
100
AcDbCircle
 10
368.0888786999
 20
510.8336542879
 30
0.0
 40
7.94036792278293
100
AcDbArc
 50
249.8682419211
 51
271.5709281255
  0
ARC
  5
11F
330
1F
100
AcDbEntity
  8
0
  6
Continuous
 62
     8
370
     0
100
AcDbCircle
 10
368.492810749
 20
511.210934919
 30
0.0
 40
8.31674998271611
100
AcDbArc
 50
268.7167692526
 51
287.7616686343
  0
LINE
  5
120
330
1F
100
AcDbEntity
  8
0
  6
Continuous
 62
     7
370
    15
100
AcDbLine
 10
189.9816279248
 20
288.8215628062
 30
0.0
 11
189.9816279248
 21
328.9415628062
 31
0.0
  0
LINE
  5
121
330
1F
100
AcDbEntity
  8
0
  6
Continuous
 62
     7
370
    15
100
AcDbLine
 10
167.9156279248
 20
328.9415628062
 30
0.0
 11
167.9156279248
 21
288.8215628062
 31
0.0
  0
LINE
  5
122
330
1F
100
AcDbEntity
  8
0
  6
Continuous
 62
     7
370
    15
100
AcDbLine
 10
167.9156279248
 20
288.8215628062
 30
0.0
 11
167.9156279248
 21
103.2665628062
 31
0.0
  0
LINE
  5
123
330
1F
100
AcDbEntity
  8
0
  6
Continuous
 62
     7
370
    15
100
AcDbLine
 10
189.9816279248
 20
103.2665628062
 30
0.0
 11
189.9816279248
 21
288.8215628062
 31
0.0
  0
LINE
  5
124
330
1F
100
AcDbEntity
  8
0
  6
Continuous
 62
     7
370
    15
100
AcDbLine
 10
167.9156279248
 20
103.2665628062
 30
0.0
 11
167.9156279248
 21
103.0659628062
 31
0.0
  0
LINE
  5
125
330
1F
100
AcDbEntity
  8
0
  6
Continuous
 62
     7
370
    15
100
AcDbLine
 10
189.9816279248
 20
103.0659628062
 30
0.0
 11
189.9816279248
 21
103.2665628062
 31
0.0
  0
ARC
  5
126
330
1F
100
AcDbEntity
  8
0
  6
Continuous
 62
     7
370
    15
100
AcDbCircle
 10
168.9186279248
 20
103.0659628062
 30
0.0
 40
1.003000000000014
100
AcDbArc
 50
180.0
 51
270.0
  0
ARC
  5
127
330
1F
100
AcDbEntity
  8
0
  6
Continuous
 62
     7
370
    15
100
AcDbCircle
 10
188.9786279248
 20
103.0659628062
 30
0.0
 40
1.002999999999986
100
AcDbArc
 50
270.0
 51
0.0
  0
LINE
  5
128
330
1F
100
AcDbEntity
  8
0
  6
Continuous
 62
     7
370
    15
100
AcDbLine
 10
167.9156279248
 20
253.5159628047
 30
0.0
 11
149.9612237118
 21
253.5159628047
 31
0.0
  0
LINE
  5
129
330
1F
100
AcDbEntity
  8
0
  6
Continuous
 62
     7
370
    15
100
AcDbLine
 10
149.9612237118
 20
243.4859628047
 30
0.0
 11
167.9156279248
 21
243.4859628047
 31
0.0
  0
LINE
  5
12A
330
1F
100
AcDbEntity
  8
0
  6
Continuous
 62
     7
370
    15
100
AcDbLine
 10
155.8796279232
 20
315.6382801034
 30
0.0
 11
155.879629099
 21
275.9831611999
 31
0.0
  0
LINE
  5
12B
330
1F
100
AcDbEntity
  8
0
  6
Continuous
 62
     7
370
    15
100
AcDbLine
 10
202.0176267356
 20
275.9831611799
 30
0.0
 11
202.0176279263
 21
315.6382801034
 31
0.0
  0
ARC
  5
12C
330
1F
100
AcDbEntity
  8
0
  6
Continuous
 62
     7
370
    15
100
AcDbCircle
 10
156.280827922
 20
276.2840628047
 30
0.0
 40
0.5015000103922505
100
AcDbArc
 50
216.8701259309
 51
270.0000149883
  0
ARC
  5
12D
330
1F
100
AcDbEntity
  8
0
  6
Continuous
 62
     7
370
    15
100
AcDbCircle
 10
201.6164279276
 20
276.2840628047
 30
0.0
 40
0.5015000104154744
100
AcDbArc
 50
269.9999850117
 51
323.1298712175
  0
LINE
  5
12E
330
1F
100
AcDbEntity
  8
0
  6
Continuous
 62
     7
370
    15
100
AcDbLine
 10
156.3811279292
 20
268.0594628047
 30
0.0
 11
156.3811279292
 21
253.5159628047
 31
0.0
  0
LINE
  5
12F
330
1F
100
AcDbEntity
  8
0
  6
Continuous
 62
     7
370
    15
100
AcDbLine
 10
156.3811279292
 20
243.4859628047
 30
0.0
 11
156.3811279292
 21
239.5140828047
 31
0.0
  0
LINE
  5
130
330
1F
100
AcDbEntity
  8
0
  6
Continuous
 62
     7
370
    15
100
AcDbLine
 10
201.5161279292
 20
239.5140828047
 30
0.0
 11
201.5161279292
 21
266.7020131435
 31
0.0
  0
ARC
  5
131
330
1F
100
AcDbEntity
  8
0
  6
Continuous
 62
     7
370
    15
100
AcDbCircle
 10
200.9745079292
 20
239.5140828047
 30
0.0
 40
0.5416200000000231
100
AcDbArc
 50
270.0
 51
0.0
  0
ARC
  5
132
330
1F
100
AcDbEntity
  8
0
  6
Continuous
 62
     7
370
    15
100
AcDbCircle
 10
156.9227479292
 20
239.5140828047
 30
0.0
 40
0.5416200000000231
100
AcDbArc
 50
180.0
 51
270.0
  0
LINE
  5
133
330
1F
100
AcDbEntity
  8
0
  6
Continuous
 62
     7
370
    15
100
AcDbLine
 10
201.0146279248
 20
273.7765628047
 30
0.0
 11
201.0146279248
 21
275.7825628047
 31
0.0
  0
LINE
  5
134
330
1F
100
AcDbEntity
  8
0
  6
Continuous
 62
     7
370
    15
100
AcDbLine
 10
156.8826279248
 20
275.7825628047
 30
0.0
 11
156.8826279248
 21
273.7765628047
 31
0.0
  0
ARC
  5
135
330
1F
100
AcDbEntity
  8
0
  6
Continuous
 62
     7
370
    15
100
AcDbCircle
 10
178.9486279248
 20
273.7028765019
 30
0.0
 40
22.06599999999999
100
AcDbArc
 50
179.8145617156
 51
194.818122559
  0
ARC
  5
136
330
1F
100
AcDbEntity
  8
0
  6
Continuous
 62
     7
370
    15
100
AcDbCircle
 10
178.9486279248
 20
273.7028765019
 30
0.0
 40
22.06600000000001
100
AcDbArc
 50
345.0344157618
 51
0.1843083425
  0
SPLINE
  5
137
330
1F
100
AcDbEntity
  8
0
  6
Continuous
 62
     7
370
    15
100
AcDbSpline
210
0.0
220
0.0
230
1.0
 70
     8
 71
     3
 72
    11
 73
     7
 74
     0
 42
0.00000001
 43
0.00000001
 40
0.0
 40
0.0
 40
0.0
 40
0.0
 40
0.2553011245726984
 40
0.4996294268344614
 40
0.7429620095632804
 40
1.0
 40
1.0
 40
1.0
 40
1.0
 10
155.4094028940772
 20
323.9049957459977
 30
0.0
 10
155.4657004847233
 20
323.5657976001353
 30
0.0
 10
155.5758759999849
 20
322.9019800181163
 30
0.0
 10
155.7408124544572
 20
320.9239912951492
 30
0.0
 10
155.8777960670697
 20
318.4273261741325
 30
0.0
 10
155.8884965815967
 20
316.5638162923509
 30
0.0
 10
155.8939933851622
 20
315.6065401037417
 30
0.0
  0
SPLINE
  5
138
330
1F
100
AcDbEntity
  8
0
  6
Continuous
 62
     7
370
    15
100
AcDbSpline
210
0.0
220
0.0
230
1.0
 70
     8
 71
     3
 72
    11
 73
     7
 74
     0
 42
0.00000001
 43
0.00000001
 40
0.0
 40
0.0
 40
0.0
 40
0.0
 40
0.2570379904421938
 40
0.5003705730488779
 40
0.7446988753142937
 40
1.0
 40
1.0
 40
1.0
 40
1.0
 10
202.0032624641437
 20
315.606540103325
 30
0.0
 10
202.0087592676242
 20
316.5638162915485
 30
0.0
 10
202.0194597819829
 20
318.4273261721049
 30
0.0
 10
202.1564433950867
 20
320.9239912957697
 30
0.0
 10
202.3213798494589
 20
322.9019800179533
 30
0.0
 10
202.4315553645692
 20
323.5657975990849
 30
0.0
 10
202.4878529551498
 20
323.9049957445648
 30
0.0
  0
ARC
  5
139
330
1F
100
AcDbEntity
  8
0
  6
Continuous
 62
     7
370
    15
100
AcDbCircle
 10
178.9486279248
 20
328.9415628062
 30
0.0
 40
11.03300000000002
100
AcDbArc
 50
0.0
 51
180.0
  0
LINE
  5
13A
330
1F
100
AcDbEntity
  8
0
  6
Continuous
 62
     7
370
    15
100
AcDbLine
 10
168.9186279248
 20
102.0629628062
 30
0.0
 11
188.9786276888
 21
102.0629628062
 31
0.0
  0
ARC
  5
13B
330
1F
100
AcDbEntity
  8
0
  6
Continuous
 62
     7
370
    15
100
AcDbCircle
 10
150.1104926772
 20
248.6540176388
 30
0.0
 40
4.864236015996093
100
AcDbArc
 50
91.7585134789
 51
181.8031287336
  0
ARC
  5
13C
330
1F
100
AcDbEntity
  8
0
  6
Continuous
 62
     7
370
    15
100
AcDbCircle
 10
150.1104926772
 20
248.3479079705
 30
0.0
 40
4.864236015996003
100
AcDbArc
 50
178.1968712664
 51
268.2414865211
  0
ARC
  5
13D
330
1F
100
AcDbEntity
  8
0
  6
Continuous
 62
     7
370
    15
100
AcDbCircle
 10
178.9486279248
 20
328.9415628062
 30
0.0
 40
11.98585000000002
100
AcDbArc
 50
336.9995950787
 51
0.0
  0
ARC
  5
13E
330
1F
100
AcDbEntity
  8
0
  6
Continuous
 62
     7
370
    15
100
AcDbCircle
 10
178.9486279248
 20
328.9415628062
 30
0.0
 40
11.98585
100
AcDbArc
 50
0.0
 51
203.0004049214
  0
ARC
  5
13F
330
1F
100
AcDbEntity
  8
0
  6
Continuous
 62
     7
370
    15
100
AcDbCircle
 10
178.9486279248
 20
328.9415628062
 30
0.0
 40
24.072
100
AcDbArc
 50
180.0
 51
242.720387264
  0
ARC
  5
140
330
1F
100
AcDbEntity
  8
0
  6
Continuous
 62
     7
370
    15
100
AcDbCircle
 10
178.9486279248
 20
328.9415628062
 30
0.0
 40
24.07200000000005
100
AcDbArc
 50
297.279612736
 51
180.0
  0
LWPOLYLINE
  5
141
330
1F
100
AcDbEntity
  8
0
  6
Continuous
 62
     7
370
    15
100
AcDbPolyline
 90
        3
 70
   128
 43
0.0
 10
167.3228230686
 20
259.7345628047
 10
167.4972591764
 20
260.906590993
 10
167.9156279248
 20
261.829164352
  0
LWPOLYLINE
  5
142
330
1F
100
AcDbEntity
  8
0
  6
Continuous
 62
     7
370
    15
100
AcDbPolyline
 90
        3
 70
   128
 43
0.0
 10
167.9156279248
 20
257.6399612573
 10
167.4972591764
 20
258.5625346163
 10
167.3228230686
 20
259.7345628047
  0
LWPOLYLINE
  5
143
330
1F
100
AcDbEntity
  8
0
  6
Continuous
 62
     7
370
    15
100
AcDbPolyline
 90
        3
 70
   128
 43
0.0
 10
167.4777310423
 20
259.7345628047
 10
167.6423997908
 20
258.6281610544
 10
167.9156279248
 20
257.9682758883
  0
LWPOLYLINE
  5
144
330
1F
100
AcDbEntity
  8
0
  6
Continuous
 62
     7
370
    15
100
AcDbPolyline
 90
        3
 70
   128
 43
0.0
 10
167.9156279248
 20
261.500849721
 10
167.6423997908
 20
260.8409645549
 10
167.4777310423
 20
259.7345628047
  0
ARC
  5
145
330
1F
100
AcDbEntity
  8
0
  6
Continuous
 62
     7
370
    15
100
AcDbCircle
 10
171.5356223476
 20
259.7345628047
 30
0.0
 40
4.215249294866116
100
AcDbArc
 50
149.1804765702
 51
210.8195234298
  0
LINE
  5
146
330
1F
100
AcDbEntity
  8
0
  6
Continuous
 62
     7
370
    15
100
AcDbLine
 10
202.0176279258
 20
315.5975156905
 30
0.0
 11
201.9904616267
 21
315.5401335795
 31
0.0
  0
LINE
  5
147
330
1F
100
AcDbEntity
  8
0
  6
Continuous
 62
     7
370
    15
100
AcDbLine
 10
167.9156279248
 20
275.7825628051
 30
0.0
 11
156.2808281843
 21
275.7825628051
 31
0.0
  0
LINE
  5
148
330
1F
100
AcDbEntity
  8
0
  6
Continuous
 62
     7
370
    15
100
AcDbLine
 10
201.6164276652
 20
275.7825628051
 30
0.0
 11
189.9816279248
 21
275.7825628051
 31
0.0
  0
ELLIPSE
  5
149
330
1F
100
AcDbEntity
  8
0
  6
Continuous
 62
     7
370
    15
100
AcDbEllipse
 10
178.9486279292
 20
268.0629999239
 30
0.0
 11
22.56631800358548
 21
-1.399185959191243
 31
0.0
210
0.0
220
0.0
230
1.0
 40
0.1650759016
 41
0.0102348916022156
 42
0.3584118533357398
  0
LINE
  5
14A
330
1F
100
AcDbEntity
  8
0
  6
Continuous
 62
     7
370
    15
100
AcDbLine
 10
200.161993695
 20
268.0594628047
 30
0.0
 11
189.9816279248
 21
268.0594628047
 31
0.0
  0
LINE
  5
14B
330
1F
100
AcDbEntity
  8
0
  6
Continuous
 62
     7
370
    15
100
AcDbLine
 10
167.9156279248
 20
268.0594628047
 30
0.0
 11
156.3811279292
 21
268.0594628047
 31
0.0
  0
LINE
  5
14C
330
1F
100
AcDbEntity
  8
0
  6
Continuous
 62
     7
370
    15
100
AcDbLine
 10
199.6461848315
 20
238.9724628047
 30
0.0
 11
189.9816279248
 21
238.9724628047
 31
0.0
  0
LINE
  5
14D
330
1F
100
AcDbEntity
  8
0
  6
Continuous
 62
     7
370
    15
100
AcDbLine
 10
167.9156279248
 20
238.9724628047
 30
0.0
 11
156.9227479292
 21
238.9724628047
 31
0.0
  0
LINE
  5
14E
330
1F
100
AcDbEntity
  8
0
  6
Continuous
 62
     7
370
    15
100
AcDbLine
 10
200.9745079292
 20
238.9724628047
 30
0.0
 11
199.6461848315
 21
238.9724628047
 31
0.0
  0
ARC
  5
14F
330
1F
100
AcDbEntity
  8
0
  6
Continuous
 62
     7
370
    15
100
AcDbCircle
 10
90.6846277845
 20
315.5975156728
 30
0.0
 40
65.19500014157553
100
AcDbArc
 50
0.0003674951
 51
8.5970630209
  0
ARC
  5
150
330
1F
100
AcDbEntity
  8
0
  6
Continuous
 62
     7
370
    15
100
AcDbCircle
 10
267.212628065
 20
315.5975156728
 30
0.0
 40
65.19500014157555
100
AcDbArc
 50
171.4029369791
 51
179.9996325049
  0
LWPOLYLINE
  5
151
330
1F
100
AcDbEntity
  8
0
  6
Continuous
 62
     8
370
     0
100
AcDbPolyline
 90
       23
 70
   128
 43
0.0
 10
145.548397966
 20
248.5009628047
 10
145.7202005241
 20
247.2293629094
 10
146.2216897769
 20
246.0607804751
 10
147.0122380477
 20
245.0898871008
 10
148.027799817
 20
244.3953387936
 10
149.1861003101
 20
244.0334037267
 10
150.3933009098
 20
244.0334037267
 10
151.5516014029
 20
244.3953387936
 10
152.5671631722
 20
245.0898871008
 10
153.357711443
 20
246.0607804751
 10
153.8592006958
 20
247.2293629094
 10
154.0310032539
 20
248.5009628047
 10
153.8592006958
 20
249.7725627
 10
153.357711443
 20
250.9411451342
 10
152.5671631722
 20
251.9120385085
 10
151.5516014029
 20
252.6065868157
 10
150.3933009098
 20
252.9685218826
 10
149.1861003101
 20
252.9685218826
 10
148.027799817
 20
252.6065868157
 10
147.0122380477
 20
251.9120385085
 10
146.2216897769
 20
250.9411451342
 10
145.7202005241
 20
249.7725627
 10
145.548397966
 20
248.5009628047
  0
ARC
  5
152
330
1F
100
AcDbEntity
  8
0
  6
Continuous
 62
     8
370
    15
100
AcDbCircle
 10
149.7381381527
 20
248.5009628047
 30
0.0
 40
5.019959378986758
100
AcDbArc
 50
272.54704688
 51
87.45295312
  0
ARC
  5
153
330
1F
100
AcDbEntity
  8
0
  6
Continuous
 62
     8
370
     0
100
AcDbCircle
 10
178.9486279248
 20
328.9415628062
 30
0.0
 40
13.17511183337004
100
AcDbArc
 50
180.0
 51
213.1321403097
  0
ARC
  5
154
330
1F
100
AcDbEntity
  8
0
  6
Continuous
 62
     8
370
     0
100
AcDbCircle
 10
178.9486279248
 20
328.9415628062
 30
0.0
 40
13.17511183337007
100
AcDbArc
 50
326.8678596903
 51
180.0
  0
ARC
  5
155
330
1F
100
AcDbEntity
  8
0
  6
Continuous
 62
     8
370
     0
100
AcDbCircle
 10
178.9486279248
 20
328.9415628062
 30
0.0
 40
23.99495394645935
100
AcDbArc
 50
180.0
 51
242.6254742346
  0
ARC
  5
156
330
1F
100
AcDbEntity
  8
0
  6
Continuous
 62
     8
370
     0
100
AcDbCircle
 10
178.9486279248
 20
328.9415628062
 30
0.0
 40
23.99495394645935
100
AcDbArc
 50
297.3745257654
 51
180.0
  0
LINE
  5
157
330
1F
100
AcDbEntity
  8
0
  6
Continuous
 62
     8
370
     0
100
AcDbLine
 10
167.9156279248
 20
301.4803756689
 30
0.0
 11
167.4726287101
 21
301.688930909
 31
0.0
  0
LINE
  5
158
330
1F
100
AcDbEntity
  8
0
  6
Continuous
 62
     8
370
     0
100
AcDbLine
 10
190.4246271395
 20
301.688930909
 30
0.0
 11
189.9816279248
 21
301.469208993
 31
0.0
  0
SPLINE
  5
159
330
1F
100
AcDbEntity
  8
0
  6
Continuous
 62
     8
370
     0
100
AcDbSpline
210
0.0
220
0.0
230
1.0
 70
     8
 71
     3
 72
    16
 73
    12
 74
     0
 42
0.00000001
 43
0.00000001
 40
0.0
 40
0.0
 40
0.0
 40
0.0
 40
0.1036665090622323
 40
0.1854733428942121
 40
0.2454236206767319
 40
0.3742566143602681
 40
0.4943707195643782
 40
0.5943182073103557
 40
0.71186924125578
 40
0.8470835714063848
 40
1.0
 40
1.0
 40
1.0
 40
1.0
 10
197.8034270396093
 20
307.0202323451447
 30
0.0
 10
197.7032852298234
 20
306.9010530062656
 30
0.0
 10
197.5241180485178
 20
306.6878251221032
 30
0.0
 10
197.2776098846404
 20
306.4077351485153
 30
0.0
 10
196.9992879264599
 20
306.1025821689046
 30
0.0
 10
196.6681839218504
 20
305.7658502943018
 30
0.0
 10
196.2748447289191
 20
305.4020958462478
 30
0.0
 10
195.8745930370608
 20
305.0726212075035
 30
0.0
 10
195.4384724748936
 20
304.7452242366804
 30
0.0
 10
194.9179473302948
 20
304.3817018609604
 30
0.0
 10
194.5292104538609
 20
304.1327803576621
 30
0.0
 10
194.322900460905
 20
304.0006730205266
 30
0.0
  0
SPLINE
  5
15A
330
1F
100
AcDbEntity
  8
0
  6
Continuous
 62
     8
370
     0
100
AcDbSpline
210
0.0
220
0.0
230
1.0
 70
     8
 71
     3
 72
    14
 73
    10
 74
     0
 42
0.00000001
 43
0.00000001
 40
0.0
 40
0.0
 40
0.0
 40
0.0
 40
0.1319268462748005
 40
0.2467380459343435
 40
0.3444335378349174
 40
0.4250133478416464
 40
0.4884776568461972
 40
0.6821455681505075
 40
1.0
 40
1.0
 40
1.0
 40
1.0
 10
194.322900460905
 20
304.0006730205266
 30
0.0
 10
194.2073683779344
 20
303.9283156055113
 30
0.0
 10
193.991292869425
 20
303.7929881290053
 30
0.0
 10
193.6834423328015
 20
303.6037067855682
 30
0.0
 10
193.4183883950649
 20
303.4422962112682
 30
0.0
 10
193.1974795071665
 20
303.3087634503227
 30
0.0
 10
192.8865067286023
 20
303.1212983516002
 30
0.0
 10
192.3518531480169
 20
302.7972677674325
 30
0.0
 10
191.8589901147278
 20
302.5079051925247
 30
0.0
 10
191.5527303754956
 20
302.3280984292879
 30
0.0
  0
SPLINE
  5
15B
330
1F
100
AcDbEntity
  8
0
  6
Continuous
 62
     8
370
     0
100
AcDbSpline
210
0.0
220
0.0
230
1.0
 70
     8
 71
     3
 72
     8
 73
     4
 74
     0
 42
0.00000001
 43
0.00000001
 40
0.0
 40
0.0
 40
0.0
 40
0.0
 40
1.0
 40
1.0
 40
1.0
 40
1.0
 10
190.4246271373367
 20
301.6889309090348
 30
0.0
 10
190.8103898428467
 20
301.9004700400265
 30
0.0
 10
191.1867428730692
 20
302.1148962661332
 30
0.0
 10
191.5526991552265
 20
302.3280984292876
 30
0.0
  0
SPLINE
  5
15C
330
1F
100
AcDbEntity
  8
0
  6
Continuous
 62
     8
370
     0
100
AcDbSpline
210
0.0
220
0.0
230
1.0
 70
     8
 71
     3
 72
    10
 73
     6
 74
     0
 42
0.00000001
 43
0.00000001
 40
0.0
 40
0.0
 40
0.0
 40
0.0
 40
0.284472207658353
 40
0.6178045841992507
 40
0.9999999999999999
 40
0.9999999999999999
 40
0.9999999999999999
 40
0.9999999999999999
 10
167.4726287100574
 20
301.6889309090348
 30
0.0
 10
167.3638898802213
 20
301.7489812310005
 30
0.0
 10
167.1277355363358
 20
301.8793959541062
 30
0.0
 10
166.7510143960662
 20
302.0926486290826
 30
0.0
 10
166.4860532913817
 20
302.2461215420486
 30
0.0
 10
166.3445257076039
 20
302.3280982932146
 30
0.0
  0
SPLINE
  5
15D
330
1F
100
AcDbEntity
  8
0
  6
Continuous
 62
     8
370
     0
100
AcDbSpline
210
0.0
220
0.0
230
1.0
 70
     8
 71
     3
 72
    14
 73
    10
 74
     0
 42
0.00000001
 43
0.00000001
 40
0.0
 40
0.0
 40
0.0
 40
0.0
 40
0.1420404257341144
 40
0.2642153313241587
 40
0.3665245764962343
 40
0.4489681148234763
 40
0.5115460674885315
 40
0.702272042854472
 40
0.9999999999999999
 40
0.9999999999999999
 40
0.9999999999999999
 40
0.9999999999999999
 10
166.3445257076039
 20
302.3280982932146
 30
0.0
 10
166.2070452969037
 20
302.4084862727842
 30
0.0
 10
165.9513122400926
 20
302.5580193127386
 30
0.0
 10
165.6025382863399
 20
302.7651185709222
 30
0.0
 10
165.3135766417998
 20
302.9382217617413
 30
0.0
 10
165.0829896874016
 20
303.0773495752944
 30
0.0
 10
164.772269020085
 20
303.2653139645432
 30
0.0
 10
164.2670022249228
 20
303.5691944038655
 30
0.0
 10
163.836661641417
 20
303.8372715095292
 30
0.0
 10
163.5743555890423
 20
304.000672894418
 30
0.0
  0
SPLINE
  5
15E
330
1F
100
AcDbEntity
  8
0
  6
Continuous
 62
     8
370
     0
100
AcDbSpline
210
0.0
220
0.0
230
1.0
 70
     8
 71
     3
 72
    17
 73
    13
 74
     0
 42
0.00000001
 43
0.00000001
 40
0.0
 40
0.0
 40
0.0
 40
0.0
 40
0.077461705560419
 40
0.1459141357122374
 40
0.2053588834139638
 40
0.2557984397990317
 40
0.3845362588792297
 40
0.5056491445340312
 40
0.6257324929360824
 40
0.7545880759908193
 40
0.8526809920680275
 40
1.0
 40
1.0
 40
1.0
 40
1.0
 10
163.5743555890465
 20
304.0006728944153
 30
0.0
 10
163.469252082995
 20
304.0672774363607
 30
0.0
 10
163.2712692586448
 20
304.192740000116
 30
0.0
 10
162.9989490605527
 20
304.3712224492454
 30
0.0
 10
162.7661803903372
 20
304.5279014232289
 30
0.0
 10
162.4599129856734
 20
304.7408478879483
 30
0.0
 10
162.0860960909882
 20
305.0189354281719
 30
0.0
 10
161.6465482005207
 20
305.3806251261977
 30
0.0
 10
161.2289735125581
 20
305.765620317204
 30
0.0
 10
160.8573487926816
 20
306.1442439038665
 30
0.0
 10
160.4746450060752
 20
306.5688123241509
 30
0.0
 10
160.2366784294948
 20
306.8508982177697
 30
0.0
 10
160.0938288099242
 20
307.0202323451447
 30
0.0
  0
LINE
  5
15F
330
1F
100
AcDbEntity
  8
0
  6
Continuous
 62
     8
370
     0
100
AcDbLine
 10
167.9156279248
 20
243.3506408542
 30
0.0
 11
167.7409045734
 21
243.4859628047
 31
0.0
  0
LINE
  5
160
330
1F
100
AcDbEntity
  8
0
  6
Continuous
 62
     8
370
     0
100
AcDbLine
 10
167.7856241687
 20
253.5159628047
 30
0.0
 11
167.9156279248
 21
253.626113475
 31
0.0
  0
SPLINE
  5
161
330
1F
100
AcDbEntity
  8
0
  6
Continuous
 62
     8
370
     0
100
AcDbSpline
210
0.0
220
0.0
230
1.0
 70
     8
 71
     3
 72
    16
 73
    12
 74
     0
 42
0.00000001
 43
0.00000001
 40
0.0
 40
0.0
 40
0.0
 40
0.0
 40
0.1456446914930266
 40
0.273042694291089
 40
0.3822728532919588
 40
0.4734612287852312
 40
0.6899564737939365
 40
0.7481680001955104
 40
0.8102478408626456
 40
0.9051103832177924
 40
1.0
 40
1.0
 40
1.0
 40
1.0
 10
156.0448624323486
 20
315.0546283419348
 30
0.0
 10
156.0300900380512
 20
315.1050063419158
 30
0.0
 10
156.0023959676479
 20
315.1994508747499
 30
0.0
 10
155.9701076565003
 20
315.3231285971596
 30
0.0
 10
155.9458969231658
 20
315.4214153192615
 30
0.0
 10
155.9193002996235
 20
315.5314956392766
 30
0.0
 10
155.9015062440955
 20
315.5950286494949
 30
0.0
 10
155.890432833235
 20
315.6124644609425
 30
0.0
 10
155.8848970721415
 20
315.6124916684267
 30
0.0
 10
155.8805367555387
 20
315.6065404701851
 30
0.0
 10
155.8799308964637
 20
315.6005242365498
 30
0.0
 10
155.8796279237033
 20
315.5975156905247
 30
0.0
  0
SPLINE
  5
162
330
1F
100
AcDbEntity
  8
0
  6
Continuous
 62
     8
370
     0
100
AcDbSpline
210
0.0
220
0.0
230
1.0
 70
     8
 71
     3
 72
    17
 73
    13
 74
     0
 42
0.00000001
 43
0.00000001
 40
0.0
 40
0.0
 40
0.0
 40
0.0
 40
0.0563538146638356
 40
0.1149636980182025
 40
0.175940939467526
 40
0.2393843707904123
 40
0.3053817445039637
 40
0.374011016290931
 40
0.4846732050839238
 40
0.6229912083000081
 40
0.8008359370204248
 40
1.0
 40
1.0
 40
1.0
 40
1.0
 10
156.6493243986708
 20
313.4050301171548
 30
0.0
 10
156.6360354855406
 20
313.4487861574465
 30
0.0
 10
156.6089256509144
 20
313.5380499674047
 30
0.0
 10
156.5669205104448
 20
313.6649118160801
 30
0.0
 10
156.5233133317084
 20
313.7899597715323
 30
0.0
 10
156.4783219038933
 20
313.9124449590983
 30
0.0
 10
156.4322659229694
 20
314.0325496780122
 30
0.0
 10
156.3765508952563
 20
314.1728680162037
 30
0.0
 10
156.307038061867
 20
314.3402979408918
 30
0.0
 10
156.2207970072039
 20
314.5515392533784
 30
0.0
 10
156.1274910917423
 20
314.7954292404756
 30
0.0
 10
156.0734244504822
 20
314.9650317117777
 30
0.0
 10
156.0448624323486
 20
315.0546283419347
 30
0.0
  0
SPLINE
  5
163
330
1F
100
AcDbEntity
  8
0
  6
Continuous
 62
     8
370
     0
100
AcDbSpline
210
0.0
220
0.0
230
1.0
 70
     8
 71
     3
 72
     8
 73
     4
 74
     0
 42
0.00000001
 43
0.00000001
 40
0.0
 40
0.0
 40
0.0
 40
0.0
 40
1.0
 40
1.0
 40
1.0
 40
1.0
 10
156.6493243976367
 20
313.4050301171548
 30
0.0
 10
156.7152998726596
 20
313.182926970992
 30
0.0
 10
156.7903944283297
 20
312.9351200014864
 30
0.0
 10
156.875014527784
 20
312.671944843496
 30
0.0
  0
SPLINE
  5
164
330
1F
100
AcDbEntity
  8
0
  6
Continuous
 62
     8
370
     0
100
AcDbSpline
210
0.0
220
0.0
230
1.0
 70
     8
 71
     3
 72
    19
 73
    15
 74
     0
 42
0.00000001
 43
0.00000001
 40
0.0
 40
0.0
 40
0.0
 40
0.0
 40
0.0408220227067237
 40
0.0900089647237836
 40
0.14756081901235
 40
0.2333603357917993
 40
0.2859025352178575
 40
0.4160332044162402
 40
0.5400683301081634
 40
0.777537329946065
 40
0.8916957581795008
 40
0.9467983377205926
 40
0.9736638793205787
 40
1.0
 40
1.0
 40
1.0
 40
1.0
 10
160.0938288099242
 20
307.0202323451447
 30
0.0
 10
160.034249577834
 20
307.0922121038225
 30
0.0
 10
159.9028826184354
 20
307.2509211321869
 30
0.0
 10
159.693005564381
 20
307.5104592201122
 30
0.0
 10
159.4258297748003
 20
307.8486778179764
 30
0.0
 10
159.1641385437864
 20
308.1927333575306
 30
0.0
 10
158.8192535800298
 20
308.6650640941001
 30
0.0
 10
158.4475747912817
 20
309.2099887460176
 30
0.0
 10
157.9057282248886
 20
310.1074766278826
 30
0.0
 10
157.4626027005188
 20
311.0368677221662
 30
0.0
 10
157.144785804151
 20
311.8739613627208
 30
0.0
 10
157.0034898148827
 20
312.2813349046431
 30
0.0
 10
156.9283260378431
 20
312.5066226919484
 30
0.0
 10
156.8925475239179
 20
312.617204266475
 30
0.0
 10
156.8748362867104
 20
312.671944843496
 30
0.0
  0
SPLINE
  5
165
330
1F
100
AcDbEntity
  8
0
  6
Continuous
 62
     8
370
     0
100
AcDbSpline
210
0.0
220
0.0
230
1.0
 70
     8
 71
     3
 72
    20
 73
    16
 74
     0
 42
0.00000001
 43
0.00000001
 40
0.0
 40
0.0
 40
0.0
 40
0.0
 40
0.0437151794859229
 40
0.100224959310661
 40
0.1560037281490508
 40
0.2117860088060833
 40
0.2941874687861321
 40
0.3741360285398897
 40
0.4516708032489377
 40
0.5683446985452255
 40
0.7084165334618516
 40
0.7654219890233563
 40
0.8487956302218171
 40
0.9374756594550776
 40
1.0
 40
1.0
 40
1.0
 40
1.0
 10
201.2479314508627
 20
313.4050301171548
 30
0.0
 10
201.2182029549885
 20
313.3053992670282
 30
0.0
 10
201.1500449987729
 20
313.0769775147343
 30
0.0
 10
201.0373553543254
 20
312.7148685247298
 30
0.0
 10
200.9087939253643
 20
312.3244606488952
 30
0.0
 10
200.7516840829242
 20
311.87296389093
 30
0.0
 10
200.5611757013771
 20
311.3706461370791
 30
0.0
 10
200.3308432039759
 20
310.833212852867
 30
0.0
 10
200.0442227116752
 20
310.234596573751
 30
0.0
 10
199.6559517951808
 20
309.5365610294177
 30
0.0
 10
199.2466745311413
 20
308.906091485907
 30
0.0
 10
198.8520979242291
 20
308.3527228804422
 30
0.0
 10
198.5142722471606
 20
307.9023812884062
 30
0.0
 10
198.1510881206206
 20
307.441584482889
 30
0.0
 10
197.9051320458787
 20
307.1434949826717
 30
0.0
 10
197.8034270396093
 20
307.0202323451447
 30
0.0
  0
SPLINE
  5
166
330
1F
100
AcDbEntity
  8
0
  6
Continuous
 62
     8
370
     0
100
AcDbSpline
210
0.0
220
0.0
230
1.0
 70
     8
 71
     3
 72
    16
 73
    12
 74
     0
 42
0.00000001
 43
0.00000001
 40
0.0
 40
0.0
 40
0.0
 40
0.0
 40
0.1351377619873036
 40
0.2608071674629263
 40
0.3770254609824765
 40
0.515316398795807
 40
0.6260111288965772
 40
0.7279499300926535
 40
0.8240596235261833
 40
0.9146282584350895
 40
0.9999999999999999
 40
0.9999999999999999
 40
0.9999999999999999
 40
0.9999999999999999
 10
201.8523934447248
 20
315.0546284333059
 30
0.0
 10
201.8334069832352
 20
314.99401559092
 30
0.0
 10
201.7967643367356
 20
314.8770367132024
 30
0.0
 10
201.7339328605169
 20
314.702352762868
 30
0.0
 10
201.6641612740372
 20
314.5211210496686
 30
0.0
 10
201.5901878923098
 20
314.3403138493641
 30
0.0
 10
201.5134377298844
 20
314.1552801934873
 30
0.0
 10
201.4427916037604
 20
313.9763082363411
 30
0.0
 10
201.374787206192
 20
313.7932826554961
 30
0.0
 10
201.3097134896119
 20
313.6061540229731
 30
0.0
 10
201.2681158965173
 20
313.4707381227342
 30
0.0
 10
201.2479314508627
 20
313.4050301171548
 30
0.0
  0
SPLINE
  5
167
330
1F
100
AcDbEntity
  8
0
  6
Continuous
 62
     8
370
     0
100
AcDbSpline
210
0.0
220
0.0
230
1.0
 70
     8
 71
     3
 72
     9
 73
     5
 74
     0
 42
0.00000001
 43
0.00000001
 40
0.0
 40
0.0
 40
0.0
 40
0.0
 40
0.3252096907379407
 40
1.0
 40
1.0
 40
1.0
 40
1.0
 10
201.9904616266601
 20
315.5401335794755
 30
0.0
 10
201.9854188126768
 20
315.5345461589411
 30
0.0
 10
201.9699124666885
 20
315.5173651809643
 30
0.0
 10
201.8997430721596
 20
315.2410698470951
 30
0.0
 10
201.8523934447248
 20
315.0546284333059
 30
0.0
  0
ENDSEC
  0
SECTION
  2
OBJECTS
  0
DICTIONARY
  5
C
330
0
100
AcDbDictionary
281
     1
  3
ACAD_GROUP
350
D
  3
ACAD_LAYOUT
350
1A
  3
ACAD_MATERIAL
350
3B
  3
ACAD_MLEADERSTYLE
350
169
  3
ACAD_MLINESTYLE
350
17
  3
ACAD_PLOTSETTINGS
350
19
  3
ACAD_PLOTSTYLENAME
350
E
  3
ACAD_TABLESTYLE
350
168
  3
ACAD_VISUALSTYLE
350
2A
  0
DICTIONARY
  5
D
102
{ACAD_REACTORS
330
C
102
}
330
C
100
AcDbDictionary
281
     1
  0
DICTIONARY
  5
1A
102
{ACAD_REACTORS
330
C
102
}
330
C
100
AcDbDictionary
281
     1
  3
Layout1
350
1E
  3
Layout2
350
26
  3
Model
350
22
  0
DICTIONARY
  5
3B
102
{ACAD_REACTORS
330
C
102
}
330
C
100
AcDbDictionary
281
     1
  3
ByBlock
350
3D
  3
ByLayer
350
3C
  3
Global
350
3E
  0
DICTIONARY
  5
169
102
{ACAD_REACTORS
330
C
102
}
330
C
100
AcDbDictionary
281
     1
  0
DICTIONARY
  5
17
102
{ACAD_REACTORS
330
C
102
}
330
C
100
AcDbDictionary
281
     1
  3
Standard
350
18
  0
DICTIONARY
  5
19
102
{ACAD_REACTORS
330
C
102
}
330
C
100
AcDbDictionary
281
     1
  0
ACDBDICTIONARYWDFLT
  5
E
102
{ACAD_REACTORS
330
C
102
}
330
C
100
AcDbDictionary
281
     1
  3
Normal
350
F
100
AcDbDictionaryWithDefault
340
F
  0
DICTIONARY
  5
168
102
{ACAD_REACTORS
330
C
102
}
330
C
100
AcDbDictionary
281
     1
  0
DICTIONARY
  5
2A
102
{ACAD_REACTORS
330
C
102
}
330
C
100
AcDbDictionary
281
     1
  3
2dWireframe
350
2F
  3
3D Hidden
350
31
  3
3dWireframe
350
30
  3
Basic
350
32
  3
Brighten
350
36
  3
ColorChange
350
3A
  3
Conceptual
350
34
  3
Dim
350
35
  3
Facepattern
350
39
  3
Flat
350
2B
  3
FlatWithEdges
350
2C
  3
Gouraud
350
2D
  3
GouraudWithEdges
350
2E
  3
Linepattern
350
38
  3
Realistic
350
33
  3
Thicken
350
37
  0
LAYOUT
  5
1E
102
{ACAD_REACTORS
330
1A
102
}
330
1A
100
AcDbPlotSettings
  1

  2
none_device
  4

  6

 40
0.0
 41
0.0
 42
0.0
 43
0.0
 44
0.0
 45
0.0
 46
0.0
 47
0.0
 48
0.0
 49
0.0
140
0.0
141
0.0
142
1.0
143
1.0
 70
   688
 72
     0
 73
     0
 74
     5
  7

 75
    16
 76
     0
 77
     2
 78
   300
147
1.0
148
0.0
149
0.0
100
AcDbLayout
  1
Layout1
 70
     1
 71
     1
 10
0.0
 20
0.0
 11
420.0
 21
297.0
 12
0.0
 22
0.0
 32
0.0
 14
1.0000000000E+20
 24
1.0000000000E+20
 34
1.0000000000E+20
 15
-1.0000000000E+20
 25
-1.0000000000E+20
 35
-1.0000000000E+20
146
0.0
 13
0.0
 23
0.0
 33
0.0
 16
1.0
 26
0.0
 36
0.0
 17
0.0
 27
1.0
 37
0.0
 76
     0
330
1B
  0
LAYOUT
  5
26
102
{ACAD_REACTORS
330
1A
102
}
330
1A
100
AcDbPlotSettings
  1

  2
none_device
  4

  6

 40
0.0
 41
0.0
 42
0.0
 43
0.0
 44
0.0
 45
0.0
 46
0.0
 47
0.0
 48
0.0
 49
0.0
140
0.0
141
0.0
142
1.0
143
1.0
 70
   688
 72
     0
 73
     0
 74
     5
  7

 75
    16
 76
     0
 77
     2
 78
   300
147
1.0
148
0.0
149
0.0
100
AcDbLayout
  1
Layout2
 70
     1
 71
     2
 10
0.0
 20
0.0
 11
0.0
 21
0.0
 12
0.0
 22
0.0
 32
0.0
 14
0.0
 24
0.0
 34
0.0
 15
0.0
 25
0.0
 35
0.0
146
0.0
 13
0.0
 23
0.0
 33
0.0
 16
1.0
 26
0.0
 36
0.0
 17
0.0
 27
1.0
 37
0.0
 76
     0
330
23
  0
LAYOUT
  5
22
102
{ACAD_REACTORS
330
1A
102
}
330
1A
100
AcDbPlotSettings
  1

  2
none_device
  4

  6

 40
0.0
 41
0.0
 42
0.0
 43
0.0
 44
0.0
 45
0.0
 46
0.0
 47
0.0
 48
0.0
 49
0.0
140
0.0
141
0.0
142
1.0
143
1.0
 70
  1712
 72
     0
 73
     0
 74
     0
  7

 75
     0
 76
     0
 77
     2
 78
   300
147
1.0
148
0.0
149
0.0
100
AcDbLayout
  1
Model
 70
     1
 71
     0
 10
0.0
 20
0.0
 11
594.0
 21
841.0
 12
0.0
 22
0.0
 32
0.0
 14
0.0
 24
0.0
 34
0.0
 15
594.0
 25
841.0
 35
0.0
146
0.0
 13
0.0
 23
0.0
 33
0.0
 16
1.0
 26
0.0
 36
0.0
 17
0.0
 27
1.0
 37
0.0
 76
     0
330
1F
331
29
  0
MATERIAL
  5
3D
102
{ACAD_REACTORS
330
3B
102
}
330
3B
100
AcDbMaterial
  1
ByBlock
 72
     1
 94
      127
  0
MATERIAL
  5
3C
102
{ACAD_REACTORS
330
3B
102
}
330
3B
100
AcDbMaterial
  1
ByLayer
 72
     1
 94
      127
  0
MATERIAL
  5
3E
102
{ACAD_REACTORS
330
3B
102
}
330
3B
100
AcDbMaterial
  1
Global
 72
     1
 94
      127
  0
MLINESTYLE
  5
18
102
{ACAD_REACTORS
330
17
102
}
330
17
100
AcDbMlineStyle
  2
Standard
 70
     0
  3

 62
   256
 51
90.0
 52
90.0
 71
     2
 49
0.5
 62
   256
  6
BYLAYER
 49
-0.5
 62
   256
  6
BYLAYER
  0
ACDBPLACEHOLDER
  5
F
102
{ACAD_REACTORS
330
E
102
}
330
E
  0
VISUALSTYLE
  5
2F
102
{ACAD_REACTORS
330
2A
102
}
330
2A
100
AcDbVisualStyle
  2
2dWireframe
 70
     4
177
     2
291
     0
 71
     0
176
     1
 72
     2
176
     1
 73
     0
176
     1
 90
        0
176
     1
 40
-0.6
176
     1
 41
-30.0
176
     1
 62
     5
 63
     7
421
 16777215
176
     1
 74
     1
176
     1
 91
        4
176
     1
 64
     7
176
     1
 65
   257
176
     1
 75
     1
176
     1
175
     1
176
     1
 42
1.0
176
     1
 92
        0
176
     1
 66
   257
176
     1
 43
1.0
176
     1
 76
     1
176
     1
 77
     6
176
     1
 78
     2
176
     1
 67
     7
176
     1
 79
     5
176
     1
170
     0
176
     1
171
     0
176
     1
290
     0
176
     1
 93
        1
176
     1
 44
0.0
176
     1
173
     0
176
     1
  0
VISUALSTYLE
  5
31
102
{ACAD_REACTORS
330
2A
102
}
330
2A
100
AcDbVisualStyle
  2
3D Hidden
 70
     6
177
     2
291
     0
 71
     1
176
     1
 72
     2
176
     1
 73
     2
176
     1
 90
        0
176
     1
 40
-0.6
176
     1
 41
-30.0
176
     1
 62
     5
 63
     7
421
 16777215
176
     1
 74
     2
176
     1
 91
        2
176
     1
 64
     7
176
     1
 65
   257
176
     1
 75
     2
176
     1
175
     1
176
     1
 42
40.0
176
     1
 92
        0
176
     1
 66
   257
176
     1
 43
1.0
176
     1
 76
     1
176
     1
 77
     6
176
     1
 78
     2
176
     1
 67
     7
176
     1
 79
     3
176
     1
170
     0
176
     1
171
     0
176
     1
290
     0
176
     1
 93
        1
176
     1
 44
0.0
176
     1
173
     0
176
     1
  0
VISUALSTYLE
  5
30
102
{ACAD_REACTORS
330
2A
102
}
330
2A
100
AcDbVisualStyle
  2
3dWireframe
 70
     5
177
     2
291
     0
 71
     0
176
     1
 72
     2
176
     1
 73
     0
176
     1
 90
        0
176
     1
 40
-0.6
176
     1
 41
-30.0
176
     1
 62
     5
 63
     7
421
 16777215
176
     1
 74
     1
176
     1
 91
        4
176
     1
 64
     7
176
     1
 65
   257
176
     1
 75
     1
176
     1
175
     1
176
     1
 42
1.0
176
     1
 92
        0
176
     1
 66
   257
176
     1
 43
1.0
176
     1
 76
     1
176
     1
 77
     6
176
     1
 78
     2
176
     1
 67
     7
176
     1
 79
     5
176
     1
170
     0
176
     1
171
     0
176
     1
290
     0
176
     1
 93
        1
176
     1
 44
0.0
176
     1
173
     0
176
     1
  0
VISUALSTYLE
  5
32
102
{ACAD_REACTORS
330
2A
102
}
330
2A
100
AcDbVisualStyle
  2
Basic
 70
     7
177
     2
291
     1
 71
     1
176
     1
 72
     0
176
     1
 73
     1
176
     1
 90
        0
176
     1
 40
-0.6
176
     1
 41
-30.0
176
     1
 62
     5
 63
     7
421
 16777215
176
     1
 74
     0
176
     1
 91
        4
176
     1
 64
     7
176
     1
 65
   257
176
     1
 75
     1
176
     1
175
     1
176
     1
 42
1.0
176
     1
 92
        8
176
     1
 66
     7
176
     1
 43
1.0
176
     1
 76
     1
176
     1
 77
     6
176
     1
 78
     2
176
     1
 67
     7
176
     1
 79
     5
176
     1
170
     0
176
     1
171
     0
176
     1
290
     0
176
     1
 93
        1
176
     1
 44
0.0
176
     1
173
     0
176
     1
  0
VISUALSTYLE
  5
36
102
{ACAD_REACTORS
330
2A
102
}
330
2A
100
AcDbVisualStyle
  2
Brighten
 70
    12
177
     2
291
     1
 71
     2
176
     1
 72
     2
176
     1
 73
     0
176
     1
 90
        0
176
     1
 40
-0.6
176
     1
 41
-30.0
176
     1
 62
     5
 63
     7
421
 16777215
176
     1
 74
     1
176
     1
 91
        4
176
     1
 64
     7
176
     1
 65
   257
176
     1
 75
     1
176
     1
175
     1
176
     1
 42
1.0
176
     1
 92
        8
176
     1
 66
     7
176
     1
 43
1.0
176
     1
 76
     1
176
     1
 77
     6
176
     1
 78
     2
176
     1
 67
     7
176
     1
 79
     5
176
     1
170
     0
176
     1
171
     0
176
     1
290
     0
176
     1
 93
        1
176
     1
 44
50.0
176
     1
173
     0
176
     1
  0
VISUALSTYLE
  5
3A
102
{ACAD_REACTORS
330
2A
102
}
330
2A
100
AcDbVisualStyle
  2
ColorChange
 70
    16
177
     2
291
     1
 71
     2
176
     1
 72
     2
176
     1
 73
     3
176
     1
 90
        0
176
     1
 40
-0.6
176
     1
 41
-30.0
176
     1
 62
     5
 63
     8
421
  8421504
176
     1
 74
     1
176
     1
 91
        4
176
     1
 64
     7
176
     1
 65
   257
176
     1
 75
     1
176
     1
175
     1
176
     1
 42
1.0
176
     1
 92
        8
176
     1
 66
     8
424
  8421504
176
     1
 43
1.0
176
     1
 76
     1
176
     1
 77
     6
176
     1
 78
     2
176
     1
 67
     7
176
     1
 79
     5
176
     1
170
     0
176
     1
171
     0
176
     1
290
     0
176
     1
 93
        1
176
     1
 44
0.0
176
     1
173
     0
176
     1
  0
VISUALSTYLE
  5
34
102
{ACAD_REACTORS
330
2A
102
}
330
2A
100
AcDbVisualStyle
  2
Conceptual
 70
     9
177
     2
291
     0
 71
     3
176
     1
 72
     2
176
     1
 73
     0
176
     1
 90
        0
176
     1
 40
-0.6
176
     1
 41
-30.0
176
     1
 62
     5
 63
     7
421
 16777215
176
     1
 74
     2
176
     1
 91
        2
176
     1
 64
     7
176
     1
 65
   257
176
     1
 75
     1
176
     1
175
     1
176
     1
 42
40.0
176
     1
 92
        8
176
     1
 66
     7
176
     1
 43
1.0
176
     1
 76
     1
176
     1
 77
     6
176
     1
 78
     2
176
     1
 67
     7
176
     1
 79
     3
176
     1
170
     0
176
     1
171
     0
176
     1
290
     0
176
     1
 93
        1
176
     1
 44
0.0
176
     1
173
     0
176
     1
  0
VISUALSTYLE
  5
35
102
{ACAD_REACTORS
330
2A
102
}
330
2A
100
AcDbVisualStyle
  2
Dim
 70
    11
177
     2
291
     1
 71
     2
176
     1
 72
     2
176
     1
 73
     0
176
     1
 90
        0
176
     1
 40
-0.6
176
     1
 41
-30.0
176
     1
 62
     5
 63
     7
421
 16777215
176
     1
 74
     1
176
     1
 91
        4
176
     1
 64
     7
176
     1
 65
   257
176
     1
 75
     1
176
     1
175
     1
176
     1
 42
1.0
176
     1
 92
        8
176
     1
 66
     7
176
     1
 43
1.0
176
     1
 76
     1
176
     1
 77
     6
176
     1
 78
     2
176
     1
 67
     7
176
     1
 79
     5
176
     1
170
     0
176
     1
171
     0
176
     1
290
     0
176
     1
 93
        1
176
     1
 44
-50.0
176
     1
173
     0
176
     1
  0
VISUALSTYLE
  5
39
102
{ACAD_REACTORS
330
2A
102
}
330
2A
100
AcDbVisualStyle
  2
Facepattern
 70
    15
177
     2
291
     1
 71
     2
176
     1
 72
     2
176
     1
 73
     0
176
     1
 90
        0
176
     1
 40
-0.6
176
     1
 41
-30.0
176
     1
 62
     5
 63
     7
421
 16777215
176
     1
 74
     1
176
     1
 91
        4
176
     1
 64
     7
176
     1
 65
   257
176
     1
 75
     1
176
     1
175
     1
176
     1
 42
1.0
176
     1
 92
        8
176
     1
 66
     7
176
     1
 43
1.0
176
     1
 76
     1
176
     1
 77
     6
176
     1
 78
     2
176
     1
 67
     7
176
     1
 79
     5
176
     1
170
     0
176
     1
171
     0
176
     1
290
     0
176
     1
 93
        1
176
     1
 44
0.0
176
     1
173
     0
176
     1
  0
VISUALSTYLE
  5
2B
102
{ACAD_REACTORS
330
2A
102
}
330
2A
100
AcDbVisualStyle
  2
Flat
 70
     0
177
     2
291
     1
 71
     2
176
     1
 72
     1
176
     1
 73
     1
176
     1
 90
        2
176
     1
 40
-0.6
176
     1
 41
30.0
176
     1
 62
     5
 63
     7
421
 16777215
176
     1
 74
     0
176
     1
 91
        4
176
     1
 64
     7
176
     1
 65
   257
176
     1
 75
     1
176
     1
175
     1
176
     1
 42
1.0
176
     1
 92
        8
176
     1
 66
     7
176
     1
 43
1.0
176
     1
 76
     1
176
     1
 77
     6
176
     1
 78
     2
176
     1
 67
     7
176
     1
 79
     5
176
     1
170
     0
176
     1
171
     0
176
     1
290
     0
176
     1
 93
       13
176
     1
 44
0.0
176
     1
173
     0
176
     1
  0
VISUALSTYLE
  5
2C
102
{ACAD_REACTORS
330
2A
102
}
330
2A
100
AcDbVisualStyle
  2
FlatWithEdges
 70
     1
177
     2
291
     1
 71
     2
176
     1
 72
     1
176
     1
 73
     1
176
     1
 90
        2
176
     1
 40
-0.6
176
     1
 41
30.0
176
     1
 62
     5
 63
     7
421
 16777215
176
     1
 74
     1
176
     1
 91
        4
176
     1
 64
     7
176
     1
 65
   257
176
     1
 75
     1
176
     1
175
     1
176
     1
 42
1.0
176
     1
 92
        0
176
     1
 66
   257
176
     1
 43
1.0
176
     1
 76
     1
176
     1
 77
     6
176
     1
 78
     2
176
     1
 67
     7
176
     1
 79
     5
176
     1
170
     0
176
     1
171
     0
176
     1
290
     0
176
     1
 93
       13
176
     1
 44
0.0
176
     1
173
     0
176
     1
  0
VISUALSTYLE
  5
2D
102
{ACAD_REACTORS
330
2A
102
}
330
2A
100
AcDbVisualStyle
  2
Gouraud
 70
     2
177
     2
291
     1
 71
     2
176
     1
 72
     2
176
     1
 73
     1
176
     1
 90
        2
176
     1
 40
-0.6
176
     1
 41
30.0
176
     1
 62
     5
 63
     7
421
 16777215
176
     1
 74
     0
176
     1
 91
        4
176
     1
 64
     7
176
     1
 65
   257
176
     1
 75
     1
176
     1
175
     1
176
     1
 42
1.0
176
     1
 92
        0
176
     1
 66
     7
176
     1
 43
1.0
176
     1
 76
     1
176
     1
 77
     6
176
     1
 78
     2
176
     1
 67
     7
176
     1
 79
     5
176
     1
170
     0
176
     1
171
     0
176
     1
290
     0
176
     1
 93
       13
176
     1
 44
0.0
176
     1
173
     0
176
     1
  0
VISUALSTYLE
  5
2E
102
{ACAD_REACTORS
330
2A
102
}
330
2A
100
AcDbVisualStyle
  2
GouraudWithEdges
 70
     3
177
     2
291
     1
 71
     2
176
     1
 72
     2
176
     1
 73
     1
176
     1
 90
        2
176
     1
 40
-0.6
176
     1
 41
30.0
176
     1
 62
     5
 63
     7
421
 16777215
176
     1
 74
     1
176
     1
 91
        4
176
     1
 64
     7
176
     1
 65
   257
176
     1
 75
     1
176
     1
175
     1
176
     1
 42
1.0
176
     1
 92
        0
176
     1
 66
   257
176
     1
 43
1.0
176
     1
 76
     1
176
     1
 77
     6
176
     1
 78
     2
176
     1
 67
     7
176
     1
 79
     5
176
     1
170
     0
176
     1
171
     0
176
     1
290
     0
176
     1
 93
       13
176
     1
 44
0.0
176
     1
173
     0
176
     1
  0
VISUALSTYLE
  5
38
102
{ACAD_REACTORS
330
2A
102
}
330
2A
100
AcDbVisualStyle
  2
Linepattern
 70
    14
177
     2
291
     1
 71
     2
176
     1
 72
     2
176
     1
 73
     0
176
     1
 90
        0
176
     1
 40
-0.6
176
     1
 41
-30.0
176
     1
 62
     5
 63
     7
421
 16777215
176
     1
 74
     1
176
     1
 91
        4
176
     1
 64
     7
176
     1
 65
   257
176
     1
 75
     7
176
     1
175
     7
176
     1
 42
1.0
176
     1
 92
        8
176
     1
 66
     7
176
     1
 43
1.0
176
     1
 76
     1
176
     1
 77
     6
176
     1
 78
     2
176
     1
 67
     7
176
     1
 79
     5
176
     1
170
     0
176
     1
171
     0
176
     1
290
     0
176
     1
 93
        1
176
     1
 44
0.0
176
     1
173
     0
176
     1
  0
VISUALSTYLE
  5
33
102
{ACAD_REACTORS
330
2A
102
}
330
2A
100
AcDbVisualStyle
  2
Realistic
 70
     8
177
     2
291
     0
 71
     2
176
     1
 72
     2
176
     1
 73
     0
176
     1
 90
        0
176
     1
 40
-0.6
176
     1
 41
-30.0
176
     1
 62
     5
 63
     7
421
 16777215
176
     1
 74
     1
176
     1
 91
        0
176
     1
 64
     7
176
     1
 65
   257
176
     1
 75
     1
176
     1
175
     1
176
     1
 42
1.0
176
     1
 92
        8
176
     1
 66
     8
424
  7895160
176
     1
 43
1.0
176
     1
 76
     1
176
     1
 77
     6
176
     1
 78
     2
176
     1
 67
     7
176
     1
 79
     5
176
     1
170
     0
176
     1
171
     0
176
     1
290
     0
176
     1
 93
       13
176
     1
 44
0.0
176
     1
173
     0
176
     1
  0
VISUALSTYLE
  5
37
102
{ACAD_REACTORS
330
2A
102
}
330
2A
100
AcDbVisualStyle
  2
Thicken
 70
    13
177
     2
291
     1
 71
     2
176
     1
 72
     2
176
     1
 73
     0
176
     1
 90
        0
176
     1
 40
-0.6
176
     1
 41
-30.0
176
     1
 62
     5
 63
     7
421
 16777215
176
     1
 74
     1
176
     1
 91
        4
176
     1
 64
     7
176
     1
 65
   257
176
     1
 75
     1
176
     1
175
     1
176
     1
 42
1.0
176
     1
 92
       12
176
     1
 66
     7
176
     1
 43
1.0
176
     1
 76
     1
176
     1
 77
     6
176
     1
 78
     2
176
     1
 67
     7
176
     1
 79
     5
176
     1
170
     0
176
     1
171
     0
176
     1
290
     0
176
     1
 93
        1
176
     1
 44
0.0
176
     1
173
     0
176
     1
  0
ENDSEC
  0
EOF
