  0
SECTION
  2
HEADER
  9
$ACADVER
  1
AC1015
  9
$ACADMAINTVER
 70
     6
  9
$DWGCODEPAGE
  3
ANSI_1252
  9
$INSBASE
 10
0.0
 20
0.0
 30
0.0
  9
$EXTMIN
 10
0.0
 20
0.0
 30
0.0
  9
$EXTMAX
 10
594.0
 20
841.0
 30
0.0
  9
$LIMMIN
 10
0.0
 20
0.0
  9
$LIMMAX
 10
594.0
 20
841.0
  9
$ORTHOMODE
 70
     0
  9
$REGENMODE
 70
     1
  9
$FILLMODE
 70
     1
  9
$QTEXTMODE
 70
     0
  9
$MIRRTEXT
 70
     1
  9
$LTSCALE
 40
1.0
  9
$ATTMODE
 70
     1
  9
$TEXTSIZE
 40
10.0
  9
$TRACEWID
 40
1.0
  9
$TEXTSTYLE
  7
Standard
  9
$CLAYER
  8
0
  9
$CELTYPE
  6
ByLayer
  9
$CECOLOR
 62
   256
  9
$CELTSCALE
 40
1.0
  9
$DISPSILH
 70
     0
  9
$DIMSCALE
 40
1.0
  9
$DIMASZ
 40
2.5
  9
$DIMEXO
 40
0.0
  9
$DIMDLI
 40
3.75
  9
$DIMRND
 40
0.0
  9
$DIMDLE
 40
0.0
  9
$DIMEXE
 40
1.0
  9
$DIMTP
 40
0.0
  9
$DIMTM
 40
0.0
  9
$DIMTXT
 40
3.5
  9
$DIMCEN
 40
2.5
  9
$DIMTSZ
 40
0.0
  9
$DIMTOL
 70
     0
  9
$DIMLIM
 70
     0
  9
$DIMTIH
 70
     1
  9
$DIMTOH
 70
     1
  9
$DIMSE1
 70
     0
  9
$DIMSE2
 70
     0
  9
$DIMTAD
 70
     1
  9
$DIMZIN
 70
     0
  9
$DIMBLK
  1

  9
$DIMASO
 70
     1
  9
$DIMSHO
 70
     1
  9
$DIMPOST
  1

  9
$DIMAPOST
  1

  9
$DIMALT
 70
     0
  9
$DIMALTD
 70
     3
  9
$DIMALTF
 40
0.0393700787
  9
$DIMLFAC
 40
1.0
  9
$DIMTOFL
 70
     1
  9
$DIMTVP
 40
0.0
  9
$DIMTIX
 70
     0
  9
$DIMSOXD
 70
     0
  9
$DIMSAH
 70
     0
  9
$DIMBLK1
  1

  9
$DIMBLK2
  1

  9
$DIMSTYLE
  2
ISO-25
  9
$DIMCLRD
 70
     0
  9
$DIMCLRE
 70
     0
  9
$DIMCLRT
 70
     0
  9
$DIMTFAC
 40
1.0
  9
$DIMGAP
 40
1.5
  9
$DIMJUST
 70
     0
  9
$DIMSD1
 70
     0
  9
$DIMSD2
 70
     0
  9
$DIMTOLJ
 70
     0
  9
$DIMTZIN
 70
     0
  9
$DIMALTZ
 70
     0
  9
$DIMALTTZ
 70
     0
  9
$DIMUPT
 70
     0
  9
$DIMDEC
 70
     2
  9
$DIMTDEC
 70
     2
  9
$DIMALTU
 70
     2
  9
$DIMALTTD
 70
     3
  9
$DIMTXSTY
  7
Standard
  9
$DIMAUNIT
 70
     0
  9
$DIMADEC
 70
     2
  9
$DIMALTRND
 40
0.0
  9
$DIMAZIN
 70
     0
  9
$DIMDSEP
 70
    44
  9
$DIMATFIT
 70
     3
  9
$DIMFRAC
 70
     0
  9
$DIMLDRBLK
  1

  9
$DIMLUNIT
 70
     2
  9
$DIMLWD
 70
    -2
  9
$DIMLWE
 70
    -2
  9
$DIMTMOVE
 70
     0
  9
$LUNITS
 70
     2
  9
$LUPREC
 70
     2
  9
$SKETCHINC
 40
1.0
  9
$FILLETRAD
 40
0.0
  9
$AUNITS
 70
     0
  9
$AUPREC
 70
     2
  9
$MENU
  1
.
  9
$ELEVATION
 40
0.0
  9
$PELEVATION
 40
0.0
  9
$THICKNESS
 40
0.0
  9
$LIMCHECK
 70
     0
  9
$CHAMFERA
 40
0.0
  9
$CHAMFERB
 40
0.0
  9
$CHAMFERC
 40
0.0
  9
$CHAMFERD
 40
0.0
  9
$SKPOLY
 70
     0
  9
$TDCREATE
 40
2460346.444884456
  9
$TDUCREATE
 40
2460346.403217789
  9
$TDUPDATE
 40
2460346.444885544
  9
$TDUUPDATE
 40
2460346.403218878
  9
$TDINDWG
 40
0.0000000116
  9
$TDUSRTIMER
 40
0.0000000116
  9
$USRTIMER
 70
     1
  9
$ANGBASE
 50
0.0
  9
$ANGDIR
 70
     0
  9
$PDMODE
 70
     0
  9
$PDSIZE
 40
-1.0
  9
$PLINEWID
 40
0.0
  9
$SPLFRAME
 70
     0
  9
$SPLINETYPE
 70
     6
  9
$SPLINESEGS
 70
     8
  9
$HANDSEED
  5
1BB
  9
$SURFTAB1
 70
     6
  9
$SURFTAB2
 70
     6
  9
$SURFTYPE
 70
     6
  9
$SURFU
 70
     6
  9
$SURFV
 70
     6
  9
$UCSBASE
  2

  9
$UCSNAME
  2

  9
$UCSORG
 10
0.0
 20
0.0
 30
0.0
  9
$UCSXDIR
 10
1.0
 20
0.0
 30
0.0
  9
$UCSYDIR
 10
0.0
 20
1.0
 30
0.0
  9
$UCSORTHOREF
  2

  9
$UCSORTHOVIEW
 70
     0
  9
$UCSORGTOP
 10
0.0
 20
0.0
 30
0.0
  9
$UCSORGBOTTOM
 10
0.0
 20
0.0
 30
0.0
  9
$UCSORGLEFT
 10
0.0
 20
0.0
 30
0.0
  9
$UCSORGRIGHT
 10
0.0
 20
0.0
 30
0.0
  9
$UCSORGFRONT
 10
0.0
 20
0.0
 30
0.0
  9
$UCSORGBACK
 10
0.0
 20
0.0
 30
0.0
  9
$PUCSBASE
  2

  9
$PUCSNAME
  2

  9
$PUCSORG
 10
0.0
 20
0.0
 30
0.0
  9
$PUCSXDIR
 10
1.0
 20
0.0
 30
0.0
  9
$PUCSYDIR
 10
0.0
 20
1.0
 30
0.0
  9
$PUCSORTHOREF
  2

  9
$PUCSORTHOVIEW
 70
     0
  9
$PUCSORGTOP
 10
0.0
 20
0.0
 30
0.0
  9
$PUCSORGBOTTOM
 10
0.0
 20
0.0
 30
0.0
  9
$PUCSORGLEFT
 10
0.0
 20
0.0
 30
0.0
  9
$PUCSORGRIGHT
 10
0.0
 20
0.0
 30
0.0
  9
$PUCSORGFRONT
 10
0.0
 20
0.0
 30
0.0
  9
$PUCSORGBACK
 10
0.0
 20
0.0
 30
0.0
  9
$USERI1
 70
     0
  9
$USERI2
 70
     0
  9
$USERI3
 70
     0
  9
$USERI4
 70
     0
  9
$USERI5
 70
     0
  9
$USERR1
 40
0.0
  9
$USERR2
 40
0.0
  9
$USERR3
 40
0.0
  9
$USERR4
 40
0.0
  9
$USERR5
 40
0.0
  9
$WORLDVIEW
 70
     1
  9
$SHADEDGE
 70
     3
  9
$SHADEDIF
 70
    70
  9
$TILEMODE
 70
     1
  9
$MAXACTVP
 70
    64
  9
$PINSBASE
 10
0.0
 20
0.0
 30
0.0
  9
$PLIMCHECK
 70
     0
  9
$PEXTMIN
 10
1.0000000000E+20
 20
1.0000000000E+20
 30
1.0000000000E+20
  9
$PEXTMAX
 10
-1.0000000000E+20
 20
-1.0000000000E+20
 30
-1.0000000000E+20
  9
$PLIMMIN
 10
0.0
 20
0.0
  9
$PLIMMAX
 10
420.0
 20
297.0
  9
$UNITMODE
 70
     0
  9
$VISRETAIN
 70
     1
  9
$PLINEGEN
 70
     0
  9
$PSLTSCALE
 70
     1
  9
$TREEDEPTH
 70
  3020
  9
$CMLSTYLE
  2
Standard
  9
$CMLJUST
 70
     0
  9
$CMLSCALE
 40
20.0
  9
$PROXYGRAPHICS
 70
     1
  9
$MEASUREMENT
 70
     1
  9
$CELWEIGHT
370
    -1
  9
$ENDCAPS
280
     0
  9
$JOINSTYLE
280
     0
  9
$LWDISPLAY
290
     1
  9
$INSUNITS
 70
     4
  9
$HYPERLINKBASE
  1

  9
$STYLESHEET
  1

  9
$XEDIT
290
     1
  9
$CEPSNTYPE
380
     0
  9
$PSTYLEMODE
290
     1
  9
$FINGERPRINTGUID
  2
{cd6e39f0-3ee0-4a39-9d89-9e896a60bd41}
  9
$VERSIONGUID
  2
{FAEB1C32-E019-11D5-929B-00C0DF256EC4}
  9
$EXTNAMES
290
     1
  9
$PSVPSCALE
 40
0.0
  9
$OLESTARTUP
290
     0
  0
ENDSEC
  0
SECTION
  2
CLASSES
  0
CLASS
  1
ACDBDICTIONARYWDFLT
  2
AcDbDictionaryWithDefault
  3
ObjectDBX Classes
 90
        0
280
     0
281
     0
  0
CLASS
  1
VISUALSTYLE
  2
AcDbVisualStyle
  3
ObjectDBX Classes
 90
     4095
280
     0
281
     0
  0
CLASS
  1
MATERIAL
  2
AcDbMaterial
  3
ObjectDBX Classes
 90
     1153
280
     0
281
     0
  0
CLASS
  1
SCALE
  2
AcDbScale
  3
ObjectDBX Classes
 90
     1153
280
     0
281
     0
  0
CLASS
  1
TABLESTYLE
  2
AcDbTableStyle
  3
ObjectDBX Classes
 90
     4095
280
     0
281
     0
  0
CLASS
  1
MLEADERSTYLE
  2
AcDbMLeaderStyle
  3
ACDB_MLEADERSTYLE_CLASS
 90
     4095
280
     0
281
     0
  0
CLASS
  1
SUN
  2
AcDbSun
  3
SCENEOE
 90
     1153
280
     0
281
     0
  0
CLASS
  1
ACDBPLACEHOLDER
  2
AcDbPlaceHolder
  3
ObjectDBX Classes
 90
        0
280
     0
281
     0
  0
CLASS
  1
LAYOUT
  2
AcDbLayout
  3
ObjectDBX Classes
 90
        0
280
     0
281
     0
  0
ENDSEC
  0
SECTION
  2
TABLES
  0
TABLE
  2
VPORT
  5
8
330
0
100
AcDbSymbolTable
 70
     1
  0
VPORT
  5
29
330
8
100
AcDbSymbolTableRecord
100
AcDbViewportTableRecord
  2
*Active
 70
     0
 10
0.0
 20
0.0
 11
1.0
 21
1.0
 12
297.0
 22
420.5
 13
0.0
 23
0.0
 14
10.0
 24
10.0
 15
10.0
 25
10.0
 16
0.0
 26
0.0
 36
1.0
 17
0.0
 27
0.0
 37
0.0
 40
841.0
 41
0.7063020214
 42
50.0
 43
0.0
 44
0.0
 50
0.0
 51
0.0
 71
     0
 72
  2000
 73
     1
 74
     3
 75
     0
 76
     0
 77
     0
 78
     0
281
     0
 65
     1
110
0.0
120
0.0
130
0.0
111
1.0
121
0.0
131
0.0
112
0.0
122
1.0
132
0.0
 79
     0
146
0.0
  0
ENDTAB
  0
TABLE
  2
LTYPE
  5
5
330
0
100
AcDbSymbolTable
 70
     6
  0
LTYPE
  5
14
330
5
100
AcDbSymbolTableRecord
100
AcDbLinetypeTableRecord
  2
ByBlock
 70
     0
  3

 72
    65
 73
     0
 40
0.0
  0
LTYPE
  5
15
330
5
100
AcDbSymbolTableRecord
100
AcDbLinetypeTableRecord
  2
ByLayer
 70
     0
  3

 72
    65
 73
     0
 40
0.0
  0
LTYPE
  5
16
330
5
100
AcDbSymbolTableRecord
100
AcDbLinetypeTableRecord
  2
Continuous
 70
     0
  3
Solid line
 72
    65
 73
     0
 40
0.0
  0
LTYPE
  5
5E
330
5
100
AcDbSymbolTableRecord
100
AcDbLinetypeTableRecord
  2
HIDDEN
 70
     0
  3
Hidden __ __ __ __ __ __ __ __ __ __ __ __ __ __
 72
    65
 73
     2
 40
1.905
 49
1.27
 74
     0
 49
-0.635
 74
     0
  0
LTYPE
  5
5F
330
5
100
AcDbSymbolTableRecord
100
AcDbLinetypeTableRecord
  2
PHANTOM
 70
     0
  3
Phantom ______  __  __  ______  __  __  ______
 72
    65
 73
     6
 40
12.7
 49
6.35
 74
     0
 49
-1.27
 74
     0
 49
1.27
 74
     0
 49
-1.27
 74
     0
 49
1.27
 74
     0
 49
-1.27
 74
     0
  0
LTYPE
  5
60
330
5
100
AcDbSymbolTableRecord
100
AcDbLinetypeTableRecord
  2
CENTER
 70
     0
  3
Center ____ _ ____ _ ____ _ ____ _ ____ _ ____
 72
    65
 73
     4
 40
10.16
 49
6.35
 74
     0
 49
-1.27
 74
     0
 49
1.27
 74
     0
 49
-1.27
 74
     0
  0
LTYPE
  5
61
330
5
100
AcDbSymbolTableRecord
100
AcDbLinetypeTableRecord
  2
CENTERX2
 70
     0
  3
Center (2x) ________  __  ________  __  _____
 72
    65
 73
     4
 40
20.32
 49
12.7
 74
     0
 49
-2.54
 74
     0
 49
2.54
 74
     0
 49
-2.54
 74
     0
  0
LTYPE
  5
62
330
5
100
AcDbSymbolTableRecord
100
AcDbLinetypeTableRecord
  2
DOT2
 70
     0
  3
Dot (.5x) ........................................
 72
    65
 73
     2
 40
0.635
 49
0.0
 74
     0
 49
-0.635
 74
     0
  0
ENDTAB
  0
TABLE
  2
LAYER
  5
2
330
0
100
AcDbSymbolTable
 70
     1
  0
LAYER
  5
10
330
2
100
AcDbSymbolTableRecord
100
AcDbLayerTableRecord
  2
0
 70
     0
 62
     7
  6
Continuous
370
    -3
390
F
  0
ENDTAB
  0
TABLE
  2
STYLE
  5
3
330
0
100
AcDbSymbolTable
 70
     3
  0
STYLE
  5
11
330
3
100
AcDbSymbolTableRecord
100
AcDbTextStyleTableRecord
  2
Standard
 70
     0
 40
0.0
 41
1.0
 50
0.0
 71
     0
 42
10.0
  3
txt
  4

  0
STYLE
  5
66
330
3
100
AcDbSymbolTableRecord
100
AcDbTextStyleTableRecord
  2
SLDTEXTSTYLE0
 70
     0
 40
0.0
 41
0.96
 50
0.0
 71
     0
 42
10.0
  3
ISOCP3
  4

  0
STYLE
  5
7D
330
3
100
AcDbSymbolTableRecord
100
AcDbTextStyleTableRecord
  2
SLDTEXTSTYLE1
 70
     0
 40
0.0
 41
0.605
 50
0.0
 71
     0
 42
10.0
  3
TXT
  4

  0
ENDTAB
  0
TABLE
  2
VIEW
  5
6
330
0
100
AcDbSymbolTable
 70
     0
  0
ENDTAB
  0
TABLE
  2
UCS
  5
7
330
0
100
AcDbSymbolTable
 70
     0
  0
ENDTAB
  0
TABLE
  2
APPID
  5
9
330
0
100
AcDbSymbolTable
 70
     1
  0
APPID
  5
12
330
9
100
AcDbSymbolTableRecord
100
AcDbRegAppTableRecord
  2
ACAD
 70
     0
  0
ENDTAB
  0
TABLE
  2
DIMSTYLE
  5
A
330
0
100
AcDbSymbolTable
 70
     2
100
AcDbDimStyleTable
  0
DIMSTYLE
105
27
330
A
100
AcDbSymbolTableRecord
100
AcDbDimStyleTableRecord
  2
ISO-25
 70
     0
 41
2.5
 42
0.625
 43
3.75
 44
1.25
 73
     0
 74
     0
 77
     1
 78
     8
140
2.5
141
2.5
143
0.0393700787
147
0.625
171
     3
172
     1
178
     0
271
     2
272
     2
274
     3
278
    44
283
     0
284
     8
340
11
  0
DIMSTYLE
105
67
102
{ACAD_REACTORS
330
65
330
72
102
}
330
A
100
AcDbSymbolTableRecord
100
AcDbDimStyleTableRecord
  2
SLDDIMSTYLE0
 70
     0
 41
2.5
 44
0.0
 45
0.000000001
 73
     0
 74
     0
 77
     1
 78
    12
 79
     3
140
6.0
147
1.5
173
     1
178
     0
271
     2
272
     2
276
     2
284
    12
340
66
  0
ENDTAB
  0
TABLE
  2
BLOCK_RECORD
  5
1
330
0
100
AcDbSymbolTable
 70
     3
  0
BLOCK_RECORD
  5
1F
330
1
100
AcDbSymbolTableRecord
100
AcDbBlockTableRecord
  2
*Model_Space
340
22
  0
BLOCK_RECORD
  5
1B
330
1
100
AcDbSymbolTableRecord
100
AcDbBlockTableRecord
  2
*Paper_Space
340
1E
  0
BLOCK_RECORD
  5
23
330
1
100
AcDbSymbolTableRecord
100
AcDbBlockTableRecord
  2
*Paper_Space0
340
26
  0
BLOCK_RECORD
  5
68
330
1
100
AcDbSymbolTableRecord
100
AcDbBlockTableRecord
  2
_D
340
0
  0
BLOCK_RECORD
  5
73
330
1
100
AcDbSymbolTableRecord
100
AcDbBlockTableRecord
  2
_D_1
340
0
  0
ENDTAB
  0
ENDSEC
  0
SECTION
  2
BLOCKS
  0
BLOCK
  5
20
330
1F
100
AcDbEntity
  8
0
100
AcDbBlockBegin
  2
*Model_Space
 70
     0
 10
0.0
 20
0.0
 30
0.0
  3
*Model_Space
  1

  0
ENDBLK
  5
21
330
1F
100
AcDbEntity
  8
0
100
AcDbBlockEnd
  0
BLOCK
  5
1C
330
1B
100
AcDbEntity
 67
     1
  8
0
100
AcDbBlockBegin
  2
*Paper_Space
 70
     0
 10
0.0
 20
0.0
 30
0.0
  3
*Paper_Space
  1

  0
ENDBLK
  5
1D
330
1B
100
AcDbEntity
 67
     1
  8
0
100
AcDbBlockEnd
  0
BLOCK
  5
24
330
23
100
AcDbEntity
  8
0
100
AcDbBlockBegin
  2
*Paper_Space0
 70
     0
 10
0.0
 20
0.0
 30
0.0
  3
*Paper_Space0
  1

  0
ENDBLK
  5
25
330
23
100
AcDbEntity
  8
0
100
AcDbBlockEnd
  0
BLOCK
  5
69
330
68
100
AcDbEntity
  8
0
100
AcDbBlockBegin
  2
_D
 70
     0
 10
0.0
 20
0.0
 30
0.0
  3
_D
  1

  0
SOLID
  5
6B
330
68
100
AcDbEntity
  8
0
  6
Continuous
 62
     7
370
    18
100
AcDbTrace
 10
42.7614395004
 20
152.0299240879
 30
0.0
 11
42.4614395004
 21
149.5299240879
 31
0.0
 12
43.0614395004
 22
149.5299240879
 32
0.0
 13
43.0614395004
 23
149.5299240879
 33
0.0
  0
SOLID
  5
6C
330
68
100
AcDbEntity
  8
0
  6
Continuous
 62
     7
370
    18
100
AcDbTrace
 10
42.7614395004
 20
52.0299240879
 30
0.0
 11
43.0614395004
 21
54.5299240879
 31
0.0
 12
42.4614395004
 22
54.5299240879
 32
0.0
 13
42.4614395004
 23
54.5299240879
 33
0.0
  0
LINE
  5
6D
330
68
100
AcDbEntity
  8
0
  6
Continuous
 62
     7
370
     0
100
AcDbLine
 10
56.6850079902
 20
152.0299240879
 30
0.0
 11
41.7614395004
 21
152.0299240879
 31
0.0
  0
LINE
  5
6E
330
68
100
AcDbEntity
  8
0
  6
Continuous
 62
     7
370
     0
100
AcDbLine
 10
56.6850079902
 20
52.0299240879
 30
0.0
 11
41.7614395004
 21
52.0299240879
 31
0.0
  0
LINE
  5
6F
330
68
100
AcDbEntity
  8
0
  6
Continuous
 62
     7
370
     0
100
AcDbLine
 10
42.7614395004
 20
152.0299240879
 30
0.0
 11
42.7614395004
 21
52.0299240879
 31
0.0
  0
MTEXT
  5
70
330
68
100
AcDbEntity
  8
0
  6
Continuous
 62
     7
370
    18
100
AcDbMText
 10
35.0270332946
 20
94.3680541463
 30
0.0
 40
6.0
 41
0.0
 71
     1
 72
     1
  1
100
  7
SLDTEXTSTYLE0
 11
-7.044195017643634E-15
 21
1.0
 31
0.0
 73
     1
 44
1.0
  0
MTEXT
  5
71
330
68
100
AcDbEntity
  8
0
  6
Continuous
 62
     7
370
    18
100
AcDbMText
 10
35.0270332946
 20
105.7430548466
 30
0.0
 40
6.0
 41
0.0
 71
     1
 72
     1
  1
mm
  7
SLDTEXTSTYLE0
 11
-7.044195017643634E-15
 21
1.0
 31
0.0
 73
     1
 44
1.0
  0
ENDBLK
  5
6A
330
68
100
AcDbEntity
  8
0
100
AcDbBlockEnd
  0
BLOCK
  5
74
330
73
100
AcDbEntity
  8
0
100
AcDbBlockBegin
  2
_D_1
 70
     0
 10
0.0
 20
0.0
 30
0.0
  3
_D_1
  1

  0
SOLID
  5
76
330
73
100
AcDbEntity
  8
0
  6
Continuous
 62
     7
370
    18
100
AcDbTrace
 10
56.6850079902
 20
38.4602342313
 30
0.0
 11
59.1850079902
 21
38.1602342313
 31
0.0
 12
59.1850079902
 22
38.7602342313
 32
0.0
 13
59.1850079902
 23
38.7602342313
 33
0.0
  0
SOLID
  5
77
330
73
100
AcDbEntity
  8
0
  6
Continuous
 62
     7
370
    18
100
AcDbTrace
 10
156.6850079902
 20
38.4602342313
 30
0.0
 11
154.1850079902
 21
38.7602342313
 31
0.0
 12
154.1850079902
 22
38.1602342313
 32
0.0
 13
154.1850079902
 23
38.1602342313
 33
0.0
  0
LINE
  5
78
330
73
100
AcDbEntity
  8
0
  6
Continuous
 62
     7
370
     0
100
AcDbLine
 10
56.6850079902
 20
52.0299240879
 30
0.0
 11
56.6850079902
 21
37.4602342313
 31
0.0
  0
LINE
  5
79
330
73
100
AcDbEntity
  8
0
  6
Continuous
 62
     7
370
     0
100
AcDbLine
 10
156.6850079902
 20
52.0299240879
 30
0.0
 11
156.6850079902
 21
37.4602342313
 31
0.0
  0
LINE
  5
7A
330
73
100
AcDbEntity
  8
0
  6
Continuous
 62
     7
370
     0
100
AcDbLine
 10
56.6850079902
 20
38.4602342313
 30
0.0
 11
156.6850079902
 21
38.4602342313
 31
0.0
  0
MTEXT
  5
7B
330
73
100
AcDbEntity
  8
0
  6
Continuous
 62
     7
370
    18
100
AcDbMText
 10
93.9626484861
 20
46.1946404371
 30
0.0
 40
6.0
 41
0.0
 71
     1
 72
     1
  1
100
  7
SLDTEXTSTYLE0
 73
     1
 44
1.0
  0
MTEXT
  5
7C
330
73
100
AcDbEntity
  8
0
  6
Continuous
 62
     7
370
    18
100
AcDbMText
 10
105.3376491864
 20
46.1946404371
 30
0.0
 40
6.0
 41
0.0
 71
     1
 72
     1
  1
mm
  7
SLDTEXTSTYLE0
 73
     1
 44
1.0
  0
ENDBLK
  5
75
330
73
100
AcDbEntity
  8
0
100
AcDbBlockEnd
  0
ENDSEC
  0
SECTION
  2
ENTITIES
  0
LINE
  5
63
330
1F
100
AcDbEntity
  8
0
  6
Continuous
 62
     7
370
    18
100
AcDbLine
 10
56.6850079902
 20
152.0299240879
 30
0.0
 11
56.6850079902
 21
52.0299240879
 31
0.0
  0
LINE
  5
64
330
1F
100
AcDbEntity
  8
0
  6
Continuous
 62
     7
370
    18
100
AcDbLine
 10
56.6850079902
 20
52.0299240879
 30
0.0
 11
156.6850079902
 21
52.0299240879
 31
0.0
  0
DIMENSION
  5
65
330
1F
100
AcDbEntity
  8
0
  6
Continuous
 62
     7
370
    18
100
AcDbDimension
  2
_D
 10
42.7614395004
 20
52.0299240879
 30
0.0
 11
42.7614395004
 21
105.4472211621
 31
0.0
 70
   160
  1
<>mm
 71
     2
 42
-1.0
  3
SLDDIMSTYLE0
100
AcDbAlignedDimension
 13
56.6850079902
 23
152.0299240879
 33
0.0
 14
56.6850079902
 24
52.0299240879
 34
0.0
 50
90.0
100
AcDbRotatedDimension
  0
DIMENSION
  5
72
330
1F
100
AcDbEntity
  8
0
  6
Continuous
 62
     7
370
    18
100
AcDbDimension
  2
_D_1
 10
156.6850079902
 20
38.4602342313
 30
0.0
 11
105.0418155019
 21
38.4602342313
 31
0.0
 70
   160
  1
<>mm
 71
     2
 42
-1.0
  3
SLDDIMSTYLE0
100
AcDbAlignedDimension
 13
56.6850079902
 23
52.0299240879
 33
0.0
 14
156.6850079902
 24
52.0299240879
 34
0.0
100
AcDbRotatedDimension
  0
MTEXT
  5
7E
330
1F
100
AcDbEntity
  8
0
  6
Continuous
 62
     7
370
     0
100
AcDbMText
 10
412.8252631579
 20
48.4342449499
 30
0.0
 40
10.0
 41
0.0
 71
     1
 72
     1
  1
KLUDI GmbH & Co KG
  7
SLDTEXTSTYLE1
 73
     1
 44
1.0
  0
MTEXT
  5
7F
330
1F
100
AcDbEntity
  8
0
  6
Continuous
 62
     7
370
     0
100
AcDbMText
 10
210.0873490389
 20
48.4342449499
 30
0.0
 40
10.0
 41
0.0
 71
     1
 72
     1
  1
54 266 .. 75
  7
SLDTEXTSTYLE1
 73
     1
 44
1.0
  0
SPLINE
  5
80
330
1F
100
AcDbEntity
  8
0
  6
Continuous
 62
     7
370
    25
100
AcDbSpline
210
0.0
220
0.0
230
1.0
 70
     8
 71
     3
 72
    15
 73
    11
 74
     0
 42
0.00000001
 43
0.00000001
 40
0.0
 40
0.0
 40
0.0
 40
0.0
 40
0.1921590502986304
 40
0.4264055942489676
 40
0.5635796929613279
 40
0.6752481388150572
 40
0.7259574072107775
 40
0.7762870299278116
 40
0.8850346708517122
 40
0.9999999999999999
 40
0.9999999999999999
 40
0.9999999999999999
 40
0.9999999999999999
 10
167.5505419271684
 20
453.54482711874
 30
0.0
 10
167.5303338454065
 20
453.4699666330702
 30
0.0
 10
167.4854916217441
 20
453.3038493993089
 30
0.0
 10
167.4864408351228
 20
452.8793238784874
 30
0.0
 10
167.5246781525812
 20
452.3073164190612
 30
0.0
 10
167.5652781564518
 20
451.7697037584561
 30
0.0
 10
167.60109819012
 20
451.2896301402456
 30
0.0
 10
167.6387232823377
 20
450.7718473351071
 30
0.0
 10
167.6849186977576
 20
450.0749203014791
 30
0.0
 10
167.7249393070135
 20
449.5262085624692
 30
0.0
 10
167.7455057610476
 20
449.2442274790191
 30
0.0
  0
SPLINE
  5
81
330
1F
100
AcDbEntity
  8
0
  6
Continuous
 62
     7
370
    25
100
AcDbSpline
210
0.0
220
0.0
230
1.0
 70
     8
 71
     3
 72
    15
 73
    11
 74
     0
 42
0.00000001
 43
0.00000001
 40
0.0
 40
0.0
 40
0.0
 40
0.0
 40
0.0389908510549392
 40
0.287510346040751
 40
0.4006826607638357
 40
0.4545000224954008
 40
0.509419320509227
 40
0.6312087321073775
 40
0.7807324117494201
 40
1.0
 40
1.0
 40
1.0
 40
1.0
 10
201.7462217630694
 20
449.2583202317668
 30
0.0
 10
201.752774476829
 20
449.3495268715519
 30
0.0
 10
201.8010928117604
 20
450.0220654762852
 30
0.0
 10
201.8633005996761
 20
451.0178996499522
 30
0.0
 10
201.9441884494677
 20
452.0346414514902
 30
0.0
 10
201.9841476964948
 20
452.5092774762363
 30
0.0
 10
202.0199988218147
 20
452.9287688239077
 30
0.0
 10
202.0503961429318
 20
453.3335251616403
 30
0.0
 10
202.0668432499723
 20
453.6392937648126
 30
0.0
 10
202.0215109919452
 20
453.6601870538188
 30
0.0
 10
201.9945583611404
 20
453.6726093140235
 30
0.0
  0
SPLINE
  5
82
330
1F
100
AcDbEntity
  8
0
  6
Continuous
 62
     7
370
    25
100
AcDbSpline
210
0.0
220
0.0
230
1.0
 70
     8
 71
     3
 72
    11
 73
     7
 74
     0
 42
0.00000001
 43
0.00000001
 40
0.0
 40
0.0
 40
0.0
 40
0.0
 40
0.2499905421085103
 40
0.5000008208665836
 40
0.7498928970882386
 40
1.0
 40
1.0
 40
1.0
 40
1.0
 10
167.7893309276535
 20
474.101808783086
 30
0.0
 10
167.6522825580844
 20
474.087816523156
 30
0.0
 10
167.3781749990344
 20
474.059830898613
 30
0.0
 10
167.0309882497985
 20
473.8199454101895
 30
0.0
 10
166.7887635227907
 20
473.4744161214208
 30
0.0
 10
166.7590235830414
 20
473.2006532579971
 30
0.0
 10
166.7441472182754
 20
473.0637129598663
 30
0.0
  0
SPLINE
  5
83
330
1F
100
AcDbEntity
  8
0
  6
Continuous
 62
     7
370
    25
100
AcDbSpline
210
0.0
220
0.0
230
1.0
 70
     8
 71
     3
 72
    11
 73
     7
 74
     0
 42
0.00000001
 43
0.00000001
 40
0.0
 40
0.0
 40
0.0
 40
0.0
 40
0.2500987146208175
 40
0.4999991971970774
 40
0.7499836093654463
 40
0.9999999999999999
 40
0.9999999999999999
 40
0.9999999999999999
 40
0.9999999999999999
 10
202.7411958072226
 20
473.0637213374058
 30
0.0
 10
202.7263465200591
 20
473.2005386109851
 30
0.0
 10
202.6966597155029
 20
473.474064714692
 30
0.0
 10
202.4548424293377
 20
473.8193940833416
 30
0.0
 10
202.108176042481
 20
474.0593615906731
 30
0.0
 10
201.8343420068751
 20
474.087671810947
 30
0.0
 10
201.6974162322936
 20
474.1018278263997
 30
0.0
  0
LINE
  5
84
330
1F
100
AcDbEntity
  8
0
  6
Continuous
 62
     7
370
    25
100
AcDbLine
 10
201.7140509188
 20
474.1039204988
 30
0.0
 11
184.7426714792
 21
474.1039205024
 31
0.0
  0
LINE
  5
85
330
1F
100
AcDbEntity
  8
0
  6
Continuous
 62
     7
370
    25
100
AcDbLine
 10
184.7426714791
 20
474.1039205024
 30
0.0
 11
167.7712920395
 21
474.1039204988
 31
0.0
  0
SPLINE
  5
86
330
1F
100
AcDbEntity
  8
0
  6
Continuous
 62
     7
370
    25
100
AcDbSpline
210
0.0
220
0.0
230
1.0
 70
     8
 71
     3
 72
    11
 73
     7
 74
     0
 42
0.00000001
 43
0.00000001
 40
0.0
 40
0.0
 40
0.0
 40
0.0
 40
0.23541146952169
 40
0.4847121331463263
 40
0.7421296700125604
 40
1.0
 40
1.0
 40
1.0
 40
1.0
 10
166.9322320069288
 20
354.3332584983839
 30
0.0
 10
166.8637170295511
 20
353.8699400980446
 30
0.0
 10
166.7226447151702
 20
352.9159676743103
 30
0.0
 10
166.0170437532477
 20
351.5432767432909
 30
0.0
 10
164.9512359414106
 20
350.3645472051121
 30
0.0
 10
164.0380701755539
 20
349.9105455754467
 30
0.0
 10
163.5810860846757
 20
349.6833452907369
 30
0.0
  0
LINE
  5
87
330
1F
100
AcDbEntity
  8
0
  6
Continuous
 62
     7
370
    25
100
AcDbLine
 10
166.9322320955
 20
365.3332584984
 30
0.0
 11
166.9322320955
 21
354.3332585733
 31
0.0
  0
ARC
  5
88
330
1F
100
AcDbEntity
  8
0
  6
Continuous
 62
     7
370
    25
100
AcDbCircle
 10
191.959955873
 20
445.4016003981
 30
0.0
 40
22.81689189189191
100
AcDbArc
 50
170.2246276438
 51
180.0
  0
ARC
  5
89
330
1F
100
AcDbEntity
  8
0
  6
Continuous
 62
     7
370
    25
100
AcDbCircle
 10
177.5261720892
 20
445.4016003981
 30
0.0
 40
22.81689189189192
100
AcDbArc
 50
0.0
 51
9.497597607
  0
ARC
  5
8A
330
1F
100
AcDbEntity
  8
0
  6
Continuous
 62
     7
370
    25
100
AcDbCircle
 10
201.7431105871
 20
444.4016003981
 30
0.0
 40
1.0
100
AcDbArc
 50
0.0000000866
 51
90.0000000059
  0
LINE
  5
8B
330
1F
100
AcDbEntity
  8
0
  6
Continuous
 62
     7
370
    25
100
AcDbLine
 10
202.7431105871
 20
444.4016003997
 30
0.0
 11
202.7431106022
 21
434.4015989829
 31
0.0
  0
LINE
  5
8C
330
1F
100
AcDbEntity
  8
0
  6
Continuous
 62
     7
370
    25
100
AcDbLine
 10
167.7431084006
 20
445.4016003981
 30
0.0
 11
201.743110587
 21
445.4016003981
 31
0.0
  0
ARC
  5
8D
330
1F
100
AcDbEntity
  8
0
  6
Continuous
 62
     7
370
    25
100
AcDbCircle
 10
167.7431084008
 20
444.4016003981
 30
0.0
 40
1.000000000000028
100
AcDbArc
 50
90.0000000123
 51
180.0000000862
  0
LINE
  5
8E
330
1F
100
AcDbEntity
  8
0
  6
Continuous
 62
     7
370
    25
100
AcDbLine
 10
166.7431084159
 20
434.4015989829
 30
0.0
 11
166.7431084008
 21
444.4016003966
 31
0.0
  0
SPLINE
  5
8F
330
1F
100
AcDbEntity
  8
0
  6
Continuous
 62
     7
370
    25
100
AcDbSpline
210
0.0
220
0.0
230
1.0
 70
     8
 71
     3
 72
    22
 73
    18
 74
     0
 42
0.00000001
 43
0.00000001
 40
0.0
 40
0.0
 40
0.0
 40
0.0
 40
1.642405407302315
 40
1.642405407302315
 40
3.284810814604629
 40
3.284810814604629
 40
4.927216221906944
 40
4.927216221906944
 40
5.748418925558101
 40
5.748418925558101
 40
6.569621629209259
 40
6.569621629209259
 40
8.212027036511573
 40
8.212027036511573
 40
9.854432443813888
 40
9.854432443813888
 40
13.13924325841852
 40
13.13924325841852
 40
13.13924325841852
 40
13.13924325841852
 10
202.7431136844067
 20
434.4015987719486
 30
0.0
 10
202.7428439081964
 20
433.9559876183067
 30
0.0
 10
202.7301631448175
 20
433.5097949091597
 30
0.0
 10
202.6505338497779
 20
432.6220759291337
 30
0.0
 10
202.5848465537971
 20
432.1787064726541
 30
0.0
 10
202.3362094759329
 20
431.3235157840986
 30
0.0
 10
202.1455668042731
 20
430.9088212429064
 30
0.0
 10
201.7035526972579
 20
430.4042771013496
 30
0.0
 10
201.5332942427452
 20
430.2580982056698
 30
0.0
 10
201.1592894135359
 20
430.0148836738099
 30
0.0
 10
200.9575613829626
 20
429.9174972611382
 30
0.0
 10
200.3307037315647
 20
429.6829530453992
 30
0.0
 10
199.8900110427608
 20
429.5976681695188
 30
0.0
 10
199.0065322173144
 20
429.4824620820892
 30
0.0
 10
198.5609613064993
 20
429.4534297596124
 30
0.0
 10
197.2247407859506
 20
429.3993728820661
 30
0.0
 10
196.3330437470545
 20
429.4025176500886
 30
0.0
 10
195.4415154735875
 20
429.4019254372707
 30
0.0
  0
LINE
  5
90
330
1F
100
AcDbEntity
  8
0
  6
Continuous
 62
     7
370
    25
100
AcDbLine
 10
195.4415154736
 20
429.401924969
 30
0.0
 11
174.044756107
 21
429.401924969
 31
0.0
  0
SPLINE
  5
91
330
1F
100
AcDbEntity
  8
0
  6
Continuous
 62
     7
370
    25
100
AcDbSpline
210
0.0
220
0.0
230
1.0
 70
     8
 71
     3
 72
    22
 73
    18
 74
     0
 42
0.00000001
 43
0.00000001
 40
39.41772977525555
 40
39.41772977525555
 40
39.41772977525555
 40
39.41772977525555
 40
42.70254058986018
 40
42.70254058986018
 40
44.3449459971625
 40
44.3449459971625
 40
45.98735140446481
 40
45.98735140446481
 40
46.80855410811597
 40
46.80855410811597
 40
47.62975681176712
 40
47.62975681176712
 40
49.27216221906944
 40
49.27216221906944
 40
50.91456762637176
 40
50.91456762637176
 40
52.55697303367407
 40
52.55697303367407
 40
52.55697303367407
 40
52.55697303367407
 10
174.0447561069711
 20
429.401924968961
 30
0.0
 10
173.1533703309802
 20
429.402516332748
 30
0.0
 10
172.2612716662084
 20
429.3993750993415
 30
0.0
 10
170.9252933863867
 20
429.4534305476138
 30
0.0
 10
170.4798050307987
 20
429.4824537581319
 30
0.0
 10
169.5962444836589
 20
429.5976542376176
 30
0.0
 10
169.1554006654154
 20
429.6829909055688
 30
0.0
 10
168.528724675471
 20
429.9174713725535
 30
0.0
 10
168.3269035773671
 20
430.014905849866
 30
0.0
 10
167.953024163781
 20
430.2580244809083
 30
0.0
 10
167.7826143074168
 20
430.4043324058895
 30
0.0
 10
167.3407253678274
 20
430.9087382812597
 30
0.0
 10
167.1500255772229
 20
431.3234882209086
 30
0.0
 10
166.9014012324008
 20
432.1785916887326
 30
0.0
 10
166.8356772218216
 20
432.6221863108532
 30
0.0
 10
166.7560726575869
 20
433.5097038013206
 30
0.0
 10
166.7433805940059
 20
433.9559876970036
 30
0.0
 10
166.7431136844066
 20
434.4015987719488
 30
0.0
  0
SPLINE
  5
92
330
1F
100
AcDbEntity
  8
0
  6
Continuous
 62
     7
370
    25
100
AcDbSpline
210
0.0
220
0.0
230
1.0
 70
     8
 71
     3
 72
     9
 73
     5
 74
     0
 42
0.00000001
 43
0.00000001
 40
0.0
 40
0.0
 40
0.0
 40
0.0
 40
0.22302176997596
 40
1.0
 40
1.0
 40
1.0
 40
1.0
 10
167.5345748721731
 20
453.5423376515087
 30
0.0
 10
167.5263808883286
 20
453.6478719013745
 30
0.0
 10
167.4896401529046
 20
454.1210734631641
 30
0.0
 10
167.3332375854695
 20
454.5782338029164
 30
0.0
 10
167.2117161954526
 20
454.9334374345344
 30
0.0
  0
LINE
  5
93
330
1F
100
AcDbEntity
  8
0
  6
Continuous
 62
     7
370
    25
100
AcDbLine
 10
166.7427004938
 20
455.9136452806
 30
0.0
 11
166.7427004938
 21
471.0672120627
 31
0.0
  0
SPLINE
  5
94
330
1F
100
AcDbEntity
  8
0
  6
Continuous
 62
     7
370
    25
100
AcDbSpline
210
0.0
220
0.0
230
1.0
 70
     8
 71
     3
 72
    14
 73
    10
 74
     0
 42
0.00000001
 43
0.00000001
 40
0.0
 40
0.0
 40
0.0
 40
0.0
 40
0.25
 40
0.25
 40
0.5
 40
0.5
 40
0.75
 40
0.75
 40
1.0
 40
1.0
 40
1.0
 40
1.0
 10
166.7427005101996
 20
471.067212055865
 30
0.0
 10
166.742676449524
 20
471.0913656711388
 30
0.0
 10
166.7694307057929
 20
471.1155114449406
 30
0.0
 10
166.8724622868932
 20
471.1604873682629
 30
0.0
 10
166.9486990528567
 20
471.1813015902102
 30
0.0
 10
167.1391208139124
 20
471.2167848897591
 30
0.0
 10
167.2532308485803
 20
471.2314417766035
 30
0.0
 10
167.5020455979347
 20
471.2527166609081
 30
0.0
 10
167.6366523655219
 20
471.2593280608206
 30
0.0
 10
167.7713116322872
 20
471.2615852196176
 30
0.0
  0
LINE
  5
95
330
1F
100
AcDbEntity
  8
0
  6
Continuous
 62
     7
370
    25
100
AcDbLine
 10
167.7713116322
 20
471.2615852197
 30
0.0
 11
201.7139384956
 21
471.2617507596
 31
0.0
  0
SPLINE
  5
96
330
1F
100
AcDbEntity
  8
0
  6
Continuous
 62
     7
370
    25
100
AcDbSpline
210
0.0
220
0.0
230
1.0
 70
     8
 71
     3
 72
    14
 73
    10
 74
     0
 42
0.00000001
 43
0.00000001
 40
0.0
 40
0.0
 40
0.0
 40
0.0
 40
0.25
 40
0.25
 40
0.5
 40
0.5
 40
0.75
 40
0.75
 40
1.0
 40
1.0
 40
1.0
 40
1.0
 10
201.7139384936506
 20
471.2617507584495
 30
0.0
 10
201.8486031572933
 20
471.2594572063472
 30
0.0
 10
201.9832177281962
 20
471.2528090590046
 30
0.0
 10
202.2320501303592
 20
471.2314597784462
 30
0.0
 10
202.3461699919224
 20
471.2167652429097
 30
0.0
 10
202.5366105780803
 20
471.1812057826336
 30
0.0
 10
202.6128563228638
 20
471.1603530503712
 30
0.0
 10
202.7159027397485
 20
471.1152994869527
 30
0.0
 10
202.7426628406614
 20
471.0911145862693
 30
0.0
 10
202.7426424527393
 20
471.066921723659
 30
0.0
  0
SPLINE
  5
97
330
1F
100
AcDbEntity
  8
0
  6
Continuous
 62
     7
370
    25
100
AcDbSpline
210
0.0
220
0.0
230
1.0
 70
    24
 71
     3
 72
    17
 73
    13
 74
     0
 42
0.00000001
 43
0.00000001
 40
0.0
 40
0.0
 40
0.0
 40
0.0
 40
0.0125608246447145
 40
0.0445525619353226
 40
0.0959752278017525
 40
0.1668288250680362
 40
0.2571133547348524
 40
0.3668288172712102
 40
0.4959752129344207
 40
0.6445525418808434
 40
0.8125608042125857
 40
1.0
 40
1.0
 40
1.0
 40
1.0
 10
202.7426424644939
 20
471.0669217189883
 30
0.0
 10
202.7426424644939
 20
471.002623357511
 30
0.0
 10
202.7426424644939
 20
470.7745605660077
 30
0.0
 10
202.742642464494
 20
470.289658454468
 30
0.0
 10
202.7426424644939
 20
469.5086576789142
 30
0.0
 10
202.742642464494
 20
468.4347008846267
 30
0.0
 10
202.742642464494
 20
467.0663889252825
 30
0.0
 10
202.742642464494
 20
465.404320352509
 30
0.0
 10
202.7426424644941
 20
463.4482851715907
 30
0.0
 10
202.7426424644941
 20
461.1983668522587
 30
0.0
 10
202.7426424644942
 20
458.6545250772714
 30
0.0
 10
202.7426424644943
 20
456.8607947144691
 30
0.0
 10
202.7426424644943
 20
455.9149013932952
 30
0.0
  0
LINE
  5
98
330
1F
100
AcDbEntity
  8
0
  6
Continuous
 62
     7
370
    25
100
AcDbLine
 10
201.7299043584
 20
449.1984333499
 30
0.0
 11
201.7431553274
 21
449.258546153
 31
0.0
  0
SPLINE
  5
99
330
1F
100
AcDbEntity
  8
0
  6
Continuous
 62
     7
370
    25
100
AcDbSpline
210
0.0
220
0.0
230
1.0
 70
     8
 71
     3
 72
    12
 73
     8
 74
     0
 42
0.00000001
 43
0.00000001
 40
0.0
 40
0.0
 40
0.0
 40
0.0
 40
0.2500000000000001
 40
0.2500000000000001
 40
0.5000000000000002
 40
0.5000000000000002
 40
1.0
 40
1.0
 40
1.0
 40
1.0
 10
201.3678694319871
 20
449.1745295858719
 30
0.0
 10
201.4206815884328
 20
449.1765160793634
 30
0.0
 10
201.464062437505
 20
449.1785048582899
 30
0.0
 10
201.5436331092415
 20
449.1824841587036
 30
0.0
 10
201.5790954230103
 20
449.1844748564837
 30
0.0
 10
201.6703479876741
 20
449.1904506172519
 30
0.0
 10
201.7091119326993
 20
449.1944398061275
 30
0.0
 10
201.7299043285517
 20
449.1984333499468
 30
0.0
  0
SPLINE
  5
9A
330
1F
100
AcDbEntity
  8
0
  6
Continuous
 62
     7
370
    25
100
AcDbSpline
210
0.0
220
0.0
230
1.0
 70
     8
 71
     3
 72
    14
 73
    10
 74
     0
 42
0.00000001
 43
0.00000001
 40
0.0
 40
0.0
 40
0.0
 40
0.0
 40
0.25
 40
0.25
 40
0.5
 40
0.5
 40
0.75
 40
0.75
 40
1.0
 40
1.0
 40
1.0
 40
1.0
 10
199.7097692704301
 20
449.147506377079
 30
0.0
 10
199.9339233506225
 20
449.1496739039234
 30
0.0
 10
200.1252772367632
 20
449.1518736313179
 30
0.0
 10
200.4787413516914
 20
449.1563017951401
 30
0.0
 10
200.6366541922535
 20
449.1585343522204
 30
0.0
 10
200.913187804598
 20
449.1630380401234
 30
0.0
 10
201.0319821958152
 20
449.1653090005007
 30
0.0
 10
201.2288500755825
 20
449.1698908977098
 30
0.0
 10
201.3060086051656
 20
449.1722027327737
 30
0.0
 10
201.3678694319871
 20
449.1745295858719
 30
0.0
  0
SPLINE
  5
9B
330
1F
100
AcDbEntity
  8
0
  6
Continuous
 62
     7
370
    25
100
AcDbSpline
210
0.0
220
0.0
230
1.0
 70
     8
 71
     3
 72
    22
 73
    18
 74
     0
 42
0.00000001
 43
0.00000001
 40
0.0
 40
0.0
 40
0.0
 40
0.0
 40
0.125
 40
0.125
 40
0.25
 40
0.25
 40
0.375
 40
0.375
 40
0.5
 40
0.5
 40
0.625
 40
0.625
 40
0.75
 40
0.75
 40
0.875
 40
0.875
 40
1.0
 40
1.0
 40
1.0
 40
1.0
 10
192.5192261340141
 20
449.1251694870993
 30
0.0
 10
192.9167837355991
 20
449.12538977855
 30
0.0
 10
193.3078003198177
 20
449.1256942076401
 30
0.0
 10
194.0734304603121
 20
449.1265140593052
 30
0.0
 10
194.4483343246793
 20
449.1270257476236
 30
0.0
 10
195.1823963034307
 20
449.1282516631253
 30
0.0
 10
195.5439868743204
 20
449.1289720465381
 30
0.0
 10
196.2326652674976
 20
449.1305794979859
 30
0.0
 10
196.561217414624
 20
449.1314673994551
 30
0.0
 10
197.1871781199587
 20
449.1334092584272
 30
0.0
 10
197.4845771754472
 20
449.134463266598
 30
0.0
 10
198.0463940801764
 20
449.1367471370551
 30
0.0
 10
198.3077463561269
 20
449.1379658228265
 30
0.0
 10
198.7832693271625
 20
449.1405005253154
 30
0.0
 10
198.9990769150132
 20
449.1418238766968
 30
0.0
 10
199.38609161334
 20
449.1445843466311
 30
0.0
 10
199.5564353438099
 20
449.146023667499
 30
0.0
 10
199.7097692704301
 20
449.147506377079
 30
0.0
  0
SPLINE
  5
9C
330
1F
100
AcDbEntity
  8
0
  6
Continuous
 62
     7
370
    25
100
AcDbSpline
210
0.0
220
0.0
230
1.0
 70
     8
 71
     3
 72
    14
 73
    10
 74
     0
 42
0.00000001
 43
0.00000001
 40
0.0
 40
0.0
 40
0.0
 40
0.0
 40
0.5000000000000027
 40
0.5000000000000027
 40
0.7500000000000014
 40
0.7500000000000014
 40
0.8750000000000008
 40
0.8750000000000008
 40
1.0
 40
1.0
 40
1.0
 40
1.0
 10
184.7430701949021
 20
449.1231478837163
 30
0.0
 10
186.0445866385384
 20
449.123146915989
 30
0.0
 10
187.3433210896656
 20
449.1233171617579
 30
0.0
 10
189.2873583955125
 20
449.1238226659308
 30
0.0
 10
189.9346725923695
 20
449.1240341393435
 30
0.0
 10
190.9046350311224
 20
449.1244134380025
 30
0.0
 10
191.2278300855305
 20
449.1245476105051
 30
0.0
 10
191.8737413426661
 20
449.1248454257082
 30
0.0
 10
192.19675435672
 20
449.1249908016073
 30
0.0
 10
192.5192261340141
 20
449.1251694870993
 30
0.0
  0
SPLINE
  5
9D
330
1F
100
AcDbEntity
  8
0
  6
Continuous
 62
     7
370
    25
100
AcDbSpline
210
0.0
220
0.0
230
1.0
 70
     8
 71
     3
 72
    14
 73
    10
 74
     0
 42
0.00000001
 43
0.00000001
 40
0.0
 40
0.0
 40
0.0
 40
0.0
 40
0.1249999999999991
 40
0.1249999999999991
 40
0.2499999999999982
 40
0.2499999999999982
 40
0.4999999999999989
 40
0.4999999999999989
 40
1.0
 40
1.0
 40
1.0
 40
1.0
 10
176.9667037125933
 20
449.1251676498197
 30
0.0
 10
177.2891536957066
 20
449.1249870694528
 30
0.0
 10
177.6122208509907
 20
449.1248445075886
 30
0.0
 10
178.2582284997068
 20
449.1245515813472
 30
0.0
 10
178.5813276373864
 20
449.1244109896348
 30
0.0
 10
179.5513643792837
 20
449.12403475799
 30
0.0
 10
180.1986864637555
 20
449.1238228024756
 30
0.0
 10
182.1427659093779
 20
449.1233171109587
 30
0.0
 10
183.4415601890699
 20
449.1231488514389
 30
0.0
 10
184.7430701949021
 20
449.1231478837163
 30
0.0
  0
SPLINE
  5
9E
330
1F
100
AcDbEntity
  8
0
  6
Continuous
 62
     7
370
    25
100
AcDbSpline
210
0.0
220
0.0
230
1.0
 70
     8
 71
     3
 72
    22
 73
    18
 74
     0
 42
0.00000001
 43
0.00000001
 40
0.0
 40
0.0
 40
0.0
 40
0.0
 40
0.125
 40
0.125
 40
0.25
 40
0.25
 40
0.375
 40
0.375
 40
0.5
 40
0.5
 40
0.625
 40
0.625
 40
0.75
 40
0.75
 40
0.875
 40
0.875
 40
1.0
 40
1.0
 40
1.0
 40
1.0
 10
169.7773631393866
 20
449.1475072213361
 30
0.0
 10
169.9302273092041
 20
449.1460238669302
 30
0.0
 10
170.0981789013704
 20
449.1445784402608
 30
0.0
 10
170.4850337361266
 20
449.1418156724703
 30
0.0
 10
170.7020645144957
 20
449.1404936242278
 30
0.0
 10
171.1794507569042
 20
449.1379584401352
 30
0.0
 10
171.4421811847684
 20
449.1367370224384
 30
0.0
 10
172.0030818191231
 20
449.1344590267248
 30
0.0
 10
172.2999432992993
 20
449.1334057688829
 30
0.0
 10
172.9253389521189
 20
449.131464726976
 30
0.0
 10
173.2538044596648
 20
449.1305765841709
 30
0.0
 10
173.9431380803962
 20
449.1289695857637
 30
0.0
 10
174.3047075923271
 20
449.1282511152631
 30
0.0
 10
175.0382207341464
 20
449.1270264428957
 30
0.0
 10
175.4128291021002
 20
449.1265138408075
 30
0.0
 10
176.1781347802589
 20
449.1256929995426
 30
0.0
 10
176.5692624822083
 20
449.1253902272331
 30
0.0
 10
176.9667037125933
 20
449.1251676498197
 30
0.0
  0
SPLINE
  5
9F
330
1F
100
AcDbEntity
  8
0
  6
Continuous
 62
     7
370
    25
100
AcDbSpline
210
0.0
220
0.0
230
1.0
 70
     8
 71
     3
 72
    14
 73
    10
 74
     0
 42
0.00000001
 43
0.00000001
 40
0.0
 40
0.0
 40
0.0
 40
0.0
 40
0.25
 40
0.25
 40
0.5
 40
0.5
 40
0.75
 40
0.75
 40
1.0
 40
1.0
 40
1.0
 40
1.0
 10
168.1155398896937
 20
449.1746704030168
 30
0.0
 10
168.1770925502368
 20
449.1723314988704
 30
0.0
 10
168.2528250957505
 20
449.170006474739
 30
0.0
 10
168.4492402910782
 20
449.1654004259952
 30
0.0
 10
168.5680186322349
 20
449.1631175373457
 30
0.0
 10
168.8457633916966
 20
449.158591098244
 30
0.0
 10
169.0047596663774
 20
449.1563475770166
 30
0.0
 10
169.3598099755138
 20
449.1518968086405
 30
0.0
 10
169.5527776963012
 20
449.1496865404461
 30
0.0
 10
169.7773631393866
 20
449.1475072213361
 30
0.0
  0
SPLINE
  5
A0
330
1F
100
AcDbEntity
  8
0
  6
Continuous
 62
     7
370
    25
100
AcDbSpline
210
0.0
220
0.0
230
1.0
 70
     8
 71
     3
 72
    12
 73
     8
 74
     0
 42
0.00000001
 43
0.00000001
 40
0.0
 40
0.0
 40
0.0
 40
0.0
 40
0.5000000000000018
 40
0.5000000000000018
 40
0.7500000000000009
 40
0.7500000000000009
 40
1.0
 40
1.0
 40
1.0
 40
1.0
 10
167.7579969858834
 20
449.198433335609
 30
0.0
 10
167.7794527361751
 20
449.1944636664379
 30
0.0
 10
167.8165315666903
 20
449.1904977583056
 30
0.0
 10
167.9075159937138
 20
449.1845574100225
 30
0.0
 10
167.9426831960123
 20
449.1825784588645
 30
0.0
 10
168.0206836036726
 20
449.1786224020317
 30
0.0
 10
168.0635665428935
 20
449.1766453083298
 30
0.0
 10
168.1155398896937
 20
449.1746704030168
 30
0.0
  0
LINE
  5
A1
330
1F
100
AcDbEntity
  8
0
  6
Continuous
 62
     7
370
    25
100
AcDbLine
 10
167.7476921135
 20
449.2443879758
 30
0.0
 11
167.7579969812
 21
449.1984333365
 31
0.0
  0
LINE
  5
A2
330
1F
100
AcDbEntity
  8
0
  6
Continuous
 62
     7
370
    25
100
AcDbLine
 10
202.7426424645
 20
473.0753289627
 30
0.0
 11
202.7426424645
 21
471.0571677165
 31
0.0
  0
LINE
  5
A3
330
1F
100
AcDbEntity
  8
0
  6
Continuous
 62
     7
370
    25
100
AcDbLine
 10
166.7427004938
 20
471.0571677165
 30
0.0
 11
166.7427004938
 21
473.0753289625
 31
0.0
  0
SPLINE
  5
A4
330
1F
100
AcDbEntity
  8
0
  6
Continuous
 62
     7
370
    25
100
AcDbSpline
210
0.0
220
0.0
230
1.0
 70
     8
 71
     3
 72
    10
 73
     6
 74
     0
 42
0.00000001
 43
0.00000001
 40
0.0
 40
0.0
 40
0.0
 40
0.0
 40
0.5
 40
0.5
 40
1.0
 40
1.0
 40
1.0
 40
1.0
 10
166.7427004919518
 20
473.0750354530629
 30
0.0
 10
166.7427004919758
 20
473.2073552311319
 30
0.0
 10
166.7699722798283
 20
473.351371788743
 30
0.0
 10
166.893677194042
 20
473.6251715393694
 30
0.0
 10
166.9905018785063
 20
473.753601262744
 30
0.0
 10
167.1106978355558
 20
473.8529689016395
 30
0.0
  0
LINE
  5
A5
330
1F
100
AcDbEntity
  8
0
  6
Continuous
 62
     7
370
    25
100
AcDbLine
 10
167.1106978356
 20
473.8529689016
 30
0.0
 11
167.2069710514
 21
473.9068757465
 31
0.0
  0
SPLINE
  5
A6
330
1F
100
AcDbEntity
  8
0
  6
Continuous
 62
     7
370
    25
100
AcDbSpline
210
0.0
220
0.0
230
1.0
 70
     8
 71
     3
 72
    45
 73
    41
 74
     0
 42
0.00000001
 43
0.00000001
 40
0.0
 40
0.0
 40
0.0
 40
0.0
 40
0.0019531250000001
 40
0.0019531250000001
 40
0.0039062500000003
 40
0.0039062500000003
 40
0.0078125000000006
 40
0.0078125000000006
 40
0.0156250000000012
 40
0.0156250000000012
 40
0.0312500000000014
 40
0.0312500000000014
 40
0.0625000000000009
 40
0.0625000000000009
 40
0.1249999999999999
 40
0.1249999999999999
 40
0.1874999999999989
 40
0.1874999999999989
 40
0.2499999999999979
 40
0.2499999999999979
 40
0.4999999999999967
 40
0.7499999999999956
 40
0.7499999999999956
 40
0.8124999999999958
 40
0.8124999999999958
 40
0.874999999999996
 40
0.874999999999996
 40
0.9374999999999961
 40
0.9374999999999961
 40
0.9687499999999972
 40
0.9687499999999972
 40
0.9843749999999987
 40
0.9843749999999987
 40
0.9921874999999994
 40
0.9921874999999994
 40
0.9960937499999998
 40
0.9960937499999998
 40
0.998046875
 40
0.998046875
 40
1.0
 40
1.0
 40
1.0
 40
1.0
 10
174.0447563217005
 20
429.4019249688037
 30
0.0
 10
174.0446830245457
 20
429.4019250174305
 30
0.0
 10
174.0598323507566
 20
429.4019149956328
 30
0.0
 10
174.0845572335349
 20
429.4018991223217
 30
0.0
 10
174.0977890743625
 20
429.4018908138067
 30
0.0
 10
174.1377790740339
 20
429.401866342883
 30
0.0
 10
174.1649570863183
 20
429.4018505351685
 30
0.0
 10
174.2469769237039
 20
429.401805326205
 30
0.0
 10
174.302468938389
 20
429.4017780513952
 30
0.0
 10
174.4690391534708
 20
429.401705442852
 30
0.0
 10
174.5803715606358
 20
429.4016691459498
 30
0.0
 10
174.9146913205798
 20
429.4015891002718
 30
0.0
 10
175.1381052169744
 20
429.4015741918997
 30
0.0
 10
175.8082006475651
 20
429.40158066495
 30
0.0
 10
176.2548861738696
 20
429.4016530132242
 30
0.0
 10
177.1483967136563
 20
429.4015861262096
 30
0.0
 10
177.5951434535665
 20
429.4016027650245
 30
0.0
 10
178.4886444920994
 20
429.4015970952101
 30
0.0
 10
178.9353952582981
 20
429.4015982745695
 30
0.0
 10
181.169148658954
 20
429.4015971791512
 30
0.0
 10
184.7431542197567
 20
429.4015977191133
 30
0.0
 10
188.3171597679876
 20
429.401597179444
 30
0.0
 10
190.5509132251114
 20
429.4015982749394
 30
0.0
 10
190.9976639102685
 20
429.4015970987285
 30
0.0
 10
191.89116534425
 20
429.4016027682512
 30
0.0
 10
192.3379250609051
 20
429.4015861196805
 30
0.0
 10
193.2313480894786
 20
429.4016530843692
 30
0.0
 10
193.6780697867683
 20
429.4015806375494
 30
0.0
 10
194.3481448042376
 20
429.4015741580686
 30
0.0
 10
194.5715951844979
 20
429.401589072628
 30
0.0
 10
194.9062207263895
 20
429.4016693522124
 30
0.0
 10
195.0176984373056
 20
429.4017057913513
 30
0.0
 10
195.1841003565558
 20
429.4017784678201
 30
0.0
 10
195.2394516209046
 20
429.4018057171275
 30
0.0
 10
195.3214930048698
 20
429.4018510089111
 30
0.0
 10
195.3487291482647
 20
429.401866879469
 30
0.0
 10
195.38844663159
 20
429.4018912169894
 30
0.0
 10
195.4015827487281
 20
429.4018994753786
 30
0.0
 10
195.4260954691855
 20
429.4019152281359
 30
0.0
 10
195.4408092720258
 20
429.4019249683623
 30
0.0
 10
195.4408101514055
 20
429.4019249689459
 30
0.0
  0
SPLINE
  5
A7
330
1F
100
AcDbEntity
  8
0
  6
Continuous
 62
     7
370
    25
100
AcDbSpline
210
0.0
220
0.0
230
1.0
 70
     8
 71
     3
 72
    38
 73
    34
 74
     0
 42
0.00000001
 43
0.00000001
 40
0.0
 40
0.0
 40
0.0
 40
0.0
 40
0.0625
 40
0.0625
 40
0.125
 40
0.125
 40
0.1874999999999999
 40
0.1874999999999999
 40
0.2499999999999999
 40
0.2499999999999999
 40
0.3124999999999998
 40
0.3124999999999998
 40
0.3749999999999998
 40
0.3749999999999998
 40
0.4374999999999998
 40
0.4374999999999998
 40
0.4999999999999997
 40
0.4999999999999997
 40
0.5624999999999997
 40
0.5624999999999997
 40
0.6249999999999997
 40
0.6249999999999997
 40
0.6874999999999997
 40
0.6874999999999997
 40
0.7499999999999997
 40
0.7499999999999997
 40
0.8124999999999998
 40
0.8124999999999998
 40
0.8749999999999999
 40
0.8749999999999999
 40
0.9375
 40
0.9375
 40
1.0
 40
1.0
 40
1.0
 40
1.0
 10
166.7431136844069
 20
434.4015987719336
 30
0.0
 10
166.743113684407
 20
434.4015987719336
 30
0.0
 10
166.7431136842114
 20
434.4021052710042
 30
0.0
 10
166.7431136726347
 20
434.3931943578725
 30
0.0
 10
166.7431136612742
 20
434.3836908159847
 30
0.0
 10
166.7431136209356
 20
434.3330450087941
 30
0.0
 10
166.7431135919783
 20
434.291816613806
 30
0.0
 10
166.7431135137196
 20
434.147984535481
 30
0.0
 10
166.7431134644387
 20
434.0452947224586
 30
0.0
 10
166.7431133458929
 20
433.7433653809028
 30
0.0
 10
166.7431132766486
 20
433.544039722684
 30
0.0
 10
166.7431131210057
 20
433.010810291909
 30
0.0
 10
166.7431130346278
 20
432.6768203896674
 30
0.0
 10
166.7431128494
 20
431.8359639909206
 30
0.0
 10
166.7431127505706
 20
431.3290113647301
 30
0.0
 10
166.743112546357
 20
430.1062448476238
 30
0.0
 10
166.7431124409932
 20
429.3903448270225
 30
0.0
 10
166.7431122302451
 20
427.7185965506612
 30
0.0
 10
166.7431121248813
 20
426.7626621652158
 30
0.0
 10
166.7431119206676
 20
424.5872397793251
 30
0.0
 10
166.7431118218383
 20
423.3676656491945
 30
0.0
 10
166.7431116366104
 20
420.6514238752495
 30
0.0
 10
166.7431115502325
 20
419.1546701017496
 30
0.0
 10
166.7431113945896
 20
415.8831785141028
 30
0.0
 10
166.7431113253453
 20
414.1083545702704
 30
0.0
 10
166.7431112067994
 20
410.2950653772803
 30
0.0
 10
166.7431111575185
 20
408.256513998437
 30
0.0
 10
166.7431110792598
 20
403.9479298235962
 30
0.0
 10
166.7431110503025
 20
401.6778108979131
 30
0.0
 10
166.7431110099639
 20
396.9586525609766
 30
0.0
 10
166.7431109986033
 20
394.5095270200378
 30
0.0
 10
166.7431109870265
 20
389.5079013181517
 30
0.0
 10
166.743110986831
 20
386.955315027519
 30
0.0
 10
166.743110986831
 20
384.4015987719337
 30
0.0
  0
SPLINE
  5
A8
330
1F
100
AcDbEntity
  8
0
  6
Continuous
 62
     7
370
    25
100
AcDbSpline
210
0.0
220
0.0
230
1.0
 70
     8
 71
     3
 72
    38
 73
    34
 74
     0
 42
0.00000001
 43
0.00000001
 40
0.0
 40
0.0
 40
0.0
 40
0.0
 40
0.0625
 40
0.0625
 40
0.1250000000000001
 40
0.1250000000000001
 40
0.1875000000000001
 40
0.1875000000000001
 40
0.2500000000000001
 40
0.2500000000000001
 40
0.3125000000000001
 40
0.3125000000000001
 40
0.3750000000000002
 40
0.3750000000000002
 40
0.4375000000000002
 40
0.4375000000000002
 40
0.5000000000000002
 40
0.5000000000000002
 40
0.5625000000000002
 40
0.5625000000000002
 40
0.6250000000000001
 40
0.6250000000000001
 40
0.6875000000000001
 40
0.6875000000000001
 40
0.75
 40
0.75
 40
0.8125
 40
0.8125
 40
0.875
 40
0.875
 40
0.9375
 40
0.9375
 40
1.0
 40
1.0
 40
1.0
 40
1.0
 10
202.743110986831
 20
384.4015987719335
 30
0.0
 10
202.7431109868311
 20
386.9553150275189
 30
0.0
 10
202.7431109870265
 20
389.5079013181516
 30
0.0
 10
202.7431109986034
 20
394.5095270200376
 30
0.0
 10
202.743111009964
 20
396.9586525609765
 30
0.0
 10
202.7431110503025
 20
401.6778108979129
 30
0.0
 10
202.7431110792598
 20
403.947929823596
 30
0.0
 10
202.7431111575186
 20
408.256513998437
 30
0.0
 10
202.7431112067995
 20
410.2950653772801
 30
0.0
 10
202.7431113253453
 20
414.1083545702703
 30
0.0
 10
202.7431113945896
 20
415.8831785141027
 30
0.0
 10
202.7431115502325
 20
419.1546701017495
 30
0.0
 10
202.7431116366105
 20
420.6514238752493
 30
0.0
 10
202.7431118218383
 20
423.3676656491944
 30
0.0
 10
202.7431119206676
 20
424.5872397793249
 30
0.0
 10
202.7431121248814
 20
426.7626621652156
 30
0.0
 10
202.7431122302451
 20
427.7185965506611
 30
0.0
 10
202.7431124409932
 20
429.3903448270224
 30
0.0
 10
202.743112546357
 20
430.1062448476237
 30
0.0
 10
202.7431127505707
 20
431.32901136473
 30
0.0
 10
202.7431128494
 20
431.8359639909205
 30
0.0
 10
202.7431130346278
 20
432.6768203896672
 30
0.0
 10
202.7431131210057
 20
433.0108102919088
 30
0.0
 10
202.7431132766486
 20
433.5440397226839
 30
0.0
 10
202.743113345893
 20
433.7433653809027
 30
0.0
 10
202.7431134644387
 20
434.0452947224584
 30
0.0
 10
202.7431135137196
 20
434.1479845354808
 30
0.0
 10
202.7431135919783
 20
434.2918166138058
 30
0.0
 10
202.7431136209357
 20
434.3330450087939
 30
0.0
 10
202.7431136612741
 20
434.3836908159844
 30
0.0
 10
202.7431136726348
 20
434.3931943578723
 30
0.0
 10
202.7431136842115
 20
434.4021052710041
 30
0.0
 10
202.743113684407
 20
434.4015987719335
 30
0.0
 10
202.743113684407
 20
434.4015987719335
 30
0.0
  0
LINE
  5
A9
330
1F
100
AcDbEntity
  8
0
  6
Continuous
 62
     7
370
    25
100
AcDbLine
 10
161.6430639909
 20
349.3332584845
 30
0.0
 11
207.8430639909
 21
349.3332584845
 31
0.0
  0
LINE
  5
AA
330
1F
100
AcDbEntity
  8
0
  6
Continuous
 62
     7
370
    25
100
AcDbLine
 10
208.8430639909
 20
348.3332584845
 30
0.0
 11
208.8430639909
 21
344.3332584839
 31
0.0
  0
LINE
  5
AB
330
1F
100
AcDbEntity
  8
0
  6
Continuous
 62
     7
370
    25
100
AcDbLine
 10
208.8430639909
 20
344.3332584839
 30
0.0
 11
207.8430639909
 21
344.3332584839
 31
0.0
  0
ARC
  5
AC
330
1F
100
AcDbEntity
  8
0
  6
Continuous
 62
     7
370
    25
100
AcDbCircle
 10
207.8430639909
 20
348.3332584845
 30
0.0
 40
1.0
100
AcDbArc
 50
0.0
 51
90.0
  0
LINE
  5
AD
330
1F
100
AcDbEntity
  8
0
  6
Continuous
 62
     7
370
    25
100
AcDbLine
 10
207.8430639909
 20
344.3332584839
 30
0.0
 11
161.6430639909
 21
344.3332584839
 31
0.0
  0
ARC
  5
AE
330
1F
100
AcDbEntity
  8
0
  6
Continuous
 62
     7
370
    25
100
AcDbCircle
 10
161.6430639909
 20
348.3332584845
 30
0.0
 40
1.0
100
AcDbArc
 50
90.0
 51
180.0
  0
LINE
  5
AF
330
1F
100
AcDbEntity
  8
0
  6
Continuous
 62
     7
370
    25
100
AcDbLine
 10
160.6430639909
 20
344.3332584839
 30
0.0
 11
160.6430639909
 21
348.3332584845
 31
0.0
  0
LINE
  5
B0
330
1F
100
AcDbEntity
  8
0
  6
Continuous
 62
     7
370
    25
100
AcDbLine
 10
161.6430639909
 20
344.3332584839
 30
0.0
 11
160.6430639909
 21
344.3332584839
 31
0.0
  0
SPLINE
  5
B1
330
1F
100
AcDbEntity
  8
0
  6
Continuous
 62
     7
370
    25
100
AcDbSpline
210
0.0
220
0.0
230
1.0
 70
     8
 71
     3
 72
    10
 73
     6
 74
     0
 42
0.00000001
 43
0.00000001
 40
0.0
 40
0.0
 40
0.0
 40
0.0
 40
0.1402372199441788
 40
0.4411018757567667
 40
1.0
 40
1.0
 40
1.0
 40
1.0
 10
165.6316222632115
 20
351.2323024426694
 30
0.0
 10
165.7336838487926
 20
351.3514154396105
 30
0.0
 10
166.0547081593175
 20
351.7260732258863
 30
0.0
 10
166.5635658552899
 20
352.7451927822841
 30
0.0
 10
166.6723515502091
 20
353.7076214329072
 30
0.0
 10
166.7430688715973
 20
354.3332586203141
 30
0.0
  0
ARC
  5
B2
330
1F
100
AcDbEntity
  8
0
  6
Continuous
 62
     7
370
    25
100
AcDbCircle
 10
207.7430730194
 20
354.3332584853
 30
0.0
 40
5.000000000935103
100
AcDbArc
 50
179.9999996668
 51
269.9999999906
  0
LINE
  5
B3
330
1F
100
AcDbEntity
  8
0
  6
Continuous
 62
     7
370
    25
100
AcDbLine
 10
166.743108514
 20
369.4015994265
 30
0.0
 11
166.7431084914
 21
384.4015993986
 31
0.0
  0
LINE
  5
B4
330
1F
100
AcDbEntity
  8
0
  6
Continuous
 62
     7
370
    25
100
AcDbLine
 10
202.7431107003
 20
369.4015994265
 30
0.0
 11
202.7431106776
 21
384.4015993986
 31
0.0
  0
LINE
  5
B5
330
1F
100
AcDbEntity
  8
0
  6
Continuous
 62
     7
370
    25
100
AcDbLine
 10
202.7430730186
 20
365.333258477
 30
0.0
 11
202.7430730125
 21
369.4015994265
 31
0.0
  0
LINE
  5
B6
330
1F
100
AcDbEntity
  8
0
  6
Continuous
 62
     7
370
    25
100
AcDbLine
 10
166.7430688716
 20
365.3332586203
 30
0.0
 11
166.7430687611
 21
369.4015994265
 31
0.0
  0
LINE
  5
B7
330
1F
100
AcDbEntity
  8
0
  6
Continuous
 62
     7
370
    25
100
AcDbLine
 10
202.7430721258
 20
365.333258477
 30
0.0
 11
202.7430721258
 21
354.3332585144
 31
0.0
  0
SPLINE
  5
B8
330
1F
100
AcDbEntity
  8
0
  6
Continuous
 62
     7
370
    25
100
AcDbSpline
210
0.0
220
0.0
230
1.0
 70
     8
 71
     3
 72
    10
 73
     6
 74
     0
 42
0.00000001
 43
0.00000001
 40
0.0
 40
0.0
 40
0.0
 40
0.0
 40
0.5
 40
0.5
 40
1.0
 40
1.0
 40
1.0
 40
1.0
 10
202.7426423297671
 20
454.1792792474752
 30
0.0
 10
202.7425195017448
 20
454.1390873140926
 30
0.0
 10
202.6562847708445
 20
454.0508152023278
 30
0.0
 10
202.3813568787879
 20
453.851040802342
 30
0.0
 10
202.1892466374195
 20
453.7382199937201
 30
0.0
 10
201.979612096025
 20
453.6327910305316
 30
0.0
  0
SPLINE
  5
B9
330
1F
100
AcDbEntity
  8
0
  6
Continuous
 62
     7
370
    25
100
AcDbSpline
210
0.0
220
0.0
230
1.0
 70
    24
 71
     3
 72
    14
 73
    10
 74
     0
 42
0.00000001
 43
0.00000001
 40
0.0000000000000009
 40
0.0000000000000009
 40
0.0000000000000009
 40
0.0000000000000009
 40
0.0027220924773576
 40
0.0027220924773576
 40
0.0027220924773576
 40
0.0054441839602498
 40
0.0054441839602498
 40
0.0054441839602498
 40
0.0104862958462568
 40
0.0104862958462568
 40
0.0104862958462568
 40
0.0104862958462568
 10
202.7426424644943
 20
455.9149073900247
 30
0.0
 10
202.7426424644943
 20
455.7652793866607
 30
0.0
 10
202.7426424644942
 20
455.614595515996
 30
0.0
 10
202.7426424644942
 20
455.4638924718722
 30
0.0
 10
202.7426424644942
 20
455.313189472753
 30
0.0
 10
202.7426424644943
 20
455.1624959737899
 30
0.0
 10
202.7426424644943
 20
455.0122693108178
 30
0.0
 10
202.7426424644943
 20
454.7340054669099
 30
0.0
 10
202.7426424644943
 20
454.4562491598547
 30
0.0
 10
202.7426424644943
 20
454.1792885664779
 30
0.0
  0
SPLINE
  5
BA
330
1F
100
AcDbEntity
  8
0
  6
Continuous
 62
     7
370
    25
100
AcDbSpline
210
0.0
220
0.0
230
1.0
 70
     8
 71
     3
 72
    12
 73
     8
 74
     0
 42
0.00000001
 43
0.00000001
 40
0.0
 40
0.0
 40
0.0
 40
0.0
 40
0.5
 40
0.5
 40
0.75
 40
0.75
 40
1.0
 40
1.0
 40
1.0
 40
1.0
 10
167.5055790178257
 20
453.6327870184139
 30
0.0
 10
167.2951611019117
 20
453.7386081531297
 30
0.0
 10
167.1034459616711
 20
453.8512763282656
 30
0.0
 10
166.8974413372851
 20
454.0010309305944
 30
0.0
 10
166.8417650423467
 20
454.0475093832246
 30
0.0
 10
166.7639543057891
 20
454.1268665938259
 30
0.0
 10
166.7427017938409
 20
454.1589851894876
 30
0.0
 10
166.7427004938551
 20
454.1792507903982
 30
0.0
  0
SPLINE
  5
BB
330
1F
100
AcDbEntity
  8
0
  6
Continuous
 62
     7
370
    25
100
AcDbSpline
210
0.0
220
0.0
230
1.0
 70
    24
 71
     3
 72
    14
 73
    10
 74
     0
 42
0.00000001
 43
0.00000001
 40
0.0
 40
0.0
 40
0.0
 40
0.0
 40
0.0026283545570112
 40
0.0026283545570112
 40
0.0026283545570112
 40
0.0052567090778632
 40
0.0052567090778632
 40
0.0052567090778632
 40
0.0104863578434055
 40
0.0104863578434055
 40
0.0104863578434055
 40
0.0104863578434055
 10
166.7427004938143
 20
454.1792507920668
 30
0.0
 10
166.7427004938143
 20
454.3236520524222
 30
0.0
 10
166.7427004938143
 20
454.4682551525395
 30
0.0
 10
166.7427004938143
 20
454.6130705276738
 30
0.0
 10
166.7427004938143
 20
454.7578859018818
 30
0.0
 10
166.7427004938142
 20
454.9029112266948
 30
0.0
 10
166.7427004938142
 20
455.04805831314
 30
0.0
 10
166.7427004938142
 20
455.3368581161261
 30
0.0
 10
166.7427004938142
 20
455.6280000734282
 30
0.0
 10
166.7427004938142
 20
455.915788382575
 30
0.0
  0
LINE
  5
BC
330
1F
100
AcDbEntity
  8
0
  6
Continuous
 62
     7
370
    25
100
AcDbLine
 10
166.7430684515
 20
369.4015994265
 30
0.0
 11
166.743068562
 21
365.3332586203
 31
0.0
  0
LINE
  5
BD
330
1F
100
AcDbEntity
  8
0
  6
Continuous
 62
     7
370
    25
100
AcDbLine
 10
166.7430684956
 20
365.3332586203
 30
0.0
 11
166.7430684956
 21
354.3332586578
 31
0.0
  0
SPLINE
  5
BE
330
1F
100
AcDbEntity
  8
0
  6
Continuous
 62
     8
370
    18
100
AcDbSpline
210
0.0
220
0.0
230
1.0
 70
    24
 71
     3
 72
    10
 73
     6
 74
     0
 42
0.00000001
 43
0.00000001
 40
0.0
 40
0.0
 40
0.0
 40
0.0
 40
0.5
 40
0.5
 40
1.0
 40
1.0
 40
1.0
 40
1.0
 10
202.7431105871043
 20
444.4016003996514
 30
0.0
 10
202.7431105871043
 20
444.4016003996513
 30
0.0
 10
202.6353374907141
 20
444.4016003994888
 30
0.0
 10
202.2650972458676
 20
444.4016003989302
 30
0.0
 10
202.0049099749034
 20
444.4016003985376
 30
0.0
 10
201.7431105871043
 20
444.4016003981426
 30
0.0
  0
SPLINE
  5
BF
330
1F
100
AcDbEntity
  8
0
  6
Continuous
 62
     8
370
    18
100
AcDbSpline
210
0.0
220
0.0
230
1.0
 70
    24
 71
     3
 72
    10
 73
     6
 74
     0
 42
0.00000001
 43
0.00000001
 40
0.0
 40
0.0
 40
0.0
 40
0.0
 40
0.5
 40
0.5
 40
1.0
 40
1.0
 40
1.0
 40
1.0
 10
201.7431105870018
 20
445.4016003981391
 30
0.0
 10
201.7431105870018
 20
445.4016003981391
 30
0.0
 10
201.7431105870128
 20
445.2938273017489
 30
0.0
 10
201.7431105870508
 20
444.9235870569024
 30
0.0
 10
201.7431105870774
 20
444.6633997859383
 30
0.0
 10
201.7431105871043
 20
444.4016003981391
 30
0.0
  0
SPLINE
  5
C0
330
1F
100
AcDbEntity
  8
0
  6
Continuous
 62
     8
370
    18
100
AcDbSpline
210
0.0
220
0.0
230
1.0
 70
     8
 71
     3
 72
    20
 73
    16
 74
     0
 42
0.00000001
 43
0.00000001
 40
0.0
 40
0.0
 40
0.0
 40
0.0
 40
0.0602272229753265
 40
0.1211099551034193
 40
0.1826481804362426
 40
0.2448418828437014
 40
0.3076910460129245
 40
0.3711956534478627
 40
0.435355688468664
 40
0.5001711342115299
 40
0.5807099122410407
 40
0.6709677465480005
 40
0.7709393622804155
 40
0.8806189167904627
 40
0.9999999999999999
 40
0.9999999999999999
 40
0.9999999999999999
 40
0.9999999999999999
 10
202.7431136844067
 20
434.4015987719486
 30
0.0
 10
202.7422517527924
 20
434.4015987477605
 30
0.0
 10
202.7405185083565
 20
434.401598699121
 30
0.0
 10
202.7264240530361
 20
434.4015984695592
 30
0.0
 10
202.7037107294568
 20
434.4015982897856
 30
0.0
 10
202.671468812972
 20
434.4015982164227
 30
0.0
 10
202.629946826941
 20
434.4015982843037
 30
0.0
 10
202.5792110619804
 20
434.4015984868078
 30
0.0
 10
202.5195148092531
 20
434.4015986959269
 30
0.0
 10
202.4459236023171
 20
434.4015990030291
 30
0.0
 10
202.3531709467838
 20
434.4015981479147
 30
0.0
 10
202.2349030029603
 20
434.4015969625578
 30
0.0
 10
202.0922536694687
 20
434.4015968602567
 30
0.0
 10
201.925696792351
 20
434.4015982027052
 30
0.0
 10
201.8056691251593
 20
434.4015987134165
 30
0.0
 10
201.7431134933096
 20
434.4015989795874
 30
0.0
  0
LINE
  5
C1
330
1F
100
AcDbEntity
  8
0
  6
Continuous
 62
     8
370
    18
100
AcDbLine
 10
201.7431106022
 20
434.4015989814
 30
0.0
 11
201.7431105871
 21
444.4016003981
 31
0.0
  0
LINE
  5
C2
330
1F
100
AcDbEntity
  8
0
  6
Continuous
 62
     8
370
    18
100
AcDbLine
 10
201.7431105871
 20
444.4016003981
 30
0.0
 11
167.7431084008
 21
444.4016003981
 31
0.0
  0
SPLINE
  5
C3
330
1F
100
AcDbEntity
  8
0
  6
Continuous
 62
     8
370
    18
100
AcDbSpline
210
0.0
220
0.0
230
1.0
 70
    24
 71
     3
 72
    10
 73
     6
 74
     0
 42
0.00000001
 43
0.00000001
 40
0.0
 40
0.0
 40
0.0
 40
0.0
 40
0.5
 40
0.5
 40
1.0
 40
1.0
 40
1.0
 40
1.0
 10
167.7431084008246
 20
444.4016003981427
 30
0.0
 10
167.7431084007686
 20
444.6633997859413
 30
0.0
 10
167.7431084007129
 20
444.9235870569045
 30
0.0
 10
167.7431084006336
 20
445.2938273017496
 30
0.0
 10
167.7431084006105
 20
445.4016003981392
 30
0.0
 10
167.7431084006105
 20
445.4016003981392
 30
0.0
  0
LINE
  5
C4
330
1F
100
AcDbEntity
  8
0
  6
Continuous
 62
     8
370
    18
100
AcDbLine
 10
167.7431084008
 20
444.4016003981
 30
0.0
 11
167.7431084159
 21
434.4021977462
 31
0.0
  0
SPLINE
  5
C5
330
1F
100
AcDbEntity
  8
0
  6
Continuous
 62
     8
370
    18
100
AcDbSpline
210
0.0
220
0.0
230
1.0
 70
     8
 71
     3
 72
    28
 73
    24
 74
     0
 42
0.00000001
 43
0.00000001
 40
0.0
 40
0.0
 40
0.0
 40
0.0
 40
0.2499999999999911
 40
0.2499999999999911
 40
0.3749999999999889
 40
0.3749999999999889
 40
0.4374999999999902
 40
0.4374999999999902
 40
0.4999999999999916
 40
0.4999999999999916
 40
0.5624999999999929
 40
0.5624999999999929
 40
0.6249999999999942
 40
0.6249999999999942
 40
0.6562499999999948
 40
0.6562499999999948
 40
0.6874999999999953
 40
0.6874999999999953
 40
0.7499999999999986
 40
0.7499999999999986
 40
0.8749999999999993
 40
0.8749999999999993
 40
1.0
 40
1.0
 40
1.0
 40
1.0
 10
195.4415154731318
 20
430.4019256572069
 30
0.0
 10
196.2006666066191
 20
430.4024283627548
 30
0.0
 10
196.9599507279989
 20
430.4000372967306
 30
0.0
 10
198.0971837533241
 20
430.4332932158909
 30
0.0
 10
198.4760393699837
 20
430.4492104390302
 30
0.0
 10
199.04317097085
 20
430.4981495771527
 30
0.0
 10
199.2320185180037
 20
430.5187344756876
 30
0.0
 10
199.6091464425663
 20
430.5722456946114
 30
0.0
 10
199.7983548011236
 20
430.6054966849997
 30
0.0
 10
200.169086174391
 20
430.6953295492762
 30
0.0
 10
200.3511100700746
 20
430.7508426393194
 30
0.0
 10
200.7015591764586
 20
430.9049895935324
 30
0.0
 10
200.8673399064822
 20
431.0047143454617
 30
0.0
 10
201.0765061182953
 20
431.2018487155375
 30
0.0
 10
201.1398249315893
 20
431.275841114087
 30
0.0
 10
201.2486734264573
 20
431.4315668780449
 30
0.0
 10
201.295696641745
 20
431.5138905747993
 30
0.0
 10
201.4207191241641
 20
431.7705337516547
 30
0.0
 10
201.4818235741191
 20
431.9537122681255
 30
0.0
 10
201.6255533050087
 20
432.5037511177441
 30
0.0
 10
201.673216069445
 20
432.8816150607216
 30
0.0
 10
201.7333401094851
 20
433.6405326239716
 30
0.0
 10
201.7428729745839
 20
434.0208675191311
 30
0.0
 10
201.7431134933095
 20
434.4015989795874
 30
0.0
  0
LINE
  5
C6
330
1F
100
AcDbEntity
  8
0
  6
Continuous
 62
     8
370
    18
100
AcDbLine
 10
174.044756107
 20
430.401924969
 30
0.0
 11
195.4415154736
 21
430.401924969
 31
0.0
  0
SPLINE
  5
C7
330
1F
100
AcDbEntity
  8
0
  6
Continuous
 62
     8
370
    18
100
AcDbSpline
210
0.0
220
0.0
230
1.0
 70
     8
 71
     3
 72
    26
 73
    22
 74
     0
 42
0.00000001
 43
0.00000001
 40
0.0
 40
0.0
 40
0.0
 40
0.0
 40
0.1249999999999972
 40
0.1249999999999972
 40
0.1874999999999982
 40
0.1874999999999982
 40
0.2499999999999992
 40
0.2499999999999992
 40
0.3125000000000002
 40
0.3125000000000002
 40
0.3750000000000011
 40
0.3750000000000011
 40
0.4375000000000021
 40
0.4375000000000021
 40
0.500000000000003
 40
0.500000000000003
 40
0.6250000000000017
 40
0.6250000000000017
 40
0.7500000000000003
 40
0.7500000000000003
 40
1.0
 40
1.0
 40
1.0
 40
1.0
 10
167.7431135050215
 20
434.4021977461809
 30
0.0
 10
167.7433431378689
 20
434.0188209766032
 30
0.0
 10
167.7530206144345
 20
433.6362251656729
 30
0.0
 10
167.7985938925544
 20
433.0648986257511
 30
0.0
 10
167.8185875008333
 20
432.8748534216563
 30
0.0
 10
167.8748508512068
 20
432.4961083984906
 30
0.0
 10
167.9114885356697
 20
432.3063626285687
 30
0.0
 10
168.0100588463554
 20
431.9352215541743
 30
0.0
 10
168.0716453545784
 20
431.7539623629052
 30
0.0
 10
168.2439450262551
 20
431.4086617617807
 30
0.0
 10
168.3543354916348
 20
431.2496962816306
 30
0.0
 10
168.6407683848869
 20
430.9890388580262
 30
0.0
 10
168.8085460750915
 20
430.8920122663355
 30
0.0
 10
169.1652766620553
 20
430.7404570291527
 30
0.0
 10
169.3472087550142
 20
430.6868918534847
 30
0.0
 10
169.8974768204688
 20
430.5573020361098
 30
0.0
 10
170.2706806418863
 20
430.5126193839649
 30
0.0
 10
171.0209673434724
 20
430.4487001949826
 30
0.0
 10
171.3988535823896
 20
430.4329118455747
 30
0.0
 10
172.5325892297462
 20
430.4000412512265
 30
0.0
 10
173.2886890515813
 20
430.402425214949
 30
0.0
 10
174.0447561071162
 20
430.401925188338
 30
0.0
  0
SPLINE
  5
C8
330
1F
100
AcDbEntity
  8
0
  6
Continuous
 62
     8
370
    18
100
AcDbSpline
210
0.0
220
0.0
230
1.0
 70
    24
 71
     3
 72
    10
 73
     6
 74
     0
 42
0.00000001
 43
0.00000001
 40
0.0
 40
0.0
 40
0.0
 40
0.0
 40
0.5
 40
0.5
 40
1.0
 40
1.0
 40
1.0
 40
1.0
 10
167.7431084008246
 20
444.4016003981427
 30
0.0
 10
167.4813090130255
 20
444.4016003977478
 30
0.0
 10
167.2211217420613
 20
444.4016003973551
 30
0.0
 10
166.8508814972148
 20
444.4016003967965
 30
0.0
 10
166.7431084008246
 20
444.401600396634
 30
0.0
 10
166.7431084008246
 20
444.401600396634
 30
0.0
  0
SPLINE
  5
C9
330
1F
100
AcDbEntity
  8
0
  6
Continuous
 62
     8
370
    18
100
AcDbSpline
210
0.0
220
0.0
230
1.0
 70
    24
 71
     3
 72
    10
 73
     6
 74
     0
 42
0.00000001
 43
0.00000001
 40
0.0
 40
0.0
 40
0.0
 40
0.0
 40
0.5
 40
0.5
 40
1.0
 40
1.0
 40
1.0
 40
1.0
 10
167.7431135050215
 20
434.402197746181
 30
0.0
 10
167.4813141641853
 20
434.4020409350937
 30
0.0
 10
167.2211269398949
 20
434.4018850896229
 30
0.0
 10
166.8508867614639
 20
434.4016633252565
 30
0.0
 10
166.7431136844066
 20
434.4015987719488
 30
0.0
 10
166.7431136844066
 20
434.4015987719488
 30
0.0
  0
SPLINE
  5
CA
330
1F
100
AcDbEntity
  8
0
  6
Continuous
 62
     8
370
    18
100
AcDbSpline
210
0.0
220
0.0
230
1.0
 70
    24
 71
     3
 72
    10
 73
     6
 74
     0
 42
0.00000001
 43
0.00000001
 40
0.0
 40
0.0
 40
0.0
 40
0.0
 40
0.5
 40
0.5
 40
1.0
 40
1.0
 40
1.0
 40
1.0
 10
195.4415154735875
 20
429.401924968961
 30
0.0
 10
195.4415154735875
 20
429.4019249689611
 30
0.0
 10
195.4415154735876
 20
429.5096980653513
 30
0.0
 10
195.4415154735875
 20
429.8799383101978
 30
0.0
 10
195.4415154735875
 20
430.140125581162
 30
0.0
 10
195.4415154735875
 20
430.401924968961
 30
0.0
  0
SPLINE
  5
CB
330
1F
100
AcDbEntity
  8
0
  6
Continuous
 62
     8
370
    18
100
AcDbSpline
210
0.0
220
0.0
230
1.0
 70
    24
 71
     3
 72
    10
 73
     6
 74
     0
 42
0.00000001
 43
0.00000001
 40
0.0
 40
0.0
 40
0.0
 40
0.0
 40
0.5
 40
0.5
 40
1.0
 40
1.0
 40
1.0
 40
1.0
 10
174.0447561069711
 20
430.401924968961
 30
0.0
 10
174.0447561069711
 20
430.1401255811619
 30
0.0
 10
174.0447561069711
 20
429.8799383101978
 30
0.0
 10
174.0447561069711
 20
429.5096980653513
 30
0.0
 10
174.0447561069711
 20
429.4019249689611
 30
0.0
 10
174.0447561069711
 20
429.401924968961
 30
0.0
  0
SPLINE
  5
CC
330
1F
100
AcDbEntity
  8
0
  6
Continuous
 62
     8
370
    18
100
AcDbSpline
210
0.0
220
0.0
230
1.0
 70
     8
 71
     3
 72
    12
 73
     8
 74
     0
 42
0.00000001
 43
0.00000001
 40
8.172668223544306
 40
8.172668223544306
 40
8.172668223544306
 40
8.172668223544306
 40
8.176115058065218
 40
8.176115058065218
 40
8.468667056942998
 40
8.468667056942998
 40
8.487454801976572
 40
8.487454801976572
 40
8.487454801976572
 40
8.487454801976572
 10
167.0721655922672
 20
455.3148762688937
 30
0.0
 10
167.0725311582495
 20
455.3140937155957
 30
0.0
 10
167.0728965035015
 20
455.3133110947324
 30
0.0
 10
167.1042518434992
 20
455.2460971469986
 30
0.0
 10
167.1335883000552
 20
455.1793231441991
 30
0.0
 10
167.163132139657
 20
455.1077493151487
 30
0.0
 10
167.164908896535
 20
455.1034270173088
 30
0.0
 10
167.1666791998045
 20
455.0991025963638
 30
0.0
  0
SPLINE
  5
CD
330
1F
100
AcDbEntity
  8
0
  6
Continuous
 62
     8
370
    18
100
AcDbSpline
210
0.0
220
0.0
230
1.0
 70
     8
 71
     3
 72
    16
 73
    12
 74
     0
 42
0.00000001
 43
0.00000001
 40
8.487454801976607
 40
8.487454801976607
 40
8.487454801976607
 40
8.487454801976607
 40
8.505695716722828
 40
8.505695716722828
 40
8.523980216652689
 40
8.523980216652689
 40
8.54226471658255
 40
8.54226471658255
 40
8.57883371644228
 40
8.57883371644228
 40
8.648524881640771
 40
8.648524881640771
 40
8.648524881640771
 40
8.648524881640771
 10
167.0193970629199
 20
455.4242971777226
 30
0.0
 10
167.0214554365159
 20
455.4201569265567
 30
0.0
 10
167.0235045084291
 20
455.4160195705409
 30
0.0
 10
167.0275819601772
 20
455.4077666497535
 30
0.0
 10
167.0296154397913
 20
455.4036363846673
 30
0.0
 10
167.0336744034092
 20
455.3953628344492
 30
0.0
 10
167.0356899536022
 20
455.3912398817511
 30
0.0
 10
167.0417285296293
 20
455.3788438309523
 30
0.0
 10
167.0457376812733
 20
455.3705549640769
 30
0.0
 10
167.0572926808125
 20
455.3464933647838
 30
0.0
 10
167.064774254184
 20
455.3306986273034
 30
0.0
 10
167.0721655922672
 20
455.3148762688937
 30
0.0
  0
SPLINE
  5
CE
330
1F
100
AcDbEntity
  8
0
  6
Continuous
 62
     8
370
    18
100
AcDbSpline
210
0.0
220
0.0
230
1.0
 70
     8
 71
     3
 72
    16
 73
    12
 74
     0
 42
0.00000001
 43
0.00000001
 40
8.648524881646212
 40
8.648524881646212
 40
8.648524881646212
 40
8.648524881646212
 40
8.673847827925675
 40
8.673847827925675
 40
8.746985827645116
 40
8.746985827645116
 40
8.783554827504846
 40
8.783554827504846
 40
8.801839327434706
 40
8.801839327434706
 40
8.801882912612903
 40
8.801882912612903
 40
8.801882912612903
 40
8.801882912612903
 10
166.9660475062582
 20
455.5286307895259
 30
0.0
 10
166.9690659307741
 20
455.5228882143551
 30
0.0
 10
166.9720743672119
 20
455.5171373233832
 30
0.0
 10
166.9837115521852
 20
455.4947944326375
 30
0.0
 10
166.9922231603092
 20
455.4782370680746
 30
0.0
 10
167.0048587988082
 20
455.453329390078
 30
0.0
 10
167.0090266830353
 20
455.4450582060321
 30
0.0
 10
167.0152570010193
 20
455.4326107486359
 30
0.0
 10
167.0173189713613
 20
455.4284770139074
 30
0.0
 10
167.0193872262332
 20
455.4243169633278
 30
0.0
 10
167.0193921446022
 20
455.4243070705188
 30
0.0
 10
167.019397062918
 20
455.4242971777263
 30
0.0
  0
SPLINE
  5
CF
330
1F
100
AcDbEntity
  8
0
  6
Continuous
 62
     8
370
    18
100
AcDbSpline
210
0.0
220
0.0
230
1.0
 70
     8
 71
     3
 72
    18
 73
    14
 74
     0
 42
0.00000001
 43
0.00000001
 40
8.801882912619199
 40
8.801882912619199
 40
8.801882912619199
 40
8.801882912619199
 40
8.809500601130553
 40
8.809500601130553
 40
8.818642851095484
 40
8.818642851095484
 40
8.836927351025343
 40
8.836927351025343
 40
8.910065350744784
 40
8.910065350744784
 40
8.946634350604514
 40
8.946634350604514
 40
8.957880404178475
 40
8.957880404178475
 40
8.957880404178475
 40
8.957880404178475
 10
166.9091210247758
 20
455.6338176453458
 30
0.0
 10
166.9100658185242
 20
455.6321223628441
 30
0.0
 10
166.9110108946288
 20
455.6304244390399
 30
0.0
 10
166.9130765496303
 20
455.6267069370679
 30
0.0
 10
166.9142141748502
 20
455.6246544881209
 30
0.0
 10
166.9176078898712
 20
455.6185234194741
 30
0.0
 10
166.9198579855132
 20
455.6144446205342
 30
0.0
 10
166.9311097523272
 20
455.5939802653169
 30
0.0
 10
166.9400216286992
 20
455.5775521005412
 30
0.0
 10
166.9532612586603
 20
455.5528122488312
 30
0.0
 10
166.9576504186912
 20
455.5445542089738
 30
0.0
 10
166.9633645399197
 20
455.533729765057
 30
0.0
 10
166.9647070080596
 20
455.5311810973542
 30
0.0
 10
166.966047506256
 20
455.5286307895302
 30
0.0
  0
SPLINE
  5
D0
330
1F
100
AcDbEntity
  8
0
  6
Continuous
 62
     8
370
    18
100
AcDbSpline
210
0.0
220
0.0
230
1.0
 70
     8
 71
     3
 72
    18
 73
    14
 74
     0
 42
0.00000001
 43
0.00000001
 40
8.957880404168646
 40
8.957880404168646
 40
8.957880404168646
 40
8.957880404168646
 40
8.963411976457541
 40
8.963411976457541
 40
8.97255422642247
 40
8.97255422642247
 40
9.0091232262822
 40
9.0091232262822
 40
9.082261226001641
 40
9.082261226001641
 40
9.11883022586136
 40
9.11883022586136
 40
9.120354787324775
 40
9.120354787324775
 40
9.120354787324775
 40
9.120354787324775
 10
166.8472190175408
 20
455.7418753334467
 30
0.0
 10
166.847941906004
 20
455.7406447484215
 30
0.0
 10
166.8486640337746
 20
455.7394146626895
 30
0.0
 10
166.8505674097342
 20
455.7361741756969
 30
0.0
 10
166.8517558503592
 20
455.7341482072018
 30
0.0
 10
166.8576739988522
 20
455.7240435289363
 30
0.0
 10
166.8623868986412
 20
455.7159482458042
 30
0.0
 10
166.8764435183323
 20
455.6916565833004
 30
0.0
 10
166.8857146421802
 20
455.6754382598053
 30
0.0
 10
166.8994681315372
 20
455.6510788051079
 30
0.0
 10
166.9040201244692
 20
455.6429661908516
 30
0.0
 10
166.908742864643
 20
455.6344961082127
 30
0.0
 10
166.9089319390565
 20
455.634156929673
 30
0.0
 10
166.9091210247795
 20
455.6338176453392
 30
0.0
  0
SPLINE
  5
D1
330
1F
100
AcDbEntity
  8
0
  6
Continuous
 62
     8
370
    18
100
AcDbSpline
210
0.0
220
0.0
230
1.0
 70
     8
 71
     3
 72
    22
 73
    18
 74
     0
 42
0.00000001
 43
0.00000001
 40
9.120354787332598
 40
9.120354787332598
 40
9.120354787332598
 40
9.120354787332598
 40
9.15692378719232
 40
9.15692378719232
 40
9.175208287122178
 40
9.175208287122178
 40
9.193492787052039
 40
9.193492787052039
 40
9.230061786911758
 40
9.230061786911758
 40
9.266630786771488
 40
9.266630786771488
 40
9.339768786490929
 40
9.339768786490929
 40
9.35805328642079
 40
9.35805328642079
 40
9.361663964089
 40
9.361663964089
 40
9.361663964089
 40
9.361663964089
 10
166.7465424168072
 20
455.9090372981525
 30
0.0
 10
166.7520463165212
 20
455.8999954948188
 30
0.0
 10
166.7574971517212
 20
455.8910130160662
 30
0.0
 10
166.7655711776712
 20
455.8777126971519
 30
0.0
 10
166.7682458715182
 20
455.8733073273653
 30
0.0
 10
166.7735366055233
 20
455.8645999041748
 30
0.0
 10
166.7761564373523
 20
455.860293262967
 30
0.0
 10
166.7839795727472
 20
455.8474216931281
 30
0.0
 10
166.7891049732082
 20
455.8389820030925
 30
0.0
 10
166.7992795428292
 20
455.8221845030205
 30
0.0
 10
166.8043054817042
 20
455.8138616888729
 30
0.0
 10
166.8192436019222
 20
455.789049034079
 30
0.0
 10
166.8289936492093
 20
455.7727391755282
 30
0.0
 10
166.8410103079603
 20
455.752420996466
 30
0.0
 10
166.8434161945892
 20
455.7483420231823
 30
0.0
 10
166.8462749772153
 20
455.7434820499558
 30
0.0
 10
166.8467471594304
 20
455.7426785853372
 30
0.0
 10
166.8472190175377
 20
455.741875333452
 30
0.0
  0
SPLINE
  5
D2
330
1F
100
AcDbEntity
  8
0
  6
Continuous
 62
     8
370
    18
100
AcDbSpline
210
0.0
220
0.0
230
1.0
 70
     8
 71
     3
 72
     9
 73
     5
 74
     0
 42
0.00000001
 43
0.00000001
 40
0.0
 40
0.0
 40
0.0
 40
0.0
 40
0.479672523675569
 40
1.0
 40
1.0
 40
1.0
 40
1.0
 10
202.6476141512205
 20
455.7408106144196
 30
0.0
 10
202.662640927177
 20
455.7668696301586
 30
0.0
 10
202.693968083132
 20
455.8211963102428
 30
0.0
 10
202.7287925008758
 20
455.8805760805155
 30
0.0
 10
202.7469126022749
 20
455.9114730065262
 30
0.0
  0
SPLINE
  5
D3
330
1F
100
AcDbEntity
  8
0
  6
Continuous
 62
     8
370
    18
100
AcDbSpline
210
0.0
220
0.0
230
1.0
 70
     8
 71
     3
 72
     9
 73
     5
 74
     0
 42
0.00000001
 43
0.00000001
 40
0.0
 40
0.0
 40
0.0
 40
0.0
 40
0.900087510103297
 40
0.9999999999999999
 40
0.9999999999999999
 40
0.9999999999999999
 40
0.9999999999999999
 10
202.585428704579
 20
455.6295240660297
 30
0.0
 10
202.6038649169319
 20
455.6629454540334
 30
0.0
 10
202.6243476057216
 20
455.700076719192
 30
0.0
 10
202.6455006935475
 20
455.7371104792439
 30
0.0
 10
202.6476141512213
 20
455.740810614421
 30
0.0
  0
LWPOLYLINE
  5
D4
330
1F
100
AcDbEntity
  8
0
  6
Continuous
 62
     8
370
    18
100
AcDbPolyline
 90
        3
 70
   128
 43
0.0
 10
202.5160867533
 20
455.521479173
 10
202.5446303047
 20
455.5751954364
 10
202.5737819358
 20
455.628465678
  0
LWPOLYLINE
  5
D5
330
1F
100
AcDbEntity
  8
0
  6
Continuous
 62
     8
370
    18
100
AcDbPolyline
 90
        3
 70
   128
 43
0.0
 10
202.4614251058
 20
455.4140732216
 10
202.4883591953
 20
455.4677676844
 10
202.5160867533
 20
455.521479173
  0
SPLINE
  5
D6
330
1F
100
AcDbEntity
  8
0
  6
Continuous
 62
     8
370
    18
100
AcDbSpline
210
0.0
220
0.0
230
1.0
 70
     8
 71
     3
 72
     9
 73
     5
 74
     0
 42
0.00000001
 43
0.00000001
 40
0.0
 40
0.0
 40
0.0
 40
0.0
 40
0.5215921636478461
 40
1.0
 40
1.0
 40
1.0
 40
1.0
 10
202.3227764813915
 20
455.0799047492331
 30
0.0
 10
202.3474236617554
 20
455.1383979226281
 30
0.0
 10
202.3946774015194
 20
455.2505414275956
 30
0.0
 10
202.4481765580136
 20
455.3612184749103
 30
0.0
 10
202.4737709737186
 20
455.4141672416501
 30
0.0
  0
LINE
  5
D7
330
1F
100
AcDbEntity
  8
0
  6
Continuous
 62
     8
370
    18
100
AcDbLine
 10
201.957036523
 20
453.6653295094
 30
0.0
 11
202.3118742241
 21
455.0810388018
 31
0.0
  0
ARC
  5
D8
330
1F
100
AcDbEntity
  8
0
  6
Continuous
 62
     8
370
    18
100
AcDbCircle
 10
201.9643998595
 20
471.5356987356
 30
0.0
 40
1.725144280448764
100
AcDbArc
 50
63.1846021029
 51
98.3440939803
  0
LINE
  5
D9
330
1F
100
AcDbEntity
  8
0
  6
Continuous
 62
     8
370
    18
100
AcDbLine
 10
201.7140509187
 20
471.262695859
 30
0.0
 11
201.7140509187
 21
473.2425813285
 31
0.0
  0
LINE
  5
DA
330
1F
100
AcDbEntity
  8
0
  6
Continuous
 62
     8
370
    18
100
AcDbLine
 10
167.7712920396
 20
473.2425813254
 30
0.0
 11
167.7712920396
 21
471.262695859
 31
0.0
  0
ARC
  5
DB
330
1F
100
AcDbEntity
  8
0
  6
Continuous
 62
     8
370
    18
100
AcDbCircle
 10
167.5209430989
 20
471.5356987284
 30
0.0
 40
1.725144281376016
100
AcDbArc
 50
81.6559060272
 51
116.8153978849
  0
LINE
  5
DC
330
1F
100
AcDbEntity
  8
0
  6
Continuous
 62
     8
370
    18
100
AcDbLine
 10
167.7712920388
 20
473.2425813252
 30
0.0
 11
184.7426714792
 21
473.2425813285
 31
0.0
  0
LINE
  5
DD
330
1F
100
AcDbEntity
  8
0
  6
Continuous
 62
     8
370
    18
100
AcDbLine
 10
184.7426714792
 20
473.2425813255
 30
0.0
 11
201.7140509195
 21
473.2425813238
 31
0.0
  0
LINE
  5
DE
330
1F
100
AcDbEntity
  8
0
  6
Continuous
 62
     8
370
    18
100
AcDbLine
 10
167.7712920395
 20
474.1039204988
 30
0.0
 11
167.7712920396
 21
473.2425813249
 31
0.0
  0
LINE
  5
DF
330
1F
100
AcDbEntity
  8
0
  6
Continuous
 62
     8
370
    18
100
AcDbLine
 10
201.7140509187
 20
473.242581328
 30
0.0
 11
201.7140509188
 21
474.1039204988
 31
0.0
  0
LINE
  5
E0
330
1F
100
AcDbEntity
  8
0
  6
Continuous
 62
     8
370
    18
100
AcDbLine
 10
184.7426714792
 20
473.2425813285
 30
0.0
 11
184.7426714791
 21
474.1039205024
 31
0.0
  0
LINE
  5
E1
330
1F
100
AcDbEntity
  8
0
  6
Continuous
 62
     8
370
    18
100
AcDbLine
 10
207.8430639909
 20
349.3332584845
 30
0.0
 11
207.8430639909
 21
348.3332584845
 31
0.0
  0
LINE
  5
E2
330
1F
100
AcDbEntity
  8
0
  6
Continuous
 62
     8
370
    18
100
AcDbLine
 10
207.8430639909
 20
348.3332584845
 30
0.0
 11
161.6430639909
 21
348.3332584845
 31
0.0
  0
LINE
  5
E3
330
1F
100
AcDbEntity
  8
0
  6
Continuous
 62
     8
370
    18
100
AcDbLine
 10
161.6430639909
 20
349.3332584845
 30
0.0
 11
161.6430639909
 21
348.3332584845
 31
0.0
  0
LINE
  5
E4
330
1F
100
AcDbEntity
  8
0
  6
Continuous
 62
     8
370
    18
100
AcDbLine
 10
207.8430639909
 20
344.3332584839
 30
0.0
 11
207.8430639909
 21
348.3332584845
 31
0.0
  0
LINE
  5
E5
330
1F
100
AcDbEntity
  8
0
  6
Continuous
 62
     8
370
    18
100
AcDbLine
 10
208.8430639909
 20
348.3332584845
 30
0.0
 11
207.8430639909
 21
348.3332584845
 31
0.0
  0
LINE
  5
E6
330
1F
100
AcDbEntity
  8
0
  6
Continuous
 62
     8
370
    18
100
AcDbLine
 10
161.6430639909
 20
348.3332584845
 30
0.0
 11
161.6430639909
 21
344.3332584839
 31
0.0
  0
LINE
  5
E7
330
1F
100
AcDbEntity
  8
0
  6
Continuous
 62
     8
370
    18
100
AcDbLine
 10
160.6430639909
 20
348.3332584845
 30
0.0
 11
161.6430639909
 21
348.3332584845
 31
0.0
  0
LINE
  5
E8
330
1F
100
AcDbEntity
  8
0
  6
Continuous
 62
     8
370
    18
100
AcDbLine
 10
161.7430688716
 20
349.3332584845
 30
0.0
 11
163.581214077
 21
349.6838728685
 31
0.0
  0
SPLINE
  5
E9
330
1F
100
AcDbEntity
  8
0
  6
Continuous
 62
     8
370
    18
100
AcDbSpline
210
0.0
220
0.0
230
1.0
 70
     8
 71
     3
 72
    31
 73
    27
 74
     0
 42
0.00000001
 43
0.00000001
 40
15.00000084668948
 40
15.00000084668948
 40
15.00000084668948
 40
15.00000084668948
 40
19.47563972841591
 40
23.95127932212508
 40
28.97435620277231
 40
33.99743308341956
 40
36.62337515013944
 40
39.24931721685931
 40
41.91660902780733
 40
44.58390083875534
 40
49.29898820033701
 40
51.65653188112784
 40
54.01407556191867
 40
56.37161929613026
 40
58.72916303034184
 40
61.08670676455343
 40
63.44425049876502
 40
66.09086724276457
 40
68.73748398676415
 40
74.03071747476326
 40
76.5422557625266
 40
79.05379405028994
 40
81.56533233805327
 40
84.0768706258166
 40
88.55251008406992
 40
93.02814883604631
 40
93.02814883604631
 40
93.02814883604631
 40
93.02814883604631
 10
166.7430689653361
 20
354.3332586952063
 30
0.0
 10
166.7429945535851
 20
354.3332585733473
 30
0.0
 10
166.8274043676693
 20
354.3332585733268
 30
0.0
 10
167.410223599641
 20
354.333258573064
 30
0.0
 10
168.6377489072597
 20
354.3332585721404
 30
0.0
 10
170.3673386271448
 20
354.3332585707555
 30
0.0
 10
172.0795481509759
 20
354.3332585691298
 30
0.0
 10
173.5463372698263
 20
354.3332585675474
 30
0.0
 10
175.1069964576457
 20
354.3332585655272
 30
0.0
 10
177.3365118094482
 20
354.3332585630105
 30
0.0
 10
179.8649032738023
 20
354.333258561113
 30
0.0
 10
182.5680571706379
 20
354.3332585599058
 30
0.0
 10
184.7397788107204
 20
354.3332585593855
 30
0.0
 10
186.9247889363109
 20
354.3332585589055
 30
0.0
 10
188.9395205161964
 20
354.3332585579593
 30
0.0
 10
190.8491501949215
 20
354.3332585567705
 30
0.0
 10
192.6659065810093
 20
354.333258555183
 30
0.0
 10
194.3664054328945
 20
354.3332585532788
 30
0.0
 10
196.4456547301814
 20
354.3332585505817
 30
0.0
 10
198.3154518530524
 20
354.3332585487619
 30
0.0
 10
199.8173784821683
 20
354.3332585474587
 30
0.0
 10
200.751589215805
 20
354.3332585467303
 30
0.0
 10
201.4853102065388
 20
354.3332585461461
 30
0.0
 10
202.1803523885019
 20
354.3332585456651
 30
0.0
 10
202.6595260631786
 20
354.3332585454348
 30
0.0
 10
202.7405222896409
 20
354.3332585454218
 30
0.0
 10
202.7430721258164
 20
354.3332585518423
 30
0.0
  0
LINE
  5
EA
330
1F
100
AcDbEntity
  8
0
  6
Continuous
 62
     8
370
    18
100
AcDbLine
 10
166.7430689653
 20
354.3332586578
 30
0.0
 11
166.7430689653
 21
365.3332586203
 31
0.0
  0
LINE
  5
EB
330
1F
100
AcDbEntity
  8
0
  6
Continuous
 62
     8
370
    18
100
AcDbLine
 10
166.7430684956
 20
354.3332586578
 30
0.0
 11
166.7430689653
 21
354.3332586578
 31
0.0
  0
LINE
  5
EC
330
1F
100
AcDbEntity
  8
0
  6
Continuous
 62
     7
370
    25
100
AcDbLine
 10
166.7598734086
 20
259.930665856
 30
0.0
 11
166.745165272
 21
259.1457403245
 31
0.0
  0
SPLINE
  5
ED
330
1F
100
AcDbEntity
  8
0
  6
Continuous
 62
     7
370
    25
100
AcDbSpline
210
0.0
220
0.0
230
1.0
 70
     8
 71
     3
 72
    12
 73
     8
 74
     0
 42
0.00000001
 43
0.00000001
 40
0.0
 40
0.0
 40
0.0
 40
0.0
 40
0.0600108557798614
 40
0.2768902772588813
 40
0.4892058280781625
 40
0.6954826849494172
 40
1.0
 40
1.0
 40
1.0
 40
1.0
 10
166.7708153631986
 20
159.4257928739008
 30
0.0
 10
166.7697420904604
 20
159.4068196707388
 30
0.0
 10
166.7647900066716
 20
159.3192772516925
 30
0.0
 10
166.7934449612245
 20
159.1601929081603
 30
0.0
 10
166.857643018626
 20
158.9654967151232
 30
0.0
 10
166.9672908432852
 20
158.7565318299499
 30
0.0
 10
167.0906132442342
 20
158.6526180333038
 30
0.0
 10
167.1641336727883
 20
158.5906683242216
 30
0.0
  0
SPLINE
  5
EE
330
1F
100
AcDbEntity
  8
0
  6
Continuous
 62
     7
370
    25
100
AcDbSpline
210
0.0
220
0.0
230
1.0
 70
     8
 71
     3
 72
    12
 73
     8
 74
     0
 42
0.00000001
 43
0.00000001
 40
0.0
 40
0.0
 40
0.0
 40
0.0
 40
0.3034558529679964
 40
0.5100624173104237
 40
0.7227101278259501
 40
0.939922852030274
 40
0.9999999999999999
 40
0.9999999999999999
 40
0.9999999999999999
 40
0.9999999999999999
 10
202.3223088010233
 20
158.591728816701
 30
0.0
 10
202.3954444577828
 20
158.6533749791341
 30
0.0
 10
202.5183742003254
 20
158.7569926563711
 30
0.0
 10
202.6277443029592
 20
158.9655392226389
 30
0.0
 10
202.6919432096853
 20
159.1602146879662
 30
0.0
 10
202.7205907780103
 20
159.3192778373914
 30
0.0
 10
202.7156391163373
 20
159.4068021949518
 30
0.0
 10
202.7145662978145
 20
159.4257650720987
 30
0.0
  0
LINE
  5
EF
330
1F
100
AcDbEntity
  8
0
  6
Continuous
 62
     7
370
    25
100
AcDbLine
 10
202.7401776863
 20
259.1457403247
 30
0.0
 11
202.7254695497
 21
259.930665856
 31
0.0
  0
ARC
  5
F0
330
1F
100
AcDbEntity
  8
0
  6
Continuous
 62
     7
370
    18
100
AcDbCircle
 10
167.5141482686
 20
324.2178726099
 30
0.0
 40
64.29108665815522
100
AcDbArc
 50
269.3124744848
 51
270.2291653905
  0
SPLINE
  5
F1
330
1F
100
AcDbEntity
  8
0
  6
Continuous
 62
     7
370
    18
100
AcDbSpline
210
0.0
220
0.0
230
1.0
 70
     8
 71
     3
 72
    23
 73
    19
 74
     0
 42
0.00000001
 43
0.00000001
 40
0.0
 40
0.0
 40
0.0
 40
0.0
 40
1.736884773864148
 40
3.473769547728295
 40
5.210654321592443
 40
6.947539095456591
 40
8.684423869320739
 40
10.42130864318489
 40
12.15819341704903
 40
13.89507819091318
 40
15.63196296477733
 40
17.36884773864148
 40
19.10573251250563
 40
20.84261728636977
 40
52.39352589075726
 40
83.94443449514475
 40
92.75701556081138
 40
101.569596626478
 40
101.569596626478
 40
101.569596626478
 40
101.569596626478
 10
167.77125711201
 20
259.9273002001465
 30
0.0
 10
167.7712569600427
 20
259.3560887209476
 30
0.0
 10
167.771256631899
 20
258.2132729039787
 30
0.0
 10
167.7712561041962
 20
256.5013932498879
 30
0.0
 10
167.7712555781712
 20
254.7889111441114
 30
0.0
 10
167.7712550909667
 20
253.0766415595754
 30
0.0
 10
167.7712546797423
 20
251.3643863057362
 30
0.0
 10
167.7712543816434
 20
249.6522328456803
 30
0.0
 10
167.7712542338278
 20
247.940135033257
 30
0.0
 10
167.7712542734446
 20
246.2282914955726
 30
0.0
 10
167.771254537651
 20
244.5160513172642
 30
0.0
 10
167.7712550635934
 20
242.8037408984115
 30
0.0
 10
167.7712558884252
 20
241.0914460180755
 30
0.0
 10
167.7712636915539
 20
229.5834435388228
 30
0.0
 10
167.7713226371463
 20
208.1777873728039
 30
0.0
 10
167.7713513466214
 20
184.5193522626626
 30
0.0
 10
167.7712979755449
 20
168.2836180831068
 30
0.0
 10
167.771271332911
 20
162.466406973764
 30
0.0
 10
167.7712571109261
 20
159.5574397732043
 30
0.0
  0
SPLINE
  5
F2
330
1F
100
AcDbEntity
  8
0
  6
Continuous
 62
     7
370
    18
100
AcDbSpline
210
0.0
220
0.0
230
1.0
 70
     8
 71
     3
 72
    10
 73
     6
 74
     0
 42
0.00000001
 43
0.00000001
 40
0.0
 40
0.0
 40
0.0
 40
0.0
 40
0.5
 40
0.5
 40
1.0
 40
1.0
 40
1.0
 40
1.0
 10
167.1106978355558
 20
159.5183880972042
 30
0.0
 10
167.2077986095821
 20
159.531617058183
 30
0.0
 10
167.3192930273567
 20
159.5417001989309
 30
0.0
 10
167.5470783608935
 20
159.554591446746
 30
0.0
 10
167.6629551895662
 20
159.5574397732557
 30
0.0
 10
167.771292037716
 20
159.5574397732043
 30
0.0
  0
SPLINE
  5
F3
330
1F
100
AcDbEntity
  8
0
  6
Continuous
 62
     7
370
    18
100
AcDbSpline
210
0.0
220
0.0
230
1.0
 70
     8
 71
     3
 72
     8
 73
     4
 74
     0
 42
0.00000001
 43
0.00000001
 40
0.0
 40
0.0
 40
0.0
 40
0.0
 40
1.0
 40
1.0
 40
1.0
 40
1.0
 10
166.7427004919517
 20
259.9314145334167
 30
0.0
 10
166.8476052119461
 20
226.4539870054092
 30
0.0
 10
166.9672639286998
 20
192.9814243412973
 30
0.0
 10
167.1106978355558
 20
159.5183880972042
 30
0.0
  0
LINE
  5
F4
330
1F
100
AcDbEntity
  8
0
  6
Continuous
 62
     7
370
    18
100
AcDbLine
 10
184.7426714792
 20
159.5574881416
 30
0.0
 11
201.7140159919
 21
159.5574881411
 31
0.0
  0
LINE
  5
F5
330
1F
100
AcDbEntity
  8
0
  6
Continuous
 62
     7
370
    18
100
AcDbLine
 10
167.7712571109
 20
159.5574881411
 30
0.0
 11
184.7426714792
 21
159.5574881416
 31
0.0
  0
LINE
  5
F6
330
1F
100
AcDbEntity
  8
0
  6
Continuous
 62
     7
370
    18
100
AcDbLine
 10
184.7426714793
 20
259.9273002001
 30
0.0
 11
167.771257112
 21
259.9273002001
 31
0.0
  0
LINE
  5
F7
330
1F
100
AcDbEntity
  8
0
  6
Continuous
 62
     7
370
    18
100
AcDbLine
 10
201.7140159922
 20
259.9273002001
 30
0.0
 11
184.7426714793
 21
259.9273002001
 31
0.0
  0
LINE
  5
F8
330
1F
100
AcDbEntity
  8
0
  6
Continuous
 62
     7
370
    18
100
AcDbLine
 10
201.7140159919
 20
159.5574397732
 30
0.0
 11
201.7140159922
 21
259.9273002001
 31
0.0
  0
SPLINE
  5
F9
330
1F
100
AcDbEntity
  8
0
  6
Continuous
 62
     7
370
    25
100
AcDbSpline
210
0.0
220
0.0
230
1.0
 70
     8
 71
     3
 72
     9
 73
     5
 74
     0
 42
0.00000001
 43
0.00000001
 40
0.0
 40
0.0
 40
0.0
 40
0.0
 40
0.9376853652102407
 40
1.0
 40
1.0
 40
1.0
 40
1.0
 10
166.7427004919518
 20
159.3901874044706
 30
0.0
 10
166.7430719388013
 20
159.4016610879262
 30
0.0
 10
166.7434680704498
 20
159.41389726424
 30
0.0
 10
166.7666464110265
 20
159.4253578031327
 30
0.0
 10
166.7680907608546
 20
159.4260719624283
 30
0.0
  0
SPLINE
  5
FA
330
1F
100
AcDbEntity
  8
0
  6
Continuous
 62
     7
370
    18
100
AcDbSpline
210
0.0
220
0.0
230
1.0
 70
     8
 71
     3
 72
    16
 73
    12
 74
     0
 42
0.00000001
 43
0.00000001
 40
0.0
 40
0.0
 40
0.0
 40
0.0
 40
0.1445578844925529
 40
0.2820183326617268
 40
0.4115521941843813
 40
0.5325416620284427
 40
0.6445656509225017
 40
0.7473756175406338
 40
0.8408661968057106
 40
0.9250443774193379
 40
1.0
 40
1.0
 40
1.0
 40
1.0
 10
202.3747915768099
 20
159.5184165086357
 30
0.0
 10
202.3476446454351
 20
159.5219229237976
 30
0.0
 10
202.2946836301982
 20
159.5287635977674
 30
0.0
 10
202.2102432563923
 20
159.5372457978981
 30
0.0
 10
202.1269101843506
 20
159.5440697088547
 30
0.0
 10
202.045915766099
 20
159.5492328230514
 30
0.0
 10
201.9688271410108
 20
159.552919233241
 30
0.0
 10
201.8966915624453
 20
159.5553422527669
 30
0.0
 10
201.8302694313595
 20
159.5567392548296
 30
0.0
 10
201.7700305397539
 20
159.557401889348
 30
0.0
 10
201.7319756397183
 20
159.5574605234963
 30
0.0
 10
201.7140509206004
 20
159.5574881415071
 30
0.0
  0
LINE
  5
FB
330
1F
100
AcDbEntity
  8
0
  6
Continuous
 62
     7
370
    18
100
AcDbLine
 10
202.7406393424
 20
259.3848352017
 30
0.0
 11
202.3746451228
 21
159.5183880972
 31
0.0
  0
SPLINE
  5
FC
330
1F
100
AcDbEntity
  8
0
  6
Continuous
 62
     7
370
    18
100
AcDbSpline
210
0.0
220
0.0
230
1.0
 70
     8
 71
     3
 72
    20
 73
    16
 74
     0
 42
0.00000001
 43
0.00000001
 40
0.0
 40
0.0
 40
0.0
 40
0.0
 40
0.2499999999999952
 40
0.2499999999999952
 40
0.4999999999999903
 40
0.4999999999999903
 40
0.7499999999999856
 40
0.7499999999999856
 40
0.8749999999999785
 40
0.8749999999999785
 40
0.937499999999988
 40
0.937499999999988
 40
0.9687499999999939
 40
0.9687499999999939
 40
1.0
 40
1.0
 40
1.0
 40
1.0
 10
201.7140509187372
 20
259.9273002001477
 30
0.0
 10
201.8352715949323
 20
259.9273002001537
 30
0.0
 10
201.9660535425872
 20
259.9273885708487
 30
0.0
 10
202.2192865075545
 20
259.9277895781345
 30
0.0
 10
202.3409524796431
 20
259.9281035737116
 30
0.0
 10
202.5417974720986
 20
259.9289069472545
 30
0.0
 10
202.620296993824
 20
259.9293936072476
 30
0.0
 10
202.6954864599854
 20
259.9301533000593
 30
0.0
 10
202.7136866704323
 20
259.9304111653495
 30
0.0
 10
202.7313624262078
 20
259.9307932325023
 30
0.0
 10
202.7356618772015
 20
259.930919821826
 30
0.0
 10
202.7398916379638
 20
259.9311073525635
 30
0.0
 10
202.740932144235
 20
259.9311694726842
 30
0.0
 10
202.742307547144
 20
259.9312927581901
 30
0.0
 10
202.7426424645013
 20
259.9313472128037
 30
0.0
 10
202.7426424645014
 20
259.9314145334166
 30
0.0
  0
LINE
  5
FD
330
1F
100
AcDbEntity
  8
0
  6
Continuous
 62
     7
370
    25
100
AcDbLine
 10
166.7427004938
 20
259.8236359777
 30
0.0
 11
166.7427004938
 21
159.3901874045
 31
0.0
  0
LINE
  5
FE
330
1F
100
AcDbEntity
  8
0
  6
Continuous
 62
     7
370
    25
100
AcDbLine
 10
166.742700492
 20
259.9321644783
 30
0.0
 11
166.742700492
 21
259.939414469
 31
0.0
  0
LINE
  5
FF
330
1F
100
AcDbEntity
  8
0
  6
Continuous
 62
     7
370
    25
100
AcDbLine
 10
202.7426424645
 20
259.9314145334
 30
0.0
 11
202.7426424645
 21
259.9374194804
 31
0.0
  0
LINE
  5
100
330
1F
100
AcDbEntity
  8
0
  6
Continuous
 62
     7
370
    25
100
AcDbLine
 10
202.7426424645
 20
259.7151274767
 30
0.0
 11
202.7426424645
 21
159.3901874045
 31
0.0
  0
LINE
  5
101
330
1F
100
AcDbEntity
  8
0
  6
Continuous
 62
     7
370
    25
100
AcDbLine
 10
167.7713116322
 20
158.048872027
 30
0.0
 11
201.7139384956
 21
158.0488993074
 31
0.0
  0
SPLINE
  5
102
330
1F
100
AcDbEntity
  8
0
  6
Continuous
 62
     7
370
    25
100
AcDbSpline
210
0.0
220
0.0
230
1.0
 70
     8
 71
     3
 72
    14
 73
    10
 74
     0
 42
0.00000001
 43
0.00000001
 40
0.0
 40
0.0
 40
0.0
 40
0.0
 40
0.25
 40
0.25
 40
0.5
 40
0.5
 40
0.75
 40
0.75
 40
1.0
 40
1.0
 40
1.0
 40
1.0
 10
201.7139384936506
 20
158.0488993135547
 30
0.0
 10
201.8486031572933
 20
158.048506426858
 30
0.0
 10
201.9832177281962
 20
158.0745376195371
 30
0.0
 10
202.2320501303592
 20
158.1754662544942
 30
0.0
 10
202.3461699919224
 20
158.250323661455
 30
0.0
 10
202.5366105780803
 20
158.437480957411
 30
0.0
 10
202.6128563228638
 20
158.5497068613473
 30
0.0
 10
202.7159027397485
 20
158.7944752373509
 30
0.0
 10
202.7426628406614
 20
158.9269210418628
 30
0.0
 10
202.7426424527393
 20
159.0594151600653
 30
0.0
  0
LINE
  5
103
330
1F
100
AcDbEntity
  8
0
  6
Continuous
 62
     7
370
    25
100
AcDbLine
 10
202.7426424645
 20
159.3902357747
 30
0.0
 11
202.7426424645
 21
159.0576529454
 31
0.0
  0
SPLINE
  5
104
330
1F
100
AcDbEntity
  8
0
  6
Continuous
 62
     7
370
    25
100
AcDbSpline
210
0.0
220
0.0
230
1.0
 70
     8
 71
     3
 72
    14
 73
    10
 74
     0
 42
0.00000001
 43
0.00000001
 40
0.0
 40
0.0
 40
0.0
 40
0.0
 40
0.25
 40
0.25
 40
0.5
 40
0.5
 40
0.75
 40
0.75
 40
1.0
 40
1.0
 40
1.0
 40
1.0
 10
166.7427005101996
 20
159.0594914447506
 30
0.0
 10
166.742676449524
 20
158.9269963298005
 30
0.0
 10
166.7694307057929
 20
158.7945487976096
 30
0.0
 10
166.8724622868932
 20
158.5497732424602
 30
0.0
 10
166.9486990528567
 20
158.4375418694641
 30
0.0
 10
167.1391208139124
 20
158.2503684174175
 30
0.0
 10
167.2532308485803
 20
158.17550031299
 30
0.0
 10
167.5020455979347
 20
158.0745448149576
 30
0.0
 10
167.6366523655219
 20
158.0484974558715
 30
0.0
 10
167.7713116322872
 20
158.0488720273004
 30
0.0
  0
LINE
  5
105
330
1F
100
AcDbEntity
  8
0
  6
Continuous
 62
     7
370
    25
100
AcDbLine
 10
166.7427004938
 20
159.0576529454
 30
0.0
 11
166.7427004938
 21
159.3902357747
 31
0.0
  0
SPLINE
  5
106
330
1F
100
AcDbEntity
  8
0
  6
Continuous
 62
     7
370
    25
100
AcDbSpline
210
0.0
220
0.0
230
1.0
 70
     8
 71
     3
 72
    12
 73
     8
 74
     0
 42
0.00000001
 43
0.00000001
 40
0.0
 40
0.0
 40
0.0
 40
0.0
 40
0.5
 40
0.5
 40
0.75
 40
0.75
 40
1.0
 40
1.0
 40
1.0
 40
1.0
 10
167.5055790178257
 20
260.9446389203446
 30
0.0
 10
167.2951611019117
 20
260.8879487226051
 30
0.0
 10
167.1034459616711
 20
260.7629141461775
 30
0.0
 10
166.8974413372851
 20
260.503164971415
 30
0.0
 10
166.8417650423467
 20
260.4046099972333
 30
0.0
 10
166.7639543057891
 20
260.1868874780222
 30
0.0
 10
166.7427017938409
 20
260.0700477345808
 30
0.0
 10
166.7427004938551
 20
259.9487775509903
 30
0.0
  0
ELLIPSE
  5
107
330
1F
100
AcDbEntity
  8
0
  6
Continuous
 62
     7
370
    25
100
AcDbEllipse
 10
167.7712920392
 20
259.9513452382
 30
0.0
 11
1.028591545345336
 21
-2.057618075923529E-9
 31
0.0
210
0.0
220
0.0
230
1.0
 40
0.9996126348
 41
1.570796328383772
 42
1.832086402291868
  0
LINE
  5
108
330
1F
100
AcDbEntity
  8
0
  6
Continuous
 62
     7
370
    25
100
AcDbLine
 10
167.7712920396
 20
260.979538343
 30
0.0
 11
201.714050918
 21
260.979538343
 31
0.0
  0
SPLINE
  5
109
330
1F
100
AcDbEntity
  8
0
  6
Continuous
 62
     7
370
    25
100
AcDbSpline
210
0.0
220
0.0
230
1.0
 70
     8
 71
     3
 72
    10
 73
     6
 74
     0
 42
0.00000001
 43
0.00000001
 40
0.0
 40
0.0
 40
0.0
 40
0.0
 40
0.5
 40
0.5
 40
1.0
 40
1.0
 40
1.0
 40
1.0
 10
202.7426423297671
 20
259.949292903629
 30
0.0
 10
202.7425195017448
 20
260.1894191175662
 30
0.0
 10
202.6562847708445
 20
260.4171692624356
 30
0.0
 10
202.3813568787879
 20
260.7633656453851
 30
0.0
 10
202.1892466374195
 20
260.8882346686524
 30
0.0
 10
201.979612096025
 20
260.9446794959127
 30
0.0
  0
ELLIPSE
  5
10A
330
1F
100
AcDbEntity
  8
0
  6
Continuous
 62
     7
370
    25
100
AcDbEllipse
 10
201.7140509192
 20
259.9513452382
 30
0.0
 11
1.028591545345279
 21
2.057731762761250E-9
 31
0.0
210
0.0
220
0.0
230
1.0
 40
0.9996126348
 41
1.309659058651209
 42
1.570796325925301
  0
LINE
  5
10B
330
1F
100
AcDbEntity
  8
0
  6
Continuous
 62
     7
370
    25
100
AcDbLine
 10
166.7431084008
 20
102.0508190676
 30
0.0
 11
166.7431084008
 21
159.0574723198
 31
0.0
  0
LINE
  5
10C
330
1F
100
AcDbEntity
  8
0
  6
Continuous
 62
     7
370
    25
100
AcDbLine
 10
202.7431105871
 20
102.0508190676
 30
0.0
 11
202.7431105871
 21
159.2816599131
 31
0.0
  0
SPLINE
  5
10D
330
1F
100
AcDbEntity
  8
0
  6
Continuous
 62
     7
370
    25
100
AcDbSpline
210
0.0
220
0.0
230
1.0
 70
     8
 71
     3
 72
    10
 73
     6
 74
     0
 42
0.00000001
 43
0.00000001
 40
0.0
 40
0.0
 40
0.0
 40
0.0
 40
0.5
 40
0.5
 40
1.0
 40
1.0
 40
1.0
 40
1.0
 10
167.7431084008246
 20
101.0508190676002
 30
0.0
 10
167.4813090130255
 20
101.0508190676002
 30
0.0
 10
167.2211217420613
 20
101.1585921639904
 30
0.0
 10
166.8508814972148
 20
101.528832408837
 30
0.0
 10
166.7431084008246
 20
101.7890196798011
 30
0.0
 10
166.7431084008246
 20
102.0508190676002
 30
0.0
  0
LINE
  5
10E
330
1F
100
AcDbEntity
  8
0
  6
Continuous
 62
     7
370
    25
100
AcDbLine
 10
201.7431105871
 20
101.0508190676
 30
0.0
 11
167.7431084008
 21
101.0508190676
 31
0.0
  0
SPLINE
  5
10F
330
1F
100
AcDbEntity
  8
0
  6
Continuous
 62
     7
370
    25
100
AcDbSpline
210
0.0
220
0.0
230
1.0
 70
     8
 71
     3
 72
    10
 73
     6
 74
     0
 42
0.00000001
 43
0.00000001
 40
0.0
 40
0.0
 40
0.0
 40
0.0
 40
0.5
 40
0.5
 40
1.0
 40
1.0
 40
1.0
 40
1.0
 10
202.7431105871043
 20
102.0508190676001
 30
0.0
 10
202.7431105871043
 20
101.789019679801
 30
0.0
 10
202.6353374907141
 20
101.5288324088368
 30
0.0
 10
202.2650972458676
 20
101.1585921639903
 30
0.0
 10
202.0049099749034
 20
101.0508190676001
 30
0.0
 10
201.7431105871043
 20
101.0508190676001
 30
0.0
  0
ARC
  5
110
330
1F
100
AcDbEntity
  8
0
  6
Continuous
 62
     7
370
    25
100
AcDbCircle
 10
167.7431084005
 20
259.9508190673
 30
0.0
 40
1.000000000034108
100
AcDbArc
 50
89.9999967546
 51
179.9999999862
  0
LINE
  5
111
330
1F
100
AcDbEntity
  8
0
  6
Continuous
 62
     7
370
    25
100
AcDbLine
 10
161.6430639909
 20
267.0508180646
 30
0.0
 11
207.8430639909
 21
267.0508180646
 31
0.0
  0
ARC
  5
112
330
1F
100
AcDbEntity
  8
0
  6
Continuous
 62
     7
370
    25
100
AcDbCircle
 10
161.6430639909
 20
266.0508180646
 30
0.0
 40
1.0
100
AcDbArc
 50
90.0
 51
180.0
  0
LINE
  5
113
330
1F
100
AcDbEntity
  8
0
  6
Continuous
 62
     7
370
    25
100
AcDbLine
 10
160.6430639909
 20
219.8508180644
 30
0.0
 11
160.6430639909
 21
266.0508180646
 31
0.0
  0
ARC
  5
114
330
1F
100
AcDbEntity
  8
0
  6
Continuous
 62
     7
370
    25
100
AcDbCircle
 10
207.8430639909
 20
266.0508180646
 30
0.0
 40
1.0
100
AcDbArc
 50
0.0
 51
90.0
  0
LINE
  5
115
330
1F
100
AcDbEntity
  8
0
  6
Continuous
 62
     7
370
    25
100
AcDbLine
 10
208.8430639909
 20
266.0508180646
 30
0.0
 11
208.8430639909
 21
219.8508180644
 31
0.0
  0
LINE
  5
116
330
1F
100
AcDbEntity
  8
0
  6
Continuous
 62
     7
370
    25
100
AcDbLine
 10
207.8430639909
 20
218.8508180644
 30
0.0
 11
202.7431105871
 21
218.8508180644
 31
0.0
  0
LINE
  5
117
330
1F
100
AcDbEntity
  8
0
  6
Continuous
 62
     7
370
    25
100
AcDbLine
 10
166.7427004938
 20
218.8508180644
 30
0.0
 11
161.6430639909
 21
218.8508180644
 31
0.0
  0
ARC
  5
118
330
1F
100
AcDbEntity
  8
0
  6
Continuous
 62
     7
370
    25
100
AcDbCircle
 10
161.6430639909
 20
219.8508180644
 30
0.0
 40
1.0
100
AcDbArc
 50
180.0
 51
270.0
  0
ARC
  5
119
330
1F
100
AcDbEntity
  8
0
  6
Continuous
 62
     7
370
    25
100
AcDbCircle
 10
207.8430639909
 20
219.8508180644
 30
0.0
 40
1.0
100
AcDbArc
 50
270.0
 51
0.0
  0
LINE
  5
11A
330
1F
100
AcDbEntity
  8
0
  6
Continuous
 62
     8
370
    18
100
AcDbLine
 10
167.7712920396
 20
159.5574881425
 30
0.0
 11
167.7712920396
 21
158.375333213
 31
0.0
  0
LINE
  5
11B
330
1F
100
AcDbEntity
  8
0
  6
Continuous
 62
     8
370
    18
100
AcDbLine
 10
184.7426714792
 20
158.3753332104
 30
0.0
 11
184.7426714792
 21
159.5574881422
 31
0.0
  0
LINE
  5
11C
330
1F
100
AcDbEntity
  8
0
  6
Continuous
 62
     8
370
    18
100
AcDbLine
 10
167.7712920388
 20
158.3753332115
 30
0.0
 11
184.7426714792
 21
158.3753332104
 31
0.0
  0
SPLINE
  5
11D
330
1F
100
AcDbEntity
  8
0
  6
Continuous
 62
     8
370
    18
100
AcDbSpline
210
0.0
220
0.0
230
1.0
 70
     8
 71
     3
 72
    10
 73
     6
 74
     0
 42
0.00000001
 43
0.00000001
 40
0.0
 40
0.0
 40
0.0
 40
0.0
 40
0.3087215474092329
 40
0.6516173241370983
 40
1.0
 40
1.0
 40
1.0
 40
1.0
 10
166.7680907608546
 20
159.4260719624283
 30
0.0
 10
166.786590921342
 20
159.4369714657963
 30
0.0
 10
166.8256391354173
 20
159.4599770035655
 30
0.0
 10
166.9418557216894
 20
159.4919787346638
 30
0.0
 10
167.0541201047767
 20
159.5095385171462
 30
0.0
 10
167.1106978355558
 20
159.5183880972046
 30
0.0
  0
ARC
  5
11E
330
1F
100
AcDbEntity
  8
0
  6
Continuous
 62
     8
370
    18
100
AcDbCircle
 10
167.7644930932
 20
159.3971264238
 30
0.0
 40
1.021815833324204
100
AcDbArc
 50
180.3863789842
 51
270.3812367639
  0
LINE
  5
11F
330
1F
100
AcDbEntity
  8
0
  6
Continuous
 62
     8
370
    18
100
AcDbLine
 10
201.7140509187
 20
158.3753332135
 30
0.0
 11
201.7140509187
 21
159.5574881429
 31
0.0
  0
SPLINE
  5
120
330
1F
100
AcDbEntity
  8
0
  6
Continuous
 62
     8
370
    18
100
AcDbSpline
210
0.0
220
0.0
230
1.0
 70
     8
 71
     3
 72
    13
 73
     9
 74
     0
 42
0.00000001
 43
0.00000001
 40
0.0
 40
0.0
 40
0.0
 40
0.0
 40
0.1022359318077118
 40
0.2311188623515477
 40
0.386889920436085
 40
0.5687097487423877
 40
0.7741023563612988
 40
1.0
 40
1.0
 40
1.0
 40
1.0
 10
202.7426424212163
 20
159.3901874044726
 30
0.0
 10
202.7418493189718
 20
159.3950361092508
 30
0.0
 10
202.7400563985647
 20
159.4059972959139
 30
0.0
 10
202.7226223218747
 20
159.4236656900868
 30
0.0
 10
202.6856451581268
 20
159.4451187204803
 30
0.0
 10
202.6192303886368
 20
159.4694834905652
 30
0.0
 10
202.5185501171695
 20
159.4957182450064
 30
0.0
 10
202.4242062354979
 20
159.5106143499101
 30
0.0
 10
202.3747915768099
 20
159.5184165086357
 30
0.0
  0
ARC
  5
121
330
1F
100
AcDbEntity
  8
0
  6
Continuous
 62
     8
370
    18
100
AcDbCircle
 10
201.7208498651
 20
159.3971264248
 30
0.0
 40
1.02181583331997
100
AcDbArc
 50
269.6187632359
 51
359.6136210311
  0
LINE
  5
122
330
1F
100
AcDbEntity
  8
0
  6
Continuous
 62
     8
370
    18
100
AcDbLine
 10
184.7426714792
 20
158.3753332099
 30
0.0
 11
201.7140509195
 21
158.3753332394
 31
0.0
  0
LINE
  5
123
330
1F
100
AcDbEntity
  8
0
  6
Continuous
 62
     8
370
    18
100
AcDbLine
 10
166.742700492
 20
259.9314145334
 30
0.0
 11
166.742700492
 21
259.9321644783
 31
0.0
  0
LINE
  5
124
330
1F
100
AcDbEntity
  8
0
  6
Continuous
 62
     8
370
    18
100
AcDbLine
 10
167.7712920396
 20
158.3753332101
 30
0.0
 11
167.7712920396
 21
158.0490550564
 31
0.0
  0
LINE
  5
125
330
1F
100
AcDbEntity
  8
0
  6
Continuous
 62
     8
370
    18
100
AcDbLine
 10
201.7140509187
 20
158.0490550564
 30
0.0
 11
201.7140509187
 21
158.3753332106
 31
0.0
  0
SPLINE
  5
126
330
1F
100
AcDbEntity
  8
0
  6
Continuous
 62
     8
370
    18
100
AcDbSpline
210
0.0
220
0.0
230
1.0
 70
     8
 71
     3
 72
    14
 73
    10
 74
     0
 42
0.00000001
 43
0.00000001
 40
0.0
 40
0.0
 40
0.0
 40
0.0
 40
0.25
 40
0.25
 40
0.5
 40
0.5
 40
0.75
 40
0.75
 40
1.0
 40
1.0
 40
1.0
 40
1.0
 10
166.7427004949511
 20
259.9394144689517
 30
0.0
 10
166.7426940095175
 20
260.0740598386997
 30
0.0
 10
166.7694606733806
 20
260.2086535143256
 30
0.0
 10
166.8725056147105
 20
260.4574494397392
 30
0.0
 10
166.9487433434384
 20
260.571553786991
 30
0.0
 10
167.1391575890518
 20
260.7619756810215
 30
0.0
 10
167.2532591769068
 20
260.83821829576
 30
0.0
 10
167.502052129089
 20
260.9412743962204
 30
0.0
 10
167.6366455920505
 20
260.9680473288121
 30
0.0
 10
167.7712920391135
 20
260.9680473288107
 30
0.0
  0
LINE
  5
127
330
1F
100
AcDbEntity
  8
0
  6
Continuous
 62
     8
370
    18
100
AcDbLine
 10
167.7712920393
 20
260.9599978503
 30
0.0
 11
167.7712920391
 21
260.9679977863
 31
0.0
  0
LINE
  5
128
330
1F
100
AcDbEntity
  8
0
  6
Continuous
 62
     8
370
    18
100
AcDbLine
 10
167.7712920396
 20
259.9273002001
 30
0.0
 11
167.7712920393
 21
260.9599978503
 31
0.0
  0
LINE
  5
129
330
1F
100
AcDbEntity
  8
0
  6
Continuous
 62
     8
370
    18
100
AcDbLine
 10
184.7426714793
 20
260.9599978503
 30
0.0
 11
167.7712920393
 21
260.9599978503
 31
0.0
  0
LINE
  5
12A
330
1F
100
AcDbEntity
  8
0
  6
Continuous
 62
     8
370
    18
100
AcDbLine
 10
184.7426714793
 20
259.9273002001
 30
0.0
 11
184.7426714793
 21
260.9599978503
 31
0.0
  0
LINE
  5
12B
330
1F
100
AcDbEntity
  8
0
  6
Continuous
 62
     8
370
    18
100
AcDbLine
 10
201.7140509192
 20
259.9273002001
 30
0.0
 11
201.7140509192
 21
260.9599978503
 31
0.0
  0
LINE
  5
12C
330
1F
100
AcDbEntity
  8
0
  6
Continuous
 62
     8
370
    18
100
AcDbLine
 10
201.7140509192
 20
260.9599978503
 30
0.0
 11
201.7140509192
 21
260.9679977863
 31
0.0
  0
SPLINE
  5
12D
330
1F
100
AcDbEntity
  8
0
  6
Continuous
 62
     8
370
    18
100
AcDbSpline
210
0.0
220
0.0
230
1.0
 70
     8
 71
     3
 72
    10
 73
     6
 74
     0
 42
0.00000001
 43
0.00000001
 40
0.0
 40
0.0
 40
0.0
 40
0.0
 40
0.5
 40
0.5
 40
1.0
 40
1.0
 40
1.0
 40
1.0
 10
202.7426424645014
 20
259.9394144689515
 30
0.0
 10
202.7443036366394
 20
260.2093045798169
 30
0.0
 10
202.6317665222948
 20
260.4763767598562
 30
0.0
 10
202.2515309869277
 20
260.8573194825663
 30
0.0
 10
201.9834280180407
 20
260.968199878984
 30
0.0
 10
201.7140509192035
 20
260.9679977863143
 30
0.0
  0
LINE
  5
12E
330
1F
100
AcDbEntity
  8
0
  6
Continuous
 62
     8
370
    18
100
AcDbLine
 10
184.7426714793
 20
260.9599978503
 30
0.0
 11
201.7140509192
 21
260.9599978503
 31
0.0
  0
LINE
  5
12F
330
1F
100
AcDbEntity
  8
0
  6
Continuous
 62
     8
370
    18
100
AcDbLine
 10
184.7426714792
 20
260.9599978503
 30
0.0
 11
184.7426714792
 21
260.9679977863
 31
0.0
  0
LINE
  5
130
330
1F
100
AcDbEntity
  8
0
  6
Continuous
 62
     8
370
    18
100
AcDbLine
 10
184.7426714792
 20
260.9680461555
 30
0.0
 11
201.7140509183
 21
260.9680461555
 31
0.0
  0
LINE
  5
131
330
1F
100
AcDbEntity
  8
0
  6
Continuous
 62
     8
370
    18
100
AcDbLine
 10
184.7426714792
 20
260.9679977863
 30
0.0
 11
167.7712920391
 21
260.9679977863
 31
0.0
  0
LINE
  5
132
330
1F
100
AcDbEntity
  8
0
  6
Continuous
 62
     8
370
    18
100
AcDbLine
 10
167.7712920396
 20
260.979538343
 30
0.0
 11
167.7712920407
 21
260.9680461561
 31
0.0
  0
LINE
  5
133
330
1F
100
AcDbEntity
  8
0
  6
Continuous
 62
     8
370
    18
100
AcDbLine
 10
201.7140509183
 20
260.9680461564
 30
0.0
 11
201.714050918
 21
260.979538343
 31
0.0
  0
LINE
  5
134
330
1F
100
AcDbEntity
  8
0
  6
Continuous
 62
     8
370
    18
100
AcDbLine
 10
201.743110587
 20
102.0508190676
 30
0.0
 11
201.743110587
 21
158.0488993308
 31
0.0
  0
LINE
  5
135
330
1F
100
AcDbEntity
  8
0
  6
Continuous
 62
     8
370
    18
100
AcDbLine
 10
167.7431084006
 20
102.0508190676
 30
0.0
 11
201.743110587
 21
102.0508190676
 31
0.0
  0
LINE
  5
136
330
1F
100
AcDbEntity
  8
0
  6
Continuous
 62
     8
370
    18
100
AcDbLine
 10
167.7431084006
 20
102.0508190676
 30
0.0
 11
167.7431084006
 21
158.0488720043
 31
0.0
  0
LINE
  5
137
330
1F
100
AcDbEntity
  8
0
  6
Continuous
 62
     8
370
    18
100
AcDbLine
 10
166.7431084008
 20
102.0508190676
 30
0.0
 11
167.7431084006
 21
102.0508190676
 31
0.0
  0
LINE
  5
138
330
1F
100
AcDbEntity
  8
0
  6
Continuous
 62
     8
370
    18
100
AcDbLine
 10
201.743110587
 20
102.0508190676
 30
0.0
 11
202.7431105871
 21
102.0508190676
 31
0.0
  0
SPLINE
  5
139
330
1F
100
AcDbEntity
  8
0
  6
Continuous
 62
     8
370
    18
100
AcDbSpline
210
0.0
220
0.0
230
1.0
 70
    24
 71
     3
 72
    10
 73
     6
 74
     0
 42
0.00000001
 43
0.00000001
 40
0.0
 40
0.0
 40
0.0
 40
0.0
 40
0.5
 40
0.5
 40
1.0
 40
1.0
 40
1.0
 40
1.0
 10
167.7431084008246
 20
101.0508190676002
 30
0.0
 10
167.7431084007686
 20
101.0508190676012
 30
0.0
 10
167.7431084007129
 20
101.1585921639918
 30
0.0
 10
167.7431084006336
 20
101.5288324088381
 30
0.0
 10
167.7431084006105
 20
101.7890196798017
 30
0.0
 10
167.7431084006105
 20
102.0508190676002
 30
0.0
  0
SPLINE
  5
13A
330
1F
100
AcDbEntity
  8
0
  6
Continuous
 62
     8
370
    18
100
AcDbSpline
210
0.0
220
0.0
230
1.0
 70
    24
 71
     3
 72
    10
 73
     6
 74
     0
 42
0.00000001
 43
0.00000001
 40
0.0
 40
0.0
 40
0.0
 40
0.0
 40
0.5
 40
0.5
 40
1.0
 40
1.0
 40
1.0
 40
1.0
 10
201.7431105870018
 20
102.0508190676001
 30
0.0
 10
201.7431105870018
 20
101.789019679801
 30
0.0
 10
201.7431105870128
 20
101.5288324088368
 30
0.0
 10
201.7431105870508
 20
101.1585921639903
 30
0.0
 10
201.7431105870774
 20
101.0508190676001
 30
0.0
 10
201.7431105871043
 20
101.0508190676001
 30
0.0
  0
SPLINE
  5
13B
330
1F
100
AcDbEntity
  8
0
  6
Continuous
 62
     8
370
    18
100
AcDbSpline
210
0.0
220
0.0
230
1.0
 70
     8
 71
     3
 72
    33
 73
    29
 74
     0
 42
0.00000001
 43
0.00000001
 40
0.0
 40
0.0
 40
0.0
 40
0.0
 40
0.0190878135363985
 40
0.0381795741833243
 40
0.0572924407854318
 40
0.0868746858683158
 40
0.1165117299857797
 40
0.1774738038076334
 40
0.2399833085890991
 40
0.3037884199867951
 40
0.3686009915720377
 40
0.4059787639266889
 40
0.4341242959769487
 40
0.4717449285430055
 40
0.4999981980460815
 40
0.537662016135679
 40
0.5658720918559887
 40
0.6033780455041943
 40
0.6313953720067801
 40
0.6685474158622448
 40
0.696228501151532
 40
0.7600336125491289
 40
0.8225431173304683
 40
0.8835051911521791
 40
0.9427084540340297
 40
0.9716034496708348
 40
0.9857879152615971
 40
1.0
 40
1.0
 40
1.0
 40
1.0
 10
161.7430685619762
 20
259.9508187306998
 30
0.0
 10
161.7435874523477
 20
260.0107721564797
 30
0.0
 10
161.7446253403905
 20
260.130691405625
 30
0.0
 10
161.7530272892766
 20
260.3104816792003
 30
0.0
 10
161.7688744992704
 20
260.5228179847549
 30
0.0
 10
161.7967112109021
 20
260.7673685353615
 30
0.0
 10
161.8567494984409
 20
261.1401377985337
 30
0.0
 10
161.9669649557274
 20
261.6090467778412
 30
0.0
 10
162.1566776310474
 20
262.1667952659464
 30
0.0
 10
162.405733627439
 20
262.714077145206
 30
0.0
 10
162.6689431794528
 20
263.1652378346522
 30
0.0
 10
162.9030368732735
 20
263.5013221229402
 30
0.0
 10
163.1016752604415
 20
263.7573542347249
 30
0.0
 10
163.2946165491999
 20
263.9811552312341
 30
0.0
 10
163.5194663273618
 20
264.2162105535195
 30
0.0
 10
163.7347442011673
 20
264.4191156901684
 30
0.0
 10
163.9822958665739
 20
264.6293622411975
 30
0.0
 10
164.2163712923483
 20
264.8082261613678
 30
0.0
 10
164.4824119963939
 20
264.9906364916641
 30
0.0
 10
164.7312157283565
 20
265.14312717621
 30
0.0
 10
165.0860652337201
 20
265.3364968690868
 30
0.0
 10
165.5271084140781
 20
265.537220513508
 30
0.0
 10
166.084854734939
 20
265.7269263210774
 30
0.0
 10
166.6442224523054
 20
265.8583897306016
 30
0.0
 10
167.1087624126853
 20
265.9222581058802
 30
0.0
 10
167.4293836462124
 20
265.9437242268031
 30
0.0
 10
167.6092388056928
 20
265.9499571823879
 30
0.0
 10
167.6984289872808
 20
265.9505306927639
 30
0.0
 10
167.743067452301
 20
265.9508177268568
 30
0.0
  0
SPLINE
  5
13C
330
1F
100
AcDbEntity
  8
0
  6
Continuous
 62
     8
370
    18
100
AcDbSpline
210
0.0
220
0.0
230
1.0
 70
     8
 71
     3
 72
    18
 73
    14
 74
     0
 42
0.00000001
 43
0.00000001
 40
0.0
 40
0.0
 40
0.0
 40
0.0
 40
0.2500000000000016
 40
0.2500000000000016
 40
0.3750000000000012
 40
0.3750000000000012
 40
0.500000000000001
 40
0.500000000000001
 40
0.6250000000000008
 40
0.6250000000000008
 40
0.7500000000000004
 40
0.7500000000000004
 40
1.0
 40
1.0
 40
1.0
 40
1.0
 10
167.743067468425
 20
260.9508177230723
 30
0.0
 10
167.7430674688598
 20
260.9508177097234
 30
0.0
 10
167.7430674689023
 20
261.0582113919079
 30
0.0
 10
167.7430674681318
 20
261.423708580594
 30
0.0
 10
167.743067467738
 20
261.5789593547126
 30
0.0
 10
167.7430674666752
 20
261.9527208939232
 30
0.0
 10
167.7430674660063
 20
262.1712060891894
 30
0.0
 10
167.7430674644276
 20
262.6593614544032
 30
0.0
 10
167.7430674635181
 20
262.9289217286258
 30
0.0
 10
167.7430674615231
 20
263.5006161013933
 30
0.0
 10
167.7430674604382
 20
263.8026017642517
 30
0.0
 10
167.7430674570408
 20
264.7258289054049
 30
0.0
 10
167.7430674545949
 20
265.3615620625255
 30
0.0
 10
167.7430674522544
 20
265.9508177268568
 30
0.0
  0
SPLINE
  5
13D
330
1F
100
AcDbEntity
  8
0
  6
Continuous
 62
     8
370
    18
100
AcDbSpline
210
0.0
220
0.0
230
1.0
 70
    24
 71
     3
 72
    18
 73
    14
 74
     0
 42
0.00000001
 43
0.00000001
 40
0.0
 40
0.0
 40
0.0
 40
0.0
 40
0.2499999999999998
 40
0.2499999999999998
 40
0.3749999999999993
 40
0.3749999999999993
 40
0.499999999999999
 40
0.499999999999999
 40
0.6249999999999987
 40
0.6249999999999987
 40
0.7499999999999982
 40
0.7499999999999982
 40
1.0
 40
1.0
 40
1.0
 40
1.0
 10
166.7430685619761
 20
259.950818833907
 30
0.0
 10
166.7430685779827
 20
259.9508188339067
 30
0.0
 10
166.6356748981872
 20
259.9508188316897
 30
0.0
 10
166.2701777103962
 20
259.9508188241451
 30
0.0
 10
166.1149269361435
 20
259.9508188209404
 30
0.0
 10
165.7411653958549
 20
259.9508188132253
 30
0.0
 10
165.5226801996462
 20
259.9508188087154
 30
0.0
 10
165.0345248322107
 20
259.9508187986392
 30
0.0
 10
164.7649645567174
 20
259.9508187930751
 30
0.0
 10
164.1932701818236
 20
259.9508187812746
 30
0.0
 10
163.89128451812
 20
259.9508187750412
 30
0.0
 10
162.968057376142
 20
259.9508187559848
 30
0.0
 10
162.3323242209676
 20
259.9508187428626
 30
0.0
 10
161.7430685619753
 20
259.9508187306998
 30
0.0
  0
SPLINE
  5
13E
330
1F
100
AcDbEntity
  8
0
  6
Continuous
 62
     8
370
    18
100
AcDbSpline
210
0.0
220
0.0
230
1.0
 70
    24
 71
     3
 72
    18
 73
    14
 74
     0
 42
0.00000001
 43
0.00000001
 40
0.0
 40
0.0
 40
0.0
 40
0.0
 40
0.2500000000000003
 40
0.2500000000000003
 40
0.3750000000000004
 40
0.3750000000000004
 40
0.5000000000000004
 40
0.5000000000000004
 40
0.6250000000000004
 40
0.6250000000000004
 40
0.7500000000000006
 40
0.7500000000000006
 40
1.0
 40
1.0
 40
1.0
 40
1.0
 10
161.7430688715965
 20
244.9508178840103
 30
0.0
 10
162.3323245305886
 20
244.950817896173
 30
0.0
 10
162.9680576857629
 20
244.9508179092951
 30
0.0
 10
163.8912848277408
 20
244.9508179283514
 30
0.0
 10
164.1932704914444
 20
244.9508179345847
 30
0.0
 10
164.7649648663382
 20
244.9508179463851
 30
0.0
 10
165.0345251418315
 20
244.9508179519491
 30
0.0
 10
165.522680509267
 20
244.9508179620252
 30
0.0
 10
165.7411657054757
 20
244.9508179665351
 30
0.0
 10
166.1149272457644
 20
244.9508179742501
 30
0.0
 10
166.2701780200171
 20
244.9508179774547
 30
0.0
 10
166.6356752078081
 20
244.9508179849994
 30
0.0
 10
166.7430688876038
 20
244.9508179872163
 30
0.0
 10
166.7430688715973
 20
244.9508179872166
 30
0.0
  0
LINE
  5
13F
330
1F
100
AcDbEntity
  8
0
  6
Continuous
 62
     8
370
    18
100
AcDbLine
 10
161.7430688716
 20
259.9508187307
 30
0.0
 11
161.7430688716
 21
244.950817884
 31
0.0
  0
LINE
  5
140
330
1F
100
AcDbEntity
  8
0
  6
Continuous
 62
     8
370
    18
100
AcDbLine
 10
207.7430730186
 20
244.9508179872
 30
0.0
 11
202.7430730185
 21
244.9508179872
 31
0.0
  0
SPLINE
  5
141
330
1F
100
AcDbEntity
  8
0
  6
Continuous
 62
     8
370
    18
100
AcDbSpline
210
0.0
220
0.0
230
1.0
 70
     8
 71
     3
 72
    14
 73
    10
 74
     0
 42
0.00000001
 43
0.00000001
 40
0.0
 40
0.0
 40
0.0
 40
0.0
 40
0.173874836581938
 40
0.3472541162797814
 40
0.5204005074010033
 40
0.6504965794542747
 40
0.7805651010075199
 40
0.9106665187162659
 40
1.0
 40
1.0
 40
1.0
 40
1.0
 10
161.7430688715983
 20
244.9508178840103
 30
0.0
 10
161.7568914104366
 20
243.8646880547316
 30
0.0
 10
161.7844970927964
 20
241.6955239511408
 30
0.0
 10
162.101240562699
 20
238.4559815275169
 30
0.0
 10
162.6850490146498
 20
235.5306420233676
 30
0.0
 10
163.5094374970259
 20
232.9475338790934
 30
0.0
 10
164.4952337020301
 20
230.7155061857508
 30
0.0
 10
165.5656170520292
 20
228.8037567162872
 30
0.0
 10
166.402434264089
 20
227.7170087519815
 30
0.0
 10
166.7431084006766
 20
227.2745860590772
 30
0.0
  0
SPLINE
  5
142
330
1F
100
AcDbEntity
  8
0
  6
Continuous
 62
     8
370
    18
100
AcDbSpline
210
0.0
220
0.0
230
1.0
 70
     8
 71
     3
 72
    14
 73
    10
 74
     0
 42
0.00000001
 43
0.00000001
 40
0.0
 40
0.0
 40
0.0
 40
0.0
 40
0.0893607590446235
 40
0.2194460873065106
 40
0.3495264999918509
 40
0.4796119160856787
 40
0.6528274409662009
 40
0.8260500970649813
 40
1.0
 40
1.0
 40
1.0
 40
1.0
 10
202.7431105871047
 20
227.273765326586
 30
0.0
 10
203.0837868815089
 20
227.7164411150613
 30
0.0
 10
203.9203966042146
 20
228.8035342727831
 30
0.0
 10
204.9886196831737
 20
230.7165696899141
 30
0.0
 10
205.9789817787622
 20
232.946566419787
 30
0.0
 10
206.8008332489256
 20
235.5312086450658
 30
0.0
 10
207.3844287475089
 20
238.4558952960953
 30
0.0
 10
207.7009957396761
 20
241.6954957996986
 30
0.0
 10
207.7290276854544
 20
243.8641962814445
 30
0.0
 10
207.7430730185902
 20
244.9508179872174
 30
0.0
  0
LINE
  5
143
330
1F
100
AcDbEntity
  8
0
  6
Continuous
 62
     8
370
    18
100
AcDbLine
 10
167.7430674523
 20
265.9508188337
 30
0.0
 11
201.7430696421
 21
265.9508188337
 31
0.0
  0
SPLINE
  5
144
330
1F
100
AcDbEntity
  8
0
  6
Continuous
 62
     8
370
    18
100
AcDbSpline
210
0.0
220
0.0
230
1.0
 70
     8
 71
     3
 72
    18
 73
    14
 74
     0
 42
0.00000001
 43
0.00000001
 40
0.0
 40
0.0
 40
0.0
 40
0.0
 40
0.2499999999999994
 40
0.2499999999999994
 40
0.3749999999999991
 40
0.3749999999999991
 40
0.4999999999999988
 40
0.4999999999999988
 40
0.6249999999999984
 40
0.6249999999999984
 40
0.7499999999999982
 40
0.7499999999999982
 40
1.0
 40
1.0
 40
1.0
 40
1.0
 10
201.7430696451307
 20
265.9508222103582
 30
0.0
 10
201.7430696447752
 20
265.3615665598156
 30
0.0
 10
201.7430696443072
 20
264.7258334155669
 30
0.0
 10
201.7430696434631
 20
263.8026062887472
 30
0.0
 10
201.743069643159
 20
263.5006206298289
 30
0.0
 10
201.7430696425205
 20
262.9289262627568
 30
0.0
 10
201.7430696421862
 20
262.659365990285
 30
0.0
 10
201.7430696415082
 20
262.1712106261173
 30
0.0
 10
201.7430696411647
 20
261.9527254301451
 30
0.0
 10
201.7430696404901
 20
261.5789638871348
 30
0.0
 10
201.7430696401592
 20
261.4237131099254
 30
0.0
 10
201.7430696392135
 20
261.0582159089641
 30
0.0
 10
201.7430696386494
 20
260.9508222145859
 30
0.0
 10
201.7430696381865
 20
260.9508222141437
 30
0.0
  0
LINE
  5
145
330
1F
100
AcDbEntity
  8
0
  6
Continuous
 62
     8
370
    18
100
AcDbLine
 10
202.7430730186
 20
259.9508188339
 30
0.0
 11
207.7430730186
 21
259.9508188339
 31
0.0
  0
SPLINE
  5
146
330
1F
100
AcDbEntity
  8
0
  6
Continuous
 62
     8
370
    18
100
AcDbSpline
210
0.0
220
0.0
230
1.0
 70
     8
 71
     3
 72
    22
 73
    18
 74
     0
 42
0.00000001
 43
0.00000001
 40
0.0
 40
0.0
 40
0.0
 40
0.0
 40
0.125
 40
0.125
 40
0.25
 40
0.25
 40
0.375
 40
0.375
 40
0.5
 40
0.5
 40
0.625
 40
0.625
 40
0.75
 40
0.75
 40
0.875
 40
0.875
 40
1.0
 40
1.0
 40
1.0
 40
1.0
 10
207.7430730185893
 20
259.9508188339068
 30
0.0
 10
207.7430730185708
 20
260.3043724233712
 30
0.0
 10
207.7116429172588
 20
260.671147666849
 30
0.0
 10
207.5741674281877
 20
261.4140478580856
 30
0.0
 10
207.4680015506173
 20
261.7900972746341
 30
0.0
 10
207.1756036254866
 20
262.528679392341
 30
0.0
 10
206.9893025880324
 20
262.8910623872976
 30
0.0
 10
206.5407884839778
 20
263.5770960144805
 30
0.0
 10
206.2786061011891
 20
263.9005685237873
 30
0.0
 10
205.692819334281
 20
264.4863552909875
 30
0.0
 10
205.3693468251049
 20
264.7485376739377
 30
0.0
 10
204.6833131981458
 20
265.1970517783344
 30
0.0
 10
204.320930203282
 20
265.3833528159695
 30
0.0
 10
203.582348085721
 20
265.6757507414686
 30
0.0
 10
203.2062986692253
 20
265.7819166192266
 30
0.0
 10
202.4633984780573
 20
265.9193921086682
 30
0.0
 10
202.0966232345951
 20
265.9508222101633
 30
0.0
 10
201.7430696451307
 20
265.9508222103582
 30
0.0
  0
LINE
  5
147
330
1F
100
AcDbEntity
  8
0
  6
Continuous
 62
     8
370
    18
100
AcDbLine
 10
207.7430730186
 20
244.9508179872
 30
0.0
 11
207.7430730186
 21
259.9508188339
 31
0.0
  0
LINE
  5
148
330
1F
100
AcDbEntity
  8
0
  6
Continuous
 62
     8
370
    18
100
AcDbLine
 10
207.8430639909
 20
266.0508180646
 30
0.0
 11
161.6430639909
 21
266.0508180646
 31
0.0
  0
LINE
  5
149
330
1F
100
AcDbEntity
  8
0
  6
Continuous
 62
     8
370
    18
100
AcDbLine
 10
207.8430639909
 20
219.8508180644
 30
0.0
 11
207.8430639909
 21
266.0508180646
 31
0.0
  0
LINE
  5
14A
330
1F
100
AcDbEntity
  8
0
  6
Continuous
 62
     8
370
    18
100
AcDbLine
 10
161.6430639909
 20
219.8508180644
 30
0.0
 11
166.7427004938
 21
219.8508180644
 31
0.0
  0
LINE
  5
14B
330
1F
100
AcDbEntity
  8
0
  6
Continuous
 62
     8
370
    18
100
AcDbLine
 10
202.7431105871
 20
219.8508180644
 30
0.0
 11
207.8430639909
 21
219.8508180644
 31
0.0
  0
LINE
  5
14C
330
1F
100
AcDbEntity
  8
0
  6
Continuous
 62
     8
370
    18
100
AcDbLine
 10
161.6430639909
 20
266.0508180646
 30
0.0
 11
161.6430639909
 21
219.8508180644
 31
0.0
  0
LINE
  5
14D
330
1F
100
AcDbEntity
  8
0
  6
Continuous
 62
     8
370
    18
100
AcDbLine
 10
207.8430639909
 20
267.0508180646
 30
0.0
 11
207.8430639909
 21
266.0508180646
 31
0.0
  0
LINE
  5
14E
330
1F
100
AcDbEntity
  8
0
  6
Continuous
 62
     8
370
    18
100
AcDbLine
 10
161.6430639909
 20
267.0508180646
 30
0.0
 11
161.6430639909
 21
266.0508180646
 31
0.0
  0
LINE
  5
14F
330
1F
100
AcDbEntity
  8
0
  6
Continuous
 62
     8
370
    18
100
AcDbLine
 10
161.6430639909
 20
266.0508180646
 30
0.0
 11
160.6430639909
 21
266.0508180646
 31
0.0
  0
LINE
  5
150
330
1F
100
AcDbEntity
  8
0
  6
Continuous
 62
     8
370
    18
100
AcDbLine
 10
161.6430639909
 20
219.8508180644
 30
0.0
 11
160.6430639909
 21
219.8508180644
 31
0.0
  0
LINE
  5
151
330
1F
100
AcDbEntity
  8
0
  6
Continuous
 62
     8
370
    18
100
AcDbLine
 10
208.8430639909
 20
266.0508180646
 30
0.0
 11
207.8430639909
 21
266.0508180646
 31
0.0
  0
LINE
  5
152
330
1F
100
AcDbEntity
  8
0
  6
Continuous
 62
     8
370
    18
100
AcDbLine
 10
208.8430639909
 20
219.8508180644
 30
0.0
 11
207.8430639909
 21
219.8508180644
 31
0.0
  0
LINE
  5
153
330
1F
100
AcDbEntity
  8
0
  6
Continuous
 62
     8
370
    18
100
AcDbLine
 10
207.8430639909
 20
219.8508180644
 30
0.0
 11
207.8430639909
 21
218.8508180644
 31
0.0
  0
LINE
  5
154
330
1F
100
AcDbEntity
  8
0
  6
Continuous
 62
     8
370
    18
100
AcDbLine
 10
161.6430639909
 20
219.8508180644
 30
0.0
 11
161.6430639909
 21
218.8508180644
 31
0.0
  0
SPLINE
  5
155
330
1F
100
AcDbEntity
  8
0
  6
Continuous
 62
     7
370
    25
100
AcDbSpline
210
0.0
220
0.0
230
1.0
 70
     8
 71
     3
 72
    31
 73
    27
 74
     0
 42
0.00000001
 43
0.00000001
 40
0.0
 40
0.0
 40
0.0
 40
0.0
 40
0.0280936424366942
 40
0.0554975164660648
 40
0.0755688082495387
 40
0.0963206744227285
 40
0.1333002144924671
 40
0.1741407769333451
 40
0.218498573174842
 40
0.2646180056237922
 40
0.3123451489455294
 40
0.3615099550378015
 40
0.4593274032025452
 40
0.5607356280083573
 40
0.656107128199143
 40
0.7409213682284954
 40
0.8161852312032474
 40
0.8449408745745326
 40
0.8722492083045718
 40
0.8973419839554488
 40
0.9138115298681398
 40
0.9292521396997819
 40
0.9448369792220574
 40
0.9616829784986035
 40
0.9806707625341524
 40
1.0
 40
1.0
 40
1.0
 40
1.0
 10
349.4850045249913
 20
449.1121246533527
 30
0.0
 10
349.9687015207847
 20
449.4577109530071
 30
0.0
 10
350.9242195547711
 20
450.1403985539023
 30
0.0
 10
352.3033079398078
 20
451.0172688488324
 30
0.0
 10
353.5798300916469
 20
451.7729921024699
 30
0.0
 10
355.1360990656815
 20
452.6403804310881
 30
0.0
 10
357.1942886190691
 20
453.6963779831754
 30
0.0
 10
359.7803878442954
 20
454.8901223447876
 30
0.0
 10
362.5847784590095
 20
456.0439626582233
 30
0.0
 10
365.6017889653452
 20
457.1544740363236
 30
0.0
 10
368.7573439826326
 20
458.2174061430452
 30
0.0
 10
373.085704291162
 20
459.5876598541492
 30
0.0
 10
378.6378572908629
 20
461.2557922609769
 30
0.0
 10
385.2386761642852
 20
463.1928079724703
 30
0.0
 10
391.5578686492311
 20
465.0193918706116
 30
0.0
 10
397.3014488266898
 20
466.6504764697684
 30
0.0
 10
401.5551271791977
 20
467.8277231981783
 30
0.0
 10
404.5173888050449
 20
468.6315709026783
 30
0.0
 10
406.3440183457154
 20
469.1201948399361
 30
0.0
 10
407.9078990039377
 20
469.5327730080799
 30
0.0
 10
409.1326904448701
 20
469.8530158941689
 30
0.0
 10
410.022289175942
 20
470.0873900781365
 30
0.0
 10
410.7064854057102
 20
470.273961479991
 30
0.0
 10
411.1809374560759
 20
470.4118606623468
 30
0.0
 10
411.4651172974817
 20
470.5041785034016
 30
0.0
 10
411.4947039076008
 20
470.5278856574002
 30
0.0
 10
411.5096290398368
 20
470.5398448648574
 30
0.0
  0
SPLINE
  5
156
330
1F
100
AcDbEntity
  8
0
  6
Continuous
 62
     7
370
    25
100
AcDbSpline
210
0.0
220
0.0
230
1.0
 70
     8
 71
     3
 72
    13
 73
     9
 74
     0
 42
0.00000001
 43
0.00000001
 40
0.0
 40
0.0
 40
0.0
 40
0.0
 40
0.2394557791914636
 40
0.3683592375999086
 40
0.4999984459826752
 40
0.6316379126455172
 40
0.7605420833652973
 40
1.0
 40
1.0
 40
1.0
 40
1.0
 10
352.6502108864564
 20
349.333258484494
 30
0.0
 10
352.021235037907
 20
349.4000485663875
 30
0.0
 10
351.0536698998983
 20
349.50279298011
 30
0.0
 10
349.8896010559234
 20
350.1262810935407
 30
0.0
 10
349.0885751381683
 20
350.7715901353716
 30
0.0
 10
348.4432726773835
 20
351.5726238172891
 30
0.0
 10
347.8197907910302
 20
352.7367047067459
 30
0.0
 10
347.7170479235108
 20
353.7042771431367
 30
0.0
 10
347.6502587672706
 20
354.3332584844992
 30
0.0
  0
SPLINE
  5
157
330
1F
100
AcDbEntity
  8
0
  6
Continuous
 62
     7
370
    25
100
AcDbSpline
210
0.0
220
0.0
230
1.0
 70
     8
 71
     3
 72
    13
 73
     9
 74
     0
 42
0.00000001
 43
0.00000001
 40
0.0
 40
0.0
 40
0.0
 40
0.0
 40
0.2268652797870775
 40
0.470577135965594
 40
0.5950858510865118
 40
0.7260689191965461
 40
0.8622424065684461
 40
1.0
 40
1.0
 40
1.0
 40
1.0
 10
414.2278159455503
 20
473.2285257317411
 30
0.0
 10
414.1960378842
 20
473.347959025991
 30
0.0
 10
414.1301219841962
 20
473.5956944996597
 30
0.0
 10
413.9008781709574
 20
473.8370940452074
 30
0.0
 10
413.6657098936487
 20
473.9795831483853
 30
0.0
 10
413.4601327882986
 20
474.0530148784299
 30
0.0
 10
413.2355061839179
 20
474.0891175998657
 30
0.0
 10
413.0865013453161
 20
474.0749701261719
 30
0.0
 10
413.011568088691
 20
474.0678554828701
 30
0.0
  0
LINE
  5
158
330
1F
100
AcDbEntity
  8
0
  6
Continuous
 62
     7
370
    25
100
AcDbLine
 10
347.6501146586
 20
365.3332585176
 30
0.0
 11
347.6501146586
 21
369.4015994265
 31
0.0
  0
LINE
  5
159
330
1F
100
AcDbEntity
  8
0
  6
Continuous
 62
     7
370
    25
100
AcDbLine
 10
347.650114425
 20
369.4015994265
 30
0.0
 11
347.650114425
 21
384.4016000671
 31
0.0
  0
LINE
  5
15A
330
1F
100
AcDbEntity
  8
0
  6
Continuous
 62
     7
370
    25
100
AcDbLine
 10
347.6502587673
 20
354.3332585594
 30
0.0
 11
347.6502587673
 21
365.3332584845
 31
0.0
  0
SPLINE
  5
15B
330
1F
100
AcDbEntity
  8
0
  6
Continuous
 62
     7
370
    25
100
AcDbSpline
210
0.0
220
0.0
230
1.0
 70
     8
 71
     3
 72
    27
 73
    23
 74
     0
 42
0.00000001
 43
0.00000001
 40
0.0
 40
0.0
 40
0.0
 40
0.0
 40
0.0877694702711231
 40
0.1696715055538856
 40
0.2452734996176729
 40
0.3136091891838327
 40
0.3739157539079979
 40
0.4258679236426197
 40
0.4695438322820463
 40
0.5073354632571327
 40
0.5432565584889125
 40
0.5774633374552084
 40
0.6180171338578188
 40
0.6582807194412493
 40
0.7023851810750825
 40
0.7504219189069647
 40
0.7823843616652211
 40
0.8139749666019622
 40
0.8459295169564096
 40
0.8861376685520672
 40
0.9374308051819618
 40
1.0
 40
1.0
 40
1.0
 40
1.0
 10
347.6499355262562
 20
384.4015987719336
 30
0.0
 10
347.6499131941006
 20
386.2602957703639
 30
0.0
 10
347.6498700227056
 20
389.853434900838
 30
0.0
 10
347.7640075996874
 20
395.047096073928
 30
0.0
 10
348.0532219905772
 20
399.8225292625559
 30
0.0
 10
348.532926721426
 20
404.1233329560533
 30
0.0
 10
349.1831210612595
 20
407.8946742113538
 30
0.0
 10
349.9582694710201
 20
411.1072610140246
 30
0.0
 10
350.8106354042735
 20
413.8034533076784
 30
0.0
 10
351.726977748744
 20
416.1165588583273
 30
0.0
 10
352.7273693631591
 20
418.1740870278576
 30
0.0
 10
353.92537756532
 20
420.1919028864658
 30
0.0
 10
355.3782313332528
 20
422.1542948308261
 30
0.0
 10
357.2118730474309
 20
424.0716932357515
 30
0.0
 10
359.429411436123
 20
425.805774493454
 30
0.0
 10
361.7452690987792
 20
427.0749257087372
 30
0.0
 10
363.9511628316135
 20
427.9319051416558
 30
0.0
 10
365.898758533719
 20
428.4870203803492
 30
0.0
 10
368.0552253638004
 20
428.9180084750015
 30
0.0
 10
370.6527727166043
 20
429.2353808056848
 30
0.0
 10
373.913563374361
 20
429.4006155373215
 30
0.0
 10
376.3249941607932
 20
429.4012500827273
 30
0.0
 10
377.6501144244293
 20
429.4015987757025
 30
0.0
  0
SPLINE
  5
15C
330
1F
100
AcDbEntity
  8
0
  6
Continuous
 62
     7
370
    25
100
AcDbSpline
210
0.0
220
0.0
230
1.0
 70
     8
 71
     3
 72
    14
 73
    10
 74
     0
 42
0.00000001
 43
0.00000001
 40
0.0
 40
0.0
 40
0.0
 40
0.0
 40
0.1204350252592675
 40
0.2438890632801402
 40
0.4927195107692228
 40
0.6163145501269937
 40
0.743041367423489
 40
0.8718494210946994
 40
1.0
 40
1.0
 40
1.0
 40
1.0
 10
312.6632587693039
 20
445.4015139980015
 30
0.0
 10
312.6000260621834
 20
445.3987919369342
 30
0.0
 10
312.4719755579792
 20
445.3932795793582
 30
0.0
 10
312.2262632924372
 20
445.3198925297143
 30
0.0
 10
312.0080752117599
 20
445.1755539745532
 30
0.0
 10
311.8422249884292
 20
444.9736065237479
 30
0.0
 10
311.7475962679659
 20
444.7975560665456
 30
0.0
 10
311.6838720516669
 20
444.6030551674341
 30
0.0
 10
311.6724870110254
 20
444.4686373426609
 30
0.0
 10
311.6668090560393
 20
444.4016003963357
 30
0.0
  0
ARC
  5
15D
330
1F
100
AcDbEntity
  8
0
  6
Continuous
 62
     7
370
    25
100
AcDbCircle
 10
335.7670073193
 20
445.4016003981
 30
0.0
 40
22.81689189189194
100
AcDbArc
 50
160.3646928818
 51
180.0
  0
ARC
  5
15E
330
1F
100
AcDbEntity
  8
0
  6
Continuous
 62
     7
370
    25
100
AcDbCircle
 10
321.3332235355
 20
445.4016003981
 30
0.0
 40
22.81689189189194
100
AcDbArc
 50
0.0
 51
9.4863676011
  0
ARC
  5
15F
330
1F
100
AcDbEntity
  8
0
  6
Continuous
 62
     7
370
    25
100
AcDbCircle
 10
314.4652750224
 20
453.0016003981
 30
0.0
 40
0.20000000000001
100
AcDbArc
 50
90.0
 51
160.3646928818
  0
LINE
  5
160
330
1F
100
AcDbEntity
  8
0
  6
Continuous
 62
     7
370
    25
100
AcDbLine
 10
314.4652750224
 20
453.3550361924
 30
0.0
 11
314.4652750224
 21
453.2016003981
 31
0.0
  0
LWPOLYLINE
  5
161
330
1F
100
AcDbEntity
  8
0
  6
Continuous
 62
     7
370
    25
100
AcDbPolyline
 90
        8
 70
   128
 43
0.0
 10
322.9940878844
 20
455.9136452806
 10
390.4336116575
 20
467.1951459201
 10
407.52898854
 20
470.0573583036
 10
411.9205807303
 20
470.7938300112
 10
413.0773527626
 20
470.988407244
 10
413.3959827631
 20
471.0422812051
 10
413.4903587595
 20
471.0583645218
 10
413.5414420865
 20
471.0672120627
  0
SPLINE
  5
162
330
1F
100
AcDbEntity
  8
0
  6
Continuous
 62
     7
370
    25
100
AcDbSpline
210
0.0
220
0.0
230
1.0
 70
     8
 71
     3
 72
    14
 73
    10
 74
     0
 42
0.00000001
 43
0.00000001
 40
0.0
 40
0.0
 40
0.0
 40
0.0
 40
0.25
 40
0.25
 40
0.5
 40
0.5
 40
0.75
 40
0.75
 40
1.0
 40
1.0
 40
1.0
 40
1.0
 10
413.5414420472782
 20
471.067212055865
 30
0.0
 10
413.6739371622283
 20
471.0913656711388
 30
0.0
 10
413.8063846944192
 20
471.1155114449406
 30
0.0
 10
414.0511602495687
 20
471.1604873682629
 30
0.0
 10
414.1633916225647
 20
471.1813015902102
 30
0.0
 10
414.3505650746113
 20
471.2167848897591
 30
0.0
 10
414.4254331790389
 20
471.2314417766035
 30
0.0
 10
414.5263886770713
 20
471.2527166609081
 30
0.0
 10
414.5524360361573
 20
471.2593280608206
 30
0.0
 10
414.5520614647285
 20
471.2615852196176
 30
0.0
  0
SPLINE
  5
163
330
1F
100
AcDbEntity
  8
0
  6
Continuous
 62
     7
370
    25
100
AcDbSpline
210
0.0
220
0.0
230
1.0
 70
     8
 71
     3
 72
    10
 73
     6
 74
     0
 42
0.00000001
 43
0.00000001
 40
0.0
 40
0.0
 40
0.0
 40
0.0
 40
0.1343875136950555
 40
0.4677207743934548
 40
1.0
 40
1.0
 40
1.0
 40
1.0
 10
413.5415183061093
 20
471.0669217189883
 30
0.0
 10
413.2658228352327
 20
471.0200401042817
 30
0.0
 10
412.3062954536352
 20
470.8568738656002
 30
0.0
 10
410.2539441855766
 20
470.5130786895159
 30
0.0
 10
408.4774852526098
 20
470.2150074400498
 30
0.0
 10
407.3851117019489
 20
470.0317185707791
 30
0.0
  0
SPLINE
  5
164
330
1F
100
AcDbEntity
  8
0
  6
Continuous
 62
     7
370
    25
100
AcDbSpline
210
0.0
220
0.0
230
1.0
 70
    24
 71
     3
 72
     9
 73
     5
 74
     0
 42
0.00000001
 43
0.00000001
 40
0.0
 40
0.0
 40
0.0
 40
0.0
 40
0.5622445587648947
 40
0.9999999999999999
 40
0.9999999999999999
 40
0.9999999999999999
 40
0.9999999999999999
 10
349.0010404803612
 20
449.1251676498197
 30
0.0
 10
349.1504899401113
 20
449.1245698519807
 30
0.0
 10
349.4162985769764
 20
449.1235066174331
 30
0.0
 10
349.4587567009871
 20
449.1233367849372
 30
0.0
 10
349.4773429757974
 20
449.1232624398379
 30
0.0
  0
SPLINE
  5
165
330
1F
100
AcDbEntity
  8
0
  6
Continuous
 62
     7
370
    25
100
AcDbSpline
210
0.0
220
0.0
230
1.0
 70
    24
 71
     3
 72
    22
 73
    18
 74
     0
 42
0.00000001
 43
0.00000001
 40
0.0
 40
0.0
 40
0.0
 40
0.0
 40
0.125
 40
0.125
 40
0.25
 40
0.25
 40
0.375
 40
0.375
 40
0.5
 40
0.5
 40
0.625
 40
0.625
 40
0.75
 40
0.75
 40
0.875
 40
0.875
 40
1.0
 40
1.0
 40
1.0
 40
1.0
 10
343.4161476012565
 20
449.1475072213361
 30
0.0
 10
343.7869862027415
 20
449.1460238669302
 30
0.0
 10
344.1483428701185
 20
449.1445784402608
 30
0.0
 10
344.83903481773
 20
449.1418156724703
 30
0.0
 10
345.1695468783282
 20
449.1404936242278
 30
0.0
 10
345.8033429014917
 20
449.1379584401352
 30
0.0
 10
346.1086973256854
 20
449.1367370224384
 30
0.0
 10
346.6781962540785
 20
449.1344590267248
 30
0.0
 10
346.9415107145451
 20
449.1334057688829
 30
0.0
 10
347.426771191254
 20
449.131464726976
 30
0.0
 10
347.6488068925856
 20
449.1305765841709
 30
0.0
 10
348.050556494363
 20
449.1289695857637
 30
0.0
 10
348.2301741195237
 20
449.1282511152631
 30
0.0
 10
348.5363422113761
 20
449.1270264428957
 30
0.0
 10
348.6644927334114
 20
449.1265138408075
 30
0.0
 10
348.869703049621
 20
449.1256929995426
 30
0.0
 10
348.9453961270069
 20
449.1253902272331
 30
0.0
 10
349.0010404803611
 20
449.1251676498197
 30
0.0
  0
SPLINE
  5
166
330
1F
100
AcDbEntity
  8
0
  6
Continuous
 62
     7
370
    25
100
AcDbSpline
210
0.0
220
0.0
230
1.0
 70
    24
 71
     3
 72
    14
 73
    10
 74
     0
 42
0.00000001
 43
0.00000001
 40
0.0
 40
0.0
 40
0.0
 40
0.0
 40
0.25
 40
0.25
 40
0.5
 40
0.5
 40
0.75
 40
0.75
 40
1.0
 40
1.0
 40
1.0
 40
1.0
 10
336.6253521811046
 20
449.1746704030168
 30
0.0
 10
337.2100782177044
 20
449.1723314988704
 30
0.0
 10
337.7913342505654
 20
449.170006474739
 30
0.0
 10
338.9428464365071
 20
449.1654004259952
 30
0.0
 10
339.51356859888
 20
449.1631175373457
 30
0.0
 10
340.6451783743156
 20
449.158591098244
 30
0.0
 10
341.2060586811319
 20
449.1563475770166
 30
0.0
 10
342.3187507751512
 20
449.1518968086405
 30
0.0
 10
342.8713178237679
 20
449.1496865404461
 30
0.0
 10
343.4161476012565
 20
449.1475072213361
 30
0.0
  0
SPLINE
  5
167
330
1F
100
AcDbEntity
  8
0
  6
Continuous
 62
     7
370
    25
100
AcDbSpline
210
0.0
220
0.0
230
1.0
 70
    24
 71
     3
 72
    12
 73
     8
 74
     0
 42
0.00000001
 43
0.00000001
 40
0.0
 40
0.0
 40
0.0
 40
0.0
 40
0.5000000000000018
 40
0.5000000000000018
 40
0.7500000000000009
 40
0.7500000000000009
 40
1.0
 40
1.0
 40
1.0
 40
1.0
 10
330.6846190330471
 20
449.198433335609
 30
0.0
 10
331.6770363258399
 20
449.1944636664379
 30
0.0
 10
332.668513358911
 20
449.1904977583056
 30
0.0
 10
334.1536004296734
 20
449.1845574100225
 30
0.0
 10
334.6483382191954
 20
449.1825784588645
 30
0.0
 10
335.6373524273826
 20
449.1786224020317
 30
0.0
 10
336.1316258528645
 20
449.1766453083298
 30
0.0
 10
336.6253521811046
 20
449.1746704030168
 30
0.0
  0
SPLINE
  5
168
330
1F
100
AcDbEntity
  8
0
  6
Continuous
 62
     7
370
    25
100
AcDbSpline
210
0.0
220
0.0
230
1.0
 70
     8
 71
     3
 72
     8
 73
     4
 74
     0
 42
0.00000001
 43
0.00000001
 40
0.0
 40
0.0
 40
0.0
 40
0.0
 40
1.0
 40
1.0
 40
1.0
 40
1.0
 10
329.153511891821
 20
449.282939378829
 30
0.0
 10
329.6625159096937
 20
449.2286410712012
 30
0.0
 10
330.1728667237941
 20
449.200480351665
 30
0.0
 10
330.6846185977953
 20
449.1984333373501
 30
0.0
  0
LINE
  5
169
330
1F
100
AcDbEntity
  8
0
  6
Continuous
 62
     7
370
    25
100
AcDbLine
 10
352.7501154276
 20
344.3332584839
 30
0.0
 11
306.5501154274
 21
344.3332584839
 31
0.0
  0
LINE
  5
16A
330
1F
100
AcDbEntity
  8
0
  6
Continuous
 62
     7
370
    25
100
AcDbLine
 10
306.5501154274
 20
349.3332584845
 30
0.0
 11
352.7501154276
 21
349.3332584845
 31
0.0
  0
LINE
  5
16B
330
1F
100
AcDbEntity
  8
0
  6
Continuous
 62
     7
370
    25
100
AcDbLine
 10
305.5501154274
 20
344.3332584839
 30
0.0
 11
305.5501154274
 21
348.3332584845
 31
0.0
  0
LINE
  5
16C
330
1F
100
AcDbEntity
  8
0
  6
Continuous
 62
     7
370
    25
100
AcDbLine
 10
306.5501154274
 20
344.3332584839
 30
0.0
 11
305.5501154274
 21
344.3332584839
 31
0.0
  0
LINE
  5
16D
330
1F
100
AcDbEntity
  8
0
  6
Continuous
 62
     7
370
    25
100
AcDbLine
 10
353.7501154276
 20
348.3332584845
 30
0.0
 11
353.7501154276
 21
344.3332584839
 31
0.0
  0
LINE
  5
16E
330
1F
100
AcDbEntity
  8
0
  6
Continuous
 62
     7
370
    25
100
AcDbLine
 10
353.7501154276
 20
344.3332584839
 30
0.0
 11
352.7501154276
 21
344.3332584839
 31
0.0
  0
ARC
  5
16F
330
1F
100
AcDbEntity
  8
0
  6
Continuous
 62
     7
370
    25
100
AcDbCircle
 10
306.5501154274
 20
348.3332584845
 30
0.0
 40
1.0
100
AcDbArc
 50
90.0
 51
180.0
  0
ARC
  5
170
330
1F
100
AcDbEntity
  8
0
  6
Continuous
 62
     7
370
    25
100
AcDbCircle
 10
352.7501154276
 20
348.3332584845
 30
0.0
 40
1.0
100
AcDbArc
 50
0.0
 51
90.0
  0
SPLINE
  5
171
330
1F
100
AcDbEntity
  8
0
  6
Continuous
 62
     7
370
    25
100
AcDbSpline
210
0.0
220
0.0
230
1.0
 70
     8
 71
     3
 72
    18
 73
    14
 74
     0
 42
0.00000001
 43
0.00000001
 40
0.0
 40
0.0
 40
0.0
 40
0.0
 40
0.2500000000000016
 40
0.2500000000000016
 40
0.3750000000000012
 40
0.3750000000000012
 40
0.500000000000001
 40
0.500000000000001
 40
0.6250000000000008
 40
0.6250000000000008
 40
0.7500000000000004
 40
0.7500000000000004
 40
1.0
 40
1.0
 40
1.0
 40
1.0
 10
311.6501157689565
 20
354.3332586210708
 30
0.0
 10
311.6501157823054
 20
353.7440029567395
 30
0.0
 10
311.542722100121
 20
353.108269796864
 30
0.0
 10
311.1772249114348
 20
352.1850426463356
 30
0.0
 10
311.0219741373162
 20
351.8830569794948
 30
0.0
 10
310.6482125981056
 20
351.3113625971402
 30
0.0
 10
310.4297274028395
 20
351.0418023173133
 30
0.0
 10
309.9415720376256
 20
350.5536469395781
 30
0.0
 10
309.6720117634031
 20
350.3351617373976
 30
0.0
 10
309.1003173906355
 20
349.9614001835229
 30
0.0
 10
308.7983317277771
 20
349.8061494016583
 30
0.0
 10
307.875104586624
 20
349.440652189291
 30
0.0
 10
307.2393714295033
 20
349.3332584907999
 30
0.0
 10
306.6501157651721
 20
349.3332584890343
 30
0.0
  0
LINE
  5
172
330
1F
100
AcDbEntity
  8
0
  6
Continuous
 62
     7
370
    25
100
AcDbLine
 10
377.6501154274
 20
429.4019249689
 30
0.0
 11
470.5501144244
 21
429.401924969
 31
0.0
  0
SPLINE
  5
173
330
1F
100
AcDbEntity
  8
0
  6
Continuous
 62
     7
370
    25
100
AcDbSpline
210
0.0
220
0.0
230
1.0
 70
    24
 71
     3
 72
    26
 73
    22
 74
     0
 42
0.00000001
 43
0.00000001
 40
0.0
 40
0.0
 40
0.0
 40
0.0
 40
0.1249999999999972
 40
0.1249999999999972
 40
0.1874999999999982
 40
0.1874999999999982
 40
0.2499999999999992
 40
0.2499999999999992
 40
0.3125000000000002
 40
0.3125000000000002
 40
0.3750000000000011
 40
0.3750000000000011
 40
0.4375000000000021
 40
0.4375000000000021
 40
0.500000000000003
 40
0.500000000000003
 40
0.6250000000000017
 40
0.6250000000000017
 40
0.7500000000000003
 40
0.7500000000000003
 40
1.0
 40
1.0
 40
1.0
 40
1.0
 10
471.5501144244286
 20
434.4021977461809
 30
0.0
 10
471.5501144244286
 20
434.0188209766032
 30
0.0
 10
471.5501144244286
 20
433.6362251656729
 30
0.0
 10
471.5501144244286
 20
433.0648986257511
 30
0.0
 10
471.5501144244286
 20
432.8748534216563
 30
0.0
 10
471.5501144244286
 20
432.4961083984906
 30
0.0
 10
471.5501144244286
 20
432.3063626285687
 30
0.0
 10
471.5501144244286
 20
431.9352215541743
 30
0.0
 10
471.5501144244286
 20
431.7539623629052
 30
0.0
 10
471.5501144244286
 20
431.4086617617807
 30
0.0
 10
471.5501144244286
 20
431.2496962816306
 30
0.0
 10
471.5501144244286
 20
430.9890388580262
 30
0.0
 10
471.5501144244286
 20
430.8920122663355
 30
0.0
 10
471.5501144244286
 20
430.7404570291527
 30
0.0
 10
471.5501144244286
 20
430.6868918534847
 30
0.0
 10
471.5501144244286
 20
430.5573020361098
 30
0.0
 10
471.5501144244286
 20
430.5126193839649
 30
0.0
 10
471.5501144244286
 20
430.4487001949826
 30
0.0
 10
471.5501144244286
 20
430.4329118455747
 30
0.0
 10
471.5501144244286
 20
430.4000412512265
 30
0.0
 10
471.5501144244286
 20
430.402425214949
 30
0.0
 10
471.5501144244286
 20
430.401925188338
 30
0.0
  0
SPLINE
  5
174
330
1F
100
AcDbEntity
  8
0
  6
Continuous
 62
     7
370
    25
100
AcDbSpline
210
0.0
220
0.0
230
1.0
 70
     8
 71
     3
 72
    10
 73
     6
 74
     0
 42
0.00000001
 43
0.00000001
 40
0.0
 40
0.0
 40
0.0
 40
0.0
 40
0.5
 40
0.5
 40
1.0
 40
1.0
 40
1.0
 40
1.0
 10
471.5501144244284
 20
430.401924968961
 30
0.0
 10
471.5501144244284
 20
430.1401255811619
 30
0.0
 10
471.4423413280383
 20
429.8799383101978
 30
0.0
 10
471.0721010831917
 20
429.5096980653513
 30
0.0
 10
470.8119138122277
 20
429.4019249689611
 30
0.0
 10
470.5501144244286
 20
429.401924968961
 30
0.0
  0
SPLINE
  5
175
330
1F
100
AcDbEntity
  8
0
  6
Continuous
 62
     7
370
    25
100
AcDbSpline
210
0.0
220
0.0
230
1.0
 70
     8
 71
     3
 72
    14
 73
    10
 74
     0
 42
0.00000001
 43
0.00000001
 40
0.0
 40
0.0
 40
0.0
 40
0.0
 40
0.0026283545570112
 40
0.0026283545570112
 40
0.0026283545570112
 40
0.0052567090778632
 40
0.0052567090778632
 40
0.0052567090778632
 40
0.0104863578434055
 40
0.0104863578434055
 40
0.0104863578434055
 40
0.0104863578434055
 10
312.6521559508777
 20
454.1792507920668
 30
0.0
 10
313.5162921387961
 20
454.3236520524222
 30
0.0
 10
314.3803946251162
 20
454.4682551525395
 30
0.0
 10
315.2444615104827
 20
454.6130705276738
 30
0.0
 10
316.1085283903234
 20
454.7578859018818
 30
0.0
 10
316.9725600902657
 20
454.9029112266948
 30
0.0
 10
317.8365713105292
 20
455.04805831314
 30
0.0
 10
319.5556982754656
 20
455.3368581161261
 30
0.0
 10
321.2744319063289
 20
455.6280000734282
 30
0.0
 10
322.9937284883341
 20
455.915788382575
 30
0.0
  0
LINE
  5
176
330
1F
100
AcDbEntity
  8
0
  6
Continuous
 62
     7
370
    25
100
AcDbLine
 10
414.2256002819
 20
473.2425813254
 30
0.0
 11
414.5518784356
 21
471.262695859
 31
0.0
  0
SPLINE
  5
177
330
1F
100
AcDbEntity
  8
0
  6
Continuous
 62
     7
370
    18
100
AcDbSpline
210
0.0
220
0.0
230
1.0
 70
    24
 71
     3
 72
    10
 73
     6
 74
     0
 42
0.00000001
 43
0.00000001
 40
0.0
 40
0.0
 40
0.0
 40
0.0
 40
0.5
 40
0.5
 40
1.0
 40
1.0
 40
1.0
 40
1.0
 10
413.0825453948246
 20
473.8529689016395
 30
0.0
 10
413.0693164338458
 20
473.9332434373502
 30
0.0
 10
413.059233293098
 20
473.9944288505341
 30
0.0
 10
413.0463420452828
 20
474.0726541125079
 30
0.0
 10
413.0434937187731
 20
474.0899380165225
 30
0.0
 10
413.0434937188245
 20
474.0899380165251
 30
0.0
  0
ARC
  5
178
330
1F
100
AcDbEntity
  8
0
  6
Continuous
 62
     7
370
    25
100
AcDbCircle
 10
413.2106977158
 20
473.0753289526
 30
0.0
 40
1.028591546237905
100
AcDbArc
 50
9.3580330718
 51
99.3580327291
  0
LINE
  5
179
330
1F
100
AcDbEntity
  8
0
  6
Continuous
 62
     7
370
    25
100
AcDbLine
 10
311.6213951491
 20
453.6362378589
 30
0.0
 11
311.632887336
 21
456.5092847146
 31
0.0
  0
SPLINE
  5
17A
330
1F
100
AcDbEntity
  8
0
  6
Continuous
 62
     7
370
    25
100
AcDbSpline
210
0.0
220
0.0
230
1.0
 70
     8
 71
     3
 72
    12
 73
     8
 74
     0
 42
0.00000001
 43
0.00000001
 40
0.0
 40
0.0
 40
0.0
 40
0.0
 40
0.5
 40
0.5
 40
0.75
 40
0.75
 40
1.0
 40
1.0
 40
1.0
 40
1.0
 10
311.6562945716843
 20
453.6327870184139
 30
0.0
 10
311.7129847694237
 20
453.7386081531297
 30
0.0
 10
311.8380193458514
 20
453.8512763282656
 30
0.0
 10
312.0977685206138
 20
454.0010309305944
 30
0.0
 10
312.1963234947955
 20
454.0475093832246
 30
0.0
 10
312.4140460140067
 20
454.1268665938259
 30
0.0
 10
312.5308857574479
 20
454.1589851894876
 30
0.0
 10
312.6521559410385
 20
454.1792507903982
 30
0.0
  0
LINE
  5
17B
330
1F
100
AcDbEntity
  8
0
  6
Continuous
 62
     7
370
    25
100
AcDbLine
 10
311.6562945717
 20
453.6327870184
 30
0.0
 11
311.6213951491
 21
453.6362378589
 31
0.0
  0
SPLINE
  5
17C
330
1F
100
AcDbEntity
  8
0
  6
Continuous
 62
     7
370
    25
100
AcDbSpline
210
0.0
220
0.0
230
1.0
 70
    24
 71
     3
 72
     8
 73
     4
 74
     0
 42
0.00000001
 43
0.00000001
 40
0.0
 40
0.0
 40
0.0
 40
0.0
 40
1.0
 40
1.0
 40
1.0
 40
1.0
 10
311.6562945716855
 20
453.6327870184164
 30
0.0
 10
312.569250977446
 20
453.5425142663264
 30
0.0
 10
313.5225197530592
 20
453.4482554437659
 30
0.0
 10
314.5029990074671
 20
453.3513060603078
 30
0.0
  0
SPLINE
  5
17D
330
1F
100
AcDbEntity
  8
0
  6
Continuous
 62
     7
370
    25
100
AcDbSpline
210
0.0
220
0.0
230
1.0
 70
     8
 71
     3
 72
    10
 73
     6
 74
     0
 42
0.00000001
 43
0.00000001
 40
0.0
 40
0.0
 40
0.0
 40
0.0
 40
0.5
 40
0.5
 40
1.0
 40
1.0
 40
1.0
 40
1.0
 10
324.3467480016586
 20
450.6311745305794
 30
0.0
 10
325.1097207513908
 20
450.271378646073
 30
0.0
 10
325.8918093285666
 20
449.9806406674455
 30
0.0
 10
327.4936577415355
 20
449.5312336496582
 30
0.0
 10
328.3133999892415
 20
449.3725587934542
 30
0.0
 10
329.1535123196172
 20
449.2829393331935
 30
0.0
  0
SPLINE
  5
17E
330
1F
100
AcDbEntity
  8
0
  6
Continuous
 62
     7
370
    25
100
AcDbSpline
210
0.0
220
0.0
230
1.0
 70
     8
 71
     3
 72
    14
 73
    10
 74
     0
 42
0.00000001
 43
0.00000001
 40
0.0
 40
0.0
 40
0.0
 40
0.0
 40
0.25
 40
0.25
 40
0.5
 40
0.5
 40
0.75
 40
0.75
 40
1.0
 40
1.0
 40
1.0
 40
1.0
 10
314.5029990074669
 20
453.3513060603078
 30
0.0
 10
315.3549861115955
 20
453.2670619275654
 30
0.0
 10
316.2059760803654
 20
453.1459641894327
 30
0.0
 10
317.8926342970477
 20
452.8315128466053
 30
0.0
 10
318.72645995698
 20
452.6387093346807
 30
0.0
 10
320.3760290157331
 20
452.182282460297
 30
0.0
 10
321.1924389158142
 20
451.9181892720285
 30
0.0
 10
322.7911857135919
 20
451.3246789376214
 30
0.0
 10
323.5761436135954
 20
450.9945692750248
 30
0.0
 10
324.3467480016586
 20
450.6311745305794
 30
0.0
  0
LINE
  5
17F
330
1F
100
AcDbEntity
  8
0
  6
Continuous
 62
     7
370
    25
100
AcDbLine
 10
311.6501146584
 20
369.4015994265
 30
0.0
 11
311.6501146584
 21
365.3332584845
 31
0.0
  0
LINE
  5
180
330
1F
100
AcDbEntity
  8
0
  6
Continuous
 62
     7
370
    25
100
AcDbLine
 10
311.6501144247
 20
444.4016003981
 30
0.0
 11
311.6501144247
 21
369.4015994265
 31
0.0
  0
LINE
  5
181
330
1F
100
AcDbEntity
  8
0
  6
Continuous
 62
     7
370
    25
100
AcDbLine
 10
311.6668475333
 20
444.4016003979
 30
0.0
 11
311.6501144247
 21
444.4016003981
 31
0.0
  0
LINE
  5
182
330
1F
100
AcDbEntity
  8
0
  6
Continuous
 62
     7
370
    25
100
AcDbLine
 10
470.5501144244
 20
445.4016003981
 30
0.0
 11
312.6501144245
 21
445.4016003982
 31
0.0
  0
LINE
  5
183
330
1F
100
AcDbEntity
  8
0
  6
Continuous
 62
     7
370
    25
100
AcDbLine
 10
471.5501144244
 20
444.4016003981
 30
0.0
 11
471.5501144244
 21
434.4021977462
 31
0.0
  0
SPLINE
  5
184
330
1F
100
AcDbEntity
  8
0
  6
Continuous
 62
     7
370
    25
100
AcDbSpline
210
0.0
220
0.0
230
1.0
 70
     8
 71
     3
 72
    10
 73
     6
 74
     0
 42
0.00000001
 43
0.00000001
 40
0.0
 40
0.0
 40
0.0
 40
0.0
 40
0.5
 40
0.5
 40
1.0
 40
1.0
 40
1.0
 40
1.0
 10
471.5501144244286
 20
444.4016003981427
 30
0.0
 10
471.5501144244277
 20
444.6633997859413
 30
0.0
 10
471.4423413280371
 20
444.9235870569045
 30
0.0
 10
471.0721010831907
 20
445.2938273017496
 30
0.0
 10
470.8119138122271
 20
445.4016003981392
 30
0.0
 10
470.5501144244286
 20
445.4016003981392
 30
0.0
  0
SPLINE
  5
185
330
1F
100
AcDbEntity
  8
0
  6
Continuous
 62
     7
370
    18
100
AcDbSpline
210
0.0
220
0.0
230
1.0
 70
     8
 71
     3
 72
     8
 73
     4
 74
     0
 42
0.00000001
 43
0.00000001
 40
0.0
 40
0.0
 40
0.0
 40
0.0
 40
1.0
 40
1.0
 40
1.0
 40
1.0
 10
312.6695189586122
 20
458.5048608769147
 30
0.0
 10
346.1469464866196
 20
463.6798525321943
 30
0.0
 10
379.6195091507316
 20
468.8059471002874
 30
0.0
 10
413.0825453948246
 20
473.8529689016395
 30
0.0
  0
LINE
  5
186
330
1F
100
AcDbEntity
  8
0
  6
Continuous
 62
     7
370
    18
100
AcDbLine
 10
312.6736332919
 20
459.5334441941
 30
0.0
 11
312.6695189586
 21
458.5048608769
 31
0.0
  0
LINE
  5
187
330
1F
100
AcDbEntity
  8
0
  6
Continuous
 62
     7
370
    25
100
AcDbLine
 10
311.6409356417
 20
458.5089752104
 30
0.0
 11
311.6329357057
 21
456.50899121
 31
0.0
  0
ARC
  5
188
330
1F
100
AcDbEntity
  8
0
  6
Continuous
 62
     7
370
    25
100
AcDbCircle
 10
312.6695189586
 20
458.5048608773
 30
0.0
 40
1.028591545499509
100
AcDbArc
 50
89.7708181024
 51
179.7708181144
  0
SPLINE
  5
189
330
1F
100
AcDbEntity
  8
0
  6
Continuous
 62
     7
370
    25
100
AcDbSpline
210
0.0
220
0.0
230
1.0
 70
     8
 71
     3
 72
    18
 73
    14
 74
     0
 42
0.00000001
 43
0.00000001
 40
0.0
 40
0.0
 40
0.0
 40
0.0
 40
0.0312500000000047
 40
0.0312500000000047
 40
0.0625000000000093
 40
0.0625000000000093
 40
0.1250000000000171
 40
0.1250000000000171
 40
0.2500000000000149
 40
0.2500000000000149
 40
0.5000000000000099
 40
0.5000000000000099
 40
1.0
 40
1.0
 40
1.0
 40
1.0
 10
377.6501997826297
 20
429.4019249688037
 30
0.0
 10
377.6379175173727
 20
429.4019250102465
 30
0.0
 10
377.629442656391
 20
429.4019171858379
 30
0.0
 10
377.6170801195844
 20
429.4019039064681
 30
0.0
 10
377.6124260912216
 20
429.401896908055
 30
0.0
 10
377.599896915512
 20
429.4018759263031
 30
0.0
 10
377.5938378239322
 20
429.4018621982462
 30
0.0
 10
377.5777836397539
 20
429.4018226219944
 30
0.0
 10
377.5702628539015
 20
429.4017982649897
 30
0.0
 10
377.5509947136842
 20
429.4017317700208
 30
0.0
 10
377.5430498293027
 20
429.4016964590448
 30
0.0
 10
377.5246545007494
 20
429.4016131660753
 30
0.0
 10
377.5202636048788
 20
429.4015877870565
 30
0.0
 10
377.5186777417683
 20
429.4015794492541
 30
0.0
  0
SPLINE
  5
18A
330
1F
100
AcDbEntity
  8
0
  6
Continuous
 62
     7
370
    25
100
AcDbSpline
210
0.0
220
0.0
230
1.0
 70
     8
 71
     3
 72
    23
 73
    19
 74
     0
 42
0.00000001
 43
0.00000001
 40
0.0
 40
0.0
 40
0.0
 40
0.0
 40
1.736884773864148
 40
3.473769547728295
 40
5.210654321592443
 40
6.947539095456591
 40
8.684423869320739
 40
10.42130864318489
 40
12.15819341704903
 40
13.89507819091318
 40
15.63196296477733
 40
17.36884773864148
 40
19.10573251250563
 40
20.84261728636977
 40
52.39352589075726
 40
83.94443449514475
 40
92.75701556081138
 40
101.569596626478
 40
101.569596626478
 40
101.569596626478
 40
101.569596626478
 10
312.6736332918824
 20
459.5334441941326
 30
0.0
 10
313.2448447710811
 20
459.6162086718275
 30
0.0
 10
314.3876605880502
 20
459.7817822670473
 30
0.0
 10
316.099540242141
 20
460.0297846312791
 30
0.0
 10
317.8120223479174
 20
460.2778752327055
 30
0.0
 10
319.5242919324535
 20
460.5259548130877
 30
0.0
 10
321.2365471862926
 20
460.7740710517248
 30
0.0
 10
322.9487006463485
 20
461.0222301999916
 30
0.0
 10
324.6607984587718
 20
461.2704578863953
 30
0.0
 10
326.3726419964562
 20
461.5187442403245
 30
0.0
 10
328.0848821747646
 20
461.7672025990502
 30
0.0
 10
329.7971925936174
 20
462.0158045612037
 30
0.0
 10
331.5094874739533
 20
462.2645566223595
 30
0.0
 10
343.017489953206
 20
463.9375228294758
 30
0.0
 10
364.423146119225
 20
467.0719996063642
 30
0.0
 10
388.0815812293662
 20
470.5177820562251
 30
0.0
 10
404.317315408922
 20
472.8452228284201
 30
0.0
 10
410.1345265182648
 20
473.6753041018359
 30
0.0
 10
413.0434937188245
 20
474.0899380165251
 30
0.0
  0
LINE
  5
18B
330
1F
100
AcDbEntity
  8
0
  6
Continuous
 62
     7
370
    25
100
AcDbLine
 10
311.6501149757
 20
354.3332586198
 30
0.0
 11
311.6501149757
 21
365.3332585824
 31
0.0
  0
LWPOLYLINE
  5
18C
330
1F
100
AcDbEntity
  8
0
  6
Continuous
 62
     7
370
    25
100
AcDbPolyline
 90
        2
 70
   128
 43
0.0
 10
312.6736332919
 20
459.5334441941
 10
312.6736332919
 20
459.5334441941
  0
LINE
  5
18D
330
1F
100
AcDbEntity
  8
0
  6
Continuous
 62
     7
370
    25
100
AcDbLine
 10
311.6501136925
 20
365.3332584786
 30
0.0
 11
311.6501136925
 21
354.333258516
 31
0.0
  0
LINE
  5
18E
330
1F
100
AcDbEntity
  8
0
  6
Continuous
 62
     7
370
    25
100
AcDbLine
 10
311.6501149757
 20
365.3332585824
 30
0.0
 11
311.6501136925
 21
365.3332584786
 31
0.0
  0
LINE
  5
18F
330
1F
100
AcDbEntity
  8
0
  6
Continuous
 62
     7
370
    25
100
AcDbLine
 10
314.4652750224
 20
453.2016003981
 30
0.0
 11
315.6066067522
 21
453.2016003981
 31
0.0
  0
SPLINE
  5
190
330
1F
100
AcDbEntity
  8
0
  6
Continuous
 62
     8
370
    18
100
AcDbSpline
210
0.0
220
0.0
230
1.0
 70
     8
 71
     3
 72
    10
 73
     6
 74
     0
 42
0.00000001
 43
0.00000001
 40
0.5781271939100351
 40
0.5781271939100351
 40
0.5781271939100351
 40
0.5781271939100351
 40
1.154236230988856
 40
1.154236230988856
 40
1.161213034834384
 40
1.161213034834384
 40
1.161213034834384
 40
1.161213034834384
 10
328.4486176123342
 20
450.0370428078811
 30
0.0
 10
328.5784118220207
 20
449.8977073723544
 30
0.0
 10
328.7083283254085
 20
449.7584513661457
 30
0.0
 10
328.8399254581523
 20
449.617736100258
 30
0.0
 10
328.8415000814616
 20
449.6160524140685
 30
0.0
 10
328.8430747271694
 20
449.6143687438677
 30
0.0
  0
SPLINE
  5
191
330
1F
100
AcDbEntity
  8
0
  6
Continuous
 62
     8
370
    18
100
AcDbSpline
210
0.0
220
0.0
230
1.0
 70
     8
 71
     3
 72
    44
 73
    40
 74
     0
 42
0.00000001
 43
0.00000001
 40
1.161213034834251
 40
1.161213034834251
 40
1.161213034834251
 40
1.161213034834251
 40
1.215563289518784
 40
1.215563289518784
 40
1.288701289238223
 40
1.288701289238223
 40
1.434977288677113
 40
1.434977288677113
 40
1.727529287554893
 40
1.727529287554893
 40
2.020081286432672
 40
2.020081286432672
 40
2.312633285310463
 40
2.312633285310463
 40
2.897737283066022
 40
2.897737283066022
 40
3.190289281943802
 40
3.190289281943802
 40
3.482841280821583
 40
3.482841280821583
 40
4.067945278577153
 40
4.067945278577153
 40
4.360497277454932
 40
4.360497277454932
 40
4.653049276332712
 40
4.653049276332712
 40
5.238153274088273
 40
5.238153274088273
 40
5.823257271843833
 40
5.823257271843833
 40
6.408361269599403
 40
6.408361269599403
 40
6.993465267354963
 40
6.993465267354963
 40
7.578569265110523
 40
7.578569265110523
 40
8.163673262866084
 40
8.163673262866084
 40
8.172668223542962
 40
8.172668223542962
 40
8.172668223542962
 40
8.172668223542962
 10
323.7393804117144
 20
455.0991025963629
 30
0.0
 10
323.7512281606056
 20
455.0865926661236
 30
0.0
 10
323.7630856637823
 20
455.0740649684255
 30
0.0
 10
323.7909441989597
 20
455.0446977510695
 30
0.0
 10
323.8069365497444
 20
455.0278121732351
 30
0.0
 10
323.8549600556737
 20
454.9771008660817
 30
0.0
 10
323.8870390382717
 20
454.9431893488464
 30
0.0
 10
323.9834437327217
 20
454.8412021312527
 30
0.0
 10
324.0479249690478
 20
454.7728848839519
 30
0.0
 10
324.1773713933888
 20
454.6356765299461
 30
0.0
 10
324.2422871432198
 20
454.5668148128262
 30
0.0
 10
324.3724422831314
 20
454.4285657106814
 30
0.0
 10
324.4376288758
 20
454.359248042162
 30
0.0
 10
324.6335251387163
 20
454.1504746291066
 30
0.0
 10
324.7643169614991
 20
454.0104742619749
 30
0.0
 10
324.9608328889794
 20
453.7996410478643
 30
0.0
 10
325.0263459105294
 20
453.7292735589807
 30
0.0
 10
325.1575151900815
 20
453.5883022023222
 30
0.0
 10
325.2231039832253
 20
453.5177648067987
 30
0.0
 10
325.4199564049964
 20
453.3058721904595
 30
0.0
 10
325.551236840342
 20
453.164341228072
 30
0.0
 10
325.7481493661596
 20
452.9518290236794
 30
0.0
 10
325.8138041641701
 20
452.8809353786508
 30
0.0
 10
325.9450710019799
 20
452.7391405107956
 30
0.0
 10
326.0107245354087
 20
452.6681956162115
 30
0.0
 10
326.2076429068027
 20
452.4553526103303
 30
0.0
 10
326.3389304969171
 20
452.3133766353957
 30
0.0
 10
326.6015146705022
 20
452.0294018330503
 30
0.0
 10
326.7328405700348
 20
451.8873729460994
 30
0.0
 10
326.9954881949851
 20
451.6033999584957
 30
0.0
 10
327.1268664066884
 20
451.4613964773047
 30
0.0
 10
327.3896618231375
 20
451.177512439698
 30
0.0
 10
327.5211106654031
 20
451.0355873881539
 30
0.0
 10
327.78412054073
 20
450.7518747837896
 30
0.0
 10
327.9156685243436
 20
450.6100935897749
 30
0.0
 10
328.1789902382592
 20
450.3266796284304
 30
0.0
 10
328.3107213131759
 20
450.1850827254279
 30
0.0
 10
328.444564611428
 20
450.0413937979205
 30
0.0
 10
328.4465910969751
 20
450.0392182932193
 30
0.0
 10
328.4486176123343
 20
450.0370428078809
 30
0.0
  0
SPLINE
  5
192
330
1F
100
AcDbEntity
  8
0
  6
Continuous
 62
     8
370
    18
100
AcDbSpline
210
0.0
220
0.0
230
1.0
 70
     8
 71
     3
 72
    12
 73
     8
 74
     0
 42
0.00000001
 43
0.00000001
 40
8.172668223544306
 40
8.172668223544306
 40
8.172668223544306
 40
8.172668223544306
 40
8.176115058065218
 40
8.176115058065218
 40
8.468667056942998
 40
8.468667056942998
 40
8.487454801976572
 40
8.487454801976572
 40
8.487454801976572
 40
8.487454801976572
 10
323.5344571007961
 20
455.3148762688937
 30
0.0
 10
323.5352008008096
 20
455.3140937155957
 30
0.0
 10
323.5359445760986
 20
455.3133110947324
 30
0.0
 10
323.5998232506508
 20
455.2460971469986
 30
0.0
 10
323.6633542320008
 20
455.1793231441991
 30
0.0
 10
323.7311905398562
 20
455.1077493151487
 30
0.0
 10
323.7352848929955
 20
455.1034270173088
 30
0.0
 10
323.7393804117136
 20
455.0991025963638
 30
0.0
  0
SPLINE
  5
193
330
1F
100
AcDbEntity
  8
0
  6
Continuous
 62
     8
370
    18
100
AcDbSpline
210
0.0
220
0.0
230
1.0
 70
     8
 71
     3
 72
    16
 73
    12
 74
     0
 42
0.00000001
 43
0.00000001
 40
8.487454801976607
 40
8.487454801976607
 40
8.487454801976607
 40
8.487454801976607
 40
8.505695716722828
 40
8.505695716722828
 40
8.523980216652689
 40
8.523980216652689
 40
8.54226471658255
 40
8.54226471658255
 40
8.57883371644228
 40
8.57883371644228
 40
8.648524881640771
 40
8.648524881640771
 40
8.648524881640771
 40
8.648524881640771
 10
323.430682333959
 20
455.4242971777226
 30
0.0
 10
323.4345702047646
 20
455.4201569265567
 30
0.0
 10
323.4384393225947
 20
455.4160195705409
 30
0.0
 10
323.4462619244785
 20
455.4077666497535
 30
0.0
 10
323.450178954869
 20
455.4036363846673
 30
0.0
 10
323.4580260187398
 20
455.3953628344492
 30
0.0
 10
323.4619373885355
 20
455.3912398817511
 30
0.0
 10
323.4736994384083
 20
455.3788438309523
 30
0.0
 10
323.4815674266696
 20
455.3705549640769
 30
0.0
 10
323.5044142973738
 20
455.3464933647838
 30
0.0
 10
323.5194203126405
 20
455.3306986273034
 30
0.0
 10
323.5344571007961
 20
455.3148762688937
 30
0.0
  0
SPLINE
  5
194
330
1F
100
AcDbEntity
  8
0
  6
Continuous
 62
     8
370
    18
100
AcDbSpline
210
0.0
220
0.0
230
1.0
 70
     8
 71
     3
 72
    16
 73
    12
 74
     0
 42
0.00000001
 43
0.00000001
 40
8.648524881646212
 40
8.648524881646212
 40
8.648524881646212
 40
8.648524881646212
 40
8.673847827925675
 40
8.673847827925675
 40
8.746985827645116
 40
8.746985827645116
 40
8.783554827504846
 40
8.783554827504846
 40
8.801839327434706
 40
8.801839327434706
 40
8.801882912612903
 40
8.801882912612903
 40
8.801882912612903
 40
8.801882912612903
 10
323.3336910286095
 20
455.5286307895259
 30
0.0
 10
323.3389879186415
 20
455.5228882143551
 30
0.0
 10
323.3442842504187
 20
455.5171373233832
 30
0.0
 10
323.3649249112099
 20
455.4947944326375
 30
0.0
 10
323.3802862241905
 20
455.4782370680746
 30
0.0
 10
323.4035026329284
 20
455.453329390078
 30
0.0
 10
323.4112291649722
 20
455.4450582060321
 30
0.0
 10
323.4228840893924
 20
455.4326107486359
 30
0.0
 10
323.4267572136722
 20
455.4284770139074
 30
0.0
 10
323.430663754348
 20
455.4243169633278
 30
0.0
 10
323.4306730442053
 20
455.4243070705188
 30
0.0
 10
323.4306823339555
 20
455.4242971777263
 30
0.0
  0
SPLINE
  5
195
330
1F
100
AcDbEntity
  8
0
  6
Continuous
 62
     8
370
    18
100
AcDbSpline
210
0.0
220
0.0
230
1.0
 70
     8
 71
     3
 72
    18
 73
    14
 74
     0
 42
0.00000001
 43
0.00000001
 40
8.801882912619199
 40
8.801882912619199
 40
8.801882912619199
 40
8.801882912619199
 40
8.809500601130553
 40
8.809500601130553
 40
8.818642851095484
 40
8.818642851095484
 40
8.836927351025343
 40
8.836927351025343
 40
8.910065350744784
 40
8.910065350744784
 40
8.946634350604514
 40
8.946634350604514
 40
8.957880404178475
 40
8.957880404178475
 40
8.957880404178475
 40
8.957880404178475
 10
323.2355147112044
 20
455.6338176453458
 30
0.0
 10
323.237124955453
 20
455.6321223628441
 30
0.0
 10
323.238738818008
 20
455.6304244390399
 30
0.0
 10
323.2422597036242
 20
455.6267069370679
 30
0.0
 10
323.2441872984164
 20
455.6246544881209
 30
0.0
 10
323.2499595323707
 20
455.6185234194741
 30
0.0
 10
323.2537927858651
 20
455.6144446205342
 30
0.0
 10
323.2730035897
 20
455.5939802653169
 30
0.0
 10
323.2883445715872
 20
455.5775521005412
 30
0.0
 10
323.311328443311
 20
455.5528122488312
 30
0.0
 10
323.3189788367568
 20
455.5445542089738
 30
0.0
 10
323.3289861650796
 20
455.533729765057
 30
0.0
 10
323.3313386518947
 20
455.5311810973542
 30
0.0
 10
323.3336910286055
 20
455.5286307895302
 30
0.0
  0
SPLINE
  5
196
330
1F
100
AcDbEntity
  8
0
  6
Continuous
 62
     8
370
    18
100
AcDbSpline
210
0.0
220
0.0
230
1.0
 70
     8
 71
     3
 72
    18
 73
    14
 74
     0
 42
0.00000001
 43
0.00000001
 40
8.957880404168646
 40
8.957880404168646
 40
8.957880404168646
 40
8.957880404168646
 40
8.963411976457541
 40
8.963411976457541
 40
8.97255422642247
 40
8.97255422642247
 40
9.0091232262822
 40
9.0091232262822
 40
9.082261226001641
 40
9.082261226001641
 40
9.11883022586136
 40
9.11883022586136
 40
9.120354787324775
 40
9.120354787324775
 40
9.120354787324775
 40
9.120354787324775
 10
323.1332328040558
 20
455.7418753334467
 30
0.0
 10
323.134377500576
 20
455.7406447484215
 30
0.0
 10
323.1355239669224
 20
455.7394146626895
 30
0.0
 10
323.1385808791102
 20
455.7361741756969
 30
0.0
 10
323.1404954814624
 20
455.7341482072018
 30
0.0
 10
323.1500404000091
 20
455.7240435289363
 30
0.0
 10
323.1576927028108
 20
455.7159482458042
 30
0.0
 10
323.1806694573131
 20
455.6916565833004
 30
0.0
 10
323.1960299014759
 20
455.6754382598053
 30
0.0
 10
323.2191300697006
 20
455.6510788051079
 30
0.0
 10
323.2268287051111
 20
455.6429661908516
 30
0.0
 10
323.2348703256282
 20
455.6344961082127
 30
0.0
 10
323.235192445956
 20
455.634156929673
 30
0.0
 10
323.2355147112107
 20
455.6338176453392
 30
0.0
  0
SPLINE
  5
197
330
1F
100
AcDbEntity
  8
0
  6
Continuous
 62
     8
370
    18
100
AcDbSpline
210
0.0
220
0.0
230
1.0
 70
     8
 71
     3
 72
    22
 73
    18
 74
     0
 42
0.00000001
 43
0.00000001
 40
9.120354787332598
 40
9.120354787332598
 40
9.120354787332598
 40
9.120354787332598
 40
9.15692378719232
 40
9.15692378719232
 40
9.175208287122178
 40
9.175208287122178
 40
9.193492787052039
 40
9.193492787052039
 40
9.230061786911758
 40
9.230061786911758
 40
9.266630786771488
 40
9.266630786771488
 40
9.339768786490929
 40
9.339768786490929
 40
9.35805328642079
 40
9.35805328642079
 40
9.361663964089
 40
9.361663964089
 40
9.361663964089
 40
9.361663964089
 10
322.9951957590374
 20
455.9090372981525
 30
0.0
 10
323.0010598785946
 20
455.8999954948188
 30
0.0
 10
323.0070051961422
 20
455.8910130160662
 30
0.0
 10
323.0163496910233
 20
455.8777126971519
 30
0.0
 10
323.0195328487712
 20
455.8733073273653
 30
0.0
 10
323.0260329199331
 20
455.8645999041748
 30
0.0
 10
323.0293616400502
 20
455.860293262967
 30
0.0
 10
323.0394991504656
 20
455.8474216931281
 30
0.0
 10
323.0464263428266
 20
455.8389820030925
 30
0.0
 10
323.0605645105917
 20
455.8221845030205
 30
0.0
 10
323.0677455649461
 20
455.8138616888729
 30
0.0
 10
323.0895998314555
 20
455.789049034079
 30
0.0
 10
323.1045620523083
 20
455.7727391755282
 30
0.0
 10
323.1234172247603
 20
455.752420996466
 30
0.0
 10
323.1272104099533
 20
455.7483420231823
 30
0.0
 10
323.1317391800489
 20
455.7434820499558
 30
0.0
 10
323.1324856150156
 20
455.7426785853372
 30
0.0
 10
323.1332328040509
 20
455.741875333452
 30
0.0
  0
SPLINE
  5
198
330
1F
100
AcDbEntity
  8
0
  6
Continuous
 62
     8
370
    18
100
AcDbSpline
210
0.0
220
0.0
230
1.0
 70
     8
 71
     3
 72
     8
 73
     4
 74
     0
 42
0.00000001
 43
0.00000001
 40
0.1199204586113763
 40
0.1199204586113763
 40
0.1199204586113763
 40
0.1199204586113763
 40
0.5781271939121826
 40
0.5781271939121826
 40
0.5781271939121826
 40
0.5781271939121826
 10
328.843074727168
 20
449.6143687438693
 30
0.0
 10
328.9464907447318
 20
449.5037924623703
 30
0.0
 10
329.0500033737152
 20
449.3932851456261
 30
0.0
 10
329.1535570199705
 20
449.2828916803286
 30
0.0
  0
LINE
  5
199
330
1F
100
AcDbEntity
  8
0
  6
Continuous
 62
     8
370
    18
100
AcDbLine
 10
306.5501154274
 20
348.3332584845
 30
0.0
 11
306.5501154274
 21
344.3332584839
 31
0.0
  0
LINE
  5
19A
330
1F
100
AcDbEntity
  8
0
  6
Continuous
 62
     8
370
    18
100
AcDbLine
 10
352.7501154276
 20
348.3332584845
 30
0.0
 11
306.5501154274
 21
348.3332584845
 31
0.0
  0
LINE
  5
19B
330
1F
100
AcDbEntity
  8
0
  6
Continuous
 62
     8
370
    18
100
AcDbLine
 10
352.7501154276
 20
344.3332584839
 30
0.0
 11
352.7501154276
 21
348.3332584845
 31
0.0
  0
LINE
  5
19C
330
1F
100
AcDbEntity
  8
0
  6
Continuous
 62
     8
370
    18
100
AcDbLine
 10
352.7501154276
 20
349.3332584845
 30
0.0
 11
352.7501154276
 21
348.3332584845
 31
0.0
  0
LINE
  5
19D
330
1F
100
AcDbEntity
  8
0
  6
Continuous
 62
     8
370
    18
100
AcDbLine
 10
306.5501154274
 20
349.3332584845
 30
0.0
 11
306.5501154274
 21
348.3332584845
 31
0.0
  0
LINE
  5
19E
330
1F
100
AcDbEntity
  8
0
  6
Continuous
 62
     8
370
    18
100
AcDbLine
 10
305.5501154274
 20
348.3332584845
 30
0.0
 11
306.5501154274
 21
348.3332584845
 31
0.0
  0
LINE
  5
19F
330
1F
100
AcDbEntity
  8
0
  6
Continuous
 62
     8
370
    18
100
AcDbLine
 10
352.7501154276
 20
348.3332584845
 30
0.0
 11
353.7501154276
 21
348.3332584845
 31
0.0
  0
SPLINE
  5
1A0
330
1F
100
AcDbEntity
  8
0
  6
Continuous
 62
     8
370
    18
100
AcDbSpline
210
0.0
220
0.0
230
1.0
 70
     8
 71
     3
 72
    18
 73
    14
 74
     0
 42
0.00000001
 43
0.00000001
 40
0.0
 40
0.0
 40
0.0
 40
0.0
 40
0.2499999999999998
 40
0.2499999999999998
 40
0.3749999999999993
 40
0.3749999999999993
 40
0.499999999999999
 40
0.499999999999999
 40
0.6249999999999987
 40
0.6249999999999987
 40
0.7499999999999982
 40
0.7499999999999982
 40
1.0
 40
1.0
 40
1.0
 40
1.0
 10
312.6501146581219
 20
354.3332586203141
 30
0.0
 10
312.6501146581221
 20
353.744002961322
 30
0.0
 10
312.6501146603392
 20
353.1082698032305
 30
0.0
 10
312.6501146678838
 20
352.1850426513243
 30
0.0
 10
312.6501146710884
 20
351.8830569834035
 30
0.0
 10
312.6501146788036
 20
351.3113625983569
 30
0.0
 10
312.6501146833134
 20
351.0418023169287
 30
0.0
 10
312.6501146933896
 20
350.5536469362331
 30
0.0
 10
312.6501146989538
 20
350.3351617327021
 30
0.0
 10
312.6501147107542
 20
349.961400176884
 30
0.0
 10
312.6501147169876
 20
349.8061493944282
 30
0.0
 10
312.650114736044
 20
349.4406521815587
 30
0.0
 10
312.6501147491662
 20
349.3332584844941
 30
0.0
 10
312.650114761329
 20
349.3332584844941
 30
0.0
  0
SPLINE
  5
1A1
330
1F
100
AcDbEntity
  8
0
  6
Continuous
 62
     8
370
    18
100
AcDbSpline
210
0.0
220
0.0
230
1.0
 70
     8
 71
     3
 72
    18
 73
    14
 74
     0
 42
0.00000001
 43
0.00000001
 40
0.0
 40
0.0
 40
0.0
 40
0.0
 40
0.2500000000000003
 40
0.2500000000000003
 40
0.3750000000000004
 40
0.3750000000000004
 40
0.5000000000000004
 40
0.5000000000000004
 40
0.6250000000000004
 40
0.6250000000000004
 40
0.7500000000000006
 40
0.7500000000000006
 40
1.0
 40
1.0
 40
1.0
 40
1.0
 10
327.6501156080186
 20
349.3332584844941
 30
0.0
 10
327.6501155958559
 20
349.3332584844941
 30
0.0
 10
327.6501155827337
 20
349.4406521815587
 30
0.0
 10
327.6501155636774
 20
349.8061493944282
 30
0.0
 10
327.6501155574442
 20
349.961400176884
 30
0.0
 10
327.6501155456437
 20
350.3351617327021
 30
0.0
 10
327.6501155400797
 20
350.5536469362331
 30
0.0
 10
327.6501155300036
 20
351.0418023169287
 30
0.0
 10
327.6501155254937
 20
351.3113625983569
 30
0.0
 10
327.6501155177787
 20
351.8830569834035
 30
0.0
 10
327.6501155145741
 20
352.1850426513244
 30
0.0
 10
327.6501155070295
 20
353.1082698032305
 30
0.0
 10
327.6501155048125
 20
353.744002961322
 30
0.0
 10
327.6501155048123
 20
354.3332586203141
 30
0.0
  0
LINE
  5
1A2
330
1F
100
AcDbEntity
  8
0
  6
Continuous
 62
     8
370
    18
100
AcDbLine
 10
377.6501144244
 20
434.4015987719
 30
0.0
 11
470.5501144244
 21
434.4015989829
 31
0.0
  0
SPLINE
  5
1A3
330
1F
100
AcDbEntity
  8
0
  6
Continuous
 62
     8
370
    18
100
AcDbSpline
210
0.0
220
0.0
230
1.0
 70
    24
 71
     3
 72
    22
 73
    18
 74
     0
 42
0.00000001
 43
0.00000001
 40
39.41772977525555
 40
39.41772977525555
 40
39.41772977525555
 40
39.41772977525555
 40
42.70254058986018
 40
42.70254058986018
 40
44.3449459971625
 40
44.3449459971625
 40
45.98735140446481
 40
45.98735140446481
 40
46.80855410811597
 40
46.80855410811597
 40
47.62975681176712
 40
47.62975681176712
 40
49.27216221906944
 40
49.27216221906944
 40
50.91456762637176
 40
50.91456762637176
 40
52.55697303367407
 40
52.55697303367407
 40
52.55697303367407
 40
52.55697303367407
 10
470.5501144244287
 20
429.401924968961
 30
0.0
 10
470.5501144244287
 20
429.402516332748
 30
0.0
 10
470.5501144244287
 20
429.3993750993415
 30
0.0
 10
470.5501144244287
 20
429.4534305476138
 30
0.0
 10
470.5501144244287
 20
429.4824537581319
 30
0.0
 10
470.5501144244287
 20
429.5976542376176
 30
0.0
 10
470.5501144244287
 20
429.6829909055688
 30
0.0
 10
470.5501144244287
 20
429.9174713725535
 30
0.0
 10
470.5501144244287
 20
430.014905849866
 30
0.0
 10
470.5501144244287
 20
430.2580244809083
 30
0.0
 10
470.5501144244287
 20
430.4043324058895
 30
0.0
 10
470.5501144244287
 20
430.9087382812597
 30
0.0
 10
470.5501144244287
 20
431.3234882209086
 30
0.0
 10
470.5501144244287
 20
432.1785916887326
 30
0.0
 10
470.5501144244287
 20
432.6221863108532
 30
0.0
 10
470.5501144244287
 20
433.5097038013206
 30
0.0
 10
470.5501144244287
 20
433.9559876970036
 30
0.0
 10
470.5501144244287
 20
434.4015987719488
 30
0.0
  0
SPLINE
  5
1A4
330
1F
100
AcDbEntity
  8
0
  6
Continuous
 62
     8
370
    18
100
AcDbSpline
210
0.0
220
0.0
230
1.0
 70
     8
 71
     3
 72
    10
 73
     6
 74
     0
 42
0.00000001
 43
0.00000001
 40
0.0
 40
0.0
 40
0.0
 40
0.0
 40
0.5
 40
0.5
 40
1.0
 40
1.0
 40
1.0
 40
1.0
 10
471.5501144244286
 20
434.402197746181
 30
0.0
 10
471.5501144244286
 20
434.4020409350937
 30
0.0
 10
471.4423413280384
 20
434.4018850896229
 30
0.0
 10
471.0721010831919
 20
434.4016633252565
 30
0.0
 10
470.8119138122278
 20
434.4015987719488
 30
0.0
 10
470.5501144244286
 20
434.4015987719488
 30
0.0
  0
LINE
  5
1A5
330
1F
100
AcDbEntity
  8
0
  6
Continuous
 62
     8
370
    18
100
AcDbLine
 10
312.6614706535
 20
456.5051703807
 30
0.0
 11
312.6521636534
 21
454.1784203543
 31
0.0
  0
LINE
  5
1A6
330
1F
100
AcDbEntity
  8
0
  6
Continuous
 62
     8
370
    18
100
AcDbLine
 10
312.6615190231
 20
456.5048768767
 30
0.0
 11
413.2107460876
 21
473.0750354531
 31
0.0
  0
LINE
  5
1A7
330
1F
100
AcDbEntity
  8
0
  6
Continuous
 62
     8
370
    18
100
AcDbLine
 10
413.5432805466
 20
471.0571677165
 30
0.0
 11
413.2106977174
 21
473.0753289625
 31
0.0
  0
LINE
  5
1A8
330
1F
100
AcDbEntity
  8
0
  6
Continuous
 62
     8
370
    18
100
AcDbLine
 10
413.2106977183
 20
473.0753289565
 30
0.0
 11
414.2256002819
 21
473.2425813254
 31
0.0
  0
SPLINE
  5
1A9
330
1F
100
AcDbEntity
  8
0
  6
Continuous
 62
     8
370
    18
100
AcDbSpline
210
0.0
220
0.0
230
1.0
 70
    24
 71
     3
 72
    10
 73
     6
 74
     0
 42
0.00000001
 43
0.00000001
 40
0.0
 40
0.0
 40
0.0
 40
0.0
 40
0.5
 40
0.5
 40
1.0
 40
1.0
 40
1.0
 40
1.0
 10
413.2107460875582
 20
473.0750354530629
 30
0.0
 10
413.1889402541401
 20
473.2073552311319
 30
0.0
 10
413.1652068326359
 20
473.351371788743
 30
0.0
 10
413.1200855979558
 20
473.6251715393694
 30
0.0
 10
413.09892083181
 20
473.753601262744
 30
0.0
 10
413.0825453948246
 20
473.8529689016395
 30
0.0
  0
SPLINE
  5
1AA
330
1F
100
AcDbEntity
  8
0
  6
Continuous
 62
     8
370
    18
100
AcDbSpline
210
0.0
220
0.0
230
1.0
 70
    24
 71
     3
 72
    14
 73
    10
 74
     0
 42
0.00000001
 43
0.00000001
 40
0.0
 40
0.0
 40
0.0
 40
0.0
 40
0.25
 40
0.25
 40
0.5
 40
0.5
 40
0.75
 40
0.75
 40
1.0
 40
1.0
 40
1.0
 40
1.0
 10
312.6615190230772
 20
456.5048768767208
 30
0.0
 10
312.5268736533291
 20
456.5054154581975
 30
0.0
 10
312.3922799777031
 20
456.5059538328984
 30
0.0
 10
312.1434840522896
 20
456.5069490165976
 30
0.0
 10
312.0293797050379
 20
456.507405433986
 30
0.0
 10
311.8389578110073
 20
456.5081671215621
 30
0.0
 10
311.7627151962688
 20
456.5084720920217
 30
0.0
 10
311.6596590958084
 20
456.5088843164259
 30
0.0
 10
311.6328861632167
 20
456.508991408158
 30
0.0
 10
311.6328861632181
 20
456.5089914081603
 30
0.0
  0
LINE
  5
1AB
330
1F
100
AcDbEntity
  8
0
  6
Continuous
 62
     8
370
    18
100
AcDbLine
 10
312.6501146581
 20
369.4015994265
 30
0.0
 11
312.6501146581
 21
365.3332586203
 31
0.0
  0
LINE
  5
1AC
330
1F
100
AcDbEntity
  8
0
  6
Continuous
 62
     8
370
    18
100
AcDbLine
 10
312.6501144245
 20
444.4016003966
 30
0.0
 11
311.6668475333
 21
444.4016003979
 31
0.0
  0
LINE
  5
1AD
330
1F
100
AcDbEntity
  8
0
  6
Continuous
 62
     8
370
    18
100
AcDbLine
 10
312.6501144245
 20
444.4016003966
 30
0.0
 11
312.6501144242
 21
369.4015994265
 31
0.0
  0
SPLINE
  5
1AE
330
1F
100
AcDbEntity
  8
0
  6
Continuous
 62
     8
370
    18
100
AcDbSpline
210
0.0
220
0.0
230
1.0
 70
     8
 71
     3
 72
    38
 73
    34
 74
     0
 42
0.00000001
 43
0.00000001
 40
0.0
 40
0.0
 40
0.0
 40
0.0
 40
0.0625
 40
0.0625
 40
0.125
 40
0.125
 40
0.1874999999999999
 40
0.1874999999999999
 40
0.2499999999999999
 40
0.2499999999999999
 40
0.3124999999999998
 40
0.3124999999999998
 40
0.3749999999999998
 40
0.3749999999999998
 40
0.4374999999999998
 40
0.4374999999999998
 40
0.4999999999999997
 40
0.4999999999999997
 40
0.5624999999999997
 40
0.5624999999999997
 40
0.6249999999999997
 40
0.6249999999999997
 40
0.6874999999999997
 40
0.6874999999999997
 40
0.7499999999999997
 40
0.7499999999999997
 40
0.8124999999999998
 40
0.8124999999999998
 40
0.8749999999999999
 40
0.8749999999999999
 40
0.9375
 40
0.9375
 40
1.0
 40
1.0
 40
1.0
 40
1.0
 10
377.6501144244292
 20
434.4015987719336
 30
0.0
 10
375.0963981688346
 20
434.4015987719336
 30
0.0
 10
372.5438118782097
 20
434.4021052710042
 30
0.0
 10
367.542186177096
 20
434.3931943578725
 30
0.0
 10
365.0930606369205
 20
434.3836908159847
 30
0.0
 10
360.373902302698
 20
434.3330450087941
 30
0.0
 10
358.1037833789641
 20
434.291816613806
 30
0.0
 10
353.7951992093908
 20
434.147984535481
 30
0.0
 10
351.7566478338645
 20
434.0452947224586
 30
0.0
 10
347.9433586488519
 20
433.7433653809028
 30
0.0
 10
346.1685347096788
 20
433.544039722684
 30
0.0
 10
342.8970431325033
 20
433.010810291909
 30
0.0
 10
341.400289364814
 20
432.6768203896674
 30
0.0
 10
338.6840476033278
 20
431.8359639909206
 30
0.0
 10
337.464473479844
 20
431.3290113647301
 30
0.0
 10
335.2890511076865
 20
430.1062448476238
 30
0.0
 10
334.333116729326
 20
429.3903448270225
 30
0.0
 10
332.6613684671349
 20
427.7185965506612
 30
0.0
 10
331.9454684536175
 20
426.7626621652158
 30
0.0
 10
330.7227019502403
 20
424.5872397793251
 30
0.0
 10
330.2157493306936
 20
423.3676656491945
 30
0.0
 10
329.3748929443982
 20
420.6514238752495
 30
0.0
 10
329.0409030479627
 20
419.1546701017496
 30
0.0
 10
328.5076736276492
 20
415.8831785141028
 30
0.0
 10
328.3083479740843
 20
414.1083545702704
 30
0.0
 10
328.006418640496
 20
410.2950653772803
 30
0.0
 10
327.9037288307856
 20
408.256513998437
 30
0.0
 10
327.7598967577199
 20
403.9479298235962
 30
0.0
 10
327.7186683646777
 20
401.6778108979131
 30
0.0
 10
327.668022560198
 20
396.9586525609766
 30
0.0
 10
327.6585190190735
 20
394.5095270200378
 30
0.0
 10
327.6496081067196
 20
389.5079013181517
 30
0.0
 10
327.6501146058034
 20
386.955315027519
 30
0.0
 10
327.6501146058034
 20
384.4015987719337
 30
0.0
  0
LINE
  5
1AF
330
1F
100
AcDbEntity
  8
0
  6
Continuous
 62
     8
370
    18
100
AcDbLine
 10
327.6501146058
 20
369.4015994265
 30
0.0
 11
327.6501146058
 21
384.4015993986
 31
0.0
  0
LINE
  5
1B0
330
1F
100
AcDbEntity
  8
0
  6
Continuous
 62
     8
370
    18
100
AcDbLine
 10
470.5501144244
 20
444.4016003966
 30
0.0
 11
312.6501144245
 21
444.4016003966
 31
0.0
  0
LINE
  5
1B1
330
1F
100
AcDbEntity
  8
0
  6
Continuous
 62
     8
370
    18
100
AcDbLine
 10
470.5501144244
 20
434.4015989829
 30
0.0
 11
470.5501144244
 21
444.4016003966
 31
0.0
  0
LINE
  5
1B2
330
1F
100
AcDbEntity
  8
0
  6
Continuous
 62
     8
370
    18
100
AcDbLine
 10
327.65011484
 20
365.3332586203
 30
0.0
 11
327.65011484
 21
369.4015994265
 31
0.0
  0
LINE
  5
1B3
330
1F
100
AcDbEntity
  8
0
  6
Continuous
 62
     8
370
    18
100
AcDbLine
 10
312.6501144245
 20
445.4016003982
 30
0.0
 11
312.6501144245
 21
444.4016003966
 31
0.0
  0
LINE
  5
1B4
330
1F
100
AcDbEntity
  8
0
  6
Continuous
 62
     8
370
    18
100
AcDbLine
 10
470.5501144244
 20
444.4016003966
 30
0.0
 11
470.5501144244
 21
445.4016003981
 31
0.0
  0
SPLINE
  5
1B5
330
1F
100
AcDbEntity
  8
0
  6
Continuous
 62
     8
370
    18
100
AcDbSpline
210
0.0
220
0.0
230
1.0
 70
     8
 71
     3
 72
    10
 73
     6
 74
     0
 42
0.00000001
 43
0.00000001
 40
0.0
 40
0.0
 40
0.0
 40
0.0
 40
0.5
 40
0.5
 40
1.0
 40
1.0
 40
1.0
 40
1.0
 10
471.5501144244286
 20
444.4016003981427
 30
0.0
 10
471.5501144244286
 20
444.4016003977478
 30
0.0
 10
471.4423413280384
 20
444.4016003973551
 30
0.0
 10
471.0721010831919
 20
444.4016003967965
 30
0.0
 10
470.8119138122278
 20
444.401600396634
 30
0.0
 10
470.5501144244286
 20
444.401600396634
 30
0.0
  0
LINE
  5
1B6
330
1F
100
AcDbEntity
  8
0
  6
Continuous
 62
     8
370
    18
100
AcDbLine
 10
312.6695189586
 20
458.5048608769
 30
0.0
 11
312.6615190231
 21
456.5048768767
 31
0.0
  0
LINE
  5
1B7
330
1F
100
AcDbEntity
  8
0
  6
Continuous
 62
     8
370
    18
100
AcDbLine
 10
327.6501155048
 20
354.3332586578
 30
0.0
 11
327.6501155048
 21
365.3332586203
 31
0.0
  0
LINE
  5
1B8
330
1F
100
AcDbEntity
  8
0
  6
Continuous
 62
     8
370
    18
100
AcDbLine
 10
312.6501146581
 20
365.3332586203
 30
0.0
 11
312.6501146581
 21
354.3332586578
 31
0.0
  0
LINE
  5
1B9
330
1F
100
AcDbEntity
  8
0
  6
Continuous
 62
     8
370
    18
100
AcDbLine
 10
316.5228254264
 20
453.0688068033
 30
0.0
 11
314.2769049103
 21
453.0688068033
 31
0.0
  0
ENDSEC
  0
SECTION
  2
OBJECTS
  0
DICTIONARY
  5
C
330
0
100
AcDbDictionary
281
     1
  3
ACAD_GROUP
350
D
  3
ACAD_LAYOUT
350
1A
  3
ACAD_MLINESTYLE
350
17
  3
ACAD_PLOTSETTINGS
350
19
  3
ACAD_PLOTSTYLENAME
350
E
  3
ACAD_SCALELIST
350
47
  3
DWGPROPS
350
1BA
  0
DICTIONARY
  5
D
102
{ACAD_REACTORS
330
C
102
}
330
C
100
AcDbDictionary
281
     1
  0
DICTIONARY
  5
1A
102
{ACAD_REACTORS
330
C
102
}
330
C
100
AcDbDictionary
281
     1
  3
Layout1
350
1E
  3
Layout2
350
26
  3
Model
350
22
  0
DICTIONARY
  5
17
102
{ACAD_REACTORS
330
C
102
}
330
C
100
AcDbDictionary
281
     1
  3
Standard
350
18
  0
DICTIONARY
  5
19
102
{ACAD_REACTORS
330
C
102
}
330
C
100
AcDbDictionary
281
     1
  0
ACDBDICTIONARYWDFLT
  5
E
102
{ACAD_REACTORS
330
C
102
}
330
C
100
AcDbDictionary
281
     1
  3
Normal
350
F
100
AcDbDictionaryWithDefault
340
F
  0
DICTIONARY
  5
47
102
{ACAD_REACTORS
330
C
102
}
330
C
100
AcDbDictionary
281
     1
  3
A0
350
48
  3
A1
350
49
  3
A2
350
4A
  3
A3
350
4B
  3
A4
350
4C
  3
A5
350
4D
  3
A6
350
4E
  3
A7
350
4F
  3
A8
350
50
  3
A9
350
51
  3
B0
350
52
  3
B1
350
53
  3
B2
350
54
  3
B3
350
55
  3
B4
350
56
  3
B5
350
57
  3
B6
350
58
  0
XRECORD
  5
1BA
102
{ACAD_REACTORS
330
C
102
}
330
C
100
AcDbXrecord
280
     1
  1
DWGPROPS COOKIE
  2

  3

  4

  6

  7

  8
fue-task
  9

300
=
301
=
302
=
303
=
304
=
305
=
306
=
307
=
308
=
309
=
 40
0.0
 41
2460346.403217789
 42
2460346.403218878
  1

 90
        0
  0
LAYOUT
  5
1E
102
{ACAD_REACTORS
330
1A
102
}
330
1A
100
AcDbPlotSettings
  1

  2
none_device
  4

  6

 40
0.0
 41
0.0
 42
0.0
 43
0.0
 44
0.0
 45
0.0
 46
0.0
 47
0.0
 48
0.0
 49
0.0
140
0.0
141
0.0
142
1.0
143
1.0
 70
   688
 72
     1
 73
     0
 74
     5
  7

 75
    16
147
1.0
148
0.0
149
0.0
100
AcDbLayout
  1
Layout1
 70
     1
 71
     1
 10
0.0
 20
0.0
 11
420.0
 21
297.0
 12
0.0
 22
0.0
 32
0.0
 14
1.0000000000E+20
 24
1.0000000000E+20
 34
1.0000000000E+20
 15
-1.0000000000E+20
 25
-1.0000000000E+20
 35
-1.0000000000E+20
146
0.0
 13
0.0
 23
0.0
 33
0.0
 16
1.0
 26
0.0
 36
0.0
 17
0.0
 27
1.0
 37
0.0
 76
     0
330
1B
  0
LAYOUT
  5
26
102
{ACAD_REACTORS
330
1A
102
}
330
1A
100
AcDbPlotSettings
  1

  2
none_device
  4

  6

 40
0.0
 41
0.0
 42
0.0
 43
0.0
 44
0.0
 45
0.0
 46
0.0
 47
0.0
 48
0.0
 49
0.0
140
0.0
141
0.0
142
1.0
143
1.0
 70
   688
 72
     1
 73
     0
 74
     5
  7

 75
    16
147
1.0
148
0.0
149
0.0
100
AcDbLayout
  1
Layout2
 70
     1
 71
     2
 10
0.0
 20
0.0
 11
0.0
 21
0.0
 12
0.0
 22
0.0
 32
0.0
 14
0.0
 24
0.0
 34
0.0
 15
0.0
 25
0.0
 35
0.0
146
0.0
 13
0.0
 23
0.0
 33
0.0
 16
1.0
 26
0.0
 36
0.0
 17
0.0
 27
1.0
 37
0.0
 76
     0
330
23
  0
LAYOUT
  5
22
102
{ACAD_REACTORS
330
1A
102
}
330
1A
100
AcDbPlotSettings
  1

  2
none_device
  4
Letter_(8.50_x_11.00_Inches)
  6

 40
6.35
 41
6.35
 42
6.35000508
 43
6.35000508
 44
215.9
 45
279.4
 46
0.0
 47
0.0
 48
0.0
 49
0.0
140
0.0
141
0.0
142
1.0
143
1.0
 70
  1712
 72
     1
 73
     0
 74
     0
  7

 75
     0
147
1.0
148
0.0
149
0.0
100
AcDbLayout
  1
Model
 70
     1
 71
     0
 10
0.0
 20
0.0
 11
594.0
 21
841.0
 12
0.0
 22
0.0
 32
0.0
 14
0.0
 24
0.0
 34
0.0
 15
594.0
 25
841.0
 35
0.0
146
0.0
 13
0.0
 23
0.0
 33
0.0
 16
1.0
 26
0.0
 36
0.0
 17
0.0
 27
1.0
 37
0.0
 76
     0
330
1F
331
29
  0
MLINESTYLE
  5
18
102
{ACAD_REACTORS
330
17
102
}
330
17
100
AcDbMlineStyle
  2
Standard
 70
     0
  3

 62
   256
 51
90.0
 52
90.0
 71
     2
 49
0.5
 62
   256
  6
BYLAYER
 49
-0.5
 62
   256
  6
BYLAYER
  0
ACDBPLACEHOLDER
  5
F
102
{ACAD_REACTORS
330
E
102
}
330
E
  0
SCALE
  5
48
102
{ACAD_REACTORS
330
47
102
}
330
47
100
AcDbScale
 70
     0
300
1:1
140
1.0
141
1.0
290
     1
  0
SCALE
  5
49
102
{ACAD_REACTORS
330
47
102
}
330
47
100
AcDbScale
 70
     0
300
1:2
140
1.0
141
2.0
290
     0
  0
SCALE
  5
4A
102
{ACAD_REACTORS
330
47
102
}
330
47
100
AcDbScale
 70
     0
300
1:4
140
1.0
141
4.0
290
     0
  0
SCALE
  5
4B
102
{ACAD_REACTORS
330
47
102
}
330
47
100
AcDbScale
 70
     0
300
1:5
140
1.0
141
5.0
290
     0
  0
SCALE
  5
4C
102
{ACAD_REACTORS
330
47
102
}
330
47
100
AcDbScale
 70
     0
300
1:8
140
1.0
141
8.0
290
     0
  0
SCALE
  5
4D
102
{ACAD_REACTORS
330
47
102
}
330
47
100
AcDbScale
 70
     0
300
1:10
140
1.0
141
10.0
290
     0
  0
SCALE
  5
4E
102
{ACAD_REACTORS
330
47
102
}
330
47
100
AcDbScale
 70
     0
300
1:16
140
1.0
141
16.0
290
     0
  0
SCALE
  5
4F
102
{ACAD_REACTORS
330
47
102
}
330
47
100
AcDbScale
 70
     0
300
1:20
140
1.0
141
20.0
290
     0
  0
SCALE
  5
50
102
{ACAD_REACTORS
330
47
102
}
330
47
100
AcDbScale
 70
     0
300
1:30
140
1.0
141
30.0
290
     0
  0
SCALE
  5
51
102
{ACAD_REACTORS
330
47
102
}
330
47
100
AcDbScale
 70
     0
300
1:40
140
1.0
141
40.0
290
     0
  0
SCALE
  5
52
102
{ACAD_REACTORS
330
47
102
}
330
47
100
AcDbScale
 70
     0
300
1:50
140
1.0
141
50.0
290
     0
  0
SCALE
  5
53
102
{ACAD_REACTORS
330
47
102
}
330
47
100
AcDbScale
 70
     0
300
1:100
140
1.0
141
100.0
290
     0
  0
SCALE
  5
54
102
{ACAD_REACTORS
330
47
102
}
330
47
100
AcDbScale
 70
     0
300
2:1
140
2.0
141
1.0
290
     0
  0
SCALE
  5
55
102
{ACAD_REACTORS
330
47
102
}
330
47
100
AcDbScale
 70
     0
300
4:1
140
4.0
141
1.0
290
     0
  0
SCALE
  5
56
102
{ACAD_REACTORS
330
47
102
}
330
47
100
AcDbScale
 70
     0
300
8:1
140
8.0
141
1.0
290
     0
  0
SCALE
  5
57
102
{ACAD_REACTORS
330
47
102
}
330
47
100
AcDbScale
 70
     0
300
10:1
140
10.0
141
1.0
290
     0
  0
SCALE
  5
58
102
{ACAD_REACTORS
330
47
102
}
330
47
100
AcDbScale
 70
     0
300
100:1
140
100.0
141
1.0
290
     0
  0
ENDSEC
  0
EOF
