  0
SECTION
  2
HEADER
  9
$ACADVER
  1
AC1015
  9
$ACADMAINTVER
 70
     6
  9
$DWGCODEPAGE
  3
ANSI_1252
  9
$INSBASE
 10
0.0
 20
0.0
 30
0.0
  9
$EXTMIN
 10
0.0
 20
0.0
 30
0.0
  9
$EXTMAX
 10
841.0
 20
2500.0
 30
0.0
  9
$LIMMIN
 10
0.0
 20
0.0
  9
$LIMMAX
 10
841.0
 20
2500.0
  9
$ORTHOMODE
 70
     0
  9
$REGENMODE
 70
     1
  9
$FILLMODE
 70
     1
  9
$QTEXTMODE
 70
     0
  9
$MIRRTEXT
 70
     1
  9
$LTSCALE
 40
1.0
  9
$ATTMODE
 70
     1
  9
$TEXTSIZE
 40
10.0
  9
$TRACEWID
 40
1.0
  9
$TEXTSTYLE
  7
Standard
  9
$CLAYER
  8
0
  9
$CELTYPE
  6
ByLayer
  9
$CECOLOR
 62
   256
  9
$CELTSCALE
 40
1.0
  9
$DISPSILH
 70
     0
  9
$DIMSCALE
 40
1.0
  9
$DIMASZ
 40
2.5
  9
$DIMEXO
 40
0.0
  9
$DIMDLI
 40
3.75
  9
$DIMRND
 40
0.0
  9
$DIMDLE
 40
0.0
  9
$DIMEXE
 40
1.0
  9
$DIMTP
 40
0.0
  9
$DIMTM
 40
0.0
  9
$DIMTXT
 40
3.5
  9
$DIMCEN
 40
2.5
  9
$DIMTSZ
 40
0.0
  9
$DIMTOL
 70
     0
  9
$DIMLIM
 70
     0
  9
$DIMTIH
 70
     1
  9
$DIMTOH
 70
     1
  9
$DIMSE1
 70
     0
  9
$DIMSE2
 70
     0
  9
$DIMTAD
 70
     1
  9
$DIMZIN
 70
     0
  9
$DIMBLK
  1

  9
$DIMASO
 70
     1
  9
$DIMSHO
 70
     1
  9
$DIMPOST
  1

  9
$DIMAPOST
  1

  9
$DIMALT
 70
     0
  9
$DIMALTD
 70
     3
  9
$DIMALTF
 40
0.0393700787
  9
$DIMLFAC
 40
1.0
  9
$DIMTOFL
 70
     1
  9
$DIMTVP
 40
0.0
  9
$DIMTIX
 70
     0
  9
$DIMSOXD
 70
     0
  9
$DIMSAH
 70
     0
  9
$DIMBLK1
  1

  9
$DIMBLK2
  1

  9
$DIMSTYLE
  2
ISO-25
  9
$DIMCLRD
 70
     0
  9
$DIMCLRE
 70
     0
  9
$DIMCLRT
 70
     0
  9
$DIMTFAC
 40
1.0
  9
$DIMGAP
 40
1.5
  9
$DIMJUST
 70
     0
  9
$DIMSD1
 70
     0
  9
$DIMSD2
 70
     0
  9
$DIMTOLJ
 70
     0
  9
$DIMTZIN
 70
     0
  9
$DIMALTZ
 70
     0
  9
$DIMALTTZ
 70
     0
  9
$DIMUPT
 70
     0
  9
$DIMDEC
 70
     2
  9
$DIMTDEC
 70
     2
  9
$DIMALTU
 70
     2
  9
$DIMALTTD
 70
     3
  9
$DIMTXSTY
  7
Standard
  9
$DIMAUNIT
 70
     0
  9
$DIMADEC
 70
     2
  9
$DIMALTRND
 40
0.0
  9
$DIMAZIN
 70
     0
  9
$DIMDSEP
 70
    44
  9
$DIMATFIT
 70
     3
  9
$DIMFRAC
 70
     0
  9
$DIMLDRBLK
  1

  9
$DIMLUNIT
 70
     2
  9
$DIMLWD
 70
    -2
  9
$DIMLWE
 70
    -2
  9
$DIMTMOVE
 70
     0
  9
$LUNITS
 70
     2
  9
$LUPREC
 70
     2
  9
$SKETCHINC
 40
1.0
  9
$FILLETRAD
 40
10.0
  9
$AUNITS
 70
     0
  9
$AUPREC
 70
     2
  9
$MENU
  1
.
  9
$ELEVATION
 40
0.0
  9
$PELEVATION
 40
0.0
  9
$THICKNESS
 40
0.0
  9
$LIMCHECK
 70
     0
  9
$CHAMFERA
 40
0.0
  9
$CHAMFERB
 40
0.0
  9
$CHAMFERC
 40
0.0
  9
$CHAMFERD
 40
0.0
  9
$SKPOLY
 70
     0
  9
$TDCREATE
 40
2458757.550466215
  9
$TDUCREATE
 40
2458757.467132882
  9
$TDUPDATE
 40
2458757.550467477
  9
$TDUUPDATE
 40
2458757.467134144
  9
$TDINDWG
 40
0.0000000116
  9
$TDUSRTIMER
 40
0.0000000116
  9
$USRTIMER
 70
     1
  9
$ANGBASE
 50
0.0
  9
$ANGDIR
 70
     0
  9
$PDMODE
 70
     0
  9
$PDSIZE
 40
-1.0
  9
$PLINEWID
 40
0.0
  9
$SPLFRAME
 70
     0
  9
$SPLINETYPE
 70
     6
  9
$SPLINESEGS
 70
     8
  9
$HANDSEED
  5
302
  9
$SURFTAB1
 70
     6
  9
$SURFTAB2
 70
     6
  9
$SURFTYPE
 70
     6
  9
$SURFU
 70
     6
  9
$SURFV
 70
     6
  9
$UCSBASE
  2

  9
$UCSNAME
  2

  9
$UCSORG
 10
0.0
 20
0.0
 30
0.0
  9
$UCSXDIR
 10
1.0
 20
0.0
 30
0.0
  9
$UCSYDIR
 10
0.0
 20
1.0
 30
0.0
  9
$UCSORTHOREF
  2

  9
$UCSORTHOVIEW
 70
     0
  9
$UCSORGTOP
 10
0.0
 20
0.0
 30
0.0
  9
$UCSORGBOTTOM
 10
0.0
 20
0.0
 30
0.0
  9
$UCSORGLEFT
 10
0.0
 20
0.0
 30
0.0
  9
$UCSORGRIGHT
 10
0.0
 20
0.0
 30
0.0
  9
$UCSORGFRONT
 10
0.0
 20
0.0
 30
0.0
  9
$UCSORGBACK
 10
0.0
 20
0.0
 30
0.0
  9
$PUCSBASE
  2

  9
$PUCSNAME
  2

  9
$PUCSORG
 10
0.0
 20
0.0
 30
0.0
  9
$PUCSXDIR
 10
1.0
 20
0.0
 30
0.0
  9
$PUCSYDIR
 10
0.0
 20
1.0
 30
0.0
  9
$PUCSORTHOREF
  2

  9
$PUCSORTHOVIEW
 70
     0
  9
$PUCSORGTOP
 10
0.0
 20
0.0
 30
0.0
  9
$PUCSORGBOTTOM
 10
0.0
 20
0.0
 30
0.0
  9
$PUCSORGLEFT
 10
0.0
 20
0.0
 30
0.0
  9
$PUCSORGRIGHT
 10
0.0
 20
0.0
 30
0.0
  9
$PUCSORGFRONT
 10
0.0
 20
0.0
 30
0.0
  9
$PUCSORGBACK
 10
0.0
 20
0.0
 30
0.0
  9
$USERI1
 70
     0
  9
$USERI2
 70
     0
  9
$USERI3
 70
     0
  9
$USERI4
 70
     0
  9
$USERI5
 70
     0
  9
$USERR1
 40
0.0
  9
$USERR2
 40
0.0
  9
$USERR3
 40
0.0
  9
$USERR4
 40
0.0
  9
$USERR5
 40
0.0
  9
$WORLDVIEW
 70
     1
  9
$SHADEDGE
 70
     3
  9
$SHADEDIF
 70
    70
  9
$TILEMODE
 70
     1
  9
$MAXACTVP
 70
    64
  9
$PINSBASE
 10
0.0
 20
0.0
 30
0.0
  9
$PLIMCHECK
 70
     0
  9
$PEXTMIN
 10
1.0000000000E+20
 20
1.0000000000E+20
 30
1.0000000000E+20
  9
$PEXTMAX
 10
-1.0000000000E+20
 20
-1.0000000000E+20
 30
-1.0000000000E+20
  9
$PLIMMIN
 10
0.0
 20
0.0
  9
$PLIMMAX
 10
420.0
 20
297.0
  9
$UNITMODE
 70
     0
  9
$VISRETAIN
 70
     1
  9
$PLINEGEN
 70
     0
  9
$PSLTSCALE
 70
     1
  9
$TREEDEPTH
 70
  3020
  9
$CMLSTYLE
  2
Standard
  9
$CMLJUST
 70
     0
  9
$CMLSCALE
 40
20.0
  9
$PROXYGRAPHICS
 70
     1
  9
$MEASUREMENT
 70
     1
  9
$CELWEIGHT
370
    -1
  9
$ENDCAPS
280
     0
  9
$JOINSTYLE
280
     0
  9
$LWDISPLAY
290
     1
  9
$INSUNITS
 70
     4
  9
$HYPERLINKBASE
  1

  9
$STYLESHEET
  1

  9
$XEDIT
290
     1
  9
$CEPSNTYPE
380
     0
  9
$PSTYLEMODE
290
     1
  9
$FINGERPRINTGUID
  2
{5807A079-8F3C-4B27-9984-28E782652D15}
  9
$VERSIONGUID
  2
{FAEB1C32-E019-11D5-929B-00C0DF256EC4}
  9
$EXTNAMES
290
     1
  9
$PSVPSCALE
 40
0.0
  9
$OLESTARTUP
290
     0
  0
ENDSEC
  0
SECTION
  2
CLASSES
  0
CLASS
  1
ACDBDICTIONARYWDFLT
  2
AcDbDictionaryWithDefault
  3
ObjectDBX Classes
 90
        0
280
     0
281
     0
  0
CLASS
  1
VISUALSTYLE
  2
AcDbVisualStyle
  3
ObjectDBX Classes
 90
     4095
280
     0
281
     0
  0
CLASS
  1
MATERIAL
  2
AcDbMaterial
  3
ObjectDBX Classes
 90
     1153
280
     0
281
     0
  0
CLASS
  1
SCALE
  2
AcDbScale
  3
ObjectDBX Classes
 90
     1153
280
     0
281
     0
  0
CLASS
  1
TABLESTYLE
  2
AcDbTableStyle
  3
ObjectDBX Classes
 90
     4095
280
     0
281
     0
  0
CLASS
  1
MLEADERSTYLE
  2
AcDbMLeaderStyle
  3
ACDB_MLEADERSTYLE_CLASS
 90
     4095
280
     0
281
     0
  0
CLASS
  1
SUN
  2
AcDbSun
  3
SCENEOE
 90
     1153
280
     0
281
     0
  0
CLASS
  1
ACDBPLACEHOLDER
  2
AcDbPlaceHolder
  3
ObjectDBX Classes
 90
        0
280
     0
281
     0
  0
CLASS
  1
LAYOUT
  2
AcDbLayout
  3
ObjectDBX Classes
 90
        0
280
     0
281
     0
  0
ENDSEC
  0
SECTION
  2
TABLES
  0
TABLE
  2
VPORT
  5
8
330
0
100
AcDbSymbolTable
 70
     1
  0
VPORT
  5
29
330
8
100
AcDbSymbolTableRecord
100
AcDbViewportTableRecord
  2
*Active
 70
     0
 10
0.0
 20
0.0
 11
1.0
 21
1.0
 12
420.5
 22
1250.0
 13
0.0
 23
0.0
 14
10.0
 24
10.0
 15
10.0
 25
10.0
 16
0.0
 26
0.0
 36
1.0
 17
0.0
 27
0.0
 37
0.0
 40
2500.0
 41
0.3364
 42
50.0
 43
0.0
 44
0.0
 50
0.0
 51
0.0
 71
     0
 72
  2000
 73
     1
 74
     3
 75
     0
 76
     0
 77
     0
 78
     0
281
     0
 65
     1
110
0.0
120
0.0
130
0.0
111
1.0
121
0.0
131
0.0
112
0.0
122
1.0
132
0.0
 79
     0
146
0.0
  0
ENDTAB
  0
TABLE
  2
LTYPE
  5
5
330
0
100
AcDbSymbolTable
 70
     6
  0
LTYPE
  5
14
330
5
100
AcDbSymbolTableRecord
100
AcDbLinetypeTableRecord
  2
ByBlock
 70
     0
  3

 72
    65
 73
     0
 40
0.0
  0
LTYPE
  5
15
330
5
100
AcDbSymbolTableRecord
100
AcDbLinetypeTableRecord
  2
ByLayer
 70
     0
  3

 72
    65
 73
     0
 40
0.0
  0
LTYPE
  5
16
330
5
100
AcDbSymbolTableRecord
100
AcDbLinetypeTableRecord
  2
Continuous
 70
     0
  3
Solid line
 72
    65
 73
     0
 40
0.0
  0
LTYPE
  5
6E
330
5
100
AcDbSymbolTableRecord
100
AcDbLinetypeTableRecord
  2
HIDDEN
 70
     0
  3
Hidden __ __ __ __ __ __ __ __ __ __ __ __ __ __
 72
    65
 73
     2
 40
1.905
 49
1.27
 74
     0
 49
-0.635
 74
     0
  0
LTYPE
  5
6F
330
5
100
AcDbSymbolTableRecord
100
AcDbLinetypeTableRecord
  2
PHANTOM
 70
     0
  3
Phantom ______  __  __  ______  __  __  ______
 72
    65
 73
     6
 40
12.7
 49
6.35
 74
     0
 49
-1.27
 74
     0
 49
1.27
 74
     0
 49
-1.27
 74
     0
 49
1.27
 74
     0
 49
-1.27
 74
     0
  0
LTYPE
  5
70
330
5
100
AcDbSymbolTableRecord
100
AcDbLinetypeTableRecord
  2
CENTER
 70
     0
  3
Center ____ _ ____ _ ____ _ ____ _ ____ _ ____
 72
    65
 73
     4
 40
10.16
 49
6.35
 74
     0
 49
-1.27
 74
     0
 49
1.27
 74
     0
 49
-1.27
 74
     0
  0
LTYPE
  5
71
330
5
100
AcDbSymbolTableRecord
100
AcDbLinetypeTableRecord
  2
CENTERX2
 70
     0
  3
Center (2x) ________  __  ________  __  _____
 72
    65
 73
     4
 40
20.32
 49
12.7
 74
     0
 49
-2.54
 74
     0
 49
2.54
 74
     0
 49
-2.54
 74
     0
  0
LTYPE
  5
72
330
5
100
AcDbSymbolTableRecord
100
AcDbLinetypeTableRecord
  2
DOT2
 70
     0
  3
Dot (.5x) ........................................
 72
    65
 73
     2
 40
0.635
 49
0.0
 74
     0
 49
-0.635
 74
     0
  0
ENDTAB
  0
TABLE
  2
LAYER
  5
2
330
0
100
AcDbSymbolTable
 70
     1
  0
LAYER
  5
10
330
2
100
AcDbSymbolTableRecord
100
AcDbLayerTableRecord
  2
0
 70
     0
 62
     7
  6
Continuous
370
    -3
390
F
  0
ENDTAB
  0
TABLE
  2
STYLE
  5
3
330
0
100
AcDbSymbolTable
 70
     3
  0
STYLE
  5
11
330
3
100
AcDbSymbolTableRecord
100
AcDbTextStyleTableRecord
  2
Standard
 70
     0
 40
0.0
 41
1.0
 50
0.0
 71
     0
 42
10.0
  3
txt
  4

  0
STYLE
  5
76
330
3
100
AcDbSymbolTableRecord
100
AcDbTextStyleTableRecord
  2
SLDTEXTSTYLE0
 70
     0
 40
0.0
 41
0.96
 50
0.0
 71
     0
 42
10.0
  3
ISOCP3
  4

  0
STYLE
  5
8D
330
3
100
AcDbSymbolTableRecord
100
AcDbTextStyleTableRecord
  2
SLDTEXTSTYLE1
 70
     0
 40
0.0
 41
0.605
 50
0.0
 71
     0
 42
10.0
  3
TXT
  4

  0
ENDTAB
  0
TABLE
  2
VIEW
  5
6
330
0
100
AcDbSymbolTable
 70
     0
  0
ENDTAB
  0
TABLE
  2
UCS
  5
7
330
0
100
AcDbSymbolTable
 70
     0
  0
ENDTAB
  0
TABLE
  2
APPID
  5
9
330
0
100
AcDbSymbolTable
 70
     1
  0
APPID
  5
12
330
9
100
AcDbSymbolTableRecord
100
AcDbRegAppTableRecord
  2
ACAD
 70
     0
  0
ENDTAB
  0
TABLE
  2
DIMSTYLE
  5
A
330
0
100
AcDbSymbolTable
 70
     2
100
AcDbDimStyleTable
  0
DIMSTYLE
105
27
330
A
100
AcDbSymbolTableRecord
100
AcDbDimStyleTableRecord
  2
ISO-25
 70
     0
 41
2.5
 42
0.625
 43
3.75
 44
1.25
 73
     0
 74
     0
 77
     1
 78
     8
140
2.5
141
2.5
143
0.0393700787
147
0.625
171
     3
172
     1
178
     0
271
     2
272
     2
274
     3
278
    44
283
     0
284
     8
340
11
  0
DIMSTYLE
105
77
102
{ACAD_REACTORS
330
75
330
82
102
}
330
A
100
AcDbSymbolTableRecord
100
AcDbDimStyleTableRecord
  2
SLDDIMSTYLE0
 70
     0
 41
2.5
 44
0.0
 45
0.000000001
 73
     0
 74
     0
 77
     1
 78
    12
 79
     3
140
6.0
147
1.5
173
     1
178
     0
271
     2
272
     2
276
     2
284
    12
340
76
  0
ENDTAB
  0
TABLE
  2
BLOCK_RECORD
  5
1
330
0
100
AcDbSymbolTable
 70
     3
  0
BLOCK_RECORD
  5
1F
330
1
100
AcDbSymbolTableRecord
100
AcDbBlockTableRecord
  2
*Model_Space
340
22
  0
BLOCK_RECORD
  5
1B
330
1
100
AcDbSymbolTableRecord
100
AcDbBlockTableRecord
  2
*Paper_Space
340
1E
  0
BLOCK_RECORD
  5
23
330
1
100
AcDbSymbolTableRecord
100
AcDbBlockTableRecord
  2
*Paper_Space0
340
26
  0
BLOCK_RECORD
  5
78
330
1
100
AcDbSymbolTableRecord
100
AcDbBlockTableRecord
  2
_D
340
0
  0
BLOCK_RECORD
  5
83
330
1
100
AcDbSymbolTableRecord
100
AcDbBlockTableRecord
  2
_D_1
340
0
  0
ENDTAB
  0
ENDSEC
  0
SECTION
  2
BLOCKS
  0
BLOCK
  5
20
330
1F
100
AcDbEntity
  8
0
100
AcDbBlockBegin
  2
*Model_Space
 70
     0
 10
0.0
 20
0.0
 30
0.0
  3
*Model_Space
  1

  0
ENDBLK
  5
21
330
1F
100
AcDbEntity
  8
0
100
AcDbBlockEnd
  0
BLOCK
  5
1C
330
1B
100
AcDbEntity
 67
     1
  8
0
100
AcDbBlockBegin
  2
*Paper_Space
 70
     0
 10
0.0
 20
0.0
 30
0.0
  3
*Paper_Space
  1

  0
ENDBLK
  5
1D
330
1B
100
AcDbEntity
 67
     1
  8
0
100
AcDbBlockEnd
  0
BLOCK
  5
24
330
23
100
AcDbEntity
  8
0
100
AcDbBlockBegin
  2
*Paper_Space0
 70
     0
 10
0.0
 20
0.0
 30
0.0
  3
*Paper_Space0
  1

  0
ENDBLK
  5
25
330
23
100
AcDbEntity
  8
0
100
AcDbBlockEnd
  0
BLOCK
  5
79
330
78
100
AcDbEntity
  8
0
100
AcDbBlockBegin
  2
_D
 70
     0
 10
0.0
 20
0.0
 30
0.0
  3
_D
  1

  0
SOLID
  5
7B
330
78
100
AcDbEntity
  8
0
  6
Continuous
 62
     7
370
    18
100
AcDbTrace
 10
42.7614395004
 20
152.0299240879
 30
0.0
 11
42.4614395004
 21
149.5299240879
 31
0.0
 12
43.0614395004
 22
149.5299240879
 32
0.0
 13
43.0614395004
 23
149.5299240879
 33
0.0
  0
SOLID
  5
7C
330
78
100
AcDbEntity
  8
0
  6
Continuous
 62
     7
370
    18
100
AcDbTrace
 10
42.7614395004
 20
52.0299240879
 30
0.0
 11
43.0614395004
 21
54.5299240879
 31
0.0
 12
42.4614395004
 22
54.5299240879
 32
0.0
 13
42.4614395004
 23
54.5299240879
 33
0.0
  0
LINE
  5
7D
330
78
100
AcDbEntity
  8
0
  6
Continuous
 62
     7
370
    18
100
AcDbLine
 10
56.6850079902
 20
152.0299240879
 30
0.0
 11
41.7614395004
 21
152.0299240879
 31
0.0
  0
LINE
  5
7E
330
78
100
AcDbEntity
  8
0
  6
Continuous
 62
     7
370
    18
100
AcDbLine
 10
56.6850079902
 20
52.0299240879
 30
0.0
 11
41.7614395004
 21
52.0299240879
 31
0.0
  0
LINE
  5
7F
330
78
100
AcDbEntity
  8
0
  6
Continuous
 62
     7
370
    18
100
AcDbLine
 10
42.7614395004
 20
152.0299240879
 30
0.0
 11
42.7614395004
 21
52.0299240879
 31
0.0
  0
MTEXT
  5
80
330
78
100
AcDbEntity
  8
0
  6
Continuous
 62
     7
370
    18
100
AcDbMText
 10
35.0270332946
 20
94.3680541463
 30
0.0
 40
6.0
 41
0.0
 71
     1
 72
     1
  1
100
  7
SLDTEXTSTYLE0
 11
-7.044195017643634E-15
 21
1.0
 31
0.0
 73
     1
 44
1.0
  0
MTEXT
  5
81
330
78
100
AcDbEntity
  8
0
  6
Continuous
 62
     7
370
    18
100
AcDbMText
 10
35.0270332946
 20
105.7430548466
 30
0.0
 40
6.0
 41
0.0
 71
     1
 72
     1
  1
mm
  7
SLDTEXTSTYLE0
 11
-7.044195017643634E-15
 21
1.0
 31
0.0
 73
     1
 44
1.0
  0
ENDBLK
  5
7A
330
78
100
AcDbEntity
  8
0
100
AcDbBlockEnd
  0
BLOCK
  5
84
330
83
100
AcDbEntity
  8
0
100
AcDbBlockBegin
  2
_D_1
 70
     0
 10
0.0
 20
0.0
 30
0.0
  3
_D_1
  1

  0
SOLID
  5
86
330
83
100
AcDbEntity
  8
0
  6
Continuous
 62
     7
370
    18
100
AcDbTrace
 10
56.6850079902
 20
38.4602342313
 30
0.0
 11
59.1850079902
 21
38.1602342313
 31
0.0
 12
59.1850079902
 22
38.7602342313
 32
0.0
 13
59.1850079902
 23
38.7602342313
 33
0.0
  0
SOLID
  5
87
330
83
100
AcDbEntity
  8
0
  6
Continuous
 62
     7
370
    18
100
AcDbTrace
 10
156.6850079902
 20
38.4602342313
 30
0.0
 11
154.1850079902
 21
38.7602342313
 31
0.0
 12
154.1850079902
 22
38.1602342313
 32
0.0
 13
154.1850079902
 23
38.1602342313
 33
0.0
  0
LINE
  5
88
330
83
100
AcDbEntity
  8
0
  6
Continuous
 62
     7
370
    18
100
AcDbLine
 10
56.6850079902
 20
52.0299240879
 30
0.0
 11
56.6850079902
 21
37.4602342313
 31
0.0
  0
LINE
  5
89
330
83
100
AcDbEntity
  8
0
  6
Continuous
 62
     7
370
    18
100
AcDbLine
 10
156.6850079902
 20
52.0299240879
 30
0.0
 11
156.6850079902
 21
37.4602342313
 31
0.0
  0
LINE
  5
8A
330
83
100
AcDbEntity
  8
0
  6
Continuous
 62
     7
370
    18
100
AcDbLine
 10
56.6850079902
 20
38.4602342313
 30
0.0
 11
156.6850079902
 21
38.4602342313
 31
0.0
  0
MTEXT
  5
8B
330
83
100
AcDbEntity
  8
0
  6
Continuous
 62
     7
370
    18
100
AcDbMText
 10
93.9626484861
 20
46.1946404371
 30
0.0
 40
6.0
 41
0.0
 71
     1
 72
     1
  1
100
  7
SLDTEXTSTYLE0
 73
     1
 44
1.0
  0
MTEXT
  5
8C
330
83
100
AcDbEntity
  8
0
  6
Continuous
 62
     7
370
    18
100
AcDbMText
 10
105.3376491864
 20
46.1946404371
 30
0.0
 40
6.0
 41
0.0
 71
     1
 72
     1
  1
mm
  7
SLDTEXTSTYLE0
 73
     1
 44
1.0
  0
ENDBLK
  5
85
330
83
100
AcDbEntity
  8
0
100
AcDbBlockEnd
  0
ENDSEC
  0
SECTION
  2
ENTITIES
  0
LINE
  5
73
330
1F
100
AcDbEntity
  8
0
  6
Continuous
 62
     7
370
    18
100
AcDbLine
 10
56.6850079902
 20
152.0299240879
 30
0.0
 11
56.6850079902
 21
52.0299240879
 31
0.0
  0
LINE
  5
74
330
1F
100
AcDbEntity
  8
0
  6
Continuous
 62
     7
370
    18
100
AcDbLine
 10
56.6850079902
 20
52.0299240879
 30
0.0
 11
156.6850079902
 21
52.0299240879
 31
0.0
  0
DIMENSION
  5
75
330
1F
100
AcDbEntity
  8
0
  6
Continuous
 62
     7
370
    18
100
AcDbDimension
  2
_D
 10
42.7614395004
 20
52.0299240879
 30
0.0
 11
42.7614395004
 21
105.4472211621
 31
0.0
 70
   160
  1
<>mm
 71
     2
 42
-1.0
  3
SLDDIMSTYLE0
100
AcDbAlignedDimension
 13
56.6850079902
 23
152.0299240879
 33
0.0
 14
56.6850079902
 24
52.0299240879
 34
0.0
 50
90.0
100
AcDbRotatedDimension
  0
DIMENSION
  5
82
330
1F
100
AcDbEntity
  8
0
  6
Continuous
 62
     7
370
    18
100
AcDbDimension
  2
_D_1
 10
156.6850079902
 20
38.4602342313
 30
0.0
 11
105.0418155019
 21
38.4602342313
 31
0.0
 70
   160
  1
<>mm
 71
     2
 42
-1.0
  3
SLDDIMSTYLE0
100
AcDbAlignedDimension
 13
56.6850079902
 23
52.0299240879
 33
0.0
 14
156.6850079902
 24
52.0299240879
 34
0.0
100
AcDbRotatedDimension
  0
MTEXT
  5
8E
330
1F
100
AcDbEntity
  8
0
  6
Continuous
 62
     7
370
     0
100
AcDbMText
 10
627.6723622028
 20
48.4342449499
 30
0.0
 40
10.0
 41
0.0
 71
     1
 72
     1
  1
KLUDI GmbH & Co KG
  7
SLDTEXTSTYLE1
 73
     1
 44
1.0
  0
MTEXT
  5
8F
330
1F
100
AcDbEntity
  8
0
  6
Continuous
 62
     7
370
     0
100
AcDbMText
 10
336.0463534273
 20
48.4342449499
 30
0.0
 40
10.0
 41
0.0
 71
     1
 72
     1
  1
38 590 05 76
  7
SLDTEXTSTYLE1
 73
     1
 44
1.0
  0
SPLINE
  5
90
330
1F
100
AcDbEntity
  8
0
  6
Continuous
 62
     7
370
    25
100
AcDbSpline
210
0.0
220
0.0
230
1.0
 70
     8
 71
     3
 72
    30
 73
    26
 74
     0
 42
0.000000001
 43
0.00000001
 40
0.0
 40
0.0
 40
0.0
 40
0.0
 40
0.0163307162558034
 40
0.0579624870465987
 40
0.0997794128366294
 40
0.142878739739119
 40
0.1876287585745552
 40
0.2335849473831585
 40
0.2799622137482431
 40
0.3261377196984652
 40
0.3719911900610761
 40
0.4175504806276855
 40
0.4628976820242793
 40
0.5081315172344738
 40
0.5533545223743501
 40
0.5986486851690319
 40
0.6441045814295914
 40
0.6898256144732307
 40
0.7359127387874133
 40
0.7824481627230244
 40
0.8294481384222979
 40
0.8767057345291636
 40
0.9233694022733169
 40
0.9638889092001285
 40
1.0
 40
1.0
 40
1.0
 40
1.0
 10
200.4095361585347
 20
1445.624812476168
 30
0.0
 10
200.4030756487617
 20
1445.455633002862
 30
0.0
 10
200.3801454105428
 20
1444.855165584505
 30
0.0
 10
200.6730422740658
 20
1443.838401240932
 30
0.0
 10
201.2590689024774
 20
1442.625980800891
 30
0.0
 10
202.1476454809135
 20
1441.486865103099
 30
0.0
 10
203.3118740816775
 20
1440.427160578982
 30
0.0
 10
204.7487956198629
 20
1439.465427642537
 30
0.0
 10
206.4256113603775
 20
1438.625712259167
 30
0.0
 10
208.2997931157822
 20
1437.926818155376
 30
0.0
 10
210.326944514716
 20
1437.380081962482
 30
0.0
 10
212.4670000917205
 20
1436.991596784949
 30
0.0
 10
214.6804719225439
 20
1436.765307232333
 30
0.0
 10
216.9276851391502
 20
1436.703234415404
 30
0.0
 10
219.168477523229
 20
1436.805851307019
 30
0.0
 10
221.3627971910962
 20
1437.071677132374
 30
0.0
 10
223.4716843707029
 20
1437.497553650941
 30
0.0
 10
225.4582980957695
 20
1438.07885737498
 30
0.0
 10
227.2877891320806
 20
1438.811088290118
 30
0.0
 10
228.9271968543773
 20
1439.68949158025
 30
0.0
 10
230.3414862852986
 20
1440.70980467235
 30
0.0
 10
231.4942946823971
 20
1441.86275119969
 30
0.0
 10
232.3019290362618
 20
1443.087162906328
 30
0.0
 10
232.7992397964118
 20
1444.302120124693
 30
0.0
 10
232.8679583150932
 20
1445.095253155342
 30
0.0
 10
232.9003409499852
 20
1445.469005934725
 30
0.0
  0
LINE
  5
91
330
1F
100
AcDbEntity
  8
0
  6
Continuous
 62
     7
370
    25
100
AcDbLine
 10
232.9298471118
 20
1445.7334121389
 30
0.0
 11
232.9298471118
 21
1451.2808760328
 31
0.0
  0
LINE
  5
92
330
1F
100
AcDbEntity
  8
0
  6
Continuous
 62
     7
370
    25
100
AcDbLine
 10
200.369766822
 20
1451.2808760328
 30
0.0
 11
200.369766822
 21
1445.7334121389
 31
0.0
  0
LINE
  5
93
330
1F
100
AcDbEntity
  8
0
  6
Continuous
 62
     7
370
    25
100
AcDbLine
 10
225.849807171
 20
1444.2395409269
 30
0.0
 11
225.849807171
 21
1444.2828138991
 31
0.0
  0
LINE
  5
94
330
1F
100
AcDbEntity
  8
0
  6
Continuous
 62
     7
370
    25
100
AcDbLine
 10
207.4498067627
 20
1444.2828138991
 30
0.0
 11
207.4498067627
 21
1444.2395409269
 31
0.0
  0
SPLINE
  5
95
330
1F
100
AcDbEntity
  8
0
  6
Continuous
 62
     7
370
    25
100
AcDbSpline
210
0.0
220
0.0
230
1.0
 70
     8
 71
     3
 72
    17
 73
    13
 74
     0
 42
0.000000001
 43
0.00000001
 40
0.0
 40
0.0
 40
0.0
 40
0.0
 40
0.1402581574256368
 40
0.2617650584616019
 40
0.3687961471331911
 40
0.4647947763326157
 40
0.5523602304793257
 40
0.6525528956866348
 40
0.7455942279957015
 40
0.8443006533206233
 40
0.9533063142386863
 40
1.0
 40
1.0
 40
1.0
 40
1.0
 10
232.9303984547583
 20
1451.280876032839
 30
0.0
 10
232.9304485905826
 20
1452.911034448658
 30
0.0
 10
232.9305421595217
 20
1455.953413735899
 30
0.0
 10
232.93152634813
 20
1459.987471576894
 30
0.0
 10
232.9331758821772
 20
1463.285878407831
 30
0.0
 10
232.9354565607212
 20
1465.953001976748
 30
0.0
 10
232.9385459640681
 20
1468.252816801681
 30
0.0
 10
232.942200602726
 20
1470.173376135672
 30
0.0
 10
232.9476833953671
 20
1471.835124480845
 30
0.0
 10
232.9494768485104
 20
1472.83387018061
 30
0.0
 10
232.9404200395693
 20
1473.232440546912
 30
0.0
 10
232.9080958476956
 20
1473.223676160159
 30
0.0
 10
232.8984019363849
 20
1473.221047751437
 30
0.0
  0
SPLINE
  5
96
330
1F
100
AcDbEntity
  8
0
  6
Continuous
 62
     7
370
    25
100
AcDbSpline
210
0.0
220
0.0
230
1.0
 70
     8
 71
     3
 72
    17
 73
    13
 74
     0
 42
0.000000001
 43
0.00000001
 40
0.0
 40
0.0
 40
0.0
 40
0.0
 40
0.0139341483776327
 40
0.0927518457519937
 40
0.1738305667554417
 40
0.2948976944264273
 40
0.4160956671337038
 40
0.5404273823370246
 40
0.6735185465774511
 40
0.7710317942519391
 40
0.8788121715739844
 40
0.9999999999999999
 40
0.9999999999999999
 40
0.9999999999999999
 40
0.9999999999999999
 10
200.3864393586842
 20
1474.076374403964
 30
0.0
 10
200.3835568518181
 20
1474.085757677
 30
0.0
 10
200.36436961303
 20
1474.148216886543
 30
0.0
 10
200.3671716264776
 20
1473.813499161304
 30
0.0
 10
200.3595350277482
 20
1473.17519390874
 30
0.0
 10
200.3595183493601
 20
1472.006869020607
 30
0.0
 10
200.3608098324401
 20
1470.014321503448
 30
0.0
 10
200.3639552179785
 20
1467.12508827328
 30
0.0
 10
200.3665311602175
 20
1463.637933844431
 30
0.0
 10
200.3681788069301
 20
1459.815369345321
 30
0.0
 10
200.3690778802699
 20
1455.829857142613
 30
0.0
 10
200.3691678565343
 20
1452.855263130137
 30
0.0
 10
200.3692154789893
 20
1451.280876032839
 30
0.0
  0
ARC
  5
97
330
1F
100
AcDbEntity
  8
0
  6
Continuous
 62
     7
370
    25
100
AcDbCircle
 10
216.6498069669
 20
1446.534490401
 30
0.0
 40
8.76000000000003
100
AcDbArc
 50
337.4238291424
 51
339.5548767826
  0
ARC
  5
98
330
1F
100
AcDbEntity
  8
0
  6
Continuous
 62
     7
370
    25
100
AcDbCircle
 10
216.6498069669
 20
1446.534490401
 30
0.0
 40
8.759999999999975
100
AcDbArc
 50
200.4451232174
 51
202.5738336872
  0
LINE
  5
99
330
1F
100
AcDbEntity
  8
0
  6
Continuous
 62
     7
370
    25
100
AcDbLine
 10
206.3323081488
 20
1430.7569702788
 30
0.0
 11
206.6475431452
 21
1424.7419079466
 31
0.0
  0
LINE
  5
9A
330
1F
100
AcDbEntity
  8
0
  6
Continuous
 62
     7
370
    25
100
AcDbLine
 10
205.9041139687
 20
1438.9273961706
 30
0.0
 11
206.245783625
 21
1432.4079593344
 31
0.0
  0
LINE
  5
9B
330
1F
100
AcDbEntity
  8
0
  6
Continuous
 62
     7
370
    25
100
AcDbLine
 10
227.0538303087
 20
1432.4079593344
 30
0.0
 11
227.3946068267
 21
1438.9103492422
 31
0.0
  0
LINE
  5
9C
330
1F
100
AcDbEntity
  8
0
  6
Continuous
 62
     7
370
    25
100
AcDbLine
 10
226.6520707885
 20
1424.7419079466
 30
0.0
 11
226.9673057849
 21
1430.7569702788
 31
0.0
  0
ARC
  5
9D
330
1F
100
AcDbEntity
  8
0
  6
Continuous
 62
     7
370
    25
100
AcDbCircle
 10
208.1454871954
 20
1424.8204360647
 30
0.0
 40
1.49999999999997
100
AcDbArc
 50
183.0
 51
270.0
  0
ARC
  5
9E
330
1F
100
AcDbEntity
  8
0
  6
Continuous
 62
     7
370
    25
100
AcDbCircle
 10
225.1541267383
 20
1424.8204360647
 30
0.0
 40
1.499999999999998
100
AcDbArc
 50
270.0
 51
357.0
  0
LINE
  5
9F
330
1F
100
AcDbEntity
  8
0
  6
Continuous
 62
     7
370
    25
100
AcDbLine
 10
223.6498071829
 20
1344.3204601927
 30
0.0
 11
223.6498071829
 21
1423.320456378
 31
0.0
  0
LINE
  5
A0
330
1F
100
AcDbEntity
  8
0
  6
Continuous
 62
     7
370
    25
100
AcDbLine
 10
209.6498067508
 20
1423.320456378
 30
0.0
 11
209.6498067508
 21
1344.3204601927
 31
0.0
  0
ARC
  5
A1
330
1F
100
AcDbEntity
  8
0
  6
Continuous
 62
     7
370
    25
100
AcDbCircle
 10
210.1498069669
 20
1507.5204360647
 30
0.0
 40
0.5
100
AcDbArc
 50
90.0
 51
180.0
  0
ARC
  5
A2
330
1F
100
AcDbEntity
  8
0
  6
Continuous
 62
     7
370
    25
100
AcDbCircle
 10
223.1498069669
 20
1507.5204360647
 30
0.0
 40
0.5
100
AcDbArc
 50
0.0
 51
90.0
  0
ARC
  5
A3
330
1F
100
AcDbEntity
  8
0
  6
Continuous
 62
     7
370
    25
100
AcDbCircle
 10
210.1498069669
 20
1498.5204360647
 30
0.0
 40
0.5
100
AcDbArc
 50
180.0
 51
270.0
  0
ARC
  5
A4
330
1F
100
AcDbEntity
  8
0
  6
Continuous
 62
     7
370
    25
100
AcDbCircle
 10
223.1498069669
 20
1498.5204360647
 30
0.0
 40
0.5
100
AcDbArc
 50
270.0
 51
0.0
  0
LINE
  5
A5
330
1F
100
AcDbEntity
  8
0
  6
Continuous
 62
     7
370
    25
100
AcDbLine
 10
223.6498071829
 20
1498.5204180403
 30
0.0
 11
223.6498071829
 21
1507.5204213781
 31
0.0
  0
LINE
  5
A6
330
1F
100
AcDbEntity
  8
0
  6
Continuous
 62
     7
370
    25
100
AcDbLine
 10
209.6498067508
 20
1507.5204213781
 30
0.0
 11
209.6498067508
 21
1498.5204180403
 31
0.0
  0
ARC
  5
A7
330
1F
100
AcDbEntity
  8
0
  6
Continuous
 62
     7
370
    25
100
AcDbCircle
 10
166.4932423927
 20
612.4347581611
 30
0.0
 40
24.99999999999999
100
AcDbArc
 50
153.9339380419
 51
173.5843407791
  0
ARC
  5
A8
330
1F
100
AcDbEntity
  8
0
  6
Continuous
 62
     7
370
    25
100
AcDbCircle
 10
266.806371541
 20
612.4347581611
 30
0.0
 40
24.99999999999999
100
AcDbArc
 50
6.4156592209
 51
26.0660619581
  0
ARC
  5
A9
330
1F
100
AcDbEntity
  8
0
  6
Continuous
 62
     7
370
    25
100
AcDbCircle
 10
287.9161397203
 20
622.7608265039
 30
0.0
 40
1.499999999999986
100
AcDbArc
 50
26.0660619581
 51
87.9564043119
  0
ARC
  5
AA
330
1F
100
AcDbEntity
  8
0
  6
Continuous
 62
     7
370
    25
100
AcDbCircle
 10
145.3834742135
 20
622.7608265039
 30
0.0
 40
1.499999999999961
100
AcDbArc
 50
92.0435956881
 51
153.9339380419
  0
LINE
  5
AB
330
1F
100
AcDbEntity
  8
0
  6
Continuous
 62
     7
370
    25
100
AcDbLine
 10
219.149806911
 20
1492.9117401762
 30
0.0
 11
219.149806911
 21
1498.0204542799
 31
0.0
  0
LINE
  5
AC
330
1F
100
AcDbEntity
  8
0
  6
Continuous
 62
     7
370
    25
100
AcDbLine
 10
214.1498070228
 20
1498.0204542799
 30
0.0
 11
214.1498070228
 21
1492.9125150366
 31
0.0
  0
ARC
  5
AD
330
1F
100
AcDbEntity
  8
0
  6
Continuous
 62
     7
370
    25
100
AcDbCircle
 10
216.6498069669
 20
-1374.4680937293
 30
0.0
 40
2000.000000000001
100
AcDbArc
 50
90.7448661151
 51
92.0435956881
  0
ARC
  5
AE
330
1F
100
AcDbEntity
  8
0
  6
Continuous
 62
     7
370
    25
100
AcDbCircle
 10
216.6498069669
 20
-1374.4680937293
 30
0.0
 40
2000.000000000001
100
AcDbArc
 50
87.9564043119
 51
89.2551338849
  0
LINE
  5
AF
330
1F
100
AcDbEntity
  8
0
  6
Continuous
 62
     7
370
    25
100
AcDbLine
 10
190.0498074497
 20
1366.6204651518
 30
0.0
 11
190.0498074497
 21
1359.6204360647
 31
0.0
  0
LINE
  5
B0
330
1F
100
AcDbEntity
  8
0
  6
Continuous
 62
     7
370
    25
100
AcDbLine
 10
243.2498064841
 20
1359.6204360647
 30
0.0
 11
243.2498064841
 21
1366.6204651518
 31
0.0
  0
SPLINE
  5
B1
330
1F
100
AcDbEntity
  8
0
  6
Continuous
 62
     7
370
    25
100
AcDbSpline
210
0.0
220
0.0
230
1.0
 70
     8
 71
     3
 72
     9
 73
     5
 74
     0
 42
0.000000001
 43
0.00000001
 40
0.0
 40
0.0
 40
0.0
 40
0.0
 40
0.1496953618779587
 40
1.0
 40
1.0
 40
1.0
 40
1.0
 10
243.2211068476169
 20
1366.620763175021
 30
0.0
 10
243.2046477594608
 20
1374.090278004449
 30
0.0
 10
243.0946972042158
 20
1423.988382633223
 30
0.0
 10
242.5250196016932
 20
1473.883850978566
 30
0.0
 10
242.0406200940339
 20
1516.310199133883
 30
0.0
  0
SPLINE
  5
B2
330
1F
100
AcDbEntity
  8
0
  6
Continuous
 62
     7
370
    25
100
AcDbSpline
210
0.0
220
0.0
230
1.0
 70
     8
 71
     3
 72
     9
 73
     5
 74
     0
 42
0.000000001
 43
0.00000001
 40
0.0
 40
0.0
 40
0.0
 40
0.0
 40
0.8503022705216386
 40
1.0
 40
1.0
 40
1.0
 40
1.0
 10
191.2589863891332
 20
1516.309185854922
 30
0.0
 10
190.7745898358077
 20
1473.88317545563
 30
0.0
 10
190.2049141215134
 20
1423.987965399017
 30
0.0
 10
190.0949660611306
 20
1374.09011905935
 30
0.0
 10
190.0785070861308
 20
1366.620524756442
 30
0.0
  0
LINE
  5
B3
330
1F
100
AcDbEntity
  8
0
  6
Continuous
 62
     7
370
    25
100
AcDbLine
 10
190.6498064304
 20
1328.5204609556
 30
0.0
 11
190.6498064304
 21
625.3629000558
 31
0.0
  0
LINE
  5
B4
330
1F
100
AcDbEntity
  8
0
  6
Continuous
 62
     7
370
    25
100
AcDbLine
 10
242.6498075033
 20
625.3629000558
 30
0.0
 11
242.6498075033
 21
1328.5204609556
 31
0.0
  0
ARC
  5
B5
330
1F
100
AcDbEntity
  8
0
  6
Continuous
 62
     7
370
    25
100
AcDbCircle
 10
242.5498069669
 20
1328.5204360647
 30
0.0
 40
0.0999999999999943
100
AcDbArc
 50
0.0
 51
90.0
  0
ARC
  5
B6
330
1F
100
AcDbEntity
  8
0
  6
Continuous
 62
     7
370
    25
100
AcDbCircle
 10
190.7498069669
 20
1328.5204360647
 30
0.0
 40
0.0999999999999943
100
AcDbArc
 50
90.0
 51
180.0
  0
LINE
  5
B7
330
1F
100
AcDbEntity
  8
0
  6
Continuous
 62
     7
370
    25
100
AcDbLine
 10
242.6498075033
 20
1329.020424716
 30
0.0
 11
242.6498075033
 21
1358.9204391165
 31
0.0
  0
LINE
  5
B8
330
1F
100
AcDbEntity
  8
0
  6
Continuous
 62
     7
370
    25
100
AcDbLine
 10
190.6498064304
 20
1358.9204391165
 30
0.0
 11
190.6498064304
 21
1329.020424716
 31
0.0
  0
ARC
  5
B9
330
1F
100
AcDbEntity
  8
0
  6
Continuous
 62
     7
370
    25
100
AcDbCircle
 10
241.5524182518
 20
1516.303989757
 30
0.0
 40
0.5
100
AcDbArc
 50
0.5670607077
 51
90.0
  0
ARC
  5
BA
330
1F
100
AcDbEntity
  8
0
  6
Continuous
 62
     7
370
    25
100
AcDbCircle
 10
191.747195682
 20
1516.303989757
 30
0.0
 40
0.5
100
AcDbArc
 50
90.0
 51
179.4329392923
  0
LINE
  5
BB
330
1F
100
AcDbEntity
  8
0
  6
Continuous
 62
     7
370
    25
100
AcDbLine
 10
241.6466985846
 20
1521.4820345564
 30
0.0
 11
241.0211198981
 21
1557.3214133902
 31
0.0
  0
LINE
  5
BC
330
1F
100
AcDbEntity
  8
0
  6
Continuous
 62
     7
370
    25
100
AcDbLine
 10
192.2784940357
 20
1557.3214133902
 30
0.0
 11
191.6528613324
 21
1521.4789947195
 31
0.0
  0
LINE
  5
BD
330
1F
100
AcDbEntity
  8
0
  6
Continuous
 62
     7
370
    25
100
AcDbLine
 10
241.6498073394
 20
1358.9204391165
 30
0.0
 11
241.6498073394
 21
1359.3204458876
 31
0.0
  0
LINE
  5
BE
330
1F
100
AcDbEntity
  8
0
  6
Continuous
 62
     7
370
    25
100
AcDbLine
 10
191.6498065943
 20
1359.3204458876
 30
0.0
 11
191.6498065943
 21
1358.9204391165
 31
0.0
  0
LINE
  5
BF
330
1F
100
AcDbEntity
  8
0
  6
Continuous
 62
     7
370
    25
100
AcDbLine
 10
241.6498073394
 20
1328.6204179449
 30
0.0
 11
241.6498073394
 21
1329.020424716
 31
0.0
  0
LINE
  5
C0
330
1F
100
AcDbEntity
  8
0
  6
Continuous
 62
     7
370
    25
100
AcDbLine
 10
191.6498065943
 20
1329.020424716
 30
0.0
 11
191.6498065943
 21
1328.6204179449
 31
0.0
  0
ARC
  5
C1
330
1F
100
AcDbEntity
  8
0
  6
Continuous
 62
     7
370
    25
100
AcDbCircle
 10
240.0212723014
 20
1557.303989757
 30
0.0
 40
1.000000000000006
100
AcDbArc
 50
1.0
 51
90.0
  0
ARC
  5
C2
330
1F
100
AcDbEntity
  8
0
  6
Continuous
 62
     7
370
    25
100
AcDbCircle
 10
193.2783416323
 20
1557.303989757
 30
0.0
 40
1.000000000000006
100
AcDbArc
 50
90.0
 51
179.0
  0
LINE
  5
C3
330
1F
100
AcDbEntity
  8
0
  6
Continuous
 62
     7
370
    25
100
AcDbLine
 10
240.6410788203
 20
1516.8039640112
 30
0.0
 11
240.6242460961
 21
1517.7683671637
 31
0.0
  0
LINE
  5
C4
330
1F
100
AcDbEntity
  8
0
  6
Continuous
 62
     7
370
    25
100
AcDbLine
 10
192.6753678376
 20
1517.7683671637
 30
0.0
 11
192.6585351134
 21
1516.8039640112
 31
0.0
  0
ARC
  5
C5
330
1F
100
AcDbEntity
  8
0
  6
Continuous
 62
     7
370
    25
100
AcDbCircle
 10
216.6498069669
 20
1513.803989757
 30
0.0
 40
24.30000000000049
100
AcDbArc
 50
162.0225913325
 51
170.6106272566
  0
ARC
  5
C6
330
1F
100
AcDbEntity
  8
0
  6
Continuous
 62
     7
370
    25
100
AcDbCircle
 10
216.6498069669
 20
1513.803989757
 30
0.0
 40
24.30000000000046
100
AcDbArc
 50
9.3893727434
 51
17.9774086675
  0
LINE
  5
C7
330
1F
100
AcDbEntity
  8
0
  6
Continuous
 62
     7
370
    25
100
AcDbLine
 10
239.3498075212
 20
1359.3204458876
 30
0.0
 11
239.1498078609
 21
1359.5204194708
 31
0.0
  0
LINE
  5
C8
330
1F
100
AcDbEntity
  8
0
  6
Continuous
 62
     7
370
    25
100
AcDbLine
 10
194.1498060728
 20
1359.5204194708
 30
0.0
 11
193.9498064126
 21
1359.3204458876
 31
0.0
  0
LINE
  5
C9
330
1F
100
AcDbEntity
  8
0
  6
Continuous
 62
     7
370
    25
100
AcDbLine
 10
236.0998065228
 20
1359.5204194708
 30
0.0
 11
236.0998065228
 21
1359.6204360647
 31
0.0
  0
LINE
  5
CA
330
1F
100
AcDbEntity
  8
0
  6
Continuous
 62
     7
370
    25
100
AcDbLine
 10
197.1998074109
 20
1359.6204360647
 30
0.0
 11
197.1998074109
 21
1359.5204194708
 31
0.0
  0
ARC
  5
CB
330
1F
100
AcDbEntity
  8
0
  6
Continuous
 62
     7
370
    25
100
AcDbCircle
 10
200.1342205584
 20
1572.8704360626
 30
0.0
 40
1.000000000617092
100
AcDbArc
 50
90.0000001437
 51
181.8273884281
  0
ARC
  5
CC
330
1F
100
AcDbEntity
  8
0
  6
Continuous
 62
     7
370
    25
100
AcDbCircle
 10
233.1653933754
 20
1572.8704360626
 30
0.0
 40
1.000000000617092
100
AcDbArc
 50
358.1726115719
 51
89.9999998563
  0
LINE
  5
CD
330
1F
100
AcDbEntity
  8
0
  6
Continuous
 62
     7
370
    25
100
AcDbLine
 10
199.1347287799
 20
1572.8385289831
 30
0.0
 11
199.4275403226
 21
1563.6608441992
 31
0.0
  0
LINE
  5
CE
330
1F
100
AcDbEntity
  8
0
  6
Continuous
 62
     7
370
    25
100
AcDbLine
 10
233.8720736111
 20
1563.6608441992
 30
0.0
 11
234.1648851539
 21
1572.8385289831
 31
0.0
  0
ARC
  5
CF
330
1F
100
AcDbEntity
  8
0
  6
Continuous
 62
     7
370
    25
100
AcDbCircle
 10
233.5722257491
 20
1563.6704360541
 30
0.0
 40
0.299999989662183
100
AcDbArc
 50
270.000000356
 51
358.1726138353
  0
ARC
  5
D0
330
1F
100
AcDbEntity
  8
0
  6
Continuous
 62
     7
370
    25
100
AcDbCircle
 10
199.7273881846
 20
1563.6704360541
 30
0.0
 40
0.2999999896621875
100
AcDbArc
 50
181.8273861647
 51
269.999999644
  0
ARC
  5
D1
330
1F
100
AcDbEntity
  8
0
  6
Continuous
 62
     7
370
    25
100
AcDbCircle
 10
233.4605448888
 20
1563.0704360634
 30
0.0
 40
0.2999999793528332
100
AcDbArc
 50
358.0107749171
 51
90.0
  0
ARC
  5
D2
330
1F
100
AcDbEntity
  8
0
  6
Continuous
 62
     7
370
    25
100
AcDbCircle
 10
199.8390690449
 20
1563.0704360634
 30
0.0
 40
0.2999999793528332
100
AcDbArc
 50
90.0
 51
182.0084896473
  0
LINE
  5
D3
330
1F
100
AcDbEntity
  8
0
  6
Continuous
 62
     7
370
    25
100
AcDbLine
 10
199.5386489684
 20
1563.0634268446
 30
0.0
 11
199.7073170746
 21
1558.3039959593
 31
0.0
  0
LINE
  5
D4
330
1F
100
AcDbEntity
  8
0
  6
Continuous
 62
     7
370
    25
100
AcDbLine
 10
233.5922968591
 20
1558.3039959593
 30
0.0
 11
233.7609649653
 21
1563.0634268446
 31
0.0
  0
ELLIPSE
  5
D5
330
1F
100
AcDbEntity
  8
0
  6
Continuous
 62
     7
370
    25
100
AcDbEllipse
 10
216.6498069669
 20
1445.733436223
 30
0.0
 11
16.28003999021567
 21
0.0
 31
0.0
210
0.0
220
0.0
230
1.0
 40
0.5201586965
 41
6.257713851423349
 42
6.283185307179586
  0
LWPOLYLINE
  5
D6
330
1F
100
AcDbEntity
  8
0
  6
Continuous
 62
     7
370
    25
100
AcDbPolyline
 90
       18
 70
   128
 43
0.0
 10
207.4498067627
 20
1444.2828138991
 10
207.6265820319
 20
1445.1802214308
 10
208.150115704
 20
1446.0431774778
 10
209.0002865548
 20
1446.8384226484
 10
210.1444247196
 20
1447.5354989691
 10
211.5385605971
 20
1448.1075843496
 10
213.1291193905
 20
1448.5326846762
 10
214.8549759545
 20
1448.7944086714
 10
216.6498069669
 20
1448.8828023596
 10
218.4446379792
 20
1448.7944086714
 10
220.1704945433
 20
1448.5326846762
 10
221.7610533367
 20
1448.1075843496
 10
223.1551892141
 20
1447.5354989691
 10
224.299327379
 20
1446.8384226484
 10
225.1494982297
 20
1446.0431774778
 10
225.6730319018
 20
1445.1802214308
 10
225.849807171
 20
1444.2828138991
 10
225.849807171
 20
1444.2828138991
  0
LWPOLYLINE
  5
D7
330
1F
100
AcDbEntity
  8
0
  6
Continuous
 62
     7
370
    25
100
AcDbPolyline
 90
       22
 70
   128
 43
0.0
 10
225.849807171
 20
1444.2400773687
 10
225.6728242169
 20
1445.1374849005
 10
225.1490921731
 20
1446.0003813429
 10
224.2987369204
 20
1446.7955669088
 10
223.1544381025
 20
1447.4925836248
 10
221.7601695115
 20
1448.0645497961
 10
220.1695129293
 20
1448.489590518
 10
218.4435959457
 20
1448.7512549086
 10
216.6487445318
 20
1448.8395293875
 10
214.8539340374
 20
1448.75101649
 10
213.1281377765
 20
1448.4891732855
 10
211.5376777033
 20
1448.0640133543
 10
210.1436731423
 20
1447.4918683691
 10
208.9996960963
 20
1446.7947324438
 10
208.1497087161
 20
1445.9993680639
 10
207.6263752783
 20
1445.1364120169
 10
207.4498067627
 20
1444.2390044851
 10
207.6267897169
 20
1443.3415969534
 10
208.1505217607
 20
1442.478700511
 10
209.0008770133
 20
1441.6834553404
 10
210.1451758313
 20
1440.9864386244
 10
211.3153286296
 20
1440.4917200728
  0
LWPOLYLINE
  5
D8
330
1F
100
AcDbEntity
  8
0
  6
Continuous
 62
     7
370
    25
100
AcDbPolyline
 90
        6
 70
   128
 43
0.0
 10
221.9848743657
 20
1440.4919584913
 10
223.1559407915
 20
1440.9872134848
 10
224.2999178375
 20
1441.6843494101
 10
225.1499052177
 20
1442.4796541853
 10
225.6732386554
 20
1443.3426102324
 10
225.849807171
 20
1444.2400773687
  0
LINE
  5
D9
330
1F
100
AcDbEntity
  8
0
  6
Continuous
 62
     7
370
    25
100
AcDbLine
 10
224.9972856621
 20
1444.3326433821
 30
0.0
 11
224.8579896072
 21
1443.4745153113
 31
0.0
  0
LINE
  5
DA
330
1F
100
AcDbEntity
  8
0
  6
Continuous
 62
     7
370
    25
100
AcDbLine
 10
208.4416243265
 20
1443.4745153113
 30
0.0
 11
208.3022854308
 21
1444.3316897078
 31
0.0
  0
LINE
  5
DB
330
1F
100
AcDbEntity
  8
0
  6
Continuous
 62
     7
370
    25
100
AcDbLine
 10
208.3022854308
 20
1444.3316897078
 30
0.0
 11
224.9972856621
 21
1444.3326433821
 31
0.0
  0
LWPOLYLINE
  5
DC
330
1F
100
AcDbEntity
  8
0
  6
Continuous
 62
     7
370
    25
100
AcDbPolyline
 90
       16
 70
   128
 43
0.0
 10
224.9972856621
 20
1444.3326433821
 10
224.782178087
 20
1443.2814558668
 10
224.2215824331
 20
1442.2797402067
 10
223.3393144811
 20
1441.3700541182
 10
222.1728562395
 20
1440.591021411
 10
220.7717619854
 20
1439.9757822676
 10
219.195553243
 20
1439.5505031271
 10
217.5111924548
 20
1439.3331845923
 10
215.7902358117
 20
1439.333065383
 10
214.1057943477
 20
1439.5502051039
 10
212.5294277462
 20
1439.9753054304
 10
211.1281048524
 20
1440.5903657599
 10
209.9613569694
 20
1441.3692792578
 10
209.078751413
 20
1442.2788461371
 10
208.5177841614
 20
1443.2805021925
 10
208.3022854308
 20
1444.3316897078
  0
SPLINE
  5
DD
330
1F
100
AcDbEntity
  8
0
  6
Continuous
 62
     7
370
    25
100
AcDbSpline
210
0.0
220
0.0
230
1.0
 70
     8
 71
     3
 72
    17
 73
    13
 74
     0
 42
0.000000001
 43
0.00000001
 40
0.0
 40
0.0
 40
0.0
 40
0.0
 40
0.0769904812210106
 40
0.1830515205080014
 40
0.2899778424082557
 40
0.3977501158535278
 40
0.5050366043481497
 40
0.6112928665346274
 40
0.7175754298667554
 40
0.8248910547755895
 40
0.9326570515439506
 40
1.0
 40
1.0
 40
1.0
 40
1.0
 10
219.1217743343292
 20
1492.911740176211
 30
0.0
 10
219.1187954455049
 20
1492.911896092675
 30
0.0
 10
219.1117128799713
 20
1492.912266797538
 30
0.0
 10
218.779520628132
 20
1492.959906105424
 30
0.0
 10
218.2121810054864
 20
1493.025016939311
 30
0.0
 10
217.4565180196841
 20
1493.081154891675
 30
0.0
 10
216.6121724847893
 20
1493.101101899949
 30
0.0
 10
215.7766138307107
 20
1493.077443501896
 30
0.0
 10
215.0367247374865
 20
1493.020021016209
 30
0.0
 10
214.4850010742336
 20
1492.95516944098
 30
0.0
 10
214.1751413770654
 20
1492.910390675073
 30
0.0
 10
214.180577450244
 20
1492.911924978227
 30
0.0
 10
214.1826680413066
 20
1492.912515036593
 30
0.0
  0
CIRCLE
  5
DE
330
1F
100
AcDbEntity
  8
0
  6
Continuous
 62
     7
370
    25
100
AcDbCircle
 10
216.6498069669
 20
1548.903989757
 30
0.0
 40
5.0
  0
ELLIPSE
  5
DF
330
1F
100
AcDbEntity
  8
0
  6
Continuous
 62
     7
370
    25
100
AcDbEllipse
 10
217.1293183714
 20
1423.3407841542
 30
0.0
 11
9.730463053538273
 21
9.732650011182386
 31
0.0
210
0.0
220
0.0
230
1.0
 40
0.2018391105
 41
6.04148375926153
 42
6.062617496083904
  0
LINE
  5
E0
330
1F
100
AcDbEntity
  8
0
  6
Continuous
 62
     7
370
    25
100
AcDbLine
 10
227.0471331681
 20
1432.3204597159
 30
0.0
 11
226.958962066
 21
1430.7573875113
 31
0.0
  0
LINE
  5
E1
330
1F
100
AcDbEntity
  8
0
  6
Continuous
 62
     7
370
    25
100
AcDbLine
 10
209.1107348929
 20
1424.7419079466
 30
0.0
 11
209.5382450166
 21
1432.3204597159
 31
0.0
  0
ELLIPSE
  5
E2
330
1F
100
AcDbEntity
  8
0
  6
Continuous
 62
     7
370
    25
100
AcDbEllipse
 10
216.1702955623
 20
1423.3407841542
 30
0.0
 11
-9.730463053538243
 21
9.732650011182157
 31
0.0
210
0.0
220
0.0
230
1.0
 40
0.2018391105
 41
5.643244300604199
 42
6.524886855097716
  0
LINE
  5
E3
330
1F
100
AcDbEntity
  8
0
  6
Continuous
 62
     7
370
    25
100
AcDbLine
 10
206.2524807657
 20
1432.3204597159
 30
0.0
 11
206.6799904237
 21
1424.7419079466
 31
0.0
  0
SPLINE
  5
E4
330
1F
100
AcDbEntity
  8
0
  6
Continuous
 62
     7
370
    25
100
AcDbSpline
210
0.0
220
0.0
230
1.0
 70
     8
 71
     3
 72
    30
 73
    26
 74
     0
 42
0.000000001
 43
0.00000001
 40
0.0
 40
0.0
 40
0.0
 40
0.0
 40
0.0312499999999852
 40
0.0312499999999852
 40
0.0624999999999704
 40
0.0624999999999704
 40
0.1249999999999694
 40
0.1249999999999694
 40
0.2499999999999722
 40
0.2499999999999722
 40
0.374999999999975
 40
0.374999999999975
 40
0.4999999999999778
 40
0.4999999999999778
 40
0.6249999999999806
 40
0.6249999999999806
 40
0.7499999999999833
 40
0.7499999999999833
 40
0.8124999999999875
 40
0.8124999999999875
 40
0.8749999999999917
 40
0.8749999999999917
 40
0.9374999999999958
 40
0.9374999999999958
 40
1.0
 40
1.0
 40
1.0
 40
1.0
 10
206.6799919430244
 20
1424.741908462764
 30
0.0
 10
206.6846747025305
 20
1424.669933106522
 30
0.0
 10
206.6958995008628
 20
1424.600560439469
 30
0.0
 10
206.7259496315996
 20
1424.47685418478
 30
0.0
 10
206.7449640252304
 20
1424.420842227185
 30
0.0
 10
206.8069000889196
 20
1424.272045632515
 30
0.0
 10
206.8558633470357
 20
1424.193866701502
 30
0.0
 10
207.0069135195261
 20
1423.999862708936
 30
0.0
 10
207.116862044883
 20
1423.918304759662
 30
0.0
 10
207.3354013395339
 20
1423.798172838023
 30
0.0
 10
207.4457664170305
 20
1423.760236037609
 30
0.0
 10
207.6677838835674
 20
1423.710367858569
 30
0.0
 10
207.7794549208282
 20
1423.698813199041
 30
0.0
 10
208.003915631299
 20
1423.698301828263
 30
0.0
 10
208.1171659520199
 20
1423.709464958976
 30
0.0
 10
208.3415912949727
 20
1423.759100988213
 30
0.0
 10
208.4539775041458
 20
1423.797520391402
 30
0.0
 10
208.6190031007682
 20
1423.888104320649
 30
0.0
 10
208.6734198164327
 20
1423.923848436347
 30
0.0
 10
208.7805169267575
 20
1424.011618175887
 30
0.0
 10
208.8336441074008
 20
1424.063915965158
 30
0.0
 10
208.9349115918256
 20
1424.19388016753
 30
0.0
 10
208.9827478502013
 20
1424.269868318368
 30
0.0
 10
209.0662605478722
 20
1424.469684600677
 30
0.0
 10
209.1011965062677
 20
1424.595323575099
 30
0.0
 10
209.1107334388977
 20
1424.741907892405
 30
0.0
  0
LINE
  5
E5
330
1F
100
AcDbEntity
  8
0
  6
Continuous
 62
     7
370
    25
100
AcDbLine
 10
219.9522879923
 20
1423.320456378
 30
0.0
 11
225.1541269029
 21
1423.320456378
 31
0.0
  0
LINE
  5
E6
330
1F
100
AcDbEntity
  8
0
  6
Continuous
 62
     7
370
    25
100
AcDbLine
 10
208.1454870308
 20
1423.320456378
 30
0.0
 11
219.9522879923
 21
1423.320456378
 31
0.0
  0
LINE
  5
E7
330
1F
100
AcDbEntity
  8
0
  6
Continuous
 62
     7
370
    25
100
AcDbLine
 10
209.5382450166
 20
1432.3204597159
 30
0.0
 11
206.2524807657
 21
1432.3204597159
 31
0.0
  0
LINE
  5
E8
330
1F
100
AcDbEntity
  8
0
  6
Continuous
 62
     7
370
    25
100
AcDbLine
 10
223.6498071829
 20
1344.3204601927
 30
0.0
 11
209.6498067508
 21
1344.3204601927
 31
0.0
  0
LINE
  5
E9
330
1F
100
AcDbEntity
  8
0
  6
Continuous
 62
     7
370
    25
100
AcDbLine
 10
210.1498068328
 20
1508.0204447432
 30
0.0
 11
223.149807101
 21
1508.0204447432
 31
0.0
  0
LINE
  5
EA
330
1F
100
AcDbEntity
  8
0
  6
Continuous
 62
     7
370
    25
100
AcDbLine
 10
223.149807101
 20
1498.0204542799
 30
0.0
 11
210.1498068328
 21
1498.0204542799
 31
0.0
  0
LINE
  5
EB
330
1F
100
AcDbEntity
  8
0
  6
Continuous
 62
     7
370
    25
100
AcDbLine
 10
141.6498039866
 20
615.2282715475
 30
0.0
 11
291.6498099471
 21
615.2282715475
 31
0.0
  0
LINE
  5
EC
330
1F
100
AcDbEntity
  8
0
  6
Continuous
 62
     7
370
    25
100
AcDbLine
 10
242.6498075033
 20
625.3629000558
 30
0.0
 11
190.6498064304
 21
625.3629000558
 31
0.0
  0
LINE
  5
ED
330
1F
100
AcDbEntity
  8
0
  6
Continuous
 62
     7
370
    25
100
AcDbLine
 10
190.0498074497
 20
1359.6204360647
 30
0.0
 11
209.6498067508
 21
1359.6204360647
 31
0.0
  0
LINE
  5
EE
330
1F
100
AcDbEntity
  8
0
  6
Continuous
 62
     7
370
    25
100
AcDbLine
 10
223.6498071829
 20
1359.6204360647
 30
0.0
 11
243.2498064841
 21
1359.6204360647
 31
0.0
  0
LINE
  5
EF
330
1F
100
AcDbEntity
  8
0
  6
Continuous
 62
     7
370
    25
100
AcDbLine
 10
236.7082023079
 20
1328.6204179449
 30
0.0
 11
242.5498076732
 21
1328.6204179449
 31
0.0
  0
LINE
  5
F0
330
1F
100
AcDbEntity
  8
0
  6
Continuous
 62
     7
370
    25
100
AcDbLine
 10
190.7498062606
 20
1328.6204179449
 30
0.0
 11
236.7082023079
 21
1328.6204179449
 31
0.0
  0
LINE
  5
F1
330
1F
100
AcDbEntity
  8
0
  6
Continuous
 62
     7
370
    25
100
AcDbLine
 10
242.6498075033
 20
1358.9204391165
 30
0.0
 11
223.6498071829
 21
1358.9204391165
 31
0.0
  0
LINE
  5
F2
330
1F
100
AcDbEntity
  8
0
  6
Continuous
 62
     7
370
    25
100
AcDbLine
 10
209.6498067508
 20
1358.9204391165
 30
0.0
 11
190.6498064304
 21
1358.9204391165
 31
0.0
  0
LINE
  5
F3
330
1F
100
AcDbEntity
  8
0
  6
Continuous
 62
     7
370
    25
100
AcDbLine
 10
190.6498064304
 20
1329.020424716
 30
0.0
 11
242.6498075033
 21
1329.020424716
 31
0.0
  0
CIRCLE
  5
F4
330
1F
100
AcDbEntity
  8
0
  6
Continuous
 62
     7
370
    25
100
AcDbCircle
 10
216.6498069665
 20
1531.553989757
 30
0.0
 40
3.56968222740859
  0
CIRCLE
  5
F5
330
1F
100
AcDbEntity
  8
0
  6
Continuous
 62
     7
370
    25
100
AcDbCircle
 10
216.6498069665
 20
1531.553989757
 30
0.0
 40
4.000000000000008
  0
LINE
  5
F6
330
1F
100
AcDbEntity
  8
0
  6
Continuous
 62
     7
370
    25
100
AcDbLine
 10
216.6498069669
 20
1516.8039640112
 30
0.0
 11
241.5524189378
 21
1516.8039640112
 31
0.0
  0
LINE
  5
F7
330
1F
100
AcDbEntity
  8
0
  6
Continuous
 62
     7
370
    25
100
AcDbLine
 10
191.747194996
 20
1516.8039640112
 30
0.0
 11
216.6498069669
 21
1516.8039640112
 31
0.0
  0
LINE
  5
F8
330
1F
100
AcDbEntity
  8
0
  6
Continuous
 62
     7
370
    25
100
AcDbLine
 10
191.6535989399
 20
1521.4789947195
 30
0.0
 11
191.7888530547
 21
1521.3039954825
 31
0.0
  0
SPLINE
  5
F9
330
1F
100
AcDbEntity
  8
0
  6
Continuous
 62
     7
370
    25
100
AcDbSpline
210
0.0
220
0.0
230
1.0
 70
     8
 71
     3
 72
     9
 73
     5
 74
     0
 42
0.000000001
 43
0.00000001
 40
0.0
 40
0.0
 40
0.0
 40
0.0
 40
0.9771167077001758
 40
0.9999999999999999
 40
0.9999999999999999
 40
0.9999999999999999
 40
0.9999999999999999
 10
241.5107608790128
 20
1521.303995482455
 30
0.0
 10
241.6002461714609
 20
1521.305271711336
 30
0.0
 10
241.691827137934
 20
1521.306577828478
 30
0.0
 10
241.6447527290304
 20
1521.478051079236
 30
0.0
 10
241.6436755115716
 20
1521.481974951754
 30
0.0
  0
LINE
  5
FA
330
1F
100
AcDbEntity
  8
0
  6
Continuous
 62
     7
370
    25
100
AcDbLine
 10
241.510760879
 20
1521.3039954825
 30
0.0
 11
191.7888530547
 21
1521.3039954825
 31
0.0
  0
LINE
  5
FB
330
1F
100
AcDbEntity
  8
0
  6
Continuous
 62
     7
370
    25
100
AcDbLine
 10
191.6498065943
 20
1359.3204458876
 30
0.0
 11
209.6498067508
 21
1359.3204458876
 31
0.0
  0
LINE
  5
FC
330
1F
100
AcDbEntity
  8
0
  6
Continuous
 62
     7
370
    25
100
AcDbLine
 10
223.6498071829
 20
1359.3204458876
 30
0.0
 11
241.6498073394
 21
1359.3204458876
 31
0.0
  0
LINE
  5
FD
330
1F
100
AcDbEntity
  8
0
  6
Continuous
 62
     7
370
    25
100
AcDbLine
 10
216.6498069669
 20
1558.3039959593
 30
0.0
 11
240.021272471
 21
1558.3039959593
 31
0.0
  0
LINE
  5
FE
330
1F
100
AcDbEntity
  8
0
  6
Continuous
 62
     7
370
    25
100
AcDbLine
 10
193.2783414627
 20
1558.3039959593
 30
0.0
 11
216.6498069669
 21
1558.3039959593
 31
0.0
  0
LINE
  5
FF
330
1F
100
AcDbEntity
  8
0
  6
Continuous
 62
     7
370
    25
100
AcDbLine
 10
240.6242460961
 20
1517.7683671637
 30
0.0
 11
192.6753678376
 21
1517.7683671637
 31
0.0
  0
LINE
  5
100
330
1F
100
AcDbEntity
  8
0
  6
Continuous
 62
     7
370
    25
100
AcDbLine
 10
232.5597097183
 20
1359.5204194708
 30
0.0
 11
223.6498071829
 21
1359.5204194708
 31
0.0
  0
LINE
  5
101
330
1F
100
AcDbEntity
  8
0
  6
Continuous
 62
     7
370
    25
100
AcDbLine
 10
209.6498067508
 20
1359.5204194708
 30
0.0
 11
194.1498060728
 21
1359.5204194708
 31
0.0
  0
LINE
  5
102
330
1F
100
AcDbEntity
  8
0
  6
Continuous
 62
     7
370
    25
100
AcDbLine
 10
239.1498078609
 20
1359.5204194708
 30
0.0
 11
232.5597097183
 21
1359.5204194708
 31
0.0
  0
LINE
  5
103
330
1F
100
AcDbEntity
  8
0
  6
Continuous
 62
     7
370
    25
100
AcDbLine
 10
233.1653934921
 20
1573.8704641981
 30
0.0
 11
200.1342204417
 21
1573.8704641981
 31
0.0
  0
LINE
  5
104
330
1F
100
AcDbEntity
  8
0
  6
Continuous
 62
     7
370
    25
100
AcDbLine
 10
199.7273889388
 20
1563.3704503698
 30
0.0
 11
233.572224995
 21
1563.3704503698
 31
0.0
  0
ELLIPSE
  5
105
330
1F
100
AcDbEntity
  8
0
  6
Continuous
 62
     8
370
    18
100
AcDbEllipse
 10
216.6498069669
 20
1445.733436223
 30
0.0
 11
16.28003999021567
 21
0.0
 31
0.0
210
0.0
220
0.0
230
1.0
 40
0.5201586965
 41
1.570796326794886
 42
3.152059085804187
  0
ELLIPSE
  5
106
330
1F
100
AcDbEntity
  8
0
  6
Continuous
 62
     8
370
    18
100
AcDbEllipse
 10
216.6498069669
 20
1445.733436223
 30
0.0
 11
16.28003999021567
 21
0.0
 31
0.0
210
0.0
220
0.0
230
1.0
 40
0.5201586965
 41
0.0
 42
1.570796326794898
  0
LINE
  5
107
330
1F
100
AcDbEntity
  8
0
  6
Continuous
 62
     8
370
    18
100
AcDbLine
 10
216.6498069669
 20
1493.0923422499
 30
0.0
 11
216.6498069669
 21
1492.9848154707
 31
0.0
  0
SPLINE
  5
108
330
1F
100
AcDbEntity
  8
0
  6
Continuous
 62
     8
370
    18
100
AcDbSpline
210
0.0
220
0.0
230
1.0
 70
     8
 71
     3
 72
    19
 73
    15
 74
     0
 42
0.000000001
 43
0.00000001
 40
0.0
 40
0.0
 40
0.0
 40
0.0
 40
0.0285506168703803
 40
0.0702064045192695
 40
0.1126590390266078
 40
0.1559713843839624
 40
0.2274631015842815
 40
0.3117096551529218
 40
0.4088308416054196
 40
0.5339382208569947
 40
0.6570194575085959
 40
0.7804432288354678
 40
0.8919397698894371
 40
1.0
 40
1.0
 40
1.0
 40
1.0
 10
214.1498070227532
 20
1492.919786803256
 30
0.0
 10
213.8898928091224
 20
1492.900660467822
 30
0.0
 10
213.2507597737377
 20
1492.853628515817
 30
0.0
 10
212.268232191347
 20
1492.584212720762
 30
0.0
 10
211.1753340423317
 20
1492.255208696566
 30
0.0
 10
209.8721015186592
 20
1491.744579867145
 30
0.0
 10
208.3055214328695
 20
1490.963601725222
 30
0.0
 10
206.4769692335559
 20
1489.748193779765
 30
0.0
 10
204.5118334568969
 20
1487.997449833186
 30
0.0
 10
202.6765298266312
 20
1485.688291491065
 30
0.0
 10
201.1860112599814
 20
1482.834693206664
 30
0.0
 10
200.2925921349974
 20
1479.760495859805
 30
0.0
 10
199.9725854184156
 20
1476.61181359771
 30
0.0
 10
200.2352290532344
 20
1474.635878542513
 30
0.0
 10
200.3644955361812
 20
1473.663373820315
 30
0.0
  0
LINE
  5
109
330
1F
100
AcDbEntity
  8
0
  6
Continuous
 62
     8
370
    18
100
AcDbLine
 10
216.6498069669
 20
1493.1693514509
 30
0.0
 11
216.6498069669
 21
1493.1042035742
 31
0.0
  0
SPLINE
  5
10A
330
1F
100
AcDbEntity
  8
0
  6
Continuous
 62
     8
370
    18
100
AcDbSpline
210
0.0
220
0.0
230
1.0
 70
     8
 71
     3
 72
    19
 73
    15
 74
     0
 42
0.000000001
 43
0.00000001
 40
0.0
 40
0.0
 40
0.0
 40
0.0
 40
0.015783804109193
 40
0.1250153434947536
 40
0.2344216390294632
 40
0.3556127018550232
 40
0.4762877863023202
 40
0.5992848910743258
 40
0.6896113623385854
 40
0.7720589033997223
 40
0.846707609839823
 40
0.9101594767662562
 40
0.9718239867076953
 40
1.0
 40
1.0
 40
1.0
 40
1.0
 10
232.8077004308431
 20
1473.17103945447
 30
0.0
 10
232.8491792200407
 20
1473.306857468869
 30
0.0
 10
233.1777112420684
 20
1474.382601668772
 30
0.0
 10
233.2713324762022
 20
1476.610513309911
 30
0.0
 10
233.0235871487728
 20
1479.759683565974
 30
0.0
 10
232.1062796179935
 20
1482.84230656868
 30
0.0
 10
230.6208238260791
 20
1485.693977117824
 30
0.0
 10
228.8063964492517
 20
1487.971784597285
 30
0.0
 10
226.8871028048443
 20
1489.694459569152
 30
0.0
 10
225.0711414275547
 20
1490.919149200229
 30
0.0
 10
223.3060001696181
 20
1491.817135695232
 30
0.0
 10
221.5984861824171
 20
1492.428530989923
 30
0.0
 10
220.2438276807361
 20
1492.834411069835
 30
0.0
 10
219.4110003391163
 20
1492.89917679017
 30
0.0
 10
219.1498069109945
 20
1492.919488780032
 30
0.0
  0
LINE
  5
10B
330
1F
100
AcDbEntity
  8
0
  6
Continuous
 62
     8
370
    18
100
AcDbLine
 10
206.6475431452
 20
1424.7419079466
 30
0.0
 11
206.6799904237
 21
1424.7419079466
 31
0.0
  0
LINE
  5
10C
330
1F
100
AcDbEntity
  8
0
  6
Continuous
 62
     8
370
    18
100
AcDbLine
 10
148.7758894468
 20
624.259872332
 30
0.0
 11
287.9696329142
 21
624.259872332
 31
0.0
  0
LINE
  5
10D
330
1F
100
AcDbEntity
  8
0
  6
Continuous
 62
     8
370
    18
100
AcDbLine
 10
145.3299810196
 20
624.259872332
 30
0.0
 11
148.7758894468
 21
624.259872332
 31
0.0
  0
LINE
  5
10E
330
1F
100
AcDbEntity
  8
0
  6
Continuous
 62
     8
370
    18
100
AcDbLine
 10
236.7856473679
 20
1328.5204609556
 30
0.0
 11
190.6498064304
 21
1328.5204609556
 31
0.0
  0
LINE
  5
10F
330
1F
100
AcDbEntity
  8
0
  6
Continuous
 62
     8
370
    18
100
AcDbLine
 10
242.6498075033
 20
1328.5204609556
 30
0.0
 11
236.7856473679
 21
1328.5204609556
 31
0.0
  0
LWPOLYLINE
  5
110
330
1F
100
AcDbEntity
  8
0
  6
Continuous
 62
     8
370
    18
100
AcDbPolyline
 90
        9
 70
   128
 43
0.0
 10
230.1128235663
 20
1559.2962940855
 10
230.1724207605
 20
1559.2937310858
 10
230.2311676572
 20
1559.2911680861
 10
230.2882232721
 20
1559.2887242956
 10
230.3427736292
 20
1559.2863401098
 10
230.3940382803
 20
1559.284134738
 10
230.4412870685
 20
1559.2820485754
 10
230.4838429222
 20
1559.2802008314
 10
230.5210986192
 20
1559.278591506
  0
ARC
  5
111
330
1F
100
AcDbEntity
  8
0
  6
Continuous
 62
     7
370
    25
100
AcDbCircle
 10
475.1819736109
 20
612.4347581611
 30
0.0
 40
25.00000000000002
100
AcDbArc
 50
153.9339380419
 51
173.5843407791
  0
ARC
  5
112
330
1F
100
AcDbEntity
  8
0
  6
Continuous
 62
     7
370
    25
100
AcDbCircle
 10
575.4951027592
 20
612.4347581611
 30
0.0
 40
25.00000000000014
100
AcDbArc
 50
6.4156592209
 51
26.0660619581
  0
ARC
  5
113
330
1F
100
AcDbEntity
  8
0
  6
Continuous
 62
     7
370
    25
100
AcDbCircle
 10
596.6048709384
 20
622.7608265039
 30
0.0
 40
1.499999999999987
100
AcDbArc
 50
26.0660619581
 51
87.9564043119
  0
ARC
  5
114
330
1F
100
AcDbEntity
  8
0
  6
Continuous
 62
     7
370
    25
100
AcDbCircle
 10
454.0722054316
 20
622.7608265039
 30
0.0
 40
1.499999999999986
100
AcDbArc
 50
92.0435956881
 51
153.9339380419
  0
ARC
  5
115
330
1F
100
AcDbEntity
  8
0
  6
Continuous
 62
     7
370
    25
100
AcDbCircle
 10
525.338538185
 20
-1374.4680937293
 30
0.0
 40
2000.000000000001
100
AcDbArc
 50
90.7448661151
 51
92.0435956881
  0
ARC
  5
116
330
1F
100
AcDbEntity
  8
0
  6
Continuous
 62
     7
370
    25
100
AcDbCircle
 10
525.338538185
 20
-1374.4680937293
 30
0.0
 40
2000.000000000001
100
AcDbArc
 50
87.9564043119
 51
89.2551338849
  0
LINE
  5
117
330
1F
100
AcDbEntity
  8
0
  6
Continuous
 62
     7
370
    25
100
AcDbLine
 10
498.7385386678
 20
1366.6204651518
 30
0.0
 11
498.7385386678
 21
1359.6204360647
 31
0.0
  0
LINE
  5
118
330
1F
100
AcDbEntity
  8
0
  6
Continuous
 62
     7
370
    25
100
AcDbLine
 10
551.9385377022
 20
1359.6204360647
 30
0.0
 11
551.9385377022
 21
1366.6204651518
 31
0.0
  0
LINE
  5
119
330
1F
100
AcDbEntity
  8
0
  6
Continuous
 62
     7
370
    25
100
AcDbLine
 10
550.9011486622
 20
1496.8004664106
 30
0.0
 11
550.7293494495
 21
1516.3103183432
 31
0.0
  0
SPLINE
  5
11A
330
1F
100
AcDbEntity
  8
0
  6
Continuous
 62
     7
370
    25
100
AcDbSpline
210
0.0
220
0.0
230
1.0
 70
     8
 71
     3
 72
     9
 73
     5
 74
     0
 42
0.000000001
 43
0.00000001
 40
0.0
 40
0.0
 40
0.0
 40
0.0
 40
0.2495597689004003
 40
0.9999999999999999
 40
0.9999999999999999
 40
0.9999999999999999
 40
0.9999999999999999
 10
551.9098399284226
 20
1366.620286337863
 30
0.0
 10
551.895671178186
 20
1374.089973250499
 30
0.0
 10
551.8388962007967
 20
1404.02142792987
 30
0.0
 10
551.506354670148
 20
1433.951301234315
 30
0.0
 10
551.2568021270376
 20
1456.411882273684
 30
0.0
  0
SPLINE
  5
11B
330
1F
100
AcDbEntity
  8
0
  6
Continuous
 62
     7
370
    25
100
AcDbSpline
210
0.0
220
0.0
230
1.0
 70
     8
 71
     3
 72
     9
 73
     5
 74
     0
 42
0.000000001
 43
0.00000001
 40
0.0
 40
0.0
 40
0.0
 40
0.0
 40
0.8503029285774523
 40
1.0
 40
1.0
 40
1.0
 40
1.0
 10
499.9477138820035
 20
1516.308828227053
 30
0.0
 10
499.4633192609913
 20
1473.882937034018
 30
0.0
 10
498.8936462600731
 20
1423.987905784374
 30
0.0
 10
498.7836973362012
 20
1374.090238268342
 30
0.0
 10
498.7672383042914
 20
1366.620703570376
 30
0.0
  0
LINE
  5
11C
330
1F
100
AcDbEntity
  8
0
  6
Continuous
 62
     7
370
    25
100
AcDbLine
 10
551.3385387215
 20
1329.020424716
 30
0.0
 11
551.3385387215
 21
1358.9204391165
 31
0.0
  0
LINE
  5
11D
330
1F
100
AcDbEntity
  8
0
  6
Continuous
 62
     7
370
    25
100
AcDbLine
 10
499.3385376486
 20
1332.1656426115
 30
0.0
 11
499.3385376486
 21
1329.020424716
 31
0.0
  0
LINE
  5
11E
330
1F
100
AcDbEntity
  8
0
  6
Continuous
 62
     7
370
    25
100
AcDbLine
 10
499.3385376486
 20
1358.9204391165
 30
0.0
 11
499.3385376486
 21
1356.0140570326
 31
0.0
  0
LINE
  5
11F
330
1F
100
AcDbEntity
  8
0
  6
Continuous
 62
     7
370
    25
100
AcDbLine
 10
499.3385376486
 20
1328.5204609556
 30
0.0
 11
499.3385376486
 21
625.3629000558
 31
0.0
  0
LINE
  5
120
330
1F
100
AcDbEntity
  8
0
  6
Continuous
 62
     7
370
    25
100
AcDbLine
 10
551.3385387215
 20
625.3629000558
 30
0.0
 11
551.3385387215
 21
1328.5204609556
 31
0.0
  0
ARC
  5
121
330
1F
100
AcDbEntity
  8
0
  6
Continuous
 62
     7
370
    25
100
AcDbCircle
 10
551.238538185
 20
1328.5204360647
 30
0.0
 40
0.0999999999999091
100
AcDbArc
 50
0.0
 51
90.0
  0
ARC
  5
122
330
1F
100
AcDbEntity
  8
0
  6
Continuous
 62
     7
370
    25
100
AcDbCircle
 10
499.438538185
 20
1328.5204360647
 30
0.0
 40
0.0999999999999659
100
AcDbArc
 50
90.0
 51
180.0
  0
LINE
  5
123
330
1F
100
AcDbEntity
  8
0
  6
Continuous
 62
     7
370
    25
100
AcDbLine
 10
549.7450551095
 20
1555.3045710249
 30
0.0
 11
549.7098511162
 21
1557.3214133902
 31
0.0
  0
LINE
  5
124
330
1F
100
AcDbEntity
  8
0
  6
Continuous
 62
     7
370
    25
100
AcDbLine
 10
550.0898176881
 20
1535.5531414671
 30
0.0
 11
549.9694144431
 21
1542.4510677977
 31
0.0
  0
LINE
  5
125
330
1F
100
AcDbEntity
  8
0
  6
Continuous
 62
     7
370
    25
100
AcDbLine
 10
550.3385385576
 20
1521.3039954825
 30
0.0
 11
550.2285456362
 21
1527.6054581328
 31
0.0
  0
LINE
  5
126
330
1F
100
AcDbEntity
  8
0
  6
Continuous
 62
     7
370
    25
100
AcDbLine
 10
500.9672252539
 20
1557.3214133902
 30
0.0
 11
500.4549214694
 21
1527.971549861
 31
0.0
  0
ARC
  5
127
330
1F
100
AcDbEntity
  8
0
  6
Continuous
 62
     7
370
    25
100
AcDbCircle
 10
550.24114947
 20
1516.303989757
 30
0.0
 40
0.5
100
AcDbArc
 50
0.5670607077
 51
90.0
  0
ARC
  5
128
330
1F
100
AcDbEntity
  8
0
  6
Continuous
 62
     7
370
    25
100
AcDbCircle
 10
500.4359269001
 20
1516.303989757
 30
0.0
 40
0.500000000000026
100
AcDbArc
 50
90.0
 51
179.4329392923
  0
LINE
  5
129
330
1F
100
AcDbEntity
  8
0
  6
Continuous
 62
     7
370
    25
100
AcDbLine
 10
550.3385385576
 20
1358.9204391165
 30
0.0
 11
550.3385385576
 21
1359.3204458876
 31
0.0
  0
LINE
  5
12A
330
1F
100
AcDbEntity
  8
0
  6
Continuous
 62
     7
370
    25
100
AcDbLine
 10
500.3385378125
 20
1359.3204458876
 30
0.0
 11
500.3385378125
 21
1358.9204391165
 31
0.0
  0
LINE
  5
12B
330
1F
100
AcDbEntity
  8
0
  6
Continuous
 62
     7
370
    25
100
AcDbLine
 10
550.3385385576
 20
1328.6204179449
 30
0.0
 11
550.3385385576
 21
1329.020424716
 31
0.0
  0
LINE
  5
12C
330
1F
100
AcDbEntity
  8
0
  6
Continuous
 62
     7
370
    25
100
AcDbLine
 10
500.3385378125
 20
1329.020424716
 30
0.0
 11
500.3385378125
 21
1328.6204179449
 31
0.0
  0
ARC
  5
12D
330
1F
100
AcDbEntity
  8
0
  6
Continuous
 62
     7
370
    25
100
AcDbCircle
 10
548.7100035196
 20
1557.303989757
 30
0.0
 40
1.000000000000006
100
AcDbArc
 50
1.0
 51
90.0
  0
ARC
  5
12E
330
1F
100
AcDbEntity
  8
0
  6
Continuous
 62
     7
370
    25
100
AcDbCircle
 10
501.9670728505
 20
1557.303989757
 30
0.0
 40
1.000000000000006
100
AcDbArc
 50
90.0
 51
179.0
  0
LINE
  5
12F
330
1F
100
AcDbEntity
  8
0
  6
Continuous
 62
     7
370
    25
100
AcDbLine
 10
549.3298100385
 20
1516.8039640112
 30
0.0
 11
549.3129773143
 21
1517.7683671637
 31
0.0
  0
LINE
  5
130
330
1F
100
AcDbEntity
  8
0
  6
Continuous
 62
     7
370
    25
100
AcDbLine
 10
501.3640990558
 20
1517.7683671637
 30
0.0
 11
501.3472663316
 21
1516.8039640112
 31
0.0
  0
ARC
  5
131
330
1F
100
AcDbEntity
  8
0
  6
Continuous
 62
     7
370
    25
100
AcDbCircle
 10
525.338538185
 20
1513.803989757
 30
0.0
 40
24.30000000000045
100
AcDbArc
 50
147.6549636627
 51
170.6106272566
  0
ARC
  5
132
330
1F
100
AcDbEntity
  8
0
  6
Continuous
 62
     7
370
    25
100
AcDbCircle
 10
525.338538185
 20
1513.803989757
 30
0.0
 40
24.30000000000048
100
AcDbArc
 50
9.3893727434
 51
17.9774086675
  0
LINE
  5
133
330
1F
100
AcDbEntity
  8
0
  6
Continuous
 62
     7
370
    25
100
AcDbLine
 10
548.0385387394
 20
1359.3204458876
 30
0.0
 11
547.8385390791
 21
1359.5204194708
 31
0.0
  0
LINE
  5
134
330
1F
100
AcDbEntity
  8
0
  6
Continuous
 62
     7
370
    25
100
AcDbLine
 10
502.838537291
 20
1359.5204194708
 30
0.0
 11
502.6385376307
 21
1359.3204458876
 31
0.0
  0
LINE
  5
135
330
1F
100
AcDbEntity
  8
0
  6
Continuous
 62
     7
370
    25
100
AcDbLine
 10
544.788537741
 20
1359.5204194708
 30
0.0
 11
544.788537741
 21
1359.6204360647
 31
0.0
  0
LINE
  5
136
330
1F
100
AcDbEntity
  8
0
  6
Continuous
 62
     7
370
    25
100
AcDbLine
 10
505.8885386291
 20
1359.6204360647
 30
0.0
 11
505.8885386291
 21
1359.5204194708
 31
0.0
  0
ARC
  5
137
330
1F
100
AcDbEntity
  8
0
  6
Continuous
 62
     7
370
    25
100
AcDbCircle
 10
425.8229517734
 20
1572.8704360626
 30
0.0
 40
1.000000000617092
100
AcDbArc
 50
90.0000001437
 51
181.8273884281
  0
ARC
  5
138
330
1F
100
AcDbEntity
  8
0
  6
Continuous
 62
     7
370
    25
100
AcDbCircle
 10
458.8541245904
 20
1572.8704360626
 30
0.0
 40
1.000000000617092
100
AcDbArc
 50
358.1726115719
 51
89.9999998563
  0
LINE
  5
139
330
1F
100
AcDbEntity
  8
0
  6
Continuous
 62
     7
370
    25
100
AcDbLine
 10
424.8234631571
 20
1572.8385289831
 30
0.0
 11
425.1162709746
 21
1563.6608441992
 31
0.0
  0
LINE
  5
13A
330
1F
100
AcDbEntity
  8
0
  6
Continuous
 62
     7
370
    25
100
AcDbLine
 10
459.560804263
 20
1563.6608441992
 30
0.0
 11
459.8536195311
 21
1572.8385289831
 31
0.0
  0
ARC
  5
13B
330
1F
100
AcDbEntity
  8
0
  6
Continuous
 62
     7
370
    25
100
AcDbCircle
 10
459.2609569679
 20
1563.6704360541
 30
0.0
 40
0.299999989662183
100
AcDbArc
 50
270.000000356
 51
358.1726138353
  0
ARC
  5
13C
330
1F
100
AcDbEntity
  8
0
  6
Continuous
 62
     7
370
    25
100
AcDbCircle
 10
425.4161194034
 20
1563.6704360541
 30
0.0
 40
0.299999989662183
100
AcDbArc
 50
181.8273861647
 51
269.999999644
  0
ARC
  5
13D
330
1F
100
AcDbEntity
  8
0
  6
Continuous
 62
     7
370
    25
100
AcDbCircle
 10
459.1492761075
 20
1563.0704360634
 30
0.0
 40
0.2999999793528509
100
AcDbArc
 50
358.010774816
 51
90.0
  0
ARC
  5
13E
330
1F
100
AcDbEntity
  8
0
  6
Continuous
 62
     7
370
    25
100
AcDbCircle
 10
425.5278002636
 20
1563.0704360634
 30
0.0
 40
0.2999999793528332
100
AcDbArc
 50
90.0
 51
182.0290621203
  0
LINE
  5
13F
330
1F
100
AcDbEntity
  8
0
  6
Continuous
 62
     7
370
    25
100
AcDbLine
 10
425.227381483
 20
1563.0634268446
 30
0.0
 11
427.8472961935
 21
1489.1361435576
 31
0.0
  0
LINE
  5
140
330
1F
100
AcDbEntity
  8
0
  6
Continuous
 62
     7
370
    25
100
AcDbLine
 10
459.3491258177
 20
1560.2256497069
 30
0.0
 11
459.4496937546
 21
1563.0634268446
 31
0.0
  0
LINE
  5
141
330
1F
100
AcDbEntity
  8
0
  6
Continuous
 62
     7
370
    25
100
AcDbLine
 10
456.8297790441
 20
1489.1361435576
 30
0.0
 11
457.0024686011
 21
1494.0090020819
 31
0.0
  0
LINE
  5
142
330
1F
100
AcDbEntity
  8
0
  6
Continuous
 62
     7
370
    25
100
AcDbLine
 10
459.3188913616
 20
1360.0384434385
 30
0.0
 11
456.8298535499
 21
1489.1386469526
 31
0.0
  0
LINE
  5
143
330
1F
100
AcDbEntity
  8
0
  6
Continuous
 62
     7
370
    25
100
AcDbLine
 10
427.8472216877
 20
1489.1386469526
 30
0.0
 11
425.358183876
 21
1360.0384434385
 31
0.0
  0
ARC
  5
144
330
1F
100
AcDbEntity
  8
0
  6
Continuous
 62
     7
370
    25
100
AcDbCircle
 10
458.3190716033
 20
1360.0204360583
 30
0.0
 40
0.9999999933878712
100
AcDbArc
 50
270.0
 51
1.1129317122
  0
ARC
  5
145
330
1F
100
AcDbEntity
  8
0
  6
Continuous
 62
     7
370
    25
100
AcDbCircle
 10
426.3580047534
 20
1360.0204360583
 30
0.0
 40
0.9999999933878787
100
AcDbArc
 50
178.9317398861
 51
270.0
  0
LINE
  5
146
330
1F
100
AcDbEntity
  8
0
  6
Continuous
 62
     7
370
    25
100
AcDbLine
 10
605.6132020506
 20
1460.1605375929
 30
0.0
 11
608.2299353632
 21
1460.1651271505
 31
0.0
  0
LINE
  5
147
330
1F
100
AcDbEntity
  8
0
  6
Continuous
 62
     7
370
    25
100
AcDbLine
 10
582.4599342498
 20
1460.1201256437
 30
0.0
 11
585.0562492463
 21
1460.1246555967
 31
0.0
  0
LINE
  5
148
330
1F
100
AcDbEntity
  8
0
  6
Continuous
 62
     7
370
    25
100
AcDbLine
 10
592.8682910356
 20
1493.1025942488
 30
0.0
 11
591.9599311504
 21
1493.1041439695
 31
0.0
  0
LINE
  5
149
330
1F
100
AcDbEntity
  8
0
  6
Continuous
 62
     7
370
    25
100
AcDbLine
 10
598.7299310121
 20
1493.0923422499
 30
0.0
 11
597.8321360501
 21
1493.0938919706
 31
0.0
  0
SPLINE
  5
14A
330
1F
100
AcDbEntity
  8
0
  6
Continuous
 62
     7
370
    25
100
AcDbSpline
210
0.0
220
0.0
230
1.0
 70
     8
 71
     3
 72
    31
 73
    27
 74
     0
 42
0.000000001
 43
0.00000001
 40
0.0
 40
0.0
 40
0.0
 40
0.0
 40
0.05093345093868
 40
0.0916465028498685
 40
0.123294686264791
 40
0.1518975002311397
 40
0.1694021570107386
 40
0.1864565425211025
 40
0.2048806402457906
 40
0.2246129382620127
 40
0.24541976967239
 40
0.26728388532334
 40
0.3226799093234265
 40
0.384320968586891
 40
0.4464603581330153
 40
0.5086071220908541
 40
0.6026978274406137
 40
0.6950458747737105
 40
0.7804166437370949
 40
0.8073263665164597
 40
0.8340521343311845
 40
0.8605506906366146
 40
0.8867615900082726
 40
0.9156612706726556
 40
0.9530800617505584
 40
1.0
 40
1.0
 40
1.0
 40
1.0
 10
742.3818932923418
 20
1461.74548470212
 30
0.0
 10
741.3734772770356
 20
1462.934162945038
 30
0.0
 10
739.5589958406239
 20
1465.072997089778
 30
0.0
 10
737.0332836176615
 20
1467.876925606657
 30
0.0
 10
734.9108937797706
 20
1470.122803128166
 30
0.0
 10
733.2331905358236
 20
1471.810716598243
 30
0.0
 10
731.8406135420958
 20
1473.151382078309
 30
0.0
 10
730.652377295573
 20
1474.254784588823
 30
0.0
 10
729.3916063493566
 20
1475.379829029718
 30
0.0
 10
728.0178499443105
 20
1476.550089067854
 30
0.0
 10
726.5319541687363
 20
1477.750190278916
 30
0.0
 10
724.1426958434955
 20
1479.566862632778
 30
0.0
 10
720.614675011304
 20
1481.947882876307
 30
0.0
 10
715.796224120005
 20
1484.583888376812
 30
0.0
 10
710.5536881925266
 20
1486.817447814389
 30
0.0
 10
704.1908592283762
 20
1488.884757347301
 30
0.0
 10
696.7547619478631
 20
1490.55118476105
 30
0.0
 10
688.5130047953418
 20
1491.715685553219
 30
0.0
 10
682.2722499157472
 20
1492.259391890615
 30
0.0
 10
678.026464653608
 20
1492.524391589542
 30
0.0
 10
675.5773392603501
 20
1492.651242880884
 30
0.0
 10
673.1484914815983
 20
1492.753485416732
 30
0.0
 10
670.652370235965
 20
1492.837297549868
 30
0.0
 10
667.8215519213516
 20
1492.908552812539
 30
0.0
 10
664.3565151941833
 20
1492.967104342513
 30
0.0
 10
661.7754844927886
 20
1492.97848442182
 30
0.0
 10
660.339586630736
 20
1492.984815470706
 30
0.0
  0
SPLINE
  5
14B
330
1F
100
AcDbEntity
  8
0
  6
Continuous
 62
     7
370
    25
100
AcDbSpline
210
0.0
220
0.0
230
1.0
 70
     8
 71
     3
 72
    23
 73
    19
 74
     0
 42
0.000000001
 43
0.00000001
 40
0.0
 40
0.0
 40
0.0
 40
0.0
 40
0.0865470803455229
 40
0.1554958800379224
 40
0.2094969583361816
 40
0.2564756008278354
 40
0.3058631592715328
 40
0.4076856838191601
 40
0.5100763357687275
 40
0.5854802210393991
 40
0.6601291476078261
 40
0.7291413603167317
 40
0.7612512587826477
 40
0.7920834843401814
 40
0.8253903341565296
 40
0.8696861654663944
 40
0.926967277719055
 40
1.0
 40
1.0
 40
1.0
 40
1.0
 10
660.3395866307361
 20
1460.256083838473
 30
0.0
 10
662.158046138877
 20
1460.253339426069
 30
0.0
 10
665.425203856998
 20
1460.248408643652
 30
0.0
 10
669.82632535289
 20
1460.162995900013
 30
0.0
 10
673.3946886898947
 20
1460.040539432283
 30
0.0
 10
676.5501622885057
 20
1459.88070293182
 30
0.0
 10
680.7044193467264
 20
1459.591573094383
 30
0.0
 10
686.0059441204902
 20
1459.028811585596
 30
0.0
 10
691.7935586069646
 20
1457.964507580139
 30
0.0
 10
696.8938711919011
 20
1456.477616078934
 30
0.0
 10
701.1531042263468
 20
1454.703432978874
 30
0.0
 10
704.3716899263231
 20
1452.873636081625
 30
0.0
 10
706.6588639796342
 20
1451.304930402429
 30
0.0
 10
708.2688186875206
 20
1450.079892369072
 30
0.0
 10
710.0170346132127
 20
1448.617657740158
 30
0.0
 10
712.0969561102619
 20
1446.690921212843
 30
0.0
 10
714.6569434714575
 20
1444.059712578913
 30
0.0
 10
716.4400829788128
 20
1441.981163575017
 30
0.0
 10
717.4394207152468
 20
1440.816267363558
 30
0.0
  0
ARC
  5
14C
330
1F
100
AcDbEntity
  8
0
  6
Continuous
 62
     7
370
    25
100
AcDbCircle
 10
721.5681714943
 20
1438.2294132576
 30
0.0
 40
1.500000000000123
100
AcDbArc
 50
220.0045783767
 51
300.0
  0
ARC
  5
14D
330
1F
100
AcDbEntity
  8
0
  6
Continuous
 62
     7
370
    25
100
AcDbCircle
 10
747.5628695688
 20
1453.2374591884
 30
0.0
 40
1.500000000000123
100
AcDbArc
 50
300.0
 51
39.9844394816
  0
LINE
  5
14E
330
1F
100
AcDbEntity
  8
0
  6
Continuous
 62
     7
370
    25
100
AcDbLine
 10
456.7528890523
 20
1356.0249050779
 30
0.0
 11
456.8313287648
 21
1359.0204557104
 31
0.0
  0
LINE
  5
14F
330
1F
100
AcDbEntity
  8
0
  6
Continuous
 62
     7
370
    25
100
AcDbLine
 10
456.0457469973
 20
1329.020424716
 30
0.0
 11
456.12688382
 21
1332.1187933607
 31
0.0
  0
SPLINE
  5
150
330
1F
100
AcDbEntity
  8
0
  6
Continuous
 62
     7
370
    25
100
AcDbSpline
210
0.0
220
0.0
230
1.0
 70
     8
 71
     3
 72
    11
 73
     7
 74
     0
 42
0.000000001
 43
0.00000001
 40
0.0
 40
0.0
 40
0.0
 40
0.0
 40
0.2477680497057391
 40
0.5000103378252264
 40
0.7521989718724551
 40
1.0
 40
1.0
 40
1.0
 40
1.0
 10
459.2029379757983
 20
1559.889777533541
 30
0.0
 10
459.2236778512294
 20
1559.912854256737
 30
0.0
 10
459.2655321263591
 20
1559.959424426597
 30
0.0
 10
459.3102386078294
 20
1560.042815770009
 30
0.0
 10
459.3407695170167
 20
1560.132376200689
 30
0.0
 10
459.3463218560761
 20
1560.194740963236
 30
0.0
 10
459.3490736636264
 20
1560.225649706851
 30
0.0
  0
LINE
  5
151
330
1F
100
AcDbEntity
  8
0
  6
Continuous
 62
     7
370
    25
100
AcDbLine
 10
456.6336350593
 20
1557.3204597159
 30
0.0
 11
459.2079671177
 21
1559.8947843237
 31
0.0
  0
SPLINE
  5
152
330
1F
100
AcDbEntity
  8
0
  6
Continuous
 62
     7
370
    25
100
AcDbSpline
210
0.0
220
0.0
230
1.0
 70
     8
 71
     3
 72
    12
 73
     8
 74
     0
 42
0.000000001
 43
0.00000001
 40
0.0
 40
0.0
 40
0.0
 40
0.0
 40
0.2116006691395665
 40
0.4225255840331831
 40
0.6495758860786194
 40
0.8813981217613713
 40
1.0
 40
1.0
 40
1.0
 40
1.0
 10
499.3231484743697
 20
1356.017096869479
 30
0.0
 10
499.3076940953978
 20
1355.795469037267
 30
0.0
 10
499.2768346915615
 20
1355.35292114919
 30
0.0
 10
498.9300889445151
 20
1354.748521235035
 30
0.0
 10
498.4051944800082
 20
1354.283475425337
 30
0.0
 10
497.8320810317646
 20
1354.034419873612
 30
0.0
 10
497.4661486797735
 20
1354.043183881344
 30
0.0
 10
497.3422980013234
 20
1354.046150080691
 30
0.0
  0
SPLINE
  5
153
330
1F
100
AcDbEntity
  8
0
  6
Continuous
 62
     7
370
    25
100
AcDbSpline
210
0.0
220
0.0
230
1.0
 70
     8
 71
     3
 72
    13
 73
     9
 74
     0
 42
0.000000001
 43
0.00000001
 40
0.0
 40
0.0
 40
0.0
 40
0.0
 40
0.0703605237752038
 40
0.3173183646858373
 40
0.5568929351092842
 40
0.7479325661220734
 40
0.9085995816504719
 40
1.0
 40
1.0
 40
1.0
 40
1.0
 10
497.4054025563342
 20
1333.995505206118
 30
0.0
 10
497.4741541183039
 20
1334.000402386653
 30
0.0
 10
497.7842162389829
 20
1334.022488142068
 30
0.0
 10
498.3118762288522
 20
1333.807036839241
 30
0.0
 10
498.83968565981
 20
1333.398271171196
 30
0.0
 10
499.1550359810586
 20
1332.905698635642
 30
0.0
 10
499.3024375505107
 20
1332.492893602675
 30
0.0
 10
499.319836542859
 20
1332.246953447026
 30
0.0
 10
499.3261454704148
 20
1332.157774798403
 30
0.0
  0
LINE
  5
154
330
1F
100
AcDbEntity
  8
0
  6
Continuous
 62
     7
370
    25
100
AcDbLine
 10
583.8385375294
 20
1453.3204277678
 30
0.0
 11
585.3362755927
 21
1424.7419079466
 31
0.0
  0
LINE
  5
155
330
1F
100
AcDbEntity
  8
0
  6
Continuous
 62
     7
370
    25
100
AcDbLine
 10
605.3408013734
 20
1424.7419079466
 30
0.0
 11
606.8385394367
 21
1453.3204277678
 31
0.0
  0
SPLINE
  5
156
330
1F
100
AcDbEntity
  8
0
  6
Continuous
 62
     7
370
    25
100
AcDbSpline
210
0.0
220
0.0
230
1.0
 70
     8
 71
     3
 72
    13
 73
     9
 74
     0
 42
0.000000001
 43
0.00000001
 40
0.0
 40
0.0
 40
0.0
 40
0.0
 40
0.0000798679585156
 40
0.259213079937763
 40
0.4968886253326626
 40
0.7384384021177237
 40
0.9543317019666033
 40
1.0
 40
1.0
 40
1.0
 40
1.0
 10
456.1273532065493
 20
1332.120402686129
 30
0.0
 10
456.1273482362627
 20
1332.120482158982
 30
0.0
 10
456.1112170701466
 20
1332.378412917207
 30
0.0
 10
456.2761274859538
 20
1332.87322541157
 30
0.0
 10
456.6965987823558
 20
1333.488101649442
 30
0.0
 10
457.2885442522339
 20
1333.871172444322
 30
0.0
 10
457.7834619687662
 20
1334.027760118604
 30
0.0
 10
458.0441618330614
 20
1334.010042729818
 30
0.0
 10
458.0896796735865
 20
1334.006949297915
 30
0.0
  0
SPLINE
  5
157
330
1F
100
AcDbEntity
  8
0
  6
Continuous
 62
     7
370
    25
100
AcDbSpline
210
0.0
220
0.0
230
1.0
 70
     8
 71
     3
 72
    13
 73
     9
 74
     0
 42
0.000000001
 43
0.00000001
 40
0.0
 40
0.0
 40
0.0
 40
0.0
 40
0.0182052222971398
 40
0.2377242108682652
 40
0.4689706633377394
 40
0.6941278335119522
 40
0.8734931566914288
 40
1.0
 40
1.0
 40
1.0
 40
1.0
 10
458.7403537782771
 20
1354.02791105939
 30
0.0
 10
458.7215194191708
 20
1354.025538703951
 30
0.0
 10
458.4755799254003
 20
1353.994560432158
 30
0.0
 10
457.9846750227144
 20
1354.142055984715
 30
0.0
 10
457.3753037599561
 20
1354.506834777238
 30
0.0
 10
456.9692130405373
 20
1355.049777005199
 30
0.0
 10
456.7746547359931
 20
1355.578244630081
 30
0.0
 10
456.7648336904838
 20
1355.898098935464
 30
0.0
 10
456.7607717665774
 20
1356.030388705264
 30
0.0
  0
SPLINE
  5
158
330
1F
100
AcDbEntity
  8
0
  6
Continuous
 62
     7
370
    25
100
AcDbSpline
210
0.0
220
0.0
230
1.0
 70
     8
 71
     3
 72
    11
 73
     7
 74
     0
 42
0.000000001
 43
0.00000001
 40
0.0
 40
0.0
 40
0.0
 40
0.0
 40
0.2474650433157888
 40
0.4999510137906407
 40
0.7524569504624837
 40
1.0
 40
1.0
 40
1.0
 40
1.0
 10
457.0024909528834
 20
1494.009002081881
 30
0.0
 10
457.0017700004757
 20
1494.042184890868
 30
0.0
 10
457.0003134679397
 20
1494.109223769456
 30
0.0
 10
456.9724583291691
 20
1494.206772765214
 30
0.0
 10
456.9279364107217
 20
1494.297936851528
 30
0.0
 10
456.8842085392147
 20
1494.348788061131
 30
0.0
 10
456.8625615986926
 20
1494.373961321841
 30
0.0
  0
LINE
  5
159
330
1F
100
AcDbEntity
  8
0
  6
Continuous
 62
     7
370
    25
100
AcDbLine
 10
605.7385357174
 20
1453.3204277678
 30
0.0
 11
605.7385357174
 21
1460.2395137472
 31
0.0
  0
LINE
  5
15A
330
1F
100
AcDbEntity
  8
0
  6
Continuous
 62
     7
370
    25
100
AcDbLine
 10
584.9385375234
 20
1460.198446147
 30
0.0
 11
584.9385375234
 21
1453.3204277678
 31
0.0
  0
ARC
  5
15B
330
1F
100
AcDbEntity
  8
0
  6
Continuous
 62
     7
370
    25
100
AcDbCircle
 10
586.8342184136
 20
1424.8204360647
 30
0.0
 40
1.499999999999998
100
AcDbArc
 50
183.0
 51
270.0
  0
ARC
  5
15C
330
1F
100
AcDbEntity
  8
0
  6
Continuous
 62
     7
370
    25
100
AcDbCircle
 10
603.8428579565
 20
1424.8204360647
 30
0.0
 40
1.499999999999998
100
AcDbArc
 50
270.0
 51
357.0
  0
LINE
  5
15D
330
1F
100
AcDbEntity
  8
0
  6
Continuous
 62
     7
370
    25
100
AcDbLine
 10
455.6818606409
 20
1494.7704514189
 30
0.0
 11
455.6818606409
 21
1494.987054698
 31
0.0
  0
LINE
  5
15E
330
1F
100
AcDbEntity
  8
0
  6
Continuous
 62
     7
370
    25
100
AcDbLine
 10
456.3385399136
 20
1494.987054698
 30
0.0
 11
456.3385399136
 21
1497.3749955816
 31
0.0
  0
LINE
  5
15F
330
1F
100
AcDbEntity
  8
0
  6
Continuous
 62
     7
370
    25
100
AcDbLine
 10
456.3385399136
 20
1500.2118786497
 30
0.0
 11
456.3385399136
 21
1502.3506721182
 31
0.0
  0
LINE
  5
160
330
1F
100
AcDbEntity
  8
0
  6
Continuous
 62
     7
370
    25
100
AcDbLine
 10
456.3385399136
 20
1505.2234967871
 30
0.0
 11
456.3385399136
 21
1507.3506673498
 31
0.0
  0
LINE
  5
161
330
1F
100
AcDbEntity
  8
0
  6
Continuous
 62
     7
370
    25
100
AcDbLine
 10
456.3385399136
 20
1510.2234920187
 30
0.0
 11
456.3385399136
 21
1512.3749812765
 31
0.0
  0
LINE
  5
162
330
1F
100
AcDbEntity
  8
0
  6
Continuous
 62
     7
370
    25
100
AcDbLine
 10
456.3385399136
 20
1515.2118643446
 30
0.0
 11
456.3385399136
 21
1517.3506578131
 31
0.0
  0
LINE
  5
163
330
1F
100
AcDbEntity
  8
0
  6
Continuous
 62
     7
370
    25
100
AcDbLine
 10
456.3385399136
 20
1520.223482482
 30
0.0
 11
456.3385399136
 21
1522.3506530447
 31
0.0
  0
LINE
  5
164
330
1F
100
AcDbEntity
  8
0
  6
Continuous
 62
     7
370
    25
100
AcDbLine
 10
456.3385399136
 20
1525.2234777136
 30
0.0
 11
456.3385399136
 21
1527.3506482763
 31
0.0
  0
LINE
  5
165
330
1F
100
AcDbEntity
  8
0
  6
Continuous
 62
     7
370
    25
100
AcDbLine
 10
456.3385399136
 20
1530.2234729452
 30
0.0
 11
456.3385399136
 21
1532.350643508
 31
0.0
  0
LINE
  5
166
330
1F
100
AcDbEntity
  8
0
  6
Continuous
 62
     7
370
    25
100
AcDbLine
 10
456.3385399136
 20
1535.2234681769
 30
0.0
 11
456.3385399136
 21
1537.3506387396
 31
0.0
  0
LINE
  5
167
330
1F
100
AcDbEntity
  8
0
  6
Continuous
 62
     7
370
    25
100
AcDbLine
 10
456.3385399136
 20
1540.2234634085
 30
0.0
 11
456.3385399136
 21
1542.3506935759
 31
0.0
  0
LINE
  5
168
330
1F
100
AcDbEntity
  8
0
  6
Continuous
 62
     7
370
    25
100
AcDbLine
 10
456.3385399136
 20
1545.2234586401
 30
0.0
 11
456.3385399136
 21
1547.3749478979
 31
0.0
  0
LINE
  5
169
330
1F
100
AcDbEntity
  8
0
  6
Continuous
 62
     7
370
    25
100
AcDbLine
 10
456.3385399136
 20
1550.2118905707
 30
0.0
 11
456.3385399136
 21
1552.3506840391
 31
0.0
  0
LINE
  5
16A
330
1F
100
AcDbEntity
  8
0
  6
Continuous
 62
     7
370
    25
100
AcDbLine
 10
456.3385399136
 20
1555.223508708
 30
0.0
 11
456.3385399136
 21
1557.2870811148
 31
0.0
  0
LINE
  5
16B
330
1F
100
AcDbEntity
  8
0
  6
Continuous
 62
     7
370
    25
100
AcDbLine
 10
456.8657802495
 20
1494.3705638571
 30
0.0
 11
456.4798401746
 21
1494.7704514189
 31
0.0
  0
ARC
  5
16C
330
1F
100
AcDbEntity
  8
0
  6
Continuous
 62
     7
370
    25
100
AcDbCircle
 10
433.8342184136
 20
1326.5204360647
 30
0.0
 40
1.500000000000024
100
AcDbArc
 50
228.4015341176
 51
270.0
  0
ARC
  5
16D
330
1F
100
AcDbEntity
  8
0
  6
Continuous
 62
     7
370
    25
100
AcDbCircle
 10
450.8428579565
 20
1326.5204360647
 30
0.0
 40
1.500000000000025
100
AcDbArc
 50
270.0
 51
311.623980295
  0
LINE
  5
16E
330
1F
100
AcDbEntity
  8
0
  6
Continuous
 62
     7
370
    25
100
AcDbLine
 10
497.3437396887
 20
1354.0204604788
 30
0.0
 11
458.740927473
 21
1354.0204604788
 31
0.0
  0
LINE
  5
16F
330
1F
100
AcDbEntity
  8
0
  6
Continuous
 62
     7
370
    25
100
AcDbLine
 10
458.0910133275
 20
1334.0204199476
 30
0.0
 11
497.4002821448
 21
1334.0204199476
 31
0.0
  0
ARC
  5
170
330
1F
100
AcDbEntity
  8
0
  6
Continuous
 62
     7
370
    25
100
AcDbCircle
 10
453.199948913
 20
1543.7870767542
 30
0.0
 40
1.599999999173336
100
AcDbArc
 50
297.2872463521
 51
0.0
  0
ARC
  5
171
330
1F
100
AcDbEntity
  8
0
  6
Continuous
 62
     7
370
    25
100
AcDbCircle
 10
453.199948913
 20
1543.7870767542
 30
0.0
 40
1.599999999173292
100
AcDbArc
 50
0.0
 51
62.5339379037
  0
ARC
  5
172
330
1F
100
AcDbEntity
  8
0
  6
Continuous
 62
     7
370
    25
100
AcDbCircle
 10
453.1999489195
 20
1538.7870767623
 30
0.0
 40
1.599999994227831
100
AcDbArc
 50
297.2872486761
 51
0.0
  0
ARC
  5
173
330
1F
100
AcDbEntity
  8
0
  6
Continuous
 62
     7
370
    25
100
AcDbCircle
 10
453.1999489195
 20
1538.7870767623
 30
0.0
 40
1.599999994227801
100
AcDbArc
 50
0.0
 51
62.5339355963
  0
ARC
  5
174
330
1F
100
AcDbEntity
  8
0
  6
Continuous
 62
     7
370
    25
100
AcDbCircle
 10
453.1999489295
 20
1533.7870767623
 30
0.0
 40
1.599999991299512
100
AcDbArc
 50
297.2872506962
 51
0.0
  0
ARC
  5
175
330
1F
100
AcDbEntity
  8
0
  6
Continuous
 62
     7
370
    25
100
AcDbCircle
 10
453.1999489295
 20
1533.7870767623
 30
0.0
 40
1.599999991299556
100
AcDbArc
 50
0.0
 51
62.5339336948
  0
ARC
  5
176
330
1F
100
AcDbEntity
  8
0
  6
Continuous
 62
     7
370
    25
100
AcDbCircle
 10
453.1999489295
 20
1528.7870767623
 30
0.0
 40
1.599999991299573
100
AcDbArc
 50
297.2872530491
 51
0.0
  0
ARC
  5
177
330
1F
100
AcDbEntity
  8
0
  6
Continuous
 62
     7
370
    25
100
AcDbCircle
 10
453.1999489295
 20
1528.7870767623
 30
0.0
 40
1.599999991299617
100
AcDbArc
 50
0.0
 51
62.5339313657
  0
ARC
  5
178
330
1F
100
AcDbEntity
  8
0
  6
Continuous
 62
     7
370
    25
100
AcDbCircle
 10
453.1999489495
 20
1518.7870767623
 30
0.0
 40
1.599999991299512
100
AcDbArc
 50
297.2872572621
 51
0.0
  0
ARC
  5
179
330
1F
100
AcDbEntity
  8
0
  6
Continuous
 62
     7
370
    25
100
AcDbCircle
 10
453.1999489495
 20
1518.7870767623
 30
0.0
 40
1.599999991299532
100
AcDbArc
 50
0.0
 51
62.5339273117
  0
ARC
  5
17A
330
1F
100
AcDbEntity
  8
0
  6
Continuous
 62
     7
370
    25
100
AcDbCircle
 10
453.1999489695
 20
1498.7870767623
 30
0.0
 40
1.599999994227943
100
AcDbArc
 50
297.2872663971
 51
0.0
  0
ARC
  5
17B
330
1F
100
AcDbEntity
  8
0
  6
Continuous
 62
     7
370
    25
100
AcDbCircle
 10
453.1999489695
 20
1498.7870767623
 30
0.0
 40
1.599999994227858
100
AcDbArc
 50
0.0
 51
62.5339184839
  0
ARC
  5
17C
330
1F
100
AcDbEntity
  8
0
  6
Continuous
 62
     7
370
    25
100
AcDbCircle
 10
453.1999488995
 20
1553.7870767623
 30
0.0
 40
1.599999994227963
100
AcDbArc
 50
297.2872421082
 51
0.0
  0
ARC
  5
17D
330
1F
100
AcDbEntity
  8
0
  6
Continuous
 62
     7
370
    25
100
AcDbCircle
 10
453.1999488995
 20
1553.7870767623
 30
0.0
 40
1.599999994227814
100
AcDbArc
 50
0.0
 51
62.5339419711
  0
ARC
  5
17E
330
1F
100
AcDbEntity
  8
0
  6
Continuous
 62
     7
370
    25
100
AcDbCircle
 10
453.1999489095
 20
1548.7870767623
 30
0.0
 40
1.599999991299512
100
AcDbArc
 50
297.2872441286
 51
0.0
  0
ARC
  5
17F
330
1F
100
AcDbEntity
  8
0
  6
Continuous
 62
     7
370
    25
100
AcDbCircle
 10
453.1999489095
 20
1548.7870767623
 30
0.0
 40
1.599999991299668
100
AcDbArc
 50
0.0
 51
62.5339400652
  0
ARC
  5
180
330
1F
100
AcDbEntity
  8
0
  6
Continuous
 62
     7
370
    25
100
AcDbCircle
 10
453.1999489395
 20
1523.7870767623
 30
0.0
 40
1.599999994227858
100
AcDbArc
 50
297.287255237
 51
0.0
  0
ARC
  5
181
330
1F
100
AcDbEntity
  8
0
  6
Continuous
 62
     7
370
    25
100
AcDbCircle
 10
453.1999489395
 20
1523.7870767623
 30
0.0
 40
1.599999994227864
100
AcDbArc
 50
0.0
 51
62.5339292715
  0
ARC
  5
182
330
1F
100
AcDbEntity
  8
0
  6
Continuous
 62
     7
370
    25
100
AcDbCircle
 10
453.1999489495
 20
1513.7870767623
 30
0.0
 40
1.599999994227858
100
AcDbArc
 50
297.2872598338
 51
0.0
  0
ARC
  5
183
330
1F
100
AcDbEntity
  8
0
  6
Continuous
 62
     7
370
    25
100
AcDbCircle
 10
453.1999489495
 20
1513.7870767623
 30
0.0
 40
1.599999994227858
100
AcDbArc
 50
0.0
 51
62.533924771
  0
ARC
  5
184
330
1F
100
AcDbEntity
  8
0
  6
Continuous
 62
     7
370
    25
100
AcDbCircle
 10
453.1999489595
 20
1508.7870767623
 30
0.0
 40
1.599999991299512
100
AcDbArc
 50
297.2876881322
 51
0.0
  0
ARC
  5
185
330
1F
100
AcDbEntity
  8
0
  6
Continuous
 62
     7
370
    25
100
AcDbCircle
 10
453.1999489595
 20
1508.7870767623
 30
0.0
 40
1.599999991299512
100
AcDbArc
 50
0.0
 51
62.5367911809
  0
ARC
  5
186
330
1F
100
AcDbEntity
  8
0
  6
Continuous
 62
     7
370
    25
100
AcDbCircle
 10
453.199948963
 20
1503.7870767542
 30
0.0
 40
1.599999999173236
100
AcDbArc
 50
297.2872640747
 51
0.0
  0
ARC
  5
187
330
1F
100
AcDbEntity
  8
0
  6
Continuous
 62
     7
370
    25
100
AcDbCircle
 10
453.199948963
 20
1503.7870767542
 30
0.0
 40
1.599999999173443
100
AcDbArc
 50
0.0
 51
62.5339207017
  0
LINE
  5
188
330
1F
100
AcDbEntity
  8
0
  6
Continuous
 62
     7
370
    25
100
AcDbLine
 10
743.0454270991
 20
1448.8395293875
 30
0.0
 11
743.0204229507
 21
1448.8828023596
 31
0.0
  0
LINE
  5
189
330
1F
100
AcDbEntity
  8
0
  6
Continuous
 62
     7
370
    25
100
AcDbLine
 10
727.0855533036
 20
1439.6828254385
 30
0.0
 11
727.1105574521
 21
1439.6395524664
 31
0.0
  0
ARC
  5
18A
330
1F
100
AcDbEntity
  8
0
  6
Continuous
 62
     7
370
    25
100
AcDbCircle
 10
733.7529870675
 20
1446.534490401
 30
0.0
 40
8.759999999999819
100
AcDbArc
 50
227.6085071786
 51
235.6085071283
  0
ARC
  5
18B
330
1F
100
AcDbEntity
  8
0
  6
Continuous
 62
     7
370
    25
100
AcDbCircle
 10
588.838538185
 20
1507.5204360647
 30
0.0
 40
0.5
100
AcDbArc
 50
90.0
 51
180.0
  0
ARC
  5
18C
330
1F
100
AcDbEntity
  8
0
  6
Continuous
 62
     7
370
    25
100
AcDbCircle
 10
601.838538185
 20
1507.5204360647
 30
0.0
 40
0.5000000000001137
100
AcDbArc
 50
0.0
 51
90.0
  0
LINE
  5
18D
330
1F
100
AcDbEntity
  8
0
  6
Continuous
 62
     7
370
    25
100
AcDbLine
 10
602.3385377678
 20
1498.5204180403
 30
0.0
 11
602.3385377678
 21
1507.5204213781
 31
0.0
  0
LINE
  5
18E
330
1F
100
AcDbEntity
  8
0
  6
Continuous
 62
     7
370
    25
100
AcDbLine
 10
588.3385391983
 20
1507.5204213781
 30
0.0
 11
588.3385391983
 21
1498.5204180403
 31
0.0
  0
ARC
  5
18F
330
1F
100
AcDbEntity
  8
0
  6
Continuous
 62
     7
370
    25
100
AcDbCircle
 10
588.838538185
 20
1498.5204360647
 30
0.0
 40
0.5
100
AcDbArc
 50
180.0
 51
270.0
  0
ARC
  5
190
330
1F
100
AcDbEntity
  8
0
  6
Continuous
 62
     7
370
    25
100
AcDbCircle
 10
601.838538185
 20
1498.5204360647
 30
0.0
 40
0.5000000000001137
100
AcDbArc
 50
270.0
 51
0.0
  0
LINE
  5
191
330
1F
100
AcDbEntity
  8
0
  6
Continuous
 62
     7
370
    25
100
AcDbLine
 10
449.3385406288
 20
1246.0204204245
 30
0.0
 11
449.3385406288
 21
1325.0204166098
 31
0.0
  0
LINE
  5
192
330
1F
100
AcDbEntity
  8
0
  6
Continuous
 62
     7
370
    25
100
AcDbLine
 10
435.3385346088
 20
1325.0204166098
 30
0.0
 11
435.3385346088
 21
1246.0204204245
 31
0.0
  0
LINE
  5
193
330
1F
100
AcDbEntity
  8
0
  6
Continuous
 62
     7
370
    25
100
AcDbLine
 10
602.3385377678
 20
1344.3204601927
 30
0.0
 11
602.3385377678
 21
1423.320456378
 31
0.0
  0
LINE
  5
194
330
1F
100
AcDbEntity
  8
0
  6
Continuous
 62
     7
370
    25
100
AcDbLine
 10
588.3385391983
 20
1423.320456378
 30
0.0
 11
588.3385391983
 21
1344.3204601927
 31
0.0
  0
ARC
  5
195
330
1F
100
AcDbEntity
  8
0
  6
Continuous
 62
     7
370
    25
100
AcDbCircle
 10
454.8052762371
 20
1553.7870767487
 30
0.0
 40
1.599999996992335
100
AcDbArc
 50
293.7573347518
 51
0.0
  0
ARC
  5
196
330
1F
100
AcDbEntity
  8
0
  6
Continuous
 62
     7
370
    25
100
AcDbCircle
 10
454.8052762371
 20
1553.7870767487
 30
0.0
 40
1.599999996992096
100
AcDbArc
 50
0.0
 51
65.9202600296
  0
ARC
  5
197
330
1F
100
AcDbEntity
  8
0
  6
Continuous
 62
     7
370
    25
100
AcDbCircle
 10
454.8052762137
 20
1548.787076745
 30
0.0
 40
1.599999998720648
100
AcDbArc
 50
293.7573369635
 51
0.0
  0
ARC
  5
198
330
1F
100
AcDbEntity
  8
0
  6
Continuous
 62
     7
370
    25
100
AcDbCircle
 10
454.8052762137
 20
1548.787076745
 30
0.0
 40
1.599999998720674
100
AcDbArc
 50
0.0
 51
65.9202578684
  0
ARC
  5
199
330
1F
100
AcDbEntity
  8
0
  6
Continuous
 62
     7
370
    25
100
AcDbCircle
 10
454.8052761971
 20
1543.7870767487
 30
0.0
 40
1.599999996992153
100
AcDbArc
 50
293.7573393295
 51
0.0
  0
ARC
  5
19A
330
1F
100
AcDbEntity
  8
0
  6
Continuous
 62
     7
370
    25
100
AcDbCircle
 10
454.8052761971
 20
1543.7870767487
 30
0.0
 40
1.599999996992278
100
AcDbArc
 50
0.0
 51
65.9202555183
  0
ARC
  5
19B
330
1F
100
AcDbEntity
  8
0
  6
Continuous
 62
     7
370
    25
100
AcDbCircle
 10
454.805276175
 20
1538.7870767357
 30
0.0
 40
1.600000007758126
100
AcDbArc
 50
293.7573414129
 51
0.0
  0
ARC
  5
19C
330
1F
100
AcDbEntity
  8
0
  6
Continuous
 62
     7
370
    25
100
AcDbCircle
 10
454.805276175
 20
1538.7870767357
 30
0.0
 40
1.600000007758184
100
AcDbArc
 50
0.0
 51
65.920253477
  0
ARC
  5
19D
330
1F
100
AcDbEntity
  8
0
  6
Continuous
 62
     7
370
    25
100
AcDbCircle
 10
454.8052761437
 20
1528.787076745
 30
0.0
 40
1.599999998720648
100
AcDbArc
 50
293.7573457158
 51
0.0
  0
ARC
  5
19E
330
1F
100
AcDbEntity
  8
0
  6
Continuous
 62
     7
370
    25
100
AcDbCircle
 10
454.8052761437
 20
1528.787076745
 30
0.0
 40
1.599999998720648
100
AcDbArc
 50
0.0
 51
65.9202492186
  0
ARC
  5
19F
330
1F
100
AcDbEntity
  8
0
  6
Continuous
 62
     7
370
    25
100
AcDbCircle
 10
454.8052761071
 20
1518.7870767487
 30
0.0
 40
1.599999996992395
100
AcDbArc
 50
293.7573502982
 51
0.0
  0
ARC
  5
1A0
330
1F
100
AcDbEntity
  8
0
  6
Continuous
 62
     7
370
    25
100
AcDbCircle
 10
454.8052761071
 20
1518.7870767487
 30
0.0
 40
1.599999996992153
100
AcDbArc
 50
0.0
 51
65.9202446796
  0
ARC
  5
1A1
330
1F
100
AcDbEntity
  8
0
  6
Continuous
 62
     7
370
    25
100
AcDbCircle
 10
454.805276045
 20
1503.7870767357
 30
0.0
 40
1.600000007758297
100
AcDbArc
 50
293.7573440081
 51
0.0
  0
ARC
  5
1A2
330
1F
100
AcDbEntity
  8
0
  6
Continuous
 62
     7
370
    25
100
AcDbCircle
 10
454.805276045
 20
1503.7870767357
 30
0.0
 40
1.600000007758297
100
AcDbArc
 50
0.0
 51
65.9209932951
  0
SPLINE
  5
1A3
330
1F
100
AcDbEntity
  8
0
  6
Continuous
 62
     7
370
    25
100
AcDbSpline
210
0.0
220
0.0
230
1.0
 70
     8
 71
     3
 72
    15
 73
    11
 74
     0
 42
0.000000001
 43
0.00000001
 40
0.0
 40
0.0
 40
0.0
 40
0.0
 40
0.1604082265011181
 40
0.2915448576530325
 40
0.454918898160375
 40
0.5365030510575891
 40
0.6532537686712464
 40
0.8098174261095547
 40
0.9018579180408679
 40
1.0
 40
1.0
 40
1.0
 40
1.0
 10
455.3840832862002
 20
1532.295449606906
 30
0.0
 10
455.5676693876969
 20
1532.391435908401
 30
0.0
 10
455.9013404530493
 20
1532.565892750275
 30
0.0
 10
456.2572570247934
 20
1533.04237406298
 30
0.0
 10
456.4057521317414
 20
1533.510457789585
 30
0.0
 10
456.4094588161079
 20
1533.974232365887
 30
0.0
 10
456.3064740616987
 20
1534.421193454044
 30
0.0
 10
456.0528217630012
 20
1534.825063143023
 30
0.0
 10
455.7185715380542
 20
1535.121895396167
 30
0.0
 10
455.4979388748979
 20
1535.225339989595
 30
0.0
 10
455.3840832862002
 20
1535.278721682559
 30
0.0
  0
SPLINE
  5
1A4
330
1F
100
AcDbEntity
  8
0
  6
Continuous
 62
     7
370
    25
100
AcDbSpline
210
0.0
220
0.0
230
1.0
 70
     8
 71
     3
 72
    15
 73
    11
 74
     0
 42
0.000000001
 43
0.00000001
 40
0.0
 40
0.0
 40
0.0
 40
0.0
 40
0.1604004348371807
 40
0.2915498323085788
 40
0.4549244076462489
 40
0.5365088290225345
 40
0.6532599308422312
 40
0.8098241021435699
 40
0.9018648969639239
 40
1.0
 40
1.0
 40
1.0
 40
1.0
 10
455.3840832862002
 20
1522.295459143649
 30
0.0
 10
455.5676749374026
 20
1522.391419705629
 30
0.0
 10
455.9013779923577
 20
1522.565841213787
 30
0.0
 10
456.2572352613442
 20
1523.042382652168
 30
0.0
 10
456.4057544380133
 20
1523.5104655083
 30
0.0
 10
456.4094580717382
 20
1523.974242238392
 30
0.0
 10
456.3064750599325
 20
1524.421204108971
 30
0.0
 10
456.052818678218
 20
1524.825067044181
 30
0.0
 10
455.7185849974638
 20
1525.121910653338
 30
0.0
 10
455.4979407519194
 20
1525.225313424912
 30
0.0
 10
455.3840832862002
 20
1525.278671614657
 30
0.0
  0
SPLINE
  5
1A5
330
1F
100
AcDbEntity
  8
0
  6
Continuous
 62
     7
370
    25
100
AcDbSpline
210
0.0
220
0.0
230
1.0
 70
     8
 71
     3
 72
    15
 73
    11
 74
     0
 42
0.000000001
 43
0.00000001
 40
0.0
 40
0.0
 40
0.0
 40
0.0
 40
0.1604004354357155
 40
0.2915498323145057
 40
0.4549244097188083
 40
0.5365088307264488
 40
0.6532599320185973
 40
0.8098241039728682
 40
0.9018648974073543
 40
1.0
 40
1.0
 40
1.0
 40
1.0
 10
455.3840832862002
 20
1512.295468680392
 30
0.0
 10
455.5676749370362
 20
1512.391429241623
 30
0.0
 10
455.901377990087
 20
1512.565850747771
 30
0.0
 10
456.2572352646053
 20
1513.042392195253
 30
0.0
 10
456.4057544370769
 20
1513.510475039791
 30
0.0
 10
456.4094580721743
 20
1513.974251775398
 30
0.0
 10
456.3064750580618
 20
1514.421213648773
 30
0.0
 10
456.0528186826138
 20
1514.825076576284
 30
0.0
 10
455.7185849953366
 20
1515.121920191733
 30
0.0
 10
455.4979407515785
 20
1515.225322962038
 30
0.0
 10
455.3840832862002
 20
1515.2786811514
 30
0.0
  0
SPLINE
  5
1A6
330
1F
100
AcDbEntity
  8
0
  6
Continuous
 62
     7
370
    25
100
AcDbSpline
210
0.0
220
0.0
230
1.0
 70
     8
 71
     3
 72
    15
 73
    11
 74
     0
 42
0.000000001
 43
0.00000001
 40
0.0
 40
0.0
 40
0.0
 40
0.0
 40
0.1604004354452032
 40
0.2915498323317509
 40
0.4549244069408649
 40
0.5365088298410295
 40
0.6532599311400838
 40
0.8098241031036154
 40
0.9018648975135207
 40
0.9999999999999999
 40
0.9999999999999999
 40
0.9999999999999999
 40
0.9999999999999999
 10
455.3840832862002
 20
1507.295473448763
 30
0.0
 10
455.5676749371021
 20
1507.391434010473
 30
0.0
 10
455.9013779902726
 20
1507.565855517493
 30
0.0
 10
456.2572352617651
 20
1508.042396955985
 30
0.0
 10
456.4057544383562
 20
1508.51047982119
 30
0.0
 10
456.409458072167
 20
1508.974256537408
 30
0.0
 10
456.3064750587324
 20
1509.421218418533
 30
0.0
 10
456.0528186799678
 20
1509.825081346888
 30
0.0
 10
455.7185849975687
 20
1510.12192495858
 30
0.0
 10
455.4979407519137
 20
1510.22532773009
 30
0.0
 10
455.3840832862002
 20
1510.278685919772
 30
0.0
  0
SPLINE
  5
1A7
330
1F
100
AcDbEntity
  8
0
  6
Continuous
 62
     7
370
    25
100
AcDbSpline
210
0.0
220
0.0
230
1.0
 70
     8
 71
     3
 72
    15
 73
    11
 74
     0
 42
0.000000001
 43
0.00000001
 40
0.0
 40
0.0
 40
0.0
 40
0.0
 40
0.1604013852888193
 40
0.2915515598850416
 40
0.4549271032975987
 40
0.5365120081017943
 40
0.6532638017293165
 40
0.8098156741810318
 40
0.9018570134184818
 40
0.9999999999999999
 40
0.9999999999999999
 40
0.9999999999999999
 40
0.9999999999999999
 10
455.3840832862002
 20
1497.295482985507
 30
0.0
 10
455.5676749542442
 20
1497.391443555702
 30
0.0
 10
455.9013780398113
 20
1497.565865078793
 30
0.0
 10
456.2572350961005
 20
1498.042406413421
 30
0.0
 10
456.4057550640962
 20
1498.510489655557
 30
0.0
 10
456.409456809259
 20
1498.974265464423
 30
0.0
 10
456.3064871914035
 20
1499.421215338833
 30
0.0
 10
456.0528040737476
 20
1499.825045369136
 30
0.0
 10
455.7185725676056
 20
1500.121869770839
 30
0.0
 10
455.4979392257687
 20
1500.225313967828
 30
0.0
 10
455.3840832862002
 20
1500.278695456515
 30
0.0
  0
SPLINE
  5
1A8
330
1F
100
AcDbEntity
  8
0
  6
Continuous
 62
     7
370
    25
100
AcDbSpline
210
0.0
220
0.0
230
1.0
 70
     8
 71
     3
 72
    11
 73
     7
 74
     0
 42
0.000000001
 43
0.00000001
 40
0.0
 40
0.0
 40
0.0
 40
0.0
 40
0.1596876511126114
 40
0.4601520605850727
 40
0.7367070121527448
 40
0.9999999999999999
 40
0.9999999999999999
 40
0.9999999999999999
 40
0.9999999999999999
 10
550.0324184152228
 20
1542.791767947207
 30
0.0
 10
550.06150200197
 20
1542.89153488517
 30
0.0
 10
550.1453085598201
 20
1543.179020872735
 30
0.0
 10
550.4626621182184
 20
1543.556536411653
 30
0.0
 10
550.937853137625
 20
1543.850370670239
 30
0.0
 10
551.2899004980349
 20
1543.883287406413
 30
0.0
 10
551.4615999611956
 20
1543.899341456423
 30
0.0
  0
SPLINE
  5
1A9
330
1F
100
AcDbEntity
  8
0
  6
Continuous
 62
     7
370
    25
100
AcDbSpline
210
0.0
220
0.0
230
1.0
 70
     8
 71
     3
 72
    12
 73
     8
 74
     0
 42
0.000000001
 43
0.00000001
 40
0.0
 40
0.0
 40
0.0
 40
0.0
 40
0.2439936082552243
 40
0.5237723575454534
 40
0.7464082448040293
 40
0.9335411196289779
 40
0.9999999999999999
 40
0.9999999999999999
 40
0.9999999999999999
 40
0.9999999999999999
 10
551.2359200122696
 20
1553.915902010928
 30
0.0
 10
551.0808132190957
 20
1553.925692215786
 30
0.0
 10
550.747851010319
 20
1553.946708498615
 30
0.0
 10
550.3230079179904
 20
1554.188119477473
 30
0.0
 10
550.0238285360709
 20
1554.506075994231
 30
0.0
 10
549.8680200235441
 20
1554.769754314308
 30
0.0
 10
549.8270805897171
 20
1554.924695813673
 30
0.0
 10
549.816351577912
 20
1554.965301386843
 30
0.0
  0
LINE
  5
1AA
330
1F
100
AcDbEntity
  8
0
  6
Continuous
 62
     7
370
    25
100
AcDbLine
 10
551.4512995335
 20
1543.9039906187
 30
0.0
 11
629.3385403308
 21
1543.9039906187
 31
0.0
  0
LINE
  5
1AB
330
1F
100
AcDbEntity
  8
0
  6
Continuous
 62
     7
370
    25
100
AcDbLine
 10
629.3385403308
 20
1553.903981082
 30
0.0
 11
551.2266608032
 21
1553.903981082
 31
0.0
  0
ARC
  5
1AC
330
1F
100
AcDbEntity
  8
0
  6
Continuous
 62
     7
370
    25
100
AcDbCircle
 10
629.338538185
 20
1544.903989757
 30
0.0
 40
1.000000000000227
100
AcDbArc
 50
270.0
 51
0.0
  0
ARC
  5
1AD
330
1F
100
AcDbEntity
  8
0
  6
Continuous
 62
     7
370
    25
100
AcDbCircle
 10
629.338538185
 20
1552.903989757
 30
0.0
 40
1.0
100
AcDbArc
 50
0.0
 51
90.0
  0
LINE
  5
1AE
330
1F
100
AcDbEntity
  8
0
  6
Continuous
 62
     7
370
    25
100
AcDbLine
 10
550.4885373714
 20
1527.5540193243
 30
0.0
 11
551.0890858325
 21
1527.7725895567
 31
0.0
  0
LINE
  5
1AF
330
1F
100
AcDbEntity
  8
0
  6
Continuous
 62
     7
370
    25
100
AcDbLine
 10
551.0890858325
 20
1535.3354056997
 30
0.0
 11
550.4885373714
 21
1535.5539759321
 31
0.0
  0
LINE
  5
1B0
330
1F
100
AcDbEntity
  8
0
  6
Continuous
 62
     7
370
    25
100
AcDbLine
 10
550.2203909757
 20
1527.5540193243
 30
0.0
 11
550.4885373714
 21
1527.5540193243
 31
0.0
  0
LINE
  5
1B1
330
1F
100
AcDbEntity
  8
0
  6
Continuous
 62
     7
370
    25
100
AcDbLine
 10
550.4885373714
 20
1535.5539759321
 30
0.0
 11
550.089687303
 21
1535.5539759321
 31
0.0
  0
ARC
  5
1B2
330
1F
100
AcDbEntity
  8
0
  6
Continuous
 62
     7
370
    25
100
AcDbCircle
 10
551.0206815263
 20
1535.1474698659
 30
0.0
 40
0.2000000000000455
100
AcDbArc
 50
0.0
 51
70.0
  0
ARC
  5
1B3
330
1F
100
AcDbEntity
  8
0
  6
Continuous
 62
     7
370
    25
100
AcDbCircle
 10
551.0206815263
 20
1527.960509648
 30
0.0
 40
0.2000000000001282
100
AcDbArc
 50
290.0
 51
0.0
  0
LINE
  5
1B4
330
1F
100
AcDbEntity
  8
0
  6
Continuous
 62
     7
370
    25
100
AcDbLine
 10
551.2206817123
 20
1527.9605230017
 30
0.0
 11
551.2206817123
 21
1535.1474722548
 31
0.0
  0
ARC
  5
1B5
330
1F
100
AcDbEntity
  8
0
  6
Continuous
 62
     7
370
    25
100
AcDbCircle
 10
455.6337524184
 20
1523.7870767296
 30
0.0
 40
1.600000003449486
100
AcDbArc
 50
292.2737390137
 51
0.0
  0
ARC
  5
1B6
330
1F
100
AcDbEntity
  8
0
  6
Continuous
 62
     7
370
    25
100
AcDbCircle
 10
455.6337524184
 20
1523.7870767296
 30
0.0
 40
1.600000003449281
100
AcDbArc
 50
0.0
 51
67.6198493491
  0
ARC
  5
1B7
330
1F
100
AcDbEntity
  8
0
  6
Continuous
 62
     7
370
    25
100
AcDbCircle
 10
455.6337526882
 20
1553.7870767396
 30
0.0
 40
1.599999998772333
100
AcDbArc
 50
292.2737304295
 51
0.0
  0
ARC
  5
1B8
330
1F
100
AcDbEntity
  8
0
  6
Continuous
 62
     7
370
    25
100
AcDbCircle
 10
455.6337526882
 20
1553.7870767396
 30
0.0
 40
1.599999998772091
100
AcDbArc
 50
0.0
 51
67.6196313027
  0
ARC
  5
1B9
330
1F
100
AcDbEntity
  8
0
  6
Continuous
 62
     7
370
    25
100
AcDbCircle
 10
455.6337525982
 20
1543.7870767396
 30
0.0
 40
1.599999998772196
100
AcDbArc
 50
292.2737348938
 51
0.0
  0
ARC
  5
1BA
330
1F
100
AcDbEntity
  8
0
  6
Continuous
 62
     7
370
    25
100
AcDbCircle
 10
455.6337525982
 20
1543.7870767396
 30
0.0
 40
1.599999998772091
100
AcDbArc
 50
0.0
 51
67.6196268899
  0
ARC
  5
1BB
330
1F
100
AcDbEntity
  8
0
  6
Continuous
 62
     7
370
    25
100
AcDbCircle
 10
455.6337525571
 20
1538.7870767284
 30
0.0
 40
1.600000004037842
100
AcDbArc
 50
292.2737368351
 51
0.0
  0
ARC
  5
1BC
330
1F
100
AcDbEntity
  8
0
  6
Continuous
 62
     7
370
    25
100
AcDbCircle
 10
455.6337525571
 20
1538.7870767284
 30
0.0
 40
1.600000004037668
100
AcDbArc
 50
0.0
 51
67.6196250316
  0
ARC
  5
1BD
330
1F
100
AcDbEntity
  8
0
  6
Continuous
 62
     7
370
    25
100
AcDbCircle
 10
455.6337525071
 20
1533.7870767284
 30
0.0
 40
1.6000000040377
100
AcDbArc
 50
292.2737491408
 51
0.0
  0
ARC
  5
1BE
330
1F
100
AcDbEntity
  8
0
  6
Continuous
 62
     7
370
    25
100
AcDbCircle
 10
455.6337525071
 20
1533.7870767284
 30
0.0
 40
1.600000004037668
100
AcDbArc
 50
0.0
 51
67.6196226381
  0
ARC
  5
1BF
330
1F
100
AcDbEntity
  8
0
  6
Continuous
 62
     7
370
    25
100
AcDbCircle
 10
455.6337524671
 20
1528.7870767284
 30
0.0
 40
1.600000004037693
100
AcDbArc
 50
292.2737511779
 51
0.0
  0
ARC
  5
1C0
330
1F
100
AcDbEntity
  8
0
  6
Continuous
 62
     7
370
    25
100
AcDbCircle
 10
455.6337524671
 20
1528.7870767284
 30
0.0
 40
1.600000004037668
100
AcDbArc
 50
0.0
 51
67.6196206414
  0
ARC
  5
1C1
330
1F
100
AcDbEntity
  8
0
  6
Continuous
 62
     7
370
    25
100
AcDbCircle
 10
455.6337523782
 20
1518.7870767396
 30
0.0
 40
1.599999993811451
100
AcDbArc
 50
292.2737557603
 51
0.0
  0
ARC
  5
1C2
330
1F
100
AcDbEntity
  8
0
  6
Continuous
 62
     7
370
    25
100
AcDbCircle
 10
455.6337523782
 20
1518.7870767396
 30
0.0
 40
1.599999993811252
100
AcDbArc
 50
0.0
 51
67.6196160395
  0
ARC
  5
1C3
330
1F
100
AcDbEntity
  8
0
  6
Continuous
 62
     7
370
    25
100
AcDbCircle
 10
455.6337522882
 20
1508.7870767396
 30
0.0
 40
1.599999993811273
100
AcDbArc
 50
292.2737602229
 51
0.0
  0
ARC
  5
1C4
330
1F
100
AcDbEntity
  8
0
  6
Continuous
 62
     7
370
    25
100
AcDbCircle
 10
455.6337522882
 20
1508.7870767396
 30
0.0
 40
1.599999993811196
100
AcDbArc
 50
0.0
 51
67.6196116433
  0
ARC
  5
1C5
330
1F
100
AcDbEntity
  8
0
  6
Continuous
 62
     7
370
    25
100
AcDbCircle
 10
455.6337522371
 20
1503.7870767284
 30
0.0
 40
1.600000004037724
100
AcDbArc
 50
292.2737624757
 51
0.0
  0
ARC
  5
1C6
330
1F
100
AcDbEntity
  8
0
  6
Continuous
 62
     7
370
    25
100
AcDbCircle
 10
455.6337522371
 20
1503.7870767284
 30
0.0
 40
1.600000004037781
100
AcDbArc
 50
0.0
 51
67.6196095044
  0
SPLINE
  5
1C7
330
1F
100
AcDbEntity
  8
0
  6
Continuous
 62
     7
370
    25
100
AcDbSpline
210
0.0
220
0.0
230
1.0
 70
     8
 71
     3
 72
    15
 73
    11
 74
     0
 42
0.000000001
 43
0.00000001
 40
0.0
 40
0.0
 40
0.0
 40
0.0
 40
0.1604208446933493
 40
0.2915796716978889
 40
0.4549036974395078
 40
0.5365013446352526
 40
0.6532612072370343
 40
0.809813643692769
 40
0.9018552795896304
 40
1.0
 40
1.0
 40
1.0
 40
1.0
 10
456.2126027497393
 20
1547.295435301791
 30
0.0
 10
456.3962011286732
 20
1547.391423667759
 30
0.0
 10
456.7299081051956
 20
1547.565891370439
 30
0.0
 10
457.0856998574788
 20
1548.042301539232
 30
0.0
 10
457.234189292892
 20
1548.51053616107
 30
0.0
 10
457.2379156605382
 20
1548.974277161959
 30
0.0
 10
457.1349434250213
 20
1549.421203804788
 30
0.0
 10
456.8812644180604
 20
1549.825059460848
 30
0.0
 10
456.5470592928397
 20
1550.121882901716
 30
0.0
 10
456.3264480704924
 20
1550.225326054491
 30
0.0
 10
456.2126027497393
 20
1550.278707377444
 30
0.0
  0
SPLINE
  5
1C8
330
1F
100
AcDbEntity
  8
0
  6
Continuous
 62
     7
370
    25
100
AcDbSpline
210
0.0
220
0.0
230
1.0
 70
     8
 71
     3
 72
    15
 73
    11
 74
     0
 42
0.000000001
 43
0.00000001
 40
0.0
 40
0.0
 40
0.0
 40
0.0
 40
0.1604130233352394
 40
0.2915722573874838
 40
0.4549116613677305
 40
0.536493979405489
 40
0.6532542042959645
 40
0.8098203566171911
 40
0.9018622780488091
 40
1.0
 40
1.0
 40
1.0
 40
1.0
 10
456.2126027497393
 20
1512.295468680392
 30
0.0
 10
456.3962026185069
 20
1512.391434102033
 30
0.0
 10
456.7299200878218
 20
1512.565864170349
 30
0.0
 10
457.0857127577008
 20
1513.042293173943
 30
0.0
 10
457.2341809929587
 20
1513.510531297312
 30
0.0
 10
457.2379156964383
 20
1513.97427103753
 30
0.0
 10
457.1349298744801
 20
1514.421190255237
 30
0.0
 10
456.8812792630822
 20
1514.825078734147
 30
0.0
 10
456.5470716716096
 20
1515.121921402938
 30
0.0
 10
456.3264495796651
 20
1515.225323128411
 30
0.0
 10
456.2126027497393
 20
1515.2786811514
 30
0.0
  0
SPLINE
  5
1C9
330
1F
100
AcDbEntity
  8
0
  6
Continuous
 62
     7
370
    25
100
AcDbSpline
210
0.0
220
0.0
230
1.0
 70
     8
 71
     3
 72
    15
 73
    11
 74
     0
 42
0.000000001
 43
0.00000001
 40
0.0
 40
0.0
 40
0.0
 40
0.0
 40
0.1604139740899907
 40
0.2915739855121915
 40
0.4549143575916061
 40
0.5364971591610311
 40
0.653258076079724
 40
0.8098119263463157
 40
0.9018543933028064
 40
1.0
 40
1.0
 40
1.0
 40
1.0
 10
456.2126027497393
 20
1497.295482985507
 30
0.0
 10
456.3962026353552
 20
1497.391448415357
 30
0.0
 10
456.7299201352942
 20
1497.565878498594
 30
0.0
 10
457.0857125924147
 20
1498.042307398527
 30
0.0
 10
457.2341816190356
 20
1498.510545907464
 30
0.0
 10
457.2379144336355
 20
1498.974284727383
 30
0.0
 10
457.1349420097358
 20
1499.421191942641
 30
0.0
 10
456.8812646529071
 20
1499.82504752981
 30
0.0
 10
456.5470592436377
 20
1500.121870982993
 30
0.0
 10
456.3264480537896
 20
1500.225314134291
 30
0.0
 10
456.2126027497393
 20
1500.278695456515
 30
0.0
  0
LINE
  5
1CA
330
1F
100
AcDbEntity
  8
0
  6
Continuous
 62
     7
370
    25
100
AcDbLine
 10
597.8385360989
 20
1493.092997901
 30
0.0
 11
597.8385360989
 21
1498.0204542799
 31
0.0
  0
LINE
  5
1CB
330
1F
100
AcDbEntity
  8
0
  6
Continuous
 62
     7
370
    25
100
AcDbLine
 10
592.8385408672
 20
1498.0204542799
 30
0.0
 11
592.8385408672
 21
1493.0981239004
 31
0.0
  0
SPLINE
  5
1CC
330
1F
100
AcDbEntity
  8
0
  6
Continuous
 62
     7
370
    25
100
AcDbSpline
210
0.0
220
0.0
230
1.0
 70
     8
 71
     3
 72
    15
 73
    11
 74
     0
 42
0.000000001
 43
0.00000001
 40
0.0
 40
0.0
 40
0.0
 40
0.0
 40
0.1315032500030888
 40
0.2734827034226728
 40
0.4502809903661799
 40
0.5386104580056039
 40
0.66500303009199
 40
0.8344710704708667
 40
0.9341061576183163
 40
1.0
 40
1.0
 40
1.0
 40
1.0
 10
456.3385399135692
 20
1547.374947897921
 30
0.0
 10
456.4766187453865
 20
1547.448819502075
 30
0.0
 10
456.7637764560131
 20
1547.602447690044
 30
0.0
 10
457.0844690387268
 20
1548.043811300684
 30
0.0
 10
457.2343726665313
 20
1548.510365216331
 30
0.0
 10
457.2378295480952
 20
1548.974270452133
 30
0.0
 10
457.1352263552379
 20
1549.421598021432
 30
0.0
 10
456.8801579634532
 20
1549.823308166621
 30
0.0
 10
456.5849446599938
 20
1550.09309350423
 30
0.0
 10
456.4086996277102
 20
1550.178065052507
 30
0.0
 10
456.3385399135692
 20
1550.211890570651
 30
0.0
  0
SPLINE
  5
1CD
330
1F
100
AcDbEntity
  8
0
  6
Continuous
 62
     7
370
    25
100
AcDbSpline
210
0.0
220
0.0
230
1.0
 70
     8
 71
     3
 72
    15
 73
    11
 74
     0
 42
0.000000001
 43
0.00000001
 40
0.0
 40
0.0
 40
0.0
 40
0.0
 40
0.1314955300927672
 40
0.2734763715282312
 40
0.4502924850429301
 40
0.5386059480252062
 40
0.6649997554908731
 40
0.8344694524647635
 40
0.934105513521605
 40
1.0
 40
1.0
 40
1.0
 40
1.0
 10
456.3385399135692
 20
1497.374995581637
 30
0.0
 10
456.4766201068342
 20
1497.448844635451
 30
0.0
 10
456.7637908586264
 20
1497.602431386755
 30
0.0
 10
457.0844806214452
 20
1498.043818960384
 30
0.0
 10
457.2343650995809
 20
1498.510374780398
 30
0.0
 10
457.2378282975833
 20
1498.974278086136
 30
0.0
 10
457.1352249558808
 20
1499.421586137381
 30
0.0
 10
456.8801582006402
 20
1499.823296239358
 30
0.0
 10
456.5849446319712
 20
1500.093081584041
 30
0.0
 10
456.4086996197313
 20
1500.178053131789
 30
0.0
 10
456.3385399135692
 20
1500.211878649722
 30
0.0
  0
LINE
  5
1CE
330
1F
100
AcDbEntity
  8
0
  6
Continuous
 62
     7
370
    25
100
AcDbLine
 10
450.3385352048
 20
615.2282715475
 30
0.0
 11
600.3385411653
 21
615.2282715475
 31
0.0
  0
LINE
  5
1CF
330
1F
100
AcDbEntity
  8
0
  6
Continuous
 62
     7
370
    25
100
AcDbLine
 10
551.3385387215
 20
625.3629000558
 30
0.0
 11
499.3385376486
 21
625.3629000558
 31
0.0
  0
LINE
  5
1D0
330
1F
100
AcDbEntity
  8
0
  6
Continuous
 62
     7
370
    25
100
AcDbLine
 10
498.7385386678
 20
1359.6204360647
 30
0.0
 11
551.9385377022
 21
1359.6204360647
 31
0.0
  0
LINE
  5
1D1
330
1F
100
AcDbEntity
  8
0
  6
Continuous
 62
     7
370
    25
100
AcDbLine
 10
551.3385387215
 20
1358.9204391165
 30
0.0
 11
499.3385376486
 21
1358.9204391165
 31
0.0
  0
LINE
  5
1D2
330
1F
100
AcDbEntity
  8
0
  6
Continuous
 62
     7
370
    25
100
AcDbLine
 10
525.338538185
 20
1329.020424716
 30
0.0
 11
551.3385387215
 21
1329.020424716
 31
0.0
  0
LINE
  5
1D3
330
1F
100
AcDbEntity
  8
0
  6
Continuous
 62
     7
370
    25
100
AcDbLine
 10
499.3385376486
 20
1329.020424716
 30
0.0
 11
525.338538185
 21
1329.020424716
 31
0.0
  0
LINE
  5
1D4
330
1F
100
AcDbEntity
  8
0
  6
Continuous
 62
     7
370
    25
100
AcDbLine
 10
499.4385374787
 20
1328.6204179449
 30
0.0
 11
551.2385388913
 21
1328.6204179449
 31
0.0
  0
LWPOLYLINE
  5
1D5
330
1F
100
AcDbEntity
  8
0
  6
Continuous
 62
     7
370
    25
100
AcDbPolyline
 90
       14
 70
   128
 43
0.0
 10
500.4549214694
 20
1527.971549861
 10
500.4977865222
 20
1527.9600461645
 10
500.8398296389
 20
1527.8683742209
 10
501.5192257318
 20
1527.6863416357
 10
502.5266690257
 20
1527.4163921995
 10
503.8483461442
 20
1527.0622810049
 10
505.4661503139
 20
1526.6287764235
 10
507.3579030189
 20
1526.1218985243
 10
509.4976836893
 20
1525.5485614462
 10
511.8561621833
 20
1524.9165733976
 10
514.4010188135
 20
1524.2346962614
 10
517.097376481
 20
1523.5122283621
 10
519.9082798402
 20
1522.7590044661
 10
522.795207294
 20
1521.9854553862
  0
LINE
  5
1D6
330
1F
100
AcDbEntity
  8
0
  6
Continuous
 62
     7
370
    25
100
AcDbLine
 10
550.3385385576
 20
1521.3039954825
 30
0.0
 11
527.9715880363
 21
1521.3039954825
 31
0.0
  0
SPLINE
  5
1D7
330
1F
100
AcDbEntity
  8
0
  6
Continuous
 62
     7
370
    25
100
AcDbSpline
210
0.0
220
0.0
230
1.0
 70
     8
 71
     3
 72
    15
 73
    11
 74
     0
 42
0.000000001
 43
0.00000001
 40
0.0
 40
0.0
 40
0.0
 40
0.0
 40
0.006864889519069
 40
0.1415785514002635
 40
0.2817224984799108
 40
0.4282683726891489
 40
0.5755200978121732
 40
0.7183802188357259
 40
0.8587445944768616
 40
0.9999999999999999
 40
0.9999999999999999
 40
0.9999999999999999
 40
0.9999999999999999
 10
549.9291403296334
 20
1542.544706694613
 30
0.0
 10
549.9285945540793
 20
1542.546894640309
 30
0.0
 10
549.9173387119948
 20
1542.592017898499
 30
0.0
 10
549.7373475385948
 20
1543.331412601613
 30
0.0
 10
549.4591792610734
 20
1544.716016625982
 30
0.0
 10
549.1829244561326
 20
1546.662598414336
 30
0.0
 10
549.0504168452535
 20
1548.838689912581
 30
0.0
 10
549.0984572258396
 20
1550.983050263552
 30
0.0
 10
549.2937461716681
 20
1552.927781158376
 30
0.0
 10
549.4502105415982
 20
1553.844285697764
 30
0.0
 10
549.5286902490002
 20
1554.30398785306
 30
0.0
  0
SPLINE
  5
1D8
330
1F
100
AcDbEntity
  8
0
  6
Continuous
 62
     7
370
    25
100
AcDbSpline
210
0.0
220
0.0
230
1.0
 70
     8
 71
     3
 72
    17
 73
    13
 74
     0
 42
0.000000001
 43
0.00000001
 40
0.0
 40
0.0
 40
0.0
 40
0.0
 40
0.1059314071571007
 40
0.2122332600448147
 40
0.3194898095274726
 40
0.4271142530184718
 40
0.5337649869466103
 40
0.6396238855386709
 40
0.7462348937815481
 40
0.8541355934046946
 40
0.961904749125334
 40
1.0
 40
1.0
 40
1.0
 40
1.0
 10
550.0896835776907
 20
1535.553141467105
 30
0.0
 10
550.0833093957189
 20
1535.510260596056
 30
0.0
 10
550.070538741044
 20
1535.424348898097
 30
0.0
 10
549.9816373753164
 20
1534.747304901008
 30
0.0
 10
549.8853482240747
 20
1533.743134859467
 30
0.0
 10
549.8240640652757
 20
1532.480336749374
 30
0.0
 10
549.834328461553
 20
1531.119696365384
 30
0.0
 10
549.9171689124155
 20
1529.816431121113
 30
0.0
 10
550.0455673261519
 20
1528.695785702293
 30
0.0
 10
550.1648659501075
 20
1527.917100024501
 30
0.0
 10
550.2320844813854
 20
1527.53899740201
 30
0.0
 10
550.2227962770352
 20
1527.591553340613
 30
0.0
 10
550.2203704866511
 20
1527.60527931882
 30
0.0
  0
SPLINE
  5
1D9
330
1F
100
AcDbEntity
  8
0
  6
Continuous
 62
     7
370
    25
100
AcDbSpline
210
0.0
220
0.0
230
1.0
 70
     8
 71
     3
 72
     9
 73
     5
 74
     0
 42
0.000000001
 43
0.00000001
 40
0.0
 40
0.0
 40
0.0
 40
0.0
 40
0.4930069144356822
 40
1.0
 40
1.0
 40
1.0
 40
1.0
 10
522.7952072939765
 20
1521.985455386172
 30
0.0
 10
523.6346505556363
 20
1521.78947547868
 30
0.0
 10
525.3373513435563
 20
1521.391955886657
 30
0.0
 10
527.0853598234858
 20
1521.333587732851
 30
0.0
 10
527.9715880363178
 20
1521.303995482455
 30
0.0
  0
LINE
  5
1DA
330
1F
100
AcDbEntity
  8
0
  6
Continuous
 62
     7
370
    25
100
AcDbLine
 10
550.2411501559
 20
1516.8039640112
 30
0.0
 11
500.4359262141
 21
1516.8039640112
 31
0.0
  0
LINE
  5
1DB
330
1F
100
AcDbEntity
  8
0
  6
Continuous
 62
     7
370
    25
100
AcDbLine
 10
500.3385378125
 20
1359.3204458876
 30
0.0
 11
550.3385385576
 21
1359.3204458876
 31
0.0
  0
LINE
  5
1DC
330
1F
100
AcDbEntity
  8
0
  6
Continuous
 62
     7
370
    25
100
AcDbLine
 10
501.9670726809
 20
1558.3039959593
 30
0.0
 11
548.7100036892
 21
1558.3039959593
 31
0.0
  0
LINE
  5
1DD
330
1F
100
AcDbEntity
  8
0
  6
Continuous
 62
     7
370
    25
100
AcDbLine
 10
521.8032870519
 20
1517.7683671637
 30
0.0
 11
501.3640990558
 21
1517.7683671637
 31
0.0
  0
LINE
  5
1DE
330
1F
100
AcDbEntity
  8
0
  6
Continuous
 62
     7
370
    25
100
AcDbLine
 10
549.3129773143
 20
1517.7683671637
 30
0.0
 11
521.8032870519
 21
1517.7683671637
 31
0.0
  0
LINE
  5
1DF
330
1F
100
AcDbEntity
  8
0
  6
Continuous
 62
     7
370
    25
100
AcDbLine
 10
547.8385390791
 20
1359.5204194708
 30
0.0
 11
502.838537291
 21
1359.5204194708
 31
0.0
  0
SPLINE
  5
1E0
330
1F
100
AcDbEntity
  8
0
  6
Continuous
 62
     7
370
    25
100
AcDbSpline
210
0.0
220
0.0
230
1.0
 70
     8
 71
     3
 72
    13
 73
     9
 74
     0
 42
0.000000001
 43
0.00000001
 40
0.0
 40
0.0
 40
0.0
 40
0.0
 40
0.160500329476825
 40
0.3284531561460462
 40
0.5000003135907358
 40
0.6715474016138717
 40
0.8394988093028676
 40
1.0
 40
1.0
 40
1.0
 40
1.0
 10
551.4308886679751
 20
1457.063539855013
 30
0.0
 10
551.4582799329914
 20
1457.298367885074
 30
0.0
 10
551.5143343191398
 20
1457.778927693744
 30
0.0
 10
551.8787117131022
 20
1458.42639333383
 30
0.0
 10
552.339780473809
 20
1459.016381521021
 30
0.0
 10
552.9247701616702
 20
1459.48376055502
 30
0.0
 10
553.5682282813486
 20
1459.855175086699
 30
0.0
 10
554.0481596259655
 20
1459.91640028109
 30
0.0
 10
554.2826822104794
 20
1459.946318499575
 30
0.0
  0
SPLINE
  5
1E1
330
1F
100
AcDbEntity
  8
0
  6
Continuous
 62
     7
370
    25
100
AcDbSpline
210
0.0
220
0.0
230
1.0
 70
     8
 71
     3
 72
    13
 73
     9
 74
     0
 42
0.000000001
 43
0.00000001
 40
0.0
 40
0.0
 40
0.0
 40
0.0
 40
0.1606534351633397
 40
0.3285639475418353
 40
0.4999951194871727
 40
0.6714262169003163
 40
0.8393450489983965
 40
0.9999999999999999
 40
0.9999999999999999
 40
0.9999999999999999
 40
0.9999999999999999
 10
551.0619135650736
 20
1496.150894991885
 30
0.0
 10
551.0933525217768
 20
1495.916745900644
 30
0.0
 10
551.1576506036103
 20
1495.437870676761
 30
0.0
 10
551.5297365773062
 20
1494.796439300128
 30
0.0
 10
551.9961488403043
 20
1494.212715808897
 30
0.0
 10
552.5835450404355
 20
1493.750900969035
 30
0.0
 10
553.2279645669281
 20
1493.383999871876
 30
0.0
 10
553.7073386646024
 20
1493.323464233245
 30
0.0
 10
553.9417268785578
 20
1493.293865553866
 30
0.0
  0
LINE
  5
1E2
330
1F
100
AcDbEntity
  8
0
  6
Continuous
 62
     7
370
    25
100
AcDbLine
 10
458.854124144
 20
1573.8704641981
 30
0.0
 11
425.8229510936
 21
1573.8704641981
 31
0.0
  0
LINE
  5
1E3
330
1F
100
AcDbEntity
  8
0
  6
Continuous
 62
     7
370
    25
100
AcDbLine
 10
442.3385413441
 20
1563.3704503698
 30
0.0
 11
459.2609556469
 21
1563.3704503698
 31
0.0
  0
LINE
  5
1E4
330
1F
100
AcDbEntity
  8
0
  6
Continuous
 62
     7
370
    25
100
AcDbLine
 10
425.4161195907
 20
1563.3704503698
 30
0.0
 11
442.3385413441
 21
1563.3704503698
 31
0.0
  0
SPLINE
  5
1E5
330
1F
100
AcDbEntity
  8
0
  6
Continuous
 62
     7
370
    25
100
AcDbSpline
210
0.0
220
0.0
230
1.0
 70
    24
 71
     3
 72
    23
 73
    19
 74
     0
 42
0.000000001
 43
0.00000001
 40
0.0
 40
0.0
 40
0.0
 40
0.0
 40
0.0624999909176709
 40
0.1249999866561046
 40
0.1874999690126954
 40
0.250000054618563
 40
0.3124999671985224
 40
0.3750000043903461
 40
0.437499956011525
 40
0.5000000702042132
 40
0.562500021266533
 40
0.6249999728877118
 40
0.6875000100795355
 40
0.750000049371071
 40
0.8125000309873142
 40
0.8750000133439051
 40
0.9375000090823388
 40
1.0
 40
1.0
 40
1.0
 40
1.0
 10
427.8472514900309
 20
1489.137395255099
 30
0.0
 10
427.9011825771544
 20
1489.137395255099
 30
0.0
 10
428.0090447555611
 20
1489.137395255099
 30
0.0
 10
428.8707370469217
 20
1489.137395255099
 30
0.0
 10
430.2100010614868
 20
1489.137395255098
 30
0.0
 10
432.0260821369138
 20
1489.137395255099
 30
0.0
 10
434.2355811034624
 20
1489.137395255099
 30
0.0
 10
436.7572484474884
 20
1489.137395255099
 30
0.0
 10
439.493195439075
 20
1489.137395255099
 30
0.0
 10
442.3385389323698
 20
1489.137395255099
 30
0.0
 10
445.1838820427501
 20
1489.137395255099
 30
0.0
 10
447.9198272304794
 20
1489.137395255099
 30
0.0
 10
450.4414942128051
 20
1489.137395255099
 30
0.0
 10
452.6510008174959
 20
1489.137395255099
 30
0.0
 10
454.4670730981156
 20
1489.137395255099
 30
0.0
 10
455.8063386761921
 20
1489.137395255099
 30
0.0
 10
456.6680303606362
 20
1489.137395255099
 30
0.0
 10
456.7758926199651
 20
1489.137395255099
 30
0.0
 10
456.8298237475497
 20
1489.137395255099
 30
0.0
  0
SPLINE
  5
1E6
330
1F
100
AcDbEntity
  8
0
  6
Continuous
 62
     7
370
    25
100
AcDbSpline
210
0.0
220
0.0
230
1.0
 70
    24
 71
     3
 72
    23
 73
    19
 74
     0
 42
0.000000001
 43
0.00000001
 40
0.0
 40
0.0
 40
0.0
 40
0.0
 40
0.0625000015047458
 40
0.1249999818738302
 40
0.1875000219546061
 40
0.2500000080181247
 40
0.312499974567597
 40
0.3749999954342049
 40
0.437499991984137
 40
0.5000000618498142
 40
0.5624999837874406
 40
0.6249999803373727
 40
0.6875000012039806
 40
0.7499999677534529
 40
0.8125000481156629
 40
0.8750000181261788
 40
0.9374999984952631
 40
1.0
 40
1.0
 40
1.0
 40
1.0
 10
426.358007088576
 20
1359.020455710421
 30
0.0
 10
426.4174822228351
 20
1359.020455710421
 30
0.0
 10
426.5364324712407
 20
1359.020455710421
 30
0.0
 10
427.4866700840842
 20
1359.020455710421
 30
0.0
 10
428.9635802540127
 20
1359.020455710421
 30
0.0
 10
430.9662846157793
 20
1359.020455710421
 30
0.0
 10
433.4028553747862
 20
1359.020455710421
 30
0.0
 10
436.1836685955196
 20
1359.020455710421
 30
0.0
 10
439.2007854130801
 20
1359.020455710421
 30
0.0
 10
442.3385388893437
 20
1359.020455710421
 30
0.0
 10
445.476292240852
 20
1359.020455710421
 30
0.0
 10
448.4934064800743
 20
1359.020455710421
 30
0.0
 10
451.2742204747416
 20
1359.020455710421
 30
0.0
 10
453.7107895614161
 20
1359.020455710421
 30
0.0
 10
455.713504671734
 20
1359.020455710421
 30
0.0
 10
457.1904030476318
 20
1359.020455710421
 30
0.0
 10
458.1406433815842
 20
1359.020455710421
 30
0.0
 10
458.259593219827
 20
1359.020455710421
 30
0.0
 10
458.3190681490046
 20
1359.020455710421
 30
0.0
  0
LINE
  5
1E7
330
1F
100
AcDbEntity
  8
0
  6
Continuous
 62
     7
370
    25
100
AcDbLine
 10
660.3395866307
 20
1460.2560838385
 30
0.0
 11
608.2399340424
 21
1460.1651271505
 31
0.0
  0
LINE
  5
1E8
330
1F
100
AcDbEntity
  8
0
  6
Continuous
 62
     7
370
    25
100
AcDbLine
 10
598.7399371418
 20
1493.0923422499
 30
0.0
 11
660.3395866307
 21
1492.9848154707
 31
0.0
  0
LINE
  5
1E9
330
1F
100
AcDbEntity
  8
0
  6
Continuous
 62
     7
370
    25
100
AcDbLine
 10
554.5927660617
 20
1493.1693514509
 30
0.0
 11
591.939933792
 21
1493.1042035742
 31
0.0
  0
LINE
  5
1EA
330
1F
100
AcDbEntity
  8
0
  6
Continuous
 62
     7
370
    25
100
AcDbLine
 10
582.4399331662
 20
1460.1201256437
 30
0.0
 11
554.9328906539
 21
1460.0720843001
 31
0.0
  0
SPLINE
  5
1EB
330
1F
100
AcDbEntity
  8
0
  6
Continuous
 62
     7
370
    25
100
AcDbSpline
210
0.0
220
0.0
230
1.0
 70
     8
 71
     3
 72
    18
 73
    14
 74
     0
 42
0.000000001
 43
0.00000001
 40
0.0
 40
0.0
 40
0.0
 40
0.0
 40
0.0051053404515884
 40
0.1113448197195151
 40
0.2176105959788899
 40
0.3249092706454038
 40
0.4326582460363032
 40
0.539530445928737
 40
0.6455643277263213
 40
0.752116104549755
 40
0.8597467699280844
 40
0.9673500740320101
 40
1.0
 40
1.0
 40
1.0
 40
1.0
 10
597.8321360501391
 20
1493.092938296328
 30
0.0
 10
597.8342582978087
 20
1493.093250271677
 30
0.0
 10
597.8805434156003
 20
1493.100054291774
 30
0.0
 10
597.7110661206979
 20
1493.074441870867
 30
0.0
 10
597.3168277127738
 20
1493.021105963692
 30
0.0
 10
596.66884463273
 20
1492.953847512511
 30
0.0
 10
595.8768342942293
 20
1492.9083157593
 30
0.0
 10
595.0235737573464
 20
1492.903782562735
 30
0.0
 10
594.2119767476581
 20
1492.942464150702
 30
0.0
 10
593.5193925011033
 20
1493.008516594891
 30
0.0
 10
593.0468664352125
 20
1493.070585079591
 30
0.0
 10
592.8232216524649
 20
1493.104930029751
 30
0.0
 10
592.859774377899
 20
1493.099409126349
 30
0.0
 10
592.8682835849863
 20
1493.098123900424
 30
0.0
  0
SPLINE
  5
1EC
330
1F
100
AcDbEntity
  8
0
  6
Continuous
 62
     7
370
    25
100
AcDbSpline
210
0.0
220
0.0
230
1.0
 70
     8
 71
     3
 72
    19
 73
    15
 74
     0
 42
0.000000001
 43
0.00000001
 40
0.0
 40
0.0
 40
0.0
 40
0.0
 40
0.0569572837583165
 40
0.145474027118747
 40
0.2409371770102024
 40
0.3507232750415499
 40
0.4443307253611151
 40
0.538519162485927
 40
0.6204860485110023
 40
0.7305595691905763
 40
0.8418360701000938
 40
0.8975825331049175
 40
0.9555392279070455
 40
1.0
 40
1.0
 40
1.0
 40
1.0
 10
585.0561188611133
 20
1460.19850575162
 30
0.0
 10
585.0442140515433
 20
1460.191160373063
 30
0.0
 10
585.0138080968359
 20
1460.172399615373
 30
0.0
 10
585.9849997801861
 20
1460.778031647661
 30
0.0
 10
587.7797664054824
 20
1461.795674824726
 30
0.0
 10
590.338167705918
 20
1462.976335831368
 30
0.0
 10
593.4332667296735
 20
1463.819847937056
 30
0.0
 10
596.5310489353608
 20
1463.903070292338
 30
0.0
 10
599.607471697598
 20
1463.251335749159
 30
0.0
 10
602.3655093054847
 20
1462.109197313038
 30
0.0
 10
604.2507711656573
 20
1461.065766793054
 30
0.0
 10
605.2233447081132
 20
1460.483024007088
 30
0.0
 10
605.7131510675563
 20
1460.177006955878
 30
0.0
 10
605.643363599661
 20
1460.22059263118
 30
0.0
 10
605.61306794015
 20
1460.239513747225
 30
0.0
  0
LINE
  5
1ED
330
1F
100
AcDbEntity
  8
0
  6
Continuous
 62
     7
370
    25
100
AcDbLine
 10
748.7119363698
 20
1454.2016228361
 30
0.0
 11
742.3818932923
 21
1461.7454847021
 31
0.0
  0
LINE
  5
1EE
330
1F
100
AcDbEntity
  8
0
  6
Continuous
 62
     7
370
    25
100
AcDbLine
 10
717.4394207152
 20
1440.8162673636
 30
0.0
 11
720.4191016111
 21
1437.2652610464
 31
0.0
  0
LWPOLYLINE
  5
1EF
330
1F
100
AcDbEntity
  8
0
  6
Continuous
 62
     7
370
    25
100
AcDbPolyline
 90
       22
 70
   128
 43
0.0
 10
748.3128683719
 20
1451.938434474
 10
748.1605487022
 20
1451.8504580183
 10
747.7071510705
 20
1451.5887340231
 10
746.9633000049
 20
1451.1592229529
 10
745.9464298638
 20
1450.5721768065
 10
744.6803974065
 20
1449.8411854429
 10
743.1948410424
 20
1448.9835342093
 10
741.5246145877
 20
1448.0191906614
 10
739.7088484916
 20
1446.9708641691
 10
737.7901004705
 20
1445.863111846
 10
735.81335713
 20
1444.7218021078
 10
733.8249461803
 20
1443.5738166494
 10
731.8714635524
 20
1442.445977561
 10
729.9987154159
 20
1441.3647493048
 10
728.2505856904
 20
1440.3554638548
 10
726.6680525693
 20
1439.441784255
 10
725.2882050428
 20
1438.645108573
 10
724.1433935317
 20
1437.9841526671
 10
723.2604401263
 20
1437.4744137449
 10
722.6600574407
 20
1437.1277531309
 10
722.3563121709
 20
1436.952396266
 10
722.3181651982
 20
1436.9304021521
  0
LINE
  5
1F0
330
1F
100
AcDbEntity
  8
0
  6
Continuous
 62
     7
370
    25
100
AcDbLine
 10
456.0457469973
 20
1329.020424716
 30
0.0
 11
431.2080593857
 21
1329.020424716
 31
0.0
  0
SPLINE
  5
1F1
330
1F
100
AcDbEntity
  8
0
  6
Continuous
 62
     7
370
    25
100
AcDbSpline
210
0.0
220
0.0
230
1.0
 70
     8
 71
     3
 72
     9
 73
     5
 74
     0
 42
0.000000001
 43
0.00000001
 40
0.0
 40
0.0
 40
0.0
 40
0.0
 40
0.8754109986493345
 40
0.9999999999999999
 40
0.9999999999999999
 40
0.9999999999999999
 40
0.9999999999999999
 10
430.2537964734179
 20
1359.020455710421
 30
0.0
 10
430.5301156698669
 20
1350.266268316539
 30
0.0
 10
430.8457607747093
 20
1340.266179892487
 30
0.0
 10
431.1679216802018
 20
1330.266299791424
 30
0.0
 10
431.2080593856913
 20
1329.020424716006
 30
0.0
  0
SPLINE
  5
1F2
330
1F
100
AcDbEntity
  8
0
  6
Continuous
 62
     7
370
    25
100
AcDbSpline
210
0.0
220
0.0
230
1.0
 70
    24
 71
     3
 72
     8
 73
     4
 74
     0
 42
0.000000001
 43
0.00000001
 40
0.0
 40
0.0
 40
0.0
 40
0.0
 40
1.0
 40
1.0
 40
1.0
 40
1.0
 10
452.3385381834053
 20
1494.72799172473
 30
0.0
 10
452.3385381834053
 20
1516.24836392473
 30
0.0
 10
452.3385381834052
 20
1537.77173453473
 30
0.0
 10
452.3385381834052
 20
1559.29634918473
 30
0.0
  0
LINE
  5
1F3
330
1F
100
AcDbEntity
  8
0
  6
Continuous
 62
     7
370
    25
100
AcDbLine
 10
452.8208972963
 20
1557.3204597159
 30
0.0
 11
456.6336350593
 21
1557.3204597159
 31
0.0
  0
SPLINE
  5
1F4
330
1F
100
AcDbEntity
  8
0
  6
Continuous
 62
     7
370
    25
100
AcDbSpline
210
0.0
220
0.0
230
1.0
 70
     8
 71
     3
 72
    11
 73
     7
 74
     0
 42
0.000000001
 43
0.00000001
 40
0.0
 40
0.0
 40
0.0
 40
0.0
 40
0.2111165670196251
 40
0.5000360542042103
 40
0.8105007609174342
 40
1.0
 40
1.0
 40
1.0
 40
1.0
 10
452.8208951391974
 20
1557.320435947833
 30
0.0
 10
452.8053961341312
 20
1557.319984533776
 30
0.0
 10
452.7686862659914
 20
1557.318915345757
 30
0.0
 10
452.7035307081243
 20
1557.310168423897
 30
0.0
 10
452.6401309215906
 20
1557.296451204954
 30
0.0
 10
452.5985103140957
 20
1557.284765884328
 30
0.0
 10
452.5827350296641
 20
1557.280336846223
 30
0.0
  0
LINE
  5
1F5
330
1F
100
AcDbEntity
  8
0
  6
Continuous
 62
     7
370
    25
100
AcDbLine
 10
601.911790863
 20
1424.7419079466
 30
0.0
 11
602.9262917194
 21
1432.3204597159
 31
0.0
  0
ELLIPSE
  5
1F6
330
1F
100
AcDbEntity
  8
0
  6
Continuous
 62
     7
370
    25
100
AcDbEllipse
 10
595.5406048747
 20
1423.3407841542
 30
0.0
 11
8.256466773992202
 21
8.281299052635859
 31
0.0
210
0.0
220
0.0
230
1.0
 40
0.6634061585
 41
0.1435380407129979
 42
1.025180595206576
  0
LINE
  5
1F7
330
1F
100
AcDbEntity
  8
0
  6
Continuous
 62
     7
370
    25
100
AcDbLine
 10
595.1290505084
 20
1432.3204597159
 30
0.0
 11
596.1435513648
 21
1424.7419079466
 31
0.0
  0
LINE
  5
1F8
330
1F
100
AcDbEntity
  8
0
  6
Continuous
 62
     7
370
    25
100
AcDbLine
 10
583.8385375294
 20
1453.3204277678
 30
0.0
 11
606.8385394367
 21
1453.3204277678
 31
0.0
  0
SPLINE
  5
1F9
330
1F
100
AcDbEntity
  8
0
  6
Continuous
 62
     7
370
    25
100
AcDbSpline
210
0.0
220
0.0
230
1.0
 70
     8
 71
     3
 72
    14
 73
    10
 74
     0
 42
0.000000001
 43
0.00000001
 40
0.0
 40
0.0
 40
0.0
 40
0.0
 40
0.1017603521313102
 40
0.2018425807106796
 40
0.3013048025282808
 40
0.4012248540131159
 40
0.5026659988762802
 40
0.747675781100488
 40
1.0
 40
1.0
 40
1.0
 40
1.0
 10
452.3385381834053
 20
1495.135517715546
 30
0.0
 10
452.339031208258
 20
1495.11860037277
 30
0.0
 10
452.3400091275218
 20
1495.08504467005
 30
0.0
 10
452.3481457059384
 20
1495.037882600152
 30
0.0
 10
452.3612134560195
 20
1494.994315295286
 30
0.0
 10
452.3796420061374
 20
1494.954685380433
 30
0.0
 10
452.4143412204643
 20
1494.902848287735
 30
0.0
 10
452.4752043632236
 20
1494.848229186989
 30
0.0
 10
452.5429450727562
 20
1494.824415920148
 30
0.0
 10
452.5773135687406
 20
1494.812334172386
 30
0.0
  0
LINE
  5
1FA
330
1F
100
AcDbEntity
  8
0
  6
Continuous
 62
     7
370
    25
100
AcDbLine
 10
602.9262917194
 20
1432.3204597159
 30
0.0
 11
595.1290505084
 21
1432.3204597159
 31
0.0
  0
SPLINE
  5
1FB
330
1F
100
AcDbEntity
  8
0
  6
Continuous
 62
     7
370
    25
100
AcDbSpline
210
0.0
220
0.0
230
1.0
 70
     8
 71
     3
 72
    30
 73
    26
 74
     0
 42
0.000000001
 43
0.00000001
 40
0.0
 40
0.0
 40
0.0
 40
0.0
 40
0.0312499999999852
 40
0.0312499999999852
 40
0.0624999999999704
 40
0.0624999999999704
 40
0.1249999999999694
 40
0.1249999999999694
 40
0.2499999999999722
 40
0.2499999999999722
 40
0.374999999999975
 40
0.374999999999975
 40
0.4999999999999778
 40
0.4999999999999778
 40
0.6249999999999806
 40
0.6249999999999806
 40
0.7499999999999833
 40
0.7499999999999833
 40
0.8124999999999875
 40
0.8124999999999875
 40
0.8749999999999917
 40
0.8749999999999917
 40
0.9374999999999958
 40
0.9374999999999958
 40
1.0
 40
1.0
 40
1.0
 40
1.0
 10
596.1435538189999
 20
1424.741908462764
 30
0.0
 10
596.1546661730046
 20
1424.669933106522
 30
0.0
 10
596.1813030166297
 20
1424.600560439469
 30
0.0
 10
596.2526130401739
 20
1424.47685418478
 30
0.0
 10
596.2977348690728
 20
1424.420842227185
 30
0.0
 10
596.4447113397777
 20
1424.272045632515
 30
0.0
 10
596.5609028838225
 20
1424.193866701502
 30
0.0
 10
596.9193502879615
 20
1423.999862708936
 30
0.0
 10
597.1802620290961
 20
1423.918304759662
 30
0.0
 10
597.6988635081841
 20
1423.798172838023
 30
0.0
 10
597.9607637422856
 20
1423.760236037609
 30
0.0
 10
598.4876190463318
 20
1423.710367858569
 30
0.0
 10
598.7526183691643
 20
1423.698813199041
 30
0.0
 10
599.2852715775185
 20
1423.698301828263
 30
0.0
 10
599.554018595884
 20
1423.709464958976
 30
0.0
 10
600.0865878758666
 20
1423.759100988213
 30
0.0
 10
600.3532843269527
 20
1423.797520391402
 30
0.0
 10
600.7448959070691
 20
1423.888104320649
 30
0.0
 10
600.8740286988437
 20
1423.923848436347
 30
0.0
 10
601.1281739312113
 20
1424.011618175887
 30
0.0
 10
601.2542466107511
 20
1424.063915965158
 30
0.0
 10
601.4945579345801
 20
1424.19388016753
 30
0.0
 10
601.608075068363
 20
1424.269868318368
 30
0.0
 10
601.8062536549825
 20
1424.469684600677
 30
0.0
 10
601.8891579204429
 20
1424.595323575099
 30
0.0
 10
601.9117893990326
 20
1424.741907892405
 30
0.0
  0
LINE
  5
1FC
330
1F
100
AcDbEntity
  8
0
  6
Continuous
 62
     7
370
    25
100
AcDbLine
 10
586.834218547
 20
1423.320456378
 30
0.0
 11
603.8428546938
 21
1423.320456378
 31
0.0
  0
LINE
  5
1FD
330
1F
100
AcDbEntity
  8
0
  6
Continuous
 62
     7
370
    25
100
AcDbLine
 10
452.6742698702
 20
1557.2870811148
 30
0.0
 11
456.3385399136
 21
1557.2870811148
 31
0.0
  0
LINE
  5
1FE
330
1F
100
AcDbEntity
  8
0
  6
Continuous
 62
     7
370
    25
100
AcDbLine
 10
456.3385399136
 20
1494.987054698
 30
0.0
 11
452.6764305386
 21
1494.987054698
 31
0.0
  0
SPLINE
  5
1FF
330
1F
100
AcDbEntity
  8
0
  6
Continuous
 62
     7
370
    25
100
AcDbSpline
210
0.0
220
0.0
230
1.0
 70
     8
 71
     3
 72
    10
 73
     6
 74
     0
 42
0.000000001
 43
0.00000001
 40
0.0
 40
0.0
 40
0.0
 40
0.0
 40
0.1142938181476293
 40
0.5420593792704814
 40
1.0
 40
1.0
 40
1.0
 40
1.0
 10
452.3385392579181
 20
1495.143099658022
 30
0.0
 10
452.3495164306854
 20
1495.130676336673
 30
0.0
 10
452.4015776843284
 20
1495.071756458342
 30
0.0
 10
452.5171005725953
 20
1495.003341289193
 30
0.0
 10
452.6221278279322
 20
1494.992605480889
 30
0.0
 10
452.6764305385692
 20
1494.987054698001
 30
0.0
  0
SPLINE
  5
200
330
1F
100
AcDbEntity
  8
0
  6
Continuous
 62
     7
370
    25
100
AcDbSpline
210
0.0
220
0.0
230
1.0
 70
     8
 71
     3
 72
    15
 73
    11
 74
     0
 42
0.000000001
 43
0.00000001
 40
0.0
 40
0.0
 40
0.0
 40
0.0
 40
0.1373796194215499
 40
0.2660309339551721
 40
0.3863777801870586
 40
0.4991538551878853
 40
0.6268217668160547
 40
0.7493850723179425
 40
0.8753275663207608
 40
1.0
 40
1.0
 40
1.0
 40
1.0
 10
453.200046577051
 20
1512.526506567741
 30
0.0
 10
453.2210478305904
 20
1512.507290440459
 30
0.0
 10
453.2617160397239
 20
1512.470079067263
 30
0.0
 10
453.3230889369524
 20
1512.424976148404
 30
0.0
 10
453.3813558639071
 20
1512.388554975641
 30
0.0
 10
453.4402986286699
 20
1512.358432494204
 30
0.0
 10
453.5002500140256
 20
1512.334509037905
 30
0.0
 10
453.5626809607755
 20
1512.316906956543
 30
0.0
 10
453.6244328686724
 20
1512.305822941808
 30
0.0
 10
453.6657347881837
 20
1512.304496890175
 30
0.0
 10
453.6862810935004
 20
1512.303837224424
 30
0.0
  0
LINE
  5
201
330
1F
100
AcDbEntity
  8
0
  6
Continuous
 62
     7
370
    25
100
AcDbLine
 10
453.6862822327
 20
1515.2703365011
 30
0.0
 11
453.9287613782
 21
1515.1910027189
 31
0.0
  0
SPLINE
  5
202
330
1F
100
AcDbEntity
  8
0
  6
Continuous
 62
     7
370
    25
100
AcDbSpline
210
0.0
220
0.0
230
1.0
 70
     8
 71
     3
 72
     9
 73
     5
 74
     0
 42
0.000000001
 43
0.00000001
 40
0.0
 40
0.0
 40
0.0
 40
0.0
 40
0.2508235110114262
 40
1.0
 40
1.0
 40
1.0
 40
1.0
 10
453.9310263547046
 20
1512.371881834994
 30
0.0
 10
453.9119447537657
 20
1512.359567465304
 30
0.0
 10
453.8358689470684
 20
1512.310471710126
 30
0.0
 10
453.750350581521
 20
1512.306665130568
 30
0.0
 10
453.6862822326762
 20
1512.30381333066
 30
0.0
  0
SPLINE
  5
203
330
1F
100
AcDbEntity
  8
0
  6
Continuous
 62
     7
370
    25
100
AcDbSpline
210
0.0
220
0.0
230
1.0
 70
     8
 71
     3
 72
    13
 73
     9
 74
     0
 42
0.000000001
 43
0.00000001
 40
0.0
 40
0.0
 40
0.0
 40
0.0
 40
0.1272671432116477
 40
0.2559574303528072
 40
0.3810916898843373
 40
0.5118028035259761
 40
0.7400793816718984
 40
1.0
 40
1.0
 40
1.0
 40
1.0
 10
453.6862810658537
 20
1515.270316298048
 30
0.0
 10
453.6653041771237
 20
1515.269628970616
 30
0.0
 10
453.6231158290502
 20
1515.268246629827
 30
0.0
 10
453.560053589965
 20
1515.25667629807
 30
0.0
 10
453.496232058462
 20
1515.23832841925
 30
0.0
 10
453.4163764045782
 20
1515.205587683736
 30
0.0
 10
453.3154872356675
 20
1515.14877304844
 30
0.0
 10
453.240091666109
 20
1515.082674166736
 30
0.0
 10
453.1999503805784
 20
1515.047482522196
 30
0.0
  0
SPLINE
  5
204
330
1F
100
AcDbEntity
  8
0
  6
Continuous
 62
     7
370
    25
100
AcDbSpline
210
0.0
220
0.0
230
1.0
 70
     8
 71
     3
 72
    20
 73
    16
 74
     0
 42
0.000000001
 43
0.00000001
 40
0.0
 40
0.0
 40
0.0
 40
0.0
 40
0.0443058087159248
 40
0.0873873443838094
 40
0.1294366084629155
 40
0.1706600293348258
 40
0.2112766297249314
 40
0.2515153431339702
 40
0.3768201829068259
 40
0.4963703532685622
 40
0.6147497410819852
 40
0.7386675324709768
 40
0.8224586848681307
 40
0.908920739860795
 40
1.0
 40
1.0
 40
1.0
 40
1.0
 10
453.1999491921574
 20
1512.526614194583
 30
0.0
 10
453.1752075541527
 20
1512.551270162448
 30
0.0
 10
453.1264079474284
 20
1512.59990079616
 30
0.0
 10
453.0571421412541
 20
1512.681013697087
 30
0.0
 10
452.9924361251157
 20
1512.766781562985
 30
0.0
 10
452.9326052768961
 20
1512.857810841335
 30
0.0
 10
452.8777309853456
 20
1512.953990151484
 30
0.0
 10
452.7929251004778
 20
1513.126458122477
 30
0.0
 10
452.6997125419676
 20
1513.394275641109
 30
0.0
 10
452.656771256638
 20
1513.773999510692
 30
0.0
 10
452.6940852607115
 20
1514.153526280945
 30
0.0
 10
452.7963108207668
 20
1514.463081053629
 30
0.0
 10
452.9213723207171
 20
1514.705224168458
 30
0.0
 10
453.0509589527564
 20
1514.893553701981
 30
0.0
 10
453.1494008252257
 20
1514.995288334873
 30
0.0
 10
453.1999018193439
 20
1515.047478525575
 30
0.0
  0
SPLINE
  5
205
330
1F
100
AcDbEntity
  8
0
  6
Continuous
 62
     7
370
    25
100
AcDbSpline
210
0.0
220
0.0
230
1.0
 70
     8
 71
     3
 72
    15
 73
    11
 74
     0
 42
0.000000001
 43
0.00000001
 40
0.0
 40
0.0
 40
0.0
 40
0.0
 40
0.1373796238406986
 40
0.2660309408242508
 40
0.3863777873627943
 40
0.4991538603160716
 40
0.6268217720046935
 40
0.749385075091823
 40
0.8753275681198798
 40
1.0
 40
1.0
 40
1.0
 40
1.0
 10
453.2000465173357
 20
1497.526506822655
 30
0.0
 10
453.2210477781036
 20
1497.507290677985
 30
0.0
 10
453.2617160009766
 20
1497.470079271354
 30
0.0
 10
453.3230889213568
 20
1497.424976311846
 30
0.0
 10
453.3813558703994
 20
1497.38855510662
 30
0.0
 10
453.4402986580247
 20
1497.358432598201
 30
0.0
 10
453.5002500668835
 20
1497.334509120358
 30
0.0
 10
453.5626810385918
 20
1497.31690702271
 30
0.0
 10
453.6244329709029
 20
1497.305822997348
 30
0.0
 10
453.6657349067003
 20
1497.304496943868
 30
0.0
 10
453.6862812200497
 20
1497.303837277202
 30
0.0
  0
LINE
  5
206
330
1F
100
AcDbEntity
  8
0
  6
Continuous
 62
     7
370
    25
100
AcDbLine
 10
453.6862822327
 20
1500.2702912016
 30
0.0
 11
453.9287613782
 21
1500.1910170241
 31
0.0
  0
SPLINE
  5
207
330
1F
100
AcDbEntity
  8
0
  6
Continuous
 62
     7
370
    25
100
AcDbSpline
210
0.0
220
0.0
230
1.0
 70
     8
 71
     3
 72
     9
 73
     5
 74
     0
 42
0.000000001
 43
0.00000001
 40
0.0
 40
0.0
 40
0.0
 40
0.0
 40
0.2508604041200385
 40
1.0
 40
1.0
 40
1.0
 40
1.0
 10
453.9310263547046
 20
1497.371896140109
 30
0.0
 10
453.9119452965813
 20
1497.359558529301
 30
0.0
 10
453.8358828418862
 20
1497.310377348831
 30
0.0
 10
453.7503547287714
 20
1497.306632814621
 30
0.0
 10
453.6862822326762
 20
1497.303827635775
 30
0.0
  0
SPLINE
  5
208
330
1F
100
AcDbEntity
  8
0
  6
Continuous
 62
     7
370
    25
100
AcDbSpline
210
0.0
220
0.0
230
1.0
 70
     8
 71
     3
 72
    13
 73
     9
 74
     0
 42
0.000000001
 43
0.00000001
 40
0.0
 40
0.0
 40
0.0
 40
0.0
 40
0.1272671582956047
 40
0.2559574600278775
 40
0.3810917064248727
 40
0.5118028063701995
 40
0.7400793790012555
 40
1.0
 40
1.0
 40
1.0
 40
1.0
 10
453.68628119715
 20
1500.270316245269
 30
0.0
 10
453.6653042979267
 20
1500.269628916617
 30
0.0
 10
453.6231159288581
 20
1500.268246573376
 30
0.0
 10
453.5600536609413
 20
1500.256676228931
 30
0.0
 10
453.4962321046737
 20
1500.238328332741
 30
0.0
 10
453.4163764233639
 20
1500.205587569255
 30
0.0
 10
453.3154872178889
 20
1500.14877288422
 30
0.0
 10
453.2400916239799
 20
1500.082673945201
 30
0.0
 10
453.1999503248387
 20
1500.04748226958
 30
0.0
  0
SPLINE
  5
209
330
1F
100
AcDbEntity
  8
0
  6
Continuous
 62
     7
370
    25
100
AcDbSpline
210
0.0
220
0.0
230
1.0
 70
     8
 71
     3
 72
    20
 73
    16
 74
     0
 42
0.000000001
 43
0.00000001
 40
0.0
 40
0.0
 40
0.0
 40
0.0
 40
0.044305796681899
 40
0.0873873211397952
 40
0.1294365746432508
 40
0.1706599853645715
 40
0.2112765758037758
 40
0.2515152792251903
 40
0.376820119740982
 40
0.4963702958519818
 40
0.6147497058225574
 40
0.738667518083749
 40
0.8224586760823255
 40
0.9089207360493223
 40
1.0
 40
1.0
 40
1.0
 40
1.0
 10
453.1999490449414
 20
1497.526614556182
 30
0.0
 10
453.1752074263065
 20
1497.551270521928
 30
0.0
 10
453.1264078575119
 20
1497.599901151733
 30
0.0
 10
453.0571421068174
 20
1497.681014036816
 30
0.0
 10
452.9924361430338
 20
1497.766781880112
 30
0.0
 10
452.932605343829
 20
1497.857811128433
 30
0.0
 10
452.877731097757
 20
1497.953990401246
 30
0.0
 10
452.7929252705787
 20
1498.126458323444
 30
0.0
 10
452.6997127742108
 20
1498.394275771489
 30
0.0
 10
452.6567715183388
 20
1498.773999547679
 30
0.0
 10
452.6940855109683
 20
1499.153526244088
 30
0.0
 10
452.7963110365792
 20
1499.463080970611
 30
0.0
 10
452.9213724918158
 20
1499.705224049173
 30
0.0
 10
453.0509590716949
 20
1499.893553554706
 30
0.0
 10
453.1494009066765
 20
1499.995288181547
 30
0.0
 10
453.1999018811777
 20
1500.047478368747
 30
0.0
  0
SPLINE
  5
20A
330
1F
100
AcDbEntity
  8
0
  6
Continuous
 62
     7
370
    25
100
AcDbSpline
210
0.0
220
0.0
230
1.0
 70
     8
 71
     3
 72
    15
 73
    11
 74
     0
 42
0.000000001
 43
0.00000001
 40
0.0
 40
0.0
 40
0.0
 40
0.0
 40
0.1373796229454481
 40
0.266030939657449
 40
0.3863777865938781
 40
0.4991538606671429
 40
0.6268217721689385
 40
0.7493850757809828
 40
0.8753275683705584
 40
1.0
 40
1.0
 40
1.0
 40
1.0
 10
453.2000465372417
 20
1502.526506729088
 30
0.0
 10
453.2210477956178
 20
1502.507290589888
 30
0.0
 10
453.2617160139458
 20
1502.470079193769
 30
0.0
 10
453.3230889267504
 20
1502.424976247024
 30
0.0
 10
453.3813558685848
 20
1502.388555051969
 30
0.0
 10
453.4402986486361
 20
1502.358432552032
 30
0.0
 10
453.5002500495826
 20
1502.334509080961
 30
0.0
 10
453.562681012713
 20
1502.316906988407
 30
0.0
 10
453.6244329365439
 20
1502.305822966278
 30
0.0
 10
453.6657348666521
 20
1502.30449691318
 30
0.0
 10
453.6862811771866
 20
1502.303837246703
 30
0.0
  0
LINE
  5
20B
330
1F
100
AcDbEntity
  8
0
  6
Continuous
 62
     7
370
    25
100
AcDbLine
 10
453.6862822327
 20
1505.2703460379
 30
0.0
 11
453.9287613782
 21
1505.1910122557
 31
0.0
  0
SPLINE
  5
20C
330
1F
100
AcDbEntity
  8
0
  6
Continuous
 62
     7
370
    25
100
AcDbSpline
210
0.0
220
0.0
230
1.0
 70
     8
 71
     3
 72
     9
 73
     5
 74
     0
 42
0.000000001
 43
0.00000001
 40
0.0
 40
0.0
 40
0.0
 40
0.0
 40
0.2508604041200385
 40
1.0
 40
1.0
 40
1.0
 40
1.0
 10
453.9310263547046
 20
1502.371891371737
 30
0.0
 10
453.9119452965813
 20
1502.359553760929
 30
0.0
 10
453.8358828418862
 20
1502.31037258046
 30
0.0
 10
453.7503547287714
 20
1502.306628046249
 30
0.0
 10
453.6862822326762
 20
1502.303822867404
 30
0.0
  0
SPLINE
  5
20D
330
1F
100
AcDbEntity
  8
0
  6
Continuous
 62
     7
370
    25
100
AcDbSpline
210
0.0
220
0.0
230
1.0
 70
     8
 71
     3
 72
    13
 73
     9
 74
     0
 42
0.000000001
 43
0.00000001
 40
0.0
 40
0.0
 40
0.0
 40
0.0
 40
0.1272671449099544
 40
0.255957434694232
 40
0.3810917015707406
 40
0.5118028258521956
 40
0.7400793903565918
 40
1.0
 40
1.0
 40
1.0
 40
1.0
 10
453.6862811525368
 20
1505.27031626043
 30
0.0
 10
453.665304257724
 20
1505.269628932538
 30
0.0
 10
453.6231158972643
 20
1505.268246590818
 30
0.0
 10
453.560053639109
 20
1505.256676251375
 30
0.0
 10
453.4962320870173
 20
1505.238328359945
 30
0.0
 10
453.4163764111258
 20
1505.205587603421
 30
0.0
 10
453.3154872187903
 20
1505.148772933969
 30
0.0
 10
453.2400916371847
 20
1505.082674016907
 30
0.0
 10
453.1999503447457
 20
1505.047482353109
 30
0.0
  0
SPLINE
  5
20E
330
1F
100
AcDbEntity
  8
0
  6
Continuous
 62
     7
370
    25
100
AcDbSpline
210
0.0
220
0.0
230
1.0
 70
     8
 71
     3
 72
    20
 73
    16
 74
     0
 42
0.000000001
 43
0.00000001
 40
0.0
 40
0.0
 40
0.0
 40
0.0
 40
0.0443058009546451
 40
0.0873873294092655
 40
0.1294365867057211
 40
0.1706600010955595
 40
0.2112765951636475
 40
0.251515302262734
 40
0.3768201436859944
 40
0.4963703187992329
 40
0.6147497224449556
 40
0.738667527931104
 40
0.8224586828500943
 40
0.9089207395204421
 40
0.9999999999999999
 40
0.9999999999999999
 40
0.9999999999999999
 40
0.9999999999999999
 10
453.1999490950625
 20
1502.52661443839
 30
0.0
 10
453.1752074698657
 20
1502.551270404857
 30
0.0
 10
453.1264078882172
 20
1502.599901035997
 30
0.0
 10
453.0571421187888
 20
1502.681013926648
 30
0.0
 10
452.9924361373789
 20
1502.766781777938
 30
0.0
 10
452.9326053217359
 20
1502.857811036921
 30
0.0
 10
452.8777310604734
 20
1502.953990323012
 30
0.0
 10
452.7929252141727
 20
1503.126458263257
 30
0.0
 10
452.6997126975139
 20
1503.394275737205
 30
0.0
 10
452.6567714332286
 20
1503.773999547177
 30
0.0
 10
452.6940854309968
 20
1504.153526269247
 30
0.0
 10
452.7963109692656
 20
1504.463081009386
 30
0.0
 10
452.9213724389405
 20
1504.705224095852
 30
0.0
 10
453.0509590333662
 20
1504.89355360637
 30
0.0
 10
453.1494008783486
 20
1504.995288233059
 30
0.0
 10
453.1999018579806
 20
1505.047478420182
 30
0.0
  0
SPLINE
  5
20F
330
1F
100
AcDbEntity
  8
0
  6
Continuous
 62
     7
370
    25
100
AcDbSpline
210
0.0
220
0.0
230
1.0
 70
     8
 71
     3
 72
    15
 73
    11
 74
     0
 42
0.000000001
 43
0.00000001
 40
0.0
 40
0.0
 40
0.0
 40
0.0
 40
0.1373796214247605
 40
0.2660309370362893
 40
0.3863777833578923
 40
0.4991538573863419
 40
0.6268217696060532
 40
0.7493850745853264
 40
0.8753275676420927
 40
1.0
 40
1.0
 40
1.0
 40
1.0
 10
453.2000465571463
 20
1507.52650665593
 30
0.0
 10
453.221047812827
 20
1507.507290522597
 30
0.0
 10
453.2617160259852
 20
1507.470079137794
 30
0.0
 10
453.3230889302209
 20
1507.424976204838
 30
0.0
 10
453.3813558638536
 20
1507.388555020868
 30
0.0
 10
453.4402986357425
 20
1507.358432530065
 30
0.0
 10
453.5002500286529
 20
1507.334509066267
 30
0.0
 10
453.5626809835787
 20
1507.316906979285
 30
0.0
 10
453.6244328994453
 20
1507.30582296094
 30
0.0
 10
453.6657348243803
 20
1507.304496908697
 30
0.0
 10
453.6862811323633
 20
1507.303837242644
 30
0.0
  0
LINE
  5
210
330
1F
100
AcDbEntity
  8
0
  6
Continuous
 62
     7
370
    25
100
AcDbLine
 10
453.6862822327
 20
1510.2703412695
 30
0.0
 11
453.9287613782
 21
1510.1911863012
 31
0.0
  0
SPLINE
  5
211
330
1F
100
AcDbEntity
  8
0
  6
Continuous
 62
     7
370
    25
100
AcDbSpline
210
0.0
220
0.0
230
1.0
 70
     8
 71
     3
 72
     9
 73
     5
 74
     0
 42
0.000000001
 43
0.00000001
 40
0.0
 40
0.0
 40
0.0
 40
0.0
 40
0.2649168803957028
 40
1.0
 40
1.0
 40
1.0
 40
1.0
 10
453.9310263547046
 20
1507.37194620801
 30
0.0
 10
453.9108217201579
 20
1507.359101946692
 30
0.0
 10
453.8345538941267
 20
1507.310617828583
 30
0.0
 10
453.7490988172055
 20
1507.306698863852
 30
0.0
 10
453.6862822326762
 20
1507.303818099032
 30
0.0
  0
SPLINE
  5
212
330
1F
100
AcDbEntity
  8
0
  6
Continuous
 62
     7
370
    25
100
AcDbSpline
210
0.0
220
0.0
230
1.0
 70
     8
 71
     3
 72
    13
 73
     9
 74
     0
 42
0.000000001
 43
0.00000001
 40
0.0
 40
0.0
 40
0.0
 40
0.0
 40
0.1272671515485637
 40
0.2559574468194764
 40
0.3810917053839293
 40
0.5118028184109106
 40
0.740079390348707
 40
1.0
 40
1.0
 40
1.0
 40
1.0
 10
453.6862811122814
 20
1510.270316278421
 30
0.0
 10
453.6653042190354
 20
1510.269628950751
 30
0.0
 10
453.6231158619289
 20
1510.268246609483
 30
0.0
 10
453.5600536106013
 20
1510.256676273118
 30
0.0
 10
453.4962320683194
 20
1510.238328387528
 30
0.0
 10
453.4163764044434
 20
1510.205587641214
 30
0.0
 10
453.3154872240704
 20
1510.148772988644
 30
0.0
 10
453.2400916490132
 20
1510.082674088327
 30
0.0
 10
453.1999503606712
 20
1510.04748243398
 30
0.0
  0
SPLINE
  5
213
330
1F
100
AcDbEntity
  8
0
  6
Continuous
 62
     7
370
    25
100
AcDbSpline
210
0.0
220
0.0
230
1.0
 70
     8
 71
     3
 72
    20
 73
    16
 74
     0
 42
0.000000001
 43
0.00000001
 40
0.0
 40
0.0
 40
0.0
 40
0.0
 40
0.0443058055121212
 40
0.0873873381993308
 40
0.1294365994704932
 40
0.1706600176515373
 40
0.2112766154078531
 40
0.2515153261772444
 40
0.3768201674515602
 40
0.4963703410594492
 40
0.6147497360259631
 40
0.7386675334648234
 40
0.8224586856448838
 40
0.9089207403978108
 40
1.0
 40
1.0
 40
1.0
 40
1.0
 10
453.1999491443706
 20
1507.526614318473
 30
0.0
 10
453.1752075124146
 20
1507.551270285876
 30
0.0
 10
453.1264079175455
 20
1507.599900918749
 30
0.0
 10
453.0571421288228
 20
1507.681013815422
 30
0.0
 10
452.9924361292715
 20
1507.766781675008
 30
0.0
 10
452.9326052967154
 20
1507.85781094479
 30
0.0
 10
452.8777310198455
 20
1507.953990244154
 30
0.0
 10
452.7929251541128
 20
1508.126458201269
 30
0.0
 10
452.6997126172324
 20
1508.394275700164
 30
0.0
 10
452.6567713470461
 20
1508.773999541388
 30
0.0
 10
452.694085352235
 20
1509.15352628444
 30
0.0
 10
452.7963109015524
 20
1509.463081035758
 30
0.0
 10
452.921372385661
 20
1509.705224131593
 30
0.0
 10
453.0509589979992
 20
1509.893553649025
 30
0.0
 10
453.1494008559213
 20
1509.995288276436
 30
0.0
 10
453.1999018424999
 20
1510.047478464247
 30
0.0
  0
SPLINE
  5
214
330
1F
100
AcDbEntity
  8
0
  6
Continuous
 62
     7
370
    25
100
AcDbSpline
210
0.0
220
0.0
230
1.0
 70
     8
 71
     3
 72
    15
 73
    11
 74
     0
 42
0.000000001
 43
0.00000001
 40
0.0
 40
0.0
 40
0.0
 40
0.0
 40
0.1373796201865085
 40
0.2660309355757496
 40
0.3863777828045287
 40
0.4991538590292887
 40
0.6268217699193145
 40
0.7493850753761748
 40
0.8753275677656713
 40
1.0
 40
1.0
 40
1.0
 40
1.0
 10
453.2000465969565
 20
1517.526506483106
 30
0.0
 10
453.2210478485074
 20
1517.507290361221
 30
0.0
 10
453.2617160538116
 20
1517.470078998456
 30
0.0
 10
453.3230889441427
 20
1517.424976092425
 30
0.0
 10
453.3813558641646
 20
1517.388554930082
 30
0.0
 10
453.4402986212642
 20
1517.358432457551
 30
0.0
 10
453.5002499984129
 20
1517.334509008538
 30
0.0
 10
453.5626809360384
 20
1517.316906932823
 30
0.0
 10
453.6244328347595
 20
1517.30582292181
 30
0.0
 10
453.6657347480696
 20
1517.304496870809
 30
0.0
 10
453.6862810503141
 20
1517.303837205372
 30
0.0
  0
LINE
  5
215
330
1F
100
AcDbEntity
  8
0
  6
Continuous
 62
     7
370
    25
100
AcDbLine
 10
453.6862822327
 20
1520.2703317328
 30
0.0
 11
453.9287613782
 21
1520.1909979506
 31
0.0
  0
SPLINE
  5
216
330
1F
100
AcDbEntity
  8
0
  6
Continuous
 62
     7
370
    25
100
AcDbSpline
210
0.0
220
0.0
230
1.0
 70
     8
 71
     3
 72
     9
 73
     5
 74
     0
 42
0.000000001
 43
0.00000001
 40
0.0
 40
0.0
 40
0.0
 40
0.0
 40
0.2508235110114262
 40
1.0
 40
1.0
 40
1.0
 40
1.0
 10
453.9310263547046
 20
1517.371877066622
 30
0.0
 10
453.9119447537657
 20
1517.359562696933
 30
0.0
 10
453.8358689470684
 20
1517.310466941754
 30
0.0
 10
453.750350581521
 20
1517.306660362196
 30
0.0
 10
453.6862822326762
 20
1517.303808562289
 30
0.0
  0
SPLINE
  5
217
330
1F
100
AcDbEntity
  8
0
  6
Continuous
 62
     7
370
    25
100
AcDbSpline
210
0.0
220
0.0
230
1.0
 70
     8
 71
     3
 72
    13
 73
     9
 74
     0
 42
0.000000001
 43
0.00000001
 40
0.0
 40
0.0
 40
0.0
 40
0.0
 40
0.1272671436573644
 40
0.2559574307617075
 40
0.3810916886666976
 40
0.5118027994623779
 40
0.7400793810281032
 40
0.9999999999999999
 40
0.9999999999999999
 40
0.9999999999999999
 40
0.9999999999999999
 10
453.6862810302322
 20
1520.270316315693
 30
0.0
 10
453.6653041441614
 20
1520.269628988728
 30
0.0
 10
453.6231158015164
 20
1520.268246648879
 30
0.0
 10
453.5600535706449
 20
1520.256676321229
 30
0.0
 10
453.4962320478069
 20
1520.238328448625
 30
0.0
 10
453.4163764037605
 20
1520.205587723436
 30
0.0
 10
453.3154872459343
 20
1520.148773105233
 30
0.0
 10
453.2400916825133
 20
1520.08267424158
 30
0.0
 10
453.1999504004851
 20
1520.047482606857
 30
0.0
  0
SPLINE
  5
218
330
1F
100
AcDbEntity
  8
0
  6
Continuous
 62
     7
370
    25
100
AcDbSpline
210
0.0
220
0.0
230
1.0
 70
     8
 71
     3
 72
    20
 73
    16
 74
     0
 42
0.000000001
 43
0.00000001
 40
0.0
 40
0.0
 40
0.0
 40
0.0
 40
0.0443058133379602
 40
0.0873873533208871
 40
0.1294366214815364
 40
0.170660046282437
 40
0.2112766505360497
 40
0.2515153678341195
 40
0.3768202091045795
 40
0.4963703792661834
 40
0.6147497603501891
 40
0.7386675451216239
 40
0.8224586935230759
 40
0.9089207442921637
 40
1.0
 40
1.0
 40
1.0
 40
1.0
 10
453.1999492412014
 20
1517.526614073976
 30
0.0
 10
453.1752075963871
 20
1517.551270042753
 30
0.0
 10
453.126407976332
 20
1517.599900678162
 30
0.0
 10
453.0571421507436
 20
1517.681013585252
 30
0.0
 10
452.9924361163664
 20
1517.766781459745
 30
0.0
 10
452.9326052511657
 20
1517.857810749366
 30
0.0
 10
452.877730943961
 20
1517.95399007342
 30
0.0
 10
452.7929250392963
 20
1518.126458063453
 30
0.0
 10
452.6997124601456
 20
1518.394275610381
 30
0.0
 10
452.6567711689605
 20
1518.773999516297
 30
0.0
 10
452.6940851819182
 20
1519.153526312429
 30
0.0
 10
452.7963107565856
 20
1519.463081096312
 30
0.0
 10
452.9213722717349
 20
1519.705224216348
 30
0.0
 10
453.0509589181921
 20
1519.893553751225
 30
0.0
 10
453.1494008002853
 20
1519.995288381617
 30
0.0
 10
453.1999017993454
 20
1520.047478571042
 30
0.0
  0
SPLINE
  5
219
330
1F
100
AcDbEntity
  8
0
  6
Continuous
 62
     7
370
    25
100
AcDbSpline
210
0.0
220
0.0
230
1.0
 70
     8
 71
     3
 72
    15
 73
    11
 74
     0
 42
0.000000001
 43
0.00000001
 40
0.0
 40
0.0
 40
0.0
 40
0.0
 40
0.1373796188409101
 40
0.2660309339859957
 40
0.386377782136639
 40
0.4991538605119222
 40
0.6268217699354537
 40
0.7493850749761681
 40
0.8753275674621972
 40
1.0
 40
1.0
 40
1.0
 40
1.0
 10
453.2000466168616
 20
1522.526506398709
 30
0.0
 10
453.2210478658245
 20
1522.507290282564
 30
0.0
 10
453.2617160662725
 20
1522.470078930773
 30
0.0
 10
453.3230889489989
 20
1522.424976038095
 30
0.0
 10
453.3813558621551
 20
1522.388554886329
 30
0.0
 10
453.4402986118707
 20
1522.358432422817
 30
0.0
 10
453.5002499809652
 20
1522.334508981097
 30
0.0
 10
453.5626809096772
 20
1522.316906910809
 30
0.0
 10
453.6244327997742
 20
1522.305822903121
 30
0.0
 10
453.6657347073133
 20
1522.304496852433
 30
0.0
 10
453.6862810067041
 20
1522.303837187152
 30
0.0
  0
LINE
  5
21A
330
1F
100
AcDbEntity
  8
0
  6
Continuous
 62
     7
370
    25
100
AcDbLine
 10
453.6862822327
 20
1525.2703269644
 30
0.0
 11
453.9287613782
 21
1525.1909931822
 31
0.0
  0
SPLINE
  5
21B
330
1F
100
AcDbEntity
  8
0
  6
Continuous
 62
     7
370
    25
100
AcDbSpline
210
0.0
220
0.0
230
1.0
 70
     8
 71
     3
 72
     9
 73
     5
 74
     0
 42
0.000000001
 43
0.00000001
 40
0.0
 40
0.0
 40
0.0
 40
0.0
 40
0.250827085718739
 40
1.0
 40
1.0
 40
1.0
 40
1.0
 10
453.9310263547046
 20
1522.371872298251
 30
0.0
 10
453.9119448063523
 20
1522.359557089822
 30
0.0
 10
453.8358702935157
 20
1522.310458690448
 30
0.0
 10
453.7503509834359
 20
1522.306688170203
 30
0.0
 10
453.6862822326762
 20
1522.303863398562
 30
0.0
  0
SPLINE
  5
21C
330
1F
100
AcDbEntity
  8
0
  6
Continuous
 62
     7
370
    25
100
AcDbSpline
210
0.0
220
0.0
230
1.0
 70
     8
 71
     3
 72
    13
 73
     9
 74
     0
 42
0.000000001
 43
0.00000001
 40
0.0
 40
0.0
 40
0.0
 40
0.0
 40
0.1272671649018497
 40
0.255957471795046
 40
0.3810917184147793
 40
0.5118028134455231
 40
0.7400793911007945
 40
1.0
 40
1.0
 40
1.0
 40
1.0
 10
453.6862809838045
 20
1525.27031633532
 30
0.0
 10
453.6653040979824
 20
1525.269629007889
 30
0.0
 10
453.6231157561166
 20
1525.268246667113
 30
0.0
 10
453.560053529208
 20
1525.256676340091
 30
0.0
 10
453.4962320158238
 20
1525.238328471648
 30
0.0
 10
453.4163763870101
 20
1525.205587757255
 30
0.0
 10
453.315487247273
 20
1525.148773157824
 30
0.0
 10
453.2400916957043
 20
1525.08267431471
 30
0.0
 10
453.1999504203922
 20
1525.047482691278
 30
0.0
  0
SPLINE
  5
21D
330
1F
100
AcDbEntity
  8
0
  6
Continuous
 62
     7
370
    25
100
AcDbSpline
210
0.0
220
0.0
230
1.0
 70
     8
 71
     3
 72
    20
 73
    16
 74
     0
 42
0.000000001
 43
0.00000001
 40
0.0
 40
0.0
 40
0.0
 40
0.0
 40
0.0443058174000617
 40
0.0873873611375222
 40
0.1294366328091289
 40
0.1706600609484735
 40
0.2112766684449226
 40
0.251515388971543
 40
0.3768202289526582
 40
0.4963703965892909
 40
0.6147497685041897
 40
0.7386675443304588
 40
0.8224586926657426
 40
0.9089207435659618
 40
1.0
 40
1.0
 40
1.0
 40
1.0
 10
453.1999492932409
 20
1522.526613961196
 30
0.0
 10
453.1752076418725
 20
1522.551269930545
 30
0.0
 10
453.1264080089993
 20
1522.599900566975
 30
0.0
 10
453.0571421646563
 20
1522.681013478944
 30
0.0
 10
452.992436112609
 20
1522.766781360559
 30
0.0
 10
452.9326052308933
 20
1522.85781065977
 30
0.0
 10
452.8777309083988
 20
1522.953989995847
 30
0.0
 10
452.792924984639
 20
1523.126458000809
 30
0.0
 10
452.6997123850382
 20
1523.394275569538
 30
0.0
 10
452.6567710841038
 20
1523.773999503059
 30
0.0
 10
452.6940850992516
 20
1524.153526319404
 30
0.0
 10
452.7963106828816
 20
1524.463081118232
 30
0.0
 10
452.9213722126748
 20
1524.705224253152
 30
0.0
 10
453.0509588795063
 20
1524.89355380143
 30
0.0
 10
453.1494007767465
 20
1524.995288434752
 30
0.0
 10
453.1999017837359
 20
1525.047478625845
 30
0.0
  0
SPLINE
  5
21E
330
1F
100
AcDbEntity
  8
0
  6
Continuous
 62
     7
370
    25
100
AcDbSpline
210
0.0
220
0.0
230
1.0
 70
     8
 71
     3
 72
    15
 73
    11
 74
     0
 42
0.000000001
 43
0.00000001
 40
0.0
 40
0.0
 40
0.0
 40
0.0
 40
0.1373796181861371
 40
0.2660309329590477
 40
0.3863777810464795
 40
0.499153859722035
 40
0.6268217730200579
 40
0.7493850819627688
 40
0.8753275709810636
 40
0.9999999999999999
 40
0.9999999999999999
 40
0.9999999999999999
 40
0.9999999999999999
 10
453.2000466327853
 20
1527.526506312656
 30
0.0
 10
453.2210478802048
 20
1527.507290202483
 30
0.0
 10
453.2617160777007
 20
1527.470078862223
 30
0.0
 10
453.323088954049
 20
1527.424975983531
 30
0.0
 10
453.3813558603917
 20
1527.388554842977
 30
0.0
 10
453.4402986031283
 20
1527.358432388417
 30
0.0
 10
453.5002499651917
 20
1527.334508953691
 30
0.0
 10
453.5626808855939
 20
1527.316906889106
 30
0.0
 10
453.6244327661496
 20
1527.305822885555
 30
0.0
 10
453.6657346666913
 20
1527.304496835756
 30
0.0
 10
453.6862809625939
 20
1527.303837170918
 30
0.0
  0
LINE
  5
21F
330
1F
100
AcDbEntity
  8
0
  6
Continuous
 62
     7
370
    25
100
AcDbLine
 10
453.6862822327
 20
1530.270322196
 30
0.0
 11
453.9287613782
 21
1530.1909884138
 31
0.0
  0
SPLINE
  5
220
330
1F
100
AcDbEntity
  8
0
  6
Continuous
 62
     7
370
    25
100
AcDbSpline
210
0.0
220
0.0
230
1.0
 70
     8
 71
     3
 72
     9
 73
     5
 74
     0
 42
0.000000001
 43
0.00000001
 40
0.0
 40
0.0
 40
0.0
 40
0.0
 40
0.2508591404557368
 40
1.0
 40
1.0
 40
1.0
 40
1.0
 10
453.9310263547046
 20
1527.371927134524
 30
0.0
 10
453.9119452779855
 20
1527.359589525325
 30
0.0
 10
453.8358823660087
 20
1527.310408103524
 30
0.0
 10
453.7503545867472
 20
1527.30666370907
 30
0.0
 10
453.6862822326762
 20
1527.30385863019
 30
0.0
  0
SPLINE
  5
221
330
1F
100
AcDbEntity
  8
0
  6
Continuous
 62
     7
370
    25
100
AcDbSpline
210
0.0
220
0.0
230
1.0
 70
     8
 71
     3
 72
    13
 73
     9
 74
     0
 42
0.000000001
 43
0.00000001
 40
0.0
 40
0.0
 40
0.0
 40
0.0
 40
0.1272671431148173
 40
0.2559574285035246
 40
0.3810916789854081
 40
0.5118027787102566
 40
0.7400793723723579
 40
1.0
 40
1.0
 40
1.0
 40
1.0
 10
453.686280942512
 20
1530.270316350147
 30
0.0
 10
453.6653040625281
 20
1530.269629023812
 30
0.0
 10
453.6231157323172
 20
1530.268246685238
 30
0.0
 10
453.5600535207587
 20
1530.256676365816
 30
0.0
 10
453.4962320190467
 20
1530.238328506482
 30
0.0
 10
453.4163763981329
 20
1530.205587803434
 30
0.0
 10
453.3154872655641
 20
1530.14877322091
 30
0.0
 10
453.2400917150737
 20
1530.082674394372
 30
0.0
 10
453.1999504402995
 20
1530.047482779733
 30
0.0
  0
SPLINE
  5
222
330
1F
100
AcDbEntity
  8
0
  6
Continuous
 62
     7
370
    25
100
AcDbSpline
210
0.0
220
0.0
230
1.0
 70
     8
 71
     3
 72
    20
 73
    16
 74
     0
 42
0.000000001
 43
0.00000001
 40
0.0
 40
0.0
 40
0.0
 40
0.0
 40
0.0443058216301377
 40
0.0873873693727373
 40
0.1294366448873149
 40
0.1706600767759222
 40
0.2112766880008263
 40
0.2515154123107179
 40
0.376820252571384
 40
0.4963704187167786
 40
0.6147497853963745
 40
0.7386675543232801
 40
0.8224586989361469
 40
0.9089207465070163
 40
0.9999999999999999
 40
0.9999999999999999
 40
0.9999999999999999
 40
0.9999999999999999
 10
453.1999493355808
 20
1527.526613833476
 30
0.0
 10
453.175207677726
 20
1527.551269804164
 30
0.0
 10
453.1264080321196
 20
1527.599900443176
 30
0.0
 10
453.057142169198
 20
1527.681013362358
 30
0.0
 10
452.9924360995919
 20
1527.766781253466
 30
0.0
 10
452.9326052014131
 20
1527.857810564669
 30
0.0
 10
452.8777308636218
 20
1527.95398991521
 30
0.0
 10
452.7929249207069
 20
1528.126457939082
 30
0.0
 10
452.6997123009403
 20
1528.394275534575
 30
0.0
 10
452.6567709933078
 20
1528.773999504309
 30
0.0
 10
452.6940850150177
 20
1529.153526348449
 30
0.0
 10
452.7963106128785
 20
1529.463081162247
 30
0.0
 10
452.9213721589232
 20
1529.705224303962
 30
0.0
 10
453.0509588418817
 20
1529.893553856419
 30
0.0
 10
453.1494007501537
 20
1529.995288489725
 30
0.0
 10
453.1999017629553
 20
1530.047478680967
 30
0.0
  0
SPLINE
  5
223
330
1F
100
AcDbEntity
  8
0
  6
Continuous
 62
     7
370
    25
100
AcDbSpline
210
0.0
220
0.0
230
1.0
 70
     8
 71
     3
 72
    15
 73
    11
 74
     0
 42
0.000000001
 43
0.00000001
 40
0.0
 40
0.0
 40
0.0
 40
0.0
 40
0.1373796181502371
 40
0.2660309335194323
 40
0.3863777828841264
 40
0.4991538635746326
 40
0.6268217748477353
 40
0.7493850827170836
 40
0.8753275712876942
 40
1.0
 40
1.0
 40
1.0
 40
1.0
 10
453.2000466526906
 20
1532.526506230566
 30
0.0
 10
453.2210478978212
 20
1532.507290125917
 30
0.0
 10
453.2617160909811
 20
1532.470078796265
 30
0.0
 10
453.3230889601602
 20
1532.42497593048
 30
0.0
 10
453.3813558597388
 20
1532.388554800216
 30
0.0
 10
453.4402985949155
 20
1532.358432354489
 30
0.0
 10
453.5002499486404
 20
1532.33450892692
 30
0.0
 10
453.562680859801
 20
1532.316906867571
 30
0.0
 10
453.624432731435
 20
1532.305822867098
 30
0.0
 10
453.6657346260513
 20
1532.304496817389
 30
0.0
 10
453.6862809190176
 20
1532.303837152594
 30
0.0
  0
LINE
  5
224
330
1F
100
AcDbEntity
  8
0
  6
Continuous
 62
     7
370
    25
100
AcDbLine
 10
453.6862822327
 20
1535.2703174276
 30
0.0
 11
453.9287613782
 21
1535.1909836454
 31
0.0
  0
SPLINE
  5
225
330
1F
100
AcDbEntity
  8
0
  6
Continuous
 62
     7
370
    25
100
AcDbSpline
210
0.0
220
0.0
230
1.0
 70
     8
 71
     3
 72
     9
 73
     5
 74
     0
 42
0.000000001
 43
0.00000001
 40
0.0
 40
0.0
 40
0.0
 40
0.0
 40
0.2508591404557368
 40
1.0
 40
1.0
 40
1.0
 40
1.0
 10
453.9310263547046
 20
1532.371922366152
 30
0.0
 10
453.9119452779855
 20
1532.359584756953
 30
0.0
 10
453.8358823660087
 20
1532.310403335152
 30
0.0
 10
453.7503545867472
 20
1532.306658940698
 30
0.0
 10
453.6862822326762
 20
1532.303853861819
 30
0.0
  0
SPLINE
  5
226
330
1F
100
AcDbEntity
  8
0
  6
Continuous
 62
     7
370
    25
100
AcDbSpline
210
0.0
220
0.0
230
1.0
 70
     8
 71
     3
 72
    13
 73
     9
 74
     0
 42
0.000000001
 43
0.00000001
 40
0.0
 40
0.0
 40
0.0
 40
0.0
 40
0.1272671625242187
 40
0.2559574663179385
 40
0.3810917100631866
 40
0.5118027998734125
 40
0.7400793876163093
 40
0.9999999999999999
 40
0.9999999999999999
 40
0.9999999999999999
 40
0.9999999999999999
 10
453.6862808995481
 20
1535.270316369877
 30
0.0
 10
453.6653040200395
 20
1535.269629043065
 30
0.0
 10
453.623115690986
 20
1535.268246703537
 30
0.0
 10
453.5600534832993
 20
1535.256676384475
 30
0.0
 10
453.4962319896881
 20
1535.238328528455
 30
0.0
 10
453.4163763828051
 20
1535.20558783464
 30
0.0
 10
453.3154872674492
 20
1535.148773270042
 30
0.0
 10
453.2400917283182
 20
1535.082674464676
 30
0.0
 10
453.1999504602061
 20
1535.047482861848
 30
0.0
  0
SPLINE
  5
227
330
1F
100
AcDbEntity
  8
0
  6
Continuous
 62
     7
370
    25
100
AcDbSpline
210
0.0
220
0.0
230
1.0
 70
     8
 71
     3
 72
    20
 73
    16
 74
     0
 42
0.000000001
 43
0.00000001
 40
0.0
 40
0.0
 40
0.0
 40
0.0
 40
0.0443058257922915
 40
0.0873873773967344
 40
0.1294366565382798
 40
0.170660091891359
 40
0.2112767064964875
 40
0.2515154341847034
 40
0.3768202749126224
 40
0.4963704393987259
 40
0.6147497962238463
 40
0.7386675573857768
 40
0.8224587009123938
 40
0.908920747372321
 40
0.9999999999999999
 40
0.9999999999999999
 40
0.9999999999999999
 40
0.9999999999999999
 10
453.1999493869999
 20
1532.526613719074
 30
0.0
 10
453.1752077225478
 20
1532.551269690389
 30
0.0
 10
453.1264080640328
 20
1532.599900330531
 30
0.0
 10
453.0571421822318
 20
1532.681013254804
 30
0.0
 10
452.9924360948317
 20
1532.766781153289
 30
0.0
 10
452.9326051800182
 20
1532.857810474387
 30
0.0
 10
452.8777308268146
 20
1532.953989837292
 30
0.0
 10
452.7929248641112
 20
1533.126457877858
 30
0.0
 10
452.6997122230038
 20
1533.394275497581
 30
0.0
 10
452.656770905625
 20
1533.77399949713
 30
0.0
 10
452.6940849324147
 20
1534.153526362297
 30
0.0
 10
452.7963105410187
 20
1534.463081188755
 30
0.0
 10
452.9213721014079
 20
1534.705224343911
 30
0.0
 10
453.0509588025266
 20
1534.893553907189
 30
0.0
 10
453.1494007239979
 20
1534.995288542606
 30
0.0
 10
453.1999017436532
 20
1535.047478735015
 30
0.0
  0
SPLINE
  5
228
330
1F
100
AcDbEntity
  8
0
  6
Continuous
 62
     7
370
    25
100
AcDbSpline
210
0.0
220
0.0
230
1.0
 70
     8
 71
     3
 72
    15
 73
    11
 74
     0
 42
0.000000001
 43
0.00000001
 40
0.0
 40
0.0
 40
0.0
 40
0.0
 40
0.1373796155260789
 40
0.2660309289246726
 40
0.3863777770500407
 40
0.499153857327528
 40
0.6268217694484484
 40
0.7493850790440184
 40
0.8753275692227996
 40
1.0
 40
1.0
 40
1.0
 40
1.0
 10
453.2000466725957
 20
1537.52650614617
 30
0.0
 10
453.2210479152635
 20
1537.507290047109
 30
0.0
 10
453.2617161037286
 20
1537.47007872821
 30
0.0
 10
453.3230889651508
 20
1537.424975875534
 30
0.0
 10
453.3813558574106
 20
1537.388554755781
 30
0.0
 10
453.4402985854728
 20
1537.358432318669
 30
0.0
 10
453.5002499323715
 20
1537.334508897964
 30
0.0
 10
453.5626808368139
 20
1537.316906843941
 30
0.0
 10
453.6244327020922
 20
1537.30582284722
 30
0.0
 10
453.6657345926155
 20
1537.304496798618
 30
0.0
 10
453.6862808835849
 20
1537.303837134374
 30
0.0
  0
LINE
  5
229
330
1F
100
AcDbEntity
  8
0
  6
Continuous
 62
     7
370
    25
100
AcDbLine
 10
453.6862822327
 20
1540.2703126593
 30
0.0
 11
453.9287613782
 21
1540.1910384817
 31
0.0
  0
SPLINE
  5
22A
330
1F
100
AcDbEntity
  8
0
  6
Continuous
 62
     7
370
    25
100
AcDbSpline
210
0.0
220
0.0
230
1.0
 70
     8
 71
     3
 72
     9
 73
     5
 74
     0
 42
0.000000001
 43
0.00000001
 40
0.0
 40
0.0
 40
0.0
 40
0.0
 40
0.2508608403603823
 40
0.9999999999999999
 40
0.9999999999999999
 40
0.9999999999999999
 40
0.9999999999999999
 10
453.9310263547046
 20
1537.371917597781
 30
0.0
 10
453.9119453030011
 20
1537.359579986418
 30
0.0
 10
453.8358830061672
 20
1537.31039888926
 30
0.0
 10
453.7503547778004
 20
1537.306654306802
 30
0.0
 10
453.6862822326762
 20
1537.303849093447
 30
0.0
  0
SPLINE
  5
22B
330
1F
100
AcDbEntity
  8
0
  6
Continuous
 62
     7
370
    25
100
AcDbSpline
210
0.0
220
0.0
230
1.0
 70
     8
 71
     3
 72
    13
 73
     9
 74
     0
 42
0.000000001
 43
0.00000001
 40
0.0
 40
0.0
 40
0.0
 40
0.0
 40
0.1272671352935968
 40
0.2559574125478095
 40
0.3810916606405992
 40
0.5118027560847191
 40
0.740079361746764
 40
0.9999999999999999
 40
0.9999999999999999
 40
0.9999999999999999
 40
0.9999999999999999
 10
453.6862808559381
 20
1540.270316388098
 30
0.0
 10
453.6653039830931
 20
1540.269629062145
 30
0.0
 10
453.6231156672773
 20
1540.26824672434
 30
0.0
 10
453.5600534764397
 20
1540.256676412801
 30
0.0
 10
453.4962319949334
 20
1540.238328565815
 30
0.0
 10
453.4163763944623
 20
1540.205587883133
 30
0.0
 10
453.3154872850186
 20
1540.148773333745
 30
0.0
 10
453.2400917476709
 20
1540.082674542125
 30
0.0
 10
453.1999504801133
 20
1540.04748294627
 30
0.0
  0
SPLINE
  5
22C
330
1F
100
AcDbEntity
  8
0
  6
Continuous
 62
     7
370
    25
100
AcDbSpline
210
0.0
220
0.0
230
1.0
 70
     8
 71
     3
 72
    20
 73
    16
 74
     0
 42
0.000000001
 43
0.00000001
 40
0.0
 40
0.0
 40
0.0
 40
0.0
 40
0.0443058294027544
 40
0.0873873843636696
 40
0.1294366666634956
 40
0.1706601050382424
 40
0.211276722595087
 40
0.2515154532350222
 40
0.3768202940220665
 40
0.4963704571873992
 40
0.6147498084858424
 40
0.738667563813243
 40
0.8224587045533986
 40
0.9089207488158241
 40
1.0
 40
1.0
 40
1.0
 40
1.0
 10
453.1999494356754
 20
1537.526613597506
 30
0.0
 10
453.1752077650549
 20
1537.551269569143
 30
0.0
 10
453.1264080944596
 20
1537.599900209835
 30
0.0
 10
453.0571421948941
 20
1537.681013138047
 30
0.0
 10
452.9924360906464
 20
1537.766781042599
 30
0.0
 10
452.9326051599625
 20
1537.857810372096
 30
0.0
 10
452.8777307919302
 20
1537.953989745702
 30
0.0
 10
452.7929248096845
 20
1538.126457800577
 30
0.0
 10
452.6997121467429
 20
1538.394275442375
 30
0.0
 10
452.65677081782
 20
1538.773999474061
 30
0.0
 10
452.6940848462036
 20
1539.153526366623
 30
0.0
 10
452.7963104644373
 20
1539.463081210959
 30
0.0
 10
452.9213720381152
 20
1539.705224378371
 30
0.0
 10
453.0509587547421
 20
1539.893553950237
 30
0.0
 10
453.149400687607
 20
1539.995288587993
 30
0.0
 10
453.1999017133425
 20
1540.047478781846
 30
0.0
  0
SPLINE
  5
22D
330
1F
100
AcDbEntity
  8
0
  6
Continuous
 62
     7
370
    25
100
AcDbSpline
210
0.0
220
0.0
230
1.0
 70
     8
 71
     3
 72
    15
 73
    11
 74
     0
 42
0.000000001
 43
0.00000001
 40
0.0
 40
0.0
 40
0.0
 40
0.0
 40
0.1373796126527817
 40
0.2660309243781723
 40
0.3863777720529129
 40
0.4991538531068255
 40
0.6268217644970856
 40
0.7493850743712333
 40
0.8753275668238213
 40
1.0
 40
1.0
 40
1.0
 40
1.0
 10
453.2000466925014
 20
1542.52650604881
 30
0.0
 10
453.2210479327252
 20
1542.507289955854
 30
0.0
 10
453.2617161166134
 20
1542.470078648633
 30
0.0
 10
453.3230889703884
 20
1542.424975810009
 30
0.0
 10
453.3813558554878
 20
1542.388554701286
 30
0.0
 10
453.4402985759875
 20
1542.358432273232
 30
0.0
 10
453.5002499148336
 20
1542.3345088596
 30
0.0
 10
453.5626808107125
 20
1542.316906810539
 30
0.0
 10
453.624432667694
 20
1542.305822816659
 30
0.0
 10
453.6657345525563
 20
1542.304496768099
 30
0.0
 10
453.6862808407218
 20
1542.303837103875
 30
0.0
  0
LINE
  5
22E
330
1F
100
AcDbEntity
  8
0
  6
Continuous
 62
     7
370
    25
100
AcDbLine
 10
453.6862822327
 20
1545.2703078909
 30
0.0
 11
453.9287613782
 21
1545.1910337134
 31
0.0
  0
SPLINE
  5
22F
330
1F
100
AcDbEntity
  8
0
  6
Continuous
 62
     7
370
    25
100
AcDbSpline
210
0.0
220
0.0
230
1.0
 70
     8
 71
     3
 72
     9
 73
     5
 74
     0
 42
0.000000001
 43
0.00000001
 40
0.0
 40
0.0
 40
0.0
 40
0.0
 40
0.2508608403603823
 40
0.9999999999999999
 40
0.9999999999999999
 40
0.9999999999999999
 40
0.9999999999999999
 10
453.9310263547046
 20
1542.371912829409
 30
0.0
 10
453.9119453030011
 20
1542.359575218046
 30
0.0
 10
453.8358830061672
 20
1542.310394120889
 30
0.0
 10
453.7503547778004
 20
1542.306649538431
 30
0.0
 10
453.6862822326762
 20
1542.303844325076
 30
0.0
  0
SPLINE
  5
230
330
1F
100
AcDbEntity
  8
0
  6
Continuous
 62
     7
370
    25
100
AcDbSpline
210
0.0
220
0.0
230
1.0
 70
     8
 71
     3
 72
    13
 73
     9
 74
     0
 42
0.000000001
 43
0.00000001
 40
0.0
 40
0.0
 40
0.0
 40
0.0
 40
0.1272671418718053
 40
0.2559574257069409
 40
0.381091681553799
 40
0.5118027848140047
 40
0.7400793818204342
 40
1.0
 40
1.0
 40
1.0
 40
1.0
 10
453.6862808195021
 20
1545.270316403258
 30
0.0
 10
453.6653039483145
 20
1545.26962907771
 30
0.0
 10
453.6231156358438
 20
1545.268246740721
 30
0.0
 10
453.5600534495459
 20
1545.256676432137
 30
0.0
 10
453.4962319720985
 20
1545.238328589314
 30
0.0
 10
453.4163763797338
 20
1545.205587914897
 30
0.0
 10
453.3154872834988
 20
1545.148773383333
 30
0.0
 10
453.240091757054
 20
1545.082674614366
 30
0.0
 10
453.199950496039
 20
1545.047483031218
 30
0.0
  0
SPLINE
  5
231
330
1F
100
AcDbEntity
  8
0
  6
Continuous
 62
     7
370
    25
100
AcDbSpline
210
0.0
220
0.0
230
1.0
 70
     8
 71
     3
 72
    20
 73
    16
 74
     0
 42
0.000000001
 43
0.00000001
 40
0.0
 40
0.0
 40
0.0
 40
0.0
 40
0.0443058340428867
 40
0.0873873933117159
 40
0.1294366796599671
 40
0.1706601219042626
 40
0.2112767432386848
 40
0.2515154776558324
 40
0.376820318522232
 40
0.4963704800289322
 40
0.6147498237799246
 40
0.7386675724262398
 40
0.8224587107490274
 40
0.9089207521187262
 40
1.0
 40
1.0
 40
1.0
 40
1.0
 10
453.1999494837737
 20
1542.526613474428
 30
0.0
 10
453.1752078063803
 20
1542.551269447204
 30
0.0
 10
453.1264081225402
 20
1542.59990009003
 30
0.0
 10
453.0571422037345
 20
1542.681013024981
 30
0.0
 10
452.9924360814798
 20
1542.76678093861
 30
0.0
 10
452.9326051341077
 20
1542.857810279767
 30
0.0
 10
452.8777307507713
 20
1542.953989667566
 30
0.0
 10
452.792924749883
 20
1543.12645774098
 30
0.0
 10
452.6997120678062
 20
1543.394275408708
 30
0.0
 10
452.6567707316181
 20
1543.773999472562
 30
0.0
 10
452.6940847668933
 20
1544.15352638949
 30
0.0
 10
452.7963103992156
 20
1544.463081246626
 30
0.0
 10
452.9213719883667
 20
1544.705224423102
 30
0.0
 10
453.0509587207067
 20
1544.893554000847
 30
0.0
 10
453.1494006642993
 20
1544.995288638456
 30
0.0
 10
453.199901695469
 20
1545.047478832162
 30
0.0
  0
SPLINE
  5
232
330
1F
100
AcDbEntity
  8
0
  6
Continuous
 62
     7
370
    25
100
AcDbSpline
210
0.0
220
0.0
230
1.0
 70
     8
 71
     3
 72
    15
 73
    11
 74
     0
 42
0.000000001
 43
0.00000001
 40
0.0
 40
0.0
 40
0.0
 40
0.0
 40
0.1373796130539799
 40
0.2660309253118069
 40
0.3863777737265073
 40
0.499153855843378
 40
0.6268217672549641
 40
0.7493850777885321
 40
0.8753275684013746
 40
1.0
 40
1.0
 40
1.0
 40
1.0
 10
453.2000467124058
 20
1547.526505975653
 30
0.0
 10
453.2210479503559
 20
1547.507289888355
 30
0.0
 10
453.2617161298648
 20
1547.470078592074
 30
0.0
 10
453.3230889760218
 20
1547.424975766881
 30
0.0
 10
453.3813558536265
 20
1547.388554669059
 30
0.0
 10
453.4402985662038
 20
1547.358432250245
 30
0.0
 10
453.500249896852
 20
1547.334508844154
 30
0.0
 10
453.5626807837724
 20
1547.316906801056
 30
0.0
 10
453.6244326317905
 20
1547.30582281127
 30
0.0
 10
453.6657345106826
 20
1547.304496763599
 30
0.0
 10
453.6862807958984
 20
1547.303837099816
 30
0.0
  0
LINE
  5
233
330
1F
100
AcDbEntity
  8
0
  6
Continuous
 62
     7
370
    25
100
AcDbLine
 10
453.6862822327
 20
1550.2703031225
 30
0.0
 11
453.9287539276
 21
1550.191028945
 31
0.0
  0
SPLINE
  5
234
330
1F
100
AcDbEntity
  8
0
  6
Continuous
 62
     7
370
    25
100
AcDbSpline
210
0.0
220
0.0
230
1.0
 70
     8
 71
     3
 72
     9
 73
     5
 74
     0
 42
0.000000001
 43
0.00000001
 40
0.0
 40
0.0
 40
0.0
 40
0.0
 40
0.2508604041200385
 40
1.0
 40
1.0
 40
1.0
 40
1.0
 10
453.9310263547046
 20
1547.371908061038
 30
0.0
 10
453.9119452965813
 20
1547.35957045023
 30
0.0
 10
453.8358828418862
 20
1547.31038926976
 30
0.0
 10
453.7503547287714
 20
1547.30664473555
 30
0.0
 10
453.6862822326762
 20
1547.303839556704
 30
0.0
  0
SPLINE
  5
235
330
1F
100
AcDbEntity
  8
0
  6
Continuous
 62
     7
370
    25
100
AcDbSpline
210
0.0
220
0.0
230
1.0
 70
     8
 71
     3
 72
    13
 73
     9
 74
     0
 42
0.000000001
 43
0.00000001
 40
0.0
 40
0.0
 40
0.0
 40
0.0
 40
0.1272671367148233
 40
0.2559574154353847
 40
0.381091672563429
 40
0.5118027768084925
 40
0.7400793766384358
 40
1.0
 40
1.0
 40
1.0
 40
1.0
 10
453.6862807729988
 20
1550.270316422655
 30
0.0
 10
453.6653039056691
 20
1550.269629097306
 30
0.0
 10
453.6231156009406
 20
1550.268246760715
 30
0.0
 10
453.5600534254373
 20
1550.256676456064
 30
0.0
 10
453.4962319578705
 20
1550.238328619126
 30
0.0
 10
453.4163763758016
 20
1550.205587954542
 30
0.0
 10
453.315487292333
 20
1550.148773439115
 30
0.0
 10
453.2400917732065
 20
1550.082674688151
 30
0.0
 10
453.1999505159459
 20
1550.047483114464
 30
0.0
  0
SPLINE
  5
236
330
1F
100
AcDbEntity
  8
0
  6
Continuous
 62
     7
370
    25
100
AcDbSpline
210
0.0
220
0.0
230
1.0
 70
     8
 71
     3
 72
    20
 73
    16
 74
     0
 42
0.000000001
 43
0.00000001
 40
0.0
 40
0.0
 40
0.0
 40
0.0
 40
0.0443058382864435
 40
0.0873874014957794
 40
0.1294366915444802
 40
0.1706601373189976
 40
0.2112767620890248
 40
0.2515154999268565
 40
0.3768203393055158
 40
0.4963704986639768
 40
0.6147498354948454
 40
0.738667575498578
 40
0.8224587122226993
 40
0.9089207524985616
 40
1.0
 40
1.0
 40
1.0
 40
1.0
 10
453.1999495326539
 20
1547.526613353394
 30
0.0
 10
453.1752078485987
 20
1547.551269327069
 30
0.0
 10
453.126408151723
 20
1547.599899971564
 30
0.0
 10
453.0571422138606
 20
1547.681012912356
 30
0.0
 10
452.9924360736483
 20
1547.766780834057
 30
0.0
 10
452.9326051094894
 20
1547.857810185735
 30
0.0
 10
452.8777307106145
 20
1547.95398958648
 30
0.0
 10
452.7929246905266
 20
1548.126457675654
 30
0.0
 10
452.6997119880899
 20
1548.394275366701
 30
0.0
 10
452.6567706430778
 20
1548.77399946176
 30
0.0
 10
452.6940846803904
 20
1549.153526402998
 30
0.0
 10
452.796310322758
 20
1549.463081276728
 30
0.0
 10
452.9213719268669
 20
1549.70522446541
 30
0.0
 10
453.0509586778468
 20
1549.893554054316
 30
0.0
 10
453.1494006350475
 20
1549.995288695088
 30
0.0
 10
453.1999016734068
 20
1550.047478890633
 30
0.0
  0
SPLINE
  5
237
330
1F
100
AcDbEntity
  8
0
  6
Continuous
 62
     7
370
    25
100
AcDbSpline
210
0.0
220
0.0
230
1.0
 70
     8
 71
     3
 72
    15
 73
    11
 74
     0
 42
0.000000001
 43
0.00000001
 40
0.0
 40
0.0
 40
0.0
 40
0.0
 40
0.1373796115879699
 40
0.2660309236349106
 40
0.3863777731332417
 40
0.4991538576531312
 40
0.6268217669866494
 40
0.7493850765869244
 40
0.8753275677086461
 40
1.0
 40
1.0
 40
1.0
 40
1.0
 10
453.200046732311
 20
1552.526505891256
 30
0.0
 10
453.2210479676552
 20
1552.507289809711
 30
0.0
 10
453.2617161422955
 20
1552.470078524406
 30
0.0
 10
453.3230889808307
 20
1552.424975712529
 30
0.0
 10
453.3813558515538
 20
1552.388554625192
 30
0.0
 10
453.4402985565126
 20
1552.358432215327
 30
0.0
 10
453.5002498786349
 20
1552.334508816433
 30
0.0
 10
453.5626807560048
 20
1552.316906778515
 30
0.0
 10
453.6244325947633
 20
1552.305822791676
 30
0.0
 10
453.6657344673674
 20
1552.304496743983
 30
0.0
 10
453.6862807494707
 20
1552.303837080189
 30
0.0
  0
LINE
  5
238
330
1F
100
AcDbEntity
  8
0
  6
Continuous
 62
     7
370
    25
100
AcDbLine
 10
453.6862822327
 20
1555.2702983542
 30
0.0
 11
453.9287539276
 21
1555.1910241766
 31
0.0
  0
SPLINE
  5
239
330
1F
100
AcDbEntity
  8
0
  6
Continuous
 62
     7
370
    25
100
AcDbSpline
210
0.0
220
0.0
230
1.0
 70
     8
 71
     3
 72
     9
 73
     5
 74
     0
 42
0.000000001
 43
0.00000001
 40
0.0
 40
0.0
 40
0.0
 40
0.0
 40
0.2508604041200385
 40
1.0
 40
1.0
 40
1.0
 40
1.0
 10
453.9310263547046
 20
1552.371903292666
 30
0.0
 10
453.9119452965813
 20
1552.359565681858
 30
0.0
 10
453.8358828418862
 20
1552.310384501389
 30
0.0
 10
453.7503547287714
 20
1552.306639967178
 30
0.0
 10
453.6862822326762
 20
1552.303834788333
 30
0.0
  0
SPLINE
  5
23A
330
1F
100
AcDbEntity
  8
0
  6
Continuous
 62
     7
370
    25
100
AcDbSpline
210
0.0
220
0.0
230
1.0
 70
     8
 71
     3
 72
    13
 73
     9
 74
     0
 42
0.000000001
 43
0.00000001
 40
0.0
 40
0.0
 40
0.0
 40
0.0
 40
0.1272671437237917
 40
0.2559574280254183
 40
0.3810916734534378
 40
0.5118027621940355
 40
0.7400793702565535
 40
0.9999999999999999
 40
0.9999999999999999
 40
0.9999999999999999
 40
0.9999999999999999
 10
453.6862807328189
 20
1555.270316440875
 30
0.0
 10
453.6653038671175
 20
1555.269629115761
 30
0.0
 10
453.6231155659121
 20
1555.268246779649
 30
0.0
 10
453.5600533980373
 20
1555.256676478381
 30
0.0
 10
453.4962319419728
 20
1555.238328648023
 30
0.0
 10
453.4163763737612
 20
1555.205587994935
 30
0.0
 10
453.3154873038253
 20
1555.148773497059
 30
0.0
 10
453.2400917900491
 20
1555.08267476325
 30
0.0
 10
453.199950535853
 20
1555.047483198885
 30
0.0
  0
SPLINE
  5
23B
330
1F
100
AcDbEntity
  8
0
  6
Continuous
 62
     7
370
    25
100
AcDbSpline
210
0.0
220
0.0
230
1.0
 70
     8
 71
     3
 72
    20
 73
    16
 74
     0
 42
0.000000001
 43
0.00000001
 40
0.0
 40
0.0
 40
0.0
 40
0.0
 40
0.0443058427211309
 40
0.0873874100863664
 40
0.1294367040828318
 40
0.1706601536745289
 40
0.2112767822142464
 40
0.251515523860958
 40
0.3768203646307535
 40
0.4963705226965158
 40
0.614749850069379
 40
0.7386675840819807
 40
0.822458718003971
 40
0.9089207553785577
 40
1.0
 40
1.0
 40
1.0
 40
1.0
 10
453.199949584073
 20
1552.526613238993
 30
0.0
 10
453.1752078932718
 20
1552.551269213455
 30
0.0
 10
453.1264081831774
 20
1552.599899859417
 30
0.0
 10
453.0571422260137
 20
1552.681012805989
 30
0.0
 10
452.9924360676011
 20
1552.766780735906
 30
0.0
 10
452.9326050864222
 20
1552.85781009848
 30
0.0
 10
452.8777306717716
 20
1552.95398951275
 30
0.0
 10
452.7929246315065
 20
1553.126457620472
 30
0.0
 10
452.6997119076439
 20
1553.394275337795
 30
0.0
 10
452.656770554171
 20
1553.773999465068
 30
0.0
 10
452.6940846003424
 20
1554.153526429389
 30
0.0
 10
452.7963102562862
 20
1554.463081314115
 30
0.0
 10
452.9213718750663
 20
1554.705224513316
 30
0.0
 10
453.050958641842
 20
1554.893554108227
 30
0.0
 10
453.1494006100506
 20
1554.995288749057
 30
0.0
 10
453.1999016541046
 20
1555.047478944681
 30
0.0
  0
SPLINE
  5
23C
330
1F
100
AcDbEntity
  8
0
  6
Continuous
 62
     7
370
    25
100
AcDbSpline
210
0.0
220
0.0
230
1.0
 70
     8
 71
     3
 72
    10
 73
     6
 74
     0
 42
0.000000001
 43
0.00000001
 40
0.0
 40
0.0
 40
0.0
 40
0.0
 40
0.4606607724083294
 40
0.9232502564498262
 40
1.0
 40
1.0
 40
1.0
 40
1.0
 10
456.229061082278
 20
1552.303834788333
 30
0.0
 10
456.2035353650529
 20
1552.32647938697
 30
0.0
 10
456.1523770585817
 20
1552.371863393493
 30
0.0
 10
456.0800780752205
 20
1552.576161342078
 30
0.0
 10
456.0532002349701
 20
1552.757699494177
 30
0.0
 10
456.0493754300219
 20
1552.783532969485
 30
0.0
  0
SPLINE
  5
23D
330
1F
100
AcDbEntity
  8
0
  6
Continuous
 62
     7
370
    25
100
AcDbSpline
210
0.0
220
0.0
230
1.0
 70
     8
 71
     3
 72
    12
 73
     8
 74
     0
 42
0.000000001
 43
0.00000001
 40
0.0
 40
0.0
 40
0.0
 40
0.0
 40
0.0200294136463851
 40
0.2556769814024578
 40
0.4922626961678051
 40
0.7458649191366212
 40
1.0
 40
1.0
 40
1.0
 40
1.0
 10
456.0407625588519
 20
1554.757996432314
 30
0.0
 10
456.0417137081392
 20
1554.7653870142
 30
0.0
 10
456.0538552007921
 20
1554.859728351425
 30
0.0
 10
456.088957894919
 20
1554.985638712352
 30
0.0
 10
456.1364076608431
 20
1555.146944129948
 30
0.0
 10
456.1859905820793
 20
1555.250576028413
 30
0.0
 10
456.2146942076272
 20
1555.263719647608
 30
0.0
 10
456.229061082278
 20
1555.270298354159
 30
0.0
  0
SPLINE
  5
23E
330
1F
100
AcDbEntity
  8
0
  6
Continuous
 62
     7
370
    25
100
AcDbSpline
210
0.0
220
0.0
230
1.0
 70
     8
 71
     3
 72
    10
 73
     6
 74
     0
 42
0.000000001
 43
0.00000001
 40
0.0
 40
0.0
 40
0.0
 40
0.0
 40
0.4603809468156585
 40
0.9226756282331564
 40
1.0
 40
1.0
 40
1.0
 40
1.0
 10
456.229061082278
 20
1547.303839556704
 30
0.0
 10
456.2034829790787
 20
1547.326226706457
 30
0.0
 10
456.1522204483381
 20
1547.371094065989
 30
0.0
 10
456.0804481341378
 20
1547.578057408074
 30
0.0
 10
456.0529962115622
 20
1547.757523267531
 30
0.0
 10
456.0490625056369
 20
1547.783239714633
 30
0.0
  0
SPLINE
  5
23F
330
1F
100
AcDbEntity
  8
0
  6
Continuous
 62
     7
370
    25
100
AcDbSpline
210
0.0
220
0.0
230
1.0
 70
     8
 71
     3
 72
    12
 73
     8
 74
     0
 42
0.000000001
 43
0.00000001
 40
0.0
 40
0.0
 40
0.0
 40
0.0
 40
0.0200891621176204
 40
0.2557524450505379
 40
0.492307440486813
 40
0.7458861303865745
 40
0.9999999999999999
 40
0.9999999999999999
 40
0.9999999999999999
 40
0.9999999999999999
 10
456.0406955036265
 20
1549.758060805331
 30
0.0
 10
456.0416698133942
 20
1549.765409159049
 30
0.0
 10
456.0540736211723
 20
1549.858960070713
 30
0.0
 10
456.0888543932709
 20
1549.98595357679
 30
0.0
 10
456.1364377132209
 20
1550.146859431714
 30
0.0
 10
456.1859832402037
 20
1550.250604520925
 30
0.0
 10
456.2146917139902
 20
1550.263732309147
 30
0.0
 10
456.229061082278
 20
1550.270303122531
 30
0.0
  0
SPLINE
  5
240
330
1F
100
AcDbEntity
  8
0
  6
Continuous
 62
     7
370
    25
100
AcDbSpline
210
0.0
220
0.0
230
1.0
 70
     8
 71
     3
 72
    10
 73
     6
 74
     0
 42
0.000000001
 43
0.00000001
 40
0.0
 40
0.0
 40
0.0
 40
0.0
 40
0.4606607724083294
 40
0.9232502564498262
 40
1.0
 40
1.0
 40
1.0
 40
1.0
 10
456.229061082278
 20
1542.303844325076
 30
0.0
 10
456.2035353650529
 20
1542.326488923713
 30
0.0
 10
456.1523770585817
 20
1542.371872930236
 30
0.0
 10
456.0800780752205
 20
1542.576170878821
 30
0.0
 10
456.0532002349701
 20
1542.757709030921
 30
0.0
 10
456.0493754300219
 20
1542.783542506228
 30
0.0
  0
SPLINE
  5
241
330
1F
100
AcDbEntity
  8
0
  6
Continuous
 62
     7
370
    25
100
AcDbSpline
210
0.0
220
0.0
230
1.0
 70
     8
 71
     3
 72
    12
 73
     8
 74
     0
 42
0.000000001
 43
0.00000001
 40
0.0
 40
0.0
 40
0.0
 40
0.0
 40
0.0200287979491076
 40
0.2556998462303656
 40
0.4922781343615402
 40
0.7458727311614847
 40
1.0
 40
1.0
 40
1.0
 40
1.0
 10
456.0407625588519
 20
1544.757946364413
 30
0.0
 10
456.0417137188867
 20
1544.76533688559
 30
0.0
 10
456.0538568078153
 20
1544.859688784957
 30
0.0
 10
456.0889532381589
 20
1544.985655923814
 30
0.0
 10
456.1364084623513
 20
1545.146949578394
 30
0.0
 10
456.185990362473
 20
1545.250586605868
 30
0.0
 10
456.2146941375699
 20
1545.263729532961
 30
0.0
 10
456.229061082278
 20
1545.270307890902
 30
0.0
  0
SPLINE
  5
242
330
1F
100
AcDbEntity
  8
0
  6
Continuous
 62
     7
370
    25
100
AcDbSpline
210
0.0
220
0.0
230
1.0
 70
     8
 71
     3
 72
    10
 73
     6
 74
     0
 42
0.000000001
 43
0.00000001
 40
0.0
 40
0.0
 40
0.0
 40
0.0
 40
0.4606607724083294
 40
0.9232502564498262
 40
1.0
 40
1.0
 40
1.0
 40
1.0
 10
456.229061082278
 20
1537.303849093447
 30
0.0
 10
456.2035353650529
 20
1537.326493692085
 30
0.0
 10
456.1523770585817
 20
1537.371877698608
 30
0.0
 10
456.0800780752205
 20
1537.576175647192
 30
0.0
 10
456.0532002349701
 20
1537.757713799292
 30
0.0
 10
456.0493754300219
 20
1537.7835472746
 30
0.0
  0
SPLINE
  5
243
330
1F
100
AcDbEntity
  8
0
  6
Continuous
 62
     7
370
    25
100
AcDbSpline
210
0.0
220
0.0
230
1.0
 70
     8
 71
     3
 72
    12
 73
     8
 74
     0
 42
0.000000001
 43
0.00000001
 40
0.0
 40
0.0
 40
0.0
 40
0.0
 40
0.0200287964739591
 40
0.2556998273977213
 40
0.4922782521753485
 40
0.7458726608215921
 40
1.0
 40
1.0
 40
1.0
 40
1.0
 10
456.0407625588519
 20
1539.757951132784
 30
0.0
 10
456.0417137188703
 20
1539.765341653916
 30
0.0
 10
456.0538568075901
 20
1539.859693552709
 30
0.0
 10
456.0889532639182
 20
1539.985660772192
 30
0.0
 10
456.1364084168043
 20
1540.146954226137
 30
0.0
 10
456.1859903967862
 20
1540.250591431539
 30
0.0
 10
456.2146941441437
 20
1540.263734318215
 30
0.0
 10
456.229061082278
 20
1540.270312659274
 30
0.0
  0
SPLINE
  5
244
330
1F
100
AcDbEntity
  8
0
  6
Continuous
 62
     7
370
    25
100
AcDbSpline
210
0.0
220
0.0
230
1.0
 70
     8
 71
     3
 72
    10
 73
     6
 74
     0
 42
0.000000001
 43
0.00000001
 40
0.0
 40
0.0
 40
0.0
 40
0.0
 40
0.4495894000249471
 40
0.901036280183895
 40
1.0
 40
1.0
 40
1.0
 40
1.0
 10
456.229061082278
 20
1532.303853861819
 30
0.0
 10
456.2035003524111
 20
1532.326293682372
 30
0.0
 10
456.1522732884352
 20
1532.371266033674
 30
0.0
 10
456.0785847327058
 20
1532.58287357199
 30
0.0
 10
456.0506377490896
 20
1532.773632011939
 30
0.0
 10
456.0456128868205
 20
1532.807930342684
 30
0.0
  0
SPLINE
  5
245
330
1F
100
AcDbEntity
  8
0
  6
Continuous
 62
     7
370
    25
100
AcDbSpline
210
0.0
220
0.0
230
1.0
 70
     8
 71
     3
 72
    12
 73
     8
 74
     0
 42
0.000000001
 43
0.00000001
 40
0.0
 40
0.0
 40
0.0
 40
0.0
 40
0.0061738252595878
 40
0.2451765794401096
 40
0.4850996904104956
 40
0.7422709312297865
 40
0.9999999999999999
 40
0.9999999999999999
 40
0.9999999999999999
 40
0.9999999999999999
 10
456.0427667650325
 20
1534.773274294863
 30
0.0
 10
456.0430611167822
 20
1534.775505316376
 30
0.0
 10
456.0547504912142
 20
1534.864104232013
 30
0.0
 10
456.0889991517429
 20
1534.985283512492
 30
0.0
 10
456.1363940499965
 20
1535.14706657823
 30
0.0
 10
456.1859958170788
 20
1535.250570659102
 30
0.0
 10
456.2146956296987
 20
1535.263730419164
 30
0.0
 10
456.229061082278
 20
1535.270317427645
 30
0.0
  0
SPLINE
  5
246
330
1F
100
AcDbEntity
  8
0
  6
Continuous
 62
     7
370
    25
100
AcDbSpline
210
0.0
220
0.0
230
1.0
 70
     8
 71
     3
 72
    10
 73
     6
 74
     0
 42
0.000000001
 43
0.00000001
 40
0.0
 40
0.0
 40
0.0
 40
0.0
 40
0.460672557607165
 40
0.9232482929420944
 40
1.0
 40
1.0
 40
1.0
 40
1.0
 10
456.229061082278
 20
1527.30385863019
 30
0.0
 10
456.2035360317058
 20
1527.326508602979
 30
0.0
 10
456.1523804788542
 20
1527.371902122447
 30
0.0
 10
456.0800765594433
 20
1527.576132071836
 30
0.0
 10
456.0532002049616
 20
1527.757663467479
 30
0.0
 10
456.0493754300219
 20
1527.783497206698
 30
0.0
  0
SPLINE
  5
247
330
1F
100
AcDbEntity
  8
0
  6
Continuous
 62
     7
370
    25
100
AcDbSpline
210
0.0
220
0.0
230
1.0
 70
     8
 71
     3
 72
    12
 73
     8
 74
     0
 42
0.000000001
 43
0.00000001
 40
0.0
 40
0.0
 40
0.0
 40
0.0
 40
0.020028787823715
 40
0.255699716963431
 40
0.4922780395651173
 40
0.7458638649043899
 40
1.0
 40
1.0
 40
1.0
 40
1.0
 10
456.0407625588519
 20
1529.757960669528
 30
0.0
 10
456.0417137186753
 20
1529.765351190381
 30
0.0
 10
456.0538568049062
 20
1529.859703085611
 30
0.0
 10
456.0889534399638
 20
1529.985670560871
 30
0.0
 10
456.1364072179175
 20
1530.146960957005
 30
0.0
 10
456.1859924471245
 20
1530.250603921673
 30
0.0
 10
456.214694500698
 20
1530.263744690229
 30
0.0
 10
456.229061082278
 20
1530.270322196017
 30
0.0
  0
SPLINE
  5
248
330
1F
100
AcDbEntity
  8
0
  6
Continuous
 62
     7
370
    25
100
AcDbSpline
210
0.0
220
0.0
230
1.0
 70
     8
 71
     3
 72
    10
 73
     6
 74
     0
 42
0.000000001
 43
0.00000001
 40
0.0
 40
0.0
 40
0.0
 40
0.0
 40
0.449268819558183
 40
0.9004141958070301
 40
1.0
 40
1.0
 40
1.0
 40
1.0
 10
456.229061082278
 20
1522.303863398562
 30
0.0
 10
456.2034510613866
 20
1522.326030999189
 30
0.0
 10
456.1521240487794
 20
1522.370458792577
 30
0.0
 10
456.0789324742776
 20
1522.584726383385
 30
0.0
 10
456.0503871555221
 20
1522.773354430896
 30
0.0
 10
456.0452254566295
 20
1522.807463042269
 30
0.0
  0
SPLINE
  5
249
330
1F
100
AcDbEntity
  8
0
  6
Continuous
 62
     7
370
    25
100
AcDbSpline
210
0.0
220
0.0
230
1.0
 70
     8
 71
     3
 72
    12
 73
     8
 74
     0
 42
0.000000001
 43
0.00000001
 40
0.0
 40
0.0
 40
0.0
 40
0.0
 40
0.0062156511196021
 40
0.2452154208226494
 40
0.4851196840065774
 40
0.7422883325591161
 40
1.0
 40
1.0
 40
1.0
 40
1.0
 10
456.0427518638713
 20
1524.773283831606
 30
0.0
 10
456.0430512100025
 20
1524.775514711098
 30
0.0
 10
456.0548607993969
 20
1524.863525772664
 30
0.0
 10
456.0889451738249
 20
1524.985548680972
 30
0.0
 10
456.1364114743527
 20
1525.147006916697
 30
0.0
 10
456.1859900278399
 20
1525.250596510544
 30
0.0
 10
456.2146939732532
 20
1525.263745523901
 30
0.0
 10
456.229061082278
 20
1525.270326964388
 30
0.0
  0
SPLINE
  5
24A
330
1F
100
AcDbEntity
  8
0
  6
Continuous
 62
     7
370
    25
100
AcDbSpline
210
0.0
220
0.0
230
1.0
 70
     8
 71
     3
 72
    10
 73
     6
 74
     0
 42
0.000000001
 43
0.00000001
 40
0.0
 40
0.0
 40
0.0
 40
0.0
 40
0.460677342886599
 40
0.9232489739353767
 40
0.9999999999999999
 40
0.9999999999999999
 40
0.9999999999999999
 40
0.9999999999999999
 10
456.229061082278
 20
1517.303808562289
 30
0.0
 10
456.2035362120207
 20
1517.326483441128
 30
0.0
 10
456.1523815141857
 20
1517.371926437068
 30
0.0
 10
456.0800765469793
 20
1517.576141083492
 30
0.0
 10
456.0532002034089
 20
1517.757672938807
 30
0.0
 10
456.0493754300219
 20
1517.783506743441
 30
0.0
  0
SPLINE
  5
24B
330
1F
100
AcDbEntity
  8
0
  6
Continuous
 62
     7
370
    25
100
AcDbSpline
210
0.0
220
0.0
230
1.0
 70
     8
 71
     3
 72
    12
 73
     8
 74
     0
 42
0.000000001
 43
0.00000001
 40
0.0
 40
0.0
 40
0.0
 40
0.0
 40
0.0200291558455528
 40
0.2557044153545959
 40
0.4922639660568194
 40
0.7458544509452517
 40
0.9999999999999999
 40
0.9999999999999999
 40
0.9999999999999999
 40
0.9999999999999999
 10
456.0407625588519
 20
1519.757970206271
 30
0.0
 10
456.0417137205744
 20
1519.765360709027
 30
0.0
 10
456.0538568310485
 20
1519.859712373225
 30
0.0
 10
456.0889500770487
 20
1519.985690522534
 30
0.0
 10
456.1364105492125
 20
1520.146900783164
 30
0.0
 10
456.1859924971158
 20
1520.250543026258
 30
0.0
 10
456.2146944281058
 20
1520.263730691612
 30
0.0
 10
456.229061082278
 20
1520.27033173276
 30
0.0
  0
SPLINE
  5
24C
330
1F
100
AcDbEntity
  8
0
  6
Continuous
 62
     7
370
    25
100
AcDbSpline
210
0.0
220
0.0
230
1.0
 70
     8
 71
     3
 72
    10
 73
     6
 74
     0
 42
0.000000001
 43
0.00000001
 40
0.0
 40
0.0
 40
0.0
 40
0.0
 40
0.4495942156382977
 40
0.9010371460302475
 40
1.0
 40
1.0
 40
1.0
 40
1.0
 10
456.229061082278
 20
1507.303818099032
 30
0.0
 10
456.203500532906
 20
1507.326282785619
 30
0.0
 10
456.1522743301304
 20
1507.371304532752
 30
0.0
 10
456.078584715561
 20
1507.582896700875
 30
0.0
 10
456.0506377464767
 20
1507.77365574514
 30
0.0
 10
456.0456128868205
 20
1507.807954184542
 30
0.0
  0
SPLINE
  5
24D
330
1F
100
AcDbEntity
  8
0
  6
Continuous
 62
     7
370
    25
100
AcDbSpline
210
0.0
220
0.0
230
1.0
 70
     8
 71
     3
 72
    12
 73
     8
 74
     0
 42
0.000000001
 43
0.00000001
 40
0.0
 40
0.0
 40
0.0
 40
0.0
 40
0.0062130973233595
 40
0.2451817029290035
 40
0.4851015208284251
 40
0.7422693993166606
 40
1.0
 40
1.0
 40
1.0
 40
1.0
 10
456.0427742156131
 20
1509.773238532076
 30
0.0
 10
456.0430660041903
 20
1509.77548958368
 30
0.0
 10
456.054580586456
 20
1509.864320747399
 30
0.0
 10
456.0890793383197
 20
1509.985140971718
 30
0.0
 10
456.1363714505064
 20
1510.147067299951
 30
0.0
 10
456.1860021683532
 20
1510.250511243496
 30
0.0
 10
456.2146976573954
 20
1510.263726446624
 30
0.0
 10
456.229061082278
 20
1510.270341269503
 30
0.0
  0
SPLINE
  5
24E
330
1F
100
AcDbEntity
  8
0
  6
Continuous
 62
     7
370
    25
100
AcDbSpline
210
0.0
220
0.0
230
1.0
 70
     8
 71
     3
 72
    10
 73
     6
 74
     0
 42
0.000000001
 43
0.00000001
 40
0.0
 40
0.0
 40
0.0
 40
0.0
 40
0.4606608445058682
 40
0.923250150205264
 40
1.0
 40
1.0
 40
1.0
 40
1.0
 10
456.229061082278
 20
1502.303822867404
 30
0.0
 10
456.2035353748928
 20
1502.326467418019
 30
0.0
 10
456.1523771020364
 20
1502.371851315969
 30
0.0
 10
456.080078027507
 20
1502.576149712992
 30
0.0
 10
456.0532002341088
 20
1502.757687575276
 30
0.0
 10
456.0493754300219
 20
1502.783521048556
 30
0.0
  0
SPLINE
  5
24F
330
1F
100
AcDbEntity
  8
0
  6
Continuous
 62
     7
370
    25
100
AcDbSpline
210
0.0
220
0.0
230
1.0
 70
     8
 71
     3
 72
    12
 73
     8
 74
     0
 42
0.000000001
 43
0.00000001
 40
0.0
 40
0.0
 40
0.0
 40
0.0
 40
0.0200294962845067
 40
0.2556768181989097
 40
0.4922624192491249
 40
0.7458560462811185
 40
1.0
 40
1.0
 40
1.0
 40
1.0
 10
456.0407625588519
 20
1504.757984511386
 30
0.0
 10
456.0417137075897
 20
1504.765375091855
 30
0.0
 10
456.0538551353847
 20
1504.859715961549
 30
0.0
 10
456.0889581127194
 20
1504.985627295681
 30
0.0
 10
456.136406451526
 20
1505.146929338528
 30
0.0
 10
456.1859926447283
 20
1505.250567090331
 30
0.0
 10
456.2146945666136
 20
1505.263708571
 30
0.0
 10
456.229061082278
 20
1505.27028643323
 30
0.0
  0
SPLINE
  5
250
330
1F
100
AcDbEntity
  8
0
  6
Continuous
 62
     7
370
    25
100
AcDbSpline
210
0.0
220
0.0
230
1.0
 70
     8
 71
     3
 72
    10
 73
     6
 74
     0
 42
0.000000001
 43
0.00000001
 40
0.0
 40
0.0
 40
0.0
 40
0.0
 40
0.4492904567307205
 40
0.9004488813140306
 40
1.0
 40
1.0
 40
1.0
 40
1.0
 10
456.229061082278
 20
1497.303827635775
 30
0.0
 10
456.2034502625885
 20
1497.32601665177
 30
0.0
 10
456.1521221437882
 20
1497.370486936707
 30
0.0
 10
456.078943161834
 20
1497.58476957973
 30
0.0
 10
456.0503874408444
 20
1497.773339682936
 30
0.0
 10
456.0452254566295
 20
1497.807427279482
 30
0.0
  0
SPLINE
  5
251
330
1F
100
AcDbEntity
  8
0
  6
Continuous
 62
     7
370
    25
100
AcDbSpline
210
0.0
220
0.0
230
1.0
 70
     8
 71
     3
 72
    12
 73
     8
 74
     0
 42
0.000000001
 43
0.00000001
 40
0.0
 40
0.0
 40
0.0
 40
0.0
 40
0.0062159396750725
 40
0.2451919719098034
 40
0.4851035269941772
 40
0.7422803315588414
 40
1.0
 40
1.0
 40
1.0
 40
1.0
 10
456.0427518638713
 20
1499.773307673464
 30
0.0
 10
456.0430512088309
 20
1499.77553855871
 30
0.0
 10
456.0548590745375
 20
1499.863537345885
 30
0.0
 10
456.0889499377358
 20
1499.98550523244
 30
0.0
 10
456.136410716458
 20
1500.146975442307
 30
0.0
 10
456.1859902102834
 20
1500.250559628766
 30
0.0
 10
456.2146940373064
 20
1500.26370938932
 30
0.0
 10
456.229061082278
 20
1500.270291201602
 30
0.0
  0
SPLINE
  5
252
330
1F
100
AcDbEntity
  8
0
  6
Continuous
 62
     7
370
    25
100
AcDbSpline
210
0.0
220
0.0
230
1.0
 70
     8
 71
     3
 72
    10
 73
     6
 74
     0
 42
0.000000001
 43
0.00000001
 40
0.0
 40
0.0
 40
0.0
 40
0.0
 40
0.4492906250230322
 40
0.900448883842241
 40
1.0
 40
1.0
 40
1.0
 40
1.0
 10
456.229061082278
 20
1512.30381333066
 30
0.0
 10
456.2034502703008
 20
1512.326002320207
 30
0.0
 10
456.1521221860394
 20
1512.370472535606
 30
0.0
 10
456.0789431514673
 20
1512.584755332128
 30
0.0
 10
456.0503874404823
 20
1512.773325378537
 30
0.0
 10
456.0452254566295
 20
1512.807412974368
 30
0.0
  0
SPLINE
  5
253
330
1F
100
AcDbEntity
  8
0
  6
Continuous
 62
     7
370
    25
100
AcDbSpline
210
0.0
220
0.0
230
1.0
 70
     8
 71
     3
 72
    12
 73
     8
 74
     0
 42
0.000000001
 43
0.00000001
 40
0.0
 40
0.0
 40
0.0
 40
0.0
 40
0.0062158618349997
 40
0.2452200585978975
 40
0.4851051635415043
 40
0.7422787475695783
 40
1.0
 40
1.0
 40
1.0
 40
1.0
 10
456.0427518638713
 20
1514.77329336835
 30
0.0
 10
456.0430512100913
 20
1514.775524245712
 30
0.0
 10
456.0548606259946
 20
1514.863533904241
 30
0.0
 10
456.0889418511946
 20
1514.985569305088
 30
0.0
 10
456.1364148315361
 20
1515.146946650879
 30
0.0
 10
456.1859900581911
 20
1515.250535623678
 30
0.0
 10
456.2146938972933
 20
1515.263731530034
 30
0.0
 10
456.229061082278
 20
1515.270336501132
 30
0.0
  0
SPLINE
  5
254
330
1F
100
AcDbEntity
  8
0
  6
Continuous
 62
     7
370
    25
100
AcDbSpline
210
0.0
220
0.0
230
1.0
 70
     8
 71
     3
 72
    17
 73
    13
 74
     0
 42
0.000000001
 43
0.00000001
 40
0.0
 40
0.0
 40
0.0
 40
0.0
 40
0.065885404531441
 40
0.1315397266104615
 40
0.1973292258066479
 40
0.2636179205260424
 40
0.3707579949707101
 40
0.4779441820636244
 40
0.605089840113498
 40
0.7325045343348258
 40
0.8661906768677415
 40
1.0
 40
1.0
 40
1.0
 40
1.0
 10
454.8052428794726
 20
1554.448138533854
 30
0.0
 10
454.8131164975518
 20
1554.48044924095
 30
0.0
 10
454.8288361182621
 20
1554.544957330537
 30
0.0
 10
454.8562167396183
 20
1554.636489472053
 30
0.0
 10
454.8861743967353
 20
1554.723683238992
 30
0.0
 10
454.9254568482202
 20
1554.822753869585
 30
0.0
 10
454.975518233436
 20
1554.928804575748
 30
0.0
 10
455.0413034279841
 20
1555.04011089511
 30
0.0
 10
455.1150100834793
 20
1555.136580032927
 30
0.0
 10
455.1967003099405
 20
1555.211794776488
 30
0.0
 10
455.2805918381565
 20
1555.261148779298
 30
0.0
 10
455.3358477422045
 20
1555.267259606562
 30
0.0
 10
455.3634884167907
 20
1555.2703164272
 30
0.0
  0
LINE
  5
255
330
1F
100
AcDbEntity
  8
0
  6
Continuous
 62
     7
370
    25
100
AcDbLine
 10
454.8052774819
 20
1553.1258424444
 30
0.0
 11
454.7518866214
 21
1553.437336318
 31
0.0
  0
SPLINE
  5
256
330
1F
100
AcDbEntity
  8
0
  6
Continuous
 62
     7
370
    25
100
AcDbSpline
210
0.0
220
0.0
230
1.0
 70
     8
 71
     3
 72
     9
 73
     5
 74
     0
 42
0.000000001
 43
0.00000001
 40
0.0
 40
0.0
 40
0.0
 40
0.0
 40
0.1724350718106804
 40
1.0
 40
1.0
 40
1.0
 40
1.0
 10
454.7458665522677
 20
1554.053409926425
 30
0.0
 10
454.7469617129381
 20
1554.077328242453
 30
0.0
 10
454.7533128609897
 20
1554.216037356428
 30
0.0
 10
454.7817222032097
 20
1554.343023010464
 30
0.0
 10
454.805232778464
 20
1554.448111884127
 30
0.0
  0
SPLINE
  5
257
330
1F
100
AcDbEntity
  8
0
  6
Continuous
 62
     7
370
    25
100
AcDbSpline
210
0.0
220
0.0
230
1.0
 70
     8
 71
     3
 72
    17
 73
    13
 74
     0
 42
0.000000001
 43
0.00000001
 40
0.0
 40
0.0
 40
0.0
 40
0.0
 40
0.0624664750212309
 40
0.1246211496880875
 40
0.1867465133637303
 40
0.2491254536289055
 40
0.3733025818580267
 40
0.4972320986530181
 40
0.6090497433292288
 40
0.7209796241737566
 40
0.86080079946686
 40
0.9999999999999999
 40
0.9999999999999999
 40
0.9999999999999999
 40
0.9999999999999999
 10
455.3634884364151
 20
1552.303837067678
 30
0.0
 10
455.3506767895148
 20
1552.304500592625
 30
0.0
 10
455.3251174448328
 20
1552.305824330546
 30
0.0
 10
455.2860833962668
 20
1552.316626166297
 30
0.0
 10
455.246775212643
 20
1552.333904821693
 30
0.0
 10
455.1942137282024
 20
1552.366223333679
 30
0.0
 10
455.1286705834269
 20
1552.42315048102
 30
0.0
 10
455.0547981676439
 20
1552.51440616758
 30
0.0
 10
454.9868962333043
 20
1552.623779578329
 30
0.0
 10
454.9212564287814
 20
1552.758337827901
 30
0.0
 10
454.857444067588
 20
1552.923153131434
 30
0.0
 10
454.8226397051465
 20
1553.058398841805
 30
0.0
 10
454.805276315779
 20
1553.125870956353
 30
0.0
  0
LINE
  5
258
330
1F
100
AcDbEntity
  8
0
  6
Continuous
 62
     7
370
    25
100
AcDbLine
 10
455.3634898814
 20
1555.2702983542
 30
0.0
 11
455.4452972564
 21
1555.2265485449
 31
0.0
  0
LINE
  5
259
330
1F
100
AcDbEntity
  8
0
  6
Continuous
 62
     7
370
    25
100
AcDbLine
 10
455.4472418579
 20
1552.3284515066
 30
0.0
 11
455.3634898814
 21
1552.3038347883
 31
0.0
  0
SPLINE
  5
25A
330
1F
100
AcDbEntity
  8
0
  6
Continuous
 62
     7
370
    25
100
AcDbSpline
210
0.0
220
0.0
230
1.0
 70
     8
 71
     3
 72
    17
 73
    13
 74
     0
 42
0.000000001
 43
0.00000001
 40
0.0
 40
0.0
 40
0.0
 40
0.0
 40
0.0658854054611142
 40
0.1315397283379974
 40
0.1973292283410107
 40
0.2636179240160837
 40
0.3707580013573393
 40
0.477944192255027
 40
0.6050898540438887
 40
0.7325045519619099
 40
0.8661906911844254
 40
1.0
 40
1.0
 40
1.0
 40
1.0
 10
454.8052428714786
 20
1549.448138301213
 30
0.0
 10
454.8131164883138
 20
1549.480449016111
 30
0.0
 10
454.8288361065247
 20
1549.544957121211
 30
0.0
 10
454.8562167259343
 20
1549.636489285657
 30
0.0
 10
454.8861743823679
 20
1549.723683074926
 30
0.0
 10
454.9254568348204
 20
1549.822753732045
 30
0.0
 10
454.9755182236843
 20
1549.928804467875
 30
0.0
 10
455.0413034255192
 20
1550.040110818893
 30
0.0
 10
455.1150100909613
 20
1550.136579984323
 30
0.0
 10
455.1967003281558
 20
1550.211794745479
 30
0.0
 10
455.2805918637154
 20
1550.261148759066
 30
0.0
 10
455.3358477710088
 20
1550.267259585122
 30
0.0
 10
455.3634884460825
 20
1550.27031640503
 30
0.0
  0
LINE
  5
25B
330
1F
100
AcDbEntity
  8
0
  6
Continuous
 62
     7
370
    25
100
AcDbLine
 10
454.8052774819
 20
1548.1258472128
 30
0.0
 11
454.7518866214
 21
1548.4373410864
 31
0.0
  0
SPLINE
  5
25C
330
1F
100
AcDbEntity
  8
0
  6
Continuous
 62
     7
370
    25
100
AcDbSpline
210
0.0
220
0.0
230
1.0
 70
     8
 71
     3
 72
     9
 73
     5
 74
     0
 42
0.000000001
 43
0.00000001
 40
0.0
 40
0.0
 40
0.0
 40
0.0
 40
0.1724351316826736
 40
1.0
 40
1.0
 40
1.0
 40
1.0
 10
454.7458665522677
 20
1549.053414694796
 30
0.0
 10
454.746961712723
 20
1549.077333010053
 30
0.0
 10
454.7533128573216
 20
1549.216042071389
 30
0.0
 10
454.7817222024795
 20
1549.34302775881
 30
0.0
 10
454.805232778464
 20
1549.448116652499
 30
0.0
  0
SPLINE
  5
25D
330
1F
100
AcDbEntity
  8
0
  6
Continuous
 62
     7
370
    25
100
AcDbSpline
210
0.0
220
0.0
230
1.0
 70
     8
 71
     3
 72
    17
 73
    13
 74
     0
 42
0.000000001
 43
0.00000001
 40
0.0
 40
0.0
 40
0.0
 40
0.0
 40
0.0624664737888333
 40
0.1246211484380247
 40
0.186746513428909
 40
0.2491254564424774
 40
0.3733025882600017
 40
0.4972321082971773
 40
0.6090497508963196
 40
0.7209796296731172
 40
0.8608008019098645
 40
0.9999999999999999
 40
0.9999999999999999
 40
0.9999999999999999
 40
0.9999999999999999
 10
455.363488465707
 20
1547.303837082139
 30
0.0
 10
455.3506768174529
 20
1547.30450060712
 30
0.0
 10
455.3251174698225
 20
1547.305824345121
 30
0.0
 10
455.2860834162843
 20
1547.316626184346
 30
0.0
 10
455.2467752268522
 20
1547.333904845676
 30
0.0
 10
455.1942137342365
 20
1547.366223368496
 30
0.0
 10
455.1286705795181
 20
1547.423150534335
 30
0.0
 10
455.0547981551485
 20
1547.51440624919
 30
0.0
 10
454.9868962157556
 20
1547.623779691009
 30
0.0
 10
454.9212564098972
 20
1547.758337974687
 30
0.0
 10
454.8574440505485
 20
1547.923153317939
 30
0.0
 10
454.8226396938878
 20
1548.058399057133
 30
0.0
 10
454.8052763073668
 20
1548.125871186207
 30
0.0
  0
LINE
  5
25E
330
1F
100
AcDbEntity
  8
0
  6
Continuous
 62
     7
370
    25
100
AcDbLine
 10
455.3634898814
 20
1550.2703031225
 30
0.0
 11
455.4452972564
 21
1550.2265533133
 31
0.0
  0
LINE
  5
25F
330
1F
100
AcDbEntity
  8
0
  6
Continuous
 62
     7
370
    25
100
AcDbLine
 10
455.4472418579
 20
1547.3283966704
 30
0.0
 11
455.3634898814
 21
1547.3038395567
 31
0.0
  0
SPLINE
  5
260
330
1F
100
AcDbEntity
  8
0
  6
Continuous
 62
     7
370
    25
100
AcDbSpline
210
0.0
220
0.0
230
1.0
 70
     8
 71
     3
 72
    17
 73
    13
 74
     0
 42
0.000000001
 43
0.00000001
 40
0.0
 40
0.0
 40
0.0
 40
0.0
 40
0.065885402296468
 40
0.1315397217547216
 40
0.1973292181280576
 40
0.2636179100083709
 40
0.3707579807426951
 40
0.477944164373
 40
0.6050898221532733
 40
0.732504516258781
 40
0.8661906732740995
 40
1.0
 40
1.0
 40
1.0
 40
1.0
 10
454.8052428728196
 20
1544.44813805812
 30
0.0
 10
454.8131164878865
 20
1544.480448778997
 30
0.0
 10
454.8288361025358
 20
1544.544956895903
 30
0.0
 10
454.8562167177428
 20
1544.636489078515
 30
0.0
 10
454.8861743707687
 20
1544.723682885893
 30
0.0
 10
454.9254568200923
 20
1544.822753564569
 30
0.0
 10
454.9755182066797
 20
1544.92880432502
 30
0.0
 10
455.0413034088099
 20
1545.040110705575
 30
0.0
 10
455.1150100776791
 20
1545.136579900457
 30
0.0
 10
455.196700326067
 20
1545.211794693159
 30
0.0
 10
455.2805918791071
 20
1545.261148732842
 30
0.0
 10
455.335847800775
 20
1545.267259563752
 30
0.0
 10
455.3634884830497
 20
1545.270316386089
 30
0.0
  0
LINE
  5
261
330
1F
100
AcDbEntity
  8
0
  6
Continuous
 62
     7
370
    25
100
AcDbLine
 10
454.8052774819
 20
1543.1258519812
 30
0.0
 11
454.7518866214
 21
1543.4373458548
 31
0.0
  0
SPLINE
  5
262
330
1F
100
AcDbEntity
  8
0
  6
Continuous
 62
     7
370
    25
100
AcDbSpline
210
0.0
220
0.0
230
1.0
 70
     8
 71
     3
 72
     9
 73
     5
 74
     0
 42
0.000000001
 43
0.00000001
 40
0.0
 40
0.0
 40
0.0
 40
0.0
 40
0.1724351316826736
 40
1.0
 40
1.0
 40
1.0
 40
1.0
 10
454.7458665522677
 20
1544.053419463168
 30
0.0
 10
454.746961712723
 20
1544.077337778425
 30
0.0
 10
454.7533128573216
 20
1544.216046839761
 30
0.0
 10
454.7817222024795
 20
1544.343032527182
 30
0.0
 10
454.805232778464
 20
1544.44812142087
 30
0.0
  0
SPLINE
  5
263
330
1F
100
AcDbEntity
  8
0
  6
Continuous
 62
     7
370
    25
100
AcDbSpline
210
0.0
220
0.0
230
1.0
 70
     8
 71
     3
 72
    17
 73
    13
 74
     0
 42
0.000000001
 43
0.00000001
 40
0.0
 40
0.0
 40
0.0
 40
0.0
 40
0.0624664763032453
 40
0.1246211525835145
 40
0.1867465184112638
 40
0.2491254615675006
 40
0.373302593200418
 40
0.4972321130844179
 40
0.6090497583316732
 40
0.7209796380400221
 40
0.8608008061878836
 40
0.9999999999999999
 40
0.9999999999999999
 40
0.9999999999999999
 40
0.9999999999999999
 10
455.3634885026741
 20
1542.303837108788
 30
0.0
 10
455.3506768523496
 20
1542.304500634192
 30
0.0
 10
455.3251175007675
 20
1542.305824373026
 30
0.0
 10
455.286083441341
 20
1542.316626216035
 30
0.0
 10
455.2467752464867
 20
1542.33390488302
 30
0.0
 10
455.1942137473251
 20
1542.366223416151
 30
0.0
 10
455.128670585091
 20
1542.423150599585
 30
0.0
 10
455.054798153039
 20
1542.514406342274
 30
0.0
 10
454.9868962079375
 20
1542.623779816223
 30
0.0
 10
454.9212563997503
 20
1542.758338136472
 30
0.0
 10
454.8574440427087
 20
1542.92315352012
 30
0.0
 10
454.8226396929034
 20
1543.058399287473
 30
0.0
 10
454.8052763098155
 20
1543.125871430544
 30
0.0
  0
LINE
  5
264
330
1F
100
AcDbEntity
  8
0
  6
Continuous
 62
     7
370
    25
100
AcDbLine
 10
455.3634898814
 20
1545.2703078909
 30
0.0
 11
455.4452972564
 21
1545.2265580816
 31
0.0
  0
LINE
  5
265
330
1F
100
AcDbEntity
  8
0
  6
Continuous
 62
     7
370
    25
100
AcDbLine
 10
455.4472418579
 20
1542.3284014387
 30
0.0
 11
455.3634898814
 21
1542.3038443251
 31
0.0
  0
SPLINE
  5
266
330
1F
100
AcDbEntity
  8
0
  6
Continuous
 62
     7
370
    25
100
AcDbSpline
210
0.0
220
0.0
230
1.0
 70
     8
 71
     3
 72
    17
 73
    13
 74
     0
 42
0.000000001
 43
0.00000001
 40
0.0
 40
0.0
 40
0.0
 40
0.0
 40
0.0658854048417083
 40
0.1315397265406489
 40
0.1973292249745451
 40
0.2636179188619794
 40
0.3707579892508628
 40
0.4779441716019568
 40
0.6050898327671766
 40
0.7325045303922415
 40
0.8661906803499617
 40
1.0
 40
1.0
 40
1.0
 40
1.0
 10
454.8052428640557
 20
1539.448137826342
 30
0.0
 10
454.8131164782923
 20
1539.480448555627
 30
0.0
 10
454.8288360912485
 20
1539.544956689178
 30
0.0
 10
454.8562167055767
 20
1539.636488896242
 30
0.0
 10
454.8861743588473
 20
1539.723682727197
 30
0.0
 10
454.9254568093057
 20
1539.822753431602
 30
0.0
 10
454.9755181983638
 20
1539.928804218928
 30
0.0
 10
455.041303406217
 20
1540.040110628535
 30
0.0
 10
455.1150100840874
 20
1540.136579849446
 30
0.0
 10
455.1967003423329
 20
1540.211794660368
 30
0.0
 10
455.2805919037195
 20
1540.261148710054
 30
0.0
 10
455.3358478294035
 20
1540.267259541631
 30
0.0
 10
455.3634885136859
 20
1540.270316364302
 30
0.0
  0
LINE
  5
267
330
1F
100
AcDbEntity
  8
0
  6
Continuous
 62
     7
370
    25
100
AcDbLine
 10
454.8052774819
 20
1538.1258567495
 30
0.0
 11
454.7518866214
 21
1538.4373506231
 31
0.0
  0
SPLINE
  5
268
330
1F
100
AcDbEntity
  8
0
  6
Continuous
 62
     7
370
    25
100
AcDbSpline
210
0.0
220
0.0
230
1.0
 70
     8
 71
     3
 72
     9
 73
     5
 74
     0
 42
0.000000001
 43
0.00000001
 40
0.0
 40
0.0
 40
0.0
 40
0.0
 40
0.1724351316826736
 40
1.0
 40
1.0
 40
1.0
 40
1.0
 10
454.7458665522677
 20
1539.053424231539
 30
0.0
 10
454.746961712723
 20
1539.077342546796
 30
0.0
 10
454.7533128573216
 20
1539.216051608132
 30
0.0
 10
454.7817222024795
 20
1539.343037295553
 30
0.0
 10
454.805232778464
 20
1539.448126189242
 30
0.0
  0
SPLINE
  5
269
330
1F
100
AcDbEntity
  8
0
  6
Continuous
 62
     7
370
    25
100
AcDbSpline
210
0.0
220
0.0
230
1.0
 70
     8
 71
     3
 72
    17
 73
    13
 74
     0
 42
0.000000001
 43
0.00000001
 40
0.0
 40
0.0
 40
0.0
 40
0.0
 40
0.062466474621012
 40
0.1246211494985821
 40
0.1867465142788263
 40
0.2491254568136721
 40
0.373302587270363
 40
0.4972321058320877
 40
0.6090497519029037
 40
0.7209796325199123
 40
0.8608008032181004
 40
1.0
 40
1.0
 40
1.0
 40
1.0
 10
455.3634885333103
 20
1537.303837106877
 30
0.0
 10
455.3506768815818
 20
1537.304500632492
 30
0.0
 10
455.3251175271429
 20
1537.305824371753
 30
0.0
 10
455.2860834631789
 20
1537.316626217878
 30
0.0
 10
455.2467752635487
 20
1537.333904889805
 30
0.0
 10
455.1942137578104
 20
1537.366223432017
 30
0.0
 10
455.1286705875315
 20
1537.423150631176
 30
0.0
 10
455.0547981470942
 20
1537.514406399382
 30
0.0
 10
454.9868961954182
 20
1537.623779904085
 30
0.0
 10
454.9212563825872
 20
1537.758338262936
 30
0.0
 10
454.8574440239129
 20
1537.923153693465
 30
0.0
 10
454.8226396781737
 20
1538.05839949677
 30
0.0
 10
454.8052762970873
 20
1538.125871657883
 30
0.0
  0
LINE
  5
26A
330
1F
100
AcDbEntity
  8
0
  6
Continuous
 62
     7
370
    25
100
AcDbLine
 10
455.3634898814
 20
1540.2703126593
 30
0.0
 11
455.4452972564
 21
1540.2265032454
 31
0.0
  0
LINE
  5
26B
330
1F
100
AcDbEntity
  8
0
  6
Continuous
 62
     7
370
    25
100
AcDbLine
 10
455.4472418579
 20
1537.3284062071
 30
0.0
 11
455.3634898814
 21
1537.3038490934
 31
0.0
  0
SPLINE
  5
26C
330
1F
100
AcDbEntity
  8
0
  6
Continuous
 62
     7
370
    25
100
AcDbSpline
210
0.0
220
0.0
230
1.0
 70
     8
 71
     3
 72
    17
 73
    13
 74
     0
 42
0.000000001
 43
0.00000001
 40
0.0
 40
0.0
 40
0.0
 40
0.0
 40
0.0653949943613005
 40
0.1305832908632112
 40
0.1959237369653608
 40
0.261772692198214
 40
0.3698313880019366
 40
0.4779410344551615
 40
0.6050897774766897
 40
0.7325030204390948
 40
0.8661935139706246
 40
1.0
 40
1.0
 40
1.0
 40
1.0
 10
454.8052486877326
 20
1534.448131063938
 30
0.0
 10
454.8130607128468
 20
1534.480204480695
 30
0.0
 10
454.8286600711417
 20
1534.544249937847
 30
0.0
 10
454.8558153050324
 20
1534.6351755928
 30
0.0
 10
454.8855228133612
 20
1534.721855772687
 30
0.0
 10
454.92473824241
 20
1534.821101446717
 30
0.0
 10
454.9749902824764
 20
1534.927873860396
 30
0.0
 10
455.0411161001937
 20
1535.039865537345
 30
0.0
 10
455.1150099140879
 20
1535.13658328881
 30
0.0
 10
455.1967014689001
 20
1535.211797035264
 30
0.0
 10
455.2805926898043
 20
1535.261148630248
 30
0.0
 10
455.3358486082574
 20
1535.267259603057
 30
0.0
 10
455.3634885475669
 20
1535.270316414386
 30
0.0
  0
LINE
  5
26D
330
1F
100
AcDbEntity
  8
0
  6
Continuous
 62
     7
370
    25
100
AcDbLine
 10
454.8052774819
 20
1533.1258615179
 30
0.0
 11
454.7518866214
 21
1533.4373553915
 31
0.0
  0
SPLINE
  5
26E
330
1F
100
AcDbEntity
  8
0
  6
Continuous
 62
     7
370
    25
100
AcDbSpline
210
0.0
220
0.0
230
1.0
 70
     8
 71
     3
 72
     9
 73
     5
 74
     0
 42
0.000000001
 43
0.00000001
 40
0.0
 40
0.0
 40
0.0
 40
0.0
 40
0.1724351316826736
 40
1.0
 40
1.0
 40
1.0
 40
1.0
 10
454.7458665522677
 20
1534.053428999911
 30
0.0
 10
454.746961712723
 20
1534.077347315168
 30
0.0
 10
454.7533128573216
 20
1534.216056376504
 30
0.0
 10
454.7817222024795
 20
1534.343042063925
 30
0.0
 10
454.805232778464
 20
1534.448130957614
 30
0.0
  0
SPLINE
  5
26F
330
1F
100
AcDbEntity
  8
0
  6
Continuous
 62
     7
370
    25
100
AcDbSpline
210
0.0
220
0.0
230
1.0
 70
     8
 71
     3
 72
    17
 73
    13
 74
     0
 42
0.000000001
 43
0.00000001
 40
0.0
 40
0.0
 40
0.0
 40
0.0
 40
0.0625098326851935
 40
0.1246793714468143
 40
0.1867906109416952
 40
0.2491263370385501
 40
0.3732933697485981
 40
0.4972402063607324
 40
0.6100174526658473
 40
0.7228735531864925
 40
0.8617818182984828
 40
1.0
 40
1.0
 40
1.0
 40
1.0
 10
455.3634885663249
 20
1532.303837058962
 30
0.0
 10
455.3506677162596
 20
1532.30449918205
 30
0.0
 10
455.3250958108667
 20
1532.305819823729
 30
0.0
 10
455.286050428493
 20
1532.316603917421
 30
0.0
 10
455.246748232272
 20
1532.333856262953
 30
0.0
 10
455.1941969672125
 20
1532.366140500641
 30
0.0
 10
455.1286583040985
 20
1532.423059945064
 30
0.0
 10
455.0545942336137
 20
1532.514604019422
 30
0.0
 10
454.9863412208902
 20
1532.624696792062
 30
0.0
 10
454.9206038686507
 20
1532.759886440794
 30
0.0
 10
454.8570648921518
 20
1532.924522484914
 30
0.0
 10
454.8225105151157
 20
1533.058866979029
 30
0.0
 10
454.8052763492009
 20
1533.125871957845
 30
0.0
  0
SPLINE
  5
270
330
1F
100
AcDbEntity
  8
0
  6
Continuous
 62
     7
370
    25
100
AcDbSpline
210
0.0
220
0.0
230
1.0
 70
     8
 71
     3
 72
    17
 73
    13
 74
     0
 42
0.000000001
 43
0.00000001
 40
0.0
 40
0.0
 40
0.0
 40
0.0
 40
0.0658854023172349
 40
0.1315397212977306
 40
0.1973292170432338
 40
0.2636179084941472
 40
0.3707579807868189
 40
0.477944167403814
 40
0.6050898258023686
 40
0.7325045207571833
 40
0.8661906724487355
 40
0.9999999999999999
 40
0.9999999999999999
 40
0.9999999999999999
 40
0.9999999999999999
 10
454.8052428581729
 20
1529.448137349746
 30
0.0
 10
454.8131164691769
 20
1529.480448092928
 30
0.0
 10
454.8288360756548
 20
1529.544956254124
 30
0.0
 10
454.8562166835251
 20
1529.636488502716
 30
0.0
 10
454.8861743326561
 20
1529.723682374643
 30
0.0
 10
454.9254567819835
 20
1529.822753129825
 30
0.0
 10
454.9755181751851
 20
1529.928803976042
 30
0.0
 10
455.0413033930878
 20
1530.040110449114
 30
0.0
 10
455.1150100850254
 20
1530.136579726309
 30
0.0
 10
455.196700361425
 20
1530.211794582881
 30
0.0
 10
455.2805919455397
 20
1530.261148664263
 30
0.0
 10
455.3358478870893
 20
1530.267259501751
 30
0.0
 10
455.3634885799448
 20
1530.270316327449
 30
0.0
  0
LINE
  5
271
330
1F
100
AcDbEntity
  8
0
  6
Continuous
 62
     7
370
    25
100
AcDbLine
 10
454.8052774819
 20
1528.1258662863
 30
0.0
 11
454.7518866214
 21
1528.4373601599
 31
0.0
  0
SPLINE
  5
272
330
1F
100
AcDbEntity
  8
0
  6
Continuous
 62
     7
370
    25
100
AcDbSpline
210
0.0
220
0.0
230
1.0
 70
     8
 71
     3
 72
     9
 73
     5
 74
     0
 42
0.000000001
 43
0.00000001
 40
0.0
 40
0.0
 40
0.0
 40
0.0
 40
0.1724351316826736
 40
1.0
 40
1.0
 40
1.0
 40
1.0
 10
454.7458665522677
 20
1529.053433768283
 30
0.0
 10
454.746961712723
 20
1529.077352083539
 30
0.0
 10
454.7533128573216
 20
1529.216061144876
 30
0.0
 10
454.7817222024795
 20
1529.343046832296
 30
0.0
 10
454.805232778464
 20
1529.448135725985
 30
0.0
  0
SPLINE
  5
273
330
1F
100
AcDbEntity
  8
0
  6
Continuous
 62
     7
370
    25
100
AcDbSpline
210
0.0
220
0.0
230
1.0
 70
     8
 71
     3
 72
    17
 73
    13
 74
     0
 42
0.000000001
 43
0.00000001
 40
0.0
 40
0.0
 40
0.0
 40
0.0
 40
0.0624664746937305
 40
0.1246211493211298
 40
0.1867465136884045
 40
0.2491254558100074
 40
0.3733025859224837
 40
0.4972321039997169
 40
0.6090497508230889
 40
0.7209796317034682
 40
0.8608008024260613
 40
0.9999999999999999
 40
0.9999999999999999
 40
0.9999999999999999
 40
0.9999999999999999
 10
455.3634885995693
 20
1527.303837161126
 30
0.0
 10
455.3506769447521
 20
1527.304500687293
 30
0.0
 10
455.3251175842174
 20
1527.30582442765
 30
0.0
 10
455.2860835108507
 20
1527.316626280225
 30
0.0
 10
455.2467753018873
 20
1527.333904962144
 30
0.0
 10
455.1942137838137
 20
1527.366223522773
 30
0.0
 10
455.1286705987221
 20
1527.423150753804
 30
0.0
 10
455.0547981435959
 20
1527.514406572409
 30
0.0
 10
454.9868961814068
 20
1527.623780136008
 30
0.0
 10
454.9212563630599
 20
1527.758338565425
 30
0.0
 10
454.8574440053508
 20
1527.923154079578
 30
0.0
 10
454.8226396699825
 20
1528.058399945234
 30
0.0
 10
454.805276294022
 20
1528.125872137638
 30
0.0
  0
LINE
  5
274
330
1F
100
AcDbEntity
  8
0
  6
Continuous
 62
     7
370
    25
100
AcDbLine
 10
455.3634898814
 20
1530.270322196
 30
0.0
 11
455.4452972564
 21
1530.2265127821
 31
0.0
  0
LINE
  5
275
330
1F
100
AcDbEntity
  8
0
  6
Continuous
 62
     7
370
    25
100
AcDbLine
 10
455.4472418579
 20
1527.3284157438
 30
0.0
 11
455.3634898814
 21
1527.3038586302
 31
0.0
  0
SPLINE
  5
276
330
1F
100
AcDbEntity
  8
0
  6
Continuous
 62
     7
370
    25
100
AcDbSpline
210
0.0
220
0.0
230
1.0
 70
     8
 71
     3
 72
    17
 73
    13
 74
     0
 42
0.000000001
 43
0.00000001
 40
0.0
 40
0.0
 40
0.0
 40
0.0
 40
0.0653949874179358
 40
0.1305832770751329
 40
0.1959237166267362
 40
0.2617726657922503
 40
0.3698313636971138
 40
0.4779410160770531
 40
0.6050897580152542
 40
0.7325030002256439
 40
0.8661935041010081
 40
0.9999999999999999
 40
0.9999999999999999
 40
0.9999999999999999
 40
0.9999999999999999
 10
454.8052486695367
 20
1524.448130603453
 30
0.0
 10
454.8130606909496
 20
1524.480204032719
 30
0.0
 10
454.8286600418626
 20
1524.544249514887
 30
0.0
 10
454.8558152678697
 20
1524.635175207922
 30
0.0
 10
454.8855227706489
 20
1524.721855425997
 30
0.0
 10
454.9247381978432
 20
1524.821101151089
 30
0.0
 10
454.9749902425899
 20
1524.927873626955
 30
0.0
 10
455.041116072342
 20
1525.039865373111
 30
0.0
 10
455.115009902885
 20
1525.136583186899
 30
0.0
 10
455.19670148021
 20
1525.211796985138
 30
0.0
 10
455.2805927283876
 20
1525.261148617532
 30
0.0
 10
455.3358486661525
 20
1525.26725959472
 30
0.0
 10
455.3634886150722
 20
1525.270316408235
 30
0.0
  0
LINE
  5
277
330
1F
100
AcDbEntity
  8
0
  6
Continuous
 62
     7
370
    25
100
AcDbLine
 10
454.8052774819
 20
1523.1258710547
 30
0.0
 11
454.7518866214
 21
1523.4373649283
 31
0.0
  0
SPLINE
  5
278
330
1F
100
AcDbEntity
  8
0
  6
Continuous
 62
     7
370
    25
100
AcDbSpline
210
0.0
220
0.0
230
1.0
 70
     8
 71
     3
 72
     9
 73
     5
 74
     0
 42
0.000000001
 43
0.00000001
 40
0.0
 40
0.0
 40
0.0
 40
0.0
 40
0.1724351316826736
 40
1.0
 40
1.0
 40
1.0
 40
1.0
 10
454.7458665522677
 20
1524.053438536654
 30
0.0
 10
454.746961712723
 20
1524.077356851911
 30
0.0
 10
454.7533128573216
 20
1524.216065913247
 30
0.0
 10
454.7817222024795
 20
1524.343051600668
 30
0.0
 10
454.805232778464
 20
1524.448140494357
 30
0.0
  0
SPLINE
  5
279
330
1F
100
AcDbEntity
  8
0
  6
Continuous
 62
     7
370
    25
100
AcDbSpline
210
0.0
220
0.0
230
1.0
 70
     8
 71
     3
 72
    17
 73
    13
 74
     0
 42
0.000000001
 43
0.00000001
 40
0.0
 40
0.0
 40
0.0
 40
0.0
 40
0.0625098325483256
 40
0.1246793709545271
 40
0.1867906100355684
 40
0.2491263358214705
 40
0.3732933680446726
 40
0.4972402034190651
 40
0.6100174494952139
 40
0.7228735501744548
 40
0.8617818165508214
 40
0.9999999999999999
 40
0.9999999999999999
 40
0.9999999999999999
 40
0.9999999999999999
 10
455.3634886338302
 20
1522.303837068348
 30
0.0
 10
455.3506677803287
 20
1522.304499191937
 30
0.0
 10
455.3250958681272
 20
1522.305819834616
 30
0.0
 10
455.2860504752
 20
1522.316603934896
 30
0.0
 10
455.2467482684025
 20
1522.333856290769
 30
0.0
 10
455.1941969893143
 20
1522.366140547573
 30
0.0
 10
455.1286583093615
 20
1522.423060025126
 30
0.0
 10
455.0545942220748
 20
1522.5146041525
 30
0.0
 10
454.9863411969948
 20
1522.624696987729
 30
0.0
 10
454.9206038371369
 20
1522.759886711814
 30
0.0
 10
454.8570648590757
 20
1522.924522845151
 30
0.0
 10
454.8225104905937
 20
1523.058867406063
 30
0.0
 10
454.8052763289147
 20
1523.125872418314
 30
0.0
  0
SPLINE
  5
27A
330
1F
100
AcDbEntity
  8
0
  6
Continuous
 62
     7
370
    25
100
AcDbSpline
210
0.0
220
0.0
230
1.0
 70
     8
 71
     3
 72
    17
 73
    13
 74
     0
 42
0.000000001
 43
0.00000001
 40
0.0
 40
0.0
 40
0.0
 40
0.0
 40
0.0658853982059311
 40
0.1315397128214469
 40
0.1973292041362239
 40
0.263617891278436
 40
0.3707579613625959
 40
0.477944147412704
 40
0.6050898044806104
 40
0.7325044982017276
 40
0.8661906605080676
 40
1.0
 40
1.0
 40
1.0
 40
1.0
 10
454.8052428552164
 20
1519.448136872192
 30
0.0
 10
454.8131164627915
 20
1519.480447628463
 30
0.0
 10
454.8288360623918
 20
1519.544955815658
 30
0.0
 10
454.8562166629429
 20
1519.636488103594
 30
0.0
 10
454.8861743068851
 20
1519.723682014489
 30
0.0
 10
454.9254567534318
 20
1519.822752817894
 30
0.0
 10
454.9755181483117
 20
1519.928803720151
 30
0.0
 10
455.041303374248
 20
1520.040110256218
 30
0.0
 10
455.1150100794712
 20
1520.136579591534
 30
0.0
 10
455.196700376294
 20
1520.211794498163
 30
0.0
 10
455.2805919860667
 20
1520.261148615897
 30
0.0
 10
455.3358479460989
 20
1520.267259459244
 30
0.0
 10
455.3634886483358
 20
1520.270316287887
 30
0.0
  0
LINE
  5
27B
330
1F
100
AcDbEntity
  8
0
  6
Continuous
 62
     7
370
    25
100
AcDbLine
 10
454.8052774819
 20
1518.125875823
 30
0.0
 11
454.7518866214
 21
1518.4373696966
 31
0.0
  0
SPLINE
  5
27C
330
1F
100
AcDbEntity
  8
0
  6
Continuous
 62
     7
370
    25
100
AcDbSpline
210
0.0
220
0.0
230
1.0
 70
     8
 71
     3
 72
     9
 73
     5
 74
     0
 42
0.000000001
 43
0.00000001
 40
0.0
 40
0.0
 40
0.0
 40
0.0
 40
0.1724351316826736
 40
1.0
 40
1.0
 40
1.0
 40
1.0
 10
454.7458665522677
 20
1519.053443305026
 30
0.0
 10
454.746961712723
 20
1519.077361620283
 30
0.0
 10
454.7533128573216
 20
1519.216070681619
 30
0.0
 10
454.7817222024795
 20
1519.343056369039
 30
0.0
 10
454.805232778464
 20
1519.448145262728
 30
0.0
  0
SPLINE
  5
27D
330
1F
100
AcDbEntity
  8
0
  6
Continuous
 62
     7
370
    25
100
AcDbSpline
210
0.0
220
0.0
230
1.0
 70
     8
 71
     3
 72
    17
 73
    13
 74
     0
 42
0.000000001
 43
0.00000001
 40
0.0
 40
0.0
 40
0.0
 40
0.0
 40
0.0624664753874216
 40
0.1246211502298319
 40
0.1867465144961243
 40
0.2491254563679082
 40
0.3733025861635511
 40
0.4972321037226499
 40
0.6090497528559635
 40
0.7209796347411593
 40
0.8608008037242082
 40
0.9999999999999999
 40
0.9999999999999999
 40
0.9999999999999999
 40
0.9999999999999999
 10
455.3634886679602
 20
1517.303837206991
 30
0.0
 10
455.3506770098656
 20
1517.304500733832
 30
0.0
 10
455.3251176428901
 20
1517.305824475529
 30
0.0
 10
455.2860835596376
 20
1517.316626335007
 30
0.0
 10
455.2467753409509
 20
1517.333905027435
 30
0.0
 10
455.1942138101913
 20
1517.366223607262
 30
0.0
 10
455.1286706099746
 20
1517.423150871244
 30
0.0
 10
455.0547981396115
 20
1517.514406742122
 30
0.0
 10
454.9868961662809
 20
1517.623780366759
 30
0.0
 10
454.9212563422268
 20
1517.75833886857
 30
0.0
 10
454.8574439861022
 20
1517.923154467016
 30
0.0
 10
454.8226396618809
 20
1518.058400394565
 30
0.0
 10
454.8052762914546
 20
1518.125872617952
 30
0.0
  0
LINE
  5
27E
330
1F
100
AcDbEntity
  8
0
  6
Continuous
 62
     7
370
    25
100
AcDbLine
 10
455.3634898814
 20
1520.2703317328
 30
0.0
 11
455.4452972564
 21
1520.2265223189
 31
0.0
  0
LINE
  5
27F
330
1F
100
AcDbEntity
  8
0
  6
Continuous
 62
     7
370
    25
100
AcDbLine
 10
455.4472418579
 20
1517.3284252806
 30
0.0
 11
455.3634898814
 21
1517.3038085623
 31
0.0
  0
SPLINE
  5
280
330
1F
100
AcDbEntity
  8
0
  6
Continuous
 62
     7
370
    25
100
AcDbSpline
210
0.0
220
0.0
230
1.0
 70
     8
 71
     3
 72
    17
 73
    13
 74
     0
 42
0.000000001
 43
0.00000001
 40
0.0
 40
0.0
 40
0.0
 40
0.0
 40
0.0653949785019442
 40
0.130583259529498
 40
0.1959236909448496
 40
0.2617726326644586
 40
0.3698313354922184
 40
0.4779409984178538
 40
0.605089739573916
 40
0.7325029811998441
 40
0.8661934921479227
 40
1.0
 40
1.0
 40
1.0
 40
1.0
 10
454.8052486477461
 20
1514.448130134675
 30
0.0
 10
454.8130606651007
 20
1514.48020357578
 30
0.0
 10
454.8286600079406
 20
1514.544249081715
 30
0.0
 10
454.8558152251514
 20
1514.635174811135
 30
0.0
 10
454.8855227215976
 20
1514.72185506599
 30
0.0
 10
454.9247381469445
 20
1514.821100842819
 30
0.0
 10
454.9749901977482
 20
1514.927873383542
 30
0.0
 10
455.0411160414452
 20
1515.039865201509
 30
0.0
 10
455.1150098900255
 20
1515.136583079049
 30
0.0
 10
455.196701489731
 20
1515.21179692819
 30
0.0
 10
455.2805927653076
 20
1515.26114859696
 30
0.0
 10
455.3358487222935
 20
1515.267259581725
 30
0.0
 10
455.3634886813311
 20
1515.270316399086
 30
0.0
  0
LINE
  5
281
330
1F
100
AcDbEntity
  8
0
  6
Continuous
 62
     7
370
    25
100
AcDbLine
 10
454.8052774819
 20
1513.1258805914
 30
0.0
 11
454.7518866214
 21
1513.437374465
 31
0.0
  0
SPLINE
  5
282
330
1F
100
AcDbEntity
  8
0
  6
Continuous
 62
     7
370
    25
100
AcDbSpline
210
0.0
220
0.0
230
1.0
 70
     8
 71
     3
 72
     9
 73
     5
 74
     0
 42
0.000000001
 43
0.00000001
 40
0.0
 40
0.0
 40
0.0
 40
0.0
 40
0.1724350348379954
 40
1.0
 40
1.0
 40
1.0
 40
1.0
 10
454.7458665522677
 20
1514.053448073397
 30
0.0
 10
454.746961713071
 20
1514.077366389903
 30
0.0
 10
454.7533128632549
 20
1514.216075536383
 30
0.0
 10
454.7817222036608
 20
1514.343061169802
 30
0.0
 10
454.805232778464
 20
1514.4481500311
 30
0.0
  0
SPLINE
  5
283
330
1F
100
AcDbEntity
  8
0
  6
Continuous
 62
     7
370
    25
100
AcDbSpline
210
0.0
220
0.0
230
1.0
 70
     8
 71
     3
 72
    17
 73
    13
 74
     0
 42
0.000000001
 43
0.00000001
 40
0.0
 40
0.0
 40
0.0
 40
0.0
 40
0.0625098341475025
 40
0.1246793738243701
 40
0.1867906140340574
 40
0.2491263409955353
 40
0.3732933748263452
 40
0.4972402120172495
 40
0.6100174610630923
 40
0.7228735628231249
 40
0.8617818230121261
 40
1.0
 40
1.0
 40
1.0
 40
1.0
 10
455.3634887000891
 20
1512.303837077497
 30
0.0
 10
455.3506678428233
 20
1512.304499201663
 30
0.0
 10
455.325095923179
 20
1512.305819845489
 30
0.0
 10
455.2860505187516
 20
1512.316603953059
 30
0.0
 10
455.2467483004895
 20
1512.333856320328
 30
0.0
 10
455.1941970064555
 20
1512.366140598076
 30
0.0
 10
455.1286583085699
 20
1512.423060111726
 30
0.0
 10
455.0545942032366
 20
1512.514604295987
 30
0.0
 10
454.9863411647674
 20
1512.62469719701
 30
0.0
 10
454.9206037984803
 20
1512.75988699641
 30
0.0
 10
454.8570648223722
 20
1512.924523214405
 30
0.0
 10
454.8225104656696
 20
1513.058867835618
 30
0.0
 10
454.8052763098848
 20
1513.12587287787
 30
0.0
  0
SPLINE
  5
284
330
1F
100
AcDbEntity
  8
0
  6
Continuous
 62
     7
370
    25
100
AcDbSpline
210
0.0
220
0.0
230
1.0
 70
     8
 71
     3
 72
    17
 73
    13
 74
     0
 42
0.000000001
 43
0.00000001
 40
0.0
 40
0.0
 40
0.0
 40
0.0
 40
0.0653949838936365
 40
0.1305832697547698
 40
0.1959237055436707
 40
0.2617726512821722
 40
0.3698313491069124
 40
0.4779410030147939
 40
0.6050897419202967
 40
0.7325029810560263
 40
0.8661934915833175
 40
1.0
 40
1.0
 40
1.0
 40
1.0
 10
454.8052486379048
 20
1509.448129904106
 30
0.0
 10
454.8130606549593
 20
1509.480203355121
 30
0.0
 10
454.8286599971354
 20
1509.54424888058
 30
0.0
 10
454.8558152148578
 20
1509.63517463859
 30
0.0
 10
454.8855227127755
 20
1509.721854920811
 30
0.0
 10
454.9247381392937
 20
1509.821100724519
 30
0.0
 10
454.9749901905494
 20
1509.927873290637
 30
0.0
 10
455.0411160364663
 20
1510.039865135113
 30
0.0
 10
455.1150098903562
 20
1510.136583036881
 30
0.0
 10
455.1967014992615
 20
1510.211796907789
 30
0.0
 10
455.2805927857585
 20
1510.261148591247
 30
0.0
 10
455.3358487502222
 20
1510.267259577752
 30
0.0
 10
455.3634887131021
 20
1510.270316395995
 30
0.0
  0
LINE
  5
285
330
1F
100
AcDbEntity
  8
0
  6
Continuous
 62
     7
370
    25
100
AcDbLine
 10
454.8052774819
 20
1508.1258853598
 30
0.0
 11
454.7518866214
 21
1508.4373792334
 31
0.0
  0
SPLINE
  5
286
330
1F
100
AcDbEntity
  8
0
  6
Continuous
 62
     7
370
    25
100
AcDbSpline
210
0.0
220
0.0
230
1.0
 70
     8
 71
     3
 72
     9
 73
     5
 74
     0
 42
0.000000001
 43
0.00000001
 40
0.0
 40
0.0
 40
0.0
 40
0.0
 40
0.1724350348379954
 40
1.0
 40
1.0
 40
1.0
 40
1.0
 10
454.7458665522677
 20
1509.053452841769
 30
0.0
 10
454.746961713071
 20
1509.077371158274
 30
0.0
 10
454.7533128632549
 20
1509.216080304755
 30
0.0
 10
454.7817222036608
 20
1509.343065938174
 30
0.0
 10
454.805232778464
 20
1509.448154799471
 30
0.0
  0
SPLINE
  5
287
330
1F
100
AcDbEntity
  8
0
  6
Continuous
 62
     7
370
    25
100
AcDbSpline
210
0.0
220
0.0
230
1.0
 70
     8
 71
     3
 72
    17
 73
    13
 74
     0
 42
0.000000001
 43
0.00000001
 40
0.0
 40
0.0
 40
0.0
 40
0.0
 40
0.0625098335172993
 40
0.1246793721110942
 40
0.1867906108335223
 40
0.2491263359579271
 40
0.3732933666314353
 40
0.4972402004465464
 40
0.6100174549868834
 40
0.7228735608709318
 40
0.8617818222971708
 40
1.0
 40
1.0
 40
1.0
 40
1.0
 10
455.363488733992
 20
1507.303837081385
 30
0.0
 10
455.3506678752004
 20
1507.30449920601
 30
0.0
 10
455.3250959526065
 20
1507.305819850744
 30
0.0
 10
455.2860505437309
 20
1507.316603961535
 30
0.0
 10
455.2467483212486
 20
1507.333856333391
 30
0.0
 10
455.1941970217801
 20
1507.366140619344
 30
0.0
 10
455.1286583174169
 20
1507.423060146915
 30
0.0
 10
455.0545942039408
 20
1507.514604355162
 30
0.0
 10
454.9863411578314
 20
1507.62469728681
 30
0.0
 10
454.9206037857327
 20
1507.759887125395
 30
0.0
 10
454.8570648081401
 20
1507.924523388362
 30
0.0
 10
454.8225104560998
 20
1508.058868042726
 30
0.0
 10
454.8052763026726
 20
1508.125873101387
 30
0.0
  0
SPLINE
  5
288
330
1F
100
AcDbEntity
  8
0
  6
Continuous
 62
     7
370
    25
100
AcDbSpline
210
0.0
220
0.0
230
1.0
 70
     8
 71
     3
 72
    17
 73
    13
 74
     0
 42
0.000000001
 43
0.00000001
 40
0.0
 40
0.0
 40
0.0
 40
0.0
 40
0.0653949896027605
 40
0.1305832806861518
 40
0.1959237213442662
 40
0.2617726717375441
 40
0.369831369727313
 40
0.4779410210053758
 40
0.605089759063959
 40
0.732502997076341
 40
0.8661934977241557
 40
0.9999999999999999
 40
0.9999999999999999
 40
0.9999999999999999
 40
0.9999999999999999
 10
454.8052486271798
 20
1504.448129674526
 30
0.0
 10
454.8130606439476
 20
1504.480203135673
 30
0.0
 10
454.8286599854951
 20
1504.544248681135
 30
0.0
 10
454.8558152040201
 20
1504.635174468235
 30
0.0
 10
454.8855227038746
 20
1504.721854778212
 30
0.0
 10
454.9247381330052
 20
1504.821100610732
 30
0.0
 10
454.9749901875289
 20
1504.927873205402
 30
0.0
 10
455.0411160388514
 20
1505.039865078209
 30
0.0
 10
455.1150099003918
 20
1505.136583003702
 30
0.0
 10
455.1967015173728
 20
1505.211796891599
 30
0.0
 10
455.2805928116545
 20
1505.261148584198
 30
0.0
 10
455.3358487802317
 20
1505.267259572023
 30
0.0
 10
455.3634887455561
 20
1505.270316390969
 30
0.0
  0
LINE
  5
289
330
1F
100
AcDbEntity
  8
0
  6
Continuous
 62
     7
370
    25
100
AcDbLine
 10
454.8052774819
 20
1503.1258901281
 30
0.0
 11
454.7518866214
 21
1503.4373243971
 31
0.0
  0
SPLINE
  5
28A
330
1F
100
AcDbEntity
  8
0
  6
Continuous
 62
     7
370
    25
100
AcDbSpline
210
0.0
220
0.0
230
1.0
 70
     8
 71
     3
 72
     9
 73
     5
 74
     0
 42
0.000000001
 43
0.00000001
 40
0.0
 40
0.0
 40
0.0
 40
0.0
 40
0.1724350348379954
 40
1.0
 40
1.0
 40
1.0
 40
1.0
 10
454.7458665522677
 20
1504.05345761014
 30
0.0
 10
454.746961713071
 20
1504.077375926646
 30
0.0
 10
454.7533128632549
 20
1504.216085073127
 30
0.0
 10
454.7817222036608
 20
1504.343070706546
 30
0.0
 10
454.805232778464
 20
1504.448159567843
 30
0.0
  0
SPLINE
  5
28B
330
1F
100
AcDbEntity
  8
0
  6
Continuous
 62
     7
370
    25
100
AcDbSpline
210
0.0
220
0.0
230
1.0
 70
     8
 71
     3
 72
    17
 73
    13
 74
     0
 42
0.000000001
 43
0.00000001
 40
0.0
 40
0.0
 40
0.0
 40
0.0
 40
0.0625098342143843
 40
0.1246793736410425
 40
0.1867906134459841
 40
0.2491263400132833
 40
0.3732933739035834
 40
0.4972402108534451
 40
0.6100174573008311
 40
0.7228735576719172
 40
0.8617818200147301
 40
1.0
 40
1.0
 40
1.0
 40
1.0
 10
455.3634887654158
 20
1502.303837086025
 30
0.0
 10
455.3506679047592
 20
1502.304499210708
 30
0.0
 10
455.3250959784169
 20
1502.305819855559
 30
0.0
 10
455.2860505636427
 20
1502.316603969713
 30
0.0
 10
455.2467483350812
 20
1502.333856347283
 30
0.0
 10
455.1941970273181
 20
1502.366140644176
 30
0.0
 10
455.1286583128256
 20
1502.423060191126
 30
0.0
 10
455.0545941913915
 20
1502.514604427342
 30
0.0
 10
454.9863411416101
 20
1502.624697388942
 30
0.0
 10
454.9206037687068
 20
1502.759887261263
 30
0.0
 10
454.8570647912071
 20
1502.924523566832
 30
0.0
 10
454.8225104426334
 20
1503.058868254256
 30
0.0
 10
454.8052762908495
 20
1503.125873329739
 30
0.0
  0
LINE
  5
28C
330
1F
100
AcDbEntity
  8
0
  6
Continuous
 62
     7
370
    25
100
AcDbLine
 10
455.3634898814
 20
1505.2703460379
 30
0.0
 11
455.4452972564
 21
1505.2265962286
 31
0.0
  0
LINE
  5
28D
330
1F
100
AcDbEntity
  8
0
  6
Continuous
 62
     7
370
    25
100
AcDbLine
 10
455.4472418579
 20
1502.3284395857
 30
0.0
 11
455.3634898814
 21
1502.3038228674
 31
0.0
  0
SPLINE
  5
28E
330
1F
100
AcDbEntity
  8
0
  6
Continuous
 62
     7
370
    25
100
AcDbSpline
210
0.0
220
0.0
230
1.0
 70
     8
 71
     3
 72
    17
 73
    13
 74
     0
 42
0.000000001
 43
0.00000001
 40
0.0
 40
0.0
 40
0.0
 40
0.0
 40
0.0653949892469878
 40
0.1305832795427306
 40
0.195923719035271
 40
0.2617726679448761
 40
0.3698313573493006
 40
0.4779409972524765
 40
0.6050897390522769
 40
0.7325029816002339
 40
0.8661934976637279
 40
0.9999999999999999
 40
0.9999999999999999
 40
0.9999999999999999
 40
0.9999999999999999
 10
454.8052486161632
 20
1499.448129445273
 30
0.0
 10
454.8130606318431
 20
1499.480202913808
 30
0.0
 10
454.8286599711666
 20
1499.544248473812
 30
0.0
 10
454.8558151875641
 20
1499.635174282693
 30
0.0
 10
454.8855226860827
 20
1499.721854613872
 30
0.0
 10
454.9247381136677
 20
1499.821100468862
 30
0.0
 10
454.974990166391
 20
1499.927873086667
 30
0.0
 10
455.0411160198125
 20
1500.039864988845
 30
0.0
 10
455.1150098889282
 20
1500.136582944786
 30
0.0
 10
455.1967015215706
 20
1500.21179686171
 30
0.0
 10
455.2805928315972
 20
1500.261148577387
 30
0.0
 10
455.3358488110322
 20
1500.267259566313
 30
0.0
 10
455.3634887802012
 20
1500.270316385632
 30
0.0
  0
LINE
  5
28F
330
1F
100
AcDbEntity
  8
0
  6
Continuous
 62
     7
370
    25
100
AcDbLine
 10
454.8052774819
 20
1498.1258948965
 30
0.0
 11
454.7518866214
 21
1498.4373291655
 31
0.0
  0
SPLINE
  5
290
330
1F
100
AcDbEntity
  8
0
  6
Continuous
 62
     7
370
    25
100
AcDbSpline
210
0.0
220
0.0
230
1.0
 70
     8
 71
     3
 72
     9
 73
     5
 74
     0
 42
0.000000001
 43
0.00000001
 40
0.0
 40
0.0
 40
0.0
 40
0.0
 40
0.1724112643898037
 40
1.0
 40
1.0
 40
1.0
 40
1.0
 10
454.7458665522677
 20
1499.053402773867
 30
0.0
 10
454.7469617984852
 20
1499.077321039968
 30
0.0
 10
454.7533143197157
 20
1499.21604901801
 30
0.0
 10
454.7817224936865
 20
1499.343055337146
 30
0.0
 10
454.805232778464
 20
1499.448164336215
 30
0.0
  0
SPLINE
  5
291
330
1F
100
AcDbEntity
  8
0
  6
Continuous
 62
     7
370
    25
100
AcDbSpline
210
0.0
220
0.0
230
1.0
 70
     8
 71
     3
 72
    17
 73
    13
 74
     0
 42
0.000000001
 43
0.00000001
 40
0.0
 40
0.0
 40
0.0
 40
0.0
 40
0.0625098334426744
 40
0.1246793715564763
 40
0.1867906095307247
 40
0.2491263337799582
 40
0.3732933647001345
 40
0.4972401980570046
 40
0.6100174505696
 40
0.7228735554985456
 40
0.8617818191884561
 40
1.0
 40
1.0
 40
1.0
 40
1.0
 10
455.3634888002509
 20
1497.303837090534
 30
0.0
 10
455.3506679380231
 20
1497.304499215964
 30
0.0
 10
455.3250960086586
 20
1497.305819862298
 30
0.0
 10
455.2860505893697
 20
1497.31660398015
 30
0.0
 10
455.2467483565834
 20
1497.333856362505
 30
0.0
 10
455.1941970431906
 20
1497.366140667602
 30
0.0
 10
455.1286583218582
 20
1497.423060228285
 30
0.0
 10
455.0545941915655
 20
1497.514604488623
 30
0.0
 10
454.9863411334028
 20
1497.624697481391
 30
0.0
 10
454.9206037539499
 20
1497.759887393998
 30
0.0
 10
454.8570647744169
 20
1497.92452374595
 30
0.0
 10
454.8225104303936
 20
1498.058868467716
 30
0.0
 10
454.8052762809114
 20
1498.125873560203
 30
0.0
  0
LINE
  5
292
330
1F
100
AcDbEntity
  8
0
  6
Continuous
 62
     7
370
    25
100
AcDbLine
 10
456.4798401746
 20
1494.7704514189
 30
0.0
 11
452.8180213722
 21
1494.7704514189
 31
0.0
  0
SPLINE
  5
293
330
1F
100
AcDbEntity
  8
0
  6
Continuous
 62
     7
370
    25
100
AcDbSpline
210
0.0
220
0.0
230
1.0
 70
     8
 71
     3
 72
    11
 73
     7
 74
     0
 42
0.000000001
 43
0.00000001
 40
0.0
 40
0.0
 40
0.0
 40
0.0
 40
0.2270769179656706
 40
0.4995085242330218
 40
0.8158976689415903
 40
0.9999999999999999
 40
0.9999999999999999
 40
0.9999999999999999
 40
0.9999999999999999
 10
452.5773123478947
 20
1494.812334315492
 30
0.0
 10
452.5965712138554
 20
1494.806896259305
 30
0.0
 10
452.638935571275
 20
1494.79493398923
 30
0.0
 10
452.7045303722813
 20
1494.780189365807
 30
0.0
 10
452.7665588595784
 20
1494.771728007803
 30
0.0
 10
452.8041820214913
 20
1494.770783499491
 30
0.0
 10
452.8180214416319
 20
1494.770436068634
 30
0.0
  0
SPLINE
  5
294
330
1F
100
AcDbEntity
  8
0
  6
Continuous
 62
     7
370
    25
100
AcDbSpline
210
0.0
220
0.0
230
1.0
 70
    24
 71
     3
 72
     8
 73
     4
 74
     0
 42
0.000000001
 43
0.00000001
 40
0.0
 40
0.0
 40
0.0
 40
0.0
 40
1.0
 40
1.0
 40
1.0
 40
1.0
 10
451.8385381850345
 20
1329.020424922132
 30
0.0
 10
451.8385381850345
 20
1328.160036815117
 30
0.0
 10
451.8385381850345
 20
1327.300425297851
 30
0.0
 10
451.8385381850345
 20
1326.441932130365
 30
0.0
  0
LINE
  5
295
330
1F
100
AcDbEntity
  8
0
  6
Continuous
 62
     7
370
    25
100
AcDbLine
 10
432.8385369929
 20
1326.441927783
 30
0.0
 11
432.8385369929
 21
1329.020424716
 31
0.0
  0
SPLINE
  5
296
330
1F
100
AcDbEntity
  8
0
  6
Continuous
 62
     7
370
    25
100
AcDbSpline
210
0.0
220
0.0
230
1.0
 70
    24
 71
     3
 72
    12
 73
     8
 74
     0
 42
0.000000001
 43
0.00000001
 40
0.0
 40
0.0
 40
0.0
 40
0.0
 40
0.0263629884883456
 40
0.0865644526098941
 40
0.1819968686544514
 40
0.3717807342622447
 40
1.0
 40
1.0
 40
1.0
 40
1.0
 10
451.8385382446391
 20
1326.441927783022
 30
0.0
 10
451.8385382446391
 20
1326.412157748861
 30
0.0
 10
451.8385382446391
 20
1326.314406057604
 30
0.0
 10
451.8385382446391
 20
1326.131013100961
 30
0.0
 10
451.8385382446392
 20
1325.87018372105
 30
0.0
 10
451.838538244639
 20
1325.458301098815
 30
0.0
 10
451.8385382446391
 20
1325.424639052552
 30
0.0
 10
451.8385382446391
 20
1325.398786894808
 30
0.0
  0
SPLINE
  5
297
330
1F
100
AcDbEntity
  8
0
  6
Continuous
 62
     7
370
    25
100
AcDbSpline
210
0.0
220
0.0
230
1.0
 70
    24
 71
     3
 72
    14
 73
    10
 74
     0
 42
0.000000001
 43
0.00000001
 40
0.0
 40
0.0
 40
0.0
 40
0.0
 40
0.000107179606323
 40
0.4047116461486513
 40
0.7243543143137595
 40
0.8850558316624505
 40
0.9420878910546316
 40
0.9995646112935853
 40
0.9999999999999999
 40
0.9999999999999999
 40
0.9999999999999999
 40
0.9999999999999999
 10
432.8385369929416
 20
1325.398608080874
 30
0.0
 10
432.8385369929416
 20
1325.398588208883
 30
0.0
 10
432.8385369929475
 20
1325.323551303249
 30
0.0
 10
432.8385369929393
 20
1325.478303663526
 30
0.0
 10
432.838536992942
 20
1325.67679341203
 30
0.0
 10
432.8385369929414
 20
1325.999969716514
 30
0.0
 10
432.8385369929418
 20
1326.248437721353
 30
0.0
 10
432.838536992941
 20
1326.375357718451
 30
0.0
 10
432.8385369929416
 20
1326.441431037567
 30
0.0
 10
432.8385369929416
 20
1326.441927783022
 30
0.0
  0
LINE
  5
298
330
1F
100
AcDbEntity
  8
0
  6
Continuous
 62
     7
370
    25
100
AcDbLine
 10
442.3385413441
 20
1325.0204166098
 30
0.0
 11
450.8428575548
 21
1325.0204166098
 31
0.0
  0
LINE
  5
299
330
1F
100
AcDbEntity
  8
0
  6
Continuous
 62
     7
370
    25
100
AcDbLine
 10
433.8342176828
 20
1325.0204166098
 30
0.0
 11
442.3385413441
 21
1325.0204166098
 31
0.0
  0
LINE
  5
29A
330
1F
100
AcDbEntity
  8
0
  6
Continuous
 62
     7
370
    25
100
AcDbLine
 10
452.6764305386
 20
1494.987054698
 30
0.0
 11
452.3697646412
 21
1494.987054698
 31
0.0
  0
LWPOLYLINE
  5
29B
330
1F
100
AcDbEntity
  8
0
  6
Continuous
 62
     7
370
    25
100
AcDbPolyline
 90
       18
 70
   128
 43
0.0
 10
743.0454270991
 20
1448.8395293875
 10
743.0454270991
 20
1448.8395293875
 10
742.8921537551
 20
1448.75101649
 10
742.4385773095
 20
1448.4891732855
 10
741.7021619233
 20
1448.0640133543
 10
740.7111601981
 20
1447.4918683691
 10
739.5036893043
 20
1446.7947324438
 10
738.1261365565
 20
1445.9993680639
 10
736.6314606818
 20
1445.1364120169
 10
735.0770609531
 20
1444.2390044851
 10
733.5227208289
 20
1443.3415969534
 10
732.0281343612
 20
1442.478700511
 10
730.6507604274
 20
1441.6834553404
 10
729.4435130509
 20
1440.9864386244
 10
728.4527944478
 20
1440.4144724531
 10
727.716691986
 20
1439.9894913359
 10
727.2634731683
 20
1439.7278269453
 10
727.1105574521
 20
1439.6395524664
  0
LWPOLYLINE
  5
29C
330
1F
100
AcDbEntity
  8
0
  6
Continuous
 62
     7
370
    25
100
AcDbPolyline
 90
       16
 70
   128
 43
0.0
 10
735.2393047961
 20
1444.3326433821
 10
733.8938044461
 20
1443.2814558668
 10
732.6116340312
 20
1442.2797402067
 10
731.4472572955
 20
1441.3700541182
 10
730.4501460942
 20
1440.591021411
 10
729.6626644286
 20
1439.9757822676
 10
729.1182654056
 20
1439.5505031271
 10
728.8400756272
 20
1439.3331845923
 10
728.8398968133
 20
1439.333065383
 10
729.1177587661
 20
1439.5502051039
 10
729.6618448648
 20
1439.9753054304
 10
730.4490434083
 20
1440.5903657599
 10
731.445916191
 20
1441.3692792578
 10
732.6101141128
 20
1442.2788461371
 10
733.8921802196
 20
1443.2805021925
 10
735.2376358661
 20
1444.3316897078
  0
LINE
  5
29D
330
1F
100
AcDbEntity
  8
0
  6
Continuous
 62
     7
370
    25
100
AcDbLine
 10
588.8385402116
 20
1508.0204447432
 30
0.0
 11
601.8385367545
 21
1508.0204447432
 31
0.0
  0
LINE
  5
29E
330
1F
100
AcDbEntity
  8
0
  6
Continuous
 62
     7
370
    25
100
AcDbLine
 10
601.8385367545
 20
1498.0204542799
 30
0.0
 11
588.8385402116
 21
1498.0204542799
 31
0.0
  0
LINE
  5
29F
330
1F
100
AcDbEntity
  8
0
  6
Continuous
 62
     7
370
    25
100
AcDbLine
 10
449.3385406288
 20
1246.0204204245
 30
0.0
 11
435.3385346088
 21
1246.0204204245
 31
0.0
  0
LINE
  5
2A0
330
1F
100
AcDbEntity
  8
0
  6
Continuous
 62
     7
370
    25
100
AcDbLine
 10
588.8878928575
 20
1344.3204601927
 30
0.0
 11
588.3385391983
 21
1344.3204601927
 31
0.0
  0
LINE
  5
2A1
330
1F
100
AcDbEntity
  8
0
  6
Continuous
 62
     7
370
    25
100
AcDbLine
 10
602.3385377678
 20
1344.3204601927
 30
0.0
 11
588.8878928575
 21
1344.3204601927
 31
0.0
  0
LINE
  5
2A2
330
1F
100
AcDbEntity
  8
0
  6
Continuous
 62
     7
370
    25
100
AcDbLine
 10
630.3385349068
 20
1548.9039858503
 30
0.0
 11
630.3385349068
 21
1544.9039777441
 31
0.0
  0
LINE
  5
2A3
330
1F
100
AcDbEntity
  8
0
  6
Continuous
 62
     7
370
    25
100
AcDbLine
 10
630.3385349068
 20
1552.9039939566
 30
0.0
 11
630.3385349068
 21
1548.9039858503
 31
0.0
  0
LINE
  5
2A4
330
1F
100
AcDbEntity
  8
0
  6
Continuous
 62
     7
370
    25
100
AcDbLine
 10
550.4885373714
 20
1531.2245925589
 30
0.0
 11
550.4885373714
 21
1535.5539759321
 31
0.0
  0
LINE
  5
2A5
330
1F
100
AcDbEntity
  8
0
  6
Continuous
 62
     7
370
    25
100
AcDbLine
 10
550.4885373714
 20
1527.5540193243
 30
0.0
 11
550.4885373714
 21
1531.2245925589
 31
0.0
  0
LINE
  5
2A6
330
1F
100
AcDbEntity
  8
0
  6
Continuous
 62
     8
370
    18
100
AcDbLine
 10
547.2394043657
 20
624.259872332
 30
0.0
 11
596.6583641323
 21
624.259872332
 31
0.0
  0
LINE
  5
2A7
330
1F
100
AcDbEntity
  8
0
  6
Continuous
 62
     8
370
    18
100
AcDbLine
 10
454.0187122377
 20
624.259872332
 30
0.0
 11
547.2394043657
 21
624.259872332
 31
0.0
  0
SPLINE
  5
2A8
330
1F
100
AcDbEntity
  8
0
  6
Continuous
 62
     8
370
    18
100
AcDbSpline
210
0.0
220
0.0
230
1.0
 70
     8
 71
     3
 72
    55
 73
    51
 74
     0
 42
0.000000001
 43
0.00000001
 40
0.0
 40
0.0
 40
0.0
 40
0.0
 40
0.0062654627615121
 40
0.0125259930492268
 40
0.0187845447261757
 40
0.0250440777207046
 40
0.0313075553927698
 40
0.0375779418876815
 40
0.0438581994965502
 40
0.0501512860425603
 40
0.0564601523117532
 40
0.0627877395463152
 40
0.0691369770173798
 40
0.0755107796931952
 40
0.0819120460170603
 40
0.0883436558079254
 40
0.0948084682948085
 40
0.1013093202944482
 40
0.1078490245397311
 40
0.114430368164633
 40
0.143460117852789
 40
0.1728016089761099
 40
0.2026800168088215
 40
0.2333193341140682
 40
0.297427110472923
 40
0.3599872641580503
 40
0.4077870727136991
 40
0.4537774501348635
 40
0.4992468790201316
 40
0.5450211958055694
 40
0.5911432893536405
 40
0.6388845588558767
 40
0.6710192789122716
 40
0.703903743496578
 40
0.734855918638708
 40
0.7661067045866968
 40
0.7965659793443041
 40
0.8265202151192089
 40
0.8561646061797029
 40
0.8857090606370102
 40
0.8974408464372507
 40
0.9090616348279142
 40
0.920587012746482
 40
0.9320331272207838
 40
0.9434166130432059
 40
0.9547545107653409
 40
0.9660641762964374
 40
0.9773631838074318
 40
0.9886692239935746
 40
1.0
 40
1.0
 40
1.0
 40
1.0
 10
551.3121890820769
 20
1456.412001699039
 30
0.0
 10
551.3115906020248
 20
1456.412836147573
 30
0.0
 10
551.3103941130728
 20
1456.414504387724
 30
0.0
 10
551.3007269872816
 20
1456.428017026356
 30
0.0
 10
551.2853265514455
 20
1456.449594675791
 30
0.0
 10
551.2636542010747
 20
1456.480028728663
 30
0.0
 10
551.2358898577254
 20
1456.519111941473
 30
0.0
 10
551.2020227879854
 20
1456.566906058858
 30
0.0
 10
551.1620952058984
 20
1456.62340213553
 30
0.0
 10
551.1161369234661
 20
1456.688611623342
 30
0.0
 10
551.0641828598082
 20
1456.762541929223
 30
0.0
 10
551.0062683127748
 20
1456.845202980944
 30
0.0
 10
550.9424301992337
 20
1456.936605460282
 30
0.0
 10
550.872706703501
 20
1457.036761294284
 30
0.0
 10
550.7971373060949
 20
1457.145683470216
 30
0.0
 10
550.7157628882691
 20
1457.263386292383
 30
0.0
 10
550.6286251453387
 20
1457.389884543777
 30
0.0
 10
550.5357687081657
 20
1457.525196614612
 30
0.0
 10
550.4372330426736
 20
1457.669332743126
 30
0.0
 10
550.2149177455233
 20
1457.995935110551
 30
0.0
 10
549.828847114862
 20
1458.567527276598
 30
0.0
 10
549.2264435682853
 20
1459.487048265396
 30
0.0
 10
548.5524103434541
 20
1460.560167231311
 30
0.0
 10
547.5606854868619
 20
1462.221410827524
 30
0.0
 10
546.2397841792939
 20
1464.621241722524
 30
0.0
 10
544.8902457965046
 20
1467.705036495052
 30
0.0
 10
543.9149788897113
 20
1470.731051622265
 30
0.0
 10
543.3326753715933
 20
1473.596414634076
 30
0.0
 10
543.105836733223
 20
1476.511913204658
 30
0.0
 10
543.2400192221069
 20
1479.43723872077
 30
0.0
 10
543.7404637829035
 20
1482.328035638574
 30
0.0
 10
544.4647503391451
 20
1484.790355779314
 30
0.0
 10
545.2480015632137
 20
1486.851158063905
 30
0.0
 10
545.9804012693671
 20
1488.496007038262
 30
0.0
 10
546.7372677499669
 20
1490.013790594859
 30
0.0
 10
547.4812089298126
 20
1491.377141501105
 30
0.0
 10
548.1971938316766
 20
1492.608892511297
 30
0.0
 10
548.8620767533354
 20
1493.693365834958
 30
0.0
 10
549.4626704590199
 20
1494.629037705037
 30
0.0
 10
549.878720267523
 20
1495.256171178075
 30
0.0
 10
550.1487022799643
 20
1495.659224191671
 30
0.0
 10
550.3108239634537
 20
1495.899459950272
 30
0.0
 10
550.4549776802522
 20
1496.111622616387
 30
0.0
 10
550.5808521799836
 20
1496.295624339985
 30
0.0
 10
550.6881422867932
 20
1496.451422163115
 30
0.0
 10
550.7765131805025
 20
1496.578914340211
 30
0.0
 10
550.8458072263404
 20
1496.678243977997
 30
0.0
 10
550.895258879997
 20
1496.74869183708
 30
0.0
 10
550.926430502939
 20
1496.792799795903
 30
0.0
 10
550.9302978012776
 20
1496.798231388599
 30
0.0
 10
550.932233563394
 20
1496.800950152566
 30
0.0
  0
SPLINE
  5
2A9
330
1F
100
AcDbEntity
  8
0
  6
Continuous
 62
     8
370
    18
100
AcDbSpline
210
0.0
220
0.0
230
1.0
 70
     8
 71
     3
 72
    22
 73
    18
 74
     0
 42
0.000000001
 43
0.00000001
 40
0.0
 40
0.0
 40
0.0
 40
0.0
 40
0.0019300348423279
 40
0.0974356419869854
 40
0.1940131736377724
 40
0.2994302134889101
 40
0.3555522823556683
 40
0.4133163532729719
 40
0.4452241749464245
 40
0.5464031179503755
 40
0.6467827266597094
 40
0.7486727737245388
 40
0.8021791294589723
 40
0.8572636739016418
 40
0.9095923072576754
 40
0.9638653805205933
 40
1.0
 40
1.0
 40
1.0
 40
1.0
 10
499.3410522195441
 20
1356.014057032595
 30
0.0
 10
499.3402253930052
 20
1356.016155754789
 30
0.0
 10
499.298483983543
 20
1356.122107388352
 30
0.0
 10
499.533894640148
 20
1355.536901743786
 30
0.0
 10
500.1711796473257
 20
1353.818801123895
 30
0.0
 10
500.8829617882924
 20
1351.477467024056
 30
0.0
 10
501.3889630346875
 20
1349.155155531046
 30
0.0
 10
501.6447231715148
 20
1347.475703184147
 30
0.0
 10
501.8603670765254
 20
1345.198000656885
 30
0.0
 10
501.8775687024293
 20
1342.288662212563
 30
0.0
 10
501.3986934385476
 20
1338.697059174831
 30
0.0
 10
500.7401814784301
 20
1336.080437906885
 30
0.0
 10
500.1943444053424
 20
1334.341805715452
 30
0.0
 10
499.8133353393151
 20
1333.256799293692
 30
0.0
 10
499.5294362001522
 20
1332.503404324356
 30
0.0
 10
499.3380154343794
 20
1332.018582023798
 30
0.0
 10
499.3794105368897
 20
1332.123648923519
 30
0.0
 10
499.3959555479628
 20
1332.165642611514
 30
0.0
  0
LINE
  5
2AA
330
1F
100
AcDbEntity
  8
0
  6
Continuous
 62
     8
370
    18
100
AcDbLine
 10
551.3385387215
 20
1328.5204609556
 30
0.0
 11
499.3385376486
 21
1328.5204609556
 31
0.0
  0
SPLINE
  5
2AB
330
1F
100
AcDbEntity
  8
0
  6
Continuous
 62
     8
370
    18
100
AcDbSpline
210
0.0
220
0.0
230
1.0
 70
     8
 71
     3
 72
    10
 73
     6
 74
     0
 42
0.000000001
 43
0.00000001
 40
0.0
 40
0.0
 40
0.0
 40
0.0
 40
0.5113637853209695
 40
0.5878726980443254
 40
0.9999999999999999
 40
0.9999999999999999
 40
0.9999999999999999
 40
0.9999999999999999
 10
549.5286902490002
 20
1554.30398785306
 30
0.0
 10
549.5879655731167
 20
1554.613048819872
 30
0.0
 10
549.6561095162663
 20
1554.968350680573
 30
0.0
 10
549.7275227678333
 20
1555.303993819852
 30
0.0
 10
549.7277052552924
 20
1555.304145267318
 30
0.0
 10
549.7278591695172
 20
1555.304273001681
 30
0.0
  0
LINE
  5
2AC
330
1F
100
AcDbEntity
  8
0
  6
Continuous
 62
     8
370
    18
100
AcDbLine
 10
549.9524774107
 20
1542.4507697744
 30
0.0
 11
549.9291403296
 21
1542.5447066946
 31
0.0
  0
SPLINE
  5
2AD
330
1F
100
AcDbEntity
  8
0
  6
Continuous
 62
     8
370
    18
100
AcDbSpline
210
0.0
220
0.0
230
1.0
 70
     8
 71
     3
 72
    62
 73
    58
 74
     0
 42
0.000000001
 43
0.00000001
 40
0.0
 40
0.0
 40
0.0
 40
0.0
 40
0.0070754790036218
 40
0.0141850291899498
 40
0.0213303570383612
 40
0.0285131436501558
 40
0.0357350440903125
 40
0.0429976868060043
 40
0.0503026731204949
 40
0.0576515768006609
 40
0.0650459436960462
 40
0.072487291447087
 40
0.0799771092598703
 40
0.0875168577446118
 40
0.0951079688148402
 40
0.1027518456441732
 40
0.1104498626774569
 40
0.1182033656929855
 40
0.1260136719124864
 40
0.1526247933166464
 40
0.1828672806655613
 40
0.216772631085247
 40
0.2543631244038788
 40
0.2755488998585409
 40
0.2967355179291826
 40
0.3179229786323132
 40
0.3338799060053195
 40
0.3496201576637382
 40
0.3651492139050798
 40
0.3804727829687418
 40
0.4126808294116364
 40
0.4432122726233212
 40
0.4722236123529273
 40
0.4998972788211179
 40
0.5563610757608403
 40
0.6197167822431975
 40
0.6483514446499672
 40
0.6823024816926825
 40
0.7035596608217302
 40
0.7248521753542201
 40
0.7461804174683577
 40
0.7665050619831151
 40
0.7861297650000394
 40
0.8050598525395082
 40
0.8233012471508029
 40
0.8408605564540408
 40
0.8577451771793414
 40
0.8739634176512993
 40
0.8886617491789994
 40
0.9031630130609232
 40
0.9174767204739235
 40
0.9316127595918375
 40
0.9455813943145225
 40
0.959393260174308
 40
0.9730593571505916
 40
0.9865910391556268
 40
1.0
 40
1.0
 40
1.0
 40
1.0
 10
554.5927656956363
 20
1493.169378667721
 30
0.0
 10
554.5921830610976
 20
1493.168533611782
 30
0.0
 10
554.5910149864084
 20
1493.16683943063
 30
0.0
 10
554.5816850477975
 20
1493.153091477939
 30
0.0
 10
554.5668169250443
 20
1493.131007523692
 30
0.0
 10
554.5458590717442
 20
1493.099671016702
 30
0.0
 10
554.518960486966
 20
1493.059195189547
 30
0.0
 10
554.4860810102675
 20
1493.009421383182
 30
0.0
 10
554.4472315743466
 20
1492.950270821998
 30
0.0
 10
554.4024093057664
 20
1492.881649869795
 30
0.0
 10
554.3516150682391
 20
1492.803475906876
 30
0.0
 10
554.2948486905611
 20
1492.715670616058
 30
0.0
 10
554.2321103701319
 20
1492.618162070994
 30
0.0
 10
554.1633998644688
 20
1492.510884471292
 30
0.0
 10
554.0887183254429
 20
1492.393778413192
 30
0.0
 10
554.008061710392
 20
1492.266791393447
 30
0.0
 10
553.9214455407442
 20
1492.129876820596
 30
0.0
 10
553.828811536615
 20
1491.982998816376
 30
0.0
 10
553.6516472748118
 20
1491.700628540655
 30
0.0
 10
553.344554766523
 20
1491.214634730647
 30
0.0
 10
552.857145204835
 20
1490.417791740673
 30
0.0
 10
552.2629259943071
 20
1489.3892676244
 30
0.0
 10
551.6832776283259
 20
1488.327774692574
 30
0.0
 10
551.1713709370963
 20
1487.332348329374
 30
0.0
 10
550.7670254814913
 20
1486.495706320292
 30
0.0
 10
550.3928280422003
 20
1485.691152641785
 30
0.0
 10
550.0616499877799
 20
1484.93189282457
 30
0.0
 10
549.7827004663187
 20
1484.229127333302
 30
0.0
 10
549.5222808240696
 20
1483.513730757413
 30
0.0
 10
549.1895258170686
 20
1482.518395139926
 30
0.0
 10
548.8305451530282
 20
1481.233211030359
 30
0.0
 10
548.5201732682275
 20
1479.653832214264
 30
0.0
 10
548.3413928402256
 20
1478.107490379526
 30
0.0
 10
548.2786424319867
 20
1476.072606023952
 30
0.0
 10
548.5726335257228
 20
1473.421830320245
 30
0.0
 10
549.2518323619171
 20
1470.924410557572
 30
0.0
 10
549.9881364281306
 20
1468.978246179178
 30
0.0
 10
550.519180861006
 20
1467.75668079673
 30
0.0
 10
551.0189849507725
 20
1466.706678275777
 30
0.0
 10
551.4389254274721
 20
1465.871903760103
 30
0.0
 10
551.8603184599715
 20
1465.095683172529
 30
0.0
 10
552.265296403368
 20
1464.383325504252
 30
0.0
 10
552.6363931940513
 20
1463.738456113651
 30
0.0
 10
552.9787856852365
 20
1463.156857307296
 30
0.0
 10
553.2916583346914
 20
1462.636209171561
 30
0.0
 10
553.5752362075802
 20
1462.174137559741
 30
0.0
 10
553.8294093528032
 20
1461.767899121774
 30
0.0
 10
554.0504131411369
 20
1461.420825549938
 30
0.0
 10
554.2407052391644
 20
1461.124561053839
 30
0.0
 10
554.4036433337341
 20
1460.872260559277
 30
0.0
 10
554.544908745723
 20
1460.655135373165
 30
0.0
 10
554.6644634557908
 20
1460.472833478181
 30
0.0
 10
554.7622773999321
 20
1460.325002223236
 30
0.0
 10
554.8384961697768
 20
1460.210933799175
 30
0.0
 10
554.8925663461781
 20
1460.130861621041
 30
0.0
 10
554.9265175838996
 20
1460.081227820931
 30
0.0
 10
554.9307721773952
 20
1460.075124733872
 30
0.0
 10
554.9328897837904
 20
1460.072087090863
 30
0.0
  0
LINE
  5
2AE
330
1F
100
AcDbEntity
  8
0
  6
Continuous
 62
     8
370
    18
100
AcDbLine
 10
551.3121897432
 20
1456.412001483
 30
0.0
 11
551.430888668
 21
1457.063539855
 31
0.0
  0
LINE
  5
2AF
330
1F
100
AcDbEntity
  8
0
  6
Continuous
 62
     8
370
    18
100
AcDbLine
 10
554.2826822105
 20
1459.9463184996
 30
0.0
 11
554.9328906539
 21
1460.0720843001
 31
0.0
  0
LINE
  5
2B0
330
1F
100
AcDbEntity
  8
0
  6
Continuous
 62
     8
370
    18
100
AcDbLine
 10
550.9322343471
 20
1496.8009432478
 30
0.0
 11
551.0619135651
 21
1496.1508949919
 31
0.0
  0
LINE
  5
2B1
330
1F
100
AcDbEntity
  8
0
  6
Continuous
 62
     8
370
    18
100
AcDbLine
 10
553.9417268786
 20
1493.2938655539
 30
0.0
 11
554.5927660617
 21
1493.1693514509
 31
0.0
  0
SPLINE
  5
2B2
330
1F
100
AcDbEntity
  8
0
  6
Continuous
 62
     8
370
    18
100
AcDbSpline
210
0.0
220
0.0
230
1.0
 70
     8
 71
     3
 72
    23
 73
    19
 74
     0
 42
0.000000001
 43
0.00000001
 40
0.0
 40
0.0
 40
0.0
 40
0.0
 40
0.0090443598376196
 40
0.0888371168267047
 40
0.1409842183626933
 40
0.1951956752314024
 40
0.2056713820119142
 40
0.306207299894476
 40
0.4067526628054717
 40
0.4824300557826493
 40
0.5582723156372041
 40
0.6520056483033636
 40
0.7115141748718176
 40
0.7725403651403272
 40
0.8302984730435982
 40
0.9114597769418006
 40
0.9904093486413857
 40
1.0
 40
1.0
 40
1.0
 40
1.0
 10
456.0960086139781
 20
1332.119627825747
 30
0.0
 10
456.1056819192531
 20
1332.104353892297
 30
0.0
 10
456.2006967756098
 20
1331.95432755161
 30
0.0
 10
455.8643894181774
 20
1332.480666170668
 30
0.0
 10
455.2989827075559
 20
1333.399396866597
 30
0.0
 10
454.8196570739209
 20
1334.215699986066
 30
0.0
 10
454.1087489758332
 20
1335.489101880839
 30
0.0
 10
453.1133742289769
 20
1337.410748556416
 30
0.0
 10
452.0181608403328
 20
1340.435345118651
 30
0.0
 10
451.6211575313448
 20
1343.512421091314
 30
0.0
 10
451.9554718590977
 20
1346.541306501505
 30
0.0
 10
452.849160787297
 20
1349.135982513999
 30
0.0
 10
453.8642663932636
 20
1351.278036105558
 30
0.0
 10
454.7357677139822
 20
1352.863956145003
 30
0.0
 10
455.6609555123264
 20
1354.399284292316
 30
0.0
 10
456.42244934012
 20
1355.578178123166
 30
0.0
 10
456.8265929016929
 20
1356.181747575851
 30
0.0
 10
456.7329674422866
 20
1356.040932939064
 30
0.0
 10
456.7228259595973
 20
1356.025679938326
 30
0.0
  0
SPLINE
  5
2B3
330
1F
100
AcDbEntity
  8
0
  6
Continuous
 62
     8
370
    18
100
AcDbSpline
210
0.0
220
0.0
230
1.0
 70
     8
 71
     3
 72
    14
 73
    10
 74
     0
 42
0.000000001
 43
0.00000001
 40
0.0
 40
0.0
 40
0.0
 40
0.0
 40
0.25
 40
0.25
 40
0.5
 40
0.5
 40
0.75
 40
0.75
 40
1.0
 40
1.0
 40
1.0
 40
1.0
 10
452.338538183885
 20
1559.296348566908
 30
0.0
 10
452.338539878929
 20
1559.367691550517
 30
0.0
 10
452.3430047347293
 20
1559.438010355279
 30
0.0
 10
452.3643191847707
 20
1559.569814015153
 30
0.0
 10
452.3813785516122
 20
1559.631495285785
 30
0.0
 10
452.4307936847967
 20
1559.731159804114
 30
0.0
 10
452.4636881247254
 20
1559.768061610012
 30
0.0
 10
452.5380535568695
 20
1559.804773027914
 30
0.0
 10
452.5792599386585
 20
1559.803964020842
 30
0.0
 10
452.6196978834052
 20
1559.78960254473
 30
0.0
  0
SPLINE
  5
2B4
330
1F
100
AcDbEntity
  8
0
  6
Continuous
 62
     8
370
    18
100
AcDbSpline
210
0.0
220
0.0
230
1.0
 70
     8
 71
     3
 72
    12
 73
     8
 74
     0
 42
0.000000001
 43
0.00000001
 40
0.0
 40
0.0
 40
0.0
 40
0.0
 40
0.21400292219419
 40
0.4209294731842525
 40
0.6208458637812144
 40
0.8138351533857368
 40
1.0
 40
1.0
 40
1.0
 40
1.0
 10
452.6196965347633
 20
1559.789604712859
 30
0.0
 10
452.6173419067686
 20
1559.60489468246
 30
0.0
 10
452.6127105105653
 20
1559.241582373493
 30
0.0
 10
452.6054955531188
 20
1558.71445911837
 30
0.0
 10
452.5980867141324
 20
1558.212436081312
 30
0.0
 10
452.5905058980592
 20
1557.735130165401
 30
0.0
 10
452.585298285989
 20
1557.430107127831
 30
0.0
 10
452.5827413461864
 20
1557.280340683056
 30
0.0
  0
SPLINE
  5
2B5
330
1F
100
AcDbEntity
  8
0
  6
Continuous
 62
     8
370
    18
100
AcDbSpline
210
0.0
220
0.0
230
1.0
 70
     8
 71
     3
 72
    11
 73
     7
 74
     0
 42
0.000000001
 43
0.00000001
 40
0.0
 40
0.0
 40
0.0
 40
0.0
 40
0.2570911584654718
 40
0.5001217380215551
 40
0.7513767704216705
 40
0.9999999999999999
 40
0.9999999999999999
 40
0.9999999999999999
 40
0.9999999999999999
 10
452.6197167190654
 20
1559.789582125674
 30
0.0
 10
453.6143733209784
 20
1559.804722678113
 30
0.0
 10
455.5492877359764
 20
1559.834175730664
 30
0.0
 10
457.6002965324057
 20
1559.865531802268
 30
0.0
 10
458.9506513429862
 20
1559.885985858671
 30
0.0
 10
459.1191032890008
 20
1559.888518085882
 30
0.0
 10
459.2028858217341
 20
1559.889777533541
 30
0.0
  0
SPLINE
  5
2B6
330
1F
100
AcDbEntity
  8
0
  6
Continuous
 62
     8
370
    18
100
AcDbSpline
210
0.0
220
0.0
230
1.0
 70
     8
 71
     3
 72
    21
 73
    17
 74
     0
 42
0.000000001
 43
0.00000001
 40
0.0
 40
0.0
 40
0.0
 40
0.0
 40
0.0369199876599641
 40
0.0917797218944556
 40
0.1466724206368167
 40
0.2565872267223239
 40
0.3577958522814356
 40
0.4551587672741617
 40
0.5522631498761861
 40
0.5830671665595545
 40
0.6388705197028225
 40
0.6947137614125752
 40
0.8007589370065819
 40
0.899642759089121
 40
0.9982452199187233
 40
1.0
 40
1.0
 40
1.0
 40
1.0
 10
497.400082841788
 20
1334.140880934725
 30
0.0
 10
497.3823948748268
 20
1334.106198431239
 30
0.0
 10
497.3384242022595
 20
1334.019980890923
 30
0.0
 10
497.5435014867683
 20
1334.420586732286
 30
0.0
 10
497.9437845291674
 20
1335.243939035956
 30
0.0
 10
498.6893046424888
 20
1336.918989933558
 30
0.0
 10
499.5473723826276
 20
1339.546949408172
 30
0.0
 10
500.0729350329507
 20
1342.559657035715
 30
0.0
 10
500.0537349392768
 20
1345.008472539221
 30
0.0
 10
499.821959132651
 20
1346.901152083758
 30
0.0
 10
499.5440905640888
 20
1348.305361896591
 30
0.0
 10
498.9977711050433
 20
1350.250777108861
 30
0.0
 10
498.2220252122873
 20
1352.212914786832
 30
0.0
 10
497.5664425984677
 20
1353.582080813663
 30
0.0
 10
497.2535388193865
 20
1354.189752570377
 30
0.0
 10
497.3416477317638
 20
1354.014231204276
 30
0.0
 10
497.3431883457047
 20
1354.011162154208
 30
0.0
  0
SPLINE
  5
2B7
330
1F
100
AcDbEntity
  8
0
  6
Continuous
 62
     8
370
    18
100
AcDbSpline
210
0.0
220
0.0
230
1.0
 70
     8
 71
     3
 72
    22
 73
    18
 74
     0
 42
0.000000001
 43
0.00000001
 40
0.0
 40
0.0
 40
0.0
 40
0.0
 40
0.0025928896977501
 40
0.0095610763050732
 40
0.0919655270244729
 40
0.1762985999833622
 40
0.2357935456040079
 40
0.356837774383742
 40
0.4468608997887518
 40
0.516760774812501
 40
0.5868022464618746
 40
0.6842581052639946
 40
0.786111504758962
 40
0.8840367469402995
 40
0.9071878297010978
 40
0.9908881296410733
 40
1.0
 40
1.0
 40
1.0
 40
1.0
 10
458.7426038536174
 20
1354.008420340548
 30
0.0
 10
458.7466063193505
 20
1354.012853403711
 30
0.0
 10
458.7613650961379
 20
1354.02919997457
 30
0.0
 10
458.6912829873225
 20
1353.951606714409
 30
0.0
 10
458.4410578106463
 20
1353.678357783537
 30
0.0
 10
457.5070471880962
 20
1352.618427934625
 30
0.0
 10
456.1791632729812
 20
1350.995155826814
 30
0.0
 10
454.6353450152299
 20
1348.87452380516
 30
0.0
 10
453.3286293996341
 20
1346.137653516929
 30
0.0
 10
452.9342344427054
 20
1343.547370211312
 30
0.0
 10
453.419584570366
 20
1340.92302777542
 30
0.0
 10
454.6983469923346
 20
1338.412478349576
 30
0.0
 10
456.2683864036611
 20
1336.218972410579
 30
0.0
 10
457.2768579235611
 20
1335.003385247713
 30
0.0
 10
457.8972047701091
 20
1334.27777598549
 30
0.0
 10
458.2114121254999
 20
1333.92158884725
 30
0.0
 10
458.1027130782252
 20
1334.045887058633
 30
0.0
 10
458.0920415076358
 20
1334.058090083132
 30
0.0
  0
SPLINE
  5
2B8
330
1F
100
AcDbEntity
  8
0
  6
Continuous
 62
     8
370
    18
100
AcDbSpline
210
0.0
220
0.0
230
1.0
 70
     8
 71
     3
 72
    12
 73
     8
 74
     0
 42
0.000000001
 43
0.00000001
 40
0.0
 40
0.0
 40
0.0
 40
0.0
 40
0.2500000000000985
 40
0.2500000000000985
 40
0.500000000000197
 40
0.500000000000197
 40
1.0
 40
1.0
 40
1.0
 40
1.0
 10
452.5847411234053
 20
1494.37393697473
 30
0.0
 10
452.5518147096404
 20
1494.358053026121
 30
0.0
 10
452.5185073527469
 20
1494.350972702191
 30
0.0
 10
452.4561186990375
 20
1494.363782532409
 30
0.0
 10
452.4271733236326
 20
1494.384467038937
 30
0.0
 10
452.3580784614637
 20
1494.486066215025
 30
0.0
 10
452.3385381834053
 20
1494.604802506391
 30
0.0
 10
452.3385381834053
 20
1494.72799308473
 30
0.0
  0
SPLINE
  5
2B9
330
1F
100
AcDbEntity
  8
0
  6
Continuous
 62
     8
370
    18
100
AcDbSpline
210
0.0
220
0.0
230
1.0
 70
     8
 71
     3
 72
     8
 73
     4
 74
     0
 42
0.000000001
 43
0.00000001
 40
0.0
 40
0.0
 40
0.0
 40
0.0
 40
1.0
 40
1.0
 40
1.0
 40
1.0
 10
452.584741111365
 20
1494.373937613713
 30
0.0
 10
452.582312553502
 20
1494.5214925133
 30
0.0
 10
452.5798370815164
 20
1494.667661610344
 30
0.0
 10
452.5773146317839
 20
1494.812333386916
 30
0.0
  0
SPLINE
  5
2BA
330
1F
100
AcDbEntity
  8
0
  6
Continuous
 62
     8
370
    18
100
AcDbSpline
210
0.0
220
0.0
230
1.0
 70
     8
 71
     3
 72
    12
 73
     8
 74
     0
 42
0.000000001
 43
0.00000001
 40
0.0
 40
0.0
 40
0.0
 40
0.0
 40
0.0000027096072917
 40
0.2500020626941337
 40
0.5000014913621746
 40
0.7500006108310415
 40
1.0
 40
1.0
 40
1.0
 40
1.0
 10
456.8625392469508
 20
1494.373961321841
 30
0.0
 10
456.8625392469544
 20
1494.373961321841
 30
0.0
 10
456.8625395843723
 20
1494.373961327545
 30
0.0
 10
456.675555806669
 20
1494.373961319194
 30
0.0
 10
455.8326891162575
 20
1494.373961322546
 30
0.0
 10
454.4967967534857
 20
1494.373961321664
 30
0.0
 10
453.2220949428497
 20
1494.373961321782
 30
0.0
 10
452.5847436937434
 20
1494.373961321841
 30
0.0
  0
SPLINE
  5
2BB
330
1F
100
AcDbEntity
  8
0
  6
Continuous
 62
     8
370
    18
100
AcDbSpline
210
0.0
220
0.0
230
1.0
 70
     8
 71
     3
 72
    14
 73
    10
 74
     0
 42
0.000000001
 43
0.00000001
 40
0.0
 40
0.0
 40
0.0
 40
0.0
 40
0.25
 40
0.25
 40
0.5
 40
0.5
 40
0.75
 40
0.75
 40
1.0
 40
1.0
 40
1.0
 40
1.0
 10
453.1999495834008
 20
1552.526458084905
 30
0.0
 10
453.1999496023156
 20
1552.675450004598
 30
0.0
 10
453.1999496183686
 20
1552.868297873909
 30
0.0
 10
453.1999496415473
 20
1553.303210118073
 30
0.0
 10
453.1999496486566
 20
1553.544970558071
 30
0.0
 10
453.1999496524961
 20
1554.028840980606
 30
0.0
 10
453.1999496492235
 20
1554.270612814264
 30
0.0
 10
453.1999496329473
 20
1554.70556835872
 30
0.0
 10
453.199949619955
 20
1554.898448104402
 30
0.0
 10
453.1999496034053
 20
1555.047478945186
 30
0.0
  0
SPLINE
  5
2BC
330
1F
100
AcDbEntity
  8
0
  6
Continuous
 62
     8
370
    18
100
AcDbSpline
210
0.0
220
0.0
230
1.0
 70
     8
 71
     3
 72
    14
 73
    10
 74
     0
 42
0.000000001
 43
0.00000001
 40
0.0
 40
0.0
 40
0.0
 40
0.0
 40
0.25
 40
0.25
 40
0.5
 40
0.5
 40
0.75
 40
0.75
 40
1.0
 40
1.0
 40
1.0
 40
1.0
 10
453.1999495334011
 20
1547.52645815092
 30
0.0
 10
453.1999495523158
 20
1547.675450075103
 30
0.0
 10
453.1999495683689
 20
1547.868297939838
 30
0.0
 10
453.1999495915475
 20
1548.303210163167
 30
0.0
 10
453.1999495986567
 20
1548.544970587008
 30
0.0
 10
453.1999496024961
 20
1549.028840975911
 30
0.0
 10
453.1999495992235
 20
1549.270612792217
 30
0.0
 10
453.1999495829473
 20
1549.705568311296
 30
0.0
 10
453.1999495699549
 20
1549.898448049059
 30
0.0
 10
453.1999495534051
 20
1550.047478890252
 30
0.0
  0
SPLINE
  5
2BD
330
1F
100
AcDbEntity
  8
0
  6
Continuous
 62
     8
370
    18
100
AcDbSpline
210
0.0
220
0.0
230
1.0
 70
     8
 71
     3
 72
    14
 73
    10
 74
     0
 42
0.000000001
 43
0.00000001
 40
0.0
 40
0.0
 40
0.0
 40
0.0
 40
0.25
 40
0.25
 40
0.5
 40
0.5
 40
0.75
 40
0.75
 40
1.0
 40
1.0
 40
1.0
 40
1.0
 10
453.1999494834016
 20
1542.526458223569
 30
0.0
 10
453.1999495023163
 20
1542.675450151132
 30
0.0
 10
453.1999495183693
 20
1542.868298010375
 30
0.0
 10
453.1999495415479
 20
1543.303210211319
 30
0.0
 10
453.199949548657
 20
1543.544970618368
 30
0.0
 10
453.1999495524963
 20
1544.028840972419
 30
0.0
 10
453.1999495492238
 20
1544.270612770785
 30
0.0
 10
453.1999495329474
 20
1544.705568263116
 30
0.0
 10
453.199949519955
 20
1544.898447992175
 30
0.0
 10
453.1999495034052
 20
1545.047478832826
 30
0.0
  0
SPLINE
  5
2BE
330
1F
100
AcDbEntity
  8
0
  6
Continuous
 62
     8
370
    18
100
AcDbSpline
210
0.0
220
0.0
230
1.0
 70
     8
 71
     3
 72
    14
 73
    10
 74
     0
 42
0.000000001
 43
0.00000001
 40
0.0
 40
0.0
 40
0.0
 40
0.0
 40
0.25
 40
0.25
 40
0.5
 40
0.5
 40
0.75
 40
0.75
 40
1.0
 40
1.0
 40
1.0
 40
1.0
 10
453.1999494334019
 20
1537.526458302056
 30
0.0
 10
453.1999494523166
 20
1537.675450232521
 30
0.0
 10
453.1999494686506
 20
1537.868298085999
 30
0.0
 10
453.1999494928967
 20
1538.303210264355
 30
0.0
 10
453.1999495007918
 20
1538.54497065468
 30
0.0
 10
453.1999495065504
 20
1539.028840974187
 30
0.0
 10
453.1999495044098
 20
1539.270612754849
 30
0.0
 10
453.1999494905162
 20
1539.705568220867
 30
0.0
 10
453.199949478773
 20
1539.898447941418
 30
0.0
 10
453.1999494634052
 20
1540.047478781623
 30
0.0
  0
SPLINE
  5
2BF
330
1F
100
AcDbEntity
  8
0
  6
Continuous
 62
     8
370
    18
100
AcDbSpline
210
0.0
220
0.0
230
1.0
 70
     8
 71
     3
 72
    14
 73
    10
 74
     0
 42
0.000000001
 43
0.00000001
 40
0.0
 40
0.0
 40
0.0
 40
0.0
 40
0.25
 40
0.25
 40
0.5
 40
0.5
 40
0.75
 40
0.75
 40
1.0
 40
1.0
 40
1.0
 40
1.0
 10
453.1999493834024
 20
1532.52645837524
 30
0.0
 10
453.1999494034992
 20
1532.675450309999
 30
0.0
 10
453.1999494208013
 20
1532.86829815922
 30
0.0
 10
453.1999494463625
 20
1533.303210317843
 30
0.0
 10
453.1999494546037
 20
1533.544970692789
 30
0.0
 10
453.1999494603622
 20
1534.028840979892
 30
0.0
 10
453.1999494578754
 20
1534.270612743644
 30
0.0
 10
453.1999494426666
 20
1534.705568184112
 30
0.0
 10
453.1999494299551
 20
1534.898447896123
 30
0.0
 10
453.1999494134052
 20
1535.047478735393
 30
0.0
  0
SPLINE
  5
2C0
330
1F
100
AcDbEntity
  8
0
  6
Continuous
 62
     8
370
    18
100
AcDbSpline
210
0.0
220
0.0
230
1.0
 70
     8
 71
     3
 72
    14
 73
    10
 74
     0
 42
0.000000001
 43
0.00000001
 40
0.0
 40
0.0
 40
0.0
 40
0.0
 40
0.25
 40
0.25
 40
0.5
 40
0.5
 40
0.75
 40
0.75
 40
1.0
 40
1.0
 40
1.0
 40
1.0
 10
453.1999493334029
 20
1527.526458441255
 30
0.0
 10
453.1999493534996
 20
1527.675450380504
 30
0.0
 10
453.1999493708017
 20
1527.86829822515
 30
0.0
 10
453.1999493963627
 20
1528.303210362937
 30
0.0
 10
453.199949404604
 20
1528.544970721726
 30
0.0
 10
453.1999494103624
 20
1529.028840975198
 30
0.0
 10
453.1999494078756
 20
1529.270612721597
 30
0.0
 10
453.1999493926667
 20
1529.705568136687
 30
0.0
 10
453.1999493799552
 20
1529.89844784078
 30
0.0
 10
453.1999493634053
 20
1530.047478680458
 30
0.0
  0
SPLINE
  5
2C1
330
1F
100
AcDbEntity
  8
0
  6
Continuous
 62
     8
370
    18
100
AcDbSpline
210
0.0
220
0.0
230
1.0
 70
     8
 71
     3
 72
    14
 73
    10
 74
     0
 42
0.000000001
 43
0.00000001
 40
0.0
 40
0.0
 40
0.0
 40
0.0
 40
0.25
 40
0.25
 40
0.5
 40
0.5
 40
0.75
 40
0.75
 40
1.0
 40
1.0
 40
1.0
 40
1.0
 10
453.1999492934032
 20
1522.526458526761
 30
0.0
 10
453.1999493123178
 20
1522.675450468187
 30
0.0
 10
453.1999493283707
 20
1522.868298306226
 30
0.0
 10
453.1999493515489
 20
1523.303210419644
 30
0.0
 10
453.199949358658
 20
1523.544970760769
 30
0.0
 10
453.199949362497
 20
1524.028840977863
 30
0.0
 10
453.1999493592243
 20
1524.270612705665
 30
0.0
 10
453.1999493429477
 20
1524.705568092838
 30
0.0
 10
453.1999493299552
 20
1524.898447787713
 30
0.0
 10
453.1999493134052
 20
1525.047478626381
 30
0.0
  0
SPLINE
  5
2C2
330
1F
100
AcDbEntity
  8
0
  6
Continuous
 62
     8
370
    18
100
AcDbSpline
210
0.0
220
0.0
230
1.0
 70
     8
 71
     3
 72
    14
 73
    10
 74
     0
 42
0.000000001
 43
0.00000001
 40
0.0
 40
0.0
 40
0.0
 40
0.0
 40
0.25
 40
0.25
 40
0.5
 40
0.5
 40
0.75
 40
0.75
 40
1.0
 40
1.0
 40
1.0
 40
1.0
 10
453.1999492434036
 20
1517.526458591154
 30
0.0
 10
453.1999492623182
 20
1517.675450537261
 30
0.0
 10
453.1999492783711
 20
1517.868298370973
 30
0.0
 10
453.1999493015492
 20
1518.303210464114
 30
0.0
 10
453.1999493086582
 20
1518.544970789394
 30
0.0
 10
453.1999493124973
 20
1519.028840973478
 30
0.0
 10
453.1999493092245
 20
1519.270612684239
 30
0.0
 10
453.1999492929478
 20
1519.705568046594
 30
0.0
 10
453.1999492799552
 20
1519.898447733799
 30
0.0
 10
453.1999492634052
 20
1520.047478573066
 30
0.0
  0
SPLINE
  5
2C3
330
1F
100
AcDbEntity
  8
0
  6
Continuous
 62
     8
370
    18
100
AcDbSpline
210
0.0
220
0.0
230
1.0
 70
     8
 71
     3
 72
    14
 73
    10
 74
     0
 42
0.000000001
 43
0.00000001
 40
0.0
 40
0.0
 40
0.0
 40
0.0
 40
0.25
 40
0.25
 40
0.5
 40
0.5
 40
0.75
 40
0.75
 40
1.0
 40
1.0
 40
1.0
 40
1.0
 10
453.199949193404
 20
1512.526458663376
 30
0.0
 10
453.1999492123185
 20
1512.675450613239
 30
0.0
 10
453.1999492283715
 20
1512.868298441775
 30
0.0
 10
453.1999492515495
 20
1513.303210513264
 30
0.0
 10
453.1999492586585
 20
1513.544970822172
 30
0.0
 10
453.1999492624974
 20
1514.028840972623
 30
0.0
 10
453.1999492592246
 20
1514.270612666248
 30
0.0
 10
453.1999492429478
 20
1514.705568004041
 30
0.0
 10
453.1999492299553
 20
1514.898447683929
 30
0.0
 10
453.1999492134052
 20
1515.047478524337
 30
0.0
  0
SPLINE
  5
2C4
330
1F
100
AcDbEntity
  8
0
  6
Continuous
 62
     8
370
    18
100
AcDbSpline
210
0.0
220
0.0
230
1.0
 70
     8
 71
     3
 72
    14
 73
    10
 74
     0
 42
0.000000001
 43
0.00000001
 40
0.0
 40
0.0
 40
0.0
 40
0.0
 40
0.25
 40
0.25
 40
0.5
 40
0.5
 40
0.75
 40
0.75
 40
1.0
 40
1.0
 40
1.0
 40
1.0
 10
453.1999491434045
 20
1507.526458742676
 30
0.0
 10
453.199949162319
 20
1507.675450695449
 30
0.0
 10
453.1999491783718
 20
1507.868298517979
 30
0.0
 10
453.1999492015498
 20
1508.303210565915
 30
0.0
 10
453.1999492086588
 20
1508.544970857374
 30
0.0
 10
453.1999492124976
 20
1509.028840971448
 30
0.0
 10
453.1999492092248
 20
1509.270612646261
 30
0.0
 10
453.1999491929479
 20
1509.705567955321
 30
0.0
 10
453.1999491799553
 20
1509.89844762539
 30
0.0
 10
453.1999491634053
 20
1510.047478464054
 30
0.0
  0
SPLINE
  5
2C5
330
1F
100
AcDbEntity
  8
0
  6
Continuous
 62
     8
370
    18
100
AcDbSpline
210
0.0
220
0.0
230
1.0
 70
     8
 71
     3
 72
    14
 73
    10
 74
     0
 42
0.000000001
 43
0.00000001
 40
0.0
 40
0.0
 40
0.0
 40
0.0
 40
0.25
 40
0.25
 40
0.5
 40
0.5
 40
0.75
 40
0.75
 40
1.0
 40
1.0
 40
1.0
 40
1.0
 10
453.1999490934049
 20
1502.52645881906
 30
0.0
 10
453.1999491123193
 20
1502.675450776068
 30
0.0
 10
453.1999491286531
 20
1502.868298593695
 30
0.0
 10
453.1999491528987
 20
1503.30321062018
 30
0.0
 10
453.1999491607936
 20
1503.544970895199
 30
0.0
 10
453.1999491665517
 20
1504.028840975335
 30
0.0
 10
453.1999491644108
 20
1504.270612632773
 30
0.0
 10
453.1999491505168
 20
1504.705567916837
 30
0.0
 10
453.1999491387733
 20
1504.898447579391
 30
0.0
 10
453.1999491234053
 20
1505.047478419102
 30
0.0
  0
SPLINE
  5
2C6
330
1F
100
AcDbEntity
  8
0
  6
Continuous
 62
     8
370
    18
100
AcDbSpline
210
0.0
220
0.0
230
1.0
 70
     8
 71
     3
 72
    14
 73
    10
 74
     0
 42
0.000000001
 43
0.00000001
 40
0.0
 40
0.0
 40
0.0
 40
0.0
 40
0.25
 40
0.25
 40
0.5
 40
0.5
 40
0.75
 40
0.75
 40
1.0
 40
1.0
 40
1.0
 40
1.0
 10
453.1999490434053
 20
1497.526458888467
 30
0.0
 10
453.1999490635018
 20
1497.675450849675
 30
0.0
 10
453.1999490808037
 20
1497.868298662848
 30
0.0
 10
453.1999491063644
 20
1498.303210669166
 30
0.0
 10
453.1999491146054
 20
1498.544970928569
 30
0.0
 10
453.1999491203634
 20
1499.028840975993
 30
0.0
 10
453.1999491178764
 20
1499.270612616453
 30
0.0
 10
453.1999491026671
 20
1499.705567875169
 30
0.0
 10
453.1999490899553
 20
1499.898447529456
 30
0.0
 10
453.1999490734052
 20
1500.047478368712
 30
0.0
  0
SPLINE
  5
2C7
330
1F
100
AcDbEntity
  8
0
  6
Continuous
 62
     8
370
    18
100
AcDbSpline
210
0.0
220
0.0
230
1.0
 70
     8
 71
     3
 72
    10
 73
     6
 74
     0
 42
0.000000001
 43
0.00000001
 40
0.0
 40
0.0
 40
0.0
 40
0.0
 40
0.5
 40
0.5
 40
1.0
 40
1.0
 40
1.0
 40
1.0
 10
454.8052761734039
 20
1499.448129453565
 30
0.0
 10
454.8052761819397
 20
1499.229466451372
 30
0.0
 10
454.8052761858905
 20
1498.998725347124
 30
0.0
 10
454.8052761841049
 20
1498.575282442327
 30
0.0
 10
454.8052761788964
 20
1498.344530425021
 30
0.0
 10
454.8052761683715
 20
1498.125873568495
 30
0.0
  0
SPLINE
  5
2C8
330
1F
100
AcDbEntity
  8
0
  6
Continuous
 62
     8
370
    18
100
AcDbSpline
210
0.0
220
0.0
230
1.0
 70
     8
 71
     3
 72
    10
 73
     6
 74
     0
 42
0.000000001
 43
0.00000001
 40
0.0
 40
0.0
 40
0.0
 40
0.0
 40
0.5
 40
0.5
 40
1.0
 40
1.0
 40
1.0
 40
1.0
 10
454.8052767054762
 20
1554.448131989399
 30
0.0
 10
454.8052767348715
 20
1554.241243711724
 30
0.0
 10
454.8052767498739
 20
1554.014179454541
 30
0.0
 10
454.8052767484462
 20
1553.559808821215
 30
0.0
 10
454.805276732017
 20
1553.33274963487
 30
0.0
 10
454.8052767013256
 20
1553.125871051003
 30
0.0
  0
SPLINE
  5
2C9
330
1F
100
AcDbEntity
  8
0
  6
Continuous
 62
     8
370
    18
100
AcDbSpline
210
0.0
220
0.0
230
1.0
 70
     8
 71
     3
 72
    10
 73
     6
 74
     0
 42
0.000000001
 43
0.00000001
 40
0.0
 40
0.0
 40
0.0
 40
0.0
 40
0.5
 40
0.5
 40
1.0
 40
1.0
 40
1.0
 40
1.0
 10
454.8052766610036
 20
1549.448131764383
 30
0.0
 10
454.8052766888663
 20
1549.241243547214
 30
0.0
 10
454.8052767029485
 20
1549.014179372062
 30
0.0
 10
454.8052767011349
 20
1548.559808903038
 30
0.0
 10
454.8052766852409
 20
1548.332749798517
 30
0.0
 10
454.8052766557986
 20
1548.125871274757
 30
0.0
  0
SPLINE
  5
2CA
330
1F
100
AcDbEntity
  8
0
  6
Continuous
 62
     8
370
    18
100
AcDbSpline
210
0.0
220
0.0
230
1.0
 70
     8
 71
     3
 72
    10
 73
     6
 74
     0
 42
0.000000001
 43
0.00000001
 40
0.0
 40
0.0
 40
0.0
 40
0.0
 40
0.5
 40
0.5
 40
1.0
 40
1.0
 40
1.0
 40
1.0
 10
454.8052766110035
 20
1544.448131528914
 30
0.0
 10
454.8052766367136
 20
1544.241243375071
 30
0.0
 10
454.80527664967
 20
1544.014179285989
 30
0.0
 10
454.8052766478567
 20
1543.559808989772
 30
0.0
 10
454.8052766330889
 20
1543.332749971521
 30
0.0
 10
454.8052766057995
 20
1543.125871511471
 30
0.0
  0
SPLINE
  5
2CB
330
1F
100
AcDbEntity
  8
0
  6
Continuous
 62
     8
370
    18
100
AcDbSpline
210
0.0
220
0.0
230
1.0
 70
     8
 71
     3
 72
    10
 73
     6
 74
     0
 42
0.000000001
 43
0.00000001
 40
0.0
 40
0.0
 40
0.0
 40
0.0
 40
0.5
 40
0.5
 40
1.0
 40
1.0
 40
1.0
 40
1.0
 10
454.8052765611246
 20
1539.448131304761
 30
0.0
 10
454.805276585219
 20
1539.241243211097
 30
0.0
 10
454.8052765974487
 20
1539.014179203493
 30
0.0
 10
454.8052765960221
 20
1538.559809069951
 30
0.0
 10
454.8052765823667
 20
1538.332750132449
 30
0.0
 10
454.8052765569773
 20
1538.125871731186
 30
0.0
  0
SPLINE
  5
2CC
330
1F
100
AcDbEntity
  8
0
  6
Continuous
 62
     8
370
    18
100
AcDbSpline
210
0.0
220
0.0
230
1.0
 70
     8
 71
     3
 72
    10
 73
     6
 74
     0
 42
0.000000001
 43
0.00000001
 40
0.0
 40
0.0
 40
0.0
 40
0.0
 40
0.5
 40
0.5
 40
1.0
 40
1.0
 40
1.0
 40
1.0
 10
454.8052765111267
 20
1534.448131072231
 30
0.0
 10
454.8052765344866
 20
1534.229467599265
 30
0.0
 10
454.8052765449748
 20
1533.998725874369
 30
0.0
 10
454.8052765431866
 20
1533.575281930829
 30
0.0
 10
454.8052765317105
 20
1533.344529294044
 30
0.0
 10
454.8052765069781
 20
1533.125871966137
 30
0.0
  0
SPLINE
  5
2CD
330
1F
100
AcDbEntity
  8
0
  6
Continuous
 62
     8
370
    18
100
AcDbSpline
210
0.0
220
0.0
230
1.0
 70
     8
 71
     3
 72
    10
 73
     6
 74
     0
 42
0.000000001
 43
0.00000001
 40
0.0
 40
0.0
 40
0.0
 40
0.0
 40
0.5
 40
0.5
 40
1.0
 40
1.0
 40
1.0
 40
1.0
 10
454.8052764634005
 20
1529.448130843413
 30
0.0
 10
454.8052764829336
 20
1529.241242873906
 30
0.0
 10
454.8052764925857
 20
1529.014179034958
 30
0.0
 10
454.8052764905341
 20
1528.559809240153
 30
0.0
 10
454.8052764788331
 20
1528.332750471819
 30
0.0
 10
454.805276457546
 20
1528.125872195694
 30
0.0
  0
SPLINE
  5
2CE
330
1F
100
AcDbEntity
  8
0
  6
Continuous
 62
     8
370
    18
100
AcDbSpline
210
0.0
220
0.0
230
1.0
 70
     8
 71
     3
 72
    10
 73
     6
 74
     0
 42
0.000000001
 43
0.00000001
 40
0.0
 40
0.0
 40
0.0
 40
0.0
 40
0.5
 40
0.5
 40
1.0
 40
1.0
 40
1.0
 40
1.0
 10
454.8052764162056
 20
1524.448130611745
 30
0.0
 10
454.8052764348086
 20
1524.229467272095
 30
0.0
 10
454.805276442545
 20
1523.998725723289
 30
0.0
 10
454.805276440561
 20
1523.575282073876
 30
0.0
 10
454.8052764309824
 20
1523.344529612581
 30
0.0
 10
454.8052764106927
 20
1523.125872418313
 30
0.0
  0
SPLINE
  5
2CF
330
1F
100
AcDbEntity
  8
0
  6
Continuous
 62
     8
370
    18
100
AcDbSpline
210
0.0
220
0.0
230
1.0
 70
     8
 71
     3
 72
    10
 73
     6
 74
     0
 42
0.000000001
 43
0.00000001
 40
0.0
 40
0.0
 40
0.0
 40
0.0
 40
0.5
 40
0.5
 40
1.0
 40
1.0
 40
1.0
 40
1.0
 10
454.8052763654746
 20
1519.448130371291
 30
0.0
 10
454.8052763813412
 20
1519.241242525985
 30
0.0
 10
454.8052763892672
 20
1519.014178856191
 30
0.0
 10
454.8052763878422
 20
1518.55980940137
 30
0.0
 10
454.8052763784919
 20
1518.332750802947
 30
0.0
 10
454.8052763613318
 20
1518.125872652467
 30
0.0
  0
SPLINE
  5
2D0
330
1F
100
AcDbEntity
  8
0
  6
Continuous
 62
     8
370
    18
100
AcDbSpline
210
0.0
220
0.0
230
1.0
 70
     8
 71
     3
 72
    10
 73
     6
 74
     0
 42
0.000000001
 43
0.00000001
 40
0.0
 40
0.0
 40
0.0
 40
0.0
 40
0.5
 40
0.5
 40
1.0
 40
1.0
 40
1.0
 40
1.0
 10
454.8052763210032
 20
1514.448130142968
 30
0.0
 10
454.8052763355325
 20
1514.229466938907
 30
0.0
 10
454.8052763402088
 20
1513.998725569262
 30
0.0
 10
454.8052763393429
 20
1513.575282218986
 30
0.0
 10
454.8052763319479
 20
1513.344529936188
 30
0.0
 10
454.8052763158048
 20
1513.12587287787
 30
0.0
  0
SPLINE
  5
2D1
330
1F
100
AcDbEntity
  8
0
  6
Continuous
 62
     8
370
    18
100
AcDbSpline
210
0.0
220
0.0
230
1.0
 70
     8
 71
     3
 72
    10
 73
     6
 74
     0
 42
0.000000001
 43
0.00000001
 40
0.0
 40
0.0
 40
0.0
 40
0.0
 40
0.5
 40
0.5
 40
1.0
 40
1.0
 40
1.0
 40
1.0
 10
454.8052762704748
 20
1509.448129912398
 30
0.0
 10
454.8052762831689
 20
1509.22946677599
 30
0.0
 10
454.8052762874821
 20
1508.998725495215
 30
0.0
 10
454.8052762868132
 20
1508.57528229424
 30
0.0
 10
454.8052762803976
 20
1508.344530100404
 30
0.0
 10
454.8052762663335
 20
1508.125873109679
 30
0.0
  0
SPLINE
  5
2D2
330
1F
100
AcDbEntity
  8
0
  6
Continuous
 62
     8
370
    18
100
AcDbSpline
210
0.0
220
0.0
230
1.0
 70
     8
 71
     3
 72
    10
 73
     6
 74
     0
 42
0.000000001
 43
0.00000001
 40
0.0
 40
0.0
 40
0.0
 40
0.0
 40
0.5
 40
0.5
 40
1.0
 40
1.0
 40
1.0
 40
1.0
 10
454.8052762211232
 20
1504.448129686651
 30
0.0
 10
454.8052762316888
 20
1504.241242025357
 30
0.0
 10
454.8052762368422
 20
1504.014178605142
 30
0.0
 10
454.8052762354183
 20
1503.559809650106
 30
0.0
 10
454.8052762288417
 20
1503.332751300526
 30
0.0
 10
454.8052762169835
 20
1503.125873332651
 30
0.0
  0
CIRCLE
  5
2D3
330
1F
100
AcDbEntity
  8
0
  6
Continuous
 62
     7
370
    25
100
AcDbCircle
 10
216.6498069669
 20
478.3714730687
 30
0.0
 40
17.5155864091181
  0
SPLINE
  5
2D4
330
1F
100
AcDbEntity
  8
0
  6
Continuous
 62
     7
370
    25
100
AcDbSpline
210
0.0
220
0.0
230
1.0
 70
     8
 71
     3
 72
    13
 73
     9
 74
     0
 42
0.000000001
 43
0.00000001
 40
0.0
 40
0.0
 40
0.0
 40
0.0
 40
0.0152681541519066
 40
0.1499349960506945
 40
0.384107026054426
 40
0.6497854146449146
 40
0.9634899340094951
 40
1.0
 40
1.0
 40
1.0
 40
1.0
 10
210.9054354036776
 20
371.4699099278369
 30
0.0
 10
210.9092261523514
 20
371.4679407991615
 30
0.0
 10
210.9464517319314
 20
371.4486037334464
 30
0.0
 10
211.1108747417463
 20
371.3394760998849
 30
0.0
 10
211.3505373958116
 20
371.108262532691
 30
0.0
 10
211.5650606729975
 20
370.7225538864503
 30
0.0
 10
211.6734076433831
 20
370.3867851281236
 30
0.0
 10
211.6433317264505
 20
370.19873978676
 30
0.0
 10
211.6401962953238
 20
370.179135954968
 30
0.0
  0
SPLINE
  5
2D5
330
1F
100
AcDbEntity
  8
0
  6
Continuous
 62
     7
370
    25
100
AcDbSpline
210
0.0
220
0.0
230
1.0
 70
     8
 71
     3
 72
    12
 73
     8
 74
     0
 42
0.000000001
 43
0.00000001
 40
0.0
 40
0.0
 40
0.0
 40
0.0
 40
0.2456217743696119
 40
0.4987738268367546
 40
0.7125828064788515
 40
0.8893555826077763
 40
0.9999999999999999
 40
0.9999999999999999
 40
0.9999999999999999
 40
0.9999999999999999
 10
221.6640495712487
 20
370.1494360780635
 30
0.0
 10
221.6656665051933
 20
370.2826330753509
 30
0.0
 10
221.668949945081
 20
370.5531106265807
 30
0.0
 10
221.8258151753654
 20
370.9122455059925
 30
0.0
 10
222.0267229005751
 20
371.1882567647112
 30
0.0
 10
222.2270031151908
 20
371.3663287204471
 30
0.0
 10
222.328999077805
 20
371.4295040750657
 30
0.0
 10
222.3682635481088
 20
371.4538241243282
 30
0.0
  0
LINE
  5
2D6
330
1F
100
AcDbEntity
  8
0
  6
Continuous
 62
     7
370
    25
100
AcDbLine
 10
211.6498070786
 20
370.1772975242
 30
0.0
 11
211.6498070786
 21
291.3714709198
 31
0.0
  0
LINE
  5
2D7
330
1F
100
AcDbEntity
  8
0
  6
Continuous
 62
     7
370
    25
100
AcDbLine
 10
221.6498068551
 20
291.3714709198
 30
0.0
 11
221.6498068551
 21
370.155761621
 31
0.0
  0
ARC
  5
2D8
330
1F
100
AcDbEntity
  8
0
  6
Continuous
 62
     7
370
    25
100
AcDbCircle
 10
212.6498069669
 20
291.3714730656
 30
0.0
 40
1.0
100
AcDbArc
 50
180.0
 51
270.0
  0
ARC
  5
2D9
330
1F
100
AcDbEntity
  8
0
  6
Continuous
 62
     7
370
    25
100
AcDbCircle
 10
220.6498069669
 20
291.3714730656
 30
0.0
 40
1.000000000000028
100
AcDbArc
 50
270.0
 51
0.0
  0
SPLINE
  5
2DA
330
1F
100
AcDbEntity
  8
0
  6
Continuous
 62
     7
370
    25
100
AcDbSpline
210
0.0
220
0.0
230
1.0
 70
     8
 71
     3
 72
    12
 73
     8
 74
     0
 42
0.000000001
 43
0.00000001
 40
0.0
 40
0.0
 40
0.0
 40
0.0
 40
0.2152152396882732
 40
0.4140130944245678
 40
0.5994523821590589
 40
0.7901668256186669
 40
1.0
 40
1.0
 40
1.0
 40
1.0
 10
199.4013031030623
 20
375.7774929022708
 30
0.0
 10
199.3926557477919
 20
375.7466078366425
 30
0.0
 10
199.3760206883078
 20
375.6871937281862
 30
0.0
 10
199.5528777290365
 20
375.2380853671747
 30
0.0
 10
199.8016389040374
 20
374.503220457726
 30
0.0
 10
200.0367366825466
 20
373.5179242924781
 30
0.0
 10
200.0716315915311
 20
372.7794984649705
 30
0.0
 10
200.0899118388621
 20
372.3926624721208
 30
0.0
  0
SPLINE
  5
2DB
330
1F
100
AcDbEntity
  8
0
  6
Continuous
 62
     7
370
    25
100
AcDbSpline
210
0.0
220
0.0
230
1.0
 70
     8
 71
     3
 72
    12
 73
     8
 74
     0
 42
0.000000001
 43
0.00000001
 40
0.0
 40
0.0
 40
0.0
 40
0.0
 40
0.2097133906574968
 40
0.4002116517902713
 40
0.5854627061949236
 40
0.7844362803921492
 40
1.0
 40
1.0
 40
1.0
 40
1.0
 10
233.2097020948855
 20
372.3926587468305
 30
0.0
 10
233.2279800367646
 20
372.7795385108041
 30
0.0
 10
233.2628611918869
 20
373.5178499219098
 30
0.0
 10
233.4980524622191
 20
374.5036841623918
 30
0.0
 10
233.7469789304853
 20
375.2390904065657
 30
0.0
 10
233.923290411958
 20
375.6871329176648
 30
0.0
 10
233.9066899331806
 20
375.7465455560916
 30
0.0
 10
233.898057510945
 20
375.7774407482066
 30
0.0
  0
LINE
  5
2DC
330
1F
100
AcDbEntity
  8
0
  6
Continuous
 62
     7
370
    25
100
AcDbLine
 10
200.0896976347
 20
372.5151556051
 30
0.0
 11
200.2855156566
 21
260.3204312241
 31
0.0
  0
LINE
  5
2DD
330
1F
100
AcDbEntity
  8
0
  6
Continuous
 62
     7
370
    25
100
AcDbLine
 10
233.0140982772
 20
260.3204312241
 30
0.0
 11
233.2099162991
 21
372.5151556051
 31
0.0
  0
SPLINE
  5
2DE
330
1F
100
AcDbEntity
  8
0
  6
Continuous
 62
     7
370
    25
100
AcDbSpline
210
0.0
220
0.0
230
1.0
 70
     8
 71
     3
 72
    25
 73
    21
 74
     0
 42
0.000000001
 43
0.00000001
 40
0.0
 40
0.0
 40
0.0
 40
0.0
 40
0.072004813215555
 40
0.1332896888241264
 40
0.1858062437212807
 40
0.2310050707344574
 40
0.2698956260459916
 40
0.3222532520191542
 40
0.3605341781509169
 40
0.4011912055463028
 40
0.4386342368234082
 40
0.4829369925918797
 40
0.5353350456380638
 40
0.597544038181949
 40
0.6455687471184652
 40
0.6997796399261821
 40
0.7611394252588424
 40
0.8307572015627503
 40
0.9098987351230142
 40
1.0
 40
1.0
 40
1.0
 40
1.0
 10
232.9303984547583
 20
190.7993467962661
 30
0.0
 10
232.9304368503277
 20
192.0063166024315
 30
0.0
 10
232.9305079252081
 20
194.2405648797279
 30
0.0
 10
232.9311956534016
 20
197.5491404590054
 30
0.0
 10
232.9322739766896
 20
200.5317278198364
 30
0.0
 10
232.9336732021538
 20
203.2342215936339
 30
0.0
 10
232.9355331198988
 20
206.0619230777835
 30
0.0
 10
232.9378213082197
 20
208.8825226781773
 30
0.0
 10
232.9406774633982
 20
211.8671891327172
 30
0.0
 10
232.9436091049571
 20
214.5989301916339
 30
0.0
 10
232.9470815340143
 20
217.5453795634354
 30
0.0
 10
232.9512777273415
 20
220.8421148844576
 30
0.0
 10
232.956722268221
 20
224.8166064611069
 30
0.0
 10
232.9627492245569
 20
228.9392801183587
 30
0.0
 10
232.9691714543912
 20
233.138564609211
 30
0.0
 10
232.9758118930215
 20
237.3350170458062
 30
0.0
 10
232.9835680137254
 20
242.0995133392265
 30
0.0
 10
232.9926064799609
 20
247.5152302923905
 30
0.0
 10
233.0031033640147
 20
253.677503577031
 30
0.0
 10
233.0106977827917
 20
258.0451712712133
 30
0.0
 10
233.0147408897607
 20
260.370424619905
 30
0.0
  0
SPLINE
  5
2DF
330
1F
100
AcDbEntity
  8
0
  6
Continuous
 62
     7
370
    25
100
AcDbSpline
210
0.0
220
0.0
230
1.0
 70
     8
 71
     3
 72
    24
 73
    20
 74
     0
 42
0.000000001
 43
0.00000001
 40
0.0
 40
0.0
 40
0.0
 40
0.0
 40
0.0903522090702059
 40
0.1686510411015543
 40
0.2365687119793402
 40
0.2955440095581277
 40
0.3468034600821726
 40
0.4015850104790507
 40
0.4475584616071588
 40
0.4860009272086759
 40
0.51787697752034
 40
0.5604368922981814
 40
0.6162813448326899
 40
0.6849259026870963
 40
0.732736862486894
 40
0.7864670785234144
 40
0.8475090555484492
 40
0.9178301337641367
 40
1.0
 40
1.0
 40
1.0
 40
1.0
 10
200.284873043987
 20
260.370424619905
 30
0.0
 10
200.2889276352774
 20
258.0387870714281
 30
0.0
 10
200.2964959177732
 20
253.6865625484332
 30
0.0
 10
200.3068901272921
 20
247.5836612904347
 30
0.0
 10
200.3157214978644
 20
242.2950587367705
 30
0.0
 10
200.3231949773952
 20
237.7112210075506
 30
0.0
 10
200.3299156930644
 20
233.4770158010811
 30
0.0
 10
200.3358774645206
 20
229.5929915532492
 30
0.0
 10
200.341081988674
 20
226.0605706370518
 30
0.0
 10
200.3452041162746
 20
223.134670838829
 30
0.0
 10
200.348995580625
 20
220.3229266091764
 30
0.0
 10
200.3530717728046
 20
217.121431215828
 30
0.0
 10
200.3577106855903
 20
213.1164552712138
 30
0.0
 10
200.3615912501634
 20
209.1655337476886
 30
0.0
 10
200.3645179048592
 20
205.4800470905539
 30
0.0
 10
200.366596014579
 20
202.1471532631872
 30
0.0
 10
200.3681324620453
 20
198.5895194690116
 30
0.0
 10
200.3690747812366
 20
194.738705186511
 30
0.0
 10
200.3691662116426
 20
192.178769934852
 30
0.0
 10
200.3692154789893
 20
190.7993467962661
 30
0.0
  0
LINE
  5
2E0
330
1F
100
AcDbEntity
  8
0
  6
Continuous
 62
     7
370
    25
100
AcDbLine
 10
232.9298471118
 20
186.1444922602
 30
0.0
 11
232.9298471118
 21
190.7993467963
 31
0.0
  0
LINE
  5
2E1
330
1F
100
AcDbEntity
  8
0
  6
Continuous
 62
     7
370
    25
100
AcDbLine
 10
200.369766822
 20
190.7993467963
 30
0.0
 11
200.369766822
 21
186.1444922602
 31
0.0
  0
SPLINE
  5
2E2
330
1F
100
AcDbEntity
  8
0
  6
Continuous
 62
     7
370
    25
100
AcDbSpline
210
0.0
220
0.0
230
1.0
 70
     8
 71
     3
 72
    19
 73
    15
 74
     0
 42
0.000000001
 43
0.00000001
 40
0.0
 40
0.0
 40
0.0
 40
0.0
 40
0.0652383852752633
 40
0.1538689608988201
 40
0.2424414142195152
 40
0.3310034244310126
 40
0.4195818037991999
 40
0.5081732646621453
 40
0.5967414207322905
 40
0.6852546126998685
 40
0.773695799458039
 40
0.8620711592343976
 40
0.9504072676158123
 40
0.9999999999999999
 40
0.9999999999999999
 40
0.9999999999999999
 40
0.9999999999999999
 10
200.4005637968509
 20
186.1448945915618
 30
0.0
 10
200.4047932530596
 20
185.6487625500257
 30
0.0
 10
200.4147686997121
 20
184.4786029671718
 30
0.0
 10
200.7989817434952
 20
182.6593565050037
 30
0.0
 10
201.4862813391564
 20
180.7332349666351
 30
0.0
 10
202.4767509509244
 20
178.913378091114
 30
0.0
 10
203.737559421771
 20
177.2340058546236
 30
0.0
 10
205.2481926126988
 20
175.7270818733103
 30
0.0
 10
206.9784729772984
 20
174.4214509977384
 30
0.0
 10
208.8949820284477
 20
173.3425429744102
 30
0.0
 10
210.9606415357828
 20
172.5095386040536
 30
0.0
 10
213.1353707005063
 20
171.9431736039949
 30
0.0
 10
215.0505741688772
 20
171.6804426809556
 30
0.0
 10
216.2268672333864
 20
171.6559456244165
 30
0.0
 10
216.6498069668735
 20
171.647137633554
 30
0.0
  0
SPLINE
  5
2E3
330
1F
100
AcDbEntity
  8
0
  6
Continuous
 62
     7
370
    25
100
AcDbSpline
210
0.0
220
0.0
230
1.0
 70
     8
 71
     3
 72
    19
 73
    15
 74
     0
 42
0.000000001
 43
0.00000001
 40
0.0
 40
0.0
 40
0.0
 40
0.0
 40
0.0497944313069196
 40
0.1416455544333977
 40
0.2336524182319524
 40
0.325805926521389
 40
0.4181313636583322
 40
0.5106263726314251
 40
0.603256405333157
 40
0.6959611065862233
 40
0.7886558715479585
 40
0.8812514055536697
 40
0.9737025648621556
 40
1.0
 40
1.0
 40
1.0
 40
1.0
 10
216.6498069668735
 20
171.647137633554
 30
0.0
 10
217.0583010349211
 20
171.6553721491262
 30
0.0
 10
218.2203058461562
 20
171.6787961042373
 30
0.0
 10
220.1232258922639
 20
171.9350647711981
 30
0.0
 10
222.3025348494714
 20
172.4973655766888
 30
0.0
 10
224.3752941712399
 20
173.3281948013067
 30
0.0
 10
226.3007439221492
 20
174.4076591773907
 30
0.0
 10
228.0408771362094
 20
175.7172893951945
 30
0.0
 10
229.5614117359146
 20
177.2321098070018
 30
0.0
 10
230.8291218469132
 20
178.9228055591011
 30
0.0
 10
231.8262256319182
 20
180.7553028788184
 30
0.0
 10
232.5022024826682
 20
182.693716746458
 30
0.0
 10
232.8492249371987
 20
184.2182120135789
 30
0.0
 10
232.8649908350667
 20
185.0862137105291
 30
0.0
 10
232.8684822673528
 20
185.2784367716232
 30
0.0
  0
SPLINE
  5
2E4
330
1F
100
AcDbEntity
  8
0
  6
Continuous
 62
     7
370
    25
100
AcDbSpline
210
0.0
220
0.0
230
1.0
 70
     8
 71
     3
 72
     9
 73
     5
 74
     0
 42
0.000000001
 43
0.00000001
 40
0.0
 40
0.0
 40
0.0
 40
0.0
 40
0.4952298892002893
 40
1.0
 40
1.0
 40
1.0
 40
1.0
 10
226.8933932314245
 20
419.735039255611
 30
0.0
 10
226.820303171502
 20
419.8809428930068
 30
0.0
 10
226.6727150280631
 20
420.1755608887652
 30
0.0
 10
226.6715795795793
 20
420.5051889706058
 30
0.0
 10
226.6710064391224
 20
420.6715753739991
 30
0.0
  0
SPLINE
  5
2E5
330
1F
100
AcDbEntity
  8
0
  6
Continuous
 62
     7
370
    25
100
AcDbSpline
210
0.0
220
0.0
230
1.0
 70
     8
 71
     3
 72
     9
 73
     5
 74
     0
 42
0.000000001
 43
0.00000001
 40
0.0
 40
0.0
 40
0.0
 40
0.0
 40
0.6599485100191081
 40
1.0
 40
1.0
 40
1.0
 40
1.0
 10
206.643962209913
 20
420.7482008701482
 30
0.0
 10
206.6437293960119
 20
420.563848133635
 30
0.0
 10
206.6433766201552
 20
420.2845040125188
 30
0.0
 10
206.5350281937797
 20
420.0295793418929
 30
0.0
 10
206.4981841499535
 20
419.9428918278136
 30
0.0
  0
LINE
  5
2E6
330
1F
100
AcDbEntity
  8
0
  6
Continuous
 62
     7
370
    25
100
AcDbLine
 10
226.6498067434
 20
420.6696941024
 30
0.0
 11
226.6498067434
 21
463.9910744941
 31
0.0
  0
LINE
  5
2E7
330
1F
100
AcDbEntity
  8
0
  6
Continuous
 62
     7
370
    25
100
AcDbLine
 10
206.6498071904
 20
463.9910744941
 30
0.0
 11
206.6498071904
 21
420.7371926373
 31
0.0
  0
SPLINE
  5
2E8
330
1F
100
AcDbEntity
  8
0
  6
Continuous
 62
     7
370
    25
100
AcDbSpline
210
0.0
220
0.0
230
1.0
 70
     8
 71
     3
 72
     9
 73
     5
 74
     0
 42
0.000000001
 43
0.00000001
 40
0.0
 40
0.0
 40
0.0
 40
0.0
 40
0.4930069144356822
 40
1.0
 40
1.0
 40
1.0
 40
1.0
 10
191.7914719338147
 20
397.9148039566645
 30
0.0
 10
191.7230233319372
 20
397.0753606950048
 30
0.0
 10
191.5841843017467
 20
395.3726599070848
 30
0.0
 10
191.7199969706625
 20
393.6246514271552
 30
0.0
 10
191.7888530547349
 20
392.7384232143232
 30
0.0
  0
ELLIPSE
  5
2E9
330
1F
100
AcDbEntity
  8
0
  6
Continuous
 62
     7
370
    25
100
AcDbEllipse
 10
216.6498069669
 20
395.254543744
 30
0.0
 11
-9.217160368280021E-11
 21
25.00054688668666
 31
0.0
210
0.0
220
0.0
230
1.0
 40
0.9999890624
 41
4.81899889773389
 42
7.747371716617923
  0
SPLINE
  5
2EA
330
1F
100
AcDbEntity
  8
0
  6
Continuous
 62
     7
370
    25
100
AcDbSpline
210
0.0
220
0.0
230
1.0
 70
     8
 71
     3
 72
     9
 73
     5
 74
     0
 42
0.000000001
 43
0.00000001
 40
0.0
 40
0.0
 40
0.0
 40
0.0
 40
0.4929131629644326
 40
1.0
 40
1.0
 40
1.0
 40
1.0
 10
241.5107608790128
 20
392.7384232143232
 30
0.0
 10
241.5783729481855
 20
393.599889104584
 30
0.0
 10
241.7155412655541
 20
395.3475922600036
 30
0.0
 10
241.5779252632612
 20
397.0510187869784
 30
0.0
 10
241.5081419999329
 20
397.9148039566645
 30
0.0
  0
ARC
  5
2EB
330
1F
100
AcDbEntity
  8
0
  6
Continuous
 62
     7
370
    25
100
AcDbCircle
 10
216.6498069669
 20
395.3714730656
 30
0.0
 40
25.00000000000006
100
AcDbArc
 50
282.3444197554
 51
353.9542814424
  0
ARC
  5
2EC
330
1F
100
AcDbEntity
  8
0
  6
Continuous
 62
     7
370
    25
100
AcDbCircle
 10
216.6498069669
 20
395.3714730656
 30
0.0
 40
25.0
100
AcDbArc
 50
186.0457185576
 51
257.8372666658
  0
SPLINE
  5
2ED
330
1F
100
AcDbEntity
  8
0
  6
Continuous
 62
     7
370
    25
100
AcDbSpline
210
0.0
220
0.0
230
1.0
 70
     8
 71
     3
 72
    12
 73
     8
 74
     0
 42
0.000000001
 43
0.00000001
 40
0.0
 40
0.0
 40
0.0
 40
0.0
 40
0.0427143156889869
 40
0.3619317650200391
 40
0.6758918738503714
 40
0.9969882755015369
 40
1.0
 40
1.0
 40
1.0
 40
1.0
 10
214.9152899178295
 20
371.0232904618898
 30
0.0
 10
215.0026836063242
 20
371.0178095525179
 30
0.0
 10
215.7431976803136
 20
370.9713680920642
 30
0.0
 10
217.2352397717642
 20
370.9462320304101
 30
0.0
 10
219.1842833744805
 20
371.0671189015632
 30
0.0
 10
220.4383117063253
 20
371.2269476374864
 30
0.0
 10
220.8400185591056
 20
371.2976068621578
 30
0.0
 10
220.843751357737
 20
371.298263452045
 30
0.0
  0
SPLINE
  5
2EE
330
1F
100
AcDbEntity
  8
0
  6
Continuous
 62
     7
370
    25
100
AcDbSpline
210
0.0
220
0.0
230
1.0
 70
     8
 71
     3
 72
     9
 73
     5
 74
     0
 42
0.000000001
 43
0.00000001
 40
0.0
 40
0.0
 40
0.0
 40
0.0
 40
0.4329208842200438
 40
1.0
 40
1.0
 40
1.0
 40
1.0
 10
222.6855060102968
 20
371.6013027793088
 30
0.0
 10
222.6983606391705
 20
371.5987776993645
 30
0.0
 10
222.7280534291057
 20
371.5929450402425
 30
0.0
 10
222.444084546398
 20
371.5141842399747
 30
0.0
 10
222.283051723483
 20
371.4695206350007
 30
0.0
  0
SPLINE
  5
2EF
330
1F
100
AcDbEntity
  8
0
  6
Continuous
 62
     7
370
    25
100
AcDbSpline
210
0.0
220
0.0
230
1.0
 70
     8
 71
     3
 72
     9
 73
     5
 74
     0
 42
0.000000001
 43
0.00000001
 40
0.0
 40
0.0
 40
0.0
 40
0.0
 40
0.0472148187343544
 40
1.0
 40
1.0
 40
1.0
 40
1.0
 10
210.9208501892714
 20
371.4918015962758
 30
0.0
 10
210.9068243134444
 20
371.4953376758191
 30
0.0
 10
210.6097591927276
 20
371.5702311020379
 30
0.0
 10
210.5990830560317
 20
371.5889296904681
 30
0.0
 10
210.5889109911947
 20
371.6067454284349
 30
0.0
  0
LINE
  5
2F0
330
1F
100
AcDbEntity
  8
0
  6
Continuous
 62
     7
370
    25
100
AcDbLine
 10
220.6498066912
 20
290.3714763439
 30
0.0
 11
212.6498067769
 21
290.3714763439
 31
0.0
  0
ARC
  5
2F1
330
1F
100
AcDbEntity
  8
0
  6
Continuous
 62
     7
370
    25
100
AcDbCircle
 10
216.6498069669
 20
395.3714730656
 30
0.0
 40
26.59999999999997
100
AcDbArc
 50
310.2135307244
 51
230.2388940386
  0
ARC
  5
2F2
330
1F
100
AcDbEntity
  8
0
  6
Continuous
 62
     7
370
    25
100
AcDbCircle
 10
216.6498069669
 20
325.3714730656
 30
0.0
 40
7.00000000000002
100
AcDbArc
 50
316.3860437904
 51
44.4153085972
  0
ARC
  5
2F3
330
1F
100
AcDbEntity
  8
0
  6
Continuous
 62
     7
370
    25
100
AcDbCircle
 10
216.6498069669
 20
325.3714730656
 30
0.0
 40
6.999999999999999
100
AcDbArc
 50
135.5846914028
 51
223.6139562096
  0
ELLIPSE
  5
2F4
330
1F
100
AcDbEntity
  8
0
  6
Continuous
 62
     7
370
    25
100
AcDbEllipse
 10
216.6498069669
 20
186.1444907191
 30
0.0
 11
16.28003999021567
 21
-2.842170943040401E-14
 31
0.0
210
0.0
220
0.0
230
1.0
 40
0.868942319
 41
4.712388980384702
 42
6.283185307179586
  0
ELLIPSE
  5
2F5
330
1F
100
AcDbEntity
  8
0
  6
Continuous
 62
     7
370
    25
100
AcDbEllipse
 10
216.6498069669
 20
186.1444907191
 30
0.0
 11
16.28003999021567
 21
-2.842170943040401E-14
 31
0.0
210
0.0
220
0.0
230
1.0
 40
0.868942319
 41
3.141592653589813
 42
4.712388980384715
  0
ARC
  5
2F6
330
1F
100
AcDbEntity
  8
0
  6
Continuous
 62
     7
370
    25
100
AcDbCircle
 10
216.6498069669
 20
395.3714730656
 30
0.0
 40
75.00000000000003
100
AcDbArc
 50
17.8833250486
 51
78.666035812
  0
ARC
  5
2F7
330
1F
100
AcDbEntity
  8
0
  6
Continuous
 62
     7
370
    25
100
AcDbCircle
 10
216.6498069669
 20
395.3714730656
 30
0.0
 40
75.00000000000001
100
AcDbArc
 50
101.333964188
 51
257.3126609452
  0
ARC
  5
2F8
330
1F
100
AcDbEntity
  8
0
  6
Continuous
 62
     7
370
    25
100
AcDbCircle
 10
216.6498069669
 20
395.3714730656
 30
0.0
 40
75.00000000000001
100
AcDbArc
 50
282.6873390548
 51
17.8833250486
  0
CIRCLE
  5
2F9
330
1F
100
AcDbEntity
  8
0
  6
Continuous
 62
     8
370
    18
100
AcDbCircle
 10
216.6498069669
 20
395.3714730656
 30
0.0
 40
24.37131302969664
  0
SPLINE
  5
2FA
330
1F
100
AcDbEntity
  8
0
  6
Continuous
 62
     8
370
    18
100
AcDbSpline
210
0.0
220
0.0
230
1.0
 70
     8
 71
     3
 72
    10
 73
     6
 74
     0
 42
0.000000001
 43
0.00000001
 40
0.0
 40
0.0
 40
0.0
 40
0.0
 40
0.3826142338629084
 40
0.7756641729915899
 40
1.0
 40
1.0
 40
1.0
 40
1.0
 10
220.843751357737
 20
371.298263452045
 30
0.0
 10
221.2916599113682
 20
371.375271030837
 30
0.0
 10
222.1996936097502
 20
371.5313865504158
 30
0.0
 10
222.7947263903154
 20
371.6582457831556
 30
0.0
 10
222.7146154503743
 20
371.6164792414126
 30
0.0
 10
222.6855060102968
 20
371.6013027793088
 30
0.0
  0
SPLINE
  5
2FB
330
1F
100
AcDbEntity
  8
0
  6
Continuous
 62
     8
370
    18
100
AcDbSpline
210
0.0
220
0.0
230
1.0
 70
     8
 71
     3
 72
    12
 73
     8
 74
     0
 42
0.000000001
 43
0.00000001
 40
0.0
 40
0.0
 40
0.0
 40
0.0
 40
0.0465588615214142
 40
0.2954447598992608
 40
0.5399826580992079
 40
0.786072877346308
 40
1.0
 40
1.0
 40
1.0
 40
1.0
 10
210.5889109911947
 20
371.6067454284349
 30
0.0
 10
210.5644926937845
 20
371.6152172211594
 30
0.0
 10
210.4095435008755
 20
371.6689759834149
 30
0.0
 10
210.7773026973931
 20
371.6012543724635
 30
0.0
 10
211.6911375146766
 20
371.4228344569277
 30
0.0
 10
213.1340258522537
 20
371.1764485306695
 30
0.0
 10
214.3498713762781
 20
371.0719067302746
 30
0.0
 10
214.9152899178295
 20
371.0232904618898
 30
0.0
  0
ARC
  5
2FC
330
1F
100
AcDbEntity
  8
0
  6
Continuous
 62
     8
370
    18
100
AcDbCircle
 10
216.6498069669
 20
395.3714730656
 30
0.0
 40
24.90261128491624
100
AcDbArc
 50
56.7500972515
 51
123.2499027484
  0
SPLINE
  5
2FD
330
1F
100
AcDbEntity
  8
0
  6
Continuous
 62
     8
370
    18
100
AcDbSpline
210
0.0
220
0.0
230
1.0
 70
     8
 71
     3
 72
    16
 73
    12
 74
     0
 42
0.000000001
 43
0.00000001
 40
0.0
 40
0.0
 40
0.0
 40
0.0
 40
0.0629443567032439
 40
0.1678149027461087
 40
0.2756556446197191
 40
0.3867560582345386
 40
0.5026751958579513
 40
0.624740834541675
 40
0.7518026454005985
 40
0.8789003447770611
 40
1.0
 40
1.0
 40
1.0
 40
1.0
 10
221.5660711767702
 20
370.3055723076978
 30
0.0
 10
222.2786737628058
 20
370.4391892714914
 30
0.0
 10
224.1785316680347
 20
370.7954232368327
 30
0.0
 10
226.9137749906853
 20
371.8354725586156
 30
0.0
 10
229.6909299600386
 20
373.2191158187757
 30
0.0
 10
232.0113965475205
 20
374.7491345613984
 30
0.0
 10
233.8234374363237
 20
376.2078303338366
 30
0.0
 10
235.0145235679257
 20
377.3168683572611
 30
0.0
 10
235.4164843874397
 20
377.691931766365
 30
0.0
 10
235.0281126006263
 20
377.1935692237869
 30
0.0
 10
234.1088411700467
 20
376.3139094084296
 30
0.0
 10
233.6603132093875
 20
375.8847086197057
 30
0.0
  0
SPLINE
  5
2FE
330
1F
100
AcDbEntity
  8
0
  6
Continuous
 62
     8
370
    18
100
AcDbSpline
210
0.0
220
0.0
230
1.0
 70
     8
 71
     3
 72
    16
 73
    12
 74
     0
 42
0.000000001
 43
0.00000001
 40
0.0
 40
0.0
 40
0.0
 40
0.0
 40
0.1210290174416562
 40
0.2480928905399742
 40
0.3753070039170407
 40
0.497181588195524
 40
0.6132063814097274
 40
0.7242256655612156
 40
0.8323302365756524
 40
0.9376294111894522
 40
1.0
 40
1.0
 40
1.0
 40
1.0
 10
199.6401910687415
 20
375.8839710122266
 30
0.0
 10
199.191778261847
 20
376.3129778326121
 30
0.0
 10
198.2725934930272
 20
377.192382989992
 30
0.0
 10
197.8831101486533
 20
377.6918717473131
 30
0.0
 10
198.283789809576
 20
377.3181443092989
 30
0.0
 10
199.473270781826
 20
376.2103655047168
 30
0.0
 10
201.2826624917107
 20
374.7535676538248
 30
0.0
 10
203.6016091942407
 20
373.2221863786353
 30
0.0
 10
206.3864975352112
 20
371.8379937852566
 30
0.0
 10
209.1186096559734
 20
370.7950737872734
 30
0.0
 10
211.0171156119581
 20
370.4403729095313
 30
0.0
 10
211.7233308049468
 20
370.3084296053567
 30
0.0
  0
ARC
  5
2FF
330
1F
100
AcDbEntity
  8
0
  6
Continuous
 62
     8
370
    18
100
AcDbCircle
 10
216.6498069669
 20
395.3714730656
 30
0.0
 40
72.61376476482462
100
AcDbArc
 50
100.4235213585
 51
197.8833250486
  0
ARC
  5
300
330
1F
100
AcDbEntity
  8
0
  6
Continuous
 62
     8
370
    18
100
AcDbCircle
 10
216.6498069669
 20
395.3714730656
 30
0.0
 40
72.61376476482462
100
AcDbArc
 50
283.1150420374
 51
79.5764786415
  0
ARC
  5
301
330
1F
100
AcDbEntity
  8
0
  6
Continuous
 62
     8
370
    18
100
AcDbCircle
 10
216.6498069669
 20
395.3714730656
 30
0.0
 40
72.61376476482461
100
AcDbArc
 50
197.8833250486
 51
256.8849579626
  0
ENDSEC
  0
SECTION
  2
OBJECTS
  0
DICTIONARY
  5
C
330
0
100
AcDbDictionary
281
     1
  3
ACAD_GROUP
350
D
  3
ACAD_LAYOUT
350
1A
  3
ACAD_MLINESTYLE
350
17
  3
ACAD_PLOTSETTINGS
350
19
  3
ACAD_PLOTSTYLENAME
350
E
  3
ACAD_SCALELIST
350
47
  0
DICTIONARY
  5
D
102
{ACAD_REACTORS
330
C
102
}
330
C
100
AcDbDictionary
281
     1
  0
DICTIONARY
  5
1A
102
{ACAD_REACTORS
330
C
102
}
330
C
100
AcDbDictionary
281
     1
  3
Layout1
350
1E
  3
Layout2
350
26
  3
Model
350
22
  0
DICTIONARY
  5
17
102
{ACAD_REACTORS
330
C
102
}
330
C
100
AcDbDictionary
281
     1
  3
Standard
350
18
  0
DICTIONARY
  5
19
102
{ACAD_REACTORS
330
C
102
}
330
C
100
AcDbDictionary
281
     1
  0
ACDBDICTIONARYWDFLT
  5
E
102
{ACAD_REACTORS
330
C
102
}
330
C
100
AcDbDictionary
281
     1
  3
Normal
350
F
100
AcDbDictionaryWithDefault
340
F
  0
DICTIONARY
  5
47
102
{ACAD_REACTORS
330
C
102
}
330
C
100
AcDbDictionary
281
     1
  3
A0
350
48
  3
A1
350
49
  3
A2
350
4A
  3
A3
350
4B
  3
A4
350
4C
  3
A5
350
4D
  3
A6
350
4E
  3
A7
350
4F
  3
A8
350
50
  3
A9
350
51
  3
B0
350
52
  3
B1
350
53
  3
B2
350
54
  3
B3
350
55
  3
B4
350
56
  3
B5
350
57
  3
B6
350
58
  3
B7
350
59
  3
B8
350
5A
  3
B9
350
5B
  3
C0
350
5C
  3
C1
350
5D
  3
C2
350
5E
  3
C3
350
5F
  3
C4
350
60
  3
C5
350
61
  3
C6
350
62
  3
C7
350
63
  3
C8
350
64
  3
C9
350
65
  3
D0
350
66
  3
D1
350
67
  3
D2
350
68
  0
LAYOUT
  5
1E
102
{ACAD_REACTORS
330
1A
102
}
330
1A
100
AcDbPlotSettings
  1

  2
none_device
  4

  6

 40
0.0
 41
0.0
 42
0.0
 43
0.0
 44
0.0
 45
0.0
 46
0.0
 47
0.0
 48
0.0
 49
0.0
140
0.0
141
0.0
142
1.0
143
1.0
 70
   688
 72
     1
 73
     0
 74
     5
  7

 75
    16
147
1.0
148
0.0
149
0.0
100
AcDbLayout
  1
Layout1
 70
     1
 71
     1
 10
0.0
 20
0.0
 11
420.0
 21
297.0
 12
0.0
 22
0.0
 32
0.0
 14
1.0000000000E+20
 24
1.0000000000E+20
 34
1.0000000000E+20
 15
-1.0000000000E+20
 25
-1.0000000000E+20
 35
-1.0000000000E+20
146
0.0
 13
0.0
 23
0.0
 33
0.0
 16
1.0
 26
0.0
 36
0.0
 17
0.0
 27
1.0
 37
0.0
 76
     0
330
1B
  0
LAYOUT
  5
26
102
{ACAD_REACTORS
330
1A
102
}
330
1A
100
AcDbPlotSettings
  1

  2
none_device
  4

  6

 40
0.0
 41
0.0
 42
0.0
 43
0.0
 44
0.0
 45
0.0
 46
0.0
 47
0.0
 48
0.0
 49
0.0
140
0.0
141
0.0
142
1.0
143
1.0
 70
   688
 72
     1
 73
     0
 74
     5
  7

 75
    16
147
1.0
148
0.0
149
0.0
100
AcDbLayout
  1
Layout2
 70
     1
 71
     2
 10
0.0
 20
0.0
 11
0.0
 21
0.0
 12
0.0
 22
0.0
 32
0.0
 14
0.0
 24
0.0
 34
0.0
 15
0.0
 25
0.0
 35
0.0
146
0.0
 13
0.0
 23
0.0
 33
0.0
 16
1.0
 26
0.0
 36
0.0
 17
0.0
 27
1.0
 37
0.0
 76
     0
330
23
  0
LAYOUT
  5
22
102
{ACAD_REACTORS
330
1A
102
}
330
1A
100
AcDbPlotSettings
  1

  2
none_device
  4
Letter_(8.50_x_11.00_Inches)
  6

 40
6.35
 41
6.35
 42
6.35000508
 43
6.35000508
 44
215.9
 45
279.4
 46
0.0
 47
0.0
 48
0.0
 49
0.0
140
0.0
141
0.0
142
1.0
143
1.0
 70
  1712
 72
     1
 73
     0
 74
     0
  7

 75
     0
147
1.0
148
0.0
149
0.0
100
AcDbLayout
  1
Model
 70
     1
 71
     0
 10
0.0
 20
0.0
 11
841.0
 21
2500.0
 12
0.0
 22
0.0
 32
0.0
 14
0.0
 24
0.0
 34
0.0
 15
841.0
 25
2500.0
 35
0.0
146
0.0
 13
0.0
 23
0.0
 33
0.0
 16
1.0
 26
0.0
 36
0.0
 17
0.0
 27
1.0
 37
0.0
 76
     0
330
1F
331
29
  0
MLINESTYLE
  5
18
102
{ACAD_REACTORS
330
17
102
}
330
17
100
AcDbMlineStyle
  2
Standard
 70
     0
  3

 62
   256
 51
90.0
 52
90.0
 71
     2
 49
0.5
 62
   256
  6
BYLAYER
 49
-0.5
 62
   256
  6
BYLAYER
  0
ACDBPLACEHOLDER
  5
F
102
{ACAD_REACTORS
330
E
102
}
330
E
  0
SCALE
  5
48
102
{ACAD_REACTORS
330
47
102
}
330
47
100
AcDbScale
 70
     0
300
1:1
140
1.0
141
1.0
290
     1
  0
SCALE
  5
49
102
{ACAD_REACTORS
330
47
102
}
330
47
100
AcDbScale
 70
     0
300
1:2
140
1.0
141
2.0
290
     0
  0
SCALE
  5
4A
102
{ACAD_REACTORS
330
47
102
}
330
47
100
AcDbScale
 70
     0
300
1:4
140
1.0
141
4.0
290
     0
  0
SCALE
  5
4B
102
{ACAD_REACTORS
330
47
102
}
330
47
100
AcDbScale
 70
     0
300
1:5
140
1.0
141
5.0
290
     0
  0
SCALE
  5
4C
102
{ACAD_REACTORS
330
47
102
}
330
47
100
AcDbScale
 70
     0
300
1:8
140
1.0
141
8.0
290
     0
  0
SCALE
  5
4D
102
{ACAD_REACTORS
330
47
102
}
330
47
100
AcDbScale
 70
     0
300
1:10
140
1.0
141
10.0
290
     0
  0
SCALE
  5
4E
102
{ACAD_REACTORS
330
47
102
}
330
47
100
AcDbScale
 70
     0
300
1:16
140
1.0
141
16.0
290
     0
  0
SCALE
  5
4F
102
{ACAD_REACTORS
330
47
102
}
330
47
100
AcDbScale
 70
     0
300
1:20
140
1.0
141
20.0
290
     0
  0
SCALE
  5
50
102
{ACAD_REACTORS
330
47
102
}
330
47
100
AcDbScale
 70
     0
300
1:30
140
1.0
141
30.0
290
     0
  0
SCALE
  5
51
102
{ACAD_REACTORS
330
47
102
}
330
47
100
AcDbScale
 70
     0
300
1:40
140
1.0
141
40.0
290
     0
  0
SCALE
  5
52
102
{ACAD_REACTORS
330
47
102
}
330
47
100
AcDbScale
 70
     0
300
1:50
140
1.0
141
50.0
290
     0
  0
SCALE
  5
53
102
{ACAD_REACTORS
330
47
102
}
330
47
100
AcDbScale
 70
     0
300
1:100
140
1.0
141
100.0
290
     0
  0
SCALE
  5
54
102
{ACAD_REACTORS
330
47
102
}
330
47
100
AcDbScale
 70
     0
300
2:1
140
2.0
141
1.0
290
     0
  0
SCALE
  5
55
102
{ACAD_REACTORS
330
47
102
}
330
47
100
AcDbScale
 70
     0
300
4:1
140
4.0
141
1.0
290
     0
  0
SCALE
  5
56
102
{ACAD_REACTORS
330
47
102
}
330
47
100
AcDbScale
 70
     0
300
8:1
140
8.0
141
1.0
290
     0
  0
SCALE
  5
57
102
{ACAD_REACTORS
330
47
102
}
330
47
100
AcDbScale
 70
     0
300
10:1
140
10.0
141
1.0
290
     0
  0
SCALE
  5
58
102
{ACAD_REACTORS
330
47
102
}
330
47
100
AcDbScale
 70
     0
300
100:1
140
100.0
141
1.0
290
     0
  0
SCALE
  5
59
102
{ACAD_REACTORS
330
47
102
}
330
47
100
AcDbScale
 70
     0
300
1/128" = 1'-0"
140
0.0078125
141
12.0
290
     0
  0
SCALE
  5
5A
102
{ACAD_REACTORS
330
47
102
}
330
47
100
AcDbScale
 70
     0
300
1/64" = 1'-0"
140
0.015625
141
12.0
290
     0
  0
SCALE
  5
5B
102
{ACAD_REACTORS
330
47
102
}
330
47
100
AcDbScale
 70
     0
300
1/32" = 1'-0"
140
0.03125
141
12.0
290
     0
  0
SCALE
  5
5C
102
{ACAD_REACTORS
330
47
102
}
330
47
100
AcDbScale
 70
     0
300
1/16" = 1'-0"
140
0.0625
141
12.0
290
     0
  0
SCALE
  5
5D
102
{ACAD_REACTORS
330
47
102
}
330
47
100
AcDbScale
 70
     0
300
3/32" = 1'-0"
140
0.09375
141
12.0
290
     0
  0
SCALE
  5
5E
102
{ACAD_REACTORS
330
47
102
}
330
47
100
AcDbScale
 70
     0
300
1/8" = 1'-0"
140
0.125
141
12.0
290
     0
  0
SCALE
  5
5F
102
{ACAD_REACTORS
330
47
102
}
330
47
100
AcDbScale
 70
     0
300
3/16" = 1'-0"
140
0.1875
141
12.0
290
     0
  0
SCALE
  5
60
102
{ACAD_REACTORS
330
47
102
}
330
47
100
AcDbScale
 70
     0
300
1/4" = 1'-0"
140
0.25
141
12.0
290
     0
  0
SCALE
  5
61
102
{ACAD_REACTORS
330
47
102
}
330
47
100
AcDbScale
 70
     0
300
3/8" = 1'-0"
140
0.375
141
12.0
290
     0
  0
SCALE
  5
62
102
{ACAD_REACTORS
330
47
102
}
330
47
100
AcDbScale
 70
     0
300
1/2" = 1'-0"
140
0.5
141
12.0
290
     0
  0
SCALE
  5
63
102
{ACAD_REACTORS
330
47
102
}
330
47
100
AcDbScale
 70
     0
300
3/4" = 1'-0"
140
0.75
141
12.0
290
     0
  0
SCALE
  5
64
102
{ACAD_REACTORS
330
47
102
}
330
47
100
AcDbScale
 70
     0
300
1" = 1'-0"
140
1.0
141
12.0
290
     0
  0
SCALE
  5
65
102
{ACAD_REACTORS
330
47
102
}
330
47
100
AcDbScale
 70
     0
300
1-1/2" = 1'-0"
140
1.5
141
12.0
290
     0
  0
SCALE
  5
66
102
{ACAD_REACTORS
330
47
102
}
330
47
100
AcDbScale
 70
     0
300
3" = 1'-0"
140
3.0
141
12.0
290
     0
  0
SCALE
  5
67
102
{ACAD_REACTORS
330
47
102
}
330
47
100
AcDbScale
 70
     0
300
6" = 1'-0"
140
6.0
141
12.0
290
     0
  0
SCALE
  5
68
102
{ACAD_REACTORS
330
47
102
}
330
47
100
AcDbScale
 70
     0
300
1'-0" = 1'-0"
140
12.0
141
12.0
290
     0
  0
ENDSEC
  0
EOF
