  0
SECTION
  2
HEADER
  9
$ACADVER
  1
AC1024
  9
$ACADMAINTVER
 70
     6
  9
$DWGCODEPAGE
  3
ANSI_1252
  9
$INSBASE
 10
0.0
 20
0.0
 30
0.0
  9
$EXTMIN
 10
0.0
 20
0.0
 30
0.0
  9
$EXTMAX
 10
594.0
 20
841.0
 30
0.0
  9
$LIMMIN
 10
0.0
 20
0.0
  9
$LIMMAX
 10
594.0
 20
841.0
  9
$ORTHOMODE
 70
     0
  9
$REGENMODE
 70
     1
  9
$FILLMODE
 70
     1
  9
$QTEXTMODE
 70
     0
  9
$MIRRTEXT
 70
     1
  9
$LTSCALE
 40
1.0
  9
$ATTMODE
 70
     1
  9
$TEXTSIZE
 40
10.0
  9
$TRACEWID
 40
1.0
  9
$TEXTSTYLE
  7
Standard
  9
$CLAYER
  8
0
  9
$CELTYPE
  6
ByLayer
  9
$CECOLOR
 62
   256
  9
$CELTSCALE
 40
1.0
  9
$DISPSILH
 70
     0
  9
$DIMSCALE
 40
1.0
  9
$DIMASZ
 40
2.5
  9
$DIMEXO
 40
0.0
  9
$DIMDLI
 40
3.75
  9
$DIMRND
 40
0.0
  9
$DIMDLE
 40
0.0
  9
$DIMEXE
 40
1.0
  9
$DIMTP
 40
0.0
  9
$DIMTM
 40
0.0
  9
$DIMTXT
 40
3.5
  9
$DIMCEN
 40
2.5
  9
$DIMTSZ
 40
0.0
  9
$DIMTOL
 70
     0
  9
$DIMLIM
 70
     0
  9
$DIMTIH
 70
     1
  9
$DIMTOH
 70
     1
  9
$DIMSE1
 70
     0
  9
$DIMSE2
 70
     0
  9
$DIMTAD
 70
     1
  9
$DIMZIN
 70
     0
  9
$DIMBLK
  1

  9
$DIMASO
 70
     1
  9
$DIMSHO
 70
     1
  9
$DIMPOST
  1

  9
$DIMAPOST
  1

  9
$DIMALT
 70
     0
  9
$DIMALTD
 70
     3
  9
$DIMALTF
 40
0.0393700787
  9
$DIMLFAC
 40
1.0
  9
$DIMTOFL
 70
     1
  9
$DIMTVP
 40
0.0
  9
$DIMTIX
 70
     0
  9
$DIMSOXD
 70
     0
  9
$DIMSAH
 70
     0
  9
$DIMBLK1
  1

  9
$DIMBLK2
  1

  9
$DIMSTYLE
  2
ISO-25
  9
$DIMCLRD
 70
     0
  9
$DIMCLRE
 70
     0
  9
$DIMCLRT
 70
     0
  9
$DIMTFAC
 40
1.0
  9
$DIMGAP
 40
1.5
  9
$DIMJUST
 70
     0
  9
$DIMSD1
 70
     0
  9
$DIMSD2
 70
     0
  9
$DIMTOLJ
 70
     0
  9
$DIMTZIN
 70
     0
  9
$DIMALTZ
 70
     0
  9
$DIMALTTZ
 70
     0
  9
$DIMUPT
 70
     0
  9
$DIMDEC
 70
     2
  9
$DIMTDEC
 70
     2
  9
$DIMALTU
 70
     2
  9
$DIMALTTD
 70
     3
  9
$DIMTXSTY
  7
Standard
  9
$DIMAUNIT
 70
     0
  9
$DIMADEC
 70
     2
  9
$DIMALTRND
 40
0.0
  9
$DIMAZIN
 70
     0
  9
$DIMDSEP
 70
    44
  9
$DIMATFIT
 70
     3
  9
$DIMFRAC
 70
     0
  9
$DIMLDRBLK
  1

  9
$DIMLUNIT
 70
     2
  9
$DIMLWD
 70
    -2
  9
$DIMLWE
 70
    -2
  9
$DIMTMOVE
 70
     0
  9
$DIMFXL
 40
1.0
  9
$DIMFXLON
 70
     0
  9
$DIMJOGANG
 40
0.7853981634
  9
$DIMTFILL
 70
     0
  9
$DIMTFILLCLR
 70
     0
  9
$DIMARCSYM
 70
     0
  9
$DIMLTYPE
  6

  9
$DIMLTEX1
  6

  9
$DIMLTEX2
  6

  9
$DIMTXTDIRECTION
 70
     0
  9
$LUNITS
 70
     2
  9
$LUPREC
 70
     2
  9
$SKETCHINC
 40
1.0
  9
$FILLETRAD
 40
10.0
  9
$AUNITS
 70
     0
  9
$AUPREC
 70
     2
  9
$MENU
  1
.
  9
$ELEVATION
 40
0.0
  9
$PELEVATION
 40
0.0
  9
$THICKNESS
 40
0.0
  9
$LIMCHECK
 70
     0
  9
$CHAMFERA
 40
10.0
  9
$CHAMFERB
 40
10.0
  9
$CHAMFERC
 40
20.0
  9
$CHAMFERD
 40
0.0
  9
$SKPOLY
 70
     0
  9
$TDCREATE
 40
2456583.616434248
  9
$TDUCREATE
 40
2456583.533100914
  9
$TDUPDATE
 40
2456583.616434606
  9
$TDUUPDATE
 40
2456583.533101273
  9
$TDINDWG
 40
0.0000000116
  9
$TDUSRTIMER
 40
0.0000000116
  9
$USRTIMER
 70
     1
  9
$ANGBASE
 50
0.0
  9
$ANGDIR
 70
     0
  9
$PDMODE
 70
     0
  9
$PDSIZE
 40
-1.0
  9
$PLINEWID
 40
0.0
  9
$SPLFRAME
 70
     0
  9
$SPLINETYPE
 70
     6
  9
$SPLINESEGS
 70
     8
  9
$HANDSEED
  5
229
  9
$SURFTAB1
 70
     6
  9
$SURFTAB2
 70
     6
  9
$SURFTYPE
 70
     6
  9
$SURFU
 70
     6
  9
$SURFV
 70
     6
  9
$UCSBASE
  2

  9
$UCSNAME
  2

  9
$UCSORG
 10
0.0
 20
0.0
 30
0.0
  9
$UCSXDIR
 10
1.0
 20
0.0
 30
0.0
  9
$UCSYDIR
 10
0.0
 20
1.0
 30
0.0
  9
$UCSORTHOREF
  2

  9
$UCSORTHOVIEW
 70
     0
  9
$UCSORGTOP
 10
0.0
 20
0.0
 30
0.0
  9
$UCSORGBOTTOM
 10
0.0
 20
0.0
 30
0.0
  9
$UCSORGLEFT
 10
0.0
 20
0.0
 30
0.0
  9
$UCSORGRIGHT
 10
0.0
 20
0.0
 30
0.0
  9
$UCSORGFRONT
 10
0.0
 20
0.0
 30
0.0
  9
$UCSORGBACK
 10
0.0
 20
0.0
 30
0.0
  9
$PUCSBASE
  2

  9
$PUCSNAME
  2

  9
$PUCSORG
 10
0.0
 20
0.0
 30
0.0
  9
$PUCSXDIR
 10
1.0
 20
0.0
 30
0.0
  9
$PUCSYDIR
 10
0.0
 20
1.0
 30
0.0
  9
$PUCSORTHOREF
  2

  9
$PUCSORTHOVIEW
 70
     0
  9
$PUCSORGTOP
 10
0.0
 20
0.0
 30
0.0
  9
$PUCSORGBOTTOM
 10
0.0
 20
0.0
 30
0.0
  9
$PUCSORGLEFT
 10
0.0
 20
0.0
 30
0.0
  9
$PUCSORGRIGHT
 10
0.0
 20
0.0
 30
0.0
  9
$PUCSORGFRONT
 10
0.0
 20
0.0
 30
0.0
  9
$PUCSORGBACK
 10
0.0
 20
0.0
 30
0.0
  9
$USERI1
 70
     0
  9
$USERI2
 70
     0
  9
$USERI3
 70
     0
  9
$USERI4
 70
     0
  9
$USERI5
 70
     0
  9
$USERR1
 40
0.0
  9
$USERR2
 40
0.0
  9
$USERR3
 40
0.0
  9
$USERR4
 40
0.0
  9
$USERR5
 40
0.0
  9
$WORLDVIEW
 70
     1
  9
$SHADEDGE
 70
     3
  9
$SHADEDIF
 70
    70
  9
$TILEMODE
 70
     1
  9
$MAXACTVP
 70
    64
  9
$PINSBASE
 10
0.0
 20
0.0
 30
0.0
  9
$PLIMCHECK
 70
     0
  9
$PEXTMIN
 10
1.0000000000E+20
 20
1.0000000000E+20
 30
1.0000000000E+20
  9
$PEXTMAX
 10
-1.0000000000E+20
 20
-1.0000000000E+20
 30
-1.0000000000E+20
  9
$PLIMMIN
 10
0.0
 20
0.0
  9
$PLIMMAX
 10
420.0
 20
297.0
  9
$UNITMODE
 70
     0
  9
$VISRETAIN
 70
     1
  9
$PLINEGEN
 70
     0
  9
$PSLTSCALE
 70
     1
  9
$TREEDEPTH
 70
  3020
  9
$CMLSTYLE
  2
Standard
  9
$CMLJUST
 70
     0
  9
$CMLSCALE
 40
20.0
  9
$PROXYGRAPHICS
 70
     1
  9
$MEASUREMENT
 70
     1
  9
$CELWEIGHT
370
    -1
  9
$ENDCAPS
280
     0
  9
$JOINSTYLE
280
     0
  9
$LWDISPLAY
290
     1
  9
$INSUNITS
 70
     4
  9
$HYPERLINKBASE
  1

  9
$STYLESHEET
  1

  9
$XEDIT
290
     1
  9
$CEPSNTYPE
380
     0
  9
$PSTYLEMODE
290
     1
  9
$FINGERPRINTGUID
  2
{AAD0F9F4-2294-47B4-AA21-D0D597EDCEBD}
  9
$VERSIONGUID
  2
{FAEB1C32-E019-11D5-929B-00C0DF256EC4}
  9
$EXTNAMES
290
     1
  9
$PSVPSCALE
 40
0.0
  9
$OLESTARTUP
290
     0
  9
$SORTENTS
280
   127
  9
$INDEXCTL
280
     0
  9
$HIDETEXT
280
     1
  9
$XCLIPFRAME
280
     2
  9
$HALOGAP
280
     0
  9
$OBSCOLOR
 70
   257
  9
$OBSLTYPE
280
     0
  9
$INTERSECTIONDISPLAY
280
     0
  9
$INTERSECTIONCOLOR
 70
   257
  9
$DIMASSOC
280
     2
  9
$PROJECTNAME
  1

  9
$CAMERADISPLAY
290
     0
  9
$LENSLENGTH
 40
50.0
  9
$CAMERAHEIGHT
 40
0.0
  9
$STEPSPERSEC
 40
2.0
  9
$STEPSIZE
 40
6.0
  9
$3DDWFPREC
 40
2.0
  9
$PSOLWIDTH
 40
5.0
  9
$PSOLHEIGHT
 40
80.0
  9
$LOFTANG1
 40
1.5707963268
  9
$LOFTANG2
 40
1.5707963268
  9
$LOFTMAG1
 40
0.0
  9
$LOFTMAG2
 40
0.0
  9
$LOFTPARAM
 70
     7
  9
$LOFTNORMALS
280
     1
  9
$LATITUDE
 40
37.795
  9
$LONGITUDE
 40
-122.394
  9
$NORTHDIRECTION
 40
0.0
  9
$TIMEZONE
 70
 -8000
  9
$LIGHTGLYPHDISPLAY
280
     1
  9
$TILEMODELIGHTSYNCH
280
     1
  9
$SOLIDHIST
280
     1
  9
$SHOWHIST
280
     1
  9
$DWFFRAME
280
     2
  9
$DGNFRAME
280
     2
  9
$REALWORLDSCALE
290
     1
  9
$INTERFERECOLOR
 62
   256
  9
$CSHADOW
280
     0
  9
$SHADOWPLANELOCATION
 40
0.0
  0
ENDSEC
  0
SECTION
  2
CLASSES
  0
CLASS
  1
ACDBDICTIONARYWDFLT
  2
AcDbDictionaryWithDefault
  3
ObjectDBX Classes
 90
        0
 91
        4
280
     0
281
     0
  0
CLASS
  1
VISUALSTYLE
  2
AcDbVisualStyle
  3
ObjectDBX Classes
 90
     4095
 91
        4
280
     0
281
     0
  0
CLASS
  1
MATERIAL
  2
AcDbMaterial
  3
ObjectDBX Classes
 90
     1153
 91
        4
280
     0
281
     0
  0
ENDSEC
  0
SECTION
  2
TABLES
  0
TABLE
  2
VPORT
  5
8
330
0
100
AcDbSymbolTable
 70
     1
  0
VPORT
  5
29
330
8
100
AcDbSymbolTableRecord
100
AcDbViewportTableRecord
  2
*Active
 70
     0
 10
0.0
 20
0.0
 11
1.0
 21
1.0
 12
297.0
 22
420.5
 13
0.0
 23
0.0
 14
10.0
 24
10.0
 15
10.0
 25
10.0
 16
0.0
 26
0.0
 36
1.0
 17
0.0
 27
0.0
 37
0.0
 40
841.0
 41
0.7063020214
 42
50.0
 43
0.0
 44
0.0
 50
0.0
 51
0.0
 71
     0
 72
  2000
 73
     1
 74
     3
 75
     0
 76
     0
 77
     0
 78
     0
281
     0
 65
     1
110
0.0
120
0.0
130
0.0
111
1.0
121
0.0
131
0.0
112
0.0
122
1.0
132
0.0
 79
     0
146
0.0
 60
     3
 61
     5
292
     1
282
     1
141
0.0
142
0.0
 63
   250
  0
ENDTAB
  0
TABLE
  2
LTYPE
  5
5
330
0
100
AcDbSymbolTable
 70
     6
  0
LTYPE
  5
14
330
5
100
AcDbSymbolTableRecord
100
AcDbLinetypeTableRecord
  2
ByBlock
 70
     0
  3

 72
    65
 73
     0
 40
0.0
  0
LTYPE
  5
15
330
5
100
AcDbSymbolTableRecord
100
AcDbLinetypeTableRecord
  2
ByLayer
 70
     0
  3

 72
    65
 73
     0
 40
0.0
  0
LTYPE
  5
16
330
5
100
AcDbSymbolTableRecord
100
AcDbLinetypeTableRecord
  2
Continuous
 70
     0
  3
Solid line
 72
    65
 73
     0
 40
0.0
  0
LTYPE
  5
3F
330
5
100
AcDbSymbolTableRecord
100
AcDbLinetypeTableRecord
  2
HIDDEN
 70
     0
  3
Hidden __ __ __ __ __ __ __ __ __ __ __ __ __ __
 72
    65
 73
     2
 40
1.905
 49
1.27
 74
     0
 49
-0.635
 74
     0
  0
LTYPE
  5
40
330
5
100
AcDbSymbolTableRecord
100
AcDbLinetypeTableRecord
  2
PHANTOM
 70
     0
  3
Phantom ______  __  __  ______  __  __  ______
 72
    65
 73
     6
 40
12.7
 49
6.35
 74
     0
 49
-1.27
 74
     0
 49
1.27
 74
     0
 49
-1.27
 74
     0
 49
1.27
 74
     0
 49
-1.27
 74
     0
  0
LTYPE
  5
41
330
5
100
AcDbSymbolTableRecord
100
AcDbLinetypeTableRecord
  2
CENTER
 70
     0
  3
Center ____ _ ____ _ ____ _ ____ _ ____ _ ____
 72
    65
 73
     4
 40
10.16
 49
6.35
 74
     0
 49
-1.27
 74
     0
 49
1.27
 74
     0
 49
-1.27
 74
     0
  0
LTYPE
  5
42
330
5
100
AcDbSymbolTableRecord
100
AcDbLinetypeTableRecord
  2
CENTERX2
 70
     0
  3
Center (2x) ________  __  ________  __  _____
 72
    65
 73
     4
 40
20.32
 49
12.7
 74
     0
 49
-2.54
 74
     0
 49
2.54
 74
     0
 49
-2.54
 74
     0
  0
LTYPE
  5
43
330
5
100
AcDbSymbolTableRecord
100
AcDbLinetypeTableRecord
  2
DOT2
 70
     0
  3
Dot (.5x) ........................................
 72
    65
 73
     2
 40
0.635
 49
0.0
 74
     0
 49
-0.635
 74
     0
  0
ENDTAB
  0
TABLE
  2
LAYER
  5
2
330
0
100
AcDbSymbolTable
 70
     1
  0
LAYER
  5
10
330
2
100
AcDbSymbolTableRecord
100
AcDbLayerTableRecord
  2
0
 70
     0
 62
     7
  6
Continuous
370
    -3
390
F
347
3E
  0
ENDTAB
  0
TABLE
  2
STYLE
  5
3
330
0
100
AcDbSymbolTable
 70
     3
  0
STYLE
  5
11
330
3
100
AcDbSymbolTableRecord
100
AcDbTextStyleTableRecord
  2
Standard
 70
     0
 40
0.0
 41
1.0
 50
0.0
 71
     0
 42
10.0
  3
txt
  4

  0
STYLE
  5
47
330
3
100
AcDbSymbolTableRecord
100
AcDbTextStyleTableRecord
  2
SLDTEXTSTYLE0
 70
     0
 40
0.0
 41
0.96
 50
0.0
 71
     0
 42
0.2
  3
ISOCP3
  4

  0
STYLE
  5
5E
330
3
100
AcDbSymbolTableRecord
100
AcDbTextStyleTableRecord
  2
SLDTEXTSTYLE1
 70
     0
 40
0.0
 41
0.605
 50
0.0
 71
     0
 42
0.2
  3
TXT
  4

  0
ENDTAB
  0
TABLE
  2
VIEW
  5
6
330
0
100
AcDbSymbolTable
 70
     0
  0
ENDTAB
  0
TABLE
  2
UCS
  5
7
330
0
100
AcDbSymbolTable
 70
     0
  0
ENDTAB
  0
TABLE
  2
APPID
  5
9
330
0
100
AcDbSymbolTable
 70
     1
  0
APPID
  5
12
330
9
100
AcDbSymbolTableRecord
100
AcDbRegAppTableRecord
  2
ACAD
 70
     0
  0
ENDTAB
  0
TABLE
  2
DIMSTYLE
  5
A
330
0
100
AcDbSymbolTable
 70
     2
100
AcDbDimStyleTable
  0
DIMSTYLE
105
27
330
A
100
AcDbSymbolTableRecord
100
AcDbDimStyleTableRecord
  2
ISO-25
 70
     0
 41
2.5
 42
0.625
 43
3.75
 44
1.25
 73
     0
 74
     0
 77
     1
 78
     8
140
2.5
141
2.5
143
0.0393700787
147
0.625
171
     3
172
     1
178
     0
271
     2
272
     2
274
     3
278
    44
283
     0
284
     8
340
11
  0
DIMSTYLE
105
48
102
{ACAD_REACTORS
330
46
330
53
102
}
330
A
100
AcDbSymbolTableRecord
100
AcDbDimStyleTableRecord
  2
SLDDIMSTYLE0
 70
     0
 41
2.5
 44
0.0
 45
0.000000001
 73
     0
 74
     0
 77
     1
 78
    12
 79
     3
140
6.0
147
1.5
173
     1
178
     0
271
     2
272
     2
276
     2
284
    12
340
47
  0
ENDTAB
  0
TABLE
  2
BLOCK_RECORD
  5
1
330
0
100
AcDbSymbolTable
 70
     3
  0
BLOCK_RECORD
  5
1F
330
1
100
AcDbSymbolTableRecord
100
AcDbBlockTableRecord
  2
*Model_Space
340
22
 70
     0
280
     1
281
     0
  0
BLOCK_RECORD
  5
1B
330
1
100
AcDbSymbolTableRecord
100
AcDbBlockTableRecord
  2
*Paper_Space
340
1E
 70
     0
280
     1
281
     0
  0
BLOCK_RECORD
  5
23
330
1
100
AcDbSymbolTableRecord
100
AcDbBlockTableRecord
  2
*Paper_Space0
340
26
 70
     0
280
     1
281
     0
  0
BLOCK_RECORD
  5
49
330
1
100
AcDbSymbolTableRecord
100
AcDbBlockTableRecord
  2
_D
340
0
 70
     0
280
     1
281
     0
  0
BLOCK_RECORD
  5
54
330
1
100
AcDbSymbolTableRecord
100
AcDbBlockTableRecord
  2
_D_1
340
0
 70
     0
280
     1
281
     0
  0
ENDTAB
  0
ENDSEC
  0
SECTION
  2
BLOCKS
  0
BLOCK
  5
20
330
1F
100
AcDbEntity
  8
0
100
AcDbBlockBegin
  2
*Model_Space
 70
     0
 10
0.0
 20
0.0
 30
0.0
  3
*Model_Space
  1

  0
ENDBLK
  5
21
330
1F
100
AcDbEntity
  8
0
100
AcDbBlockEnd
  0
BLOCK
  5
1C
330
1B
100
AcDbEntity
 67
     1
  8
0
100
AcDbBlockBegin
  2
*Paper_Space
 70
     0
 10
0.0
 20
0.0
 30
0.0
  3
*Paper_Space
  1

  0
ENDBLK
  5
1D
330
1B
100
AcDbEntity
 67
     1
  8
0
100
AcDbBlockEnd
  0
BLOCK
  5
24
330
23
100
AcDbEntity
  8
0
100
AcDbBlockBegin
  2
*Paper_Space0
 70
     0
 10
0.0
 20
0.0
 30
0.0
  3
*Paper_Space0
  1

  0
ENDBLK
  5
25
330
23
100
AcDbEntity
  8
0
100
AcDbBlockEnd
  0
BLOCK
  5
4A
330
49
100
AcDbEntity
  8
0
100
AcDbBlockBegin
  2
_D
 70
     0
 10
0.0
 20
0.0
 30
0.0
  3
_D
  1

  0
SOLID
  5
4C
330
49
100
AcDbEntity
  8
0
  6
Continuous
 62
     7
370
     0
100
AcDbTrace
 10
42.7614395004
 20
152.0299240879
 30
0.0
 11
42.4614395004
 21
149.5299240879
 31
0.0
 12
43.0614395004
 22
149.5299240879
 32
0.0
 13
43.0614395004
 23
149.5299240879
 33
0.0
  0
SOLID
  5
4D
330
49
100
AcDbEntity
  8
0
  6
Continuous
 62
     7
370
     0
100
AcDbTrace
 10
42.7614395004
 20
52.0299240879
 30
0.0
 11
43.0614395004
 21
54.5299240879
 31
0.0
 12
42.4614395004
 22
54.5299240879
 32
0.0
 13
42.4614395004
 23
54.5299240879
 33
0.0
  0
LINE
  5
4E
330
49
100
AcDbEntity
  8
0
  6
Continuous
 62
     7
370
     0
100
AcDbLine
 10
56.6850079902
 20
152.0299240879
 30
0.0
 11
41.7614395004
 21
152.0299240879
 31
0.0
  0
LINE
  5
4F
330
49
100
AcDbEntity
  8
0
  6
Continuous
 62
     7
370
     0
100
AcDbLine
 10
56.6850079902
 20
52.0299240879
 30
0.0
 11
41.7614395004
 21
52.0299240879
 31
0.0
  0
LINE
  5
50
330
49
100
AcDbEntity
  8
0
  6
Continuous
 62
     7
370
     0
100
AcDbLine
 10
42.7614395004
 20
152.0299240879
 30
0.0
 11
42.7614395004
 21
52.0299240879
 31
0.0
  0
MTEXT
  5
51
330
49
100
AcDbEntity
  8
0
  6
Continuous
 62
     7
370
     0
100
AcDbMText
 10
35.0270329453
 20
91.6722208134
 30
0.1
 40
6.0
 41
0.0
 46
0.0
 71
     1
 72
     1
  1
100
  7
SLDTEXTSTYLE0
 11
-7.044195017643634E-15
 21
1.0
 31
0.0
 73
     1
 44
1.0
  0
MTEXT
  5
52
330
49
100
AcDbEntity
  8
0
  6
Continuous
 62
     7
370
     0
100
AcDbMText
 10
35.0270329453
 20
108.4388881795
 30
0.1
 40
6.0
 41
0.0
 46
0.0
 71
     1
 72
     1
  1
mm
  7
SLDTEXTSTYLE0
 11
-7.044195017643634E-15
 21
1.0
 31
0.0
 73
     1
 44
1.0
  0
ENDBLK
  5
4B
330
49
100
AcDbEntity
  8
0
100
AcDbBlockEnd
  0
BLOCK
  5
55
330
54
100
AcDbEntity
  8
0
100
AcDbBlockBegin
  2
_D_1
 70
     0
 10
0.0
 20
0.0
 30
0.0
  3
_D_1
  1

  0
SOLID
  5
57
330
54
100
AcDbEntity
  8
0
  6
Continuous
 62
     7
370
     0
100
AcDbTrace
 10
56.6850079902
 20
38.4602342313
 30
0.0
 11
59.1850079902
 21
38.1602342313
 31
0.0
 12
59.1850079902
 22
38.7602342313
 32
0.0
 13
59.1850079902
 23
38.7602342313
 33
0.0
  0
SOLID
  5
58
330
54
100
AcDbEntity
  8
0
  6
Continuous
 62
     7
370
     0
100
AcDbTrace
 10
156.6850079902
 20
38.4602342313
 30
0.0
 11
154.1850079902
 21
38.7602342313
 31
0.0
 12
154.1850079902
 22
38.1602342313
 32
0.0
 13
154.1850079902
 23
38.1602342313
 33
0.0
  0
LINE
  5
59
330
54
100
AcDbEntity
  8
0
  6
Continuous
 62
     7
370
     0
100
AcDbLine
 10
56.6850079902
 20
52.0299240879
 30
0.0
 11
56.6850079902
 21
37.4602342313
 31
0.0
  0
LINE
  5
5A
330
54
100
AcDbEntity
  8
0
  6
Continuous
 62
     7
370
     0
100
AcDbLine
 10
156.6850079902
 20
52.0299240879
 30
0.0
 11
156.6850079902
 21
37.4602342313
 31
0.0
  0
LINE
  5
5B
330
54
100
AcDbEntity
  8
0
  6
Continuous
 62
     7
370
     0
100
AcDbLine
 10
56.6850079902
 20
38.4602342313
 30
0.0
 11
156.6850079902
 21
38.4602342313
 31
0.0
  0
MTEXT
  5
5C
330
54
100
AcDbEntity
  8
0
  6
Continuous
 62
     7
370
     0
100
AcDbMText
 10
91.2668151533
 20
46.1946407863
 30
0.1
 40
6.0
 41
0.0
 46
0.0
 71
     1
 72
     1
  1
100
  7
SLDTEXTSTYLE0
 73
     1
 44
1.0
  0
MTEXT
  5
5D
330
54
100
AcDbEntity
  8
0
  6
Continuous
 62
     7
370
     0
100
AcDbMText
 10
108.0334825193
 20
46.1946407863
 30
0.1
 40
6.0
 41
0.0
 46
0.0
 71
     1
 72
     1
  1
mm
  7
SLDTEXTSTYLE0
 73
     1
 44
1.0
  0
ENDBLK
  5
56
330
54
100
AcDbEntity
  8
0
100
AcDbBlockEnd
  0
ENDSEC
  0
SECTION
  2
ENTITIES
  0
LINE
  5
44
330
1F
100
AcDbEntity
  8
0
  6
Continuous
 62
     7
370
     0
100
AcDbLine
 10
56.6850079902
 20
152.0299240879
 30
0.0
 11
56.6850079902
 21
52.0299240879
 31
0.0
  0
LINE
  5
45
330
1F
100
AcDbEntity
  8
0
  6
Continuous
 62
     7
370
     0
100
AcDbLine
 10
56.6850079902
 20
52.0299240879
 30
0.0
 11
156.6850079902
 21
52.0299240879
 31
0.0
  0
DIMENSION
  5
46
330
1F
100
AcDbEntity
  8
0
  6
Continuous
 62
     7
370
     0
100
AcDbDimension
280
     0
  2
_D
 10
42.7614395004
 20
52.0299240879
 30
0.0
 11
42.7614395004
 21
105.4472211621
 31
0.0
 70
   160
  1
<>mm
 71
     2
 42
-1.0
 73
     0
 74
     0
 75
     0
  3
SLDDIMSTYLE0
100
AcDbAlignedDimension
 13
56.6850079902
 23
152.0299240879
 33
0.0
 14
56.6850079902
 24
52.0299240879
 34
0.0
 50
90.0
100
AcDbRotatedDimension
  0
DIMENSION
  5
53
330
1F
100
AcDbEntity
  8
0
  6
Continuous
 62
     7
370
     0
100
AcDbDimension
280
     0
  2
_D_1
 10
156.6850079902
 20
38.4602342313
 30
0.0
 11
105.0418155019
 21
38.4602342313
 31
0.0
 70
   160
  1
<>mm
 71
     2
 42
-1.0
 73
     0
 74
     0
 75
     0
  3
SLDDIMSTYLE0
100
AcDbAlignedDimension
 13
56.6850079902
 23
52.0299240879
 33
0.0
 14
156.6850079902
 24
52.0299240879
 34
0.0
100
AcDbRotatedDimension
  0
MTEXT
  5
5F
330
1F
100
AcDbEntity
  8
0
  6
Continuous
 62
     7
370
     0
100
AcDbMText
 10
222.8856995391
 20
49.3034557666
 30
0.0
 40
10.0
 41
0.0
 46
0.0
 71
     1
 72
     1
  1
42 025 05 75
  7
SLDTEXTSTYLE1
 73
     1
 44
1.0
  0
MTEXT
  5
60
330
1F
100
AcDbEntity
  8
0
  6
Continuous
 62
     7
370
     0
100
AcDbMText
 10
412.8252631579
 20
48.4342449499
 30
0.0
 40
10.0
 41
0.0
 46
0.0
 71
     1
 72
     1
  1
KLUDI GmbH & Co KG
  7
SLDTEXTSTYLE1
 73
     1
 44
1.0
  0
LINE
  5
61
330
1F
100
AcDbEntity
  8
0
  6
Continuous
 62
     7
370
    15
100
AcDbLine
 10
193.8106376997
 20
567.6353073529
 30
0.0
 11
193.8106376997
 21
575.0422984855
 31
0.0
  0
LINE
  5
62
330
1F
100
AcDbEntity
  8
0
  6
Continuous
 62
     7
370
    15
100
AcDbLine
 10
169.8106376997
 20
575.0434857768
 30
0.0
 11
169.8106376997
 21
567.6353073529
 31
0.0
  0
LINE
  5
63
330
1F
100
AcDbEntity
  8
0
  6
Continuous
 62
     7
370
    15
100
AcDbLine
 10
192.8106373427
 20
567.0579566778
 30
0.0
 11
193.8106373103
 21
567.6353069033
 31
0.0
  0
LINE
  5
64
330
1F
100
AcDbEntity
  8
0
  6
Continuous
 62
     7
370
    15
100
AcDbLine
 10
169.8106380891
 20
567.6353069033
 30
0.0
 11
170.8106380567
 21
567.0579566778
 31
0.0
  0
LINE
  5
65
330
1F
100
AcDbEntity
  8
0
  6
Continuous
 62
     7
370
    15
100
AcDbLine
 10
198.0621370334
 20
576.122467711
 30
0.0
 11
198.0627740215
 21
576.1306299201
 31
0.0
  0
ARC
  5
66
330
1F
100
AcDbEntity
  8
0
  6
Continuous
 62
     7
370
    15
100
AcDbCircle
 10
197.1220874949
 20
576.1640684572
 30
0.0
 40
0.9409695834503335
100
AcDbArc
 50
276.8916709083
 51
357.4660984009
  0
LINE
  5
67
330
1F
100
AcDbEntity
  8
0
  6
Continuous
 62
     7
370
    15
100
AcDbLine
 10
203.8163521989
 20
423.6145905011
 30
0.0
 11
203.7755701742
 21
423.7479824935
 31
0.0
  0
LINE
  5
68
330
1F
100
AcDbEntity
  8
0
  6
Continuous
 62
     7
370
    15
100
AcDbLine
 10
159.7855514291
 20
410.2988839808
 30
0.0
 11
159.8263334246
 21
410.1654920838
 31
0.0
  0
LWPOLYLINE
  5
69
330
1F
100
AcDbEntity
  8
0
  6
Continuous
 62
     7
370
    15
100
AcDbPolyline
 90
        8
 70
   128
 43
0.0
 10
186.3735051898
 20
439.4694068847
 10
186.3946582214
 20
439.4646781083
 10
186.3753496934
 20
439.4694152807
 10
186.3439117436
 20
439.4776835511
 10
186.2949212791
 20
439.4917526313
 10
186.1648782453
 20
439.5359636445
 10
185.8633433403
 20
439.6802055279
 10
185.7785113432
 20
439.7445105809
  0
LWPOLYLINE
  5
6A
330
1F
100
AcDbEntity
  8
0
  6
Continuous
 62
     7
370
    15
100
AcDbPolyline
 90
        9
 70
   128
 43
0.0
 10
165.7004487644
 20
433.4823410837
 10
165.6097672665
 20
433.3141530221
 10
165.4950518185
 20
433.1525411451
 10
165.4531464617
 20
433.101164033
 10
165.4314934893
 20
433.0759844263
 10
165.4171016338
 20
433.0597629199
 10
165.4075353829
 20
433.0492404461
 10
165.4105993754
 20
433.052478352
 10
165.4443420879
 20
433.0876597149
  0
ARC
  5
6B
330
1F
100
AcDbEntity
  8
0
  6
Continuous
 62
     7
370
    15
100
AcDbCircle
 10
166.4459352719
 20
589.9330197075
 30
0.0
 40
0.8725498374183105
100
AcDbArc
 50
87.618929624
 51
161.0877495922
  0
ARC
  5
6C
330
1F
100
AcDbEntity
  8
0
  6
Continuous
 62
     7
370
    15
100
AcDbCircle
 10
197.1728731004
 20
589.9306399937
 30
0.0
 40
0.8726150810354548
100
AcDbArc
 50
19.0611348117
 51
92.2079667954
  0
LWPOLYLINE
  5
6D
330
1F
100
AcDbEntity
  8
0
  6
Continuous
 62
     7
370
    15
100
AcDbPolyline
 90
       16
 70
   128
 43
0.0
 10
158.8198120235
 20
447.7962862418
 10
158.8490188232
 20
444.7567822214
 10
158.9141812518
 20
441.1888897307
 10
158.9353728539
 20
438.1059874525
 10
158.9290703718
 20
435.3111385994
 10
158.9199553382
 20
432.5856244693
 10
158.9049315756
 20
429.2777573548
 10
158.9183288853
 20
426.3990654914
 10
158.9559552942
 20
424.0869411092
 10
158.9766953973
 20
422.9714045199
 10
158.983852338
 20
421.7492427537
 10
158.9736497222
 20
420.8858035094
 10
158.9472732659
 20
419.9871083023
 10
158.9055385731
 20
419.0514882124
 10
158.8712735624
 20
418.3177065425
 10
158.8587689443
 20
417.9688005378
  0
LWPOLYLINE
  5
6E
330
1F
100
AcDbEntity
  8
0
  6
Continuous
 62
     7
370
    15
100
AcDbPolyline
 90
       14
 70
   128
 43
0.0
 10
158.9442105132
 20
414.3538440413
 10
158.9813722305
 20
413.6416122108
 10
159.0250590671
 20
412.5718438448
 10
159.0677604788
 20
411.0550880707
 10
159.1067502578
 20
409.65405353
 10
159.1746113812
 20
408.1230124847
 10
159.2561881238
 20
406.1367074228
 10
159.3169853979
 20
404.202560265
 10
159.3633493492
 20
401.9099180364
 10
159.38623361
 20
399.4760491087
 10
159.3906877993
 20
396.6558964572
 10
159.3878510151
 20
393.3750664303
 10
159.4072882982
 20
389.522705972
 10
159.4704546314
 20
385.9252609749
  0
LWPOLYLINE
  5
6F
330
1F
100
AcDbEntity
  8
0
  6
Continuous
 62
     7
370
    15
100
AcDbPolyline
 90
       14
 70
   128
 43
0.0
 10
199.9085846598
 20
522.9814919042
 10
199.8977911305
 20
532.9283170476
 10
199.8345291052
 20
542.6796445603
 10
199.7510193502
 20
548.9469606706
 10
199.6338697488
 20
554.9304211242
 10
199.4874557545
 20
560.5454508111
 10
199.3552370863
 20
564.6661977564
 10
199.196489461
 20
568.8666266124
 10
199.0125822032
 20
573.0575306624
 10
198.8096950686
 20
577.1316344795
 10
198.599867465
 20
580.9685201121
 10
198.3983817595
 20
584.4460394688
 10
198.2161215976
 20
587.4614881419
 10
198.0942499097
 20
589.2786162084
  0
LWPOLYLINE
  5
70
330
1F
100
AcDbEntity
  8
0
  6
Continuous
 62
     7
370
    15
100
AcDbPolyline
 90
       14
 70
   128
 43
0.0
 10
165.5273294624
 20
589.3163960118
 10
165.3860210442
 20
587.3118953408
 10
165.2018411388
 20
584.3668222
 10
165.0170949792
 20
581.219694317
 10
164.8404631245
 20
577.9918321577
 10
164.6321305584
 20
573.7740452253
 10
164.4618753189
 20
569.8841905094
 10
164.3056667966
 20
565.8337115773
 10
164.1445869932
 20
560.9280365241
 10
163.9911488752
 20
555.1057905586
 10
163.8606083554
 20
548.3453141808
 10
163.7678754769
 20
540.6748551721
 10
163.7214064116
 20
532.1768764827
 10
163.7126907396
 20
522.9814919042
  0
LWPOLYLINE
  5
71
330
1F
100
AcDbEntity
  8
0
  6
Continuous
 62
     7
370
    15
100
AcDbPolyline
 90
       13
 70
   128
 43
0.0
 10
204.192992164
 20
385.9254317237
 10
204.2594598829
 20
388.8814330765
 10
204.3095849745
 20
392.625172735
 10
204.3312167905
 20
395.6920373848
 10
204.3463995275
 20
398.2363607247
 10
204.3785298138
 20
401.2749051191
 10
204.4225400434
 20
403.5206776701
 10
204.4699440018
 20
405.3480120558
 10
204.5317474044
 20
407.4903238587
 10
204.6115993812
 20
409.9865200918
 10
204.702176759
 20
412.8448713536
 10
204.771576845
 20
415.7389501323
 10
204.775851816
 20
416.3341630589
  0
LWPOLYLINE
  5
72
330
1F
100
AcDbEntity
  8
0
  6
Continuous
 62
     7
370
    15
100
AcDbPolyline
 90
       10
 70
   128
 43
0.0
 10
204.7872272578
 20
417.917989032
 10
204.7906449385
 20
418.3938396768
 10
204.7424470412
 20
421.9038284697
 10
204.6635235436
 20
425.0727978968
 10
204.5782635046
 20
428.2032631695
 10
204.5117864666
 20
431.4461570151
 10
204.5371863674
 20
434.5992253545
 10
204.6373237073
 20
438.4385277123
 10
204.7564945801
 20
443.0196594131
 10
204.7811188037
 20
445.4745812625
  0
ARC
  5
73
330
1F
100
AcDbEntity
  8
0
  6
Continuous
 62
     7
370
    15
100
AcDbCircle
 10
205.8106376997
 20
352.3250561364
 30
0.0
 40
1.0
100
AcDbArc
 50
0.0
 51
90.0
  0
ARC
  5
74
330
1F
100
AcDbEntity
  8
0
  6
Continuous
 62
     7
370
    15
100
AcDbCircle
 10
157.8106376997
 20
352.3250561364
 30
0.0
 40
1.0
100
AcDbArc
 50
90.0
 51
180.0
  0
ARC
  5
75
330
1F
100
AcDbEntity
  8
0
  6
Continuous
 62
     7
370
    15
100
AcDbCircle
 10
157.0106376997
 20
347.1250561364
 30
0.0
 40
0.1999999999999886
100
AcDbArc
 50
180.0
 51
270.0
  0
ARC
  5
76
330
1F
100
AcDbEntity
  8
0
  6
Continuous
 62
     7
370
    15
100
AcDbCircle
 10
206.6106376997
 20
347.1250561364
 30
0.0
 40
0.1999999999999886
100
AcDbArc
 50
270.0
 51
0.0
  0
LINE
  5
77
330
1F
100
AcDbEntity
  8
0
  6
Continuous
 62
     7
370
    15
100
AcDbLine
 10
156.8106376997
 20
352.3250561364
 30
0.0
 11
156.8106376997
 21
347.1250561364
 31
0.0
  0
LINE
  5
78
330
1F
100
AcDbEntity
  8
0
  6
Continuous
 62
     7
370
    15
100
AcDbLine
 10
206.8106376997
 20
347.1250561364
 30
0.0
 11
206.8106376997
 21
352.3250561364
 31
0.0
  0
LINE
  5
79
330
1F
100
AcDbEntity
  8
0
  6
Continuous
 62
     7
370
    15
100
AcDbLine
 10
204.8106376997
 20
451.3331837003
 30
0.0
 11
204.8106376997
 21
458.8654400194
 31
0.0
  0
LINE
  5
7A
330
1F
100
AcDbEntity
  8
0
  6
Continuous
 62
     7
370
    15
100
AcDbLine
 10
204.8106376997
 20
353.3250561364
 30
0.0
 11
204.8106376997
 21
385.7601419049
 31
0.0
  0
LINE
  5
7B
330
1F
100
AcDbEntity
  8
0
  6
Continuous
 62
     7
370
    15
100
AcDbLine
 10
158.8106376997
 20
385.7601419049
 30
0.0
 11
158.8106376997
 21
353.3250561364
 31
0.0
  0
LINE
  5
7C
330
1F
100
AcDbEntity
  8
0
  6
Continuous
 62
     7
370
    15
100
AcDbLine
 10
158.8106376997
 20
457.9516301632
 30
0.0
 11
158.8106376997
 21
448.0899703678
 31
0.0
  0
ARC
  5
7D
330
1F
100
AcDbEntity
  8
0
  6
Continuous
 62
     7
370
    15
100
AcDbCircle
 10
203.3071489072
 20
459.0297988656
 30
0.0
 40
1.512445826975016
100
AcDbArc
 50
353.761295664
 51
64.238704336
  0
LINE
  5
7E
330
1F
100
AcDbEntity
  8
0
  6
Continuous
 62
     7
370
    15
100
AcDbLine
 10
203.9744923753
 20
460.385677899
 30
0.0
 11
200.0079072511
 21
462.8642753748
 31
0.0
  0
ARC
  5
7F
330
1F
100
AcDbEntity
  8
0
  6
Continuous
 62
     7
370
    15
100
AcDbCircle
 10
199.7959395454
 20
462.5250561364
 30
0.0
 40
0.4000000000000341
100
AcDbArc
 50
58.0
 51
90.0
  0
LINE
  5
80
330
1F
100
AcDbEntity
  8
0
  6
Continuous
 62
     7
370
    15
100
AcDbLine
 10
163.7106376997
 20
523.0329107986
 30
0.0
 11
163.7106376997
 21
491.907833392
 31
0.0
  0
LINE
  5
81
330
1F
100
AcDbEntity
  8
0
  6
Continuous
 62
     7
370
    15
100
AcDbLine
 10
199.9106376997
 20
463.3814925489
 30
0.0
 11
199.9106376997
 21
523.0329107986
 31
0.0
  0
ARC
  5
82
330
1F
100
AcDbEntity
  8
0
  6
Continuous
 62
     7
370
    15
100
AcDbCircle
 10
199.4748876337
 20
463.4073048355
 30
0.0
 40
0.4321842946245156
100
AcDbArc
 50
260.3726502416
 51
1.7351327977
  0
LINE
  5
83
330
1F
100
AcDbEntity
  8
0
  6
Continuous
 62
     7
370
    15
100
AcDbLine
 10
188.8106376997
 20
462.9250561364
 30
0.0
 11
188.8106376997
 21
462.9801565002
 31
0.0
  0
LINE
  5
84
330
1F
100
AcDbEntity
  8
0
  6
Continuous
 62
     7
370
    15
100
AcDbLine
 10
204.8105530791
 20
445.2437141175
 30
0.0
 11
204.8105711638
 21
451.33271518
 31
0.0
  0
ARC
  5
85
330
1F
100
AcDbEntity
  8
0
  6
Continuous
 62
     7
370
    15
100
AcDbCircle
 10
215.3211025621
 20
410.4250561364
 30
0.0
 40
0.4999999999999716
100
AcDbArc
 50
90.0
 51
180.0
  0
ARC
  5
86
330
1F
100
AcDbEntity
  8
0
  6
Continuous
 62
     7
370
    15
100
AcDbCircle
 10
215.3211025621
 20
403.4250561364
 30
0.0
 40
0.5
100
AcDbArc
 50
180.0
 51
270.0
  0
ARC
  5
87
330
1F
100
AcDbEntity
  8
0
  6
Continuous
 62
     7
370
    15
100
AcDbCircle
 10
233.8211025621
 20
403.9250561364
 30
0.0
 40
1.000000000000057
100
AcDbArc
 50
270.0
 51
360.0
  0
ARC
  5
88
330
1F
100
AcDbEntity
  8
0
  6
Continuous
 62
     7
370
    15
100
AcDbCircle
 10
233.8211025621
 20
409.9250561364
 30
0.0
 40
1.000000000000057
100
AcDbArc
 50
0.0
 51
90.0
  0
LINE
  5
89
330
1F
100
AcDbEntity
  8
0
  6
Continuous
 62
     7
370
    15
100
AcDbLine
 10
215.3211025621
 20
402.9250561364
 30
0.0
 11
233.8211025621
 21
402.9250561364
 31
0.0
  0
LINE
  5
8A
330
1F
100
AcDbEntity
  8
0
  6
Continuous
 62
     7
370
    15
100
AcDbLine
 10
233.8211025621
 20
410.9250561364
 30
0.0
 11
215.3211025621
 21
410.9250561364
 31
0.0
  0
LINE
  5
8B
330
1F
100
AcDbEntity
  8
0
  6
Continuous
 62
     7
370
    15
100
AcDbLine
 10
207.4241763542
 20
402.3452575696
 30
0.0
 11
204.8106376997
 21
395.1646191316
 31
0.0
  0
LINE
  5
8C
330
1F
100
AcDbEntity
  8
0
  6
Continuous
 62
     7
370
    15
100
AcDbLine
 10
204.8106376997
 20
383.4694015309
 30
0.0
 11
211.1829468373
 21
400.9771769963
 31
0.0
  0
ARC
  5
8D
330
1F
100
AcDbEntity
  8
0
  6
Continuous
 62
     7
370
    15
100
AcDbCircle
 10
216.8211025621
 20
398.9250561364
 30
0.0
 40
5.999999999999984
100
AcDbArc
 50
109.4820172615
 51
160.0
  0
ARC
  5
8E
330
1F
100
AcDbEntity
  8
0
  6
Continuous
 62
     7
370
    15
100
AcDbCircle
 10
216.8211025621
 20
398.9250561364
 30
0.0
 40
9.999999999999973
100
AcDbArc
 50
101.5654978729
 51
160.0
  0
LWPOLYLINE
  5
8F
330
1F
100
AcDbEntity
  8
0
  6
Continuous
 62
     7
370
    15
100
AcDbPolyline
 90
       11
 70
   128
 43
0.0
 10
172.2886061312
 20
574.9516561323
 10
174.6878900462
 20
574.9078957809
 10
176.381191611
 20
574.9190852374
 10
178.2787958909
 20
574.9463313983
 10
180.2231972591
 20
574.9681630327
 10
182.2692592357
 20
574.9737424206
 10
184.245432125
 20
574.9602637362
 10
186.2084014625
 20
574.9336571149
 10
187.9945191788
 20
574.9110655368
 10
189.6544622695
 20
574.9125934837
 10
191.3326721687
 20
574.9516562313
  0
ARC
  5
90
330
1F
100
AcDbEntity
  8
0
  6
Continuous
 62
     7
370
    15
100
AcDbCircle
 10
175.6860542273
 20
1029.1556916188
 30
0.0
 40
454.4734562274587
100
AcDbArc
 50
271.9729697143
 51
272.2808748088
  0
LWPOLYLINE
  5
91
330
1F
100
AcDbEntity
  8
0
  6
Continuous
 62
     7
370
    15
100
AcDbPolyline
 90
        7
 70
   128
 43
0.0
 10
169.8212332677
 20
575.0434857631
 10
169.8176339403
 20
575.0440149213
 10
169.892576378
 20
575.0415842569
 10
170.2961959454
 20
575.0258296146
 10
170.6280600117
 20
575.0127406371
 10
171.3454566054
 20
574.9853147818
 10
172.2886061312
 20
574.9516561323
  0
LINE
  5
92
330
1F
100
AcDbEntity
  8
0
  6
Continuous
 62
     7
370
    15
100
AcDbLine
 10
177.0148061764
 20
567.6336893673
 30
0.0
 11
177.0148061764
 21
571.0563390611
 31
0.0
  0
LWPOLYLINE
  5
93
330
1F
100
AcDbEntity
  8
0
  6
Continuous
 62
     7
370
    15
100
AcDbPolyline
 90
        8
 70
   128
 43
0.0
 10
177.0148061764
 20
567.6336893673
 10
175.1388245309
 20
567.6338402352
 10
173.4746424701
 20
567.6340376775
 10
172.0750901706
 20
567.6342754262
 10
170.9845970236
 20
567.6345459338
 10
170.2377812039
 20
567.634840613
 10
169.8583507017
 20
567.635150109
 10
169.8106376997
 20
567.6353073529
  0
LWPOLYLINE
  5
94
330
1F
100
AcDbEntity
  8
0
  6
Continuous
 62
     7
370
    15
100
AcDbPolyline
 90
        8
 70
   128
 43
0.0
 10
193.8106376997
 20
567.6353073529
 10
193.7629246978
 20
567.635150109
 10
193.3834941955
 20
567.634840613
 10
192.6366783758
 20
567.6345459338
 10
191.5461852288
 20
567.6342754262
 10
190.1466329294
 20
567.6340376775
 10
188.4824508685
 20
567.6338402352
 10
186.606469223
 20
567.6336893673
  0
LINE
  5
95
330
1F
100
AcDbEntity
  8
0
  6
Continuous
 62
     7
370
    15
100
AcDbLine
 10
186.606469223
 20
571.0563390611
 30
0.0
 11
186.606469223
 21
567.6336893673
 31
0.0
  0
LWPOLYLINE
  5
96
330
1F
100
AcDbEntity
  8
0
  6
Continuous
 62
     7
370
    15
100
AcDbPolyline
 90
        9
 70
   128
 43
0.0
 10
177.0148061764
 20
571.0563390611
 10
178.1687564032
 20
571.0562752219
 10
179.3611479569
 20
571.0562291351
 10
180.5793947289
 20
571.0562012869
 10
181.8106376997
 20
571.0561919714
 10
183.0418806705
 20
571.0562012869
 10
184.2601274425
 20
571.0562291351
 10
185.4525189962
 20
571.0562752219
 10
186.606469223
 20
571.0563390611
  0
ARC
  5
97
330
1F
100
AcDbEntity
  8
0
  6
Continuous
 62
     7
370
    15
100
AcDbCircle
 10
181.6930148681
 20
588.2406473689
 30
0.0
 40
21.18463480397812
100
AcDbArc
 50
270.3181233245
 51
283.4110092038
  0
ARC
  5
98
330
1F
100
AcDbEntity
  8
0
  6
Continuous
 62
     7
370
    15
100
AcDbCircle
 10
181.9480485302
 20
588.4050188339
 30
0.0
 40
21.34912194760014
100
AcDbArc
 50
256.6396468072
 51
269.6312206645
  0
LWPOLYLINE
  5
99
330
1F
100
AcDbEntity
  8
0
  6
Continuous
 62
     7
370
    15
100
AcDbPolyline
 90
       10
 70
   128
 43
0.0
 10
192.8106373427
 20
567.0579566778
 10
192.6435229828
 20
567.0576761297
 10
192.1472565284
 20
567.0574037063
 10
191.3369171413
 20
567.0571480972
 10
190.237126574
 20
567.0569170689
 10
188.8813014063
 20
567.0567176411
 10
187.3106376997
 20
567.0565558733
 10
185.5728592763
 20
567.0564366808
 10
183.720767654
 20
567.0563636852
 10
181.8106376997
 20
567.0563391043
  0
LWPOLYLINE
  5
9A
330
1F
100
AcDbEntity
  8
0
  6
Continuous
 62
     7
370
    15
100
AcDbPolyline
 90
       10
 70
   128
 43
0.0
 10
181.8106376997
 20
567.0563391043
 10
179.9005077454
 20
567.0563636852
 10
178.0484161231
 20
567.0564366808
 10
176.3106376997
 20
567.0565558733
 10
174.7399739932
 20
567.0567176411
 10
173.3841488254
 20
567.0569170689
 10
172.2843582581
 20
567.0571480972
 10
171.4740188711
 20
567.0574037063
 10
170.9777524166
 20
567.0576761297
 10
170.8106380567
 20
567.0579566778
  0
LWPOLYLINE
  5
9B
330
1F
100
AcDbEntity
  8
0
  6
Continuous
 62
     7
370
    15
100
AcDbPolyline
 90
       18
 70
   128
 43
0.0
 10
190.9605843471
 20
566.8579616882
 10
190.8675038929
 20
566.8577655549
 10
190.4573951909
 20
566.8575169012
 10
189.7347701443
 20
566.8572841572
 10
188.725746305
 20
566.8570757348
 10
187.4667924236
 20
566.856899167
 10
186.0034103735
 20
566.8567608353
 10
184.3884905948
 20
566.8566657394
 10
182.6804004959
 20
566.8566173165
 10
180.9408749035
 20
566.8566173165
 10
179.2327848046
 20
566.8566657394
 10
177.6178650259
 20
566.8567608353
 10
176.1544829758
 20
566.856899167
 10
174.8955290944
 20
566.8570757348
 10
173.8865052551
 20
566.8572841572
 10
173.1638802085
 20
566.8575169012
 10
172.7537715065
 20
566.8577655549
 10
172.6606418266
 20
566.8579558139
  0
ARC
  5
9C
330
1F
100
AcDbEntity
  8
0
  6
Continuous
 62
     7
370
    15
100
AcDbCircle
 10
197.0805080958
 20
589.8245377364
 30
0.0
 40
1.000000637022385
100
AcDbArc
 50
4.975724079
 51
86.7457885286
  0
ARC
  5
9D
330
1F
100
AcDbEntity
  8
0
  6
Continuous
 62
     7
370
    15
100
AcDbCircle
 10
166.5407673036
 20
589.8245377364
 30
0.0
 40
1.000000637021951
100
AcDbArc
 50
93.2542114714
 51
175.024275921
  0
LWPOLYLINE
  5
9E
330
1F
100
AcDbEntity
  8
0
  6
Continuous
 62
     7
370
    15
100
AcDbPolyline
 90
        3
 70
   128
 43
0.0
 10
197.1372743743
 20
590.8229259735
 10
181.8106376997
 20
591.258287694
 10
166.4840010251
 20
590.8229259735
  0
CIRCLE
  5
9F
330
1F
100
AcDbEntity
  8
0
  6
Continuous
 62
     7
370
    15
100
AcDbCircle
 10
181.8214662426
 20
416.8900959845
 30
0.0
 40
22.99986597213471
  0
ARC
  5
A0
330
1F
100
AcDbEntity
  8
0
  6
Continuous
 62
     7
370
    15
100
AcDbCircle
 10
181.8196191603
 20
416.8956791025
 30
0.0
 40
23.00018612966547
100
AcDbArc
 50
85.8999828921
 51
128.1000171079
  0
ARC
  5
A1
330
1F
100
AcDbEntity
  8
0
  6
Continuous
 62
     7
370
    15
100
AcDbCircle
 10
184.1288096835
 20
418.0839995902
 30
0.0
 40
20.42942958132991
100
AcDbArc
 50
16.0809049452
 51
28.4273016022
  0
ARC
  5
A2
330
1F
100
AcDbEntity
  8
0
  6
Continuous
 62
     7
370
    15
100
AcDbCircle
 10
179.1071680814
 20
416.5620584891
 30
0.0
 40
20.29385037705081
100
AcDbArc
 50
185.5320381172
 51
197.961103053
  0
ARC
  5
A3
330
1F
100
AcDbEntity
  8
0
  6
Continuous
 62
     7
370
    15
100
AcDbCircle
 10
181.7805136945
 20
417.0242103555
 30
0.0
 40
22.99982913425669
100
AcDbArc
 50
27.9642216545
 51
80.7729994431
  0
ARC
  5
A4
330
1F
100
AcDbEntity
  8
0
  6
Continuous
 62
     7
370
    15
100
AcDbCircle
 10
181.7801571968
 20
417.0241049396
 30
0.0
 40
22.99982119548465
100
AcDbArc
 50
135.5730957551
 51
186.0357831927
  0
ARC
  5
A5
330
1F
100
AcDbEntity
  8
0
  6
Continuous
 62
     7
370
    15
100
AcDbCircle
 10
163.9280435832
 20
434.3728325709
 30
0.0
 40
1.99997366277159
100
AcDbArc
 50
333.0884486869
 51
16.9999555489
  0
ARC
  5
A6
330
1F
100
AcDbEntity
  8
0
  6
Continuous
 62
     7
370
    15
100
AcDbCircle
 10
186.8793067219
 20
441.3897377337
 30
0.0
 40
1.999972956459548
100
AcDbArc
 50
197.0000401511
 51
237.9591895144
  0
ARC
  5
A7
330
1F
100
AcDbEntity
  8
0
  6
Continuous
 62
     7
370
    15
100
AcDbCircle
 10
155.9837153474
 20
484.2995196254
 30
0.0
 40
4.999978067722086
100
AcDbArc
 50
106.999748673
 51
196.9997486708
  0
ARC
  5
A8
330
1F
100
AcDbEntity
  8
0
  6
Continuous
 62
     7
370
    15
100
AcDbCircle
 10
165.546804855
 20
487.2232494974
 30
0.0
 40
4.999978067722114
100
AcDbArc
 50
17.0002513292
 51
107.000251327
  0
LINE
  5
A9
330
1F
100
AcDbEntity
  8
0
  6
Continuous
 62
     7
370
    15
100
AcDbLine
 10
170.3283012484
 20
488.6851225828
 30
0.0
 11
184.9667234816
 21
440.8050008907
 31
0.0
  0
LINE
  5
AA
330
1F
100
AcDbEntity
  8
0
  6
Continuous
 62
     7
370
    15
100
AcDbLine
 10
165.8406283624
 20
434.9575667963
 30
0.0
 11
151.2022061291
 21
482.8376884883
 31
0.0
  0
LINE
  5
AB
330
1F
100
AcDbEntity
  8
0
  6
Continuous
 62
     7
370
    15
100
AcDbLine
 10
151.2022061291
 20
482.8376884883
 30
0.0
 11
151.1973074085
 21
482.8537114815
 31
0.0
  0
ARC
  5
AC
330
1F
100
AcDbEntity
  8
0
  6
Continuous
 62
     7
370
    15
100
AcDbCircle
 10
155.9788166268
 20
484.3155426185
 30
0.0
 40
4.999978067722287
100
AcDbArc
 50
106.999748673
 51
196.9997486708
  0
LINE
  5
AD
330
1F
100
AcDbEntity
  8
0
  6
Continuous
 62
     7
370
    15
100
AcDbLine
 10
164.0800330492
 20
492.020768884
 30
0.0
 11
154.5169854896
 21
489.0970518367
 31
0.0
  0
ARC
  5
AE
330
1F
100
AcDbEntity
  8
0
  6
Continuous
 62
     7
370
    15
100
AcDbCircle
 10
165.5419061344
 20
487.2392724905
 30
0.0
 40
4.999978067722211
100
AcDbArc
 50
17.0002513293
 51
107.000251327
  0
LINE
  5
AF
330
1F
100
AcDbEntity
  8
0
  6
Continuous
 62
     7
370
    15
100
AcDbLine
 10
170.3234025278
 20
488.7011455759
 30
0.0
 11
170.3283012484
 21
488.6851225828
 31
0.0
  0
ARC
  5
B0
330
1F
100
AcDbEntity
  8
0
  6
Continuous
 62
     7
370
    15
100
AcDbCircle
 10
186.8744077241
 20
441.4057605729
 30
0.0
 40
1.999972646314663
100
AcDbArc
 50
197.0000382564
 51
236.6254539603
  0
ARC
  5
B1
330
1F
100
AcDbEntity
  8
0
  6
Continuous
 62
     7
370
    15
100
AcDbCircle
 10
163.9231448351
 20
434.3888555616
 30
0.0
 40
1.999973689760644
100
AcDbArc
 50
332.9777761417
 51
16.9999553849
  0
LINE
  5
B2
330
1F
100
AcDbEntity
  8
0
  6
Continuous
 62
     7
370
    15
100
AcDbLine
 10
165.5421435706
 20
589.895457558
 30
0.0
 11
165.5376953067
 21
589.866055582
 31
0.0
  0
LINE
  5
B3
330
1F
100
AcDbEntity
  8
0
  6
Continuous
 62
     7
370
    15
100
AcDbLine
 10
166.4826454428
 20
590.81415801
 30
0.0
 11
166.4840019718
 21
590.8229259394
 31
0.0
  0
LINE
  5
B4
330
1F
100
AcDbEntity
  8
0
  6
Continuous
 62
     7
370
    15
100
AcDbLine
 10
198.0834519196
 20
589.8685002654
 30
0.0
 11
198.0791317042
 21
589.8960276882
 31
0.0
  0
LINE
  5
B5
330
1F
100
AcDbEntity
  8
0
  6
Continuous
 62
     7
370
    15
100
AcDbLine
 10
158.8106376997
 20
385.9250561364
 30
0.0
 11
159.5467163163
 21
385.9250561364
 31
0.0
  0
LINE
  5
B6
330
1F
100
AcDbEntity
  8
0
  6
Continuous
 62
     7
370
    15
100
AcDbLine
 10
204.8106376997
 20
417.2286844949
 30
0.0
 11
204.8106376997
 21
445.3250561325
 31
0.0
  0
LINE
  5
B7
330
1F
100
AcDbEntity
  8
0
  6
Continuous
 62
     7
370
    15
100
AcDbLine
 10
204.8106376997
 20
385.9250561364
 30
0.0
 11
204.8106376997
 21
416.9250561364
 31
0.0
  0
LINE
  5
B8
330
1F
100
AcDbEntity
  8
0
  6
Continuous
 62
     7
370
    15
100
AcDbLine
 10
157.8106377366
 20
353.3250561364
 30
0.0
 11
205.8106376997
 21
353.3250561364
 31
0.0
  0
LINE
  5
B9
330
1F
100
AcDbEntity
  8
0
  6
Continuous
 62
     7
370
    15
100
AcDbLine
 10
206.6106376618
 20
346.9250561364
 30
0.0
 11
157.0106376997
 21
346.9250561364
 31
0.0
  0
LINE
  5
BA
330
1F
100
AcDbEntity
  8
0
  6
Continuous
 62
     7
370
    15
100
AcDbLine
 10
178.2039439175
 20
462.9250561364
 30
0.0
 11
199.7959395454
 21
462.9250561364
 31
0.0
  0
LWPOLYLINE
  5
BB
330
1F
100
AcDbEntity
  8
0
  6
Continuous
 62
     7
370
    15
100
AcDbPolyline
 90
        6
 70
   128
 43
0.0
 10
197.4317123568
 20
462.9803438493
 10
193.5617518599
 20
462.9802416991
 10
189.6615532213
 20
462.9801685463
 10
185.74115249
 20
462.9801245792
 10
181.8106376997
 20
462.980109911
 10
178.1871084784
 20
462.9801223762
  0
LWPOLYLINE
  5
BC
330
1F
100
AcDbEntity
  8
0
  6
Continuous
 62
     7
370
    15
100
AcDbPolyline
 90
        9
 70
   128
 43
0.0
 10
197.8546537219
 20
462.9803930198
 10
197.8215187848
 20
462.9803839753
 10
197.7814621327
 20
462.9803755585
 10
197.7350266369
 20
462.9803678835
 10
197.6828416189
 20
462.9803610542
 10
197.6256143207
 20
462.9803551634
 10
197.5641203206
 20
462.9803502907
 10
197.4991930216
 20
462.9803465022
 10
197.4317123568
 20
462.9803438493
  0
LWPOLYLINE
  5
BD
330
1F
100
AcDbEntity
  8
0
  6
Continuous
 62
     7
370
    15
100
AcDbPolyline
 90
        4
 70
   128
 43
0.0
 10
199.4037884648
 20
462.9812069173
 10
199.0916834376
 20
462.9809294582
 10
198.5726518961
 20
462.9806562757
 10
197.8546537219
 20
462.9803930198
  0
LINE
  5
BE
330
1F
100
AcDbEntity
  8
0
  6
Continuous
 62
     7
370
    15
100
AcDbLine
 10
214.8211025621
 20
406.9250561364
 30
0.0
 11
214.8211025621
 21
410.4250561364
 31
0.0
  0
LINE
  5
BF
330
1F
100
AcDbEntity
  8
0
  6
Continuous
 62
     7
370
    15
100
AcDbLine
 10
214.8211025621
 20
403.4250561364
 30
0.0
 11
214.8211025621
 21
406.9250561364
 31
0.0
  0
LINE
  5
C0
330
1F
100
AcDbEntity
  8
0
  6
Continuous
 62
     7
370
    15
100
AcDbLine
 10
234.8211025621
 20
406.9250561364
 30
0.0
 11
234.8211025621
 21
403.9250561364
 31
0.0
  0
LINE
  5
C1
330
1F
100
AcDbEntity
  8
0
  6
Continuous
 62
     7
370
    15
100
AcDbLine
 10
234.8211025621
 20
409.9250561364
 30
0.0
 11
234.8211025621
 21
406.9250561364
 31
0.0
  0
LWPOLYLINE
  5
C2
330
1F
100
AcDbEntity
  8
0
  6
Continuous
 62
     7
370
     0
100
AcDbPolyline
 90
        5
 70
   128
 43
0.0
 10
197.9913451782
 20
576.1279476725
 10
197.9915213835
 20
576.1279893247
 10
197.9915741488
 20
576.1279779955
 10
197.9916156669
 20
576.1279454027
 10
197.9916157142
 20
576.1279453504
  0
ARC
  5
C3
330
1F
100
AcDbEntity
  8
0
  6
Continuous
 62
     7
370
     0
100
AcDbCircle
 10
165.6297965077
 20
576.1277649035
 30
0.0
 40
0.0002264540730093
100
AcDbArc
 50
53.8152079536
 51
127.170957535
  0
ARC
  5
C4
330
1F
100
AcDbEntity
  8
0
  6
Continuous
 62
     7
370
     0
100
AcDbCircle
 10
197.0468790569
 20
590.7014760423
 30
0.0
 40
0.0056417281128151
100
AcDbArc
 50
319.8083903079
 51
322.0057683379
  0
ARC
  5
C5
330
1F
100
AcDbEntity
  8
0
  6
Continuous
 62
     7
370
     0
100
AcDbCircle
 10
166.5743937142
 20
590.7014737984
 30
0.0
 40
0.0056382739847152
100
AcDbArc
 50
217.9903461641
 51
220.1913075231
  0
ARC
  5
C6
330
1F
100
AcDbEntity
  8
0
  6
Continuous
 62
     7
370
     0
100
AcDbCircle
 10
197.0513476654
 20
575.2146929854
 30
0.0
 40
0.0005329080643669
100
AcDbArc
 50
40.9463186648
 51
74.0277556556
  0
LINE
  5
C7
330
1F
100
AcDbEntity
  8
0
  6
Continuous
 62
     7
370
     0
100
AcDbLine
 10
166.4840010251
 20
575.1224057839
 30
0.0
 11
169.8106376997
 21
575.0279108013
 31
0.0
  0
LINE
  5
C8
330
1F
100
AcDbEntity
  8
0
  6
Continuous
 62
     7
370
     0
100
AcDbLine
 10
193.8106376997
 20
575.0279108013
 30
0.0
 11
197.1372743743
 21
575.1224057839
 31
0.0
  0
ARC
  5
C9
330
1F
100
AcDbEntity
  8
0
  6
Continuous
 62
     7
370
     0
100
AcDbCircle
 10
166.5699214204
 20
575.2147028882
 30
0.0
 40
0.0005216600820534
100
AcDbArc
 50
105.6066903781
 51
139.420769347
  0
ARC
  5
CA
330
1F
100
AcDbEntity
  8
0
  6
Continuous
 62
     7
370
     0
100
AcDbCircle
 10
197.9948589715
 20
589.7826213912
 30
0.0
 40
0.0043861794357893
100
AcDbArc
 50
146.3160967677
 51
148.958981592
  0
LWPOLYLINE
  5
CB
330
1F
100
AcDbEntity
  8
0
  6
Continuous
 62
     7
370
     0
100
AcDbPolyline
 90
        3
 70
   128
 43
0.0
 10
198.0767401978
 20
576.0340604148
 10
198.3782097649
 20
582.9726658787
 10
198.0767401978
 20
589.9112713426
  0
ARC
  5
CC
330
1F
100
AcDbEntity
  8
0
  6
Continuous
 62
     7
370
     0
100
AcDbCircle
 10
165.626414077
 20
589.7826198958
 30
0.0
 40
0.0043889698209375
100
AcDbArc
 50
31.0420095097
 51
33.6867030029
  0
LWPOLYLINE
  5
CD
330
1F
100
AcDbEntity
  8
0
  6
Continuous
 62
     7
370
     0
100
AcDbPolyline
 90
        3
 70
   128
 43
0.0
 10
165.5445352016
 20
589.9112713426
 10
165.2430656345
 20
582.9726658787
 10
165.5445352016
 20
576.0340604148
  0
ARC
  5
CE
330
1F
100
AcDbEntity
  8
0
  6
Continuous
 62
     7
370
     0
100
AcDbCircle
 10
166.5407671726
 20
576.1207938556
 30
0.0
 40
1.000000489968723
100
AcDbArc
 50
184.9757138168
 51
266.7457955654
  0
ARC
  5
CF
330
1F
100
AcDbEntity
  8
0
  6
Continuous
 62
     7
370
     0
100
AcDbCircle
 10
197.0805082268
 20
576.1207938556
 30
0.0
 40
1.000000489968672
100
AcDbArc
 50
273.2542044346
 51
355.0242861832
  0
CIRCLE
  5
D0
330
1F
100
AcDbEntity
  8
0
  6
Continuous
 62
     7
370
     0
100
AcDbCircle
 10
181.8233026664
 20
416.8840861872
 30
0.0
 40
21.4998668859544
  0
LWPOLYLINE
  5
D1
330
1F
100
AcDbEntity
  8
0
  6
Continuous
 62
     7
370
     0
100
AcDbPolyline
 90
        3
 70
   128
 43
0.0
 10
186.3733638672
 20
439.4687209462
 10
186.4453418578
 20
439.4535761332
 10
186.4693541736
 20
439.4472331221
  0
LINE
  5
D2
330
1F
100
AcDbEntity
  8
0
  6
Continuous
 62
     7
370
     0
100
AcDbLine
 10
165.3541451619
 20
432.9916658818
 30
0.0
 11
165.4443420879
 21
433.0876597149
 31
0.0
  0
LINE
  5
D3
330
1F
100
AcDbEntity
  8
0
  6
Continuous
 62
     7
370
     0
100
AcDbLine
 10
165.3590438825
 20
432.9756428887
 30
0.0
 11
165.3541451619
 21
432.9916658818
 31
0.0
  0
ARC
  5
D4
330
1F
100
AcDbEntity
  8
0
  6
Continuous
 62
     7
370
     0
100
AcDbCircle
 10
208.3157733412
 20
387.0080457729
 30
0.0
 40
62.9150267455177
100
AcDbArc
 50
130.2943919915
 51
133.0607766329
  0
ARC
  5
D5
330
1F
100
AcDbEntity
  8
0
  6
Continuous
 62
     7
370
     0
100
AcDbCircle
 10
181.2832406712
 20
412.2918501412
 30
0.0
 40
27.63134937786544
100
AcDbArc
 50
79.1716828473
 51
85.4731485282
  0
LINE
  5
D6
330
1F
100
AcDbEntity
  8
0
  6
Continuous
 62
     7
370
     0
100
AcDbLine
 10
186.4693541736
 20
439.4472331221
 30
0.0
 11
186.4742528942
 21
439.4312101289
 31
0.0
  0
ARC
  5
D7
330
1F
100
AcDbEntity
  8
0
  6
Continuous
 62
     7
370
     0
100
AcDbCircle
 10
163.9280218286
 20
434.3728418389
 30
0.0
 40
1.999997256309301
100
AcDbArc
 50
315.6851758422
 51
333.0884940112
  0
ARC
  5
D8
330
1F
100
AcDbEntity
  8
0
  6
Continuous
 62
     7
370
     0
100
AcDbCircle
 10
186.8793199382
 20
441.3897570792
 30
0.0
 40
1.999996366614415
100
AcDbArc
 50
237.9591625898
 51
258.3148267276
  0
ARC
  5
D9
330
1F
100
AcDbEntity
  8
0
  6
Continuous
 62
     7
370
     0
100
AcDbCircle
 10
181.8171796581
 20
416.9036583545
 30
0.0
 40
25.00020231485311
100
AcDbArc
 50
85.8999828921
 51
128.1000171079
  0
LINE
  5
DA
330
1F
100
AcDbEntity
  8
0
  6
Continuous
 62
     7
370
     0
100
AcDbLine
 10
164.3785255897
 20
491.0444437762
 30
0.0
 11
154.8154780301
 21
488.120726729
 31
0.0
  0
LINE
  5
DB
330
1F
100
AcDbEntity
  8
0
  6
Continuous
 62
     7
370
     0
100
AcDbLine
 10
154.5218842102
 20
489.0810288436
 30
0.0
 11
164.0849317698
 21
492.0047458908
 31
0.0
  0
ARC
  5
DC
330
1F
100
AcDbEntity
  8
0
  6
Continuous
 62
     7
370
     0
100
AcDbCircle
 10
155.9849429399
 20
484.2955193544
 30
0.0
 40
3.999982454177493
100
AcDbArc
 50
106.999748673
 51
196.9997486708
  0
ARC
  5
DD
330
1F
100
AcDbEntity
  8
0
  6
Continuous
 62
     7
370
     0
100
AcDbCircle
 10
165.5480240579
 20
487.2192466615
 30
0.0
 40
3.999982454177605
100
AcDbArc
 50
17.0002513292
 51
107.000251327
  0
LINE
  5
DE
330
1F
100
AcDbEntity
  8
0
  6
Continuous
 62
     7
370
     0
100
AcDbLine
 10
183.6046376771
 20
441.8398791911
 30
0.0
 11
169.3732211726
 21
488.3887451298
 31
0.0
  0
LINE
  5
DF
330
1F
100
AcDbEntity
  8
0
  6
Continuous
 62
     7
370
     0
100
AcDbLine
 10
152.1597355652
 20
483.1260544448
 30
0.0
 11
166.3911520698
 21
436.5771885061
 31
0.0
  0
ARC
  5
E0
330
1F
100
AcDbEntity
  8
0
  6
Continuous
 62
     7
370
     0
100
AcDbCircle
 10
186.874421096
 20
441.4057796851
 30
0.0
 40
1.999995962826437
100
AcDbArc
 50
236.6254352541
 51
258.3148278934
  0
ARC
  5
E1
330
1F
100
AcDbEntity
  8
0
  6
Continuous
 62
     7
370
     0
100
AcDbCircle
 10
163.9231230819
 20
434.3888648528
 30
0.0
 40
1.999997289530929
100
AcDbArc
 50
315.6851759381
 51
332.9778221607
  0
LINE
  5
E2
330
1F
100
AcDbEntity
  8
0
  6
Continuous
 62
     7
370
     0
100
AcDbLine
 10
165.5445358041
 20
589.9112696582
 30
0.0
 11
165.5421435706
 21
589.895457558
 31
0.0
  0
LINE
  5
E3
330
1F
100
AcDbEntity
  8
0
  6
Continuous
 62
     7
370
     0
100
AcDbLine
 10
198.0791317042
 20
589.8960276882
 30
0.0
 11
198.0767395953
 21
589.9112696582
 31
0.0
  0
LINE
  5
E4
330
1F
100
AcDbEntity
  8
0
  6
Continuous
 62
     7
370
     0
100
AcDbLine
 10
197.1372734276
 20
590.8229259394
 30
0.0
 11
197.1390525636
 21
590.8118905023
 31
0.0
  0
LWPOLYLINE
  5
E5
330
1F
100
AcDbEntity
  8
0
  6
Continuous
 62
     7
370
     0
100
AcDbPolyline
 90
       21
 70
   128
 43
0.0
 10
166.4840019718
 20
575.122405818
 10
166.4796036958
 20
575.0952990338
 10
166.4726199155
 20
574.938042019
 10
166.4609810951
 20
574.5336170341
 10
166.4431981407
 20
573.7739862903
 10
166.4279672012
 20
573.0439754559
 10
166.4097239709
 20
572.0961607229
 10
166.3883052218
 20
570.8923401898
 10
166.3641483241
 20
569.4204337327
 10
166.3248244063
 20
566.7516466164
 10
166.282494542
 20
563.4358327336
 10
166.2588014627
 20
561.3268114606
 10
166.2134987768
 20
556.5775118143
 10
166.1929169769
 20
553.9702376269
 10
166.1698889108
 20
550.5187032739
 10
166.1505722822
 20
546.9204614269
 10
166.1350281246
 20
543.1629685482
 10
166.1235322772
 20
539.3322114203
 10
166.1155280622
 20
535.2751767766
 10
166.1110585442
 20
531.1922869101
 10
166.1089851966
 20
522.9802855707
  0
LWPOLYLINE
  5
E6
330
1F
100
AcDbEntity
  8
0
  6
Continuous
 62
     7
370
     0
100
AcDbPolyline
 90
       21
 70
   128
 43
0.0
 10
165.4040314114
 20
522.9803675363
 10
165.4040848925
 20
527.0875751935
 10
165.4044004334
 20
531.1947723875
 10
165.4051314031
 20
535.3052794071
 10
165.4064010912
 20
539.4090984352
 10
165.4081891149
 20
543.1776756935
 10
165.410752905
 20
546.9132435587
 10
165.4166397876
 20
552.4621743735
 10
165.4192611652
 20
554.2598618605
 10
165.4293056794
 20
559.3431556451
 10
165.4431492766
 20
563.9677535183
 10
165.4500194049
 20
565.7105281735
 10
165.4654132697
 20
568.809196148
 10
165.4737158464
 20
570.1467044959
 10
165.4951163684
 20
572.8572439663
 10
165.5053754857
 20
573.8656949801
 10
165.5147138686
 20
574.6464577913
 10
165.52072743
 20
575.0815358642
 10
165.5344206899
 20
575.8377391803
 10
165.5402646272
 20
576.005141438
 10
165.5445358041
 20
576.0340620992
  0
LWPOLYLINE
  5
E7
330
1F
100
AcDbEntity
  8
0
  6
Continuous
 62
     7
370
     0
100
AcDbPolyline
 90
       15
 70
   128
 43
0.0
 10
197.5122902028
 20
522.9802855707
 10
197.5102401973
 20
531.1599724889
 10
197.497724883
 20
539.3395789173
 10
197.4715636415
 20
546.7379152366
 10
197.4520789244
 20
550.4031358925
 10
197.4283256713
 20
553.9746922723
 10
197.3867811514
 20
558.917356709
 10
197.3387808591
 20
563.4358327337
 10
197.2963949839
 20
566.755707679
 10
197.2553622536
 20
569.5321131323
 10
197.2109223327
 20
572.1300644698
 10
197.1768896033
 20
573.8282180088
 10
197.1598808056
 20
574.5496560285
 10
197.1485640718
 20
574.9406954793
 10
197.1372734276
 20
575.122405818
  0
LWPOLYLINE
  5
E8
330
1F
100
AcDbEntity
  8
0
  6
Continuous
 62
     7
370
     0
100
AcDbPolyline
 90
       15
 70
   128
 43
0.0
 10
198.0767395953
 20
576.0340620992
 10
198.0865215932
 20
575.8507134081
 10
198.0947386865
 20
575.4487174087
 10
198.1058280631
 20
574.7024062897
 10
198.1248374897
 20
572.996498407
 10
198.1467840271
 20
570.2621837005
 10
198.163126073
 20
567.4631598822
 10
198.1781261239
 20
563.9677535171
 10
198.1916750287
 20
559.4634870994
 10
198.2020070691
 20
554.2644091868
 10
198.2067803237
 20
550.743304331
 10
198.2103643125
 20
547.1056491241
 10
198.2148714254
 20
539.4165340741
 10
198.2168702704
 20
531.2329911108
 10
198.217243988
 20
522.9803675363
  0
LINE
  5
E9
330
1F
100
AcDbEntity
  8
0
  6
Continuous
 62
     7
370
     0
100
AcDbLine
 10
159.5467163163
 20
385.9250561364
 30
0.0
 11
181.8106376997
 21
385.9250561364
 31
0.0
  0
LINE
  5
EA
330
1F
100
AcDbEntity
  8
0
  6
Continuous
 62
     7
370
     0
100
AcDbLine
 10
181.8106376997
 20
385.9250561364
 30
0.0
 11
204.8106376997
 21
385.9250561364
 31
0.0
  0
ARC
  5
EB
330
1F
100
AcDbEntity
  8
0
  6
Continuous
 62
     7
370
     0
100
AcDbCircle
 10
228.4487299983
 20
448.3763769487
 30
0.0
 40
23.83472188637713
100
AcDbArc
 50
181.0836969166
 51
187.3632047422
  0
LINE
  5
EC
330
1F
100
AcDbEntity
  8
0
  6
Continuous
 62
     7
370
     0
100
AcDbLine
 10
206.8106376997
 20
352.3250561364
 30
0.0
 11
156.8106376997
 21
352.3250561364
 31
0.0
  0
LINE
  5
ED
330
1F
100
AcDbEntity
  8
0
  6
Continuous
 62
     7
370
     0
100
AcDbLine
 10
204.8106376997
 20
458.8654400194
 30
0.0
 11
179.4450931194
 21
458.8654400194
 31
0.0
  0
ARC
  5
EE
330
1F
100
AcDbEntity
  8
0
  6
Continuous
 62
     7
370
     0
100
AcDbCircle
 10
227.2596227695
 20
448.3570735005
 30
0.0
 40
22.64540047302355
100
AcDbArc
 50
172.4482117379
 51
181.0912691582
  0
LINE
  5
EF
330
1F
100
AcDbEntity
  8
0
  6
Continuous
 62
     7
370
     0
100
AcDbLine
 10
178.9783993392
 20
460.3919265925
 30
0.0
 11
203.9644923753
 21
460.3919265925
 31
0.0
  0
LINE
  5
F0
330
1F
100
AcDbEntity
  8
0
  6
Continuous
 62
     7
370
     0
100
AcDbLine
 10
200.0079072511
 20
462.8642753748
 30
0.0
 11
178.2225264611
 21
462.8642753748
 31
0.0
  0
LINE
  5
F1
330
1F
100
AcDbEntity
  8
0
  6
Continuous
 62
     7
370
     0
100
AcDbLine
 10
197.51232808
 20
463.3802862164
 30
0.0
 11
197.51232808
 21
522.9802855717
 31
0.0
  0
LINE
  5
F2
330
1F
100
AcDbEntity
  8
0
  6
Continuous
 62
     7
370
     0
100
AcDbLine
 10
166.1089473194
 20
522.9802855717
 30
0.0
 11
166.1089473194
 21
492.2069891771
 31
0.0
  0
ARC
  5
F3
330
1F
100
AcDbEntity
  8
0
  6
Continuous
 62
     7
370
     0
100
AcDbCircle
 10
196.9559514583
 20
463.2843381616
 30
0.0
 40
0.564589208597099
100
AcDbArc
 50
327.4228675801
 51
9.784512286
  0
LINE
  5
F4
330
1F
100
AcDbEntity
  8
0
  6
Continuous
 62
     7
370
     0
100
AcDbLine
 10
198.2172303552
 20
522.9803675226
 30
0.0
 11
198.2172303552
 21
463.3803681673
 31
0.0
  0
LINE
  5
F5
330
1F
100
AcDbEntity
  8
0
  6
Continuous
 62
     7
370
     0
100
AcDbLine
 10
165.4040450442
 20
492.2373460992
 30
0.0
 11
165.4040450442
 21
522.9803675226
 31
0.0
  0
ARC
  5
F6
330
1F
100
AcDbEntity
  8
0
  6
Continuous
 62
     7
370
     0
100
AcDbCircle
 10
197.83500726
 20
463.3625275494
 30
0.0
 40
0.3826392324070232
100
AcDbArc
 50
272.9431235361
 51
2.6723941039
  0
LINE
  5
F7
330
1F
100
AcDbEntity
  8
0
  6
Continuous
 62
     7
370
     0
100
AcDbLine
 10
233.8211025621
 20
406.9250561364
 30
0.0
 11
233.8211025621
 21
402.9250561364
 31
0.0
  0
LINE
  5
F8
330
1F
100
AcDbEntity
  8
0
  6
Continuous
 62
     7
370
     0
100
AcDbLine
 10
233.8211025621
 20
410.9250561364
 30
0.0
 11
233.8211025621
 21
406.9250561364
 31
0.0
  0
LINE
  5
F9
330
1F
100
AcDbEntity
  8
0
  6
Continuous
 62
     7
370
    15
100
AcDbLine
 10
403.8013771545
 20
439.4642728644
 30
0.0
 11
403.7992827655
 21
438.9861246812
 31
0.0
  0
LINE
  5
FA
330
1F
100
AcDbEntity
  8
0
  6
Continuous
 62
     7
370
    15
100
AcDbLine
 10
409.7992252076
 20
438.9598436793
 30
0.0
 11
409.8013195966
 21
439.4379918625
 31
0.0
  0
LWPOLYLINE
  5
FB
330
1F
100
AcDbEntity
  8
0
  6
Continuous
 62
     7
370
    15
100
AcDbPolyline
 90
        6
 70
   128
 43
0.0
 10
406.7808791621
 20
440.847522442
 10
405.9069269124
 20
440.8049736593
 10
405.0994605623
 20
440.6691280662
 10
404.425894051
 20
440.4276931204
 10
404.044487178
 20
440.1465801479
 10
403.8611342537
 20
439.8611164756
  0
ARC
  5
FC
330
1F
100
AcDbEntity
  8
0
  6
Continuous
 62
     7
370
    15
100
AcDbCircle
 10
407.3278163477
 20
437.5951538441
 30
0.0
 40
3.298036049115049
100
AcDbArc
 50
42.928636479
 51
99.5458747052
  0
ARC
  5
FD
330
1F
100
AcDbEntity
  8
0
  6
Continuous
 62
     7
370
    15
100
AcDbCircle
 10
369.8775009455
 20
352.3250561364
 30
0.0
 40
1.0
100
AcDbArc
 50
0.0
 51
90.0
  0
ARC
  5
FE
330
1F
100
AcDbEntity
  8
0
  6
Continuous
 62
     7
370
    15
100
AcDbCircle
 10
321.8775009455
 20
352.3250561364
 30
0.0
 40
1.0
100
AcDbArc
 50
90.0
 51
180.0
  0
ARC
  5
FF
330
1F
100
AcDbEntity
  8
0
  6
Continuous
 62
     7
370
    15
100
AcDbCircle
 10
321.0775009455
 20
347.1250561364
 30
0.0
 40
0.1999999999999886
100
AcDbArc
 50
180.0
 51
270.0
  0
ARC
  5
100
330
1F
100
AcDbEntity
  8
0
  6
Continuous
 62
     7
370
    15
100
AcDbCircle
 10
370.6775009455
 20
347.1250561364
 30
0.0
 40
0.2000000000000455
100
AcDbArc
 50
270.0
 51
0.0
  0
LINE
  5
101
330
1F
100
AcDbEntity
  8
0
  6
Continuous
 62
     7
370
    15
100
AcDbLine
 10
320.8775009455
 20
352.3250561364
 30
0.0
 11
320.8775009455
 21
347.1250561364
 31
0.0
  0
LINE
  5
102
330
1F
100
AcDbEntity
  8
0
  6
Continuous
 62
     7
370
    15
100
AcDbLine
 10
370.8775009455
 20
347.1250561364
 30
0.0
 11
370.8775009455
 21
352.3250561364
 31
0.0
  0
LINE
  5
103
330
1F
100
AcDbEntity
  8
0
  6
Continuous
 62
     7
370
    15
100
AcDbLine
 10
395.2208978635
 20
414.6632275738
 30
0.0
 11
395.2208978635
 21
414.3959390138
 31
0.0
  0
LINE
  5
104
330
1F
100
AcDbEntity
  8
0
  6
Continuous
 62
     7
370
    15
100
AcDbLine
 10
417.2949522569
 20
439.9359228675
 30
0.0
 11
409.6560839478
 21
439.9665225195
 31
0.0
  0
LINE
  5
105
330
1F
100
AcDbEntity
  8
0
  6
Continuous
 62
     7
370
    15
100
AcDbLine
 10
403.9435342823
 20
439.9894057562
 30
0.0
 11
395.2951452622
 21
440.0240493296
 31
0.0
  0
LINE
  5
106
330
1F
100
AcDbEntity
  8
0
  6
Continuous
 62
     7
370
    15
100
AcDbLine
 10
428.7948513678
 20
439.8898567622
 30
0.0
 11
427.2948645272
 21
439.8958653846
 31
0.0
  0
LINE
  5
107
330
1F
100
AcDbEntity
  8
0
  6
Continuous
 62
     7
370
    15
100
AcDbLine
 10
398.9891631831
 20
394.0088828304
 30
0.0
 11
428.6105868087
 21
393.8902258227
 31
0.0
  0
LINE
  5
108
330
1F
100
AcDbEntity
  8
0
  6
Continuous
 62
     7
370
    15
100
AcDbLine
 10
368.8775009455
 20
447.9250561364
 30
0.0
 11
368.8775009455
 21
458.8654400194
 31
0.0
  0
LINE
  5
109
330
1F
100
AcDbEntity
  8
0
  6
Continuous
 62
     7
370
    15
100
AcDbLine
 10
368.8775009455
 20
353.3250561364
 30
0.0
 11
368.8775009455
 21
385.9250561364
 31
0.0
  0
LINE
  5
10A
330
1F
100
AcDbEntity
  8
0
  6
Continuous
 62
     7
370
    15
100
AcDbLine
 10
322.8775009455
 20
458.8654400194
 30
0.0
 11
322.8775009455
 21
353.3250561364
 31
0.0
  0
LINE
  5
10B
330
1F
100
AcDbEntity
  8
0
  6
Continuous
 62
     7
370
    15
100
AcDbLine
 10
389.8775009455
 20
439.9250561364
 30
0.0
 11
376.8775009455
 21
439.9250561364
 31
0.0
  0
LINE
  5
10C
330
1F
100
AcDbEntity
  8
0
  6
Continuous
 62
     7
370
    15
100
AcDbLine
 10
376.8775009455
 20
393.9250561364
 30
0.0
 11
389.8775009455
 21
393.9250561364
 31
0.0
  0
LWPOLYLINE
  5
10D
330
1F
100
AcDbEntity
  8
0
  6
Continuous
 62
     7
370
    15
100
AcDbPolyline
 90
        9
 70
   128
 43
0.0
 10
376.8127071603
 20
439.9082348714
 10
375.2920977356
 20
439.9102608363
 10
373.3147436815
 20
440.2010495406
 10
371.4243694985
 20
441.0061506575
 10
370.521768638
 20
441.7697735299
 10
369.7630935192
 20
442.8528368347
 10
369.2201129643
 20
444.2687234845
 10
368.933499537
 20
446.0217041703
 10
368.9102007351
 20
446.9138095306
  0
LWPOLYLINE
  5
10E
330
1F
100
AcDbEntity
  8
0
  6
Continuous
 62
     7
370
    15
100
AcDbPolyline
 90
       13
 70
   128
 43
0.0
 10
368.8121783
 20
385.9248743711
 10
368.7952220929
 20
386.9771877852
 10
368.9690762489
 20
388.8961441263
 10
369.3624166509
 20
390.4108835077
 10
369.9388496915
 20
391.5664424202
 10
370.6236842589
 20
392.4101652086
 10
371.3313329857
 20
392.99355862
 10
371.9928632954
 20
393.3710258099
 10
372.5573147557
 20
393.5955858773
 10
373.3892856947
 20
393.7850412811
 10
374.4484037561
 20
393.9034609976
 10
375.8837520892
 20
393.9461702382
 10
376.8529909549
 20
393.9315099427
  0
ARC
  5
10F
330
1F
100
AcDbEntity
  8
0
  6
Continuous
 62
     7
370
    15
100
AcDbCircle
 10
324.380989738
 20
459.0297988656
 30
0.0
 40
1.512445826974865
100
AcDbArc
 50
115.761295664
 51
186.238704336
  0
ARC
  5
110
330
1F
100
AcDbEntity
  8
0
  6
Continuous
 62
     7
370
    15
100
AcDbCircle
 10
367.374012153
 20
459.0297988656
 30
0.0
 40
1.512445826975009
100
AcDbArc
 50
353.761295664
 51
64.238704336
  0
ARC
  5
111
330
1F
100
AcDbEntity
  8
0
  6
Continuous
 62
     7
370
    15
100
AcDbCircle
 10
389.8775009455
 20
394.9250561364
 30
0.0
 40
1.0
100
AcDbArc
 50
270.0
 51
0.0
  0
ARC
  5
112
330
1F
100
AcDbEntity
  8
0
  6
Continuous
 62
     7
370
    15
100
AcDbCircle
 10
389.8775009455
 20
438.9250561364
 30
0.0
 40
1.0
100
AcDbArc
 50
0.0
 51
90.0
  0
ARC
  5
113
330
1F
100
AcDbEntity
  8
0
  6
Continuous
 62
     7
370
    15
100
AcDbCircle
 10
428.8772300909
 20
438.4751080219
 30
0.0
 40
1.401069089380996
100
AcDbArc
 50
5.9189464728
 51
94.0864998204
  0
ARC
  5
114
330
1F
100
AcDbEntity
  8
0
  6
Continuous
 62
     7
370
    15
100
AcDbCircle
 10
428.6507820745
 20
395.3712632941
 30
0.0
 40
1.462957876829339
100
AcDbArc
 50
269.1854343637
 51
352.0305731861
  0
LINE
  5
115
330
1F
100
AcDbEntity
  8
0
  6
Continuous
 62
     7
370
    15
100
AcDbLine
 10
368.0413556211
 20
460.385677899
 30
0.0
 11
364.0747704969
 21
462.8642753748
 31
0.0
  0
LINE
  5
116
330
1F
100
AcDbEntity
  8
0
  6
Continuous
 62
     7
370
    15
100
AcDbLine
 10
327.6802313941
 20
462.8642753748
 30
0.0
 11
323.7136462699
 21
460.385677899
 31
0.0
  0
LINE
  5
117
330
1F
100
AcDbEntity
  8
0
  6
Continuous
 62
     7
370
    15
100
AcDbLine
 10
392.7085617205
 20
438.4250561365
 30
0.0
 11
390.8775009455
 21
438.4250561365
 31
0.0
  0
LINE
  5
118
330
1F
100
AcDbEntity
  8
0
  6
Continuous
 62
     7
370
    15
100
AcDbLine
 10
390.8775009455
 20
395.4250561365
 30
0.0
 11
392.7085617205
 21
395.4250561365
 31
0.0
  0
ARC
  5
119
330
1F
100
AcDbEntity
  8
0
  6
Continuous
 62
     7
370
    15
100
AcDbCircle
 10
392.7085617205
 20
405.4250561365
 30
0.0
 40
10.0
100
AcDbArc
 50
270.0
 51
279.0468459803
  0
ARC
  5
11A
330
1F
100
AcDbEntity
  8
0
  6
Continuous
 62
     7
370
    15
100
AcDbCircle
 10
392.7085617205
 20
428.4250561365
 30
0.0
 40
10.0
100
AcDbArc
 50
80.9531540197
 51
90.0
  0
ARC
  5
11B
330
1F
100
AcDbEntity
  8
0
  6
Continuous
 62
     7
370
    15
100
AcDbCircle
 10
390.8775009455
 20
416.9250561365
 30
0.0
 40
21.64486082191335
100
AcDbArc
 50
279.0468459803
 51
289.3656853111
  0
ARC
  5
11C
330
1F
100
AcDbEntity
  8
0
  6
Continuous
 62
     7
370
    15
100
AcDbCircle
 10
390.8775009455
 20
416.9250561365
 30
0.0
 40
21.64486082191345
100
AcDbArc
 50
78.217895442
 51
80.9531540197
  0
ARC
  5
11D
330
1F
100
AcDbEntity
  8
0
  6
Continuous
 62
     7
370
    15
100
AcDbCircle
 10
327.8921990998
 20
462.5250561364
 30
0.0
 40
0.4000000000000341
100
AcDbArc
 50
90.0
 51
122.0
  0
ARC
  5
11E
330
1F
100
AcDbEntity
  8
0
  6
Continuous
 62
     7
370
    15
100
AcDbCircle
 10
363.8628027912
 20
462.5250561364
 30
0.0
 40
0.4000000000000341
100
AcDbArc
 50
58.0
 51
90.0
  0
LWPOLYLINE
  5
11F
330
1F
100
AcDbEntity
  8
0
  6
Continuous
 62
     7
370
    15
100
AcDbPolyline
 90
       15
 70
   128
 43
0.0
 10
420.5195089505
 20
492.2260559991
 10
420.2100569121
 20
492.1898770754
 10
419.938390496
 20
492.0524322914
 10
419.754123296
 20
491.8817596387
 10
419.6357561675
 20
491.7055168264
 10
419.5680759963
 20
491.5443460468
 10
419.5357139345
 20
491.4136408295
 10
419.5246096445
 20
491.3311887861
 10
419.5223824616
 20
491.3028418882
 10
419.5214904975
 20
491.2871770492
 10
419.5208756838
 20
491.2728225323
 10
419.5203713304
 20
491.2559432157
 10
419.5196274924
 20
491.2111184388
 10
419.517210894
 20
490.9232753026
 10
419.5163818641
 20
490.7859135161
  0
LINE
  5
120
330
1F
100
AcDbEntity
  8
0
  6
Continuous
 62
     7
370
    15
100
AcDbLine
 10
424.5243793358
 20
492.2232239439
 30
0.0
 11
420.5244144277
 21
492.239246937
 31
0.0
  0
ARC
  5
121
330
1F
100
AcDbEntity
  8
0
  6
Continuous
 62
     7
370
    15
100
AcDbCircle
 10
424.4910868019
 20
491.1725515554
 30
0.0
 40
1.037468180899344
100
AcDbArc
 50
353.1298229432
 51
88.5873527737
  0
LWPOLYLINE
  5
122
330
1F
100
AcDbEntity
  8
0
  6
Continuous
 62
     7
370
    15
100
AcDbPolyline
 90
        3
 70
   128
 43
0.0
 10
521.0030023309
 20
590.5979323546
 10
516.779318164
 20
591.033449367
 10
513.4980376822
 20
591.1090231464
  0
LINE
  5
123
330
1F
100
AcDbEntity
  8
0
  6
Continuous
 62
     7
370
    15
100
AcDbLine
 10
517.8442656544
 20
575.0008611082
 30
0.0
 11
520.4267472511
 21
575.248223698
 31
0.0
  0
LWPOLYLINE
  5
124
330
1F
100
AcDbEntity
  8
0
  6
Continuous
 62
     7
370
    15
100
AcDbPolyline
 90
       22
 70
   128
 43
0.0
 10
405.8798210666
 20
591.2582794992
 10
397.8043484485
 20
591.2137908969
 10
390.3802121534
 20
590.9103145898
 10
383.6611328199
 20
590.2391658045
 10
377.6785801012
 20
589.1987885617
 10
372.4388291791
 20
587.8498498162
 10
367.9251788378
 20
586.2845122675
 10
364.1029124525
 20
584.6061785422
 10
360.9253231415
 20
582.9167841
 10
358.3397139711
 20
581.3093723134
 10
355.9451964652
 20
579.6020155271
 10
352.5632990853
 20
576.7563878377
 10
348.9242308138
 20
572.9574751845
 10
346.473827712
 20
569.8079589364
 10
344.1011993353
 20
566.1067378757
 10
341.8976465236
 20
561.8110112951
 10
339.9561827283
 20
556.8887385385
 10
338.3631805864
 20
551.3228412737
 10
337.1855320972
 20
545.1150340298
 10
336.4518493364
 20
538.2886131378
 10
336.1259042832
 20
530.8892970127
 10
336.0701310064
 20
522.9829333304
  0
LWPOLYLINE
  5
125
330
1F
100
AcDbEntity
  8
0
  6
Continuous
 62
     7
370
    15
100
AcDbPolyline
 90
       18
 70
   128
 43
0.0
 10
355.6694242166
 20
522.980050478
 10
355.7424888621
 20
530.4109655903
 10
356.139880298
 20
537.0642747523
 10
356.9560711974
 20
542.8730099553
 10
358.139210098
 20
547.8161377181
 10
359.5680857036
 20
551.9159282622
 10
361.0991338848
 20
555.226838636
 10
362.5932416964
 20
557.8217638283
 10
364.1139731523
 20
560.0275994862
 10
366.1802024339
 20
562.5212286569
 10
368.9465657455
 20
565.2045727062
 10
372.5470042359
 20
567.8968368461
 10
377.1064189045
 20
570.3837001614
 10
382.7194022418
 20
572.4366698928
 10
389.4258703437
 20
573.8562934521
 10
394.4894457157
 20
574.3985461165
 10
399.9905579573
 20
574.6417309223
 10
405.8773836112
 20
574.6870522582
  0
LINE
  5
126
330
1F
100
AcDbEntity
  8
0
  6
Continuous
 62
     7
370
    15
100
AcDbLine
 10
336.069785072
 20
523.0329333824
 30
0.0
 11
336.061011177
 21
463.3829340271
 31
0.0
  0
LINE
  5
127
330
1F
100
AcDbEntity
  8
0
  6
Continuous
 62
     7
370
    15
100
AcDbLine
 10
355.6610109649
 20
463.3800510708
 30
0.0
 11
355.6697849092
 21
523.0303847409
 31
0.0
  0
ARC
  5
128
330
1F
100
AcDbEntity
  8
0
  6
Continuous
 62
     7
370
    15
100
AcDbCircle
 10
336.4610111726
 20
463.3828751912
 30
0.0
 40
0.4000000000000131
100
AcDbArc
 50
179.9915723863
 51
269.9915723863
  0
ARC
  5
129
330
1F
100
AcDbEntity
  8
0
  6
Continuous
 62
     7
370
    15
100
AcDbCircle
 10
355.2610109693
 20
463.3801099066
 30
0.0
 40
0.4000000000000131
100
AcDbArc
 50
269.9915723863
 51
359.9915723863
  0
ARC
  5
12A
330
1F
100
AcDbEntity
  8
0
  6
Continuous
 62
     7
370
    15
100
AcDbCircle
 10
417.3274620224
 20
441.9225109186
 30
0.0
 40
1.974283326250666
100
AcDbArc
 50
269.6193698728
 51
356.7870290734
  0
ARC
  5
12B
330
1F
100
AcDbEntity
  8
0
  6
Continuous
 62
     7
370
    15
100
AcDbCircle
 10
427.267901697
 20
441.8636494582
 30
0.0
 40
1.956599155726015
100
AcDbArc
 50
190.7579710482
 51
271.457634611
  0
LINE
  5
12C
330
1F
100
AcDbEntity
  8
0
  6
Continuous
 62
     7
370
    15
100
AcDbLine
 10
513.4985150726
 20
591.1297600086
 30
0.0
 11
405.8297568111
 21
591.2583474851
 31
0.0
  0
LINE
  5
12D
330
1F
100
AcDbEntity
  8
0
  6
Continuous
 62
     7
370
    15
100
AcDbLine
 10
405.82738361
 20
574.6869990581
 30
0.0
 11
493.8781381465
 21
574.7662542631
 31
0.0
  0
LINE
  5
12E
330
1F
100
AcDbEntity
  8
0
  6
Continuous
 62
     7
370
    15
100
AcDbLine
 10
369.4785057447
 20
390.1644126642
 30
0.0
 11
369.5729550802
 21
390.4801348088
 31
0.0
  0
LINE
  5
12F
330
1F
100
AcDbEntity
  8
0
  6
Continuous
 62
     7
370
    15
100
AcDbLine
 10
375.2652669373
 20
393.8754208812
 30
0.0
 11
376.8714982716
 21
393.9099038417
 31
0.0
  0
LWPOLYLINE
  5
130
330
1F
100
AcDbEntity
  8
0
  6
Continuous
 62
     7
370
    15
100
AcDbPolyline
 90
        3
 70
   128
 43
0.0
 10
376.8426775291
 20
439.9150859563
 10
376.7236812359
 20
439.9112847699
 10
374.9000022305
 20
439.9679222063
  0
LINE
  5
131
330
1F
100
AcDbEntity
  8
0
  6
Continuous
 62
     7
370
    15
100
AcDbLine
 10
517.876850761
 20
571.0561919714
 30
0.0
 11
517.8774268079
 21
574.9724912563
 31
0.0
  0
LINE
  5
132
330
1F
100
AcDbEntity
  8
0
  6
Continuous
 62
     7
370
    15
100
AcDbLine
 10
493.8773962178
 20
574.7662872499
 30
0.0
 11
493.8768510206
 21
571.059722122
 31
0.0
  0
ARC
  5
133
330
1F
100
AcDbEntity
  8
0
  6
Continuous
 62
     7
370
    15
100
AcDbCircle
 10
435.8791211424
 20
586.497584833
 30
0.0
 40
86.0
100
AcDbArc
 50
353.0660952412
 51
2.1007353796
  0
ARC
  5
134
330
1F
100
AcDbEntity
  8
0
  6
Continuous
 62
     7
370
    15
100
AcDbCircle
 10
520.2573011656
 20
576.2348982466
 30
0.0
 40
1.000000000000034
100
AcDbArc
 50
270.3303777879
 51
353.0922826004
  0
ARC
  5
135
330
1F
100
AcDbEntity
  8
0
  6
Continuous
 62
     7
370
    15
100
AcDbCircle
 10
520.822004124
 20
589.6131314573
 30
0.0
 40
1.000000000000097
100
AcDbArc
 50
2.0759333836
 51
90.5997532891
  0
ARC
  5
136
330
1F
100
AcDbEntity
  8
0
  6
Continuous
 62
     7
370
    15
100
AcDbCircle
 10
496.7262626314
 20
567.0593029599
 30
0.0
 40
0.2000000000001203
100
AcDbArc
 50
179.9915723862
 51
269.9915723863
  0
ARC
  5
137
330
1F
100
AcDbEntity
  8
0
  6
Continuous
 62
     7
370
    15
100
AcDbCircle
 10
515.0262624334
 20
567.0566112201
 30
0.0
 40
0.2000000000001202
100
AcDbArc
 50
269.9915723863
 51
359.9915723864
  0
LINE
  5
138
330
1F
100
AcDbEntity
  8
0
  6
Continuous
 62
     7
370
    15
100
AcDbLine
 10
338.8609523108
 20
462.9825221805
 30
0.0
 11
338.8609438582
 21
462.9250561364
 31
0.0
  0
LINE
  5
139
330
1F
100
AcDbEntity
  8
0
  6
Continuous
 62
     7
370
    15
100
AcDbLine
 10
352.8609440096
 20
462.9250561364
 30
0.0
 11
352.8609521594
 21
462.980462926
 31
0.0
  0
ARC
  5
13A
330
1F
100
AcDbEntity
  8
0
  6
Continuous
 62
     7
370
    15
100
AcDbCircle
 10
404.5184481548
 20
439.3222822915
 30
0.0
 40
0.6906980065143145
100
AcDbArc
 50
88.2658502018
 51
178.0243761834
  0
ARC
  5
13B
330
1F
100
AcDbEntity
  8
0
  6
Continuous
 62
     7
370
    15
100
AcDbCircle
 10
409.0861796934
 20
439.3061830542
 30
0.0
 40
0.6885443858954239
100
AcDbArc
 50
1.3390742715
 51
91.4121589043
  0
ARC
  5
13C
330
1F
100
AcDbEntity
  8
0
  6
Continuous
 62
     7
370
    15
100
AcDbCircle
 10
409.5305845679
 20
439.4392224176
 30
0.0
 40
0.2705352388042264
100
AcDbArc
 50
334.387256725
 51
25.612743275
  0
LINE
  5
13D
330
1F
100
AcDbEntity
  8
0
  6
Continuous
 62
     7
370
    15
100
AcDbLine
 10
409.7749549189
 20
439.6518007361
 30
0.0
 11
409.7745360411
 21
439.5561710994
 31
0.0
  0
LINE
  5
13E
330
1F
100
AcDbEntity
  8
0
  6
Continuous
 62
     7
370
    15
100
AcDbLine
 10
403.8285795878
 20
439.6756206278
 30
0.0
 11
403.82816071
 21
439.5799909912
 31
0.0
  0
ARC
  5
13F
330
1F
100
AcDbEntity
  8
0
  6
Continuous
 62
     7
370
    15
100
AcDbCircle
 10
404.0721121831
 20
439.4630423093
 30
0.0
 40
0.2705352388035845
100
AcDbArc
 50
154.3872567249
 51
205.6127432751
  0
LWPOLYLINE
  5
140
330
1F
100
AcDbEntity
  8
0
  6
Continuous
 62
     7
370
    15
100
AcDbPolyline
 90
        6
 70
   128
 43
0.0
 10
406.7992539865
 20
438.0958690661
 10
405.7732025582
 20
438.1528757197
 10
404.8709080749
 20
438.3087995572
 10
404.201200568
 20
438.5448338625
 10
403.8448566466
 20
438.832509415
 10
403.7992827655
 20
438.9861246812
  0
LWPOLYLINE
  5
141
330
1F
100
AcDbEntity
  8
0
  6
Continuous
 62
     7
370
    15
100
AcDbPolyline
 90
        6
 70
   128
 43
0.0
 10
409.7992252076
 20
438.9598436793
 10
409.7536513265
 20
438.8088400632
 10
409.3973074051
 20
438.5240193839
 10
408.7275998981
 20
438.293350485
 10
407.8253054149
 20
438.1446554401
 10
406.7992539865
 20
438.0958690661
  0
LINE
  5
142
330
1F
100
AcDbEntity
  8
0
  6
Continuous
 62
     7
370
    15
100
AcDbLine
 10
409.0692109803
 20
439.9945183171
 30
0.0
 11
404.5393500598
 21
440.0126639589
 31
0.0
  0
LINE
  5
143
330
1F
100
AcDbEntity
  8
0
  6
Continuous
 62
     7
370
    15
100
AcDbLine
 10
409.7745360411
 20
439.5561710994
 30
0.0
 11
409.7296836398
 21
439.5563507684
 31
0.0
  0
LINE
  5
144
330
1F
100
AcDbEntity
  8
0
  6
Continuous
 62
     7
370
    15
100
AcDbLine
 10
403.8749245712
 20
439.5798036653
 30
0.0
 11
403.82816071
 21
439.5799909912
 31
0.0
  0
ARC
  5
145
330
1F
100
AcDbEntity
  8
0
  6
Continuous
 62
     7
370
    15
100
AcDbCircle
 10
404.4189083892
 20
439.6566383462
 30
0.0
 40
0.5906339144079862
100
AcDbArc
 50
88.1603313119
 51
178.1582636668
  0
LINE
  5
146
330
1F
100
AcDbEntity
  8
0
  6
Continuous
 62
     7
370
    15
100
AcDbLine
 10
404.4378693675
 20
440.2469678323
 30
0.0
 11
409.1706916727
 21
440.2280091712
 31
0.0
  0
ARC
  5
147
330
1F
100
AcDbEntity
  8
0
  6
Continuous
 62
     7
370
    15
100
AcDbCircle
 10
409.1837108281
 20
439.63671599
 30
0.0
 40
0.5914364923333535
100
AcDbArc
 50
1.4615026771
 51
91.2613406872
  0
LWPOLYLINE
  5
148
330
1F
100
AcDbEntity
  8
0
  6
Continuous
 62
     7
370
    15
100
AcDbPolyline
 90
        9
 70
   128
 43
0.0
 10
419.5043944442
 20
483.1500889345
 10
419.5076632044
 20
483.91881696
 10
419.5108063479
 20
484.7029459211
 10
419.5137030856
 20
485.4723421818
 10
419.5162420974
 20
486.197438275
 10
419.5183258106
 20
486.8503691647
 10
419.5198741491
 20
487.4060430829
 10
419.5208276113
 20
487.8431057925
 10
419.5211495561
 20
488.1447612187
  0
LWPOLYLINE
  5
149
330
1F
100
AcDbEntity
  8
0
  6
Continuous
 62
     7
370
    15
100
AcDbPolyline
 90
        9
 70
   128
 43
0.0
 10
425.5210969183
 20
488.120726729
 10
425.5207749735
 20
487.8190713028
 10
425.5198215113
 20
487.3820085932
 10
425.5182731728
 20
486.826334675
 10
425.5161894596
 20
486.1734037854
 10
425.5136504478
 20
485.4483076921
 10
425.5107537101
 20
484.6789114315
 10
425.5076105666
 20
483.8947824703
 10
425.5043418064
 20
483.1260544448
  0
LINE
  5
14A
330
1F
100
AcDbEntity
  8
0
  6
Continuous
 62
     7
370
    15
100
AcDbLine
 10
419.3005006825
 20
436.6012229958
 30
0.0
 11
419.5043944442
 21
483.1500889345
 31
0.0
  0
LINE
  5
14B
330
1F
100
AcDbEntity
  8
0
  6
Continuous
 62
     7
370
    15
100
AcDbLine
 10
425.5043418064
 20
483.1260544448
 30
0.0
 11
425.3004480447
 21
436.5771885061
 31
0.0
  0
LWPOLYLINE
  5
14C
330
1F
100
AcDbEntity
  8
0
  6
Continuous
 62
     7
370
    15
100
AcDbPolyline
 90
        3
 70
   128
 43
0.0
 10
419.5211495561
 20
491.0684782659
 10
419.5208276113
 20
491.2231339599
 10
419.5205089598
 20
491.2425161223
  0
LWPOLYLINE
  5
14D
330
1F
100
AcDbEntity
  8
0
  6
Continuous
 62
     7
370
    15
100
AcDbPolyline
 90
        6
 70
   128
 43
0.0
 10
419.5164615389
 20
490.8095519921
 10
419.5162420974
 20
490.7750594426
 10
419.5137030856
 20
490.3408447328
 10
419.5108063479
 20
489.7875928394
 10
419.5076632044
 20
489.1365649224
 10
419.5043944442
 20
488.4127796195
  0
LINE
  5
14E
330
1F
100
AcDbEntity
  8
0
  6
Continuous
 62
     7
370
    15
100
AcDbLine
 10
419.3005006825
 20
441.8639136808
 30
0.0
 11
419.3022102007
 21
441.921191316
 31
0.0
  0
LWPOLYLINE
  5
14F
330
1F
100
AcDbEntity
  8
0
  6
Continuous
 62
     7
370
    15
100
AcDbPolyline
 90
        9
 70
   128
 43
0.0
 10
419.3033590092
 20
441.925515156
 10
419.3035528454
 20
441.9226385791
 10
419.3057516179
 20
441.7696511546
 10
419.3070783756
 20
441.4062472629
 10
419.3075218803
 20
440.8355050594
 10
419.3070783756
 20
440.0622589256
 10
419.3057516179
 20
439.0930585208
 10
419.3035528454
 20
437.9361133036
 10
419.3005006825
 20
436.6012229958
  0
LINE
  5
150
330
1F
100
AcDbEntity
  8
0
  6
Continuous
 62
     7
370
    15
100
AcDbLine
 10
419.5043944442
 20
488.4127796195
 30
0.0
 11
419.3005006825
 21
441.8639136808
 31
0.0
  0
LINE
  5
151
330
1F
100
AcDbEntity
  8
0
  6
Continuous
 62
     7
370
    15
100
AcDbLine
 10
395.2952667542
 20
438.6210296239
 30
0.0
 11
395.295266754
 21
437.5504377068
 31
0.0
  0
LINE
  5
152
330
1F
100
AcDbEntity
  8
0
  6
Continuous
 62
     7
370
    15
100
AcDbLine
 10
395.295266754
 20
437.5504377068
 30
0.0
 11
395.2924833736
 21
435.7917439364
 31
0.0
  0
LINE
  5
153
330
1F
100
AcDbEntity
  8
0
  6
Continuous
 62
     7
370
    15
100
AcDbLine
 10
395.2924833736
 20
435.7917439364
 30
0.0
 11
395.2873624559
 21
433.6189852678
 31
0.0
  0
LINE
  5
154
330
1F
100
AcDbEntity
  8
0
  6
Continuous
 62
     7
370
    15
100
AcDbLine
 10
395.2873624559
 20
433.6189852678
 30
0.0
 11
395.2790298179
 21
430.6913727975
 31
0.0
  0
LINE
  5
155
330
1F
100
AcDbEntity
  8
0
  6
Continuous
 62
     7
370
    15
100
AcDbLine
 10
395.2790298179
 20
430.6913727975
 30
0.0
 11
395.2695514515
 21
427.7226909342
 31
0.0
  0
LINE
  5
156
330
1F
100
AcDbEntity
  8
0
  6
Continuous
 62
     7
370
    15
100
AcDbLine
 10
395.2695514515
 20
427.7226909342
 30
0.0
 11
395.2580262624
 21
424.3870773712
 31
0.0
  0
LINE
  5
157
330
1F
100
AcDbEntity
  8
0
  6
Continuous
 62
     7
370
    15
100
AcDbLine
 10
395.2580262624
 20
424.3870773712
 30
0.0
 11
395.2444870343
 21
420.7160849806
 31
0.0
  0
LWPOLYLINE
  5
158
330
1F
100
AcDbEntity
  8
0
  6
Continuous
 62
     7
370
    15
100
AcDbPolyline
 90
        3
 70
   128
 43
0.0
 10
395.2444870343
 20
420.7160849806
 10
395.233176755
 20
417.8018315004
 10
395.221336512
 20
414.8739159854
  0
LINE
  5
159
330
1F
100
AcDbEntity
  8
0
  6
Continuous
 62
     7
370
    15
100
AcDbLine
 10
395.2230589064
 20
414.6632445786
 30
0.0
 11
395.2213362425
 21
414.8739337496
 31
0.0
  0
LINE
  5
15A
330
1F
100
AcDbEntity
  8
0
  6
Continuous
 62
     7
370
    15
100
AcDbLine
 10
425.5210969183
 20
491.0444437762
 30
0.0
 11
425.5210969183
 21
488.120726729
 31
0.0
  0
LINE
  5
15B
330
1F
100
AcDbEntity
  8
0
  6
Continuous
 62
     7
370
    15
100
AcDbLine
 10
321.8775009455
 20
353.3250561364
 30
0.0
 11
369.8775009455
 21
353.3250561364
 31
0.0
  0
LINE
  5
15C
330
1F
100
AcDbEntity
  8
0
  6
Continuous
 62
     7
370
    15
100
AcDbLine
 10
345.8775009455
 20
346.9250561364
 30
0.0
 11
321.0775009455
 21
346.9250561364
 31
0.0
  0
LINE
  5
15D
330
1F
100
AcDbEntity
  8
0
  6
Continuous
 62
     7
370
    15
100
AcDbLine
 10
370.6775009455
 20
346.9250561364
 30
0.0
 11
345.8775009455
 21
346.9250561364
 31
0.0
  0
ARC
  5
15E
330
1F
100
AcDbEntity
  8
0
  6
Continuous
 62
     7
370
    15
100
AcDbCircle
 10
438.4408913007
 20
414.1809543752
 30
0.0
 40
43.22164170126918
100
AcDbArc
 50
179.4369579032
 51
190.5114400866
  0
ELLIPSE
  5
15F
330
1F
100
AcDbEntity
  8
0
  6
Continuous
 62
     7
370
    15
100
AcDbEllipse
 10
395.2030129827
 20
417.0242338599
 30
0.0
 11
-3.795594983565024
 21
23.01460207718492
 31
0.0
210
0.0
220
0.0
230
1.0
 40
0.0489331134
 41
2.047644579253645
 42
3.133321256181934
  0
LWPOLYLINE
  5
160
330
1F
100
AcDbEntity
  8
0
  6
Continuous
 62
     7
370
    15
100
AcDbPolyline
 90
       19
 70
   128
 43
0.0
 10
395.2762839639
 20
438.1182321127
 10
395.2791382078
 20
438.5250989805
 10
395.2856571544
 20
439.3479298615
 10
395.2909884195
 20
439.8499463035
 10
395.2950553871
 20
440.0239338146
 10
395.2977996109
 20
439.8673920155
 10
395.2991816535
 20
439.3825705727
 10
395.2991816535
 20
438.5764368683
 10
395.2977996109
 20
437.4605758714
 10
395.2950553871
 20
436.0510236508
 10
395.2909884195
 20
434.3680369194
 10
395.2856571544
 20
432.4358019251
 10
395.2791382078
 20
430.2820868693
 10
395.2715252635
 20
427.9378428494
 10
395.2629277273
 20
425.4367590594
 10
395.2534691547
 20
422.8147786422
 10
395.2432854751
 20
420.1095821494
 10
395.2325230384
 20
417.3600460328
 10
395.221336512
 20
414.6056839504
  0
LINE
  5
161
330
1F
100
AcDbEntity
  8
0
  6
Continuous
 62
     7
370
    15
100
AcDbLine
 10
376.8426734138
 20
439.8560992219
 30
0.0
 11
376.8775009455
 21
439.9250561364
 31
0.0
  0
ARC
  5
162
330
1F
100
AcDbEntity
  8
0
  6
Continuous
 62
     7
370
    15
100
AcDbCircle
 10
376.0404217091
 20
449.7055572049
 30
0.0
 40
9.816039774517396
100
AcDbArc
 50
245.0885550645
 51
274.8921150171
  0
LINE
  5
163
330
1F
100
AcDbEntity
  8
0
  6
Continuous
 62
     7
370
    15
100
AcDbLine
 10
369.1454580888
 20
444.6448066862
 30
0.0
 11
369.1213231725
 21
444.9401929654
 31
0.0
  0
LINE
  5
164
330
1F
100
AcDbEntity
  8
0
  6
Continuous
 62
     7
370
    15
100
AcDbLine
 10
368.959735605
 20
446.9178567662
 30
0.0
 11
368.8774362899
 21
447.925114805
 31
0.0
  0
LWPOLYLINE
  5
165
330
1F
100
AcDbEntity
  8
0
  6
Continuous
 62
     7
370
    15
100
AcDbPolyline
 90
        7
 70
   128
 43
0.0
 10
369.4567888676
 20
390.1726161477
 10
369.750949593
 20
390.9513271892
 10
370.5997018978
 20
392.1311860496
 10
371.7621360944
 20
393.0042716477
 10
373.211020657
 20
393.5743267585
 10
374.9267648912
 20
393.8650243642
 10
376.8775337777
 20
393.9249389265
  0
LINE
  5
166
330
1F
100
AcDbEntity
  8
0
  6
Continuous
 62
     7
370
    15
100
AcDbLine
 10
390.8775009455
 20
416.9250561364
 30
0.0
 11
390.8775009455
 21
394.9250561364
 31
0.0
  0
LINE
  5
167
330
1F
100
AcDbEntity
  8
0
  6
Continuous
 62
     7
370
    15
100
AcDbLine
 10
390.8775009455
 20
438.9250561364
 30
0.0
 11
390.8775009455
 21
416.9250561364
 31
0.0
  0
LWPOLYLINE
  5
168
330
1F
100
AcDbEntity
  8
0
  6
Continuous
 62
     7
370
    15
100
AcDbPolyline
 90
       27
 70
   128
 43
0.0
 10
430.2890059524
 20
438.3833662581
 10
430.2911694672
 20
438.2581012133
 10
430.2925869445
 20
437.7985340304
 10
430.2925869445
 20
437.0091326673
 10
430.2911694672
 20
435.9023464551
 10
430.288356867
 20
434.4956300735
 10
430.2841935004
 20
432.8111682801
 10
430.2787450261
 20
430.8755260438
 10
430.2720973698
 20
428.7192295989
 10
430.2643553691
 20
426.3762850285
 10
430.2556411198
 20
423.8836419679
 10
430.246092051
 20
421.2806108873
 10
430.235858757
 20
418.6082431419
 10
430.2251026232
 20
415.9086835673
 10
430.2139932801
 20
413.2245058307
 10
430.2027059288
 20
410.5980410185
 10
430.1914185775
 20
408.0707100497
 10
430.1803092344
 20
405.6823704434
 10
430.1695531006
 20
403.470687742
 10
430.1593198066
 20
401.4705415029
 10
430.1497707378
 20
399.713475227
 10
430.1410564885
 20
398.2271988992
 10
430.1333144878
 20
397.035151985
 10
430.1266668315
 20
396.1561337764
 10
430.1212183572
 20
395.6040069156
 10
430.1170549905
 20
395.387478773
 10
430.1167920575
 20
395.3848694978
  0
LINE
  5
169
330
1F
100
AcDbEntity
  8
0
  6
Continuous
 62
     7
370
    15
100
AcDbLine
 10
345.8775009455
 20
462.9250561364
 30
0.0
 11
363.8628027912
 21
462.9250561364
 31
0.0
  0
LINE
  5
16A
330
1F
100
AcDbEntity
  8
0
  6
Continuous
 62
     7
370
    15
100
AcDbLine
 10
327.8921990998
 20
462.9250561364
 30
0.0
 11
345.8775009455
 21
462.9250561364
 31
0.0
  0
LINE
  5
16B
330
1F
100
AcDbEntity
  8
0
  6
Continuous
 62
     7
370
    15
100
AcDbLine
 10
353.3362146833
 20
462.9803930198
 30
0.0
 11
338.3856897869
 21
462.9825920867
 31
0.0
  0
LWPOLYLINE
  5
16C
330
1F
100
AcDbEntity
  8
0
  6
Continuous
 62
     7
370
    15
100
AcDbPolyline
 90
        4
 70
   128
 43
0.0
 10
520.6270683163
 20
590.5874055992
 10
520.8708208513
 20
590.6017253315
 10
520.9522965396
 20
590.6046068501
 10
520.9519672712
 20
590.6045952136
  0
LWPOLYLINE
  5
16D
330
1F
100
AcDbEntity
  8
0
  6
Continuous
 62
     7
370
    15
100
AcDbPolyline
 90
        3
 70
   128
 43
0.0
 10
520.3792189174
 20
575.2424290942
 10
520.2981577962
 20
575.2494604516
 10
520.052236956
 20
575.2756556306
  0
ARC
  5
16E
330
1F
100
AcDbEntity
  8
0
  6
Continuous
 62
     7
370
    15
100
AcDbCircle
 10
515.3098846427
 20
620.5913627877
 30
0.0
 40
45.68936716012195
100
AcDbArc
 50
267.3283782655
 51
273.1832316263
  0
LINE
  5
16F
330
1F
100
AcDbEntity
  8
0
  6
Continuous
 62
     7
370
    15
100
AcDbLine
 10
338.3856897869
 20
462.9825920867
 30
0.0
 11
338.051400264
 21
462.9826412572
 31
0.0
  0
LINE
  5
170
330
1F
100
AcDbEntity
  8
0
  6
Continuous
 62
     7
370
    15
100
AcDbLine
 10
353.6705042062
 20
462.9803438493
 30
0.0
 11
353.3362146833
 21
462.9803930198
 31
0.0
  0
LINE
  5
171
330
1F
100
AcDbEntity
  8
0
  6
Continuous
 62
     7
370
    15
100
AcDbLine
 10
338.051400264
 20
462.9826412572
 30
0.0
 11
336.4609523368
 21
462.9828751956
 31
0.0
  0
LINE
  5
172
330
1F
100
AcDbEntity
  8
0
  6
Continuous
 62
     7
370
    15
100
AcDbLine
 10
355.2609521334
 20
462.980109911
 30
0.0
 11
353.6705042062
 21
462.9803438493
 31
0.0
  0
LWPOLYLINE
  5
173
330
1F
100
AcDbEntity
  8
0
  6
Continuous
 62
     7
370
    15
100
AcDbPolyline
 90
       24
 70
   128
 43
0.0
 10
493.8781381168
 20
574.7662871942
 10
493.8774100871
 20
574.7662542246
 10
494.050525338
 20
574.7740512212
 10
494.268103906
 20
574.7836936571
 10
494.5589151652
 20
574.7963081828
 10
495.3876032457
 20
574.8305384934
 10
495.9253536221
 20
574.851391866
 10
496.5140806736
 20
574.8729949044
 10
497.1717145538
 20
574.8956094056
 10
497.9060802825
 20
574.9189700619
 10
498.7042992781
 20
574.9420965691
 10
499.5251895823
 20
574.9634180643
 10
500.3958508197
 20
574.9833036813
 10
501.3248659093
 20
575.0014237961
 10
502.2941977999
 20
575.0169196024
 10
503.2541566614
 20
575.0288322279
 10
504.2389930517
 20
575.0375024592
 10
505.2570409587
 20
575.0426841889
 10
506.2871454258
 20
575.0440149213
 10
507.2773705443
 20
575.0415842569
 10
509.2564330931
 20
575.0258296146
 10
510.2305873925
 20
575.0127406371
 10
511.7493946244
 20
574.9853147818
 10
513.180225539
 20
574.9516561323
  0
LINE
  5
174
330
1F
100
AcDbEntity
  8
0
  6
Continuous
 62
     7
370
    15
100
AcDbLine
 10
516.8763473356
 20
567.6336893673
 30
0.0
 11
494.8763475736
 21
567.6369253386
 31
0.0
  0
LINE
  5
175
330
1F
100
AcDbEntity
  8
0
  6
Continuous
 62
     7
370
    15
100
AcDbLine
 10
516.8762624134
 20
567.0563391043
 30
0.0
 11
516.8763473356
 21
567.6336893673
 31
0.0
  0
LINE
  5
176
330
1F
100
AcDbEntity
  8
0
  6
Continuous
 62
     7
370
    15
100
AcDbLine
 10
516.8762624134
 20
567.0563391043
 30
0.0
 11
494.8762626514
 21
567.0595750757
 31
0.0
  0
LINE
  5
177
330
1F
100
AcDbEntity
  8
0
  6
Continuous
 62
     7
370
    15
100
AcDbLine
 10
494.8762626514
 20
567.0595750757
 30
0.0
 11
494.8763475736
 21
567.6369253386
 31
0.0
  0
LINE
  5
178
330
1F
100
AcDbEntity
  8
0
  6
Continuous
 62
     7
370
    15
100
AcDbLine
 10
516.8763473356
 20
567.6336893673
 30
0.0
 11
516.8768507718
 21
571.0563390611
 31
0.0
  0
LINE
  5
179
330
1F
100
AcDbEntity
  8
0
  6
Continuous
 62
     7
370
    15
100
AcDbLine
 10
494.8763475736
 20
567.6369253386
 30
0.0
 11
494.8768510098
 21
571.0595750324
 31
0.0
  0
LINE
  5
17A
330
1F
100
AcDbEntity
  8
0
  6
Continuous
 62
     7
370
    15
100
AcDbLine
 10
493.8768510206
 20
571.059722122
 30
0.0
 11
494.8768510098
 21
571.0595750324
 31
0.0
  0
LINE
  5
17B
330
1F
100
AcDbEntity
  8
0
  6
Continuous
 62
     7
370
    15
100
AcDbLine
 10
516.8768507718
 20
571.0563390611
 30
0.0
 11
517.876850761
 21
571.0561919714
 31
0.0
  0
LINE
  5
17C
330
1F
100
AcDbEntity
  8
0
  6
Continuous
 62
     7
370
    15
100
AcDbLine
 10
515.0262321932
 20
566.8566112224
 30
0.0
 11
496.7262332134
 21
566.8593029621
 31
0.0
  0
LWPOLYLINE
  5
17D
330
1F
100
AcDbEntity
  8
0
  6
Continuous
 62
     7
370
     0
100
AcDbPolyline
 90
        9
 70
   128
 43
0.0
 10
424.5043505794
 20
482.8376884883
 10
424.5084365296
 20
483.7985985202
 10
424.512365459
 20
484.7787597217
 10
424.5159863811
 20
485.7405050475
 10
424.5191601459
 20
486.6468751641
 10
424.5217647873
 20
487.4630387762
 10
424.5237002105
 20
488.1576311739
 10
424.5248920382
 20
488.7039595608
 10
424.5252944692
 20
489.0810288436
  0
LWPOLYLINE
  5
17E
330
1F
100
AcDbEntity
  8
0
  6
Continuous
 62
     7
370
     0
100
AcDbPolyline
 90
        9
 70
   128
 43
0.0
 10
420.5253295611
 20
489.0970518367
 10
420.5249271301
 20
488.719982554
 10
420.5237353024
 20
488.173654167
 10
420.5217998792
 20
487.4790617693
 10
420.5191952378
 20
486.6628981572
 10
420.516021473
 20
485.7565280406
 10
420.5124005509
 20
484.7947827148
 10
420.5084716215
 20
483.8146215133
 10
420.5043856713
 20
482.8537114815
  0
LINE
  5
17F
330
1F
100
AcDbEntity
  8
0
  6
Continuous
 62
     7
370
     0
100
AcDbLine
 10
420.5043856713
 20
482.8537114815
 30
0.0
 11
420.2946607311
 21
434.9735897894
 31
0.0
  0
LWPOLYLINE
  5
180
330
1F
100
AcDbEntity
  8
0
  6
Continuous
 62
     7
370
     0
100
AcDbPolyline
 90
        7
 70
   128
 43
0.0
 10
419.3005006825
 20
436.6012229958
 10
419.3488469733
 20
436.1432829427
 10
419.5037220679
 20
435.6675967342
 10
419.7244983675
 20
435.3016689585
 10
419.9918800027
 20
435.061839448
 10
420.1743781982
 20
434.9875892111
 10
420.2946607311
 20
434.9735897894
  0
LINE
  5
181
330
1F
100
AcDbEntity
  8
0
  6
Continuous
 62
     7
370
     0
100
AcDbLine
 10
424.2946256392
 20
434.9575667963
 30
0.0
 11
424.5043505794
 21
482.8376884883
 31
0.0
  0
LINE
  5
182
330
1F
100
AcDbEntity
  8
0
  6
Continuous
 62
     7
370
     0
100
AcDbLine
 10
420.2946607311
 20
434.9735897894
 30
0.0
 11
424.2946256392
 21
434.9575667963
 31
0.0
  0
LWPOLYLINE
  5
183
330
1F
100
AcDbEntity
  8
0
  6
Continuous
 62
     7
370
     0
100
AcDbPolyline
 90
        7
 70
   128
 43
0.0
 10
424.2946256392
 20
434.9575667963
 10
424.4181176543
 20
434.9712987688
 10
424.632396867
 20
435.0645165657
 10
424.7505804926
 20
435.1568272954
 10
425.0436770947
 20
435.5505088482
 10
425.2333767123
 20
436.0530605341
 10
425.3004480447
 20
436.5771885061
  0
ARC
  5
184
330
1F
100
AcDbEntity
  8
0
  6
Continuous
 62
     7
370
     0
100
AcDbCircle
 10
441.9019829335
 20
490.816789391
 30
0.0
 40
22.38552256454964
100
AcDbArc
 50
178.9102860797
 51
180.018524134
  0
LINE
  5
185
330
1F
100
AcDbEntity
  8
0
  6
Continuous
 62
     7
370
     0
100
AcDbLine
 10
419.5211495561
 20
488.1447612187
 30
0.0
 11
419.5211495561
 21
491.0684782659
 31
0.0
  0
LINE
  5
186
330
1F
100
AcDbEntity
  8
0
  6
Continuous
 62
     7
370
     0
100
AcDbLine
 10
419.3022102007
 20
441.921191316
 30
0.0
 11
419.3033590092
 21
441.925515156
 31
0.0
  0
LINE
  5
187
330
1F
100
AcDbEntity
  8
0
  6
Continuous
 62
     7
370
     0
100
AcDbLine
 10
395.2790298188
 20
438.0663224299
 30
0.0
 11
395.2873624566
 21
438.9433858817
 31
0.0
  0
LINE
  5
188
330
1F
100
AcDbEntity
  8
0
  6
Continuous
 62
     7
370
     0
100
AcDbLine
 10
395.2873624566
 20
438.9433858817
 30
0.0
 11
395.2924833741
 21
439.1088341372
 31
0.0
  0
LINE
  5
189
330
1F
100
AcDbEntity
  8
0
  6
Continuous
 62
     7
370
     0
100
AcDbLine
 10
395.2924833741
 20
439.1088341372
 30
0.0
 11
395.2952667542
 21
438.6210296239
 31
0.0
  0
LINE
  5
18A
330
1F
100
AcDbEntity
  8
0
  6
Continuous
 62
     7
370
     0
100
AcDbLine
 10
420.5253295611
 20
492.020768884
 30
0.0
 11
420.5253295611
 21
489.0970518367
 31
0.0
  0
LINE
  5
18B
330
1F
100
AcDbEntity
  8
0
  6
Continuous
 62
     7
370
     0
100
AcDbLine
 10
424.5252944692
 20
489.0810288436
 30
0.0
 11
424.5252944692
 21
492.0047458908
 31
0.0
  0
LINE
  5
18C
330
1F
100
AcDbEntity
  8
0
  6
Continuous
 62
     7
370
     0
100
AcDbLine
 10
370.8775009455
 20
352.3250561364
 30
0.0
 11
320.8775009455
 21
352.3250561364
 31
0.0
  0
LINE
  5
18D
330
1F
100
AcDbEntity
  8
0
  6
Continuous
 62
     7
370
     0
100
AcDbLine
 10
395.221336512
 20
414.8739159854
 30
0.0
 11
395.221336512
 21
414.6056839504
 31
0.0
  0
LWPOLYLINE
  5
18E
330
1F
100
AcDbEntity
  8
0
  6
Continuous
 62
     7
370
     0
100
AcDbPolyline
 90
       28
 70
   128
 43
0.0
 10
428.7948513678
 20
439.8898567622
 10
428.7962614609
 20
439.8550182876
 10
428.7983585404
 20
439.5350455802
 10
428.7990609812
 20
438.8848577181
 10
428.7983585404
 20
437.9139359045
 10
428.7962614609
 20
436.6364383658
 10
428.792800323
 20
435.0709938928
 10
428.7880255979
 20
433.2404301909
 10
428.7820069118
 20
431.171441001
 10
428.7748320306
 20
428.8941968444
 10
428.7666055804
 20
426.4419050689
 10
428.7574475213
 20
423.8503256106
 10
428.7474913984
 20
421.1572495337
 10
428.7368823943
 20
418.4019479518
 10
428.7257752124
 20
415.6245993663
 10
428.7143318202
 20
412.8657037735
 10
428.7027190883
 20
410.1654920838
 10
428.6911063563
 20
407.563339464
 10
428.6796629641
 20
405.0971911587
 10
428.6685557822
 20
402.8030091635
 10
428.6579467781
 20
400.7142478181
 10
428.6479906552
 20
398.8613659661
 10
428.6388325961
 20
397.2713827975
 10
428.6306061459
 20
395.9674838471
 10
428.6234312647
 20
394.9686828978
 10
428.6174125786
 20
394.2895447165
 10
428.6126378535
 20
393.9399726671
 10
428.6105868087
 20
393.8902258227
  0
LINE
  5
18F
330
1F
100
AcDbEntity
  8
0
  6
Continuous
 62
     7
370
     0
100
AcDbLine
 10
345.8775009455
 20
458.8654400194
 30
0.0
 11
322.8775009455
 21
458.8654400194
 31
0.0
  0
LINE
  5
190
330
1F
100
AcDbEntity
  8
0
  6
Continuous
 62
     7
370
     0
100
AcDbLine
 10
368.8775009455
 20
458.8654400194
 30
0.0
 11
345.8775009455
 21
458.8654400194
 31
0.0
  0
LINE
  5
191
330
1F
100
AcDbEntity
  8
0
  6
Continuous
 62
     7
370
     0
100
AcDbLine
 10
389.8775009455
 20
416.9250561364
 30
0.0
 11
389.8775009455
 21
439.9250561364
 31
0.0
  0
LINE
  5
192
330
1F
100
AcDbEntity
  8
0
  6
Continuous
 62
     7
370
     0
100
AcDbLine
 10
389.8775009455
 20
393.9250561364
 30
0.0
 11
389.8775009455
 21
416.9250561364
 31
0.0
  0
LINE
  5
193
330
1F
100
AcDbEntity
  8
0
  6
Continuous
 62
     7
370
     0
100
AcDbLine
 10
345.8775009455
 20
460.3919265925
 30
0.0
 11
368.0313556211
 21
460.3919265925
 31
0.0
  0
LINE
  5
194
330
1F
100
AcDbEntity
  8
0
  6
Continuous
 62
     7
370
     0
100
AcDbLine
 10
323.7236462699
 20
460.3919265925
 30
0.0
 11
345.8775009455
 21
460.3919265925
 31
0.0
  0
LINE
  5
195
330
1F
100
AcDbEntity
  8
0
  6
Continuous
 62
     7
370
     0
100
AcDbLine
 10
392.7085617205
 20
395.4250561365
 30
0.0
 11
392.7085617205
 21
438.4250561365
 31
0.0
  0
LINE
  5
196
330
1F
100
AcDbEntity
  8
0
  6
Continuous
 62
     7
370
     0
100
AcDbLine
 10
394.2809813509
 20
438.3006572071
 30
0.0
 11
394.2809813509
 21
395.5494550659
 31
0.0
  0
LWPOLYLINE
  5
197
330
1F
100
AcDbEntity
  8
0
  6
Continuous
 62
     7
370
     0
100
AcDbPolyline
 90
       24
 70
   128
 43
0.0
 10
405.8796229354
 20
589.9112696582
 10
397.8594482143
 20
589.866055582
 10
393.8481150685
 20
589.745200715
 10
389.8389160443
 20
589.5115880904
 10
385.1044769533
 20
589.0443592592
 10
380.3893700802
 20
588.3199145662
 10
373.343723814
 20
586.6221688822
 10
371.0343479281
 20
585.870558437
 10
367.408954536
 20
584.4566968889
 10
363.8589169956
 20
582.7506693587
 10
360.4384598588
 20
580.7454558445
 10
357.1609197122
 20
578.4163771382
 10
355.2780636309
 20
576.8592444017
 10
353.4801392947
 20
575.1933706344
 10
350.9997340226
 20
572.5480998155
 10
346.6687771722
 20
566.5791373543
 10
344.8506185185
 20
563.2946496678
 10
342.1066944219
 20
556.7329472385
 10
340.7383661244
 20
552.1086108978
 10
339.322852893
 20
544.9104710909
 10
338.7050961481
 20
539.4785176374
 10
338.3738700326
 20
534.0048435793
 10
338.2454780473
 20
528.4958572066
 10
338.2256763072
 20
522.9826162721
  0
LWPOLYLINE
  5
198
330
1F
100
AcDbEntity
  8
0
  6
Continuous
 62
     7
370
     0
100
AcDbPolyline
 90
       24
 70
   128
 43
0.0
 10
337.668426962
 20
522.9826982377
 10
337.6876280304
 20
528.4849369354
 10
337.8121688078
 20
533.9871601387
 10
338.1369116633
 20
539.4948006791
 10
338.7489407491
 20
544.9915053932
 10
339.5735272106
 20
549.7194227019
 10
340.7260588201
 20
554.4004871423
 10
342.2752834552
 20
559.0558920576
 10
344.2553682896
 20
563.5877138721
 10
346.01778898
 20
566.8259921818
 10
350.3614031591
 20
572.924954324
 10
352.9481950861
 20
575.7256980116
 10
356.6744363225
 20
579.027620993
 10
359.8776523809
 20
581.3384035831
 10
363.318196168
 20
583.3946173105
 10
366.9426593045
 20
585.1710639563
 10
370.7459601176
 20
586.678251678
 10
375.3323519725
 20
588.0908244021
 10
380.0409381337
 20
589.1578532305
 10
384.879027787
 20
589.9210927886
 10
389.7686208564
 20
590.4138638564
 10
393.7860302238
 20
590.6520248745
 10
397.8121572209
 20
590.7759948516
 10
405.8797570306
 20
590.8229259394
  0
LWPOLYLINE
  5
199
330
1F
100
AcDbEntity
  8
0
  6
Continuous
 62
     7
370
     0
100
AcDbPolyline
 90
       21
 70
   128
 43
0.0
 10
405.8774476472
 20
575.122405818
 10
400.9180597545
 20
575.0952990338
 10
395.9587854217
 20
574.938042019
 10
390.990499889
 20
574.5336170341
 10
386.0409768811
 20
573.7739862903
 10
382.8637789339
 20
573.0439754559
 10
379.7295450657
 20
572.0961607229
 10
376.6262854748
 20
570.8923401898
 10
373.6149523486
 20
569.4204337327
 10
369.4392076939
 20
566.7516466164
 10
365.6163658085
 20
563.4358327336
 10
363.6964604079
 20
561.3268114606
 10
360.3640231473
 20
556.5775118143
 10
358.9753519748
 20
553.9702376269
 10
357.505127613
 20
550.5187032739
 10
356.3384547264
 20
546.9204614269
 10
355.445784197
 20
543.1629685482
 10
354.8156843641
 20
539.3322114203
 10
354.3959943875
 20
535.2751767766
 10
354.1714319926
 20
531.1922869101
 10
354.071128261
 20
522.9802855707
  0
LWPOLYLINE
  5
19A
330
1F
100
AcDbEntity
  8
0
  6
Continuous
 62
     7
370
     0
100
AcDbPolyline
 90
       21
 70
   128
 43
0.0
 10
353.5138789159
 20
522.9803675363
 10
353.526890697
 20
527.0875751935
 10
353.6110364368
 20
531.1947723875
 10
353.830420173
 20
535.3052794071
 10
354.2439458666
 20
539.4090984352
 10
354.8459776415
 20
543.1776756935
 10
355.703429167
 20
546.9132435587
 10
357.5827017564
 20
552.4621743735
 10
358.3818205642
 20
554.2598618605
 10
361.2954491342
 20
559.3431556451
 10
365.0843433505
 20
563.9677535183
 10
366.9160855356
 20
565.7105281735
 10
370.9956936984
 20
568.809196148
 10
373.2228604819
 20
570.1467044959
 10
379.292282473
 20
572.8572439663
 10
382.5418056306
 20
573.8656949801
 10
385.8715705386
 20
574.6464577913
 10
388.319899191
 20
575.0815358642
 10
395.7748942192
 20
575.8377391803
 10
400.8224216946
 20
576.005141438
 10
405.8775817424
 20
576.0340620992
  0
LINE
  5
19B
330
1F
100
AcDbEntity
  8
0
  6
Continuous
 62
     7
370
     0
100
AcDbLine
 10
353.5052060039
 20
463.3803681673
 30
0.0
 11
353.5139725445
 21
522.9803675226
 31
0.0
  0
LINE
  5
19C
330
1F
100
AcDbEntity
  8
0
  6
Continuous
 62
     7
370
     0
100
AcDbLine
 10
338.2255826786
 20
522.9826162858
 30
0.0
 11
338.216816138
 21
463.3826169306
 31
0.0
  0
LWPOLYLINE
  5
19D
330
1F
100
AcDbEntity
  8
0
  6
Continuous
 62
     7
370
     0
100
AcDbPolyline
 90
        9
 70
   128
 43
0.0
 10
353.5052060039
 20
463.3803681673
 10
353.5019485352
 20
463.3023325168
 10
353.4923242687
 20
463.2272966875
 10
353.4767030593
 20
463.1581442642
 10
353.4556852214
 20
463.0975327358
 10
353.4300784588
 20
463.0477913693
 10
353.400866825
 20
463.0108316975
 10
353.3691729067
 20
462.9880740599
 10
353.3362146833
 20
462.9803930198
  0
LWPOLYLINE
  5
19E
330
1F
100
AcDbEntity
  8
0
  6
Continuous
 62
     7
370
     0
100
AcDbPolyline
 90
        9
 70
   128
 43
0.0
 10
338.216816138
 20
463.3826169306
 10
338.22005065
 20
463.3045803252
 10
338.2296528422
 20
463.2295416678
 10
338.2452537077
 20
463.1603846521
 10
338.266253714
 20
463.0997669433
 10
338.2918458426
 20
463.050018046
 10
338.3210466024
 20
463.0130497824
 10
338.3527338246
 20
462.9902828221
 10
338.3856897869
 20
462.9825920867
  0
LWPOLYLINE
  5
19F
330
1F
100
AcDbEntity
  8
0
  6
Continuous
 62
     7
370
     0
100
AcDbPolyline
 90
        3
 70
   128
 43
0.0
 10
420.5244137349
 20
492.2392469078
 10
420.5249271301
 20
492.2140885014
 10
420.5253295611
 20
492.020768884
  0
LWPOLYLINE
  5
1A0
330
1F
100
AcDbEntity
  8
0
  6
Continuous
 62
     7
370
     0
100
AcDbPolyline
 90
        3
 70
   128
 43
0.0
 10
424.5252944692
 20
492.0047458908
 10
424.5248920382
 20
492.1980655083
 10
424.5243793358
 20
492.2232239439
  0
LWPOLYLINE
  5
1A1
330
1F
100
AcDbEntity
  8
0
  6
Continuous
 62
     7
370
     0
100
AcDbPolyline
 90
        7
 70
   128
 43
0.0
 10
520.0523487127
 20
575.2756672619
 10
519.8709050782
 20
575.2874812719
 10
519.3513201389
 20
575.2807953019
 10
518.5908874704
 20
575.2597593975
 10
517.4822950235
 20
575.2340712792
 10
515.6250703439
 20
575.2178517979
 10
514.1775869457
 20
575.2152051786
  0
ARC
  5
1A2
330
1F
100
AcDbEntity
  8
0
  6
Continuous
 62
     7
370
     0
100
AcDbCircle
 10
517.0039560817
 20
747.1750437982
 30
0.0
 40
171.0704264989733
100
AcDbArc
 50
269.0537287936
 51
271.3185668863
  0
ARC
  5
1A3
330
1F
100
AcDbEntity
  8
0
  6
Continuous
 62
     7
370
     0
100
AcDbCircle
 10
515.9342008026
 20
499.6882838159
 30
0.0
 40
91.02018733459957
100
AcDbArc
 50
87.0446673806
 51
90.8756726402
  0
LWPOLYLINE
  5
1A4
330
1F
100
AcDbEntity
  8
0
  6
Continuous
 62
     7
370
     0
100
AcDbPolyline
 90
        5
 70
   128
 43
0.0
 10
514.4043322372
 20
590.698003279
 10
514.4390391293
 20
590.6979624665
 10
514.4737460194
 20
590.6979209762
 10
514.5084529073
 20
590.6978786138
 10
514.5431597925
 20
590.6978351845
  0
LWPOLYLINE
  5
1A5
330
1F
100
AcDbEntity
  8
0
  6
Continuous
 62
     7
370
     0
100
AcDbPolyline
 90
        8
 70
   128
 43
0.0
 10
521.5117883561
 20
589.6303071297
 10
521.5117845115
 20
589.6303067855
 10
521.3144124821
 20
589.6317372109
 10
520.7494227713
 20
589.6653029555
 10
519.8020991093
 20
589.714397548
 10
518.405837459
 20
589.7595043295
 10
516.3098424152
 20
589.7826110992
 10
514.5427195238
 20
589.7849445061
  0
LWPOLYLINE
  5
1A6
330
1F
100
AcDbEntity
  8
0
  6
Continuous
 62
     7
370
     0
100
AcDbPolyline
 90
        5
 70
   128
 43
0.0
 10
514.4041397977
 20
589.7850589515
 10
487.273010594
 20
589.8166138694
 10
460.1418813824
 20
589.8481675726
 10
433.0107521629
 20
589.879720063
 10
405.8796229357
 20
589.9112713426
  0
LWPOLYLINE
  5
1A7
330
1F
100
AcDbEntity
  8
0
  6
Continuous
 62
     7
370
     0
100
AcDbPolyline
 90
        5
 70
   128
 43
0.0
 10
514.5427034956
 20
589.7848831402
 10
514.5080625717
 20
589.7849274618
 10
514.4734216464
 20
589.7849706209
 10
514.4387807199
 20
589.7850128157
 10
514.4041397925
 20
589.7850542438
  0
LWPOLYLINE
  5
1A8
330
1F
100
AcDbEntity
  8
0
  6
Continuous
 62
     7
370
     0
100
AcDbPolyline
 90
        5
 70
   128
 43
0.0
 10
405.8775817421
 20
576.0340604148
 10
432.9033482824
 20
576.0575387369
 10
459.9291148152
 20
576.0810182603
 10
486.9548813407
 20
576.1044989871
 10
513.9806478587
 20
576.1279809192
  0
ARC
  5
1A9
330
1F
100
AcDbEntity
  8
0
  6
Continuous
 62
     7
370
     0
100
AcDbCircle
 10
514.0810544118
 20
461.4263100132
 30
0.0
 40
114.7016792815226
100
AcDbArc
 50
89.9511927769
 51
90.0501538487
  0
LINE
  5
1AA
330
1F
100
AcDbEntity
  8
0
  6
Continuous
 62
     7
370
     0
100
AcDbLine
 10
337.6596669332
 20
463.3826988814
 30
0.0
 11
337.6684334737
 21
522.9826982367
 31
0.0
  0
LINE
  5
1AB
330
1F
100
AcDbEntity
  8
0
  6
Continuous
 62
     7
370
     0
100
AcDbLine
 10
354.0711217493
 20
522.9802855717
 30
0.0
 11
354.0623552087
 21
463.3802862164
 31
0.0
  0
ARC
  5
1AC
330
1F
100
AcDbEntity
  8
0
  6
Continuous
 62
     7
370
     0
100
AcDbCircle
 10
338.0556054042
 20
463.3785788337
 30
0.0
 40
0.3959599066533221
100
AcDbArc
 50
179.4038143683
 51
269.3915007176
  0
ARC
  5
1AD
330
1F
100
AcDbEntity
  8
0
  6
Continuous
 62
     7
370
     0
100
AcDbCircle
 10
353.6664155428
 20
463.3762826457
 30
0.0
 40
0.3959599066534876
100
AcDbArc
 50
270.591644055
 51
0.5793304042
  0
LWPOLYLINE
  5
1AE
330
1F
100
AcDbEntity
  8
0
  6
Continuous
 62
     7
370
     0
100
AcDbPolyline
 90
        5
 70
   128
 43
0.0
 10
513.9806881071
 20
575.2150378118
 10
486.954878003
 20
575.1918782986
 10
459.9290678916
 20
575.1687197908
 10
432.903257773
 20
575.1455622865
 10
405.8774476472
 20
575.1224057839
  0
LWPOLYLINE
  5
1AF
330
1F
100
AcDbEntity
  8
0
  6
Continuous
 62
     7
370
     0
100
AcDbPolyline
 90
        5
 70
   128
 43
0.0
 10
405.8797570306
 20
590.8229259735
 10
433.0109299382
 20
590.7916977558
 10
460.1421028383
 20
590.7604685286
 10
487.2732757308
 20
590.7292382899
 10
514.4044486158
 20
590.6980070381
  0
LWPOLYLINE
  5
1B0
330
1F
100
AcDbEntity
  8
0
  6
Continuous
 62
     7
370
     0
100
AcDbPolyline
 90
        4
 70
   128
 43
0.0
 10
514.1775869512
 20
575.2152053153
 10
514.079137643
 20
575.215125888
 10
514.0299129094
 20
575.2150843233
 10
513.9806881651
 20
575.2150422276
  0
LWPOLYLINE
  5
1B1
330
1F
100
AcDbEntity
  8
0
  6
Continuous
 62
     7
370
     0
100
AcDbPolyline
 90
        4
 70
   128
 43
0.0
 10
521.8210082291
 20
589.6497706696
 10
521.8213308295
 20
589.6497849025
 10
521.7436563204
 20
589.6463579003
 10
521.5118885958
 20
589.6302578014
  0
LWPOLYLINE
  5
1B2
330
1F
100
AcDbEntity
  8
0
  6
Continuous
 62
     7
370
     0
100
AcDbPolyline
 90
        3
 70
   128
 43
0.0
 10
520.9404016325
 20
576.1499504515
 10
521.1726630598
 20
576.1218715522
 10
521.2496295207
 20
576.1141962692
  0
LWPOLYLINE
  5
1B3
330
1F
100
AcDbEntity
  8
0
  6
Continuous
 62
     7
370
    15
100
AcDbPolyline
 90
       20
 70
   128
 43
0.0
 10
163.7126907397
 20
278.2589109358
 10
163.7179955711
 20
278.0778220342
 10
163.7468266592
 20
277.6099572598
 10
163.8073411117
 20
276.6997465382
 10
163.8978231127
 20
275.3012619905
 10
164.0114467114
 20
273.4390404591
 10
164.1394757739
 20
271.1794933107
 10
164.2732694618
 20
268.610596476
 10
164.405408384
 20
265.8279596772
 10
164.5302015947
 20
262.9257235703
 10
164.6956223396
 20
258.536071787
 10
164.8298843006
 20
254.3219950179
 10
164.9327731564
 20
250.4787757554
 10
165.0076846515
 20
247.1500751469
 10
165.0662212803
 20
244.0517692879
 10
165.1234173168
 20
240.3144878091
 10
165.1739838264
 20
235.872194235
 10
165.2120778434
 20
230.7078425922
 10
165.2341816778
 20
224.8248194515
 10
165.2430827114
 20
218.2501544005
  0
LWPOLYLINE
  5
1B4
330
1F
100
AcDbEntity
  8
0
  6
Continuous
 62
     7
370
    15
100
AcDbPolyline
 90
       16
 70
   128
 43
0.0
 10
198.378192688
 20
218.2501544005
 10
198.3904780778
 20
226.1436879243
 10
198.4281207737
 20
233.612961098
 10
198.5011615239
 20
240.557595187
 10
198.5786764044
 20
245.3698238478
 10
198.6724225308
 20
249.811259661
 10
198.77961978
 20
253.9130196192
 10
198.9092198899
 20
258.0482138053
 10
199.0621604913
 20
262.1861439025
 10
199.2332301222
 20
266.1693363402
 10
199.4126448971
 20
269.8194727937
 10
199.5859403352
 20
272.9507230803
 10
199.7352155439
 20
275.3949778351
 10
199.8426666835
 20
277.0442681005
 10
199.8976307325
 20
277.9172824711
 10
199.9085846596
 20
278.2588904951
  0
LWPOLYLINE
  5
1B5
330
1F
100
AcDbEntity
  8
0
  6
Continuous
 62
     7
370
    15
100
AcDbPolyline
 90
        9
 70
   128
 43
0.0
 10
165.337846737
 20
109.637221789
 10
165.4551444143
 20
107.4134154251
 10
165.8839897012
 20
105.7793213084
 10
166.4115855069
 20
104.8054127076
 10
166.7797990775
 20
104.3536275105
 10
167.206767743
 20
103.9577302612
 10
168.1381412499
 20
103.3724539218
 10
169.7297995111
 20
102.8414358061
 10
171.959622627
 20
102.5735171873
  0
LWPOLYLINE
  5
1B6
330
1F
100
AcDbEntity
  8
0
  6
Continuous
 62
     7
370
    15
100
AcDbPolyline
 90
        9
 70
   128
 43
0.0
 10
191.6616528519
 20
102.5735171946
 10
193.891586936
 20
102.8414671562
 10
195.4835082279
 20
103.3726444461
 10
196.4152198365
 20
103.9582703767
 10
196.842578762
 20
104.3547222315
 10
197.2109151712
 20
104.8070272622
 10
197.7381392089
 20
105.781095326
 10
198.1664257511
 20
107.4147495756
 10
198.2834286624
 20
109.6372217894
  0
ARC
  5
1B7
330
1F
100
AcDbEntity
  8
0
  6
Continuous
 62
     7
370
    15
100
AcDbCircle
 10
181.8106376997
 20
252.2496362888
 30
0.0
 40
150.0000006902717
100
AcDbArc
 50
266.1467785608
 51
273.8532214
  0
LINE
  5
1B8
330
1F
100
AcDbEntity
  8
0
  6
Continuous
 62
     7
370
    15
100
AcDbLine
 10
165.243021109
 20
218.3011768647
 30
0.0
 11
165.3379798647
 21
109.4864871285
 31
0.0
  0
LINE
  5
1B9
330
1F
100
AcDbEntity
  8
0
  6
Continuous
 62
     7
370
    15
100
AcDbLine
 10
198.2832955347
 20
109.4864871267
 30
0.0
 11
198.3782542904
 21
218.3011768647
 31
0.0
  0
LINE
  5
1BA
330
1F
100
AcDbEntity
  8
0
  6
Continuous
 62
     7
370
    15
100
AcDbLine
 10
199.9106376997
 20
278.2589715662
 30
0.0
 11
199.9106376997
 21
278.26774567
 31
0.0
  0
LINE
  5
1BB
330
1F
100
AcDbEntity
  8
0
  6
Continuous
 62
     7
370
    15
100
AcDbLine
 10
163.7106376997
 20
278.26774567
 30
0.0
 11
163.7106376997
 21
278.2589715662
 31
0.0
  0
ARC
  5
1BC
330
1F
100
AcDbEntity
  8
0
  6
Continuous
 62
     7
370
    15
100
AcDbCircle
 10
152.0253352503
 20
203.600107928
 30
0.0
 40
1.030480323097333
100
AcDbArc
 50
83.651201228
 51
179.0483295559
  0
LINE
  5
1BD
330
1F
100
AcDbEntity
  8
0
  6
Continuous
 62
     7
370
    15
100
AcDbLine
 10
150.978834938
 20
203.6182476197
 30
0.0
 11
150.9837336586
 21
199.6182827116
 31
0.0
  0
LWPOLYLINE
  5
1BE
330
1F
100
AcDbEntity
  8
0
  6
Continuous
 62
     7
370
    15
100
AcDbPolyline
 90
       14
 70
   128
 43
0.0
 10
150.9999132582
 20
199.6166156671
 10
151.0054714167
 20
199.4121255276
 10
151.124401793
 20
199.1080687695
 10
151.289149839
 20
198.9000617748
 10
151.4668673901
 20
198.7633878344
 10
151.6346143676
 20
198.6823430887
 10
151.7725110658
 20
198.6419219195
 10
151.8533035249
 20
198.627809888
 10
151.8907867606
 20
198.623503222
 10
151.9190881957
 20
198.6211359279
 10
151.9498602294
 20
198.6193314153
 10
152.007082288
 20
198.6173952946
 10
152.3688629935
 20
198.6130934012
 10
152.4198244919
 20
198.6128492687
  0
LWPOLYLINE
  5
1BF
330
1F
100
AcDbEntity
  8
0
  6
Continuous
 62
     7
370
    15
100
AcDbPolyline
 90
        6
 70
   128
 43
0.0
 10
204.8037113438
 20
256.2405127073
 10
204.8006798424
 20
258.7351609758
 10
204.7759375799
 20
263.1869914948
 10
204.7681556162
 20
267.7962488854
 10
204.7905818484
 20
272.9168685384
 10
204.8091637742
 20
278.2512609297
  0
LWPOLYLINE
  5
1C0
330
1F
100
AcDbEntity
  8
0
  6
Continuous
 62
     7
370
    15
100
AcDbPolyline
 90
        5
 70
   128
 43
0.0
 10
158.8157048208
 20
278.2512666544
 10
158.8280940751
 20
272.4701096933
 10
158.8488934201
 20
266.1002704262
 10
158.8272628356
 20
260.3138692239
 10
158.8144201718
 20
256.2467054047
  0
LINE
  5
1C1
330
1F
100
AcDbEntity
  8
0
  6
Continuous
 62
     7
370
    15
100
AcDbLine
 10
199.8455458852
 20
228.897018143
 30
0.0
 11
198.4521632937
 21
228.8982401459
 31
0.0
  0
LINE
  5
1C2
330
1F
100
AcDbEntity
  8
0
  6
Continuous
 62
     7
370
    15
100
AcDbLine
 10
204.8106376997
 20
234.2512557954
 30
0.0
 11
204.8106376997
 21
256.253331651
 31
0.0
  0
LINE
  5
1C3
330
1F
100
AcDbEntity
  8
0
  6
Continuous
 62
     7
370
    15
100
AcDbLine
 10
158.8106376997
 20
256.2507620087
 30
0.0
 11
158.8106376997
 21
234.2512557954
 31
0.0
  0
LINE
  5
1C4
330
1F
100
AcDbEntity
  8
0
  6
Continuous
 62
     7
370
    15
100
AcDbLine
 10
204.8213255633
 20
195.4542055221
 30
0.0
 11
204.781750917
 21
227.7681930583
 31
0.0
  0
LINE
  5
1C5
330
1F
100
AcDbEntity
  8
0
  6
Continuous
 62
     7
370
    15
100
AcDbLine
 10
158.7803332752
 20
228.8975758887
 30
0.0
 11
158.8099436443
 21
204.7197452242
 31
0.0
  0
LINE
  5
1C6
330
1F
100
AcDbEntity
  8
0
  6
Continuous
 62
     7
370
    15
100
AcDbLine
 10
158.8174290596
 20
198.6076598227
 30
0.0
 11
158.8213600603
 21
195.3978697832
 31
0.0
  0
ARC
  5
1C7
330
1F
100
AcDbEntity
  8
0
  6
Continuous
 62
     7
370
    15
100
AcDbCircle
 10
159.8106376997
 20
234.2512557954
 30
0.0
 40
1.0
100
AcDbArc
 50
180.0
 51
270.0
  0
ARC
  5
1C8
330
1F
100
AcDbEntity
  8
0
  6
Continuous
 62
     7
370
    15
100
AcDbCircle
 10
203.8106376997
 20
234.2512557954
 30
0.0
 40
1.0
100
AcDbArc
 50
270.0
 51
0.0
  0
ARC
  5
1C9
330
1F
100
AcDbEntity
  8
0
  6
Continuous
 62
     7
370
    15
100
AcDbCircle
 10
160.3068621077
 20
195.3611708148
 30
0.0
 40
1.461189309952178
100
AcDbArc
 50
178.5601095569
 51
263.9959846581
  0
LWPOLYLINE
  5
1CA
330
1F
100
AcDbEntity
  8
0
  6
Continuous
 62
     7
370
    15
100
AcDbPolyline
 90
       12
 70
   128
 43
0.0
 10
202.4033833869
 20
193.9261915765
 10
202.7578507777
 20
193.9318424425
 10
203.2311973792
 20
193.9432082237
 10
203.4022988765
 20
193.9518917878
 10
203.5040491632
 20
193.9621609303
 10
203.5951713127
 20
193.9766505057
 10
203.7359662258
 20
194.0102148152
 10
203.9601486246
 20
194.0948323544
 10
204.2911769347
 20
194.3078782731
 10
204.6043122202
 20
194.6751225171
 10
204.7936487132
 20
195.1655107186
 10
204.7966158437
 20
195.4544065523
  0
LINE
  5
1CB
330
1F
100
AcDbEntity
  8
0
  6
Continuous
 62
     7
370
    15
100
AcDbLine
 10
203.3106376997
 20
231.4201950204
 30
0.0
 11
203.3106376997
 21
233.2512557954
 31
0.0
  0
LINE
  5
1CC
330
1F
100
AcDbEntity
  8
0
  6
Continuous
 62
     7
370
    15
100
AcDbLine
 10
160.3106376997
 20
233.2512557954
 30
0.0
 11
160.3106376997
 21
231.4201950204
 31
0.0
  0
ARC
  5
1CD
330
1F
100
AcDbEntity
  8
0
  6
Continuous
 62
     7
370
    15
100
AcDbCircle
 10
170.3106376997
 20
231.4201950204
 30
0.0
 40
10.00000000000003
100
AcDbArc
 50
180.0
 51
189.0468459803
  0
ARC
  5
1CE
330
1F
100
AcDbEntity
  8
0
  6
Continuous
 62
     7
370
    15
100
AcDbCircle
 10
193.3106376997
 20
231.4201950204
 30
0.0
 40
10.00000000000003
100
AcDbArc
 50
350.9531540197
 51
0.0
  0
ARC
  5
1CF
330
1F
100
AcDbEntity
  8
0
  6
Continuous
 62
     7
370
    15
100
AcDbCircle
 10
181.8106376997
 20
233.2512557954
 30
0.0
 40
21.64486082191336
100
AcDbArc
 50
348.2947488002
 51
350.9531540197
  0
ARC
  5
1D0
330
1F
100
AcDbEntity
  8
0
  6
Continuous
 62
     7
370
    15
100
AcDbCircle
 10
181.8106376997
 20
233.2512557954
 30
0.0
 40
21.64486082191339
100
AcDbArc
 50
189.0468459803
 51
191.8413997124
  0
LINE
  5
1D1
330
1F
100
AcDbEntity
  8
0
  6
Continuous
 62
     7
370
    15
100
AcDbLine
 10
202.1875552675
 20
228.9078588774
 30
0.0
 11
201.2989044492
 21
228.9078588774
 31
0.0
  0
LINE
  5
1D2
330
1F
100
AcDbEntity
  8
0
  6
Continuous
 62
     7
370
    15
100
AcDbLine
 10
159.8123986864
 20
228.9078588774
 30
0.0
 11
158.9381372001
 21
228.9078588774
 31
0.0
  0
ARC
  5
1D3
330
1F
100
AcDbEntity
  8
0
  6
Continuous
 62
     7
370
    15
100
AcDbCircle
 10
215.3211025621
 20
290.7512557954
 30
0.0
 40
0.4999999999999716
100
AcDbArc
 50
90.0
 51
180.0
  0
ARC
  5
1D4
330
1F
100
AcDbEntity
  8
0
  6
Continuous
 62
     7
370
    15
100
AcDbCircle
 10
215.3211025621
 20
283.7512557954
 30
0.0
 40
0.4999999999999716
100
AcDbArc
 50
180.0
 51
270.0
  0
ARC
  5
1D5
330
1F
100
AcDbEntity
  8
0
  6
Continuous
 62
     7
370
    15
100
AcDbCircle
 10
233.8211025621
 20
284.2512557954
 30
0.0
 40
1.0
100
AcDbArc
 50
270.0
 51
0.0
  0
ARC
  5
1D6
330
1F
100
AcDbEntity
  8
0
  6
Continuous
 62
     7
370
    15
100
AcDbCircle
 10
233.8211025621
 20
290.2512557954
 30
0.0
 40
1.000000000000114
100
AcDbArc
 50
0.0
 51
90.0
  0
LINE
  5
1D7
330
1F
100
AcDbEntity
  8
0
  6
Continuous
 62
     7
370
    15
100
AcDbLine
 10
215.3211025621
 20
283.2512557954
 30
0.0
 11
233.8211025621
 21
283.2512557954
 31
0.0
  0
LINE
  5
1D8
330
1F
100
AcDbEntity
  8
0
  6
Continuous
 62
     7
370
    15
100
AcDbLine
 10
233.8211025621
 20
291.2512557954
 30
0.0
 11
215.3211025621
 21
291.2512557954
 31
0.0
  0
LINE
  5
1D9
330
1F
100
AcDbEntity
  8
0
  6
Continuous
 62
     7
370
    15
100
AcDbLine
 10
209.3035615958
 20
285.2512557954
 30
0.0
 11
214.7958506351
 21
285.2512557954
 31
0.0
  0
LINE
  5
1DA
330
1F
100
AcDbEntity
  8
0
  6
Continuous
 62
     7
370
    15
100
AcDbLine
 10
214.7844376085
 20
289.2512557954
 30
0.0
 11
209.3035615958
 21
289.2512557954
 31
0.0
  0
LINE
  5
1DB
330
1F
100
AcDbEntity
  8
0
  6
Continuous
 62
     7
370
    15
100
AcDbLine
 10
209.3035615958
 20
289.2512557954
 30
0.0
 11
202.0110065456
 21
289.2512557954
 31
0.0
  0
LINE
  5
1DC
330
1F
100
AcDbEntity
  8
0
  6
Continuous
 62
     7
370
    15
100
AcDbLine
 10
203.7120908345
 20
285.2512557954
 30
0.0
 11
209.3035615958
 21
285.2512557954
 31
0.0
  0
ARC
  5
1DD
330
1F
100
AcDbEntity
  8
0
  6
Continuous
 62
     7
370
    15
100
AcDbCircle
 10
181.8106376997
 20
210.1589212119
 30
0.0
 40
77.90882435208229
100
AcDbArc
 50
78.373012103
 51
101.626987897
  0
ARC
  5
1DE
330
1F
100
AcDbEntity
  8
0
  6
Continuous
 62
     7
370
    15
100
AcDbCircle
 10
181.8106380589
 20
278.2677456669
 30
0.0
 40
18.09999964076474
100
AcDbArc
 50
0.0000000098
 51
24.9818548971
  0
ARC
  5
1DF
330
1F
100
AcDbEntity
  8
0
  6
Continuous
 62
     7
370
    15
100
AcDbCircle
 10
197.3107887765
 20
285.4896093816
 30
0.0
 40
0.9999999980325633
100
AcDbArc
 50
24.9818550098
 51
78.3730122169
  0
ARC
  5
1E0
330
1F
100
AcDbEntity
  8
0
  6
Continuous
 62
     7
370
    15
100
AcDbCircle
 10
166.3104866229
 20
285.4896093816
 30
0.0
 40
0.9999999980328637
100
AcDbArc
 50
101.6269877831
 51
155.0181449902
  0
ARC
  5
1E1
330
1F
100
AcDbEntity
  8
0
  6
Continuous
 62
     7
370
    15
100
AcDbCircle
 10
181.8106373405
 20
278.2677456669
 30
0.0
 40
18.09999964076505
100
AcDbArc
 50
155.0181451029
 51
179.9999999902
  0
LWPOLYLINE
  5
1E2
330
1F
100
AcDbEntity
  8
0
  6
Continuous
 62
     7
370
    15
100
AcDbPolyline
 90
        3
 70
   128
 43
0.0
 10
165.2602065817
 20
198.6080810009
 10
165.147259965
 20
198.6079817674
 10
164.3785255897
 20
198.6076598227
  0
LINE
  5
1E3
330
1F
100
AcDbEntity
  8
0
  6
Continuous
 62
     7
370
    15
100
AcDbLine
 10
164.3785255897
 20
198.6076598227
 30
0.0
 11
154.8154780301
 21
198.6076598227
 31
0.0
  0
LINE
  5
1E4
330
1F
100
AcDbEntity
  8
0
  6
Continuous
 62
     7
370
    15
100
AcDbLine
 10
165.2547925692
 20
204.8120806914
 30
0.0
 11
152.1523874843
 21
204.6243622967
 31
0.0
  0
ARC
  5
1E5
330
1F
100
AcDbEntity
  8
0
  6
Continuous
 62
     7
370
    15
100
AcDbCircle
 10
154.4100480725
 20
568.8763777555
 30
0.0
 40
370.2689398978349
100
AcDbArc
 50
269.6916125291
 51
270.0627366425
  0
ARC
  5
1E6
330
1F
100
AcDbEntity
  8
0
  6
Continuous
 62
     7
370
    15
100
AcDbCircle
 10
181.7779344575
 20
278.3197679194
 30
0.0
 40
22.96739894436102
100
AcDbArc
 50
318.9851124357
 51
180.1709144941
  0
ARC
  5
1E7
330
1F
100
AcDbEntity
  8
0
  6
Continuous
 62
     7
370
    15
100
AcDbCircle
 10
180.6617890588
 20
277.9705736749
 30
0.0
 40
21.8529539918367
100
AcDbArc
 50
179.2640654851
 51
222.3695557954
  0
LINE
  5
1E8
330
1F
100
AcDbEntity
  8
0
  6
Continuous
 62
     7
370
    15
100
AcDbLine
 10
201.2175487152
 20
228.9074202289
 30
0.0
 11
200.0314358341
 21
228.8984275011
 31
0.0
  0
LINE
  5
1E9
330
1F
100
AcDbEntity
  8
0
  6
Continuous
 62
     7
370
    15
100
AcDbLine
 10
165.2190683007
 20
228.8473046856
 30
0.0
 11
164.4132916788
 21
228.849726923
 31
0.0
  0
LINE
  5
1EA
330
1F
100
AcDbEntity
  8
0
  6
Continuous
 62
     7
370
    15
100
AcDbLine
 10
164.4132916788
 20
228.849726923
 30
0.0
 11
162.44256567
 21
228.8592052894
 31
0.0
  0
LINE
  5
1EB
330
1F
100
AcDbEntity
  8
0
  6
Continuous
 62
     7
370
    15
100
AcDbLine
 10
162.44256567
 20
228.8592052894
 30
0.0
 11
160.9429575337
 21
228.8707304785
 31
0.0
  0
LINE
  5
1EC
330
1F
100
AcDbEntity
  8
0
  6
Continuous
 62
     7
370
    15
100
AcDbLine
 10
160.9429575337
 20
228.8707304785
 30
0.0
 11
159.9909031111
 21
228.8842697066
 31
0.0
  0
LWPOLYLINE
  5
1ED
330
1F
100
AcDbEntity
  8
0
  6
Continuous
 62
     7
370
    15
100
AcDbPolyline
 90
        3
 70
   128
 43
0.0
 10
159.9909031111
 20
228.8842697066
 10
159.6940209083
 20
228.8955799859
 10
159.7851848089
 20
228.9074202289
  0
LINE
  5
1EE
330
1F
100
AcDbEntity
  8
0
  6
Continuous
 62
     7
370
    15
100
AcDbLine
 10
159.8123934874
 20
228.9056978345
 30
0.0
 11
159.7854629548
 21
228.9074204984
 31
0.0
  0
LWPOLYLINE
  5
1EF
330
1F
100
AcDbEntity
  8
0
  6
Continuous
 62
     7
370
    15
100
AcDbPolyline
 90
        4
 70
   128
 43
0.0
 10
202.094896169
 20
228.9074202289
 10
200.6583482063
 20
228.8962337025
 10
198.9505035326
 20
228.8854712658
 10
198.4564240223
 20
228.8827152301
  0
LWPOLYLINE
  5
1F0
330
1F
100
AcDbEntity
  8
0
  6
Continuous
 62
     7
370
    15
100
AcDbPolyline
 90
        9
 70
   128
 43
0.0
 10
165.1734653628
 20
228.8416637494
 10
164.7076261475
 20
228.8430995865
 10
162.9860738625
 20
228.8496185331
 10
161.5346141399
 20
228.8572314774
 10
160.3741059467
 20
228.8658290136
 10
159.5212269776
 20
228.8752875862
 10
158.9882339792
 20
228.8854712658
 10
158.7827866085
 20
228.8962337025
 10
158.9078373551
 20
228.9074202289
  0
ARC
  5
1F1
330
1F
100
AcDbEntity
  8
0
  6
Continuous
 62
     7
370
    15
100
AcDbCircle
 10
202.5830014316
 20
225.7667534442
 30
0.0
 40
3.178369802260959
100
AcDbArc
 50
49.5160579905
 51
98.8339253075
  0
ELLIPSE
  5
1F2
330
1F
100
AcDbEntity
  8
0
  6
Continuous
 62
     7
370
    15
100
AcDbEllipse
 10
181.7803160267
 20
228.9257437582
 30
0.0
 11
23.00060511100031
 21
-1.190438894791214
 31
0.0
210
0.0
220
0.0
230
1.0
 40
0.1641666762
 41
0.0086981356434551
 42
0.1169904314727706
  0
LINE
  5
1F3
330
1F
100
AcDbEntity
  8
0
  6
Continuous
 62
     7
370
    15
100
AcDbLine
 10
158.9078373551
 20
228.9074202289
 30
0.0
 11
158.9381249739
 21
228.904672315
 31
0.0
  0
LINE
  5
1F4
330
1F
100
AcDbEntity
  8
0
  6
Continuous
 62
     7
370
    15
100
AcDbLine
 10
203.8106375522
 20
233.2512557954
 30
0.0
 11
198.5329189454
 21
233.2512557954
 31
0.0
  0
LINE
  5
1F5
330
1F
100
AcDbEntity
  8
0
  6
Continuous
 62
     7
370
    15
100
AcDbLine
 10
165.1031502346
 20
233.2512557954
 30
0.0
 11
159.8106376997
 21
233.2512557954
 31
0.0
  0
LWPOLYLINE
  5
1F6
330
1F
100
AcDbEntity
  8
0
  6
Continuous
 62
     7
370
    15
100
AcDbPolyline
 90
        5
 70
   128
 43
0.0
 10
202.3837320852
 20
193.9260508121
 10
201.4337692415
 20
193.9147634608
 10
200.1745356879
 20
193.9036541177
 10
198.6258902899
 20
193.8928979839
 10
198.3569526017
 20
193.8912461827
  0
ARC
  5
1F7
330
1F
100
AcDbEntity
  8
0
  6
Continuous
 62
     7
370
    15
100
AcDbCircle
 10
164.5257393672
 20
378.9920404622
 30
0.0
 40
185.1426742418961
100
AcDbArc
 50
268.7032494174
 51
270.2285796408
  0
LINE
  5
1F8
330
1F
100
AcDbEntity
  8
0
  6
Continuous
 62
     7
370
    15
100
AcDbLine
 10
214.8211025621
 20
283.7512557954
 30
0.0
 11
214.8211025621
 21
290.7512557954
 31
0.0
  0
LINE
  5
1F9
330
1F
100
AcDbEntity
  8
0
  6
Continuous
 62
     7
370
    15
100
AcDbLine
 10
234.8211025621
 20
290.251255434
 30
0.0
 11
234.8211025621
 21
284.2512557954
 31
0.0
  0
ARC
  5
1FA
330
1F
100
AcDbEntity
  8
0
  6
Continuous
 62
     7
370
    15
100
AcDbCircle
 10
181.8106376997
 20
278.2512557954
 30
0.0
 40
25.00000000000001
100
AcDbArc
 50
337.4454150071
 51
0.0
  0
ARC
  5
1FB
330
1F
100
AcDbEntity
  8
0
  6
Continuous
 62
     7
370
    15
100
AcDbCircle
 10
181.8106376997
 20
278.2512557954
 30
0.0
 40
25.00000000000002
100
AcDbArc
 50
26.1038811373
 51
203.003062199
  0
ARC
  5
1FC
330
1F
100
AcDbEntity
  8
0
  6
Continuous
 62
     7
370
    15
100
AcDbCircle
 10
181.8106376997
 20
278.2512557954
 30
0.0
 40
25.0
100
AcDbArc
 50
0.0
 51
16.2602047083
  0
LWPOLYLINE
  5
1FD
330
1F
100
AcDbEntity
  8
0
  6
Continuous
 62
     7
370
     0
100
AcDbPolyline
 90
       24
 70
   128
 43
0.0
 10
165.5445358041
 20
218.2491338055
 10
165.5376953067
 20
226.2693085266
 10
165.5333680733
 20
230.2806416724
 10
165.5280897716
 20
234.2898406966
 10
165.520430582
 20
239.0242797876
 10
165.5112047745
 20
243.7393866607
 10
165.494710458
 20
250.7850329269
 10
165.4887255299
 20
253.0944088128
 10
165.4789138279
 20
256.7198022049
 10
165.4689711509
 20
260.2698397453
 10
165.4592478039
 20
263.6902968822
 10
165.449947968
 20
266.9678370287
 10
165.4446669331
 20
268.85069311
 10
165.4396952871
 20
270.6486174462
 10
165.4329932227
 20
273.1290227184
 10
165.4219130159
 20
277.4599795687
 10
165.4175842502
 20
279.2781382225
 10
165.4115452315
 20
282.022062319
 10
165.4087993044
 20
283.3903906166
 10
165.4061429466
 20
284.8059038479
 10
165.4050038349
 20
285.4236605928
 10
165.4043584685
 20
285.7548867084
 10
165.4040790657
 20
285.8832786936
 10
165.4040314114
 20
285.9030804337
  0
ARC
  5
1FE
330
1F
100
AcDbEntity
  8
0
  6
Continuous
 62
     7
370
     0
100
AcDbCircle
 10
166.3104866229
 20
285.480842841
 30
0.0
 40
0.9999999980325374
100
AcDbArc
 50
101.6269877831
 51
155.0181449902
  0
LWPOLYLINE
  5
1FF
330
1F
100
AcDbEntity
  8
0
  6
Continuous
 62
     7
370
     0
100
AcDbPolyline
 90
       24
 70
   128
 43
0.0
 10
166.1089851966
 20
286.4603297789
 10
166.1092883309
 20
286.4411287105
 10
166.1112372659
 20
286.3165879331
 10
166.1160938597
 20
285.9918450776
 10
166.1248066879
 20
285.3798159918
 10
166.1359971397
 20
284.5552295303
 10
166.1509089138
 20
283.4026979208
 10
166.169935306
 20
281.8534732857
 10
166.1928797903
 20
279.8733884513
 10
166.2121870661
 20
278.1109677609
 10
166.2558633434
 20
273.7673535818
 10
166.2794777724
 20
271.1805616548
 10
166.3106069783
 20
267.4543204184
 10
166.3348006609
 20
264.25110436
 10
166.358290291
 20
260.8105605729
 10
166.3803765414
 20
257.1860974365
 10
166.400760333
 20
253.3827966233
 10
166.4217318452
 20
248.7964047684
 10
166.4393950271
 20
244.0878186073
 10
166.4537656616
 20
239.2497289539
 10
166.4647936755
 20
234.3601358845
 10
166.4715885005
 20
230.3427265172
 10
166.4767410351
 20
226.31659952
 10
166.4840019718
 20
218.2489997103
  0
LWPOLYLINE
  5
200
330
1F
100
AcDbEntity
  8
0
  6
Continuous
 62
     7
370
     0
100
AcDbPolyline
 90
       23
 70
   128
 43
0.0
 10
198.217243988
 20
285.9030804337
 10
198.2169213945
 20
285.7570498381
 10
198.2162779371
 20
285.427048993
 10
198.2151309774
 20
284.8050988493
 10
198.213591751
 20
283.9745373699
 10
198.2113467619
 20
282.8161633114
 10
198.20812316
 20
281.2612420949
 10
198.2036872059
 20
279.2764358653
 10
198.1995161917
 20
277.5230235723
 10
198.1944973763
 20
275.5128799278
 10
198.1885013063
 20
273.2115118253
 10
198.1815801108
 20
270.6486174445
 10
198.1709048216
 20
266.8180666003
 10
198.161885487
 20
263.6403891432
 10
198.152269184
 20
260.2574509106
 10
198.1421630442
 20
256.6479170003
 10
198.1320141274
 20
252.8912764685
 10
198.1204922644
 20
248.3317002166
 10
198.1098914624
 20
243.6548162635
 10
198.1005417816
 20
238.8542315228
 10
198.0927759359
 20
234.0053460065
 10
198.0834519196
 20
226.137879158
 10
198.0767395953
 20
218.2491338055
  0
LWPOLYLINE
  5
201
330
1F
100
AcDbEntity
  8
0
  6
Continuous
 62
     7
370
     0
100
AcDbPolyline
 90
       25
 70
   128
 43
0.0
 10
197.1372734276
 20
218.2489997103
 10
197.1443625863
 20
226.1609810943
 10
197.1493596415
 20
230.1181586434
 10
197.1559335094
 20
234.0733037731
 10
197.1665652559
 20
238.8825663775
 10
197.1805010576
 20
243.6724359018
 10
197.2083715772
 20
250.8306139003
 10
197.2194899757
 20
253.1768002832
 10
197.2390916569
 20
256.8689392559
 10
197.2609673962
 20
260.4959467856
 10
197.284434857
 20
263.9664357732
 10
197.3094699056
 20
267.302567491
 10
197.3255771553
 20
269.2884013307
 10
197.3417976249
 20
271.1805616551
 10
197.3646154714
 20
273.6830586705
 10
197.4083818231
 20
278.0447480946
 10
197.4283764373
 20
279.8716828171
 10
197.4399076162
 20
280.8821123611
 10
197.4605032336
 20
282.6101982878
 10
197.4848603949
 20
284.5237268734
 10
197.4964576493
 20
285.379020423
 10
197.50512454
 20
285.9879490931
 10
197.5100033713
 20
286.3143256548
 10
197.5119819494
 20
286.4408091388
 10
197.5122902028
 20
286.4603297789
  0
ARC
  5
202
330
1F
100
AcDbEntity
  8
0
  6
Continuous
 62
     7
370
     0
100
AcDbCircle
 10
197.3107887765
 20
285.480842841
 30
0.0
 40
0.9999999980316958
100
AcDbArc
 50
24.9766623582
 51
78.3752130829
  0
ARC
  5
203
330
1F
100
AcDbEntity
  8
0
  6
Continuous
 62
     7
370
     0
100
AcDbCircle
 10
181.8106376997
 20
210.1501546713
 30
0.0
 40
77.90882435208282
100
AcDbArc
 50
78.3730262277
 51
101.6269737723
  0
LWPOLYLINE
  5
204
330
1F
100
AcDbEntity
  8
0
  6
Continuous
 62
     7
370
     0
100
AcDbPolyline
 90
        5
 70
   128
 43
0.0
 10
197.0513379603
 20
109.7241193278
 10
197.0728342101
 20
136.8553394121
 10
197.0943223573
 20
163.9865595039
 10
197.1158024096
 20
191.1177796033
 10
197.1372743743
 20
218.2489997103
  0
LWPOLYLINE
  5
205
330
1F
100
AcDbEntity
  8
0
  6
Continuous
 62
     7
370
     0
100
AcDbPolyline
 90
        5
 70
   128
 43
0.0
 10
166.4840010251
 20
218.2489997103
 10
166.5054729525
 20
191.1178268027
 10
166.5269529673
 20
163.9866539026
 10
166.5484410771
 20
136.8554810101
 10
166.5699372895
 20
109.7243081251
  0
LWPOLYLINE
  5
206
330
1F
100
AcDbEntity
  8
0
  6
Continuous
 62
     7
370
     0
100
AcDbPolyline
 90
        5
 70
   128
 43
0.0
 10
197.0511887196
 20
109.5855969222
 10
197.0512249005
 20
109.6202658257
 10
197.0512596927
 20
109.654934732
 10
197.0512931057
 20
109.6896036409
 10
197.051325149
 20
109.724272552
  0
LWPOLYLINE
  5
207
330
1F
100
AcDbEntity
  8
0
  6
Continuous
 62
     7
370
     0
100
AcDbPolyline
 90
        7
 70
   128
 43
0.0
 10
191.3985868518
 20
103.5017929317
 10
193.1038407381
 20
103.6823106865
 10
194.7866337571
 20
104.1936814774
 10
195.8481306893
 20
104.9508122377
 10
196.5557855664
 20
106.0661870623
 10
196.9904065421
 20
107.9066297559
 10
197.0510850313
 20
109.5855970251
  0
ARC
  5
208
330
1F
100
AcDbEntity
  8
0
  6
Continuous
 62
     7
370
     0
100
AcDbCircle
 10
181.8106329253
 20
244.557103141
 30
0.0
 40
141.3808978077606
100
AcDbArc
 50
266.1114307969
 51
273.8885850579
  0
LWPOLYLINE
  5
209
330
1F
100
AcDbEntity
  8
0
  6
Continuous
 62
     7
370
     0
100
AcDbPolyline
 90
        7
 70
   128
 43
0.0
 10
166.5701903592
 20
109.5855970513
 10
166.6308685155
 20
107.9066328778
 10
167.0654899438
 20
106.0661913049
 10
167.773145594
 20
104.9508144931
 10
168.8346429193
 20
104.1936818774
 10
170.453843974
 20
103.6935531979
 10
172.2227180315
 20
103.5017902789
  0
LWPOLYLINE
  5
20A
330
1F
100
AcDbEntity
  8
0
  6
Continuous
 62
     7
370
     0
100
AcDbPolyline
 90
        5
 70
   128
 43
0.0
 10
166.5699501089
 20
109.7244245037
 10
166.5699821812
 20
109.6897176116
 10
166.570015626
 20
109.6550107215
 10
166.5700504527
 20
109.6203038336
 10
166.5700866709
 20
109.5855969484
  0
LWPOLYLINE
  5
20B
330
1F
100
AcDbEntity
  8
0
  6
Continuous
 62
     7
370
     0
100
AcDbPolyline
 90
        8
 70
   128
 43
0.0
 10
172.1713853913
 20
102.6169683848
 10
172.1713255156
 20
102.6169722294
 10
170.2895148526
 20
102.8143442588
 10
168.4311238846
 20
103.3793339696
 10
167.0868936651
 20
104.3266576316
 10
166.1880831519
 20
105.7229192819
 10
165.6929219032
 20
107.8189143257
 10
165.6302825748
 20
109.5860372171
  0
LWPOLYLINE
  5
20C
330
1F
100
AcDbEntity
  8
0
  6
Continuous
 62
     7
370
     0
100
AcDbPolyline
 90
        8
 70
   128
 43
0.0
 10
197.9909928253
 20
109.5860372169
 10
197.9283534254
 20
107.8189126461
 10
197.4331924091
 20
105.7229181812
 10
196.534382024
 20
104.3266568674
 10
195.190152024
 20
103.3793335854
 10
193.4016502384
 20
102.8268717989
 10
191.4499504065
 20
102.6169720389
 10
191.4498905308
 20
102.6169681944
  0
ARC
  5
20D
330
1F
100
AcDbEntity
  8
0
  6
Continuous
 62
     7
370
     0
100
AcDbCircle
 10
150.8097877844
 20
100.703040262
 30
0.0
 40
40.68517685104955
100
AcDbArc
 50
2.6961841631
 51
3.9443753272
  0
ARC
  5
20E
330
1F
100
AcDbEntity
  8
0
  6
Continuous
 62
     7
370
     0
100
AcDbCircle
 10
181.8106394413
 20
252.6190395388
 30
0.0
 40
150.311567538453
100
AcDbArc
 50
266.3231712739
 51
273.6768275958
  0
LWPOLYLINE
  5
20F
330
1F
100
AcDbEntity
  8
0
  6
Continuous
 62
     7
370
     0
100
AcDbPolyline
 90
        5
 70
   128
 43
0.0
 10
198.0767401978
 20
218.2491338052
 10
198.0553695427
 20
191.1179573787
 10
198.0339907603
 20
163.9867809599
 10
198.012603843
 20
136.855604549
 10
197.9912087832
 20
109.7244281458
  0
LWPOLYLINE
  5
210
330
1F
100
AcDbEntity
  8
0
  6
Continuous
 62
     7
370
     0
100
AcDbPolyline
 90
        5
 70
   128
 43
0.0
 10
165.6300664673
 20
109.7246169432
 10
165.6086714447
 20
136.8557461469
 10
165.5872845647
 20
163.9868753586
 10
165.5659058195
 20
191.118004578
 10
165.5445352016
 20
218.2491338052
  0
LWPOLYLINE
  5
211
330
1F
100
AcDbEntity
  8
0
  6
Continuous
 62
     7
370
     0
100
AcDbPolyline
 90
        5
 70
   128
 43
0.0
 10
165.6301745
 20
109.5860532453
 10
165.6301475234
 20
109.6206941692
 10
165.6301204472
 20
109.6553350945
 10
165.6300932882
 20
109.689976021
 10
165.6300660635
 20
109.7246169484
  0
LWPOLYLINE
  5
212
330
1F
100
AcDbEntity
  8
0
  6
Continuous
 62
     7
370
     0
100
AcDbPolyline
 90
        5
 70
   128
 43
0.0
 10
197.9912091879
 20
109.7244281511
 10
197.9911820006
 20
109.689834423
 10
197.991154879
 20
109.6552406957
 10
197.9911278398
 20
109.6206469695
 10
197.9911009002
 20
109.5860532446
  0
LWPOLYLINE
  5
213
330
1F
100
AcDbEntity
  8
0
  6
Continuous
 62
     7
370
     0
100
AcDbPolyline
 90
        4
 70
   128
 43
0.0
 10
165.404025907
 20
285.9031329882
 10
164.195529207
 20
282.42046353
 10
163.7106376997
 20
278.2589791294
 10
163.7106730506
 20
278.2586757375
  0
ARC
  5
214
330
1F
100
AcDbEntity
  8
0
  6
Continuous
 62
     7
370
     0
100
AcDbCircle
 10
184.9301358989
 20
278.9500774722
 30
0.0
 40
14.99641185943478
100
AcDbArc
 50
357.3573937074
 51
27.6227543081
  0
LINE
  5
215
330
1F
100
AcDbEntity
  8
0
  6
Continuous
 62
     7
370
     0
100
AcDbLine
 10
172.1713517202
 20
102.6168689994
 30
0.0
 11
172.0268634866
 21
102.6355046616
 31
0.0
  0
LINE
  5
216
330
1F
100
AcDbEntity
  8
0
  6
Continuous
 62
     7
370
     0
100
AcDbLine
 10
165.337848608
 20
109.6375047174
 30
0.0
 11
165.6301774862
 21
109.5860541537
 31
0.0
  0
LINE
  5
217
330
1F
100
AcDbEntity
  8
0
  6
Continuous
 62
     7
370
     0
100
AcDbLine
 10
197.9910979139
 20
109.586054153
 30
0.0
 11
198.2834267914
 21
109.6375047157
 31
0.0
  0
LINE
  5
218
330
1F
100
AcDbEntity
  8
0
  6
Continuous
 62
     7
370
     0
100
AcDbLine
 10
166.1089473194
 20
286.4690898078
 30
0.0
 11
166.1089473194
 21
286.4603232672
 31
0.0
  0
LINE
  5
219
330
1F
100
AcDbEntity
  8
0
  6
Continuous
 62
     7
370
     0
100
AcDbLine
 10
197.51232808
 20
286.4603232672
 30
0.0
 11
197.51232808
 21
286.4690898078
 31
0.0
  0
LINE
  5
21A
330
1F
100
AcDbEntity
  8
0
  6
Continuous
 62
     7
370
     0
100
AcDbLine
 10
165.4040450442
 20
285.9031740623
 30
0.0
 11
165.4040450442
 21
285.9119406029
 31
0.0
  0
LWPOLYLINE
  5
21B
330
1F
100
AcDbEntity
  8
0
  6
Continuous
 62
     7
370
     0
100
AcDbPolyline
 90
        3
 70
   128
 43
0.0
 10
165.2558467971
 20
203.6040248178
 10
165.0409510183
 20
203.6038296108
 10
164.0800330492
 20
203.6034271799
  0
LWPOLYLINE
  5
21C
330
1F
100
AcDbEntity
  8
0
  6
Continuous
 62
     7
370
     0
100
AcDbPolyline
 90
        3
 70
   128
 43
0.0
 10
164.0849317698
 20
199.6034622717
 10
165.0458497389
 20
199.6038647027
 10
165.2593374271
 20
199.6040585092
  0
LINE
  5
21D
330
1F
100
AcDbEntity
  8
0
  6
Continuous
 62
     7
370
     0
100
AcDbLine
 10
164.0800330492
 20
203.6034271799
 30
0.0
 11
154.5169854896
 21
203.6034271799
 31
0.0
  0
LINE
  5
21E
330
1F
100
AcDbEntity
  8
0
  6
Continuous
 62
     7
370
     0
100
AcDbLine
 10
154.5218842102
 20
199.6034622717
 30
0.0
 11
164.0849317698
 21
199.6034622717
 31
0.0
  0
ARC
  5
21F
330
1F
100
AcDbEntity
  8
0
  6
Continuous
 62
     7
370
     0
100
AcDbCircle
 10
153.3624935476
 20
350.3418844409
 30
0.0
 40
146.742998780192
100
AcDbArc
 50
269.0692599601
 51
270.4507758374
  0
ARC
  5
220
330
1F
100
AcDbEntity
  8
0
  6
Continuous
 62
     7
370
     0
100
AcDbCircle
 10
153.6394844402
 20
411.2909206508
 30
0.0
 40
211.6892974724024
100
AcDbArc
 50
269.2811762105
 51
270.2388308227
  0
LWPOLYLINE
  5
221
330
1F
100
AcDbEntity
  8
0
  6
Continuous
 62
     7
370
     0
100
AcDbPolyline
 90
        3
 70
   128
 43
0.0
 10
200.0314358341
 20
228.8984275011
 10
199.6558573781
 20
228.8955799855
 10
198.4043086827
 20
228.8880335016
  0
LINE
  5
222
330
1F
100
AcDbEntity
  8
0
  6
Continuous
 62
     7
370
     0
100
AcDbLine
 10
158.8106376997
 20
234.2512557954
 30
0.0
 11
165.1228046685
 21
234.2512557954
 31
0.0
  0
LINE
  5
223
330
1F
100
AcDbEntity
  8
0
  6
Continuous
 62
     7
370
     0
100
AcDbLine
 10
198.4625680759
 20
234.2512557954
 30
0.0
 11
204.8106376997
 21
234.2512557954
 31
0.0
  0
LINE
  5
224
330
1F
100
AcDbEntity
  8
0
  6
Continuous
 62
     7
370
     0
100
AcDbLine
 10
202.094896169
 20
228.9074202289
 30
0.0
 11
201.2175487152
 21
228.9074202289
 31
0.0
  0
LINE
  5
225
330
1F
100
AcDbEntity
  8
0
  6
Continuous
 62
     7
370
     0
100
AcDbLine
 10
159.7851848089
 20
228.9074202289
 30
0.0
 11
158.9078373551
 21
228.9074202289
 31
0.0
  0
LINE
  5
226
330
1F
100
AcDbEntity
  8
0
  6
Continuous
 62
     7
370
     0
100
AcDbLine
 10
233.8211025621
 20
291.2512557954
 30
0.0
 11
233.8211025621
 21
283.2512557954
 31
0.0
  0
ENDSEC
  0
SECTION
  2
OBJECTS
  0
DICTIONARY
  5
C
330
0
100
AcDbDictionary
281
     1
  3
ACAD_GROUP
350
D
  3
ACAD_LAYOUT
350
1A
  3
ACAD_MATERIAL
350
3B
  3
ACAD_MLEADERSTYLE
350
228
  3
ACAD_MLINESTYLE
350
17
  3
ACAD_PLOTSETTINGS
350
19
  3
ACAD_PLOTSTYLENAME
350
E
  3
ACAD_TABLESTYLE
350
227
  3
ACAD_VISUALSTYLE
350
2A
  0
DICTIONARY
  5
D
102
{ACAD_REACTORS
330
C
102
}
330
C
100
AcDbDictionary
281
     1
  0
DICTIONARY
  5
1A
102
{ACAD_REACTORS
330
C
102
}
330
C
100
AcDbDictionary
281
     1
  3
Layout1
350
1E
  3
Layout2
350
26
  3
Model
350
22
  0
DICTIONARY
  5
3B
102
{ACAD_REACTORS
330
C
102
}
330
C
100
AcDbDictionary
281
     1
  3
ByBlock
350
3D
  3
ByLayer
350
3C
  3
Global
350
3E
  0
DICTIONARY
  5
228
102
{ACAD_REACTORS
330
C
102
}
330
C
100
AcDbDictionary
281
     1
  0
DICTIONARY
  5
17
102
{ACAD_REACTORS
330
C
102
}
330
C
100
AcDbDictionary
281
     1
  3
Standard
350
18
  0
DICTIONARY
  5
19
102
{ACAD_REACTORS
330
C
102
}
330
C
100
AcDbDictionary
281
     1
  0
ACDBDICTIONARYWDFLT
  5
E
102
{ACAD_REACTORS
330
C
102
}
330
C
100
AcDbDictionary
281
     1
  3
Normal
350
F
100
AcDbDictionaryWithDefault
340
F
  0
DICTIONARY
  5
227
102
{ACAD_REACTORS
330
C
102
}
330
C
100
AcDbDictionary
281
     1
  0
DICTIONARY
  5
2A
102
{ACAD_REACTORS
330
C
102
}
330
C
100
AcDbDictionary
281
     1
  3
2dWireframe
350
2F
  3
3D Hidden
350
31
  3
3dWireframe
350
30
  3
Basic
350
32
  3
Brighten
350
36
  3
ColorChange
350
3A
  3
Conceptual
350
34
  3
Dim
350
35
  3
Facepattern
350
39
  3
Flat
350
2B
  3
FlatWithEdges
350
2C
  3
Gouraud
350
2D
  3
GouraudWithEdges
350
2E
  3
Linepattern
350
38
  3
Realistic
350
33
  3
Thicken
350
37
  0
LAYOUT
  5
1E
102
{ACAD_REACTORS
330
1A
102
}
330
1A
100
AcDbPlotSettings
  1

  2
none_device
  4

  6

 40
0.0
 41
0.0
 42
0.0
 43
0.0
 44
0.0
 45
0.0
 46
0.0
 47
0.0
 48
0.0
 49
0.0
140
0.0
141
0.0
142
1.0
143
1.0
 70
   688
 72
     0
 73
     0
 74
     5
  7

 75
    16
 76
     0
 77
     2
 78
   300
147
1.0
148
0.0
149
0.0
100
AcDbLayout
  1
Layout1
 70
     1
 71
     1
 10
0.0
 20
0.0
 11
420.0
 21
297.0
 12
0.0
 22
0.0
 32
0.0
 14
1.0000000000E+20
 24
1.0000000000E+20
 34
1.0000000000E+20
 15
-1.0000000000E+20
 25
-1.0000000000E+20
 35
-1.0000000000E+20
146
0.0
 13
0.0
 23
0.0
 33
0.0
 16
1.0
 26
0.0
 36
0.0
 17
0.0
 27
1.0
 37
0.0
 76
     0
330
1B
  0
LAYOUT
  5
26
102
{ACAD_REACTORS
330
1A
102
}
330
1A
100
AcDbPlotSettings
  1

  2
none_device
  4

  6

 40
0.0
 41
0.0
 42
0.0
 43
0.0
 44
0.0
 45
0.0
 46
0.0
 47
0.0
 48
0.0
 49
0.0
140
0.0
141
0.0
142
1.0
143
1.0
 70
   688
 72
     0
 73
     0
 74
     5
  7

 75
    16
 76
     0
 77
     2
 78
   300
147
1.0
148
0.0
149
0.0
100
AcDbLayout
  1
Layout2
 70
     1
 71
     2
 10
0.0
 20
0.0
 11
0.0
 21
0.0
 12
0.0
 22
0.0
 32
0.0
 14
0.0
 24
0.0
 34
0.0
 15
0.0
 25
0.0
 35
0.0
146
0.0
 13
0.0
 23
0.0
 33
0.0
 16
1.0
 26
0.0
 36
0.0
 17
0.0
 27
1.0
 37
0.0
 76
     0
330
23
  0
LAYOUT
  5
22
102
{ACAD_REACTORS
330
1A
102
}
330
1A
100
AcDbPlotSettings
  1

  2
none_device
  4

  6

 40
0.0
 41
0.0
 42
0.0
 43
0.0
 44
0.0
 45
0.0
 46
0.0
 47
0.0
 48
0.0
 49
0.0
140
0.0
141
0.0
142
1.0
143
1.0
 70
  1712
 72
     0
 73
     0
 74
     0
  7

 75
     0
 76
     0
 77
     2
 78
   300
147
1.0
148
0.0
149
0.0
100
AcDbLayout
  1
Model
 70
     1
 71
     0
 10
0.0
 20
0.0
 11
594.0
 21
841.0
 12
0.0
 22
0.0
 32
0.0
 14
0.0
 24
0.0
 34
0.0
 15
594.0
 25
841.0
 35
0.0
146
0.0
 13
0.0
 23
0.0
 33
0.0
 16
1.0
 26
0.0
 36
0.0
 17
0.0
 27
1.0
 37
0.0
 76
     0
330
1F
331
29
  0
MATERIAL
  5
3D
102
{ACAD_REACTORS
330
3B
102
}
330
3B
100
AcDbMaterial
  1
ByBlock
 72
     1
 94
      127
  0
MATERIAL
  5
3C
102
{ACAD_REACTORS
330
3B
102
}
330
3B
100
AcDbMaterial
  1
ByLayer
 72
     1
 94
      127
  0
MATERIAL
  5
3E
102
{ACAD_REACTORS
330
3B
102
}
330
3B
100
AcDbMaterial
  1
Global
 72
     1
 94
      127
  0
MLINESTYLE
  5
18
102
{ACAD_REACTORS
330
17
102
}
330
17
100
AcDbMlineStyle
  2
Standard
 70
     0
  3

 62
   256
 51
90.0
 52
90.0
 71
     2
 49
0.5
 62
   256
  6
BYLAYER
 49
-0.5
 62
   256
  6
BYLAYER
  0
ACDBPLACEHOLDER
  5
F
102
{ACAD_REACTORS
330
E
102
}
330
E
  0
VISUALSTYLE
  5
2F
102
{ACAD_REACTORS
330
2A
102
}
330
2A
100
AcDbVisualStyle
  2
2dWireframe
 70
     4
177
     2
291
     0
 71
     0
176
     1
 72
     2
176
     1
 73
     0
176
     1
 90
        0
176
     1
 40
-0.6
176
     1
 41
-30.0
176
     1
 62
     5
 63
     7
421
 16777215
176
     1
 74
     1
176
     1
 91
        4
176
     1
 64
     7
176
     1
 65
   257
176
     1
 75
     1
176
     1
175
     1
176
     1
 42
1.0
176
     1
 92
        0
176
     1
 66
   257
176
     1
 43
1.0
176
     1
 76
     1
176
     1
 77
     6
176
     1
 78
     2
176
     1
 67
     7
176
     1
 79
     5
176
     1
170
     0
176
     1
171
     0
176
     1
290
     0
176
     1
 93
        1
176
     1
 44
0.0
176
     1
173
     0
176
     1
  0
VISUALSTYLE
  5
31
102
{ACAD_REACTORS
330
2A
102
}
330
2A
100
AcDbVisualStyle
  2
3D Hidden
 70
     6
177
     2
291
     0
 71
     1
176
     1
 72
     2
176
     1
 73
     2
176
     1
 90
        0
176
     1
 40
-0.6
176
     1
 41
-30.0
176
     1
 62
     5
 63
     7
421
 16777215
176
     1
 74
     2
176
     1
 91
        2
176
     1
 64
     7
176
     1
 65
   257
176
     1
 75
     2
176
     1
175
     1
176
     1
 42
40.0
176
     1
 92
        0
176
     1
 66
   257
176
     1
 43
1.0
176
     1
 76
     1
176
     1
 77
     6
176
     1
 78
     2
176
     1
 67
     7
176
     1
 79
     3
176
     1
170
     0
176
     1
171
     0
176
     1
290
     0
176
     1
 93
        1
176
     1
 44
0.0
176
     1
173
     0
176
     1
  0
VISUALSTYLE
  5
30
102
{ACAD_REACTORS
330
2A
102
}
330
2A
100
AcDbVisualStyle
  2
3dWireframe
 70
     5
177
     2
291
     0
 71
     0
176
     1
 72
     2
176
     1
 73
     0
176
     1
 90
        0
176
     1
 40
-0.6
176
     1
 41
-30.0
176
     1
 62
     5
 63
     7
421
 16777215
176
     1
 74
     1
176
     1
 91
        4
176
     1
 64
     7
176
     1
 65
   257
176
     1
 75
     1
176
     1
175
     1
176
     1
 42
1.0
176
     1
 92
        0
176
     1
 66
   257
176
     1
 43
1.0
176
     1
 76
     1
176
     1
 77
     6
176
     1
 78
     2
176
     1
 67
     7
176
     1
 79
     5
176
     1
170
     0
176
     1
171
     0
176
     1
290
     0
176
     1
 93
        1
176
     1
 44
0.0
176
     1
173
     0
176
     1
  0
VISUALSTYLE
  5
32
102
{ACAD_REACTORS
330
2A
102
}
330
2A
100
AcDbVisualStyle
  2
Basic
 70
     7
177
     2
291
     1
 71
     1
176
     1
 72
     0
176
     1
 73
     1
176
     1
 90
        0
176
     1
 40
-0.6
176
     1
 41
-30.0
176
     1
 62
     5
 63
     7
421
 16777215
176
     1
 74
     0
176
     1
 91
        4
176
     1
 64
     7
176
     1
 65
   257
176
     1
 75
     1
176
     1
175
     1
176
     1
 42
1.0
176
     1
 92
        8
176
     1
 66
     7
176
     1
 43
1.0
176
     1
 76
     1
176
     1
 77
     6
176
     1
 78
     2
176
     1
 67
     7
176
     1
 79
     5
176
     1
170
     0
176
     1
171
     0
176
     1
290
     0
176
     1
 93
        1
176
     1
 44
0.0
176
     1
173
     0
176
     1
  0
VISUALSTYLE
  5
36
102
{ACAD_REACTORS
330
2A
102
}
330
2A
100
AcDbVisualStyle
  2
Brighten
 70
    12
177
     2
291
     1
 71
     2
176
     1
 72
     2
176
     1
 73
     0
176
     1
 90
        0
176
     1
 40
-0.6
176
     1
 41
-30.0
176
     1
 62
     5
 63
     7
421
 16777215
176
     1
 74
     1
176
     1
 91
        4
176
     1
 64
     7
176
     1
 65
   257
176
     1
 75
     1
176
     1
175
     1
176
     1
 42
1.0
176
     1
 92
        8
176
     1
 66
     7
176
     1
 43
1.0
176
     1
 76
     1
176
     1
 77
     6
176
     1
 78
     2
176
     1
 67
     7
176
     1
 79
     5
176
     1
170
     0
176
     1
171
     0
176
     1
290
     0
176
     1
 93
        1
176
     1
 44
50.0
176
     1
173
     0
176
     1
  0
VISUALSTYLE
  5
3A
102
{ACAD_REACTORS
330
2A
102
}
330
2A
100
AcDbVisualStyle
  2
ColorChange
 70
    16
177
     2
291
     1
 71
     2
176
     1
 72
     2
176
     1
 73
     3
176
     1
 90
        0
176
     1
 40
-0.6
176
     1
 41
-30.0
176
     1
 62
     5
 63
     8
421
  8421504
176
     1
 74
     1
176
     1
 91
        4
176
     1
 64
     7
176
     1
 65
   257
176
     1
 75
     1
176
     1
175
     1
176
     1
 42
1.0
176
     1
 92
        8
176
     1
 66
     8
424
  8421504
176
     1
 43
1.0
176
     1
 76
     1
176
     1
 77
     6
176
     1
 78
     2
176
     1
 67
     7
176
     1
 79
     5
176
     1
170
     0
176
     1
171
     0
176
     1
290
     0
176
     1
 93
        1
176
     1
 44
0.0
176
     1
173
     0
176
     1
  0
VISUALSTYLE
  5
34
102
{ACAD_REACTORS
330
2A
102
}
330
2A
100
AcDbVisualStyle
  2
Conceptual
 70
     9
177
     2
291
     0
 71
     3
176
     1
 72
     2
176
     1
 73
     0
176
     1
 90
        0
176
     1
 40
-0.6
176
     1
 41
-30.0
176
     1
 62
     5
 63
     7
421
 16777215
176
     1
 74
     2
176
     1
 91
        2
176
     1
 64
     7
176
     1
 65
   257
176
     1
 75
     1
176
     1
175
     1
176
     1
 42
40.0
176
     1
 92
        8
176
     1
 66
     7
176
     1
 43
1.0
176
     1
 76
     1
176
     1
 77
     6
176
     1
 78
     2
176
     1
 67
     7
176
     1
 79
     3
176
     1
170
     0
176
     1
171
     0
176
     1
290
     0
176
     1
 93
        1
176
     1
 44
0.0
176
     1
173
     0
176
     1
  0
VISUALSTYLE
  5
35
102
{ACAD_REACTORS
330
2A
102
}
330
2A
100
AcDbVisualStyle
  2
Dim
 70
    11
177
     2
291
     1
 71
     2
176
     1
 72
     2
176
     1
 73
     0
176
     1
 90
        0
176
     1
 40
-0.6
176
     1
 41
-30.0
176
     1
 62
     5
 63
     7
421
 16777215
176
     1
 74
     1
176
     1
 91
        4
176
     1
 64
     7
176
     1
 65
   257
176
     1
 75
     1
176
     1
175
     1
176
     1
 42
1.0
176
     1
 92
        8
176
     1
 66
     7
176
     1
 43
1.0
176
     1
 76
     1
176
     1
 77
     6
176
     1
 78
     2
176
     1
 67
     7
176
     1
 79
     5
176
     1
170
     0
176
     1
171
     0
176
     1
290
     0
176
     1
 93
        1
176
     1
 44
-50.0
176
     1
173
     0
176
     1
  0
VISUALSTYLE
  5
39
102
{ACAD_REACTORS
330
2A
102
}
330
2A
100
AcDbVisualStyle
  2
Facepattern
 70
    15
177
     2
291
     1
 71
     2
176
     1
 72
     2
176
     1
 73
     0
176
     1
 90
        0
176
     1
 40
-0.6
176
     1
 41
-30.0
176
     1
 62
     5
 63
     7
421
 16777215
176
     1
 74
     1
176
     1
 91
        4
176
     1
 64
     7
176
     1
 65
   257
176
     1
 75
     1
176
     1
175
     1
176
     1
 42
1.0
176
     1
 92
        8
176
     1
 66
     7
176
     1
 43
1.0
176
     1
 76
     1
176
     1
 77
     6
176
     1
 78
     2
176
     1
 67
     7
176
     1
 79
     5
176
     1
170
     0
176
     1
171
     0
176
     1
290
     0
176
     1
 93
        1
176
     1
 44
0.0
176
     1
173
     0
176
     1
  0
VISUALSTYLE
  5
2B
102
{ACAD_REACTORS
330
2A
102
}
330
2A
100
AcDbVisualStyle
  2
Flat
 70
     0
177
     2
291
     1
 71
     2
176
     1
 72
     1
176
     1
 73
     1
176
     1
 90
        2
176
     1
 40
-0.6
176
     1
 41
30.0
176
     1
 62
     5
 63
     7
421
 16777215
176
     1
 74
     0
176
     1
 91
        4
176
     1
 64
     7
176
     1
 65
   257
176
     1
 75
     1
176
     1
175
     1
176
     1
 42
1.0
176
     1
 92
        8
176
     1
 66
     7
176
     1
 43
1.0
176
     1
 76
     1
176
     1
 77
     6
176
     1
 78
     2
176
     1
 67
     7
176
     1
 79
     5
176
     1
170
     0
176
     1
171
     0
176
     1
290
     0
176
     1
 93
       13
176
     1
 44
0.0
176
     1
173
     0
176
     1
  0
VISUALSTYLE
  5
2C
102
{ACAD_REACTORS
330
2A
102
}
330
2A
100
AcDbVisualStyle
  2
FlatWithEdges
 70
     1
177
     2
291
     1
 71
     2
176
     1
 72
     1
176
     1
 73
     1
176
     1
 90
        2
176
     1
 40
-0.6
176
     1
 41
30.0
176
     1
 62
     5
 63
     7
421
 16777215
176
     1
 74
     1
176
     1
 91
        4
176
     1
 64
     7
176
     1
 65
   257
176
     1
 75
     1
176
     1
175
     1
176
     1
 42
1.0
176
     1
 92
        0
176
     1
 66
   257
176
     1
 43
1.0
176
     1
 76
     1
176
     1
 77
     6
176
     1
 78
     2
176
     1
 67
     7
176
     1
 79
     5
176
     1
170
     0
176
     1
171
     0
176
     1
290
     0
176
     1
 93
       13
176
     1
 44
0.0
176
     1
173
     0
176
     1
  0
VISUALSTYLE
  5
2D
102
{ACAD_REACTORS
330
2A
102
}
330
2A
100
AcDbVisualStyle
  2
Gouraud
 70
     2
177
     2
291
     1
 71
     2
176
     1
 72
     2
176
     1
 73
     1
176
     1
 90
        2
176
     1
 40
-0.6
176
     1
 41
30.0
176
     1
 62
     5
 63
     7
421
 16777215
176
     1
 74
     0
176
     1
 91
        4
176
     1
 64
     7
176
     1
 65
   257
176
     1
 75
     1
176
     1
175
     1
176
     1
 42
1.0
176
     1
 92
        0
176
     1
 66
     7
176
     1
 43
1.0
176
     1
 76
     1
176
     1
 77
     6
176
     1
 78
     2
176
     1
 67
     7
176
     1
 79
     5
176
     1
170
     0
176
     1
171
     0
176
     1
290
     0
176
     1
 93
       13
176
     1
 44
0.0
176
     1
173
     0
176
     1
  0
VISUALSTYLE
  5
2E
102
{ACAD_REACTORS
330
2A
102
}
330
2A
100
AcDbVisualStyle
  2
GouraudWithEdges
 70
     3
177
     2
291
     1
 71
     2
176
     1
 72
     2
176
     1
 73
     1
176
     1
 90
        2
176
     1
 40
-0.6
176
     1
 41
30.0
176
     1
 62
     5
 63
     7
421
 16777215
176
     1
 74
     1
176
     1
 91
        4
176
     1
 64
     7
176
     1
 65
   257
176
     1
 75
     1
176
     1
175
     1
176
     1
 42
1.0
176
     1
 92
        0
176
     1
 66
   257
176
     1
 43
1.0
176
     1
 76
     1
176
     1
 77
     6
176
     1
 78
     2
176
     1
 67
     7
176
     1
 79
     5
176
     1
170
     0
176
     1
171
     0
176
     1
290
     0
176
     1
 93
       13
176
     1
 44
0.0
176
     1
173
     0
176
     1
  0
VISUALSTYLE
  5
38
102
{ACAD_REACTORS
330
2A
102
}
330
2A
100
AcDbVisualStyle
  2
Linepattern
 70
    14
177
     2
291
     1
 71
     2
176
     1
 72
     2
176
     1
 73
     0
176
     1
 90
        0
176
     1
 40
-0.6
176
     1
 41
-30.0
176
     1
 62
     5
 63
     7
421
 16777215
176
     1
 74
     1
176
     1
 91
        4
176
     1
 64
     7
176
     1
 65
   257
176
     1
 75
     7
176
     1
175
     7
176
     1
 42
1.0
176
     1
 92
        8
176
     1
 66
     7
176
     1
 43
1.0
176
     1
 76
     1
176
     1
 77
     6
176
     1
 78
     2
176
     1
 67
     7
176
     1
 79
     5
176
     1
170
     0
176
     1
171
     0
176
     1
290
     0
176
     1
 93
        1
176
     1
 44
0.0
176
     1
173
     0
176
     1
  0
VISUALSTYLE
  5
33
102
{ACAD_REACTORS
330
2A
102
}
330
2A
100
AcDbVisualStyle
  2
Realistic
 70
     8
177
     2
291
     0
 71
     2
176
     1
 72
     2
176
     1
 73
     0
176
     1
 90
        0
176
     1
 40
-0.6
176
     1
 41
-30.0
176
     1
 62
     5
 63
     7
421
 16777215
176
     1
 74
     1
176
     1
 91
        0
176
     1
 64
     7
176
     1
 65
   257
176
     1
 75
     1
176
     1
175
     1
176
     1
 42
1.0
176
     1
 92
        8
176
     1
 66
     8
424
  7895160
176
     1
 43
1.0
176
     1
 76
     1
176
     1
 77
     6
176
     1
 78
     2
176
     1
 67
     7
176
     1
 79
     5
176
     1
170
     0
176
     1
171
     0
176
     1
290
     0
176
     1
 93
       13
176
     1
 44
0.0
176
     1
173
     0
176
     1
  0
VISUALSTYLE
  5
37
102
{ACAD_REACTORS
330
2A
102
}
330
2A
100
AcDbVisualStyle
  2
Thicken
 70
    13
177
     2
291
     1
 71
     2
176
     1
 72
     2
176
     1
 73
     0
176
     1
 90
        0
176
     1
 40
-0.6
176
     1
 41
-30.0
176
     1
 62
     5
 63
     7
421
 16777215
176
     1
 74
     1
176
     1
 91
        4
176
     1
 64
     7
176
     1
 65
   257
176
     1
 75
     1
176
     1
175
     1
176
     1
 42
1.0
176
     1
 92
       12
176
     1
 66
     7
176
     1
 43
1.0
176
     1
 76
     1
176
     1
 77
     6
176
     1
 78
     2
176
     1
 67
     7
176
     1
 79
     5
176
     1
170
     0
176
     1
171
     0
176
     1
290
     0
176
     1
 93
        1
176
     1
 44
0.0
176
     1
173
     0
176
     1
  0
ENDSEC
  0
EOF
