  0
SECTION
  2
HEADER
  9
$ACADVER
  1
AC1015
  9
$ACADMAINTVER
 70
     6
  9
$DWGCODEPAGE
  3
ANSI_1252
  9
$INSBASE
 10
0.0
 20
0.0
 30
0.0
  9
$EXTMIN
 10
0.0
 20
0.0
 30
0.0
  9
$EXTMAX
 10
594.0
 20
841.0
 30
0.0
  9
$LIMMIN
 10
0.0
 20
0.0
  9
$LIMMAX
 10
594.0
 20
841.0
  9
$ORTHOMODE
 70
     0
  9
$REGENMODE
 70
     1
  9
$FILLMODE
 70
     1
  9
$QTEXTMODE
 70
     0
  9
$MIRRTEXT
 70
     1
  9
$LTSCALE
 40
1.0
  9
$ATTMODE
 70
     1
  9
$TEXTSIZE
 40
10.0
  9
$TRACEWID
 40
1.0
  9
$TEXTSTYLE
  7
Standard
  9
$CLAYER
  8
0
  9
$CELTYPE
  6
ByLayer
  9
$CECOLOR
 62
   256
  9
$CELTSCALE
 40
1.0
  9
$DISPSILH
 70
     0
  9
$DIMSCALE
 40
1.0
  9
$DIMASZ
 40
2.5
  9
$DIMEXO
 40
0.0
  9
$DIMDLI
 40
3.75
  9
$DIMRND
 40
0.0
  9
$DIMDLE
 40
0.0
  9
$DIMEXE
 40
1.0
  9
$DIMTP
 40
0.0
  9
$DIMTM
 40
0.0
  9
$DIMTXT
 40
3.5
  9
$DIMCEN
 40
2.5
  9
$DIMTSZ
 40
0.0
  9
$DIMTOL
 70
     0
  9
$DIMLIM
 70
     0
  9
$DIMTIH
 70
     1
  9
$DIMTOH
 70
     1
  9
$DIMSE1
 70
     0
  9
$DIMSE2
 70
     0
  9
$DIMTAD
 70
     1
  9
$DIMZIN
 70
     0
  9
$DIMBLK
  1

  9
$DIMASO
 70
     1
  9
$DIMSHO
 70
     1
  9
$DIMPOST
  1

  9
$DIMAPOST
  1

  9
$DIMALT
 70
     0
  9
$DIMALTD
 70
     3
  9
$DIMALTF
 40
0.0393700787
  9
$DIMLFAC
 40
1.0
  9
$DIMTOFL
 70
     1
  9
$DIMTVP
 40
0.0
  9
$DIMTIX
 70
     0
  9
$DIMSOXD
 70
     0
  9
$DIMSAH
 70
     0
  9
$DIMBLK1
  1

  9
$DIMBLK2
  1

  9
$DIMSTYLE
  2
ISO-25
  9
$DIMCLRD
 70
     0
  9
$DIMCLRE
 70
     0
  9
$DIMCLRT
 70
     0
  9
$DIMTFAC
 40
1.0
  9
$DIMGAP
 40
1.5
  9
$DIMJUST
 70
     0
  9
$DIMSD1
 70
     0
  9
$DIMSD2
 70
     0
  9
$DIMTOLJ
 70
     0
  9
$DIMTZIN
 70
     0
  9
$DIMALTZ
 70
     0
  9
$DIMALTTZ
 70
     0
  9
$DIMUPT
 70
     0
  9
$DIMDEC
 70
     2
  9
$DIMTDEC
 70
     2
  9
$DIMALTU
 70
     2
  9
$DIMALTTD
 70
     3
  9
$DIMTXSTY
  7
Standard
  9
$DIMAUNIT
 70
     0
  9
$DIMADEC
 70
     2
  9
$DIMALTRND
 40
0.0
  9
$DIMAZIN
 70
     0
  9
$DIMDSEP
 70
    44
  9
$DIMATFIT
 70
     3
  9
$DIMFRAC
 70
     0
  9
$DIMLDRBLK
  1

  9
$DIMLUNIT
 70
     2
  9
$DIMLWD
 70
    -2
  9
$DIMLWE
 70
    -2
  9
$DIMTMOVE
 70
     0
  9
$LUNITS
 70
     2
  9
$LUPREC
 70
     2
  9
$SKETCHINC
 40
1.0
  9
$FILLETRAD
 40
0.0
  9
$AUNITS
 70
     0
  9
$AUPREC
 70
     2
  9
$MENU
  1
.
  9
$ELEVATION
 40
0.0
  9
$PELEVATION
 40
0.0
  9
$THICKNESS
 40
0.0
  9
$LIMCHECK
 70
     0
  9
$CHAMFERA
 40
0.0
  9
$CHAMFERB
 40
0.0
  9
$CHAMFERC
 40
0.0
  9
$CHAMFERD
 40
0.0
  9
$SKPOLY
 70
     0
  9
$TDCREATE
 40
2460346.449624213
  9
$TDUCREATE
 40
2460346.407957546
  9
$TDUPDATE
 40
2460346.449625301
  9
$TDUUPDATE
 40
2460346.407958634
  9
$TDINDWG
 40
0.0000000116
  9
$TDUSRTIMER
 40
0.0000000116
  9
$USRTIMER
 70
     1
  9
$ANGBASE
 50
0.0
  9
$ANGDIR
 70
     0
  9
$PDMODE
 70
     0
  9
$PDSIZE
 40
-1.0
  9
$PLINEWID
 40
0.0
  9
$SPLFRAME
 70
     0
  9
$SPLINETYPE
 70
     6
  9
$SPLINESEGS
 70
     8
  9
$HANDSEED
  5
1AD
  9
$SURFTAB1
 70
     6
  9
$SURFTAB2
 70
     6
  9
$SURFTYPE
 70
     6
  9
$SURFU
 70
     6
  9
$SURFV
 70
     6
  9
$UCSBASE
  2

  9
$UCSNAME
  2

  9
$UCSORG
 10
0.0
 20
0.0
 30
0.0
  9
$UCSXDIR
 10
1.0
 20
0.0
 30
0.0
  9
$UCSYDIR
 10
0.0
 20
1.0
 30
0.0
  9
$UCSORTHOREF
  2

  9
$UCSORTHOVIEW
 70
     0
  9
$UCSORGTOP
 10
0.0
 20
0.0
 30
0.0
  9
$UCSORGBOTTOM
 10
0.0
 20
0.0
 30
0.0
  9
$UCSORGLEFT
 10
0.0
 20
0.0
 30
0.0
  9
$UCSORGRIGHT
 10
0.0
 20
0.0
 30
0.0
  9
$UCSORGFRONT
 10
0.0
 20
0.0
 30
0.0
  9
$UCSORGBACK
 10
0.0
 20
0.0
 30
0.0
  9
$PUCSBASE
  2

  9
$PUCSNAME
  2

  9
$PUCSORG
 10
0.0
 20
0.0
 30
0.0
  9
$PUCSXDIR
 10
1.0
 20
0.0
 30
0.0
  9
$PUCSYDIR
 10
0.0
 20
1.0
 30
0.0
  9
$PUCSORTHOREF
  2

  9
$PUCSORTHOVIEW
 70
     0
  9
$PUCSORGTOP
 10
0.0
 20
0.0
 30
0.0
  9
$PUCSORGBOTTOM
 10
0.0
 20
0.0
 30
0.0
  9
$PUCSORGLEFT
 10
0.0
 20
0.0
 30
0.0
  9
$PUCSORGRIGHT
 10
0.0
 20
0.0
 30
0.0
  9
$PUCSORGFRONT
 10
0.0
 20
0.0
 30
0.0
  9
$PUCSORGBACK
 10
0.0
 20
0.0
 30
0.0
  9
$USERI1
 70
     0
  9
$USERI2
 70
     0
  9
$USERI3
 70
     0
  9
$USERI4
 70
     0
  9
$USERI5
 70
     0
  9
$USERR1
 40
0.0
  9
$USERR2
 40
0.0
  9
$USERR3
 40
0.0
  9
$USERR4
 40
0.0
  9
$USERR5
 40
0.0
  9
$WORLDVIEW
 70
     1
  9
$SHADEDGE
 70
     3
  9
$SHADEDIF
 70
    70
  9
$TILEMODE
 70
     1
  9
$MAXACTVP
 70
    64
  9
$PINSBASE
 10
0.0
 20
0.0
 30
0.0
  9
$PLIMCHECK
 70
     0
  9
$PEXTMIN
 10
1.0000000000E+20
 20
1.0000000000E+20
 30
1.0000000000E+20
  9
$PEXTMAX
 10
-1.0000000000E+20
 20
-1.0000000000E+20
 30
-1.0000000000E+20
  9
$PLIMMIN
 10
0.0
 20
0.0
  9
$PLIMMAX
 10
420.0
 20
297.0
  9
$UNITMODE
 70
     0
  9
$VISRETAIN
 70
     1
  9
$PLINEGEN
 70
     0
  9
$PSLTSCALE
 70
     1
  9
$TREEDEPTH
 70
  3020
  9
$CMLSTYLE
  2
Standard
  9
$CMLJUST
 70
     0
  9
$CMLSCALE
 40
20.0
  9
$PROXYGRAPHICS
 70
     1
  9
$MEASUREMENT
 70
     1
  9
$CELWEIGHT
370
    -1
  9
$ENDCAPS
280
     0
  9
$JOINSTYLE
280
     0
  9
$LWDISPLAY
290
     1
  9
$INSUNITS
 70
     4
  9
$HYPERLINKBASE
  1

  9
$STYLESHEET
  1

  9
$XEDIT
290
     1
  9
$CEPSNTYPE
380
     0
  9
$PSTYLEMODE
290
     1
  9
$FINGERPRINTGUID
  2
{6fb6296f-5129-409a-8719-22666db8fea7}
  9
$VERSIONGUID
  2
{FAEB1C32-E019-11D5-929B-00C0DF256EC4}
  9
$EXTNAMES
290
     1
  9
$PSVPSCALE
 40
0.0
  9
$OLESTARTUP
290
     0
  0
ENDSEC
  0
SECTION
  2
CLASSES
  0
CLASS
  1
ACDBDICTIONARYWDFLT
  2
AcDbDictionaryWithDefault
  3
ObjectDBX Classes
 90
        0
280
     0
281
     0
  0
CLASS
  1
VISUALSTYLE
  2
AcDbVisualStyle
  3
ObjectDBX Classes
 90
     4095
280
     0
281
     0
  0
CLASS
  1
MATERIAL
  2
AcDbMaterial
  3
ObjectDBX Classes
 90
     1153
280
     0
281
     0
  0
CLASS
  1
SCALE
  2
AcDbScale
  3
ObjectDBX Classes
 90
     1153
280
     0
281
     0
  0
CLASS
  1
TABLESTYLE
  2
AcDbTableStyle
  3
ObjectDBX Classes
 90
     4095
280
     0
281
     0
  0
CLASS
  1
MLEADERSTYLE
  2
AcDbMLeaderStyle
  3
ACDB_MLEADERSTYLE_CLASS
 90
     4095
280
     0
281
     0
  0
CLASS
  1
SUN
  2
AcDbSun
  3
SCENEOE
 90
     1153
280
     0
281
     0
  0
CLASS
  1
ACDBPLACEHOLDER
  2
AcDbPlaceHolder
  3
ObjectDBX Classes
 90
        0
280
     0
281
     0
  0
CLASS
  1
LAYOUT
  2
AcDbLayout
  3
ObjectDBX Classes
 90
        0
280
     0
281
     0
  0
ENDSEC
  0
SECTION
  2
TABLES
  0
TABLE
  2
VPORT
  5
8
330
0
100
AcDbSymbolTable
 70
     1
  0
VPORT
  5
29
330
8
100
AcDbSymbolTableRecord
100
AcDbViewportTableRecord
  2
*Active
 70
     0
 10
0.0
 20
0.0
 11
1.0
 21
1.0
 12
297.0
 22
420.5
 13
0.0
 23
0.0
 14
10.0
 24
10.0
 15
10.0
 25
10.0
 16
0.0
 26
0.0
 36
1.0
 17
0.0
 27
0.0
 37
0.0
 40
841.0
 41
0.7063020214
 42
50.0
 43
0.0
 44
0.0
 50
0.0
 51
0.0
 71
     0
 72
  2000
 73
     1
 74
     3
 75
     0
 76
     0
 77
     0
 78
     0
281
     0
 65
     1
110
0.0
120
0.0
130
0.0
111
1.0
121
0.0
131
0.0
112
0.0
122
1.0
132
0.0
 79
     0
146
0.0
  0
ENDTAB
  0
TABLE
  2
LTYPE
  5
5
330
0
100
AcDbSymbolTable
 70
     6
  0
LTYPE
  5
14
330
5
100
AcDbSymbolTableRecord
100
AcDbLinetypeTableRecord
  2
ByBlock
 70
     0
  3

 72
    65
 73
     0
 40
0.0
  0
LTYPE
  5
15
330
5
100
AcDbSymbolTableRecord
100
AcDbLinetypeTableRecord
  2
ByLayer
 70
     0
  3

 72
    65
 73
     0
 40
0.0
  0
LTYPE
  5
16
330
5
100
AcDbSymbolTableRecord
100
AcDbLinetypeTableRecord
  2
Continuous
 70
     0
  3
Solid line
 72
    65
 73
     0
 40
0.0
  0
LTYPE
  5
5E
330
5
100
AcDbSymbolTableRecord
100
AcDbLinetypeTableRecord
  2
HIDDEN
 70
     0
  3
Hidden __ __ __ __ __ __ __ __ __ __ __ __ __ __
 72
    65
 73
     2
 40
1.905
 49
1.27
 74
     0
 49
-0.635
 74
     0
  0
LTYPE
  5
5F
330
5
100
AcDbSymbolTableRecord
100
AcDbLinetypeTableRecord
  2
PHANTOM
 70
     0
  3
Phantom ______  __  __  ______  __  __  ______
 72
    65
 73
     6
 40
12.7
 49
6.35
 74
     0
 49
-1.27
 74
     0
 49
1.27
 74
     0
 49
-1.27
 74
     0
 49
1.27
 74
     0
 49
-1.27
 74
     0
  0
LTYPE
  5
60
330
5
100
AcDbSymbolTableRecord
100
AcDbLinetypeTableRecord
  2
CENTER
 70
     0
  3
Center ____ _ ____ _ ____ _ ____ _ ____ _ ____
 72
    65
 73
     4
 40
10.16
 49
6.35
 74
     0
 49
-1.27
 74
     0
 49
1.27
 74
     0
 49
-1.27
 74
     0
  0
LTYPE
  5
61
330
5
100
AcDbSymbolTableRecord
100
AcDbLinetypeTableRecord
  2
CENTERX2
 70
     0
  3
Center (2x) ________  __  ________  __  _____
 72
    65
 73
     4
 40
20.32
 49
12.7
 74
     0
 49
-2.54
 74
     0
 49
2.54
 74
     0
 49
-2.54
 74
     0
  0
LTYPE
  5
62
330
5
100
AcDbSymbolTableRecord
100
AcDbLinetypeTableRecord
  2
DOT2
 70
     0
  3
Dot (.5x) ........................................
 72
    65
 73
     2
 40
0.635
 49
0.0
 74
     0
 49
-0.635
 74
     0
  0
ENDTAB
  0
TABLE
  2
LAYER
  5
2
330
0
100
AcDbSymbolTable
 70
     1
  0
LAYER
  5
10
330
2
100
AcDbSymbolTableRecord
100
AcDbLayerTableRecord
  2
0
 70
     0
 62
     7
  6
Continuous
370
    -3
390
F
  0
ENDTAB
  0
TABLE
  2
STYLE
  5
3
330
0
100
AcDbSymbolTable
 70
     3
  0
STYLE
  5
11
330
3
100
AcDbSymbolTableRecord
100
AcDbTextStyleTableRecord
  2
Standard
 70
     0
 40
0.0
 41
1.0
 50
0.0
 71
     0
 42
10.0
  3
txt
  4

  0
STYLE
  5
66
330
3
100
AcDbSymbolTableRecord
100
AcDbTextStyleTableRecord
  2
SLDTEXTSTYLE0
 70
     0
 40
0.0
 41
0.96
 50
0.0
 71
     0
 42
10.0
  3
ISOCP3
  4

  0
STYLE
  5
7D
330
3
100
AcDbSymbolTableRecord
100
AcDbTextStyleTableRecord
  2
SLDTEXTSTYLE1
 70
     0
 40
0.0
 41
0.605
 50
0.0
 71
     0
 42
10.0
  3
TXT
  4

  0
ENDTAB
  0
TABLE
  2
VIEW
  5
6
330
0
100
AcDbSymbolTable
 70
     0
  0
ENDTAB
  0
TABLE
  2
UCS
  5
7
330
0
100
AcDbSymbolTable
 70
     0
  0
ENDTAB
  0
TABLE
  2
APPID
  5
9
330
0
100
AcDbSymbolTable
 70
     1
  0
APPID
  5
12
330
9
100
AcDbSymbolTableRecord
100
AcDbRegAppTableRecord
  2
ACAD
 70
     0
  0
ENDTAB
  0
TABLE
  2
DIMSTYLE
  5
A
330
0
100
AcDbSymbolTable
 70
     2
100
AcDbDimStyleTable
  0
DIMSTYLE
105
27
330
A
100
AcDbSymbolTableRecord
100
AcDbDimStyleTableRecord
  2
ISO-25
 70
     0
 41
2.5
 42
0.625
 43
3.75
 44
1.25
 73
     0
 74
     0
 77
     1
 78
     8
140
2.5
141
2.5
143
0.0393700787
147
0.625
171
     3
172
     1
178
     0
271
     2
272
     2
274
     3
278
    44
283
     0
284
     8
340
11
  0
DIMSTYLE
105
67
102
{ACAD_REACTORS
330
65
330
72
102
}
330
A
100
AcDbSymbolTableRecord
100
AcDbDimStyleTableRecord
  2
SLDDIMSTYLE0
 70
     0
 41
2.5
 44
0.0
 45
0.000000001
 73
     0
 74
     0
 77
     1
 78
    12
 79
     3
140
6.0
147
1.5
173
     1
178
     0
271
     2
272
     2
276
     2
284
    12
340
66
  0
ENDTAB
  0
TABLE
  2
BLOCK_RECORD
  5
1
330
0
100
AcDbSymbolTable
 70
     3
  0
BLOCK_RECORD
  5
1F
330
1
100
AcDbSymbolTableRecord
100
AcDbBlockTableRecord
  2
*Model_Space
340
22
  0
BLOCK_RECORD
  5
1B
330
1
100
AcDbSymbolTableRecord
100
AcDbBlockTableRecord
  2
*Paper_Space
340
1E
  0
BLOCK_RECORD
  5
23
330
1
100
AcDbSymbolTableRecord
100
AcDbBlockTableRecord
  2
*Paper_Space0
340
26
  0
BLOCK_RECORD
  5
68
330
1
100
AcDbSymbolTableRecord
100
AcDbBlockTableRecord
  2
_D
340
0
  0
BLOCK_RECORD
  5
73
330
1
100
AcDbSymbolTableRecord
100
AcDbBlockTableRecord
  2
_D_1
340
0
  0
ENDTAB
  0
ENDSEC
  0
SECTION
  2
BLOCKS
  0
BLOCK
  5
20
330
1F
100
AcDbEntity
  8
0
100
AcDbBlockBegin
  2
*Model_Space
 70
     0
 10
0.0
 20
0.0
 30
0.0
  3
*Model_Space
  1

  0
ENDBLK
  5
21
330
1F
100
AcDbEntity
  8
0
100
AcDbBlockEnd
  0
BLOCK
  5
1C
330
1B
100
AcDbEntity
 67
     1
  8
0
100
AcDbBlockBegin
  2
*Paper_Space
 70
     0
 10
0.0
 20
0.0
 30
0.0
  3
*Paper_Space
  1

  0
ENDBLK
  5
1D
330
1B
100
AcDbEntity
 67
     1
  8
0
100
AcDbBlockEnd
  0
BLOCK
  5
24
330
23
100
AcDbEntity
  8
0
100
AcDbBlockBegin
  2
*Paper_Space0
 70
     0
 10
0.0
 20
0.0
 30
0.0
  3
*Paper_Space0
  1

  0
ENDBLK
  5
25
330
23
100
AcDbEntity
  8
0
100
AcDbBlockEnd
  0
BLOCK
  5
69
330
68
100
AcDbEntity
  8
0
100
AcDbBlockBegin
  2
_D
 70
     0
 10
0.0
 20
0.0
 30
0.0
  3
_D
  1

  0
SOLID
  5
6B
330
68
100
AcDbEntity
  8
0
  6
Continuous
 62
     7
370
    18
100
AcDbTrace
 10
42.7614395004
 20
152.0299240879
 30
0.0
 11
42.4614395004
 21
149.5299240879
 31
0.0
 12
43.0614395004
 22
149.5299240879
 32
0.0
 13
43.0614395004
 23
149.5299240879
 33
0.0
  0
SOLID
  5
6C
330
68
100
AcDbEntity
  8
0
  6
Continuous
 62
     7
370
    18
100
AcDbTrace
 10
42.7614395004
 20
52.0299240879
 30
0.0
 11
43.0614395004
 21
54.5299240879
 31
0.0
 12
42.4614395004
 22
54.5299240879
 32
0.0
 13
42.4614395004
 23
54.5299240879
 33
0.0
  0
LINE
  5
6D
330
68
100
AcDbEntity
  8
0
  6
Continuous
 62
     7
370
     0
100
AcDbLine
 10
56.6850079902
 20
152.0299240879
 30
0.0
 11
41.7614395004
 21
152.0299240879
 31
0.0
  0
LINE
  5
6E
330
68
100
AcDbEntity
  8
0
  6
Continuous
 62
     7
370
     0
100
AcDbLine
 10
56.6850079902
 20
52.0299240879
 30
0.0
 11
41.7614395004
 21
52.0299240879
 31
0.0
  0
LINE
  5
6F
330
68
100
AcDbEntity
  8
0
  6
Continuous
 62
     7
370
     0
100
AcDbLine
 10
42.7614395004
 20
152.0299240879
 30
0.0
 11
42.7614395004
 21
52.0299240879
 31
0.0
  0
MTEXT
  5
70
330
68
100
AcDbEntity
  8
0
  6
Continuous
 62
     7
370
    18
100
AcDbMText
 10
35.0270332946
 20
94.3680541463
 30
0.0
 40
6.0
 41
0.0
 71
     1
 72
     1
  1
100
  7
SLDTEXTSTYLE0
 11
-7.044195017643634E-15
 21
1.0
 31
0.0
 73
     1
 44
1.0
  0
MTEXT
  5
71
330
68
100
AcDbEntity
  8
0
  6
Continuous
 62
     7
370
    18
100
AcDbMText
 10
35.0270332946
 20
105.7430548466
 30
0.0
 40
6.0
 41
0.0
 71
     1
 72
     1
  1
mm
  7
SLDTEXTSTYLE0
 11
-7.044195017643634E-15
 21
1.0
 31
0.0
 73
     1
 44
1.0
  0
ENDBLK
  5
6A
330
68
100
AcDbEntity
  8
0
100
AcDbBlockEnd
  0
BLOCK
  5
74
330
73
100
AcDbEntity
  8
0
100
AcDbBlockBegin
  2
_D_1
 70
     0
 10
0.0
 20
0.0
 30
0.0
  3
_D_1
  1

  0
SOLID
  5
76
330
73
100
AcDbEntity
  8
0
  6
Continuous
 62
     7
370
    18
100
AcDbTrace
 10
56.6850079902
 20
38.4602342313
 30
0.0
 11
59.1850079902
 21
38.1602342313
 31
0.0
 12
59.1850079902
 22
38.7602342313
 32
0.0
 13
59.1850079902
 23
38.7602342313
 33
0.0
  0
SOLID
  5
77
330
73
100
AcDbEntity
  8
0
  6
Continuous
 62
     7
370
    18
100
AcDbTrace
 10
156.6850079902
 20
38.4602342313
 30
0.0
 11
154.1850079902
 21
38.7602342313
 31
0.0
 12
154.1850079902
 22
38.1602342313
 32
0.0
 13
154.1850079902
 23
38.1602342313
 33
0.0
  0
LINE
  5
78
330
73
100
AcDbEntity
  8
0
  6
Continuous
 62
     7
370
     0
100
AcDbLine
 10
56.6850079902
 20
52.0299240879
 30
0.0
 11
56.6850079902
 21
37.4602342313
 31
0.0
  0
LINE
  5
79
330
73
100
AcDbEntity
  8
0
  6
Continuous
 62
     7
370
     0
100
AcDbLine
 10
156.6850079902
 20
52.0299240879
 30
0.0
 11
156.6850079902
 21
37.4602342313
 31
0.0
  0
LINE
  5
7A
330
73
100
AcDbEntity
  8
0
  6
Continuous
 62
     7
370
     0
100
AcDbLine
 10
56.6850079902
 20
38.4602342313
 30
0.0
 11
156.6850079902
 21
38.4602342313
 31
0.0
  0
MTEXT
  5
7B
330
73
100
AcDbEntity
  8
0
  6
Continuous
 62
     7
370
    18
100
AcDbMText
 10
93.9626484861
 20
46.1946404371
 30
0.0
 40
6.0
 41
0.0
 71
     1
 72
     1
  1
100
  7
SLDTEXTSTYLE0
 73
     1
 44
1.0
  0
MTEXT
  5
7C
330
73
100
AcDbEntity
  8
0
  6
Continuous
 62
     7
370
    18
100
AcDbMText
 10
105.3376491864
 20
46.1946404371
 30
0.0
 40
6.0
 41
0.0
 71
     1
 72
     1
  1
mm
  7
SLDTEXTSTYLE0
 73
     1
 44
1.0
  0
ENDBLK
  5
75
330
73
100
AcDbEntity
  8
0
100
AcDbBlockEnd
  0
ENDSEC
  0
SECTION
  2
ENTITIES
  0
LINE
  5
63
330
1F
100
AcDbEntity
  8
0
  6
Continuous
 62
     7
370
    18
100
AcDbLine
 10
56.6850079902
 20
152.0299240879
 30
0.0
 11
56.6850079902
 21
52.0299240879
 31
0.0
  0
LINE
  5
64
330
1F
100
AcDbEntity
  8
0
  6
Continuous
 62
     7
370
    18
100
AcDbLine
 10
56.6850079902
 20
52.0299240879
 30
0.0
 11
156.6850079902
 21
52.0299240879
 31
0.0
  0
DIMENSION
  5
65
330
1F
100
AcDbEntity
  8
0
  6
Continuous
 62
     7
370
    18
100
AcDbDimension
  2
_D
 10
42.7614395004
 20
52.0299240879
 30
0.0
 11
42.7614395004
 21
105.4472211621
 31
0.0
 70
   160
  1
<>mm
 71
     2
 42
-1.0
  3
SLDDIMSTYLE0
100
AcDbAlignedDimension
 13
56.6850079902
 23
152.0299240879
 33
0.0
 14
56.6850079902
 24
52.0299240879
 34
0.0
 50
90.0
100
AcDbRotatedDimension
  0
DIMENSION
  5
72
330
1F
100
AcDbEntity
  8
0
  6
Continuous
 62
     7
370
    18
100
AcDbDimension
  2
_D_1
 10
156.6850079902
 20
38.4602342313
 30
0.0
 11
105.0418155019
 21
38.4602342313
 31
0.0
 70
   160
  1
<>mm
 71
     2
 42
-1.0
  3
SLDDIMSTYLE0
100
AcDbAlignedDimension
 13
56.6850079902
 23
52.0299240879
 33
0.0
 14
156.6850079902
 24
52.0299240879
 34
0.0
100
AcDbRotatedDimension
  0
MTEXT
  5
7E
330
1F
100
AcDbEntity
  8
0
  6
Continuous
 62
     7
370
     0
100
AcDbMText
 10
412.8252631579
 20
48.4342449499
 30
0.0
 40
10.0
 41
0.0
 71
     1
 72
     1
  1
KLUDI GmbH & Co KG
  7
SLDTEXTSTYLE1
 73
     1
 44
1.0
  0
MTEXT
  5
7F
330
1F
100
AcDbEntity
  8
0
  6
Continuous
 62
     7
370
     0
100
AcDbMText
 10
210.0873490389
 20
48.4342449499
 30
0.0
 40
10.0
 41
0.0
 71
     1
 72
     1
  1
54 267 .. 75
  7
SLDTEXTSTYLE1
 73
     1
 44
1.0
  0
SPLINE
  5
80
330
1F
100
AcDbEntity
  8
0
  6
Continuous
 62
     7
370
    25
100
AcDbSpline
210
0.0
220
0.0
230
1.0
 70
     8
 71
     3
 72
    15
 73
    11
 74
     0
 42
0.00000001
 43
0.00000001
 40
0.0
 40
0.0
 40
0.0
 40
0.0
 40
0.1921590502986304
 40
0.4264055942489676
 40
0.5635796929613279
 40
0.6752481388150572
 40
0.7259574072107775
 40
0.7762870299278116
 40
0.8850346708517122
 40
0.9999999999999999
 40
0.9999999999999999
 40
0.9999999999999999
 40
0.9999999999999999
 10
139.3225301416394
 20
445.9619532278
 30
0.0
 10
139.3023220598776
 20
445.8870927421302
 30
0.0
 10
139.2574798362152
 20
445.7209755083689
 30
0.0
 10
139.2584290495939
 20
445.2964499875475
 30
0.0
 10
139.2966663670523
 20
444.7244425281212
 30
0.0
 10
139.3372663709229
 20
444.1868298675161
 30
0.0
 10
139.373086404591
 20
443.7067562493056
 30
0.0
 10
139.4107114968088
 20
443.1889734441671
 30
0.0
 10
139.4569069122287
 20
442.4920464105392
 30
0.0
 10
139.4969275214845
 20
441.9433346715292
 30
0.0
 10
139.5174939755186
 20
441.661353588079
 30
0.0
  0
SPLINE
  5
81
330
1F
100
AcDbEntity
  8
0
  6
Continuous
 62
     7
370
    25
100
AcDbSpline
210
0.0
220
0.0
230
1.0
 70
     8
 71
     3
 72
    15
 73
    11
 74
     0
 42
0.00000001
 43
0.00000001
 40
0.0
 40
0.0
 40
0.0
 40
0.0
 40
0.0389908510549392
 40
0.287510346040751
 40
0.4006826607638357
 40
0.4545000224954008
 40
0.509419320509227
 40
0.6312087321073775
 40
0.7807324117494201
 40
1.0
 40
1.0
 40
1.0
 40
1.0
 10
173.5182099775405
 20
441.6754463408268
 30
0.0
 10
173.5247626913001
 20
441.766652980612
 30
0.0
 10
173.5730810262315
 20
442.4391915853452
 30
0.0
 10
173.6352888141471
 20
443.4350257590123
 30
0.0
 10
173.7161766639388
 20
444.4517675605503
 30
0.0
 10
173.7561359109659
 20
444.9264035852962
 30
0.0
 10
173.7919870362857
 20
445.3458949329677
 30
0.0
 10
173.8223843574029
 20
445.7506512707003
 30
0.0
 10
173.8388314644433
 20
446.0564198738726
 30
0.0
 10
173.7934992064163
 20
446.0773131628788
 30
0.0
 10
173.7665465756115
 20
446.0897354230835
 30
0.0
  0
SPLINE
  5
82
330
1F
100
AcDbEntity
  8
0
  6
Continuous
 62
     7
370
    25
100
AcDbSpline
210
0.0
220
0.0
230
1.0
 70
     8
 71
     3
 72
    11
 73
     7
 74
     0
 42
0.00000001
 43
0.00000001
 40
0.0
 40
0.0
 40
0.0
 40
0.0
 40
0.2499905421085103
 40
0.5000008208665836
 40
0.7498928970882386
 40
1.0
 40
1.0
 40
1.0
 40
1.0
 10
139.5613191421245
 20
466.518934892146
 30
0.0
 10
139.4242707725555
 20
466.5049426322161
 30
0.0
 10
139.1501632135055
 20
466.476957007673
 30
0.0
 10
138.8029764642696
 20
466.2370715192495
 30
0.0
 10
138.5607517372618
 20
465.8915422304809
 30
0.0
 10
138.5310117975125
 20
465.6177793670572
 30
0.0
 10
138.5161354327465
 20
465.4808390689263
 30
0.0
  0
SPLINE
  5
83
330
1F
100
AcDbEntity
  8
0
  6
Continuous
 62
     7
370
    25
100
AcDbSpline
210
0.0
220
0.0
230
1.0
 70
     8
 71
     3
 72
    11
 73
     7
 74
     0
 42
0.00000001
 43
0.00000001
 40
0.0
 40
0.0
 40
0.0
 40
0.0
 40
0.2500987146208175
 40
0.4999991971970774
 40
0.7499836093654463
 40
0.9999999999999999
 40
0.9999999999999999
 40
0.9999999999999999
 40
0.9999999999999999
 10
174.5131840216937
 20
465.4808474464658
 30
0.0
 10
174.4983347345302
 20
465.6176647200451
 30
0.0
 10
174.468647929974
 20
465.891190823752
 30
0.0
 10
174.2268306438088
 20
466.2365201924017
 30
0.0
 10
173.880164256952
 20
466.4764876997332
 30
0.0
 10
173.6063302213461
 20
466.504797920007
 30
0.0
 10
173.4694044467647
 20
466.5189539354597
 30
0.0
  0
LINE
  5
84
330
1F
100
AcDbEntity
  8
0
  6
Continuous
 62
     7
370
    25
100
AcDbLine
 10
173.4860391332
 20
466.5210466079
 30
0.0
 11
156.5146596937
 21
466.5210466115
 31
0.0
  0
LINE
  5
85
330
1F
100
AcDbEntity
  8
0
  6
Continuous
 62
     7
370
    25
100
AcDbLine
 10
156.5146596936
 20
466.5210466115
 30
0.0
 11
139.543280254
 21
466.5210466079
 31
0.0
  0
SPLINE
  5
86
330
1F
100
AcDbEntity
  8
0
  6
Continuous
 62
     7
370
    25
100
AcDbSpline
210
0.0
220
0.0
230
1.0
 70
     8
 71
     3
 72
    11
 73
     7
 74
     0
 42
0.00000001
 43
0.00000001
 40
0.0
 40
0.0
 40
0.0
 40
0.0
 40
0.23541146952169
 40
0.4847121331463263
 40
0.7421296700125604
 40
1.0
 40
1.0
 40
1.0
 40
1.0
 10
138.7042202213999
 20
346.750384607444
 30
0.0
 10
138.6357052440221
 20
346.2870662071046
 30
0.0
 10
138.4946329296413
 20
345.3330937833704
 30
0.0
 10
137.7890319677188
 20
343.9604028523509
 30
0.0
 10
136.7232241558817
 20
342.7816733141722
 30
0.0
 10
135.810058390025
 20
342.3276716845068
 30
0.0
 10
135.3530742991468
 20
342.100471399797
 30
0.0
  0
LINE
  5
87
330
1F
100
AcDbEntity
  8
0
  6
Continuous
 62
     7
370
    25
100
AcDbLine
 10
138.70422031
 20
357.7503846074
 30
0.0
 11
138.70422031
 21
346.7503846823
 31
0.0
  0
ARC
  5
88
330
1F
100
AcDbEntity
  8
0
  6
Continuous
 62
     7
370
    25
100
AcDbCircle
 10
163.7319440875
 20
437.8187265072
 30
0.0
 40
22.81689189189191
100
AcDbArc
 50
170.2246276438
 51
180.0
  0
ARC
  5
89
330
1F
100
AcDbEntity
  8
0
  6
Continuous
 62
     7
370
    25
100
AcDbCircle
 10
149.2981603037
 20
437.8187265072
 30
0.0
 40
22.81689189189191
100
AcDbArc
 50
0.0
 51
9.497597607
  0
LINE
  5
8A
330
1F
100
AcDbEntity
  8
0
  6
Continuous
 62
     7
370
    25
100
AcDbLine
 10
139.5150966151
 20
437.8187265072
 30
0.0
 11
173.5150988015
 21
437.8187265072
 31
0.0
  0
ARC
  5
8B
330
1F
100
AcDbEntity
  8
0
  6
Continuous
 62
     7
370
    25
100
AcDbCircle
 10
173.5150988016
 20
436.8187265072
 30
0.0
 40
1.0
100
AcDbArc
 50
0.0000000866
 51
90.0000000059
  0
LINE
  5
8C
330
1F
100
AcDbEntity
  8
0
  6
Continuous
 62
     7
370
    25
100
AcDbLine
 10
174.5150988016
 20
436.8187265087
 30
0.0
 11
174.5150988167
 21
426.818725092
 31
0.0
  0
ARC
  5
8D
330
1F
100
AcDbEntity
  8
0
  6
Continuous
 62
     7
370
    25
100
AcDbCircle
 10
139.5150966153
 20
436.8187265072
 30
0.0
 40
1.0
100
AcDbArc
 50
90.0000000123
 51
180.0000000862
  0
LINE
  5
8E
330
1F
100
AcDbEntity
  8
0
  6
Continuous
 62
     7
370
    25
100
AcDbLine
 10
138.5150966304
 20
426.818725092
 30
0.0
 11
138.5150966153
 21
436.8187265057
 31
0.0
  0
SPLINE
  5
8F
330
1F
100
AcDbEntity
  8
0
  6
Continuous
 62
     7
370
    25
100
AcDbSpline
210
0.0
220
0.0
230
1.0
 70
     8
 71
     3
 72
    22
 73
    18
 74
     0
 42
0.00000001
 43
0.00000001
 40
0.0
 40
0.0
 40
0.0
 40
0.0
 40
1.642405407302315
 40
1.642405407302315
 40
3.284810814604629
 40
3.284810814604629
 40
4.927216221906944
 40
4.927216221906944
 40
5.748418925558101
 40
5.748418925558101
 40
6.569621629209259
 40
6.569621629209259
 40
8.212027036511573
 40
8.212027036511573
 40
9.854432443813888
 40
9.854432443813888
 40
13.13924325841852
 40
13.13924325841852
 40
13.13924325841852
 40
13.13924325841852
 10
174.5151018988778
 20
426.8187248810086
 30
0.0
 10
174.5148321226675
 20
426.3731137273667
 30
0.0
 10
174.5021513592886
 20
425.9269210182197
 30
0.0
 10
174.422522064249
 20
425.0392020381937
 30
0.0
 10
174.3568347682682
 20
424.5958325817142
 30
0.0
 10
174.108197690404
 20
423.7406418931586
 30
0.0
 10
173.9175550187441
 20
423.3259473519664
 30
0.0
 10
173.475540911729
 20
422.8214032104096
 30
0.0
 10
173.3052824572163
 20
422.6752243147298
 30
0.0
 10
172.9312776280069
 20
422.43200978287
 30
0.0
 10
172.7295495974337
 20
422.3346233701982
 30
0.0
 10
172.1026919460357
 20
422.1000791544593
 30
0.0
 10
171.6619992572319
 20
422.0147942785788
 30
0.0
 10
170.7785204317855
 20
421.8995881911492
 30
0.0
 10
170.3329495209704
 20
421.8705558686724
 30
0.0
 10
168.9967290004217
 20
421.8164989911261
 30
0.0
 10
168.1050319615256
 20
421.8196437591486
 30
0.0
 10
167.2135036880586
 20
421.8190515463307
 30
0.0
  0
LINE
  5
90
330
1F
100
AcDbEntity
  8
0
  6
Continuous
 62
     7
370
    25
100
AcDbLine
 10
167.2135036881
 20
421.819051078
 30
0.0
 11
145.8167443214
 21
421.819051078
 31
0.0
  0
SPLINE
  5
91
330
1F
100
AcDbEntity
  8
0
  6
Continuous
 62
     7
370
    25
100
AcDbSpline
210
0.0
220
0.0
230
1.0
 70
     8
 71
     3
 72
    22
 73
    18
 74
     0
 42
0.00000001
 43
0.00000001
 40
39.41772977525555
 40
39.41772977525555
 40
39.41772977525555
 40
39.41772977525555
 40
42.70254058986018
 40
42.70254058986018
 40
44.3449459971625
 40
44.3449459971625
 40
45.98735140446481
 40
45.98735140446481
 40
46.80855410811597
 40
46.80855410811597
 40
47.62975681176712
 40
47.62975681176712
 40
49.27216221906944
 40
49.27216221906944
 40
50.91456762637176
 40
50.91456762637176
 40
52.55697303367407
 40
52.55697303367407
 40
52.55697303367407
 40
52.55697303367407
 10
145.8167443214422
 20
421.8190510780211
 30
0.0
 10
144.9253585454513
 20
421.819642441808
 30
0.0
 10
144.0332598806795
 20
421.8165012084015
 30
0.0
 10
142.6972816008578
 20
421.8705566566738
 30
0.0
 10
142.2517932452698
 20
421.8995798671918
 30
0.0
 10
141.36823269813
 20
422.0147803466776
 30
0.0
 10
140.9273888798865
 20
422.1001170146288
 30
0.0
 10
140.300712889942
 20
422.3345974816135
 30
0.0
 10
140.0988917918382
 20
422.432031958926
 30
0.0
 10
139.725012378252
 20
422.6751505899683
 30
0.0
 10
139.5546025218879
 20
422.8214585149495
 30
0.0
 10
139.1127135822985
 20
423.3258643903197
 30
0.0
 10
138.922013791694
 20
423.7406143299687
 30
0.0
 10
138.6733894468719
 20
424.5957177977926
 30
0.0
 10
138.6076654362926
 20
425.0393124199133
 30
0.0
 10
138.528060872058
 20
425.9268299103807
 30
0.0
 10
138.515368808477
 20
426.3731138060637
 30
0.0
 10
138.5151018988777
 20
426.8187248810088
 30
0.0
  0
SPLINE
  5
92
330
1F
100
AcDbEntity
  8
0
  6
Continuous
 62
     7
370
    25
100
AcDbSpline
210
0.0
220
0.0
230
1.0
 70
     8
 71
     3
 72
     9
 73
     5
 74
     0
 42
0.00000001
 43
0.00000001
 40
0.0
 40
0.0
 40
0.0
 40
0.0
 40
0.22302176997596
 40
1.0
 40
1.0
 40
1.0
 40
1.0
 10
139.3065630866442
 20
445.9594637605687
 30
0.0
 10
139.2983691027997
 20
446.0649980104344
 30
0.0
 10
139.2616283673757
 20
446.5381995722242
 30
0.0
 10
139.1052257999406
 20
446.9953599119765
 30
0.0
 10
138.9837044099236
 20
447.3505635435944
 30
0.0
  0
LINE
  5
93
330
1F
100
AcDbEntity
  8
0
  6
Continuous
 62
     7
370
    25
100
AcDbLine
 10
138.5146887083
 20
448.3307713897
 30
0.0
 11
138.5146887083
 21
463.4843381718
 31
0.0
  0
SPLINE
  5
94
330
1F
100
AcDbEntity
  8
0
  6
Continuous
 62
     7
370
    25
100
AcDbSpline
210
0.0
220
0.0
230
1.0
 70
     8
 71
     3
 72
    14
 73
    10
 74
     0
 42
0.00000001
 43
0.00000001
 40
0.0
 40
0.0
 40
0.0
 40
0.0
 40
0.25
 40
0.25
 40
0.5
 40
0.5
 40
0.75
 40
0.75
 40
1.0
 40
1.0
 40
1.0
 40
1.0
 10
138.5146887246707
 20
463.484338164925
 30
0.0
 10
138.5146646639951
 20
463.5084917801988
 30
0.0
 10
138.541418920264
 20
463.5326375540006
 30
0.0
 10
138.6444505013642
 20
463.577613477323
 30
0.0
 10
138.7206872673278
 20
463.5984276992702
 30
0.0
 10
138.9111090283835
 20
463.6339109988191
 30
0.0
 10
139.0252190630513
 20
463.6485678856635
 30
0.0
 10
139.2740338124057
 20
463.6698427699682
 30
0.0
 10
139.408640579993
 20
463.6764541698806
 30
0.0
 10
139.5432998467583
 20
463.6787113286776
 30
0.0
  0
LINE
  5
95
330
1F
100
AcDbEntity
  8
0
  6
Continuous
 62
     7
370
    25
100
AcDbLine
 10
139.5432998467
 20
463.6787113287
 30
0.0
 11
173.4859267101
 21
463.6788768687
 31
0.0
  0
SPLINE
  5
96
330
1F
100
AcDbEntity
  8
0
  6
Continuous
 62
     7
370
    25
100
AcDbSpline
210
0.0
220
0.0
230
1.0
 70
     8
 71
     3
 72
    14
 73
    10
 74
     0
 42
0.00000001
 43
0.00000001
 40
0.0
 40
0.0
 40
0.0
 40
0.0
 40
0.25
 40
0.25
 40
0.5
 40
0.5
 40
0.75
 40
0.75
 40
1.0
 40
1.0
 40
1.0
 40
1.0
 10
173.4859267081217
 20
463.6788768675095
 30
0.0
 10
173.6205913717644
 20
463.6765833154072
 30
0.0
 10
173.7552059426673
 20
463.6699351680646
 30
0.0
 10
174.0040383448302
 20
463.6485858875062
 30
0.0
 10
174.1181582063935
 20
463.6338913519697
 30
0.0
 10
174.3085987925514
 20
463.5983318916936
 30
0.0
 10
174.3848445373349
 20
463.5774791594312
 30
0.0
 10
174.4878909542196
 20
463.5324255960127
 30
0.0
 10
174.5146510551325
 20
463.5082406953294
 30
0.0
 10
174.5146306672104
 20
463.4840478327191
 30
0.0
  0
SPLINE
  5
97
330
1F
100
AcDbEntity
  8
0
  6
Continuous
 62
     7
370
    25
100
AcDbSpline
210
0.0
220
0.0
230
1.0
 70
    24
 71
     3
 72
    17
 73
    13
 74
     0
 42
0.00000001
 43
0.00000001
 40
0.0
 40
0.0
 40
0.0
 40
0.0
 40
0.0125608246447145
 40
0.0445525619353226
 40
0.0959752278017525
 40
0.1668288250680362
 40
0.2571133547348524
 40
0.3668288172712102
 40
0.4959752129344207
 40
0.6445525418808434
 40
0.8125608042125857
 40
1.0
 40
1.0
 40
1.0
 40
1.0
 10
174.514630678965
 20
463.4840478280483
 30
0.0
 10
174.514630678965
 20
463.419749466571
 30
0.0
 10
174.514630678965
 20
463.1916866750678
 30
0.0
 10
174.5146306789651
 20
462.7067845635281
 30
0.0
 10
174.514630678965
 20
461.9257837879743
 30
0.0
 10
174.5146306789651
 20
460.8518269936868
 30
0.0
 10
174.5146306789651
 20
459.4835150343425
 30
0.0
 10
174.5146306789651
 20
457.8214464615691
 30
0.0
 10
174.5146306789652
 20
455.8654112806507
 30
0.0
 10
174.5146306789652
 20
453.6154929613188
 30
0.0
 10
174.5146306789653
 20
451.0716511863314
 30
0.0
 10
174.5146306789653
 20
449.2779208235291
 30
0.0
 10
174.5146306789653
 20
448.3320275023552
 30
0.0
  0
LINE
  5
98
330
1F
100
AcDbEntity
  8
0
  6
Continuous
 62
     7
370
    25
100
AcDbLine
 10
173.5018925729
 20
441.615559459
 30
0.0
 11
173.5151435418
 21
441.6756722621
 31
0.0
  0
SPLINE
  5
99
330
1F
100
AcDbEntity
  8
0
  6
Continuous
 62
     7
370
    25
100
AcDbSpline
210
0.0
220
0.0
230
1.0
 70
     8
 71
     3
 72
    12
 73
     8
 74
     0
 42
0.00000001
 43
0.00000001
 40
0.0
 40
0.0
 40
0.0
 40
0.0
 40
0.2500000000000001
 40
0.2500000000000001
 40
0.5000000000000002
 40
0.5000000000000002
 40
1.0
 40
1.0
 40
1.0
 40
1.0
 10
173.1398576464582
 20
441.591655694932
 30
0.0
 10
173.1926698029039
 20
441.5936421884234
 30
0.0
 10
173.2360506519761
 20
441.59563096735
 30
0.0
 10
173.3156213237126
 20
441.5996102677636
 30
0.0
 10
173.3510836374814
 20
441.6016009655438
 30
0.0
 10
173.4423362021452
 20
441.6075767263119
 30
0.0
 10
173.4811001471704
 20
441.6115659151876
 30
0.0
 10
173.5018925430228
 20
441.6155594590068
 30
0.0
  0
SPLINE
  5
9A
330
1F
100
AcDbEntity
  8
0
  6
Continuous
 62
     7
370
    25
100
AcDbSpline
210
0.0
220
0.0
230
1.0
 70
     8
 71
     3
 72
    14
 73
    10
 74
     0
 42
0.00000001
 43
0.00000001
 40
0.0
 40
0.0
 40
0.0
 40
0.0
 40
0.25
 40
0.25
 40
0.5
 40
0.5
 40
0.75
 40
0.75
 40
1.0
 40
1.0
 40
1.0
 40
1.0
 10
171.4817574849012
 20
441.5646324861391
 30
0.0
 10
171.7059115650936
 20
441.5668000129834
 30
0.0
 10
171.8972654512343
 20
441.5689997403779
 30
0.0
 10
172.2507295661625
 20
441.5734279042001
 30
0.0
 10
172.4086424067246
 20
441.5756604612804
 30
0.0
 10
172.6851760190691
 20
441.5801641491834
 30
0.0
 10
172.8039704102862
 20
441.5824351095606
 30
0.0
 10
173.0008382900536
 20
441.5870170067698
 30
0.0
 10
173.0779968196367
 20
441.5893288418337
 30
0.0
 10
173.1398576464582
 20
441.591655694932
 30
0.0
  0
SPLINE
  5
9B
330
1F
100
AcDbEntity
  8
0
  6
Continuous
 62
     7
370
    25
100
AcDbSpline
210
0.0
220
0.0
230
1.0
 70
     8
 71
     3
 72
    22
 73
    18
 74
     0
 42
0.00000001
 43
0.00000001
 40
0.0
 40
0.0
 40
0.0
 40
0.0
 40
0.125
 40
0.125
 40
0.25
 40
0.25
 40
0.375
 40
0.375
 40
0.5
 40
0.5
 40
0.625
 40
0.625
 40
0.75
 40
0.75
 40
0.875
 40
0.875
 40
1.0
 40
1.0
 40
1.0
 40
1.0
 10
164.2912143484851
 20
441.5422955961593
 30
0.0
 10
164.6887719500702
 20
441.5425158876101
 30
0.0
 10
165.0797885342888
 20
441.5428203167001
 30
0.0
 10
165.8454186747832
 20
441.5436401683652
 30
0.0
 10
166.2203225391504
 20
441.5441518566836
 30
0.0
 10
166.9543845179018
 20
441.5453777721854
 30
0.0
 10
167.3159750887915
 20
441.5460981555981
 30
0.0
 10
168.0046534819687
 20
441.5477056070459
 30
0.0
 10
168.333205629095
 20
441.5485935085152
 30
0.0
 10
168.9591663344298
 20
441.5505353674872
 30
0.0
 10
169.2565653899183
 20
441.551589375658
 30
0.0
 10
169.8183822946474
 20
441.5538732461152
 30
0.0
 10
170.0797345705979
 20
441.5550919318865
 30
0.0
 10
170.5552575416336
 20
441.5576266343754
 30
0.0
 10
170.7710651294843
 20
441.5589499857568
 30
0.0
 10
171.1580798278111
 20
441.5617104556911
 30
0.0
 10
171.328423558281
 20
441.563149776559
 30
0.0
 10
171.4817574849012
 20
441.5646324861391
 30
0.0
  0
SPLINE
  5
9C
330
1F
100
AcDbEntity
  8
0
  6
Continuous
 62
     7
370
    25
100
AcDbSpline
210
0.0
220
0.0
230
1.0
 70
     8
 71
     3
 72
    14
 73
    10
 74
     0
 42
0.00000001
 43
0.00000001
 40
0.0
 40
0.0
 40
0.0
 40
0.0
 40
0.5000000000000027
 40
0.5000000000000027
 40
0.7500000000000014
 40
0.7500000000000014
 40
0.8750000000000008
 40
0.8750000000000008
 40
1.0
 40
1.0
 40
1.0
 40
1.0
 10
156.5150584093732
 20
441.5402739927763
 30
0.0
 10
157.8165748530095
 20
441.540273025049
 30
0.0
 10
159.1153093041366
 20
441.5404432708179
 30
0.0
 10
161.0593466099835
 20
441.5409487749909
 30
0.0
 10
161.7066608068406
 20
441.5411602484034
 30
0.0
 10
162.6766232455934
 20
441.5415395470625
 30
0.0
 10
162.9998183000016
 20
441.5416737195651
 30
0.0
 10
163.6457295571372
 20
441.5419715347682
 30
0.0
 10
163.968742571191
 20
441.5421169106672
 30
0.0
 10
164.2912143484851
 20
441.5422955961593
 30
0.0
  0
SPLINE
  5
9D
330
1F
100
AcDbEntity
  8
0
  6
Continuous
 62
     7
370
    25
100
AcDbSpline
210
0.0
220
0.0
230
1.0
 70
     8
 71
     3
 72
    14
 73
    10
 74
     0
 42
0.00000001
 43
0.00000001
 40
0.0
 40
0.0
 40
0.0
 40
0.0
 40
0.1249999999999991
 40
0.1249999999999991
 40
0.2499999999999982
 40
0.2499999999999982
 40
0.4999999999999989
 40
0.4999999999999989
 40
1.0
 40
1.0
 40
1.0
 40
1.0
 10
148.7386919270644
 20
441.5422937588797
 30
0.0
 10
149.0611419101777
 20
441.5421131785129
 30
0.0
 10
149.3842090654618
 20
441.5419706166487
 30
0.0
 10
150.0302167141778
 20
441.5416776904072
 30
0.0
 10
150.3533158518575
 20
441.5415370986948
 30
0.0
 10
151.3233525937547
 20
441.5411608670501
 30
0.0
 10
151.9706746782266
 20
441.5409489115356
 30
0.0
 10
153.914754123849
 20
441.5404432200187
 30
0.0
 10
155.213548403541
 20
441.5402749604989
 30
0.0
 10
156.5150584093732
 20
441.5402739927763
 30
0.0
  0
SPLINE
  5
9E
330
1F
100
AcDbEntity
  8
0
  6
Continuous
 62
     7
370
    25
100
AcDbSpline
210
0.0
220
0.0
230
1.0
 70
     8
 71
     3
 72
    22
 73
    18
 74
     0
 42
0.00000001
 43
0.00000001
 40
0.0
 40
0.0
 40
0.0
 40
0.0
 40
0.125
 40
0.125
 40
0.25
 40
0.25
 40
0.375
 40
0.375
 40
0.5
 40
0.5
 40
0.625
 40
0.625
 40
0.75
 40
0.75
 40
0.875
 40
0.875
 40
1.0
 40
1.0
 40
1.0
 40
1.0
 10
141.5493513538576
 20
441.5646333303962
 30
0.0
 10
141.7022155236752
 20
441.5631499759902
 30
0.0
 10
141.8701671158415
 20
441.5617045493208
 30
0.0
 10
142.2570219505977
 20
441.5589417815303
 30
0.0
 10
142.4740527289668
 20
441.5576197332878
 30
0.0
 10
142.9514389713753
 20
441.5550845491952
 30
0.0
 10
143.2141693992395
 20
441.5538631314985
 30
0.0
 10
143.7750700335942
 20
441.5515851357849
 30
0.0
 10
144.0719315137704
 20
441.5505318779429
 30
0.0
 10
144.69732716659
 20
441.5485908360361
 30
0.0
 10
145.0257926741359
 20
441.5477026932309
 30
0.0
 10
145.7151262948672
 20
441.5460956948238
 30
0.0
 10
146.0766958067982
 20
441.5453772243231
 30
0.0
 10
146.8102089486175
 20
441.5441525519557
 30
0.0
 10
147.1848173165713
 20
441.5436399498674
 30
0.0
 10
147.95012299473
 20
441.5428191086026
 30
0.0
 10
148.3412506966794
 20
441.5425163362931
 30
0.0
 10
148.7386919270644
 20
441.5422937588797
 30
0.0
  0
SPLINE
  5
9F
330
1F
100
AcDbEntity
  8
0
  6
Continuous
 62
     7
370
    25
100
AcDbSpline
210
0.0
220
0.0
230
1.0
 70
     8
 71
     3
 72
    14
 73
    10
 74
     0
 42
0.00000001
 43
0.00000001
 40
0.0
 40
0.0
 40
0.0
 40
0.0
 40
0.25
 40
0.25
 40
0.5
 40
0.5
 40
0.75
 40
0.75
 40
1.0
 40
1.0
 40
1.0
 40
1.0
 10
139.8875281041648
 20
441.5917965120768
 30
0.0
 10
139.9490807647079
 20
441.5894576079305
 30
0.0
 10
140.0248133102215
 20
441.5871325837991
 30
0.0
 10
140.2212285055493
 20
441.5825265350553
 30
0.0
 10
140.340006846706
 20
441.5802436464057
 30
0.0
 10
140.6177516061677
 20
441.5757172073039
 30
0.0
 10
140.7767478808485
 20
441.5734736860766
 30
0.0
 10
141.1317981899849
 20
441.5690229177005
 30
0.0
 10
141.3247659107723
 20
441.5668126495061
 30
0.0
 10
141.5493513538576
 20
441.5646333303962
 30
0.0
  0
SPLINE
  5
A0
330
1F
100
AcDbEntity
  8
0
  6
Continuous
 62
     7
370
    25
100
AcDbSpline
210
0.0
220
0.0
230
1.0
 70
     8
 71
     3
 72
    12
 73
     8
 74
     0
 42
0.00000001
 43
0.00000001
 40
0.0
 40
0.0
 40
0.0
 40
0.0
 40
0.5000000000000018
 40
0.5000000000000018
 40
0.7500000000000009
 40
0.7500000000000009
 40
1.0
 40
1.0
 40
1.0
 40
1.0
 10
139.5299852003545
 20
441.6155594446691
 30
0.0
 10
139.5514409506462
 20
441.611589775498
 30
0.0
 10
139.5885197811614
 20
441.6076238673656
 30
0.0
 10
139.6795042081849
 20
441.6016835190826
 30
0.0
 10
139.7146714104834
 20
441.5997045679245
 30
0.0
 10
139.7926718181437
 20
441.5957485110918
 30
0.0
 10
139.8355547573645
 20
441.5937714173898
 30
0.0
 10
139.8875281041648
 20
441.5917965120768
 30
0.0
  0
LINE
  5
A1
330
1F
100
AcDbEntity
  8
0
  6
Continuous
 62
     7
370
    25
100
AcDbLine
 10
139.5196803279
 20
441.6615140849
 30
0.0
 11
139.5299851956
 21
441.6155594455
 31
0.0
  0
LINE
  5
A2
330
1F
100
AcDbEntity
  8
0
  6
Continuous
 62
     7
370
    25
100
AcDbLine
 10
174.514630679
 20
465.4924550718
 30
0.0
 11
174.514630679
 21
463.4742938256
 31
0.0
  0
LINE
  5
A3
330
1F
100
AcDbEntity
  8
0
  6
Continuous
 62
     7
370
    25
100
AcDbLine
 10
138.5146887083
 20
463.4742938256
 30
0.0
 11
138.5146887083
 21
465.4924550716
 31
0.0
  0
SPLINE
  5
A4
330
1F
100
AcDbEntity
  8
0
  6
Continuous
 62
     7
370
    25
100
AcDbSpline
210
0.0
220
0.0
230
1.0
 70
     8
 71
     3
 72
    10
 73
     6
 74
     0
 42
0.00000001
 43
0.00000001
 40
0.0
 40
0.0
 40
0.0
 40
0.0
 40
0.5
 40
0.5
 40
1.0
 40
1.0
 40
1.0
 40
1.0
 10
138.5146887064229
 20
465.4921615621229
 30
0.0
 10
138.5146887064468
 20
465.6244813401919
 30
0.0
 10
138.5419604942994
 20
465.768497897803
 30
0.0
 10
138.6656654085131
 20
466.0422976484294
 30
0.0
 10
138.7624900929773
 20
466.170727371804
 30
0.0
 10
138.8826860500269
 20
466.2700950106995
 30
0.0
  0
LINE
  5
A5
330
1F
100
AcDbEntity
  8
0
  6
Continuous
 62
     7
370
    25
100
AcDbLine
 10
138.88268605
 20
466.2700950107
 30
0.0
 11
138.9789592658
 21
466.3240018555
 31
0.0
  0
SPLINE
  5
A6
330
1F
100
AcDbEntity
  8
0
  6
Continuous
 62
     7
370
    25
100
AcDbSpline
210
0.0
220
0.0
230
1.0
 70
     8
 71
     3
 72
    45
 73
    41
 74
     0
 42
0.00000001
 43
0.00000001
 40
0.0
 40
0.0
 40
0.0
 40
0.0
 40
0.0019531250000001
 40
0.0019531250000001
 40
0.0039062500000003
 40
0.0039062500000003
 40
0.0078125000000006
 40
0.0078125000000006
 40
0.0156250000000012
 40
0.0156250000000012
 40
0.0312500000000014
 40
0.0312500000000014
 40
0.0625000000000009
 40
0.0625000000000009
 40
0.1249999999999999
 40
0.1249999999999999
 40
0.1874999999999989
 40
0.1874999999999989
 40
0.2499999999999979
 40
0.2499999999999979
 40
0.4999999999999967
 40
0.7499999999999956
 40
0.7499999999999956
 40
0.8124999999999958
 40
0.8124999999999958
 40
0.874999999999996
 40
0.874999999999996
 40
0.9374999999999961
 40
0.9374999999999961
 40
0.9687499999999972
 40
0.9687499999999972
 40
0.9843749999999987
 40
0.9843749999999987
 40
0.9921874999999994
 40
0.9921874999999994
 40
0.9960937499999998
 40
0.9960937499999998
 40
0.998046875
 40
0.998046875
 40
1.0
 40
1.0
 40
1.0
 40
1.0
 10
145.8167445361715
 20
421.8190510778637
 30
0.0
 10
145.8166712390168
 20
421.8190511264905
 30
0.0
 10
145.8318205652277
 20
421.8190411046928
 30
0.0
 10
145.856545448006
 20
421.8190252313817
 30
0.0
 10
145.8697772888335
 20
421.8190169228668
 30
0.0
 10
145.909767288505
 20
421.818992451943
 30
0.0
 10
145.9369453007893
 20
421.8189766442286
 30
0.0
 10
146.018965138175
 20
421.818931435265
 30
0.0
 10
146.0744571528601
 20
421.8189041604552
 30
0.0
 10
146.2410273679418
 20
421.818831551912
 30
0.0
 10
146.3523597751069
 20
421.8187952550098
 30
0.0
 10
146.6866795350509
 20
421.8187152093319
 30
0.0
 10
146.9100934314455
 20
421.8187003009597
 30
0.0
 10
147.5801888620361
 20
421.81870677401
 30
0.0
 10
148.0268743883406
 20
421.8187791222843
 30
0.0
 10
148.9203849281274
 20
421.8187122352697
 30
0.0
 10
149.3671316680376
 20
421.8187288740845
 30
0.0
 10
150.2606327065704
 20
421.8187232042702
 30
0.0
 10
150.7073834727691
 20
421.8187243836295
 30
0.0
 10
152.941136873425
 20
421.8187232882111
 30
0.0
 10
156.5151424342278
 20
421.8187238281733
 30
0.0
 10
160.0891479824587
 20
421.818723288504
 30
0.0
 10
162.3229014395825
 20
421.8187243839995
 30
0.0
 10
162.7696521247396
 20
421.8187232077886
 30
0.0
 10
163.6631535587211
 20
421.8187288773112
 30
0.0
 10
164.1099132753762
 20
421.8187122287406
 30
0.0
 10
165.0033363039497
 20
421.8187791934292
 30
0.0
 10
165.4500580012394
 20
421.8187067466094
 30
0.0
 10
166.1201330187087
 20
421.8187002671286
 30
0.0
 10
166.343583398969
 20
421.818715181688
 30
0.0
 10
166.6782089408606
 20
421.8187954612724
 30
0.0
 10
166.7896866517767
 20
421.8188319004113
 30
0.0
 10
166.9560885710269
 20
421.8189045768801
 30
0.0
 10
167.0114398353757
 20
421.8189318261875
 30
0.0
 10
167.0934812193408
 20
421.8189771179711
 30
0.0
 10
167.1207173627357
 20
421.818992988529
 30
0.0
 10
167.1604348460611
 20
421.8190173260494
 30
0.0
 10
167.1735709631992
 20
421.8190255844386
 30
0.0
 10
167.1980836836566
 20
421.8190413371959
 30
0.0
 10
167.2127974864969
 20
421.8190510774223
 30
0.0
 10
167.2127983658766
 20
421.8190510780059
 30
0.0
  0
SPLINE
  5
A7
330
1F
100
AcDbEntity
  8
0
  6
Continuous
 62
     7
370
    25
100
AcDbSpline
210
0.0
220
0.0
230
1.0
 70
     8
 71
     3
 72
    38
 73
    34
 74
     0
 42
0.00000001
 43
0.00000001
 40
0.0
 40
0.0
 40
0.0
 40
0.0
 40
0.0625
 40
0.0625
 40
0.125
 40
0.125
 40
0.1874999999999999
 40
0.1874999999999999
 40
0.2499999999999999
 40
0.2499999999999999
 40
0.3124999999999998
 40
0.3124999999999998
 40
0.3749999999999998
 40
0.3749999999999998
 40
0.4374999999999998
 40
0.4374999999999998
 40
0.4999999999999997
 40
0.4999999999999997
 40
0.5624999999999997
 40
0.5624999999999997
 40
0.6249999999999997
 40
0.6249999999999997
 40
0.6874999999999997
 40
0.6874999999999997
 40
0.7499999999999997
 40
0.7499999999999997
 40
0.8124999999999998
 40
0.8124999999999998
 40
0.8749999999999999
 40
0.8749999999999999
 40
0.9375
 40
0.9375
 40
1.0
 40
1.0
 40
1.0
 40
1.0
 10
138.515101898878
 20
426.8187248809937
 30
0.0
 10
138.515101898878
 20
426.8187248809937
 30
0.0
 10
138.5151018986825
 20
426.8192313800643
 30
0.0
 10
138.5151018871058
 20
426.8103204669325
 30
0.0
 10
138.5151018757452
 20
426.8008169250447
 30
0.0
 10
138.5151018354067
 20
426.7501711178541
 30
0.0
 10
138.5151018064494
 20
426.708942722866
 30
0.0
 10
138.5151017281906
 20
426.565110644541
 30
0.0
 10
138.5151016789098
 20
426.4624208315186
 30
0.0
 10
138.515101560364
 20
426.1604914899629
 30
0.0
 10
138.5151014911197
 20
425.961165831744
 30
0.0
 10
138.5151013354768
 20
425.427936400969
 30
0.0
 10
138.5151012490989
 20
425.0939464987273
 30
0.0
 10
138.5151010638711
 20
424.2530900999807
 30
0.0
 10
138.5151009650417
 20
423.7461374737902
 30
0.0
 10
138.5151007608281
 20
422.5233709566839
 30
0.0
 10
138.5151006554643
 20
421.8074709360826
 30
0.0
 10
138.5151004447162
 20
420.1357226597212
 30
0.0
 10
138.5151003393524
 20
419.1797882742758
 30
0.0
 10
138.5151001351387
 20
417.0043658883851
 30
0.0
 10
138.5151000363093
 20
415.7847917582545
 30
0.0
 10
138.5150998510815
 20
413.0685499843095
 30
0.0
 10
138.5150997647036
 20
411.5717962108096
 30
0.0
 10
138.5150996090607
 20
408.3003046231628
 30
0.0
 10
138.5150995398164
 20
406.5254806793304
 30
0.0
 10
138.5150994212705
 20
402.7121914863403
 30
0.0
 10
138.5150993719896
 20
400.6736401074971
 30
0.0
 10
138.5150992937309
 20
396.3650559326562
 30
0.0
 10
138.5150992647736
 20
394.0949370069731
 30
0.0
 10
138.515099224435
 20
389.3757786700367
 30
0.0
 10
138.5150992130744
 20
386.9266531290979
 30
0.0
 10
138.5150992014976
 20
381.9250274272117
 30
0.0
 10
138.5150992013021
 20
379.372441136579
 30
0.0
 10
138.5150992013021
 20
376.8187248809937
 30
0.0
  0
SPLINE
  5
A8
330
1F
100
AcDbEntity
  8
0
  6
Continuous
 62
     7
370
    25
100
AcDbSpline
210
0.0
220
0.0
230
1.0
 70
     8
 71
     3
 72
    38
 73
    34
 74
     0
 42
0.00000001
 43
0.00000001
 40
0.0
 40
0.0
 40
0.0
 40
0.0
 40
0.0625
 40
0.0625
 40
0.1250000000000001
 40
0.1250000000000001
 40
0.1875000000000001
 40
0.1875000000000001
 40
0.2500000000000001
 40
0.2500000000000001
 40
0.3125000000000001
 40
0.3125000000000001
 40
0.3750000000000002
 40
0.3750000000000002
 40
0.4375000000000002
 40
0.4375000000000002
 40
0.5000000000000002
 40
0.5000000000000002
 40
0.5625000000000002
 40
0.5625000000000002
 40
0.6250000000000001
 40
0.6250000000000001
 40
0.6875000000000001
 40
0.6875000000000001
 40
0.75
 40
0.75
 40
0.8125
 40
0.8125
 40
0.875
 40
0.875
 40
0.9375
 40
0.9375
 40
1.0
 40
1.0
 40
1.0
 40
1.0
 10
174.5150992013021
 20
376.8187248809936
 30
0.0
 10
174.5150992013021
 20
379.3724411365789
 30
0.0
 10
174.5150992014976
 20
381.9250274272115
 30
0.0
 10
174.5150992130744
 20
386.9266531290977
 30
0.0
 10
174.5150992244351
 20
389.3757786700365
 30
0.0
 10
174.5150992647736
 20
394.0949370069729
 30
0.0
 10
174.5150992937309
 20
396.3650559326561
 30
0.0
 10
174.5150993719897
 20
400.673640107497
 30
0.0
 10
174.5150994212706
 20
402.7121914863401
 30
0.0
 10
174.5150995398164
 20
406.5254806793303
 30
0.0
 10
174.5150996090607
 20
408.3003046231627
 30
0.0
 10
174.5150997647036
 20
411.5717962108095
 30
0.0
 10
174.5150998510815
 20
413.0685499843094
 30
0.0
 10
174.5151000363093
 20
415.7847917582544
 30
0.0
 10
174.5151001351387
 20
417.0043658883849
 30
0.0
 10
174.5151003393525
 20
419.1797882742756
 30
0.0
 10
174.5151004447162
 20
420.1357226597211
 30
0.0
 10
174.5151006554643
 20
421.8074709360824
 30
0.0
 10
174.5151007608281
 20
422.5233709566837
 30
0.0
 10
174.5151009650418
 20
423.74613747379
 30
0.0
 10
174.5151010638711
 20
424.2530900999805
 30
0.0
 10
174.5151012490989
 20
425.0939464987272
 30
0.0
 10
174.5151013354768
 20
425.4279364009689
 30
0.0
 10
174.5151014911197
 20
425.9611658317439
 30
0.0
 10
174.515101560364
 20
426.1604914899627
 30
0.0
 10
174.5151016789098
 20
426.4624208315186
 30
0.0
 10
174.5151017281906
 20
426.5651106445408
 30
0.0
 10
174.5151018064494
 20
426.7089427228659
 30
0.0
 10
174.5151018354067
 20
426.7501711178539
 30
0.0
 10
174.5151018757452
 20
426.8008169250444
 30
0.0
 10
174.5151018871058
 20
426.8103204669324
 30
0.0
 10
174.5151018986826
 20
426.8192313800642
 30
0.0
 10
174.5151018988781
 20
426.8187248809936
 30
0.0
 10
174.5151018988781
 20
426.8187248809936
 30
0.0
  0
LINE
  5
A9
330
1F
100
AcDbEntity
  8
0
  6
Continuous
 62
     7
370
    25
100
AcDbLine
 10
180.6150522054
 20
340.7503845936
 30
0.0
 11
180.6150522054
 21
336.7503845929
 31
0.0
  0
LINE
  5
AA
330
1F
100
AcDbEntity
  8
0
  6
Continuous
 62
     7
370
    25
100
AcDbLine
 10
180.6150522054
 20
336.7503845929
 30
0.0
 11
179.6150522054
 21
336.7503845929
 31
0.0
  0
ARC
  5
AB
330
1F
100
AcDbEntity
  8
0
  6
Continuous
 62
     7
370
    25
100
AcDbCircle
 10
179.6150522054
 20
340.7503845936
 30
0.0
 40
1.000000000000057
100
AcDbArc
 50
0.0
 51
90.0
  0
LINE
  5
AC
330
1F
100
AcDbEntity
  8
0
  6
Continuous
 62
     7
370
    25
100
AcDbLine
 10
133.4150522054
 20
341.7503845936
 30
0.0
 11
179.6150522054
 21
341.7503845936
 31
0.0
  0
LINE
  5
AD
330
1F
100
AcDbEntity
  8
0
  6
Continuous
 62
     7
370
    25
100
AcDbLine
 10
179.6150522054
 20
336.7503845929
 30
0.0
 11
133.4150522054
 21
336.7503845929
 31
0.0
  0
ARC
  5
AE
330
1F
100
AcDbEntity
  8
0
  6
Continuous
 62
     7
370
    25
100
AcDbCircle
 10
133.4150522054
 20
340.7503845936
 30
0.0
 40
1.0
100
AcDbArc
 50
90.0
 51
180.0
  0
LINE
  5
AF
330
1F
100
AcDbEntity
  8
0
  6
Continuous
 62
     7
370
    25
100
AcDbLine
 10
132.4150522054
 20
336.7503845929
 30
0.0
 11
132.4150522054
 21
340.7503845936
 31
0.0
  0
LINE
  5
B0
330
1F
100
AcDbEntity
  8
0
  6
Continuous
 62
     7
370
    25
100
AcDbLine
 10
133.4150522054
 20
336.7503845929
 30
0.0
 11
132.4150522054
 21
336.7503845929
 31
0.0
  0
SPLINE
  5
B1
330
1F
100
AcDbEntity
  8
0
  6
Continuous
 62
     7
370
    25
100
AcDbSpline
210
0.0
220
0.0
230
1.0
 70
     8
 71
     3
 72
    10
 73
     6
 74
     0
 42
0.00000001
 43
0.00000001
 40
0.0
 40
0.0
 40
0.0
 40
0.0
 40
0.1402372199441788
 40
0.4411018757567667
 40
1.0
 40
1.0
 40
1.0
 40
1.0
 10
137.4036104776826
 20
343.6494285517294
 30
0.0
 10
137.5056720632637
 20
343.7685415486706
 30
0.0
 10
137.8266963737886
 20
344.1431993349463
 30
0.0
 10
138.335554069761
 20
345.1623188913441
 30
0.0
 10
138.4443397646802
 20
346.1247475419673
 30
0.0
 10
138.5150570860684
 20
346.7503847293742
 30
0.0
  0
ARC
  5
B2
330
1F
100
AcDbEntity
  8
0
  6
Continuous
 62
     7
370
    25
100
AcDbCircle
 10
179.5150612339
 20
346.7503845944
 30
0.0
 40
5.000000000935131
100
AcDbArc
 50
179.9999996668
 51
269.9999999906
  0
LINE
  5
B3
330
1F
100
AcDbEntity
  8
0
  6
Continuous
 62
     7
370
    25
100
AcDbLine
 10
138.5150967285
 20
361.8187255355
 30
0.0
 11
138.5150967058
 21
376.8187255076
 31
0.0
  0
LINE
  5
B4
330
1F
100
AcDbEntity
  8
0
  6
Continuous
 62
     7
370
    25
100
AcDbLine
 10
174.5150989147
 20
361.8187255355
 30
0.0
 11
174.5150988921
 21
376.8187255076
 31
0.0
  0
LINE
  5
B5
330
1F
100
AcDbEntity
  8
0
  6
Continuous
 62
     7
370
    25
100
AcDbLine
 10
174.5150612331
 20
357.750384586
 30
0.0
 11
174.5150612269
 21
361.8187255355
 31
0.0
  0
LINE
  5
B6
330
1F
100
AcDbEntity
  8
0
  6
Continuous
 62
     7
370
    25
100
AcDbLine
 10
138.5150570861
 20
357.7503847294
 30
0.0
 11
138.5150569756
 21
361.8187255355
 31
0.0
  0
LINE
  5
B7
330
1F
100
AcDbEntity
  8
0
  6
Continuous
 62
     7
370
    25
100
AcDbLine
 10
174.5150603403
 20
357.750384586
 30
0.0
 11
174.5150603403
 21
346.7503846235
 31
0.0
  0
SPLINE
  5
B8
330
1F
100
AcDbEntity
  8
0
  6
Continuous
 62
     7
370
    25
100
AcDbSpline
210
0.0
220
0.0
230
1.0
 70
     8
 71
     3
 72
    10
 73
     6
 74
     0
 42
0.00000001
 43
0.00000001
 40
0.0
 40
0.0
 40
0.0
 40
0.0
 40
0.5
 40
0.5
 40
1.0
 40
1.0
 40
1.0
 40
1.0
 10
174.5146305442381
 20
446.5964053565352
 30
0.0
 10
174.5145077162159
 20
446.5562134231526
 30
0.0
 10
174.4282729853156
 20
446.4679413113878
 30
0.0
 10
174.153345093259
 20
446.268166911402
 30
0.0
 10
173.9612348518906
 20
446.1553461027801
 30
0.0
 10
173.7516003104961
 20
446.0499171395916
 30
0.0
  0
SPLINE
  5
B9
330
1F
100
AcDbEntity
  8
0
  6
Continuous
 62
     7
370
    25
100
AcDbSpline
210
0.0
220
0.0
230
1.0
 70
    24
 71
     3
 72
    14
 73
    10
 74
     0
 42
0.00000001
 43
0.00000001
 40
0.0000000000000009
 40
0.0000000000000009
 40
0.0000000000000009
 40
0.0000000000000009
 40
0.0027220924773576
 40
0.0027220924773576
 40
0.0027220924773576
 40
0.0054441839602498
 40
0.0054441839602498
 40
0.0054441839602498
 40
0.0104862958462568
 40
0.0104862958462568
 40
0.0104862958462568
 40
0.0104862958462568
 10
174.5146306789653
 20
448.3320334990848
 30
0.0
 10
174.5146306789653
 20
448.1824054957206
 30
0.0
 10
174.5146306789653
 20
448.031721625056
 30
0.0
 10
174.5146306789653
 20
447.8810185809322
 30
0.0
 10
174.5146306789653
 20
447.730315581813
 30
0.0
 10
174.5146306789653
 20
447.5796220828499
 30
0.0
 10
174.5146306789653
 20
447.4293954198778
 30
0.0
 10
174.5146306789653
 20
447.1511315759699
 30
0.0
 10
174.5146306789654
 20
446.8733752689147
 30
0.0
 10
174.5146306789654
 20
446.5964146755379
 30
0.0
  0
SPLINE
  5
BA
330
1F
100
AcDbEntity
  8
0
  6
Continuous
 62
     7
370
    25
100
AcDbSpline
210
0.0
220
0.0
230
1.0
 70
     8
 71
     3
 72
    12
 73
     8
 74
     0
 42
0.00000001
 43
0.00000001
 40
0.0
 40
0.0
 40
0.0
 40
0.0
 40
0.5
 40
0.5
 40
0.75
 40
0.75
 40
1.0
 40
1.0
 40
1.0
 40
1.0
 10
139.2775672322967
 20
446.0499131274739
 30
0.0
 10
139.0671493163828
 20
446.1557342621898
 30
0.0
 10
138.8754341761422
 20
446.2684024373256
 30
0.0
 10
138.6694295517562
 20
446.4181570396544
 30
0.0
 10
138.6137532568177
 20
446.4646354922846
 30
0.0
 10
138.5359425202602
 20
446.5439927028859
 30
0.0
 10
138.514690008312
 20
446.5761112985476
 30
0.0
 10
138.5146887083262
 20
446.5963768994582
 30
0.0
  0
SPLINE
  5
BB
330
1F
100
AcDbEntity
  8
0
  6
Continuous
 62
     7
370
    25
100
AcDbSpline
210
0.0
220
0.0
230
1.0
 70
    24
 71
     3
 72
    14
 73
    10
 74
     0
 42
0.00000001
 43
0.00000001
 40
0.0
 40
0.0
 40
0.0
 40
0.0
 40
0.0026283545570112
 40
0.0026283545570112
 40
0.0026283545570112
 40
0.0052567090778632
 40
0.0052567090778632
 40
0.0052567090778632
 40
0.0104863578434055
 40
0.0104863578434055
 40
0.0104863578434055
 40
0.0104863578434055
 10
138.5146887082854
 20
446.5963769011268
 30
0.0
 10
138.5146887082854
 20
446.7407781614822
 30
0.0
 10
138.5146887082854
 20
446.8853812615995
 30
0.0
 10
138.5146887082854
 20
447.0301966367337
 30
0.0
 10
138.5146887082854
 20
447.1750120109418
 30
0.0
 10
138.5146887082853
 20
447.3200373357549
 30
0.0
 10
138.5146887082853
 20
447.4651844222
 30
0.0
 10
138.5146887082853
 20
447.7539842251861
 30
0.0
 10
138.5146887082853
 20
448.0451261824882
 30
0.0
 10
138.5146887082853
 20
448.3329144916351
 30
0.0
  0
LINE
  5
BC
330
1F
100
AcDbEntity
  8
0
  6
Continuous
 62
     7
370
    25
100
AcDbLine
 10
138.5150566659
 20
361.8187255355
 30
0.0
 11
138.5150567764
 21
357.7503847294
 31
0.0
  0
LINE
  5
BD
330
1F
100
AcDbEntity
  8
0
  6
Continuous
 62
     7
370
    25
100
AcDbLine
 10
138.51505671
 20
357.7503847294
 30
0.0
 11
138.51505671
 21
346.7503847668
 31
0.0
  0
LINE
  5
BE
330
1F
100
AcDbEntity
  8
0
  6
Continuous
 62
     8
370
    18
100
AcDbLine
 10
173.5150988016
 20
436.8187265072
 30
0.0
 11
139.5150966153
 21
436.8187265072
 31
0.0
  0
SPLINE
  5
BF
330
1F
100
AcDbEntity
  8
0
  6
Continuous
 62
     8
370
    18
100
AcDbSpline
210
0.0
220
0.0
230
1.0
 70
    24
 71
     3
 72
    10
 73
     6
 74
     0
 42
0.00000001
 43
0.00000001
 40
0.0
 40
0.0
 40
0.0
 40
0.0
 40
0.5
 40
0.5
 40
1.0
 40
1.0
 40
1.0
 40
1.0
 10
139.5150966152957
 20
436.8187265072028
 30
0.0
 10
139.5150966152397
 20
437.0805258950013
 30
0.0
 10
139.5150966151839
 20
437.3407131659645
 30
0.0
 10
139.5150966151047
 20
437.7109534108096
 30
0.0
 10
139.5150966150816
 20
437.8187265071993
 30
0.0
 10
139.5150966150816
 20
437.8187265071993
 30
0.0
  0
SPLINE
  5
C0
330
1F
100
AcDbEntity
  8
0
  6
Continuous
 62
     8
370
    18
100
AcDbSpline
210
0.0
220
0.0
230
1.0
 70
    24
 71
     3
 72
    10
 73
     6
 74
     0
 42
0.00000001
 43
0.00000001
 40
0.0
 40
0.0
 40
0.0
 40
0.0
 40
0.5
 40
0.5
 40
1.0
 40
1.0
 40
1.0
 40
1.0
 10
173.5150988014729
 20
437.8187265071992
 30
0.0
 10
173.5150988014729
 20
437.8187265071991
 30
0.0
 10
173.5150988014839
 20
437.7109534108089
 30
0.0
 10
173.5150988015218
 20
437.3407131659625
 30
0.0
 10
173.5150988015485
 20
437.0805258949983
 30
0.0
 10
173.5150988015753
 20
436.8187265071992
 30
0.0
  0
SPLINE
  5
C1
330
1F
100
AcDbEntity
  8
0
  6
Continuous
 62
     8
370
    18
100
AcDbSpline
210
0.0
220
0.0
230
1.0
 70
    24
 71
     3
 72
    10
 73
     6
 74
     0
 42
0.00000001
 43
0.00000001
 40
0.0
 40
0.0
 40
0.0
 40
0.0
 40
0.5
 40
0.5
 40
1.0
 40
1.0
 40
1.0
 40
1.0
 10
174.5150988015753
 20
436.8187265087114
 30
0.0
 10
174.5150988015753
 20
436.8187265087113
 30
0.0
 10
174.4073257051852
 20
436.8187265085488
 30
0.0
 10
174.0370854603386
 20
436.8187265079902
 30
0.0
 10
173.7768981893745
 20
436.8187265075976
 30
0.0
 10
173.5150988015753
 20
436.8187265072026
 30
0.0
  0
SPLINE
  5
C2
330
1F
100
AcDbEntity
  8
0
  6
Continuous
 62
     8
370
    18
100
AcDbSpline
210
0.0
220
0.0
230
1.0
 70
     8
 71
     3
 72
    20
 73
    16
 74
     0
 42
0.00000001
 43
0.00000001
 40
0.0
 40
0.0
 40
0.0
 40
0.0
 40
0.0602272229753265
 40
0.1211099551034193
 40
0.1826481804362426
 40
0.2448418828437014
 40
0.3076910460129245
 40
0.3711956534478627
 40
0.435355688468664
 40
0.5001711342115299
 40
0.5807099122410407
 40
0.6709677465480005
 40
0.7709393622804155
 40
0.8806189167904627
 40
0.9999999999999999
 40
0.9999999999999999
 40
0.9999999999999999
 40
0.9999999999999999
 10
174.5151018988778
 20
426.8187248810086
 30
0.0
 10
174.5142399672634
 20
426.8187248568205
 30
0.0
 10
174.5125067228276
 20
426.8187248081811
 30
0.0
 10
174.4984122675072
 20
426.8187245786193
 30
0.0
 10
174.4756989439278
 20
426.8187243988456
 30
0.0
 10
174.4434570274431
 20
426.8187243254827
 30
0.0
 10
174.4019350414121
 20
426.8187243933637
 30
0.0
 10
174.3511992764515
 20
426.8187245958678
 30
0.0
 10
174.2915030237242
 20
426.818724804987
 30
0.0
 10
174.2179118167882
 20
426.8187251120892
 30
0.0
 10
174.1251591612549
 20
426.8187242569747
 30
0.0
 10
174.0068912174314
 20
426.8187230716179
 30
0.0
 10
173.8642418839398
 20
426.8187229693167
 30
0.0
 10
173.6976850068221
 20
426.8187243117652
 30
0.0
 10
173.5776573396304
 20
426.8187248224766
 30
0.0
 10
173.5151017077807
 20
426.8187250886475
 30
0.0
  0
LINE
  5
C3
330
1F
100
AcDbEntity
  8
0
  6
Continuous
 62
     8
370
    18
100
AcDbLine
 10
173.5150988167
 20
426.8187250905
 30
0.0
 11
173.5150988016
 21
436.8187265072
 31
0.0
  0
LINE
  5
C4
330
1F
100
AcDbEntity
  8
0
  6
Continuous
 62
     8
370
    18
100
AcDbLine
 10
139.5150966153
 20
436.8187265072
 30
0.0
 11
139.5150966304
 21
426.8193238552
 31
0.0
  0
SPLINE
  5
C5
330
1F
100
AcDbEntity
  8
0
  6
Continuous
 62
     8
370
    18
100
AcDbSpline
210
0.0
220
0.0
230
1.0
 70
     8
 71
     3
 72
    28
 73
    24
 74
     0
 42
0.00000001
 43
0.00000001
 40
0.0
 40
0.0
 40
0.0
 40
0.0
 40
0.2499999999999911
 40
0.2499999999999911
 40
0.3749999999999889
 40
0.3749999999999889
 40
0.4374999999999902
 40
0.4374999999999902
 40
0.4999999999999916
 40
0.4999999999999916
 40
0.5624999999999929
 40
0.5624999999999929
 40
0.6249999999999942
 40
0.6249999999999942
 40
0.6562499999999948
 40
0.6562499999999948
 40
0.6874999999999953
 40
0.6874999999999953
 40
0.7499999999999986
 40
0.7499999999999986
 40
0.8749999999999993
 40
0.8749999999999993
 40
1.0
 40
1.0
 40
1.0
 40
1.0
 10
167.2135036876028
 20
422.819051766267
 30
0.0
 10
167.9726548210901
 20
422.8195544718148
 30
0.0
 10
168.73193894247
 20
422.8171634057906
 30
0.0
 10
169.8691719677952
 20
422.8504193249509
 30
0.0
 10
170.2480275844548
 20
422.8663365480902
 30
0.0
 10
170.815159185321
 20
422.9152756862128
 30
0.0
 10
171.0040067324748
 20
422.9358605847476
 30
0.0
 10
171.3811346570374
 20
422.9893718036714
 30
0.0
 10
171.5703430155947
 20
423.0226227940597
 30
0.0
 10
171.9410743888621
 20
423.1124556583361
 30
0.0
 10
172.1230982845457
 20
423.1679687483795
 30
0.0
 10
172.4735473909297
 20
423.3221157025924
 30
0.0
 10
172.6393281209533
 20
423.4218404545218
 30
0.0
 10
172.8484943327664
 20
423.6189748245976
 30
0.0
 10
172.9118131460604
 20
423.692967223147
 30
0.0
 10
173.0206616409284
 20
423.8486929871049
 30
0.0
 10
173.0676848562161
 20
423.9310166838593
 30
0.0
 10
173.1927073386352
 20
424.1876598607147
 30
0.0
 10
173.2538117885902
 20
424.3708383771855
 30
0.0
 10
173.3975415194798
 20
424.9208772268041
 30
0.0
 10
173.4452042839161
 20
425.2987411697816
 30
0.0
 10
173.5053283239562
 20
426.0576587330316
 30
0.0
 10
173.514861189055
 20
426.437993628191
 30
0.0
 10
173.5151017077806
 20
426.8187250886475
 30
0.0
  0
LINE
  5
C6
330
1F
100
AcDbEntity
  8
0
  6
Continuous
 62
     8
370
    18
100
AcDbLine
 10
145.8167443214
 20
422.819051078
 30
0.0
 11
167.2135036881
 21
422.819051078
 31
0.0
  0
SPLINE
  5
C7
330
1F
100
AcDbEntity
  8
0
  6
Continuous
 62
     8
370
    18
100
AcDbSpline
210
0.0
220
0.0
230
1.0
 70
     8
 71
     3
 72
    26
 73
    22
 74
     0
 42
0.00000001
 43
0.00000001
 40
0.0
 40
0.0
 40
0.0
 40
0.0
 40
0.1249999999999972
 40
0.1249999999999972
 40
0.1874999999999982
 40
0.1874999999999982
 40
0.2499999999999992
 40
0.2499999999999992
 40
0.3125000000000002
 40
0.3125000000000002
 40
0.3750000000000011
 40
0.3750000000000011
 40
0.4375000000000021
 40
0.4375000000000021
 40
0.500000000000003
 40
0.500000000000003
 40
0.6250000000000017
 40
0.6250000000000017
 40
0.7500000000000003
 40
0.7500000000000003
 40
1.0
 40
1.0
 40
1.0
 40
1.0
 10
139.5151017194926
 20
426.8193238552409
 30
0.0
 10
139.51533135234
 20
426.4359470856633
 30
0.0
 10
139.5250088289055
 20
426.0533512747329
 30
0.0
 10
139.5705821070254
 20
425.4820247348111
 30
0.0
 10
139.5905757153044
 20
425.2919795307163
 30
0.0
 10
139.6468390656779
 20
424.9132345075506
 30
0.0
 10
139.6834767501408
 20
424.7234887376287
 30
0.0
 10
139.7820470608265
 20
424.3523476632344
 30
0.0
 10
139.8436335690495
 20
424.1710884719652
 30
0.0
 10
140.0159332407262
 20
423.8257878708407
 30
0.0
 10
140.1263237061059
 20
423.6668223906906
 30
0.0
 10
140.4127565993579
 20
423.4061649670863
 30
0.0
 10
140.5805342895626
 20
423.3091383753956
 30
0.0
 10
140.9372648765264
 20
423.1575831382127
 30
0.0
 10
141.1191969694853
 20
423.1040179625448
 30
0.0
 10
141.6694650349399
 20
422.9744281451698
 30
0.0
 10
142.0426688563574
 20
422.9297454930249
 30
0.0
 10
142.7929555579434
 20
422.8658263040426
 30
0.0
 10
143.1708417968607
 20
422.8500379546346
 30
0.0
 10
144.3045774442173
 20
422.8171673602865
 30
0.0
 10
145.0606772660524
 20
422.8195513240091
 30
0.0
 10
145.8167443215873
 20
422.819051297398
 30
0.0
  0
SPLINE
  5
C8
330
1F
100
AcDbEntity
  8
0
  6
Continuous
 62
     8
370
    18
100
AcDbSpline
210
0.0
220
0.0
230
1.0
 70
    24
 71
     3
 72
    10
 73
     6
 74
     0
 42
0.00000001
 43
0.00000001
 40
0.0
 40
0.0
 40
0.0
 40
0.0
 40
0.5
 40
0.5
 40
1.0
 40
1.0
 40
1.0
 40
1.0
 10
139.5150966152957
 20
436.8187265072028
 30
0.0
 10
139.2532972274966
 20
436.8187265068078
 30
0.0
 10
138.9931099565324
 20
436.8187265064152
 30
0.0
 10
138.6228697116859
 20
436.8187265058565
 30
0.0
 10
138.5150966152957
 20
436.818726505694
 30
0.0
 10
138.5150966152957
 20
436.818726505694
 30
0.0
  0
SPLINE
  5
C9
330
1F
100
AcDbEntity
  8
0
  6
Continuous
 62
     8
370
    18
100
AcDbSpline
210
0.0
220
0.0
230
1.0
 70
    24
 71
     3
 72
    10
 73
     6
 74
     0
 42
0.00000001
 43
0.00000001
 40
0.0
 40
0.0
 40
0.0
 40
0.0
 40
0.5
 40
0.5
 40
1.0
 40
1.0
 40
1.0
 40
1.0
 10
139.5151017194926
 20
426.819323855241
 30
0.0
 10
139.2533023786564
 20
426.8191670441537
 30
0.0
 10
138.993115154366
 20
426.8190111986829
 30
0.0
 10
138.622874975935
 20
426.8187894343165
 30
0.0
 10
138.5151018988777
 20
426.8187248810088
 30
0.0
 10
138.5151018988777
 20
426.8187248810088
 30
0.0
  0
SPLINE
  5
CA
330
1F
100
AcDbEntity
  8
0
  6
Continuous
 62
     8
370
    18
100
AcDbSpline
210
0.0
220
0.0
230
1.0
 70
    24
 71
     3
 72
    10
 73
     6
 74
     0
 42
0.00000001
 43
0.00000001
 40
0.0
 40
0.0
 40
0.0
 40
0.0
 40
0.5
 40
0.5
 40
1.0
 40
1.0
 40
1.0
 40
1.0
 10
167.2135036880586
 20
421.8190510780211
 30
0.0
 10
167.2135036880586
 20
421.8190510780211
 30
0.0
 10
167.2135036880587
 20
421.9268241744113
 30
0.0
 10
167.2135036880586
 20
422.2970644192578
 30
0.0
 10
167.2135036880586
 20
422.557251690222
 30
0.0
 10
167.2135036880586
 20
422.8190510780211
 30
0.0
  0
SPLINE
  5
CB
330
1F
100
AcDbEntity
  8
0
  6
Continuous
 62
     8
370
    18
100
AcDbSpline
210
0.0
220
0.0
230
1.0
 70
    24
 71
     3
 72
    10
 73
     6
 74
     0
 42
0.00000001
 43
0.00000001
 40
0.0
 40
0.0
 40
0.0
 40
0.0
 40
0.5
 40
0.5
 40
1.0
 40
1.0
 40
1.0
 40
1.0
 10
145.8167443214422
 20
422.8190510780211
 30
0.0
 10
145.8167443214422
 20
422.557251690222
 30
0.0
 10
145.8167443214422
 20
422.2970644192578
 30
0.0
 10
145.8167443214422
 20
421.9268241744113
 30
0.0
 10
145.8167443214422
 20
421.8190510780211
 30
0.0
 10
145.8167443214422
 20
421.8190510780211
 30
0.0
  0
SPLINE
  5
CC
330
1F
100
AcDbEntity
  8
0
  6
Continuous
 62
     8
370
    18
100
AcDbSpline
210
0.0
220
0.0
230
1.0
 70
     8
 71
     3
 72
    12
 73
     8
 74
     0
 42
0.00000001
 43
0.00000001
 40
8.172668223544306
 40
8.172668223544306
 40
8.172668223544306
 40
8.172668223544306
 40
8.176115058065218
 40
8.176115058065218
 40
8.468667056942998
 40
8.468667056942998
 40
8.487454801976572
 40
8.487454801976572
 40
8.487454801976572
 40
8.487454801976572
 10
138.8441538067383
 20
447.7320023779537
 30
0.0
 10
138.8445193727206
 20
447.7312198246557
 30
0.0
 10
138.8448847179726
 20
447.7304372037924
 30
0.0
 10
138.8762400579703
 20
447.6632232560587
 30
0.0
 10
138.9055765145263
 20
447.5964492532591
 30
0.0
 10
138.9351203541281
 20
447.5248754242087
 30
0.0
 10
138.936897111006
 20
447.5205531263688
 30
0.0
 10
138.9386674142756
 20
447.5162287054238
 30
0.0
  0
SPLINE
  5
CD
330
1F
100
AcDbEntity
  8
0
  6
Continuous
 62
     8
370
    18
100
AcDbSpline
210
0.0
220
0.0
230
1.0
 70
     8
 71
     3
 72
    16
 73
    12
 74
     0
 42
0.00000001
 43
0.00000001
 40
8.487454801976607
 40
8.487454801976607
 40
8.487454801976607
 40
8.487454801976607
 40
8.505695716722828
 40
8.505695716722828
 40
8.523980216652689
 40
8.523980216652689
 40
8.54226471658255
 40
8.54226471658255
 40
8.57883371644228
 40
8.57883371644228
 40
8.648524881640771
 40
8.648524881640771
 40
8.648524881640771
 40
8.648524881640771
 10
138.791385277391
 20
447.8414232867826
 30
0.0
 10
138.7934436509869
 20
447.8372830356167
 30
0.0
 10
138.7954927229002
 20
447.8331456796009
 30
0.0
 10
138.7995701746483
 20
447.8248927588135
 30
0.0
 10
138.8016036542623
 20
447.8207624937273
 30
0.0
 10
138.8056626178803
 20
447.8124889435092
 30
0.0
 10
138.8076781680733
 20
447.8083659908112
 30
0.0
 10
138.8137167441003
 20
447.7959699400124
 30
0.0
 10
138.8177258957443
 20
447.7876810731369
 30
0.0
 10
138.8292808952836
 20
447.7636194738438
 30
0.0
 10
138.8367624686551
 20
447.7478247363634
 30
0.0
 10
138.8441538067383
 20
447.7320023779537
 30
0.0
  0
SPLINE
  5
CE
330
1F
100
AcDbEntity
  8
0
  6
Continuous
 62
     8
370
    18
100
AcDbSpline
210
0.0
220
0.0
230
1.0
 70
     8
 71
     3
 72
    16
 73
    12
 74
     0
 42
0.00000001
 43
0.00000001
 40
8.648524881646212
 40
8.648524881646212
 40
8.648524881646212
 40
8.648524881646212
 40
8.673847827925675
 40
8.673847827925675
 40
8.746985827645116
 40
8.746985827645116
 40
8.783554827504846
 40
8.783554827504846
 40
8.801839327434706
 40
8.801839327434706
 40
8.801882912612903
 40
8.801882912612903
 40
8.801882912612903
 40
8.801882912612903
 10
138.7380357207293
 20
447.945756898586
 30
0.0
 10
138.7410541452452
 20
447.9400143234152
 30
0.0
 10
138.744062581683
 20
447.9342634324432
 30
0.0
 10
138.7556997666563
 20
447.9119205416976
 30
0.0
 10
138.7642113747803
 20
447.8953631771346
 30
0.0
 10
138.7768470132793
 20
447.870455499138
 30
0.0
 10
138.7810148975064
 20
447.8621843150921
 30
0.0
 10
138.7872452154903
 20
447.8497368576959
 30
0.0
 10
138.7893071858323
 20
447.8456031229675
 30
0.0
 10
138.7913754407043
 20
447.8414430723878
 30
0.0
 10
138.7913803590733
 20
447.8414331795788
 30
0.0
 10
138.7913852773891
 20
447.8414232867863
 30
0.0
  0
SPLINE
  5
CF
330
1F
100
AcDbEntity
  8
0
  6
Continuous
 62
     8
370
    18
100
AcDbSpline
210
0.0
220
0.0
230
1.0
 70
     8
 71
     3
 72
    18
 73
    14
 74
     0
 42
0.00000001
 43
0.00000001
 40
8.801882912619199
 40
8.801882912619199
 40
8.801882912619199
 40
8.801882912619199
 40
8.809500601130553
 40
8.809500601130553
 40
8.818642851095484
 40
8.818642851095484
 40
8.836927351025343
 40
8.836927351025343
 40
8.910065350744784
 40
8.910065350744784
 40
8.946634350604514
 40
8.946634350604514
 40
8.957880404178475
 40
8.957880404178475
 40
8.957880404178475
 40
8.957880404178475
 10
138.6811092392469
 20
448.0509437544058
 30
0.0
 10
138.6820540329953
 20
448.0492484719041
 30
0.0
 10
138.6829991090999
 20
448.0475505480999
 30
0.0
 10
138.6850647641013
 20
448.0438330461279
 30
0.0
 10
138.6862023893213
 20
448.0417805971809
 30
0.0
 10
138.6895961043423
 20
448.0356495285341
 30
0.0
 10
138.6918461999843
 20
448.0315707295942
 30
0.0
 10
138.7030979667983
 20
448.0111063743769
 30
0.0
 10
138.7120098431703
 20
447.9946782096012
 30
0.0
 10
138.7252494731313
 20
447.9699383578912
 30
0.0
 10
138.7296386331623
 20
447.9616803180339
 30
0.0
 10
138.7353527543908
 20
447.950855874117
 30
0.0
 10
138.7366952225306
 20
447.9483072064142
 30
0.0
 10
138.7380357207271
 20
447.9457568985902
 30
0.0
  0
SPLINE
  5
D0
330
1F
100
AcDbEntity
  8
0
  6
Continuous
 62
     8
370
    18
100
AcDbSpline
210
0.0
220
0.0
230
1.0
 70
     8
 71
     3
 72
    18
 73
    14
 74
     0
 42
0.00000001
 43
0.00000001
 40
8.957880404168646
 40
8.957880404168646
 40
8.957880404168646
 40
8.957880404168646
 40
8.963411976457541
 40
8.963411976457541
 40
8.97255422642247
 40
8.97255422642247
 40
9.0091232262822
 40
9.0091232262822
 40
9.082261226001641
 40
9.082261226001641
 40
9.11883022586136
 40
9.11883022586136
 40
9.120354787324775
 40
9.120354787324775
 40
9.120354787324775
 40
9.120354787324775
 10
138.6192072320119
 20
448.1590014425067
 30
0.0
 10
138.6199301204751
 20
448.1577708574815
 30
0.0
 10
138.6206522482456
 20
448.1565407717495
 30
0.0
 10
138.6225556242053
 20
448.1533002847569
 30
0.0
 10
138.6237440648303
 20
448.1512743162618
 30
0.0
 10
138.6296622133233
 20
448.1411696379963
 30
0.0
 10
138.6343751131123
 20
448.1330743548642
 30
0.0
 10
138.6484317328034
 20
448.1087826923604
 30
0.0
 10
138.6577028566513
 20
448.0925643688653
 30
0.0
 10
138.6714563460083
 20
448.0682049141679
 30
0.0
 10
138.6760083389403
 20
448.0600922999116
 30
0.0
 10
138.6807310791141
 20
448.0516222172727
 30
0.0
 10
138.6809201535276
 20
448.0512830387331
 30
0.0
 10
138.6811092392506
 20
448.0509437543993
 30
0.0
  0
SPLINE
  5
D1
330
1F
100
AcDbEntity
  8
0
  6
Continuous
 62
     8
370
    18
100
AcDbSpline
210
0.0
220
0.0
230
1.0
 70
     8
 71
     3
 72
    22
 73
    18
 74
     0
 42
0.00000001
 43
0.00000001
 40
9.120354787332598
 40
9.120354787332598
 40
9.120354787332598
 40
9.120354787332598
 40
9.15692378719232
 40
9.15692378719232
 40
9.175208287122178
 40
9.175208287122178
 40
9.193492787052039
 40
9.193492787052039
 40
9.230061786911758
 40
9.230061786911758
 40
9.266630786771488
 40
9.266630786771488
 40
9.339768786490929
 40
9.339768786490929
 40
9.35805328642079
 40
9.35805328642079
 40
9.361663964089
 40
9.361663964089
 40
9.361663964089
 40
9.361663964089
 10
138.5185306312783
 20
448.3261634072126
 30
0.0
 10
138.5240345309923
 20
448.3171216038788
 30
0.0
 10
138.5294853661923
 20
448.3081391251262
 30
0.0
 10
138.5375593921423
 20
448.2948388062119
 30
0.0
 10
138.5402340859893
 20
448.2904334364253
 30
0.0
 10
138.5455248199943
 20
448.2817260132348
 30
0.0
 10
138.5481446518233
 20
448.2774193720271
 30
0.0
 10
138.5559677872183
 20
448.2645478021881
 30
0.0
 10
138.5610931876793
 20
448.2561081121525
 30
0.0
 10
138.5712677573003
 20
448.2393106120804
 30
0.0
 10
138.5762936961753
 20
448.2309877979329
 30
0.0
 10
138.5912318163933
 20
448.2061751431391
 30
0.0
 10
138.6009818636803
 20
448.1898652845883
 30
0.0
 10
138.6129985224313
 20
448.169547105526
 30
0.0
 10
138.6154044090603
 20
448.1654681322423
 30
0.0
 10
138.6182631916864
 20
448.1606081590159
 30
0.0
 10
138.6187353739015
 20
448.1598046943972
 30
0.0
 10
138.6192072320088
 20
448.159001442512
 30
0.0
  0
SPLINE
  5
D2
330
1F
100
AcDbEntity
  8
0
  6
Continuous
 62
     8
370
    18
100
AcDbSpline
210
0.0
220
0.0
230
1.0
 70
     8
 71
     3
 72
     9
 73
     5
 74
     0
 42
0.00000001
 43
0.00000001
 40
0.0
 40
0.0
 40
0.0
 40
0.0
 40
0.479672523675569
 40
1.0
 40
1.0
 40
1.0
 40
1.0
 10
174.4196023656916
 20
448.1579367234796
 30
0.0
 10
174.4346291416481
 20
448.1839957392185
 30
0.0
 10
174.4659562976031
 20
448.2383224193028
 30
0.0
 10
174.5007807153468
 20
448.2977021895755
 30
0.0
 10
174.518900816746
 20
448.3285991155862
 30
0.0
  0
SPLINE
  5
D3
330
1F
100
AcDbEntity
  8
0
  6
Continuous
 62
     8
370
    18
100
AcDbSpline
210
0.0
220
0.0
230
1.0
 70
     8
 71
     3
 72
     9
 73
     5
 74
     0
 42
0.00000001
 43
0.00000001
 40
0.0
 40
0.0
 40
0.0
 40
0.0
 40
0.900087510103297
 40
0.9999999999999999
 40
0.9999999999999999
 40
0.9999999999999999
 40
0.9999999999999999
 10
174.3574169190501
 20
448.0466501750898
 30
0.0
 10
174.375853131403
 20
448.0800715630934
 30
0.0
 10
174.3963358201927
 20
448.117202828252
 30
0.0
 10
174.4174889080186
 20
448.1542365883039
 30
0.0
 10
174.4196023656924
 20
448.157936723481
 30
0.0
  0
LWPOLYLINE
  5
D4
330
1F
100
AcDbEntity
  8
0
  6
Continuous
 62
     8
370
    18
100
AcDbPolyline
 90
        3
 70
   128
 43
0.0
 10
174.2880749677
 20
447.9386052821
 10
174.3166185192
 20
447.9923215454
 10
174.3457701502
 20
448.0455917871
  0
LWPOLYLINE
  5
D5
330
1F
100
AcDbEntity
  8
0
  6
Continuous
 62
     8
370
    18
100
AcDbPolyline
 90
        3
 70
   128
 43
0.0
 10
174.2334133203
 20
447.8311993307
 10
174.2603474097
 20
447.8848937935
 10
174.2880749677
 20
447.9386052821
  0
SPLINE
  5
D6
330
1F
100
AcDbEntity
  8
0
  6
Continuous
 62
     8
370
    18
100
AcDbSpline
210
0.0
220
0.0
230
1.0
 70
     8
 71
     3
 72
     9
 73
     5
 74
     0
 42
0.00000001
 43
0.00000001
 40
0.0
 40
0.0
 40
0.0
 40
0.0
 40
0.5215921636478461
 40
1.0
 40
1.0
 40
1.0
 40
1.0
 10
174.0947646958626
 20
447.4970308582931
 30
0.0
 10
174.1194118762265
 20
447.5555240316882
 30
0.0
 10
174.1666656159905
 20
447.6676675366555
 30
0.0
 10
174.2201647724847
 20
447.7783445839704
 30
0.0
 10
174.2457591881897
 20
447.8312933507101
 30
0.0
  0
LINE
  5
D7
330
1F
100
AcDbEntity
  8
0
  6
Continuous
 62
     8
370
    18
100
AcDbLine
 10
173.7290247375
 20
446.0824556184
 30
0.0
 11
174.0838624386
 21
447.4981649109
 31
0.0
  0
ARC
  5
D8
330
1F
100
AcDbEntity
  8
0
  6
Continuous
 62
     8
370
    18
100
AcDbCircle
 10
173.7363880739
 20
463.9528248446
 30
0.0
 40
1.725144280449424
100
AcDbArc
 50
63.1846021029
 51
98.3440939803
  0
LINE
  5
D9
330
1F
100
AcDbEntity
  8
0
  6
Continuous
 62
     8
370
    18
100
AcDbLine
 10
173.4860391332
 20
463.679821968
 30
0.0
 11
173.4860391332
 21
465.6597074376
 31
0.0
  0
LINE
  5
DA
330
1F
100
AcDbEntity
  8
0
  6
Continuous
 62
     8
370
    18
100
AcDbLine
 10
139.543280254
 20
465.6597074345
 30
0.0
 11
139.543280254
 21
463.679821968
 31
0.0
  0
ARC
  5
DB
330
1F
100
AcDbEntity
  8
0
  6
Continuous
 62
     8
370
    18
100
AcDbCircle
 10
139.2929313134
 20
463.9528248375
 30
0.0
 40
1.725144281376745
100
AcDbArc
 50
81.6559060272
 51
116.8153978848
  0
LINE
  5
DC
330
1F
100
AcDbEntity
  8
0
  6
Continuous
 62
     8
370
    18
100
AcDbLine
 10
139.5432802533
 20
465.6597074342
 30
0.0
 11
156.5146596936
 21
465.6597074376
 31
0.0
  0
LINE
  5
DD
330
1F
100
AcDbEntity
  8
0
  6
Continuous
 62
     8
370
    18
100
AcDbLine
 10
156.5146596936
 20
465.6597074345
 30
0.0
 11
173.486039134
 21
465.6597074328
 31
0.0
  0
LINE
  5
DE
330
1F
100
AcDbEntity
  8
0
  6
Continuous
 62
     8
370
    18
100
AcDbLine
 10
139.543280254
 20
466.5210466079
 30
0.0
 11
139.543280254
 21
465.659707434
 31
0.0
  0
LINE
  5
DF
330
1F
100
AcDbEntity
  8
0
  6
Continuous
 62
     8
370
    18
100
AcDbLine
 10
173.4860391332
 20
465.6597074371
 30
0.0
 11
173.4860391332
 21
466.5210466079
 31
0.0
  0
LINE
  5
E0
330
1F
100
AcDbEntity
  8
0
  6
Continuous
 62
     8
370
    18
100
AcDbLine
 10
156.5146596936
 20
465.6597074376
 30
0.0
 11
156.5146596936
 21
466.5210466115
 31
0.0
  0
LINE
  5
E1
330
1F
100
AcDbEntity
  8
0
  6
Continuous
 62
     8
370
    18
100
AcDbLine
 10
179.6150522054
 20
336.7503845929
 30
0.0
 11
179.6150522054
 21
340.7503845936
 31
0.0
  0
LINE
  5
E2
330
1F
100
AcDbEntity
  8
0
  6
Continuous
 62
     8
370
    18
100
AcDbLine
 10
180.6150522054
 20
340.7503845936
 30
0.0
 11
179.6150522054
 21
340.7503845936
 31
0.0
  0
LINE
  5
E3
330
1F
100
AcDbEntity
  8
0
  6
Continuous
 62
     8
370
    18
100
AcDbLine
 10
179.6150522054
 20
341.7503845936
 30
0.0
 11
179.6150522054
 21
340.7503845936
 31
0.0
  0
LINE
  5
E4
330
1F
100
AcDbEntity
  8
0
  6
Continuous
 62
     8
370
    18
100
AcDbLine
 10
179.6150522054
 20
340.7503845936
 30
0.0
 11
133.4150522054
 21
340.7503845936
 31
0.0
  0
LINE
  5
E5
330
1F
100
AcDbEntity
  8
0
  6
Continuous
 62
     8
370
    18
100
AcDbLine
 10
133.4150522054
 20
341.7503845936
 30
0.0
 11
133.4150522054
 21
340.7503845936
 31
0.0
  0
LINE
  5
E6
330
1F
100
AcDbEntity
  8
0
  6
Continuous
 62
     8
370
    18
100
AcDbLine
 10
133.4150522054
 20
340.7503845936
 30
0.0
 11
133.4150522054
 21
336.7503845929
 31
0.0
  0
LINE
  5
E7
330
1F
100
AcDbEntity
  8
0
  6
Continuous
 62
     8
370
    18
100
AcDbLine
 10
132.4150522054
 20
340.7503845936
 30
0.0
 11
133.4150522054
 21
340.7503845936
 31
0.0
  0
LINE
  5
E8
330
1F
100
AcDbEntity
  8
0
  6
Continuous
 62
     8
370
    18
100
AcDbLine
 10
133.5150570861
 20
341.7503845936
 30
0.0
 11
135.3532022915
 21
342.1009989776
 31
0.0
  0
LINE
  5
E9
330
1F
100
AcDbEntity
  8
0
  6
Continuous
 62
     8
370
    18
100
AcDbLine
 10
138.5150571798
 20
346.7503847668
 30
0.0
 11
138.5150571798
 21
357.7503847294
 31
0.0
  0
LINE
  5
EA
330
1F
100
AcDbEntity
  8
0
  6
Continuous
 62
     8
370
    18
100
AcDbLine
 10
138.51505671
 20
346.7503847668
 30
0.0
 11
138.5150571798
 21
346.7503847668
 31
0.0
  0
LINE
  5
EB
330
1F
100
AcDbEntity
  8
0
  6
Continuous
 62
     7
370
    25
100
AcDbLine
 10
138.5318616231
 20
276.7754107473
 30
0.0
 11
138.5171534865
 21
275.9904852157
 31
0.0
  0
SPLINE
  5
EC
330
1F
100
AcDbEntity
  8
0
  6
Continuous
 62
     7
370
    25
100
AcDbSpline
210
0.0
220
0.0
230
1.0
 70
     8
 71
     3
 72
    12
 73
     8
 74
     0
 42
0.00000001
 43
0.00000001
 40
0.0
 40
0.0
 40
0.0
 40
0.0
 40
0.0600108557798614
 40
0.2768902772588813
 40
0.4892058280781625
 40
0.6954826849494172
 40
1.0
 40
1.0
 40
1.0
 40
1.0
 10
138.5428035776697
 20
176.2705377651145
 30
0.0
 10
138.5417303049315
 20
176.2515645619525
 30
0.0
 10
138.5367782211427
 20
176.1640221429062
 30
0.0
 10
138.5654331756956
 20
176.004937799374
 30
0.0
 10
138.6296312330971
 20
175.8102416063368
 30
0.0
 10
138.7392790577563
 20
175.6012767211636
 30
0.0
 10
138.8626014587053
 20
175.4973629245174
 30
0.0
 10
138.9361218872593
 20
175.4354132154353
 30
0.0
  0
SPLINE
  5
ED
330
1F
100
AcDbEntity
  8
0
  6
Continuous
 62
     7
370
    25
100
AcDbSpline
210
0.0
220
0.0
230
1.0
 70
     8
 71
     3
 72
    12
 73
     8
 74
     0
 42
0.00000001
 43
0.00000001
 40
0.0
 40
0.0
 40
0.0
 40
0.0
 40
0.3034558529679964
 40
0.5100624173104237
 40
0.7227101278259501
 40
0.939922852030274
 40
0.9999999999999999
 40
0.9999999999999999
 40
0.9999999999999999
 40
0.9999999999999999
 10
174.0942970154944
 20
175.4364737079147
 30
0.0
 10
174.1674326722539
 20
175.4981198703478
 30
0.0
 10
174.2903624147964
 20
175.6017375475848
 30
0.0
 10
174.3997325174303
 20
175.8102841138526
 30
0.0
 10
174.4639314241563
 20
176.0049595791799
 30
0.0
 10
174.4925789924814
 20
176.1640227286051
 30
0.0
 10
174.4876273308084
 20
176.2515470861655
 30
0.0
 10
174.4865545122856
 20
176.2705099633124
 30
0.0
  0
LINE
  5
EE
330
1F
100
AcDbEntity
  8
0
  6
Continuous
 62
     7
370
    25
100
AcDbLine
 10
174.5121659008
 20
275.9904852159
 30
0.0
 11
174.4974577642
 21
276.7754107473
 31
0.0
  0
SPLINE
  5
EF
330
1F
100
AcDbEntity
  8
0
  6
Continuous
 62
     7
370
    25
100
AcDbSpline
210
0.0
220
0.0
230
1.0
 70
     8
 71
     3
 72
     9
 73
     5
 74
     0
 42
0.00000001
 43
0.00000001
 40
0.0
 40
0.0
 40
0.0
 40
0.0
 40
0.9376853652102407
 40
1.0
 40
1.0
 40
1.0
 40
1.0
 10
138.5146887064229
 20
176.2349322956843
 30
0.0
 10
138.5150601532724
 20
176.2464059791399
 30
0.0
 10
138.5154562849208
 20
176.2586421554537
 30
0.0
 10
138.5386346254976
 20
176.2701026943464
 30
0.0
 10
138.5400789753257
 20
176.270816853642
 30
0.0
  0
LINE
  5
F0
330
1F
100
AcDbEntity
  8
0
  6
Continuous
 62
     7
370
    25
100
AcDbLine
 10
138.5146887083
 20
276.6683808689
 30
0.0
 11
138.5146887083
 21
176.2349322957
 31
0.0
  0
LINE
  5
F1
330
1F
100
AcDbEntity
  8
0
  6
Continuous
 62
     7
370
    25
100
AcDbLine
 10
138.5146887064
 20
276.7769093695
 30
0.0
 11
138.5146887064
 21
276.7841593602
 31
0.0
  0
LINE
  5
F2
330
1F
100
AcDbEntity
  8
0
  6
Continuous
 62
     7
370
    25
100
AcDbLine
 10
174.514630679
 20
276.7761594246
 30
0.0
 11
174.514630679
 21
276.7821643716
 31
0.0
  0
LINE
  5
F3
330
1F
100
AcDbEntity
  8
0
  6
Continuous
 62
     7
370
    25
100
AcDbLine
 10
174.514630679
 20
276.5598723679
 30
0.0
 11
174.514630679
 21
176.2349322957
 31
0.0
  0
LINE
  5
F4
330
1F
100
AcDbEntity
  8
0
  6
Continuous
 62
     7
370
    25
100
AcDbLine
 10
139.5432998467
 20
174.8936169182
 30
0.0
 11
173.4859267101
 21
174.8936441986
 31
0.0
  0
SPLINE
  5
F5
330
1F
100
AcDbEntity
  8
0
  6
Continuous
 62
     7
370
    25
100
AcDbSpline
210
0.0
220
0.0
230
1.0
 70
     8
 71
     3
 72
    14
 73
    10
 74
     0
 42
0.00000001
 43
0.00000001
 40
0.0
 40
0.0
 40
0.0
 40
0.0
 40
0.25
 40
0.25
 40
0.5
 40
0.5
 40
0.75
 40
0.75
 40
1.0
 40
1.0
 40
1.0
 40
1.0
 10
173.4859267081217
 20
174.8936442047684
 30
0.0
 10
173.6205913717644
 20
174.8932513180717
 30
0.0
 10
173.7552059426673
 20
174.9192825107507
 30
0.0
 10
174.0040383448302
 20
175.0202111457078
 30
0.0
 10
174.1181582063935
 20
175.0950685526686
 30
0.0
 10
174.3085987925514
 20
175.2822258486247
 30
0.0
 10
174.3848445373349
 20
175.394451752561
 30
0.0
 10
174.4878909542196
 20
175.6392201285646
 30
0.0
 10
174.5146510551325
 20
175.7716659330765
 30
0.0
 10
174.5146306672104
 20
175.904160051279
 30
0.0
  0
LINE
  5
F6
330
1F
100
AcDbEntity
  8
0
  6
Continuous
 62
     7
370
    25
100
AcDbLine
 10
174.514630679
 20
176.2349806659
 30
0.0
 11
174.514630679
 21
175.9023978366
 31
0.0
  0
SPLINE
  5
F7
330
1F
100
AcDbEntity
  8
0
  6
Continuous
 62
     7
370
    25
100
AcDbSpline
210
0.0
220
0.0
230
1.0
 70
     8
 71
     3
 72
    14
 73
    10
 74
     0
 42
0.00000001
 43
0.00000001
 40
0.0
 40
0.0
 40
0.0
 40
0.0
 40
0.25
 40
0.25
 40
0.5
 40
0.5
 40
0.75
 40
0.75
 40
1.0
 40
1.0
 40
1.0
 40
1.0
 10
138.5146887246707
 20
175.9042363359643
 30
0.0
 10
138.5146646639951
 20
175.7717412210142
 30
0.0
 10
138.541418920264
 20
175.6392936888233
 30
0.0
 10
138.6444505013642
 20
175.3945181336738
 30
0.0
 10
138.7206872673278
 20
175.2822867606778
 30
0.0
 10
138.9111090283835
 20
175.0951133086312
 30
0.0
 10
139.0252190630513
 20
175.0202452042036
 30
0.0
 10
139.2740338124057
 20
174.9192897061712
 30
0.0
 10
139.408640579993
 20
174.8932423470852
 30
0.0
 10
139.5432998467583
 20
174.8936169185141
 30
0.0
  0
LINE
  5
F8
330
1F
100
AcDbEntity
  8
0
  6
Continuous
 62
     7
370
    25
100
AcDbLine
 10
138.5146887083
 20
175.9023978366
 30
0.0
 11
138.5146887083
 21
176.2349806659
 31
0.0
  0
SPLINE
  5
F9
330
1F
100
AcDbEntity
  8
0
  6
Continuous
 62
     7
370
    25
100
AcDbSpline
210
0.0
220
0.0
230
1.0
 70
     8
 71
     3
 72
    12
 73
     8
 74
     0
 42
0.00000001
 43
0.00000001
 40
0.0
 40
0.0
 40
0.0
 40
0.0
 40
0.5
 40
0.5
 40
0.75
 40
0.75
 40
1.0
 40
1.0
 40
1.0
 40
1.0
 10
139.2775672322967
 20
277.7893838115583
 30
0.0
 10
139.0671493163828
 20
277.7326936138188
 30
0.0
 10
138.8754341761422
 20
277.6076590373912
 30
0.0
 10
138.6694295517562
 20
277.3479098626287
 30
0.0
 10
138.6137532568177
 20
277.249354888447
 30
0.0
 10
138.5359425202602
 20
277.0316323692359
 30
0.0
 10
138.514690008312
 20
276.9147926257946
 30
0.0
 10
138.5146887083262
 20
276.793522442204
 30
0.0
  0
ELLIPSE
  5
FA
330
1F
100
AcDbEntity
  8
0
  6
Continuous
 62
     7
370
    25
100
AcDbEllipse
 10
139.5432802536
 20
276.7960901294
 30
0.0
 11
1.028591545345307
 21
-2.057618075923529E-9
 31
0.0
210
0.0
220
0.0
230
1.0
 40
0.9996126348
 41
1.5707963283838
 42
1.832086402291875
  0
LINE
  5
FB
330
1F
100
AcDbEntity
  8
0
  6
Continuous
 62
     7
370
    25
100
AcDbLine
 10
139.543280254
 20
277.8242832342
 30
0.0
 11
173.4860391325
 21
277.8242832342
 31
0.0
  0
SPLINE
  5
FC
330
1F
100
AcDbEntity
  8
0
  6
Continuous
 62
     7
370
    25
100
AcDbSpline
210
0.0
220
0.0
230
1.0
 70
     8
 71
     3
 72
    10
 73
     6
 74
     0
 42
0.00000001
 43
0.00000001
 40
0.0
 40
0.0
 40
0.0
 40
0.0
 40
0.5
 40
0.5
 40
1.0
 40
1.0
 40
1.0
 40
1.0
 10
174.5146305442381
 20
276.7940377948427
 30
0.0
 10
174.5145077162159
 20
277.0341640087798
 30
0.0
 10
174.4282729853156
 20
277.2619141536493
 30
0.0
 10
174.153345093259
 20
277.6081105365988
 30
0.0
 10
173.9612348518906
 20
277.7329795598661
 30
0.0
 10
173.7516003104961
 20
277.7894243871264
 30
0.0
  0
ELLIPSE
  5
FD
330
1F
100
AcDbEntity
  8
0
  6
Continuous
 62
     7
370
    25
100
AcDbEllipse
 10
173.4860391336
 20
276.7960901294
 30
0.0
 11
1.028591545345307
 21
2.057731762761250E-9
 31
0.0
210
0.0
220
0.0
230
1.0
 40
0.9996126348
 41
1.30965905865119
 42
1.570796325925274
  0
LINE
  5
FE
330
1F
100
AcDbEntity
  8
0
  6
Continuous
 62
     7
370
    25
100
AcDbLine
 10
138.5150966153
 20
118.8955639588
 30
0.0
 11
138.5150966153
 21
175.902217211
 31
0.0
  0
LINE
  5
FF
330
1F
100
AcDbEntity
  8
0
  6
Continuous
 62
     7
370
    25
100
AcDbLine
 10
174.5150988016
 20
118.8955639588
 30
0.0
 11
174.5150988016
 21
176.1264048043
 31
0.0
  0
LINE
  5
100
330
1F
100
AcDbEntity
  8
0
  6
Continuous
 62
     7
370
    25
100
AcDbLine
 10
173.5150988016
 20
117.8955639588
 30
0.0
 11
139.5150966153
 21
117.8955639588
 31
0.0
  0
SPLINE
  5
101
330
1F
100
AcDbEntity
  8
0
  6
Continuous
 62
     7
370
    25
100
AcDbSpline
210
0.0
220
0.0
230
1.0
 70
     8
 71
     3
 72
    10
 73
     6
 74
     0
 42
0.00000001
 43
0.00000001
 40
0.0
 40
0.0
 40
0.0
 40
0.0
 40
0.5
 40
0.5
 40
1.0
 40
1.0
 40
1.0
 40
1.0
 10
139.5150966152957
 20
117.8955639588139
 30
0.0
 10
139.2532972274966
 20
117.8955639588139
 30
0.0
 10
138.9931099565324
 20
118.0033370552041
 30
0.0
 10
138.6228697116859
 20
118.3735773000507
 30
0.0
 10
138.5150966152957
 20
118.6337645710148
 30
0.0
 10
138.5150966152957
 20
118.8955639588139
 30
0.0
  0
SPLINE
  5
102
330
1F
100
AcDbEntity
  8
0
  6
Continuous
 62
     7
370
    25
100
AcDbSpline
210
0.0
220
0.0
230
1.0
 70
     8
 71
     3
 72
    10
 73
     6
 74
     0
 42
0.00000001
 43
0.00000001
 40
0.0
 40
0.0
 40
0.0
 40
0.0
 40
0.5
 40
0.5
 40
1.0
 40
1.0
 40
1.0
 40
1.0
 10
174.5150988015753
 20
118.8955639588138
 30
0.0
 10
174.5150988015753
 20
118.6337645710147
 30
0.0
 10
174.4073257051852
 20
118.3735773000505
 30
0.0
 10
174.0370854603386
 20
118.003337055204
 30
0.0
 10
173.7768981893745
 20
117.8955639588138
 30
0.0
 10
173.5150988015753
 20
117.8955639588138
 30
0.0
  0
ARC
  5
103
330
1F
100
AcDbEntity
  8
0
  6
Continuous
 62
     7
370
    25
100
AcDbCircle
 10
139.515096615
 20
276.7955639585
 30
0.0
 40
1.000000000034051
100
AcDbArc
 50
89.9999967546
 51
179.9999999862
  0
LINE
  5
104
330
1F
100
AcDbEntity
  8
0
  6
Continuous
 62
     7
370
    25
100
AcDbLine
 10
133.4150522054
 20
283.8955629558
 30
0.0
 11
179.6150522054
 21
283.8955629558
 31
0.0
  0
ARC
  5
105
330
1F
100
AcDbEntity
  8
0
  6
Continuous
 62
     7
370
    25
100
AcDbCircle
 10
133.4150522054
 20
282.8955629558
 30
0.0
 40
1.0
100
AcDbArc
 50
90.0
 51
180.0
  0
LINE
  5
106
330
1F
100
AcDbEntity
  8
0
  6
Continuous
 62
     7
370
    25
100
AcDbLine
 10
132.4150522054
 20
236.6955629556
 30
0.0
 11
132.4150522054
 21
282.8955629558
 31
0.0
  0
ARC
  5
107
330
1F
100
AcDbEntity
  8
0
  6
Continuous
 62
     7
370
    25
100
AcDbCircle
 10
179.6150522054
 20
282.8955629558
 30
0.0
 40
1.0
100
AcDbArc
 50
0.0
 51
90.0
  0
LINE
  5
108
330
1F
100
AcDbEntity
  8
0
  6
Continuous
 62
     7
370
    25
100
AcDbLine
 10
179.6150522054
 20
235.6955629556
 30
0.0
 11
174.5150988016
 21
235.6955629556
 31
0.0
  0
LINE
  5
109
330
1F
100
AcDbEntity
  8
0
  6
Continuous
 62
     7
370
    25
100
AcDbLine
 10
138.5146887083
 20
235.6955629556
 30
0.0
 11
133.4150522054
 21
235.6955629556
 31
0.0
  0
ARC
  5
10A
330
1F
100
AcDbEntity
  8
0
  6
Continuous
 62
     7
370
    25
100
AcDbCircle
 10
133.4150522054
 20
236.6955629556
 30
0.0
 40
1.0
100
AcDbArc
 50
180.0
 51
270.0
  0
LINE
  5
10B
330
1F
100
AcDbEntity
  8
0
  6
Continuous
 62
     7
370
    25
100
AcDbLine
 10
180.6150522054
 20
282.8955629558
 30
0.0
 11
180.6150522054
 21
236.6955629556
 31
0.0
  0
ARC
  5
10C
330
1F
100
AcDbEntity
  8
0
  6
Continuous
 62
     7
370
    25
100
AcDbCircle
 10
179.6150522054
 20
236.6955629556
 30
0.0
 40
1.0
100
AcDbArc
 50
270.0
 51
0.0
  0
LINE
  5
10D
330
1F
100
AcDbEntity
  8
0
  6
Continuous
 62
     8
370
    18
100
AcDbLine
 10
139.543280254
 20
176.4022330337
 30
0.0
 11
139.543280254
 21
175.2200781042
 31
0.0
  0
LINE
  5
10E
330
1F
100
AcDbEntity
  8
0
  6
Continuous
 62
     8
370
    18
100
AcDbLine
 10
156.5146596936
 20
175.2200781016
 30
0.0
 11
156.5146596936
 21
176.4022330334
 31
0.0
  0
LINE
  5
10F
330
1F
100
AcDbEntity
  8
0
  6
Continuous
 62
     8
370
    18
100
AcDbLine
 10
139.5432802533
 20
175.2200781027
 30
0.0
 11
156.5146596936
 21
175.2200781016
 31
0.0
  0
SPLINE
  5
110
330
1F
100
AcDbEntity
  8
0
  6
Continuous
 62
     8
370
    18
100
AcDbSpline
210
0.0
220
0.0
230
1.0
 70
     8
 71
     3
 72
    10
 73
     6
 74
     0
 42
0.00000001
 43
0.00000001
 40
0.0
 40
0.0
 40
0.0
 40
0.0
 40
0.3087215474092329
 40
0.6516173241370983
 40
1.0
 40
1.0
 40
1.0
 40
1.0
 10
138.5400789753257
 20
176.270816853642
 30
0.0
 10
138.5585791358131
 20
176.28171635701
 30
0.0
 10
138.5976273498884
 20
176.3047218947792
 30
0.0
 10
138.7138439361605
 20
176.3367236258775
 30
0.0
 10
138.8261083192478
 20
176.3542834083599
 30
0.0
 10
138.8826860500268
 20
176.3631329884183
 30
0.0
  0
ARC
  5
111
330
1F
100
AcDbEntity
  8
0
  6
Continuous
 62
     8
370
    18
100
AcDbCircle
 10
139.5364813077
 20
176.241871315
 30
0.0
 40
1.021815833324134
100
AcDbArc
 50
180.3863789842
 51
270.3812367639
  0
LINE
  5
112
330
1F
100
AcDbEntity
  8
0
  6
Continuous
 62
     8
370
    18
100
AcDbLine
 10
173.4860391332
 20
175.2200781047
 30
0.0
 11
173.4860391332
 21
176.4022330341
 31
0.0
  0
SPLINE
  5
113
330
1F
100
AcDbEntity
  8
0
  6
Continuous
 62
     8
370
    18
100
AcDbSpline
210
0.0
220
0.0
230
1.0
 70
     8
 71
     3
 72
    13
 73
     9
 74
     0
 42
0.00000001
 43
0.00000001
 40
0.0
 40
0.0
 40
0.0
 40
0.0
 40
0.1022359318077118
 40
0.2311188623515477
 40
0.386889920436085
 40
0.5687097487423877
 40
0.7741023563612988
 40
1.0
 40
1.0
 40
1.0
 40
1.0
 10
174.5146306356874
 20
176.2349322956863
 30
0.0
 10
174.5138375334429
 20
176.2397810004645
 30
0.0
 10
174.5120446130358
 20
176.2507421871276
 30
0.0
 10
174.4946105363458
 20
176.2684105813004
 30
0.0
 10
174.4576333725979
 20
176.289863611694
 30
0.0
 10
174.3912186031079
 20
176.3142283817788
 30
0.0
 10
174.2905383316406
 20
176.3404631362201
 30
0.0
 10
174.196194449969
 20
176.3553592411238
 30
0.0
 10
174.146779791281
 20
176.3631613998494
 30
0.0
  0
ARC
  5
114
330
1F
100
AcDbEntity
  8
0
  6
Continuous
 62
     8
370
    18
100
AcDbCircle
 10
173.4928380795
 20
176.2418713161
 30
0.0
 40
1.021815833319971
100
AcDbArc
 50
269.6187632359
 51
359.6136210311
  0
LINE
  5
115
330
1F
100
AcDbEntity
  8
0
  6
Continuous
 62
     8
370
    18
100
AcDbLine
 10
156.5146596936
 20
175.2200781011
 30
0.0
 11
173.486039134
 21
175.2200781306
 31
0.0
  0
LINE
  5
116
330
1F
100
AcDbEntity
  8
0
  6
Continuous
 62
     8
370
    18
100
AcDbLine
 10
138.5146887064
 20
276.7761594246
 30
0.0
 11
138.5146887064
 21
276.7769093695
 31
0.0
  0
LINE
  5
117
330
1F
100
AcDbEntity
  8
0
  6
Continuous
 62
     8
370
    18
100
AcDbLine
 10
139.543280254
 20
175.2200781013
 30
0.0
 11
139.543280254
 21
174.8937999476
 31
0.0
  0
LINE
  5
118
330
1F
100
AcDbEntity
  8
0
  6
Continuous
 62
     8
370
    18
100
AcDbLine
 10
173.4860391332
 20
174.8937999476
 30
0.0
 11
173.4860391332
 21
175.2200781018
 31
0.0
  0
SPLINE
  5
119
330
1F
100
AcDbEntity
  8
0
  6
Continuous
 62
     8
370
    18
100
AcDbSpline
210
0.0
220
0.0
230
1.0
 70
     8
 71
     3
 72
    14
 73
    10
 74
     0
 42
0.00000001
 43
0.00000001
 40
0.0
 40
0.0
 40
0.0
 40
0.0
 40
0.25
 40
0.25
 40
0.5
 40
0.5
 40
0.75
 40
0.75
 40
1.0
 40
1.0
 40
1.0
 40
1.0
 10
138.5146887094222
 20
276.7841593601653
 30
0.0
 10
138.5146822239886
 20
276.9188047299134
 30
0.0
 10
138.5414488878517
 20
277.0533984055393
 30
0.0
 10
138.6444938291816
 20
277.3021943309528
 30
0.0
 10
138.7207315579095
 20
277.4162986782047
 30
0.0
 10
138.9111458035229
 20
277.6067205722352
 30
0.0
 10
139.0252473913778
 20
277.6829631869737
 30
0.0
 10
139.2740403435601
 20
277.7860192874341
 30
0.0
 10
139.4086338065216
 20
277.8127922200258
 30
0.0
 10
139.5432802535845
 20
277.8127922200244
 30
0.0
  0
LINE
  5
11A
330
1F
100
AcDbEntity
  8
0
  6
Continuous
 62
     8
370
    18
100
AcDbLine
 10
139.5432802538
 20
277.8047427415
 30
0.0
 11
139.5432802536
 21
277.8127426775
 31
0.0
  0
LINE
  5
11B
330
1F
100
AcDbEntity
  8
0
  6
Continuous
 62
     8
370
    18
100
AcDbLine
 10
139.543280254
 20
276.7720450914
 30
0.0
 11
139.5432802538
 21
277.8047427415
 31
0.0
  0
LINE
  5
11C
330
1F
100
AcDbEntity
  8
0
  6
Continuous
 62
     8
370
    18
100
AcDbLine
 10
156.5146596938
 20
277.8047427415
 30
0.0
 11
139.5432802538
 21
277.8047427415
 31
0.0
  0
LINE
  5
11D
330
1F
100
AcDbEntity
  8
0
  6
Continuous
 62
     8
370
    18
100
AcDbLine
 10
156.5146596938
 20
276.7720450914
 30
0.0
 11
156.5146596938
 21
277.8047427415
 31
0.0
  0
LINE
  5
11E
330
1F
100
AcDbEntity
  8
0
  6
Continuous
 62
     8
370
    18
100
AcDbLine
 10
173.4860391337
 20
276.7720450914
 30
0.0
 11
173.4860391337
 21
277.8047427415
 31
0.0
  0
LINE
  5
11F
330
1F
100
AcDbEntity
  8
0
  6
Continuous
 62
     8
370
    18
100
AcDbLine
 10
173.4860391337
 20
277.8047427415
 30
0.0
 11
173.4860391337
 21
277.8127426775
 31
0.0
  0
SPLINE
  5
120
330
1F
100
AcDbEntity
  8
0
  6
Continuous
 62
     8
370
    18
100
AcDbSpline
210
0.0
220
0.0
230
1.0
 70
     8
 71
     3
 72
    10
 73
     6
 74
     0
 42
0.00000001
 43
0.00000001
 40
0.0
 40
0.0
 40
0.0
 40
0.0
 40
0.5
 40
0.5
 40
1.0
 40
1.0
 40
1.0
 40
1.0
 10
174.5146306789724
 20
276.7841593601652
 30
0.0
 10
174.5162918511105
 20
277.0540494710306
 30
0.0
 10
174.4037547367659
 20
277.3211216510699
 30
0.0
 10
174.0235192013988
 20
277.7020643737799
 30
0.0
 10
173.7554162325117
 20
277.8129447701977
 30
0.0
 10
173.4860391336746
 20
277.812742677528
 30
0.0
  0
LINE
  5
121
330
1F
100
AcDbEntity
  8
0
  6
Continuous
 62
     8
370
    18
100
AcDbLine
 10
156.5146596938
 20
277.8047427415
 30
0.0
 11
173.4860391337
 21
277.8047427415
 31
0.0
  0
LINE
  5
122
330
1F
100
AcDbEntity
  8
0
  6
Continuous
 62
     8
370
    18
100
AcDbLine
 10
156.5146596936
 20
277.8127426775
 30
0.0
 11
139.5432802536
 21
277.8127426775
 31
0.0
  0
LINE
  5
123
330
1F
100
AcDbEntity
  8
0
  6
Continuous
 62
     8
370
    18
100
AcDbLine
 10
156.5146596936
 20
277.8047427415
 30
0.0
 11
156.5146596936
 21
277.8127426775
 31
0.0
  0
LINE
  5
124
330
1F
100
AcDbEntity
  8
0
  6
Continuous
 62
     8
370
    18
100
AcDbLine
 10
156.5146596936
 20
277.8127910468
 30
0.0
 11
173.4860391328
 21
277.8127910468
 31
0.0
  0
LINE
  5
125
330
1F
100
AcDbEntity
  8
0
  6
Continuous
 62
     8
370
    18
100
AcDbLine
 10
139.543280254
 20
277.8242832342
 30
0.0
 11
139.5432802552
 21
277.8127910473
 31
0.0
  0
LINE
  5
126
330
1F
100
AcDbEntity
  8
0
  6
Continuous
 62
     8
370
    18
100
AcDbLine
 10
173.4860391328
 20
277.8127910476
 30
0.0
 11
173.4860391325
 21
277.8242832342
 31
0.0
  0
LINE
  5
127
330
1F
100
AcDbEntity
  8
0
  6
Continuous
 62
     8
370
    18
100
AcDbLine
 10
173.5150988015
 20
118.8955639588
 30
0.0
 11
173.5150988015
 21
174.893644222
 31
0.0
  0
LINE
  5
128
330
1F
100
AcDbEntity
  8
0
  6
Continuous
 62
     8
370
    18
100
AcDbLine
 10
139.5150966151
 20
118.8955639588
 30
0.0
 11
173.5150988015
 21
118.8955639588
 31
0.0
  0
LINE
  5
129
330
1F
100
AcDbEntity
  8
0
  6
Continuous
 62
     8
370
    18
100
AcDbLine
 10
139.5150966151
 20
118.8955639588
 30
0.0
 11
139.5150966151
 21
174.8936168955
 31
0.0
  0
LINE
  5
12A
330
1F
100
AcDbEntity
  8
0
  6
Continuous
 62
     8
370
    18
100
AcDbLine
 10
138.5150966153
 20
118.8955639588
 30
0.0
 11
139.5150966151
 21
118.8955639588
 31
0.0
  0
LINE
  5
12B
330
1F
100
AcDbEntity
  8
0
  6
Continuous
 62
     8
370
    18
100
AcDbLine
 10
173.5150988015
 20
118.8955639588
 30
0.0
 11
174.5150988016
 21
118.8955639588
 31
0.0
  0
SPLINE
  5
12C
330
1F
100
AcDbEntity
  8
0
  6
Continuous
 62
     8
370
    18
100
AcDbSpline
210
0.0
220
0.0
230
1.0
 70
    24
 71
     3
 72
    10
 73
     6
 74
     0
 42
0.00000001
 43
0.00000001
 40
0.0
 40
0.0
 40
0.0
 40
0.0
 40
0.5
 40
0.5
 40
1.0
 40
1.0
 40
1.0
 40
1.0
 10
139.5150966152957
 20
117.8955639588139
 30
0.0
 10
139.5150966152397
 20
117.8955639588148
 30
0.0
 10
139.5150966151839
 20
118.0033370552054
 30
0.0
 10
139.5150966151047
 20
118.3735773000518
 30
0.0
 10
139.5150966150816
 20
118.6337645710153
 30
0.0
 10
139.5150966150816
 20
118.8955639588139
 30
0.0
  0
SPLINE
  5
12D
330
1F
100
AcDbEntity
  8
0
  6
Continuous
 62
     8
370
    18
100
AcDbSpline
210
0.0
220
0.0
230
1.0
 70
    24
 71
     3
 72
    10
 73
     6
 74
     0
 42
0.00000001
 43
0.00000001
 40
0.0
 40
0.0
 40
0.0
 40
0.0
 40
0.5
 40
0.5
 40
1.0
 40
1.0
 40
1.0
 40
1.0
 10
173.5150988014729
 20
118.8955639588138
 30
0.0
 10
173.5150988014729
 20
118.6337645710147
 30
0.0
 10
173.5150988014839
 20
118.3735773000505
 30
0.0
 10
173.5150988015218
 20
118.003337055204
 30
0.0
 10
173.5150988015485
 20
117.8955639588138
 30
0.0
 10
173.5150988015753
 20
117.8955639588138
 30
0.0
  0
SPLINE
  5
12E
330
1F
100
AcDbEntity
  8
0
  6
Continuous
 62
     8
370
    18
100
AcDbSpline
210
0.0
220
0.0
230
1.0
 70
     8
 71
     3
 72
    33
 73
    29
 74
     0
 42
0.00000001
 43
0.00000001
 40
0.0
 40
0.0
 40
0.0
 40
0.0
 40
0.0190878135363985
 40
0.0381795741833243
 40
0.0572924407854318
 40
0.0868746858683158
 40
0.1165117299857797
 40
0.1774738038076334
 40
0.2399833085890991
 40
0.3037884199867951
 40
0.3686009915720377
 40
0.4059787639266889
 40
0.4341242959769487
 40
0.4717449285430055
 40
0.4999981980460815
 40
0.537662016135679
 40
0.5658720918559887
 40
0.6033780455041943
 40
0.6313953720067801
 40
0.6685474158622448
 40
0.696228501151532
 40
0.7600336125491289
 40
0.8225431173304683
 40
0.8835051911521791
 40
0.9427084540340297
 40
0.9716034496708348
 40
0.9857879152615971
 40
1.0
 40
1.0
 40
1.0
 40
1.0
 10
133.5150567764473
 20
276.7955636219135
 30
0.0
 10
133.5155756668188
 20
276.8555170476934
 30
0.0
 10
133.5166135548616
 20
276.9754362968387
 30
0.0
 10
133.5250155037477
 20
277.155226570414
 30
0.0
 10
133.5408627137415
 20
277.3675628759685
 30
0.0
 10
133.5686994253731
 20
277.6121134265752
 30
0.0
 10
133.6287377129119
 20
277.9848826897473
 30
0.0
 10
133.7389531701985
 20
278.4537916690549
 30
0.0
 10
133.9286658455184
 20
279.0115401571601
 30
0.0
 10
134.17772184191
 20
279.5588220364197
 30
0.0
 10
134.4409313939239
 20
280.0099827258659
 30
0.0
 10
134.6750250877446
 20
280.3460670141538
 30
0.0
 10
134.8736634749125
 20
280.6020991259385
 30
0.0
 10
135.066604763671
 20
280.8259001224478
 30
0.0
 10
135.2914545418329
 20
281.0609554447332
 30
0.0
 10
135.5067324156384
 20
281.2638605813821
 30
0.0
 10
135.7542840810449
 20
281.4741071324112
 30
0.0
 10
135.9883595068194
 20
281.6529710525815
 30
0.0
 10
136.254400210865
 20
281.8353813828778
 30
0.0
 10
136.5032039428276
 20
281.9878720674237
 30
0.0
 10
136.8580534481912
 20
282.1812417603005
 30
0.0
 10
137.2990966285492
 20
282.3819654047217
 30
0.0
 10
137.8568429494101
 20
282.5716712122911
 30
0.0
 10
138.4162106667765
 20
282.7031346218153
 30
0.0
 10
138.8807506271564
 20
282.7670029970939
 30
0.0
 10
139.2013718606835
 20
282.7884691180168
 30
0.0
 10
139.3812270201639
 20
282.7947020736016
 30
0.0
 10
139.4704172017519
 20
282.7952755839777
 30
0.0
 10
139.5150556667721
 20
282.7955626180704
 30
0.0
  0
SPLINE
  5
12F
330
1F
100
AcDbEntity
  8
0
  6
Continuous
 62
     8
370
    18
100
AcDbSpline
210
0.0
220
0.0
230
1.0
 70
     8
 71
     3
 72
    18
 73
    14
 74
     0
 42
0.00000001
 43
0.00000001
 40
0.0
 40
0.0
 40
0.0
 40
0.0
 40
0.2500000000000016
 40
0.2500000000000016
 40
0.3750000000000012
 40
0.3750000000000012
 40
0.500000000000001
 40
0.500000000000001
 40
0.6250000000000008
 40
0.6250000000000008
 40
0.7500000000000004
 40
0.7500000000000004
 40
1.0
 40
1.0
 40
1.0
 40
1.0
 10
139.5150556828961
 20
277.795562614286
 30
0.0
 10
139.5150556833309
 20
277.7955626009371
 30
0.0
 10
139.5150556833734
 20
277.9029562831216
 30
0.0
 10
139.5150556826028
 20
278.2684534718077
 30
0.0
 10
139.5150556822091
 20
278.4237042459263
 30
0.0
 10
139.5150556811463
 20
278.7974657851369
 30
0.0
 10
139.5150556804774
 20
279.015950980403
 30
0.0
 10
139.5150556788986
 20
279.5041063456168
 30
0.0
 10
139.5150556779892
 20
279.7736666198394
 30
0.0
 10
139.5150556759942
 20
280.345360992607
 30
0.0
 10
139.5150556749092
 20
280.6473466554654
 30
0.0
 10
139.5150556715119
 20
281.5705737966185
 30
0.0
 10
139.515055669066
 20
282.2063069537392
 30
0.0
 10
139.5150556667255
 20
282.7955626180704
 30
0.0
  0
SPLINE
  5
130
330
1F
100
AcDbEntity
  8
0
  6
Continuous
 62
     8
370
    18
100
AcDbSpline
210
0.0
220
0.0
230
1.0
 70
    24
 71
     3
 72
    18
 73
    14
 74
     0
 42
0.00000001
 43
0.00000001
 40
0.0
 40
0.0
 40
0.0
 40
0.0
 40
0.2499999999999998
 40
0.2499999999999998
 40
0.3749999999999993
 40
0.3749999999999993
 40
0.499999999999999
 40
0.499999999999999
 40
0.6249999999999987
 40
0.6249999999999987
 40
0.7499999999999982
 40
0.7499999999999982
 40
1.0
 40
1.0
 40
1.0
 40
1.0
 10
138.5150567764472
 20
276.7955637251206
 30
0.0
 10
138.5150567924538
 20
276.7955637251204
 30
0.0
 10
138.4076631126583
 20
276.7955637229034
 30
0.0
 10
138.0421659248672
 20
276.7955637153588
 30
0.0
 10
137.8869151506146
 20
276.7955637121541
 30
0.0
 10
137.513153610326
 20
276.795563704439
 30
0.0
 10
137.2946684141172
 20
276.7955636999291
 30
0.0
 10
136.8065130466818
 20
276.7955636898529
 30
0.0
 10
136.5369527711885
 20
276.7955636842888
 30
0.0
 10
135.9652583962947
 20
276.7955636724883
 30
0.0
 10
135.6632727325911
 20
276.7955636662549
 30
0.0
 10
134.7400455906131
 20
276.7955636471985
 30
0.0
 10
134.1043124354386
 20
276.7955636340763
 30
0.0
 10
133.5150567764464
 20
276.7955636219135
 30
0.0
  0
SPLINE
  5
131
330
1F
100
AcDbEntity
  8
0
  6
Continuous
 62
     8
370
    18
100
AcDbSpline
210
0.0
220
0.0
230
1.0
 70
    24
 71
     3
 72
    18
 73
    14
 74
     0
 42
0.00000001
 43
0.00000001
 40
0.0
 40
0.0
 40
0.0
 40
0.0
 40
0.2500000000000003
 40
0.2500000000000003
 40
0.3750000000000004
 40
0.3750000000000004
 40
0.5000000000000004
 40
0.5000000000000004
 40
0.6250000000000004
 40
0.6250000000000004
 40
0.7500000000000006
 40
0.7500000000000006
 40
1.0
 40
1.0
 40
1.0
 40
1.0
 10
133.5150570860676
 20
261.795562775224
 30
0.0
 10
134.1043127450597
 20
261.7955627873866
 30
0.0
 10
134.740045900234
 20
261.7955628005088
 30
0.0
 10
135.6632730422119
 20
261.7955628195651
 30
0.0
 10
135.9652587059155
 20
261.7955628257984
 30
0.0
 10
136.5369530808093
 20
261.7955628375988
 30
0.0
 10
136.8065133563026
 20
261.7955628431628
 30
0.0
 10
137.2946687237381
 20
261.7955628532389
 30
0.0
 10
137.5131539199467
 20
261.7955628577488
 30
0.0
 10
137.8869154602355
 20
261.7955628654638
 30
0.0
 10
138.0421662344881
 20
261.7955628686685
 30
0.0
 10
138.4076634222792
 20
261.795562876213
 30
0.0
 10
138.5150571020749
 20
261.79556287843
 30
0.0
 10
138.5150570860684
 20
261.7955628784302
 30
0.0
  0
LINE
  5
132
330
1F
100
AcDbEntity
  8
0
  6
Continuous
 62
     8
370
    18
100
AcDbLine
 10
133.5150570861
 20
276.7955636219
 30
0.0
 11
133.5150570861
 21
261.7955627752
 31
0.0
  0
LINE
  5
133
330
1F
100
AcDbEntity
  8
0
  6
Continuous
 62
     8
370
    18
100
AcDbLine
 10
179.5150612331
 20
261.7955628784
 30
0.0
 11
174.5150612329
 21
261.7955628784
 31
0.0
  0
SPLINE
  5
134
330
1F
100
AcDbEntity
  8
0
  6
Continuous
 62
     8
370
    18
100
AcDbSpline
210
0.0
220
0.0
230
1.0
 70
     8
 71
     3
 72
    14
 73
    10
 74
     0
 42
0.00000001
 43
0.00000001
 40
0.0
 40
0.0
 40
0.0
 40
0.0
 40
0.173874836581938
 40
0.3472541162797814
 40
0.5204005074010033
 40
0.6504965794542747
 40
0.7805651010075199
 40
0.9106665187162659
 40
1.0
 40
1.0
 40
1.0
 40
1.0
 10
133.5150570860694
 20
261.795562775224
 30
0.0
 10
133.5288796249077
 20
260.7094329459453
 30
0.0
 10
133.5564853072675
 20
258.5402688423544
 30
0.0
 10
133.8732287771701
 20
255.3007264187306
 30
0.0
 10
134.4570372291209
 20
252.3753869145812
 30
0.0
 10
135.281425711497
 20
249.792278770307
 30
0.0
 10
136.2672219165011
 20
247.5602510769645
 30
0.0
 10
137.3376052665003
 20
245.6485016075008
 30
0.0
 10
138.1744224785601
 20
244.5617536431952
 30
0.0
 10
138.5150966151477
 20
244.1193309502909
 30
0.0
  0
SPLINE
  5
135
330
1F
100
AcDbEntity
  8
0
  6
Continuous
 62
     8
370
    18
100
AcDbSpline
210
0.0
220
0.0
230
1.0
 70
     8
 71
     3
 72
    14
 73
    10
 74
     0
 42
0.00000001
 43
0.00000001
 40
0.0
 40
0.0
 40
0.0
 40
0.0
 40
0.0893607590446235
 40
0.2194460873065106
 40
0.3495264999918509
 40
0.4796119160856787
 40
0.6528274409662009
 40
0.8260500970649813
 40
1.0
 40
1.0
 40
1.0
 40
1.0
 10
174.5150988015758
 20
244.1185102177996
 30
0.0
 10
174.85577509598
 20
244.561186006275
 30
0.0
 10
175.6923848186857
 20
245.6482791639967
 30
0.0
 10
176.7606078976447
 20
247.5613145811278
 30
0.0
 10
177.7509699932333
 20
249.7913113110007
 30
0.0
 10
178.5728214633967
 20
252.3759535362795
 30
0.0
 10
179.15641696198
 20
255.3006401873089
 30
0.0
 10
179.4729839541471
 20
258.5402406909122
 30
0.0
 10
179.5010158999255
 20
260.7089411726582
 30
0.0
 10
179.5150612330613
 20
261.795562878431
 30
0.0
  0
LINE
  5
136
330
1F
100
AcDbEntity
  8
0
  6
Continuous
 62
     8
370
    18
100
AcDbLine
 10
139.5150556668
 20
282.7955637249
 30
0.0
 11
173.5150578566
 21
282.7955637249
 31
0.0
  0
SPLINE
  5
137
330
1F
100
AcDbEntity
  8
0
  6
Continuous
 62
     8
370
    18
100
AcDbSpline
210
0.0
220
0.0
230
1.0
 70
     8
 71
     3
 72
    18
 73
    14
 74
     0
 42
0.00000001
 43
0.00000001
 40
0.0
 40
0.0
 40
0.0
 40
0.0
 40
0.2499999999999994
 40
0.2499999999999994
 40
0.3749999999999991
 40
0.3749999999999991
 40
0.4999999999999988
 40
0.4999999999999988
 40
0.6249999999999984
 40
0.6249999999999984
 40
0.7499999999999982
 40
0.7499999999999982
 40
1.0
 40
1.0
 40
1.0
 40
1.0
 10
173.5150578596018
 20
282.7955671015719
 30
0.0
 10
173.5150578592463
 20
282.2063114510293
 30
0.0
 10
173.5150578587783
 20
281.5705783067806
 30
0.0
 10
173.5150578579342
 20
280.6473511799609
 30
0.0
 10
173.51505785763
 20
280.3453655210425
 30
0.0
 10
173.5150578569915
 20
279.7736711539704
 30
0.0
 10
173.5150578566573
 20
279.5041108814987
 30
0.0
 10
173.5150578559793
 20
279.015955517331
 30
0.0
 10
173.5150578556358
 20
278.7974703213588
 30
0.0
 10
173.5150578549612
 20
278.4237087783485
 30
0.0
 10
173.5150578546303
 20
278.268458001139
 30
0.0
 10
173.5150578536846
 20
277.9029608001778
 30
0.0
 10
173.5150578531204
 20
277.7955671057995
 30
0.0
 10
173.5150578526576
 20
277.7955671053574
 30
0.0
  0
LINE
  5
138
330
1F
100
AcDbEntity
  8
0
  6
Continuous
 62
     8
370
    18
100
AcDbLine
 10
174.5150612331
 20
276.7955637251
 30
0.0
 11
179.5150612331
 21
276.7955637251
 31
0.0
  0
SPLINE
  5
139
330
1F
100
AcDbEntity
  8
0
  6
Continuous
 62
     8
370
    18
100
AcDbSpline
210
0.0
220
0.0
230
1.0
 70
     8
 71
     3
 72
    22
 73
    18
 74
     0
 42
0.00000001
 43
0.00000001
 40
0.0
 40
0.0
 40
0.0
 40
0.0
 40
0.125
 40
0.125
 40
0.25
 40
0.25
 40
0.375
 40
0.375
 40
0.5
 40
0.5
 40
0.625
 40
0.625
 40
0.75
 40
0.75
 40
0.875
 40
0.875
 40
1.0
 40
1.0
 40
1.0
 40
1.0
 10
179.5150612330604
 20
276.7955637251205
 30
0.0
 10
179.5150612330419
 20
277.1491173145849
 30
0.0
 10
179.4836311317299
 20
277.5158925580627
 30
0.0
 10
179.3461556426588
 20
278.2587927492992
 30
0.0
 10
179.2399897650884
 20
278.6348421658478
 30
0.0
 10
178.9475918399577
 20
279.3734242835546
 30
0.0
 10
178.7612908025035
 20
279.7358072785113
 30
0.0
 10
178.3127766984489
 20
280.4218409056942
 30
0.0
 10
178.0505943156602
 20
280.745313415001
 30
0.0
 10
177.4648075487521
 20
281.3311001822013
 30
0.0
 10
177.141335039576
 20
281.5932825651514
 30
0.0
 10
176.4553014126168
 20
282.0417966695481
 30
0.0
 10
176.0929184177531
 20
282.2280977071832
 30
0.0
 10
175.354336300192
 20
282.5204956326823
 30
0.0
 10
174.9782868836964
 20
282.6266615104403
 30
0.0
 10
174.2353866925284
 20
282.7641369998819
 30
0.0
 10
173.8686114490662
 20
282.795567101377
 30
0.0
 10
173.5150578596018
 20
282.7955671015719
 30
0.0
  0
LINE
  5
13A
330
1F
100
AcDbEntity
  8
0
  6
Continuous
 62
     8
370
    18
100
AcDbLine
 10
179.5150612331
 20
261.7955628784
 30
0.0
 11
179.5150612331
 21
276.7955637251
 31
0.0
  0
LINE
  5
13B
330
1F
100
AcDbEntity
  8
0
  6
Continuous
 62
     8
370
    18
100
AcDbLine
 10
179.6150522054
 20
282.8955629558
 30
0.0
 11
133.4150522054
 21
282.8955629558
 31
0.0
  0
LINE
  5
13C
330
1F
100
AcDbEntity
  8
0
  6
Continuous
 62
     8
370
    18
100
AcDbLine
 10
179.6150522054
 20
236.6955629556
 30
0.0
 11
179.6150522054
 21
282.8955629558
 31
0.0
  0
LINE
  5
13D
330
1F
100
AcDbEntity
  8
0
  6
Continuous
 62
     8
370
    18
100
AcDbLine
 10
133.4150522054
 20
236.6955629556
 30
0.0
 11
138.5146887083
 21
236.6955629556
 31
0.0
  0
LINE
  5
13E
330
1F
100
AcDbEntity
  8
0
  6
Continuous
 62
     8
370
    18
100
AcDbLine
 10
174.5150988016
 20
236.6955629556
 30
0.0
 11
179.6150522054
 21
236.6955629556
 31
0.0
  0
LINE
  5
13F
330
1F
100
AcDbEntity
  8
0
  6
Continuous
 62
     8
370
    18
100
AcDbLine
 10
133.4150522054
 20
282.8955629558
 30
0.0
 11
133.4150522054
 21
236.6955629556
 31
0.0
  0
LINE
  5
140
330
1F
100
AcDbEntity
  8
0
  6
Continuous
 62
     8
370
    18
100
AcDbLine
 10
179.6150522054
 20
283.8955629558
 30
0.0
 11
179.6150522054
 21
282.8955629558
 31
0.0
  0
LINE
  5
141
330
1F
100
AcDbEntity
  8
0
  6
Continuous
 62
     8
370
    18
100
AcDbLine
 10
133.4150522054
 20
283.8955629558
 30
0.0
 11
133.4150522054
 21
282.8955629558
 31
0.0
  0
LINE
  5
142
330
1F
100
AcDbEntity
  8
0
  6
Continuous
 62
     8
370
    18
100
AcDbLine
 10
133.4150522054
 20
282.8955629558
 30
0.0
 11
132.4150522054
 21
282.8955629558
 31
0.0
  0
LINE
  5
143
330
1F
100
AcDbEntity
  8
0
  6
Continuous
 62
     8
370
    18
100
AcDbLine
 10
133.4150522054
 20
236.6955629556
 30
0.0
 11
132.4150522054
 21
236.6955629556
 31
0.0
  0
LINE
  5
144
330
1F
100
AcDbEntity
  8
0
  6
Continuous
 62
     8
370
    18
100
AcDbLine
 10
180.6150522054
 20
282.8955629558
 30
0.0
 11
179.6150522054
 21
282.8955629558
 31
0.0
  0
LINE
  5
145
330
1F
100
AcDbEntity
  8
0
  6
Continuous
 62
     8
370
    18
100
AcDbLine
 10
179.6150522054
 20
236.6955629556
 30
0.0
 11
179.6150522054
 21
235.6955629556
 31
0.0
  0
LINE
  5
146
330
1F
100
AcDbEntity
  8
0
  6
Continuous
 62
     8
370
    18
100
AcDbLine
 10
133.4150522054
 20
236.6955629556
 30
0.0
 11
133.4150522054
 21
235.6955629556
 31
0.0
  0
LINE
  5
147
330
1F
100
AcDbEntity
  8
0
  6
Continuous
 62
     8
370
    18
100
AcDbLine
 10
180.6150522054
 20
236.6955629556
 30
0.0
 11
179.6150522054
 21
236.6955629556
 31
0.0
  0
SPLINE
  5
148
330
1F
100
AcDbEntity
  8
0
  6
Continuous
 62
     7
370
    25
100
AcDbSpline
210
0.0
220
0.0
230
1.0
 70
     8
 71
     3
 72
    31
 73
    27
 74
     0
 42
0.00000001
 43
0.00000001
 40
0.0
 40
0.0
 40
0.0
 40
0.0
 40
0.0280936424366942
 40
0.0554975164660648
 40
0.0755688082495387
 40
0.0963206744227285
 40
0.1333002144924671
 40
0.1741407769333451
 40
0.218498573174842
 40
0.2646180056237922
 40
0.3123451489455294
 40
0.3615099550378015
 40
0.4593274032025452
 40
0.5607356280083573
 40
0.656107128199143
 40
0.7409213682284954
 40
0.8161852312032474
 40
0.8449408745745326
 40
0.8722492083045718
 40
0.8973419839554488
 40
0.9138115298681398
 40
0.9292521396997819
 40
0.9448369792220574
 40
0.9616829784986035
 40
0.9806707625341524
 40
1.0
 40
1.0
 40
1.0
 40
1.0
 10
325.083122686917
 20
441.5292507624127
 30
0.0
 10
325.5668196827103
 20
441.8748370620671
 30
0.0
 10
326.5223377166968
 20
442.5575246629623
 30
0.0
 10
327.9014261017335
 20
443.4343949578925
 30
0.0
 10
329.1779482535725
 20
444.1901182115299
 30
0.0
 10
330.7342172276071
 20
445.0575065401482
 30
0.0
 10
332.7924067809948
 20
446.1135040922354
 30
0.0
 10
335.3785060062211
 20
447.3072484538476
 30
0.0
 10
338.1828966209351
 20
448.4610887672833
 30
0.0
 10
341.1999071272708
 20
449.5716001453836
 30
0.0
 10
344.3554621445582
 20
450.6345322521052
 30
0.0
 10
348.6838224530876
 20
452.0047859632092
 30
0.0
 10
354.2359754527885
 20
453.6729183700369
 30
0.0
 10
360.8367943262108
 20
455.6099340815304
 30
0.0
 10
367.1559868111568
 20
457.4365179796716
 30
0.0
 10
372.8995669886154
 20
459.0676025788284
 30
0.0
 10
377.1532453411233
 20
460.2448493072384
 30
0.0
 10
380.1155069669705
 20
461.0486970117383
 30
0.0
 10
381.942136507641
 20
461.5373209489961
 30
0.0
 10
383.5060171658633
 20
461.9498991171399
 30
0.0
 10
384.7308086067957
 20
462.2701420032289
 30
0.0
 10
385.6204073378677
 20
462.5045161871965
 30
0.0
 10
386.3046035676359
 20
462.6910875890511
 30
0.0
 10
386.7790556180015
 20
462.8289867714068
 30
0.0
 10
387.0632354594073
 20
462.9213046124617
 30
0.0
 10
387.0928220695264
 20
462.9450117664602
 30
0.0
 10
387.1077472017624
 20
462.9569709739174
 30
0.0
  0
SPLINE
  5
149
330
1F
100
AcDbEntity
  8
0
  6
Continuous
 62
     7
370
    25
100
AcDbSpline
210
0.0
220
0.0
230
1.0
 70
     8
 71
     3
 72
    13
 73
     9
 74
     0
 42
0.00000001
 43
0.00000001
 40
0.0
 40
0.0
 40
0.0
 40
0.0
 40
0.2394557791914636
 40
0.3683592375999086
 40
0.4999984459826752
 40
0.6316379126455172
 40
0.7605420833652973
 40
1.0
 40
1.0
 40
1.0
 40
1.0
 10
328.248329048382
 20
341.750384593554
 30
0.0
 10
327.6193531998327
 20
341.8171746754475
 30
0.0
 10
326.6517880618239
 20
341.91991908917
 30
0.0
 10
325.4877192178491
 20
342.5434072026007
 30
0.0
 10
324.6866933000939
 20
343.1887162444316
 30
0.0
 10
324.0413908393091
 20
343.9897499263491
 30
0.0
 10
323.4179089529559
 20
345.1538308158059
 30
0.0
 10
323.3151660854365
 20
346.1214032521968
 30
0.0
 10
323.2483769291963
 20
346.7503845935592
 30
0.0
  0
SPLINE
  5
14A
330
1F
100
AcDbEntity
  8
0
  6
Continuous
 62
     7
370
    25
100
AcDbSpline
210
0.0
220
0.0
230
1.0
 70
     8
 71
     3
 72
    13
 73
     9
 74
     0
 42
0.00000001
 43
0.00000001
 40
0.0
 40
0.0
 40
0.0
 40
0.0
 40
0.2268652797870775
 40
0.470577135965594
 40
0.5950858510865118
 40
0.7260689191965461
 40
0.8622424065684461
 40
1.0
 40
1.0
 40
1.0
 40
1.0
 10
389.825934107476
 20
465.6456518408011
 30
0.0
 10
389.7941560461256
 20
465.765085135051
 30
0.0
 10
389.7282401461218
 20
466.0128206087197
 30
0.0
 10
389.498996332883
 20
466.2542201542675
 30
0.0
 10
389.2638280555744
 20
466.3967092574453
 30
0.0
 10
389.0582509502242
 20
466.4701409874899
 30
0.0
 10
388.8336243458436
 20
466.5062437089258
 30
0.0
 10
388.6846195072417
 20
466.4920962352319
 30
0.0
 10
388.6096862506167
 20
466.4849815919301
 30
0.0
  0
LINE
  5
14B
330
1F
100
AcDbEntity
  8
0
  6
Continuous
 62
     7
370
    25
100
AcDbLine
 10
323.2482328205
 20
357.7503846266
 30
0.0
 11
323.2482328206
 21
361.8187255355
 31
0.0
  0
LINE
  5
14C
330
1F
100
AcDbEntity
  8
0
  6
Continuous
 62
     7
370
    25
100
AcDbLine
 10
323.2482325869
 20
361.8187255355
 30
0.0
 11
323.2482325869
 21
376.8187261762
 31
0.0
  0
LINE
  5
14D
330
1F
100
AcDbEntity
  8
0
  6
Continuous
 62
     7
370
    25
100
AcDbLine
 10
323.2483769292
 20
346.7503846685
 30
0.0
 11
323.2483769292
 21
357.7503845936
 31
0.0
  0
SPLINE
  5
14E
330
1F
100
AcDbEntity
  8
0
  6
Continuous
 62
     7
370
    25
100
AcDbSpline
210
0.0
220
0.0
230
1.0
 70
     8
 71
     3
 72
    27
 73
    23
 74
     0
 42
0.00000001
 43
0.00000001
 40
0.0
 40
0.0
 40
0.0
 40
0.0
 40
0.0877694702711231
 40
0.1696715055538856
 40
0.2452734996176729
 40
0.3136091891838327
 40
0.3739157539079979
 40
0.4258679236426197
 40
0.4695438322820463
 40
0.5073354632571327
 40
0.5432565584889125
 40
0.5774633374552084
 40
0.6180171338578188
 40
0.6582807194412493
 40
0.7023851810750825
 40
0.7504219189069647
 40
0.7823843616652211
 40
0.8139749666019622
 40
0.8459295169564096
 40
0.8861376685520672
 40
0.9374308051819618
 40
1.0
 40
1.0
 40
1.0
 40
1.0
 10
323.2480536881819
 20
376.8187248809936
 30
0.0
 10
323.2480313560263
 20
378.6774218794239
 30
0.0
 10
323.2479881846312
 20
382.270561009898
 30
0.0
 10
323.3621257616131
 20
387.464222182988
 30
0.0
 10
323.6513401525029
 20
392.239655371616
 30
0.0
 10
324.1310448833516
 20
396.5404590651133
 30
0.0
 10
324.7812392231851
 20
400.3118003204138
 30
0.0
 10
325.5563876329457
 20
403.5243871230846
 30
0.0
 10
326.4087535661992
 20
406.2205794167385
 30
0.0
 10
327.3250959106697
 20
408.5336849673873
 30
0.0
 10
328.3254875250847
 20
410.5912131369176
 30
0.0
 10
329.5234957272457
 20
412.6090289955258
 30
0.0
 10
330.9763494951784
 20
414.5714209398861
 30
0.0
 10
332.8099912093565
 20
416.4888193448115
 30
0.0
 10
335.0275295980487
 20
418.2229006025141
 30
0.0
 10
337.3433872607048
 20
419.4920518177971
 30
0.0
 10
339.5492809935391
 20
420.3490312507158
 30
0.0
 10
341.4968766956446
 20
420.9041464894093
 30
0.0
 10
343.6533435257261
 20
421.3351345840615
 30
0.0
 10
346.25089087853
 20
421.6525069147448
 30
0.0
 10
349.5116815362866
 20
421.8177416463815
 30
0.0
 10
351.9231123227189
 20
421.8183761917873
 30
0.0
 10
353.2482325863549
 20
421.8187248847625
 30
0.0
  0
SPLINE
  5
14F
330
1F
100
AcDbEntity
  8
0
  6
Continuous
 62
     7
370
    25
100
AcDbSpline
210
0.0
220
0.0
230
1.0
 70
     8
 71
     3
 72
    14
 73
    10
 74
     0
 42
0.00000001
 43
0.00000001
 40
0.0
 40
0.0
 40
0.0
 40
0.0
 40
0.1204350252592675
 40
0.2438890632801402
 40
0.4927195107692228
 40
0.6163145501269937
 40
0.743041367423489
 40
0.8718494210946994
 40
1.0
 40
1.0
 40
1.0
 40
1.0
 10
288.2613769312296
 20
437.8186401070616
 30
0.0
 10
288.1981442241091
 20
437.8159180459942
 30
0.0
 10
288.0700937199049
 20
437.8104056884182
 30
0.0
 10
287.8243814543629
 20
437.7370186387743
 30
0.0
 10
287.6061933736855
 20
437.5926800836132
 30
0.0
 10
287.4403431503548
 20
437.3907326328079
 30
0.0
 10
287.3457144298915
 20
437.2146821756056
 30
0.0
 10
287.2819902135926
 20
437.0201812764941
 30
0.0
 10
287.270605172951
 20
436.885763451721
 30
0.0
 10
287.264927217965
 20
436.8187265053957
 30
0.0
  0
ARC
  5
150
330
1F
100
AcDbEntity
  8
0
  6
Continuous
 62
     7
370
    25
100
AcDbCircle
 10
311.3651254812
 20
437.8187265072
 30
0.0
 40
22.81689189189192
100
AcDbArc
 50
169.9031072981
 51
180.0
  0
ARC
  5
151
330
1F
100
AcDbEntity
  8
0
  6
Continuous
 62
     7
370
    25
100
AcDbCircle
 10
296.9313416974
 20
437.8187265072
 30
0.0
 40
22.81689189189188
100
AcDbArc
 50
0.0
 51
9.4863676011
  0
LINE
  5
152
330
1F
100
AcDbEntity
  8
0
  6
Continuous
 62
     7
370
    25
100
AcDbLine
 10
290.2039252209
 20
445.7547074725
 30
0.0
 11
290.2158220138
 21
445.6187265072
 31
0.0
  0
LWPOLYLINE
  5
153
330
1F
100
AcDbEntity
  8
0
  6
Continuous
 62
     7
370
    25
100
AcDbPolyline
 90
        8
 70
   128
 43
0.0
 10
298.5922060463
 20
448.3307713897
 10
366.0317298194
 20
459.6122720292
 10
383.1271067019
 20
462.4744844126
 10
387.5186988922
 20
463.2109561202
 10
388.6754709246
 20
463.405533353
 10
388.9941009251
 20
463.4594073141
 10
389.0884769214
 20
463.4754906309
 10
389.1395602484
 20
463.4843381718
  0
SPLINE
  5
154
330
1F
100
AcDbEntity
  8
0
  6
Continuous
 62
     7
370
    25
100
AcDbSpline
210
0.0
220
0.0
230
1.0
 70
     8
 71
     3
 72
    14
 73
    10
 74
     0
 42
0.00000001
 43
0.00000001
 40
0.0
 40
0.0
 40
0.0
 40
0.0
 40
0.25
 40
0.25
 40
0.5
 40
0.5
 40
0.75
 40
0.75
 40
1.0
 40
1.0
 40
1.0
 40
1.0
 10
389.1395602092038
 20
463.484338164925
 30
0.0
 10
389.2720553241539
 20
463.5084917801988
 30
0.0
 10
389.4045028563449
 20
463.5326375540006
 30
0.0
 10
389.6492784114943
 20
463.577613477323
 30
0.0
 10
389.7615097844904
 20
463.5984276992702
 30
0.0
 10
389.948683236537
 20
463.6339109988191
 30
0.0
 10
390.0235513409645
 20
463.6485678856635
 30
0.0
 10
390.1245068389969
 20
463.6698427699682
 30
0.0
 10
390.150554198083
 20
463.6764541698806
 30
0.0
 10
390.1501796266541
 20
463.6787113286776
 30
0.0
  0
SPLINE
  5
155
330
1F
100
AcDbEntity
  8
0
  6
Continuous
 62
     7
370
    25
100
AcDbSpline
210
0.0
220
0.0
230
1.0
 70
     8
 71
     3
 72
    10
 73
     6
 74
     0
 42
0.00000001
 43
0.00000001
 40
0.0
 40
0.0
 40
0.0
 40
0.0
 40
0.1343875136950555
 40
0.4677207743934548
 40
1.0
 40
1.0
 40
1.0
 40
1.0
 10
389.139636468035
 20
463.4840478280483
 30
0.0
 10
388.8639409971583
 20
463.4371662133418
 30
0.0
 10
387.9044136155608
 20
463.2739999746602
 30
0.0
 10
385.8520623475023
 20
462.9302047985759
 30
0.0
 10
384.0756034145355
 20
462.6321335491098
 30
0.0
 10
382.9832298638746
 20
462.4488446798392
 30
0.0
  0
SPLINE
  5
156
330
1F
100
AcDbEntity
  8
0
  6
Continuous
 62
     7
370
    25
100
AcDbSpline
210
0.0
220
0.0
230
1.0
 70
    24
 71
     3
 72
     9
 73
     5
 74
     0
 42
0.00000001
 43
0.00000001
 40
0.0
 40
0.0
 40
0.0
 40
0.0
 40
0.5622445587648947
 40
0.9999999999999999
 40
0.9999999999999999
 40
0.9999999999999999
 40
0.9999999999999999
 10
324.5991586422869
 20
441.5422937588797
 30
0.0
 10
324.7486081020369
 20
441.5416959610407
 30
0.0
 10
325.014416738902
 20
441.5406327264931
 30
0.0
 10
325.0568748629128
 20
441.5404628939972
 30
0.0
 10
325.075461137723
 20
441.5403885488979
 30
0.0
  0
SPLINE
  5
157
330
1F
100
AcDbEntity
  8
0
  6
Continuous
 62
     7
370
    25
100
AcDbSpline
210
0.0
220
0.0
230
1.0
 70
    24
 71
     3
 72
    22
 73
    18
 74
     0
 42
0.00000001
 43
0.00000001
 40
0.0
 40
0.0
 40
0.0
 40
0.0
 40
0.125
 40
0.125
 40
0.25
 40
0.25
 40
0.375
 40
0.375
 40
0.5
 40
0.5
 40
0.625
 40
0.625
 40
0.75
 40
0.75
 40
0.875
 40
0.875
 40
1.0
 40
1.0
 40
1.0
 40
1.0
 10
319.0142657631821
 20
441.5646333303962
 30
0.0
 10
319.3851043646671
 20
441.5631499759902
 30
0.0
 10
319.7464610320441
 20
441.5617045493208
 30
0.0
 10
320.4371529796556
 20
441.5589417815303
 30
0.0
 10
320.7676650402539
 20
441.5576197332878
 30
0.0
 10
321.4014610634174
 20
441.5550845491952
 30
0.0
 10
321.706815487611
 20
441.5538631314985
 30
0.0
 10
322.2763144160041
 20
441.5515851357849
 30
0.0
 10
322.5396288764708
 20
441.5505318779429
 30
0.0
 10
323.0248893531796
 20
441.5485908360361
 30
0.0
 10
323.2469250545113
 20
441.5477026932309
 30
0.0
 10
323.6486746562887
 20
441.5460956948238
 30
0.0
 10
323.8282922814493
 20
441.5453772243231
 30
0.0
 10
324.1344603733017
 20
441.5441525519557
 30
0.0
 10
324.262610895337
 20
441.5436399498674
 30
0.0
 10
324.4678212115467
 20
441.5428191086026
 30
0.0
 10
324.5435142889325
 20
441.5425163362931
 30
0.0
 10
324.5991586422868
 20
441.5422937588797
 30
0.0
  0
SPLINE
  5
158
330
1F
100
AcDbEntity
  8
0
  6
Continuous
 62
     7
370
    25
100
AcDbSpline
210
0.0
220
0.0
230
1.0
 70
    24
 71
     3
 72
    14
 73
    10
 74
     0
 42
0.00000001
 43
0.00000001
 40
0.0
 40
0.0
 40
0.0
 40
0.0
 40
0.25
 40
0.25
 40
0.5
 40
0.5
 40
0.75
 40
0.75
 40
1.0
 40
1.0
 40
1.0
 40
1.0
 10
312.2234703430302
 20
441.5917965120768
 30
0.0
 10
312.80819637963
 20
441.5894576079305
 30
0.0
 10
313.389452412491
 20
441.5871325837991
 30
0.0
 10
314.5409645984327
 20
441.5825265350553
 30
0.0
 10
315.1116867608056
 20
441.5802436464057
 30
0.0
 10
316.2432965362413
 20
441.5757172073039
 30
0.0
 10
316.8041768430575
 20
441.5734736860766
 30
0.0
 10
317.9168689370768
 20
441.5690229177005
 30
0.0
 10
318.4694359856936
 20
441.5668126495061
 30
0.0
 10
319.0142657631821
 20
441.5646333303962
 30
0.0
  0
SPLINE
  5
159
330
1F
100
AcDbEntity
  8
0
  6
Continuous
 62
     7
370
    25
100
AcDbSpline
210
0.0
220
0.0
230
1.0
 70
    24
 71
     3
 72
    12
 73
     8
 74
     0
 42
0.00000001
 43
0.00000001
 40
0.0
 40
0.0
 40
0.0
 40
0.0
 40
0.5000000000000018
 40
0.5000000000000018
 40
0.7500000000000009
 40
0.7500000000000009
 40
1.0
 40
1.0
 40
1.0
 40
1.0
 10
306.2827371949728
 20
441.6155594446691
 30
0.0
 10
307.2751544877655
 20
441.611589775498
 30
0.0
 10
308.2666315208367
 20
441.6076238673656
 30
0.0
 10
309.751718591599
 20
441.6016835190826
 30
0.0
 10
310.246456381121
 20
441.5997045679245
 30
0.0
 10
311.2354705893083
 20
441.5957485110918
 30
0.0
 10
311.7297440147902
 20
441.5937714173898
 30
0.0
 10
312.2234703430302
 20
441.5917965120768
 30
0.0
  0
SPLINE
  5
15A
330
1F
100
AcDbEntity
  8
0
  6
Continuous
 62
     7
370
    25
100
AcDbSpline
210
0.0
220
0.0
230
1.0
 70
     8
 71
     3
 72
     8
 73
     4
 74
     0
 42
0.00000001
 43
0.00000001
 40
0.0
 40
0.0
 40
0.0
 40
0.0
 40
1.0
 40
1.0
 40
1.0
 40
1.0
 10
304.7516300537467
 20
441.700065487889
 30
0.0
 10
305.2606340716193
 20
441.6457671802612
 30
0.0
 10
305.7709848857198
 20
441.617606460725
 30
0.0
 10
306.2827367597209
 20
441.6155594464101
 30
0.0
  0
LINE
  5
15B
330
1F
100
AcDbEntity
  8
0
  6
Continuous
 62
     7
370
    25
100
AcDbLine
 10
328.3482335896
 20
336.7503845929
 30
0.0
 11
282.1482335893
 21
336.7503845929
 31
0.0
  0
LINE
  5
15C
330
1F
100
AcDbEntity
  8
0
  6
Continuous
 62
     7
370
    25
100
AcDbLine
 10
282.1482335893
 20
341.7503845936
 30
0.0
 11
328.3482335896
 21
341.7503845936
 31
0.0
  0
LINE
  5
15D
330
1F
100
AcDbEntity
  8
0
  6
Continuous
 62
     7
370
    25
100
AcDbLine
 10
281.1482335893
 20
336.7503845929
 30
0.0
 11
281.1482335893
 21
340.7503845936
 31
0.0
  0
LINE
  5
15E
330
1F
100
AcDbEntity
  8
0
  6
Continuous
 62
     7
370
    25
100
AcDbLine
 10
282.1482335893
 20
336.7503845929
 30
0.0
 11
281.1482335893
 21
336.7503845929
 31
0.0
  0
LINE
  5
15F
330
1F
100
AcDbEntity
  8
0
  6
Continuous
 62
     7
370
    25
100
AcDbLine
 10
329.3482335896
 20
340.7503845936
 30
0.0
 11
329.3482335896
 21
336.7503845929
 31
0.0
  0
LINE
  5
160
330
1F
100
AcDbEntity
  8
0
  6
Continuous
 62
     7
370
    25
100
AcDbLine
 10
329.3482335896
 20
336.7503845929
 30
0.0
 11
328.3482335896
 21
336.7503845929
 31
0.0
  0
ARC
  5
161
330
1F
100
AcDbEntity
  8
0
  6
Continuous
 62
     7
370
    25
100
AcDbCircle
 10
282.1482335893
 20
340.7503845936
 30
0.0
 40
1.0
100
AcDbArc
 50
90.0
 51
180.0
  0
ARC
  5
162
330
1F
100
AcDbEntity
  8
0
  6
Continuous
 62
     7
370
    25
100
AcDbCircle
 10
328.3482335896
 20
340.7503845936
 30
0.0
 40
1.0
100
AcDbArc
 50
0.0
 51
90.0
  0
SPLINE
  5
163
330
1F
100
AcDbEntity
  8
0
  6
Continuous
 62
     7
370
    25
100
AcDbSpline
210
0.0
220
0.0
230
1.0
 70
     8
 71
     3
 72
    18
 73
    14
 74
     0
 42
0.00000001
 43
0.00000001
 40
0.0
 40
0.0
 40
0.0
 40
0.0
 40
0.2500000000000016
 40
0.2500000000000016
 40
0.3750000000000012
 40
0.3750000000000012
 40
0.500000000000001
 40
0.500000000000001
 40
0.6250000000000008
 40
0.6250000000000008
 40
0.7500000000000004
 40
0.7500000000000004
 40
1.0
 40
1.0
 40
1.0
 40
1.0
 10
287.2482339308822
 20
346.7503847301308
 30
0.0
 10
287.2482339442311
 20
346.1611290657995
 30
0.0
 10
287.1408402620466
 20
345.525395905924
 30
0.0
 10
286.7753430733605
 20
344.6021687553956
 30
0.0
 10
286.6200922992419
 20
344.3001830885549
 30
0.0
 10
286.2463307600312
 20
343.7284887062002
 30
0.0
 10
286.0278455647651
 20
343.4589284263734
 30
0.0
 10
285.5396901995513
 20
342.9707730486381
 30
0.0
 10
285.2701299253287
 20
342.7522878464576
 30
0.0
 10
284.6984355525611
 20
342.3785262925829
 30
0.0
 10
284.3964498897027
 20
342.2232755107183
 30
0.0
 10
283.4732227485496
 20
341.8577782983511
 30
0.0
 10
282.8374895914289
 20
341.75038459986
 30
0.0
 10
282.2482339270978
 20
341.7503845980943
 30
0.0
  0
LINE
  5
164
330
1F
100
AcDbEntity
  8
0
  6
Continuous
 62
     7
370
    25
100
AcDbLine
 10
353.2482335893
 20
421.819051078
 30
0.0
 11
446.1482325864
 21
421.819051078
 31
0.0
  0
SPLINE
  5
165
330
1F
100
AcDbEntity
  8
0
  6
Continuous
 62
     7
370
    25
100
AcDbSpline
210
0.0
220
0.0
230
1.0
 70
    24
 71
     3
 72
    26
 73
    22
 74
     0
 42
0.00000001
 43
0.00000001
 40
0.0
 40
0.0
 40
0.0
 40
0.0
 40
0.1249999999999972
 40
0.1249999999999972
 40
0.1874999999999982
 40
0.1874999999999982
 40
0.2499999999999992
 40
0.2499999999999992
 40
0.3125000000000002
 40
0.3125000000000002
 40
0.3750000000000011
 40
0.3750000000000011
 40
0.4375000000000021
 40
0.4375000000000021
 40
0.500000000000003
 40
0.500000000000003
 40
0.6250000000000017
 40
0.6250000000000017
 40
0.7500000000000003
 40
0.7500000000000003
 40
1.0
 40
1.0
 40
1.0
 40
1.0
 10
447.1482325863542
 20
426.8193238552409
 30
0.0
 10
447.1482325863543
 20
426.4359470856633
 30
0.0
 10
447.1482325863543
 20
426.0533512747329
 30
0.0
 10
447.1482325863543
 20
425.4820247348111
 30
0.0
 10
447.1482325863542
 20
425.2919795307163
 30
0.0
 10
447.1482325863542
 20
424.9132345075506
 30
0.0
 10
447.1482325863543
 20
424.7234887376287
 30
0.0
 10
447.1482325863543
 20
424.3523476632344
 30
0.0
 10
447.1482325863542
 20
424.1710884719652
 30
0.0
 10
447.1482325863542
 20
423.8257878708407
 30
0.0
 10
447.1482325863543
 20
423.6668223906906
 30
0.0
 10
447.1482325863543
 20
423.4061649670863
 30
0.0
 10
447.1482325863542
 20
423.3091383753956
 30
0.0
 10
447.1482325863542
 20
423.1575831382127
 30
0.0
 10
447.1482325863543
 20
423.1040179625448
 30
0.0
 10
447.1482325863543
 20
422.9744281451698
 30
0.0
 10
447.1482325863542
 20
422.9297454930249
 30
0.0
 10
447.1482325863542
 20
422.8658263040426
 30
0.0
 10
447.1482325863543
 20
422.8500379546346
 30
0.0
 10
447.1482325863543
 20
422.8171673602865
 30
0.0
 10
447.1482325863543
 20
422.8195513240091
 30
0.0
 10
447.1482325863543
 20
422.819051297398
 30
0.0
  0
SPLINE
  5
166
330
1F
100
AcDbEntity
  8
0
  6
Continuous
 62
     7
370
    25
100
AcDbSpline
210
0.0
220
0.0
230
1.0
 70
     8
 71
     3
 72
    10
 73
     6
 74
     0
 42
0.00000001
 43
0.00000001
 40
0.0
 40
0.0
 40
0.0
 40
0.0
 40
0.5
 40
0.5
 40
1.0
 40
1.0
 40
1.0
 40
1.0
 10
447.1482325863541
 20
422.8190510780211
 30
0.0
 10
447.1482325863541
 20
422.557251690222
 30
0.0
 10
447.0404594899639
 20
422.2970644192578
 30
0.0
 10
446.6702192451174
 20
421.9268241744113
 30
0.0
 10
446.4100319741534
 20
421.8190510780211
 30
0.0
 10
446.1482325863543
 20
421.8190510780211
 30
0.0
  0
SPLINE
  5
167
330
1F
100
AcDbEntity
  8
0
  6
Continuous
 62
     7
370
    25
100
AcDbSpline
210
0.0
220
0.0
230
1.0
 70
     8
 71
     3
 72
    14
 73
    10
 74
     0
 42
0.00000001
 43
0.00000001
 40
0.0
 40
0.0
 40
0.0
 40
0.0
 40
0.0026283545570112
 40
0.0026283545570112
 40
0.0026283545570112
 40
0.0052567090778632
 40
0.0052567090778632
 40
0.0052567090778632
 40
0.0104863578434055
 40
0.0104863578434055
 40
0.0104863578434055
 40
0.0104863578434055
 10
288.2502741128034
 20
446.5963769011268
 30
0.0
 10
289.1144103007218
 20
446.7407781614822
 30
0.0
 10
289.9785127870418
 20
446.8853812615995
 30
0.0
 10
290.8425796724084
 20
447.0301966367337
 30
0.0
 10
291.7066465522491
 20
447.1750120109418
 30
0.0
 10
292.5706782521914
 20
447.3200373357549
 30
0.0
 10
293.4346894724549
 20
447.4651844222
 30
0.0
 10
295.1538164373912
 20
447.7539842251861
 30
0.0
 10
296.8725500682546
 20
448.0451261824882
 30
0.0
 10
298.5918466502598
 20
448.3329144916351
 30
0.0
  0
LINE
  5
168
330
1F
100
AcDbEntity
  8
0
  6
Continuous
 62
     7
370
    25
100
AcDbLine
 10
389.8237184438
 20
465.6597074345
 30
0.0
 11
390.1499965975
 21
463.679821968
 31
0.0
  0
ARC
  5
169
330
1F
100
AcDbEntity
  8
0
  6
Continuous
 62
     7
370
    25
100
AcDbCircle
 10
388.8088158777
 20
465.4924550616
 30
0.0
 40
1.028591546237928
100
AcDbArc
 50
9.3580330718
 51
99.3580327291
  0
LINE
  5
16A
330
1F
100
AcDbEntity
  8
0
  6
Continuous
 62
     7
370
    25
100
AcDbLine
 10
287.219513311
 20
446.053363968
 30
0.0
 11
287.2310054979
 21
448.9264108236
 31
0.0
  0
SPLINE
  5
16B
330
1F
100
AcDbEntity
  8
0
  6
Continuous
 62
     7
370
    25
100
AcDbSpline
210
0.0
220
0.0
230
1.0
 70
     8
 71
     3
 72
    12
 73
     8
 74
     0
 42
0.00000001
 43
0.00000001
 40
0.0
 40
0.0
 40
0.0
 40
0.0
 40
0.5
 40
0.5
 40
0.75
 40
0.75
 40
1.0
 40
1.0
 40
1.0
 40
1.0
 10
287.2544127336099
 20
446.0499131274739
 30
0.0
 10
287.3111029313493
 20
446.1557342621898
 30
0.0
 10
287.436137507777
 20
446.2684024373256
 30
0.0
 10
287.6958866825395
 20
446.4181570396544
 30
0.0
 10
287.7944416567212
 20
446.4646354922846
 30
0.0
 10
288.0121641759323
 20
446.5439927028859
 30
0.0
 10
288.1290039193736
 20
446.5761112985476
 30
0.0
 10
288.2502741029642
 20
446.5963768994582
 30
0.0
  0
LINE
  5
16C
330
1F
100
AcDbEntity
  8
0
  6
Continuous
 62
     7
370
    25
100
AcDbLine
 10
287.2544127336
 20
446.0499131275
 30
0.0
 11
287.219513311
 21
446.053363968
 31
0.0
  0
SPLINE
  5
16D
330
1F
100
AcDbEntity
  8
0
  6
Continuous
 62
     7
370
    25
100
AcDbSpline
210
0.0
220
0.0
230
1.0
 70
    24
 71
     3
 72
     8
 73
     4
 74
     0
 42
0.00000001
 43
0.00000001
 40
0.0
 40
0.0
 40
0.0
 40
0.0
 40
1.0
 40
1.0
 40
1.0
 40
1.0
 10
287.2544127336112
 20
446.0499131274764
 30
0.0
 10
288.1673691393717
 20
445.9596403753864
 30
0.0
 10
289.1206379149849
 20
445.8653815528259
 30
0.0
 10
290.1011171693927
 20
445.7684321693678
 30
0.0
  0
SPLINE
  5
16E
330
1F
100
AcDbEntity
  8
0
  6
Continuous
 62
     7
370
    25
100
AcDbSpline
210
0.0
220
0.0
230
1.0
 70
     8
 71
     3
 72
    10
 73
     6
 74
     0
 42
0.00000001
 43
0.00000001
 40
0.0
 40
0.0
 40
0.0
 40
0.0
 40
0.5
 40
0.5
 40
1.0
 40
1.0
 40
1.0
 40
1.0
 10
299.9448661635843
 20
443.0483006396395
 30
0.0
 10
300.7078389133164
 20
442.6885047551331
 30
0.0
 10
301.4899274904923
 20
442.3977667765055
 30
0.0
 10
303.0917759034612
 20
441.9483597587183
 30
0.0
 10
303.9115181511671
 20
441.7896849025141
 30
0.0
 10
304.7516304815429
 20
441.7000654422536
 30
0.0
  0
SPLINE
  5
16F
330
1F
100
AcDbEntity
  8
0
  6
Continuous
 62
     7
370
    25
100
AcDbSpline
210
0.0
220
0.0
230
1.0
 70
     8
 71
     3
 72
    14
 73
    10
 74
     0
 42
0.00000001
 43
0.00000001
 40
0.0
 40
0.0
 40
0.0
 40
0.0
 40
0.25
 40
0.25
 40
0.5
 40
0.5
 40
0.75
 40
0.75
 40
1.0
 40
1.0
 40
1.0
 40
1.0
 10
290.1011171693926
 20
445.7684321693678
 30
0.0
 10
290.9531042735211
 20
445.6841880366254
 30
0.0
 10
291.8040942422911
 20
445.5630902984928
 30
0.0
 10
293.4907524589734
 20
445.2486389556653
 30
0.0
 10
294.3245781189056
 20
445.0558354437407
 30
0.0
 10
295.9741471776588
 20
444.599408569357
 30
0.0
 10
296.7905570777398
 20
444.3353153810886
 30
0.0
 10
298.3893038755175
 20
443.7418050466814
 30
0.0
 10
299.174261775521
 20
443.4116953840849
 30
0.0
 10
299.9448661635843
 20
443.0483006396395
 30
0.0
  0
LINE
  5
170
330
1F
100
AcDbEntity
  8
0
  6
Continuous
 62
     7
370
    25
100
AcDbLine
 10
287.2482325866
 20
436.8187265072
 30
0.0
 11
287.2482325866
 21
361.8187255355
 31
0.0
  0
LINE
  5
171
330
1F
100
AcDbEntity
  8
0
  6
Continuous
 62
     7
370
    25
100
AcDbLine
 10
287.2649656952
 20
436.8187265069
 30
0.0
 11
287.2482325866
 21
436.8187265072
 31
0.0
  0
LINE
  5
172
330
1F
100
AcDbEntity
  8
0
  6
Continuous
 62
     7
370
    25
100
AcDbLine
 10
287.2482328203
 20
361.8187255355
 30
0.0
 11
287.2482328203
 21
357.7503845936
 31
0.0
  0
LINE
  5
173
330
1F
100
AcDbEntity
  8
0
  6
Continuous
 62
     7
370
    25
100
AcDbLine
 10
446.1482325864
 20
437.8187265072
 30
0.0
 11
288.2482325865
 21
437.8187265072
 31
0.0
  0
LINE
  5
174
330
1F
100
AcDbEntity
  8
0
  6
Continuous
 62
     7
370
    25
100
AcDbLine
 10
447.1482325864
 20
436.8187265072
 30
0.0
 11
447.1482325864
 21
426.8193238552
 31
0.0
  0
SPLINE
  5
175
330
1F
100
AcDbEntity
  8
0
  6
Continuous
 62
     7
370
    25
100
AcDbSpline
210
0.0
220
0.0
230
1.0
 70
     8
 71
     3
 72
    10
 73
     6
 74
     0
 42
0.00000001
 43
0.00000001
 40
0.0
 40
0.0
 40
0.0
 40
0.0
 40
0.5
 40
0.5
 40
1.0
 40
1.0
 40
1.0
 40
1.0
 10
447.1482325863542
 20
436.8187265072028
 30
0.0
 10
447.1482325863533
 20
437.0805258950013
 30
0.0
 10
447.0404594899628
 20
437.3407131659645
 30
0.0
 10
446.6702192451164
 20
437.7109534108096
 30
0.0
 10
446.4100319741528
 20
437.8187265071993
 30
0.0
 10
446.1482325863542
 20
437.8187265071993
 30
0.0
  0
LINE
  5
176
330
1F
100
AcDbEntity
  8
0
  6
Continuous
 62
     7
370
    25
100
AcDbLine
 10
287.2390538036
 20
450.9261013195
 30
0.0
 11
287.2310538676
 21
448.9261173191
 31
0.0
  0
ARC
  5
177
330
1F
100
AcDbEntity
  8
0
  6
Continuous
 62
     7
370
    25
100
AcDbCircle
 10
288.2676371205
 20
450.9219869864
 30
0.0
 40
1.028591545499509
100
AcDbArc
 50
89.7708181024
 51
179.7708181144
  0
SPLINE
  5
178
330
1F
100
AcDbEntity
  8
0
  6
Continuous
 62
     7
370
    25
100
AcDbSpline
210
0.0
220
0.0
230
1.0
 70
     8
 71
     3
 72
    18
 73
    14
 74
     0
 42
0.00000001
 43
0.00000001
 40
0.0
 40
0.0
 40
0.0
 40
0.0
 40
0.0312500000000047
 40
0.0312500000000047
 40
0.0625000000000093
 40
0.0625000000000093
 40
0.1250000000000171
 40
0.1250000000000171
 40
0.2500000000000149
 40
0.2500000000000149
 40
0.5000000000000099
 40
0.5000000000000099
 40
1.0
 40
1.0
 40
1.0
 40
1.0
 10
353.2483179445554
 20
421.8190510778637
 30
0.0
 10
353.2360356792984
 20
421.8190511193066
 30
0.0
 10
353.2275608183166
 20
421.8190432948979
 30
0.0
 10
353.21519828151
 20
421.8190300155282
 30
0.0
 10
353.2105442531472
 20
421.819023017115
 30
0.0
 10
353.1980150774377
 20
421.819002035363
 30
0.0
 10
353.1919559858578
 20
421.8189883073063
 30
0.0
 10
353.1759018016796
 20
421.8189487310545
 30
0.0
 10
353.1683810158271
 20
421.8189243740498
 30
0.0
 10
353.1491128756099
 20
421.8188578790808
 30
0.0
 10
353.1411679912284
 20
421.8188225681048
 30
0.0
 10
353.122772662675
 20
421.8187392751353
 30
0.0
 10
353.1183817668044
 20
421.8187138961165
 30
0.0
 10
353.1167959036939
 20
421.8187055583143
 30
0.0
  0
SPLINE
  5
179
330
1F
100
AcDbEntity
  8
0
  6
Continuous
 62
     7
370
    25
100
AcDbSpline
210
0.0
220
0.0
230
1.0
 70
     8
 71
     3
 72
    23
 73
    19
 74
     0
 42
0.00000001
 43
0.00000001
 40
0.0
 40
0.0
 40
0.0
 40
0.0
 40
1.736884773864148
 40
3.473769547728295
 40
5.210654321592443
 40
6.947539095456591
 40
8.684423869320739
 40
10.42130864318489
 40
12.15819341704903
 40
13.89507819091318
 40
15.63196296477733
 40
17.36884773864148
 40
19.10573251250563
 40
20.84261728636977
 40
52.39352589075726
 40
83.94443449514475
 40
92.75701556081138
 40
101.569596626478
 40
101.569596626478
 40
101.569596626478
 40
101.569596626478
 10
288.271751453808
 20
451.9505703031928
 30
0.0
 10
288.8429629330068
 20
452.0333347808875
 30
0.0
 10
289.9857787499759
 20
452.1989083761073
 30
0.0
 10
291.6976584040667
 20
452.4469107403391
 30
0.0
 10
293.410140509843
 20
452.6950013417655
 30
0.0
 10
295.1224100943791
 20
452.9430809221478
 30
0.0
 10
296.8346653482183
 20
453.1911971607848
 30
0.0
 10
298.5468188082742
 20
453.4393563090516
 30
0.0
 10
300.2589166206975
 20
453.6875839954553
 30
0.0
 10
301.9707601583819
 20
453.9358703493844
 30
0.0
 10
303.6830003366903
 20
454.1843287081103
 30
0.0
 10
305.395310755543
 20
454.4329306702637
 30
0.0
 10
307.1076056358789
 20
454.6816827314196
 30
0.0
 10
318.6156081151317
 20
456.3546489385358
 30
0.0
 10
340.0212642811506
 20
459.4891257154242
 30
0.0
 10
363.6796993912919
 20
462.9349081652852
 30
0.0
 10
379.9154335708477
 20
465.2623489374802
 30
0.0
 10
385.7326446801904
 20
466.0924302108959
 30
0.0
 10
388.6416118807502
 20
466.5070641255851
 30
0.0
  0
LINE
  5
17A
330
1F
100
AcDbEntity
  8
0
  6
Continuous
 62
     7
370
    25
100
AcDbLine
 10
287.2482331376
 20
346.7503847289
 30
0.0
 11
287.2482331376
 21
357.7503846914
 31
0.0
  0
LWPOLYLINE
  5
17B
330
1F
100
AcDbEntity
  8
0
  6
Continuous
 62
     7
370
    25
100
AcDbPolyline
 90
        2
 70
   128
 43
0.0
 10
288.2717514538
 20
451.9505703032
 10
288.2717514538
 20
451.9505703032
  0
LINE
  5
17C
330
1F
100
AcDbEntity
  8
0
  6
Continuous
 62
     7
370
    25
100
AcDbLine
 10
287.2482318544
 20
357.7503845876
 30
0.0
 11
287.2482318544
 21
346.7503846251
 31
0.0
  0
LINE
  5
17D
330
1F
100
AcDbEntity
  8
0
  6
Continuous
 62
     7
370
    25
100
AcDbLine
 10
287.2482331376
 20
357.7503846914
 30
0.0
 11
287.2482318544
 21
357.7503845876
 31
0.0
  0
SPLINE
  5
17E
330
1F
100
AcDbEntity
  8
0
  6
Continuous
 62
     7
370
    25
100
AcDbSpline
210
0.0
220
0.0
230
1.0
 70
     8
 71
     3
 72
    18
 73
    14
 74
     0
 42
0.00000001
 43
0.00000001
 40
0.0
 40
0.0
 40
0.0
 40
0.0
 40
0.2500000000000051
 40
0.2500000000000051
 40
0.3750000000000054
 40
0.3750000000000054
 40
0.5000000000000058
 40
0.5000000000000058
 40
0.6250000000000061
 40
0.6250000000000061
 40
0.7500000000000063
 40
0.7500000000000063
 40
1.0
 40
1.0
 40
1.0
 40
1.0
 10
289.2453426446435
 20
443.1687265071993
 30
0.0
 10
289.2027202079097
 20
442.9927368465089
 30
0.0
 10
289.1601024857936
 20
442.8205148887987
 30
0.0
 10
289.0988262052566
 20
442.5771195310865
 30
0.0
 10
289.0792433300346
 20
442.5000507193205
 30
0.0
 10
289.041850727753
 20
442.3539594839534
 30
0.0
 10
289.0238793694785
 20
442.2843219414494
 30
0.0
 10
288.991292063306
 20
442.1587998885917
 30
0.0
 10
288.9765436748499
 20
442.1023888261502
 30
0.0
 10
288.950328254148
 20
442.0025508330808
 30
0.0
 10
288.9389110543287
 20
441.9593177716141
 30
0.0
 10
288.9114902037539
 20
441.855761168979
 30
0.0
 10
288.901587122212
 20
441.8187265071994
 30
0.0
 10
288.901587122212
 20
441.8187265071993
 30
0.0
  0
SPLINE
  5
17F
330
1F
100
AcDbEntity
  8
0
  6
Continuous
 62
     7
370
    25
100
AcDbSpline
210
0.0
220
0.0
230
1.0
 70
     8
 71
     3
 72
     8
 73
     4
 74
     0
 42
0.00000001
 43
0.00000001
 40
0.0
 40
0.0
 40
0.0
 40
0.0
 40
1.0
 40
1.0
 40
1.0
 40
1.0
 10
289.9390098785016
 20
445.4859329123616
 30
0.0
 10
289.6653540471862
 20
444.7223526080311
 30
0.0
 10
289.4345252427862
 20
443.9498686428224
 30
0.0
 10
289.2453426446435
 20
443.1687265071993
 30
0.0
  0
SPLINE
  5
180
330
1F
100
AcDbEntity
  8
0
  6
Continuous
 62
     7
370
    25
100
AcDbSpline
210
0.0
220
0.0
230
1.0
 70
     8
 71
     3
 72
    10
 73
     6
 74
     0
 42
0.00000001
 43
0.00000001
 40
0.0
 40
0.0
 40
0.0
 40
0.0
 40
0.5
 40
0.5
 40
1.0
 40
1.0
 40
1.0
 40
1.0
 10
290.1282396793706
 20
445.6187265071993
 30
0.0
 10
290.0870501102471
 20
445.6187265071993
 30
0.0
 10
290.0462287077179
 20
445.6058081034018
 30
0.0
 10
289.9791818487386
 20
445.5588967165165
 30
0.0
 10
289.9529077593087
 20
445.5247120898609
 30
0.0
 10
289.9390098785016
 20
445.4859329123616
 30
0.0
  0
LINE
  5
181
330
1F
100
AcDbEntity
  8
0
  6
Continuous
 62
     7
370
    25
100
AcDbLine
 10
290.1282396794
 20
445.6187265072
 30
0.0
 11
291.1573923912
 21
445.6187265072
 31
0.0
  0
SPLINE
  5
182
330
1F
100
AcDbEntity
  8
0
  6
Continuous
 62
     8
370
    18
100
AcDbSpline
210
0.0
220
0.0
230
1.0
 70
     8
 71
     3
 72
    10
 73
     6
 74
     0
 42
0.00000001
 43
0.00000001
 40
0.5781271939100351
 40
0.5781271939100351
 40
0.5781271939100351
 40
0.5781271939100351
 40
1.154236230988856
 40
1.154236230988856
 40
1.161213034834384
 40
1.161213034834384
 40
1.161213034834384
 40
1.161213034834384
 10
304.0467357742598
 20
442.4541689169411
 30
0.0
 10
304.1765299839464
 20
442.3148334814143
 30
0.0
 10
304.3064464873342
 20
442.1755774752057
 30
0.0
 10
304.438043620078
 20
442.034862209318
 30
0.0
 10
304.4396182433873
 20
442.0331785231285
 30
0.0
 10
304.4411928890951
 20
442.0314948529278
 30
0.0
  0
SPLINE
  5
183
330
1F
100
AcDbEntity
  8
0
  6
Continuous
 62
     8
370
    18
100
AcDbSpline
210
0.0
220
0.0
230
1.0
 70
     8
 71
     3
 72
    44
 73
    40
 74
     0
 42
0.00000001
 43
0.00000001
 40
1.161213034834251
 40
1.161213034834251
 40
1.161213034834251
 40
1.161213034834251
 40
1.215563289518784
 40
1.215563289518784
 40
1.288701289238223
 40
1.288701289238223
 40
1.434977288677113
 40
1.434977288677113
 40
1.727529287554893
 40
1.727529287554893
 40
2.020081286432672
 40
2.020081286432672
 40
2.312633285310463
 40
2.312633285310463
 40
2.897737283066022
 40
2.897737283066022
 40
3.190289281943802
 40
3.190289281943802
 40
3.482841280821583
 40
3.482841280821583
 40
4.067945278577153
 40
4.067945278577153
 40
4.360497277454932
 40
4.360497277454932
 40
4.653049276332712
 40
4.653049276332712
 40
5.238153274088273
 40
5.238153274088273
 40
5.823257271843833
 40
5.823257271843833
 40
6.408361269599403
 40
6.408361269599403
 40
6.993465267354963
 40
6.993465267354963
 40
7.578569265110523
 40
7.578569265110523
 40
8.163673262866084
 40
8.163673262866084
 40
8.172668223542962
 40
8.172668223542962
 40
8.172668223542962
 40
8.172668223542962
 10
299.3374985736401
 20
447.5162287054229
 30
0.0
 10
299.3493463225313
 20
447.5037187751836
 30
0.0
 10
299.3612038257079
 20
447.4911910774855
 30
0.0
 10
299.3890623608854
 20
447.4618238601295
 30
0.0
 10
299.4050547116701
 20
447.4449382822951
 30
0.0
 10
299.4530782175993
 20
447.3942269751417
 30
0.0
 10
299.4851572001973
 20
447.3603154579064
 30
0.0
 10
299.5815618946473
 20
447.2583282403127
 30
0.0
 10
299.6460431309735
 20
447.1900109930119
 30
0.0
 10
299.7754895553145
 20
447.052802639006
 30
0.0
 10
299.8404053051455
 20
446.9839409218862
 30
0.0
 10
299.9705604450571
 20
446.8456918197414
 30
0.0
 10
300.0357470377256
 20
446.776374151222
 30
0.0
 10
300.231643300642
 20
446.5676007381666
 30
0.0
 10
300.3624351234247
 20
446.4276003710349
 30
0.0
 10
300.558951050905
 20
446.2167671569244
 30
0.0
 10
300.624464072455
 20
446.1463996680407
 30
0.0
 10
300.7556333520072
 20
446.0054283113822
 30
0.0
 10
300.8212221451509
 20
445.9348909158587
 30
0.0
 10
301.0180745669221
 20
445.7229982995195
 30
0.0
 10
301.1493550022676
 20
445.581467337132
 30
0.0
 10
301.3462675280853
 20
445.3689551327394
 30
0.0
 10
301.4119223260957
 20
445.2980614877108
 30
0.0
 10
301.5431891639055
 20
445.1562666198556
 30
0.0
 10
301.6088426973343
 20
445.0853217252716
 30
0.0
 10
301.8057610687284
 20
444.8724787193904
 30
0.0
 10
301.9370486588427
 20
444.7305027444557
 30
0.0
 10
302.1996328324279
 20
444.4465279421103
 30
0.0
 10
302.3309587319605
 20
444.3044990551593
 30
0.0
 10
302.5936063569108
 20
444.0205260675557
 30
0.0
 10
302.724984568614
 20
443.8785225863647
 30
0.0
 10
302.9877799850631
 20
443.5946385487581
 30
0.0
 10
303.1192288273287
 20
443.4527134972139
 30
0.0
 10
303.3822387026556
 20
443.1690008928497
 30
0.0
 10
303.5137866862693
 20
443.027219698835
 30
0.0
 10
303.7771084001849
 20
442.7438057374904
 30
0.0
 10
303.9088394751016
 20
442.6022088344879
 30
0.0
 10
304.0426827733536
 20
442.4585199069805
 30
0.0
 10
304.0447092589007
 20
442.4563444022793
 30
0.0
 10
304.0467357742599
 20
442.454168916941
 30
0.0
  0
SPLINE
  5
184
330
1F
100
AcDbEntity
  8
0
  6
Continuous
 62
     8
370
    18
100
AcDbSpline
210
0.0
220
0.0
230
1.0
 70
     8
 71
     3
 72
    12
 73
     8
 74
     0
 42
0.00000001
 43
0.00000001
 40
8.172668223544306
 40
8.172668223544306
 40
8.172668223544306
 40
8.172668223544306
 40
8.176115058065218
 40
8.176115058065218
 40
8.468667056942998
 40
8.468667056942998
 40
8.487454801976572
 40
8.487454801976572
 40
8.487454801976572
 40
8.487454801976572
 10
299.1325752627217
 20
447.7320023779537
 30
0.0
 10
299.1333189627352
 20
447.7312198246557
 30
0.0
 10
299.1340627380242
 20
447.7304372037924
 30
0.0
 10
299.1979414125765
 20
447.6632232560587
 30
0.0
 10
299.2614723939264
 20
447.5964492532591
 30
0.0
 10
299.3293087017819
 20
447.5248754242087
 30
0.0
 10
299.3334030549212
 20
447.5205531263688
 30
0.0
 10
299.3374985736392
 20
447.5162287054238
 30
0.0
  0
SPLINE
  5
185
330
1F
100
AcDbEntity
  8
0
  6
Continuous
 62
     8
370
    18
100
AcDbSpline
210
0.0
220
0.0
230
1.0
 70
     8
 71
     3
 72
    16
 73
    12
 74
     0
 42
0.00000001
 43
0.00000001
 40
8.487454801976607
 40
8.487454801976607
 40
8.487454801976607
 40
8.487454801976607
 40
8.505695716722828
 40
8.505695716722828
 40
8.523980216652689
 40
8.523980216652689
 40
8.54226471658255
 40
8.54226471658255
 40
8.57883371644228
 40
8.57883371644228
 40
8.648524881640771
 40
8.648524881640771
 40
8.648524881640771
 40
8.648524881640771
 10
299.0288004958846
 20
447.8414232867826
 30
0.0
 10
299.0326883666903
 20
447.8372830356167
 30
0.0
 10
299.0365574845204
 20
447.8331456796009
 30
0.0
 10
299.0443800864041
 20
447.8248927588135
 30
0.0
 10
299.0482971167946
 20
447.8207624937273
 30
0.0
 10
299.0561441806655
 20
447.8124889435092
 30
0.0
 10
299.0600555504612
 20
447.8083659908112
 30
0.0
 10
299.071817600334
 20
447.7959699400124
 30
0.0
 10
299.0796855885953
 20
447.7876810731369
 30
0.0
 10
299.1025324592995
 20
447.7636194738438
 30
0.0
 10
299.1175384745661
 20
447.7478247363634
 30
0.0
 10
299.1325752627217
 20
447.7320023779537
 30
0.0
  0
SPLINE
  5
186
330
1F
100
AcDbEntity
  8
0
  6
Continuous
 62
     8
370
    18
100
AcDbSpline
210
0.0
220
0.0
230
1.0
 70
     8
 71
     3
 72
    16
 73
    12
 74
     0
 42
0.00000001
 43
0.00000001
 40
8.648524881646212
 40
8.648524881646212
 40
8.648524881646212
 40
8.648524881646212
 40
8.673847827925675
 40
8.673847827925675
 40
8.746985827645116
 40
8.746985827645116
 40
8.783554827504846
 40
8.783554827504846
 40
8.801839327434706
 40
8.801839327434706
 40
8.801882912612903
 40
8.801882912612903
 40
8.801882912612903
 40
8.801882912612903
 10
298.9318091905351
 20
447.945756898586
 30
0.0
 10
298.9371060805672
 20
447.9400143234152
 30
0.0
 10
298.9424024123443
 20
447.9342634324432
 30
0.0
 10
298.9630430731356
 20
447.9119205416976
 30
0.0
 10
298.9784043861161
 20
447.8953631771346
 30
0.0
 10
299.001620794854
 20
447.870455499138
 30
0.0
 10
299.0093473268979
 20
447.8621843150921
 30
0.0
 10
299.021002251318
 20
447.8497368576959
 30
0.0
 10
299.0248753755978
 20
447.8456031229675
 30
0.0
 10
299.0287819162737
 20
447.8414430723878
 30
0.0
 10
299.028791206131
 20
447.8414331795788
 30
0.0
 10
299.0288004958812
 20
447.8414232867863
 30
0.0
  0
SPLINE
  5
187
330
1F
100
AcDbEntity
  8
0
  6
Continuous
 62
     8
370
    18
100
AcDbSpline
210
0.0
220
0.0
230
1.0
 70
     8
 71
     3
 72
    18
 73
    14
 74
     0
 42
0.00000001
 43
0.00000001
 40
8.801882912619199
 40
8.801882912619199
 40
8.801882912619199
 40
8.801882912619199
 40
8.809500601130553
 40
8.809500601130553
 40
8.818642851095484
 40
8.818642851095484
 40
8.836927351025343
 40
8.836927351025343
 40
8.910065350744784
 40
8.910065350744784
 40
8.946634350604514
 40
8.946634350604514
 40
8.957880404178475
 40
8.957880404178475
 40
8.957880404178475
 40
8.957880404178475
 10
298.8336328731301
 20
448.0509437544058
 30
0.0
 10
298.8352431173786
 20
448.0492484719041
 30
0.0
 10
298.8368569799336
 20
448.0475505480999
 30
0.0
 10
298.8403778655498
 20
448.0438330461279
 30
0.0
 10
298.8423054603421
 20
448.0417805971809
 30
0.0
 10
298.8480776942964
 20
448.0356495285341
 30
0.0
 10
298.8519109477907
 20
448.0315707295942
 30
0.0
 10
298.8711217516257
 20
448.0111063743769
 30
0.0
 10
298.8864627335129
 20
447.9946782096012
 30
0.0
 10
298.9094466052367
 20
447.9699383578912
 30
0.0
 10
298.9170969986824
 20
447.9616803180339
 30
0.0
 10
298.9271043270053
 20
447.950855874117
 30
0.0
 10
298.9294568138204
 20
447.9483072064142
 30
0.0
 10
298.9318091905311
 20
447.9457568985902
 30
0.0
  0
SPLINE
  5
188
330
1F
100
AcDbEntity
  8
0
  6
Continuous
 62
     8
370
    18
100
AcDbSpline
210
0.0
220
0.0
230
1.0
 70
     8
 71
     3
 72
    18
 73
    14
 74
     0
 42
0.00000001
 43
0.00000001
 40
8.957880404168646
 40
8.957880404168646
 40
8.957880404168646
 40
8.957880404168646
 40
8.963411976457541
 40
8.963411976457541
 40
8.97255422642247
 40
8.97255422642247
 40
9.0091232262822
 40
9.0091232262822
 40
9.082261226001641
 40
9.082261226001641
 40
9.11883022586136
 40
9.11883022586136
 40
9.120354787324775
 40
9.120354787324775
 40
9.120354787324775
 40
9.120354787324775
 10
298.7313509659814
 20
448.1590014425067
 30
0.0
 10
298.7324956625017
 20
448.1577708574815
 30
0.0
 10
298.7336421288481
 20
448.1565407717495
 30
0.0
 10
298.7366990410358
 20
448.1533002847569
 30
0.0
 10
298.7386136433881
 20
448.1512743162618
 30
0.0
 10
298.7481585619348
 20
448.1411696379963
 30
0.0
 10
298.7558108647364
 20
448.1330743548642
 30
0.0
 10
298.7787876192387
 20
448.1087826923604
 30
0.0
 10
298.7941480634016
 20
448.0925643688653
 30
0.0
 10
298.8172482316263
 20
448.0682049141679
 30
0.0
 10
298.8249468670367
 20
448.0600922999116
 30
0.0
 10
298.8329884875538
 20
448.0516222172727
 30
0.0
 10
298.8333106078816
 20
448.0512830387331
 30
0.0
 10
298.8336328731363
 20
448.0509437543993
 30
0.0
  0
SPLINE
  5
189
330
1F
100
AcDbEntity
  8
0
  6
Continuous
 62
     8
370
    18
100
AcDbSpline
210
0.0
220
0.0
230
1.0
 70
     8
 71
     3
 72
    22
 73
    18
 74
     0
 42
0.00000001
 43
0.00000001
 40
9.120354787332598
 40
9.120354787332598
 40
9.120354787332598
 40
9.120354787332598
 40
9.15692378719232
 40
9.15692378719232
 40
9.175208287122178
 40
9.175208287122178
 40
9.193492787052039
 40
9.193492787052039
 40
9.230061786911758
 40
9.230061786911758
 40
9.266630786771488
 40
9.266630786771488
 40
9.339768786490929
 40
9.339768786490929
 40
9.35805328642079
 40
9.35805328642079
 40
9.361663964089
 40
9.361663964089
 40
9.361663964089
 40
9.361663964089
 10
298.5933139209631
 20
448.3261634072126
 30
0.0
 10
298.5991780405202
 20
448.3171216038788
 30
0.0
 10
298.6051233580679
 20
448.3081391251262
 30
0.0
 10
298.6144678529489
 20
448.2948388062119
 30
0.0
 10
298.6176510106969
 20
448.2904334364253
 30
0.0
 10
298.6241510818588
 20
448.2817260132348
 30
0.0
 10
298.6274798019759
 20
448.2774193720271
 30
0.0
 10
298.6376173123913
 20
448.2645478021881
 30
0.0
 10
298.6445445047523
 20
448.2561081121525
 30
0.0
 10
298.6586826725173
 20
448.2393106120804
 30
0.0
 10
298.6658637268717
 20
448.2309877979329
 30
0.0
 10
298.6877179933812
 20
448.2061751431391
 30
0.0
 10
298.7026802142339
 20
448.1898652845883
 30
0.0
 10
298.721535386686
 20
448.169547105526
 30
0.0
 10
298.7253285718789
 20
448.1654681322423
 30
0.0
 10
298.7298573419745
 20
448.1606081590159
 30
0.0
 10
298.7306037769412
 20
448.1598046943972
 30
0.0
 10
298.7313509659765
 20
448.159001442512
 30
0.0
  0
SPLINE
  5
18A
330
1F
100
AcDbEntity
  8
0
  6
Continuous
 62
     8
370
    18
100
AcDbSpline
210
0.0
220
0.0
230
1.0
 70
     8
 71
     3
 72
     8
 73
     4
 74
     0
 42
0.00000001
 43
0.00000001
 40
0.1199204586113763
 40
0.1199204586113763
 40
0.1199204586113763
 40
0.1199204586113763
 40
0.5781271939121826
 40
0.5781271939121826
 40
0.5781271939121826
 40
0.5781271939121826
 10
304.4411928890937
 20
442.0314948529294
 30
0.0
 10
304.5446089066574
 20
441.9209185714303
 30
0.0
 10
304.6481215356409
 20
441.8104112546861
 30
0.0
 10
304.7516751818962
 20
441.7000177893886
 30
0.0
  0
LINE
  5
18B
330
1F
100
AcDbEntity
  8
0
  6
Continuous
 62
     8
370
    18
100
AcDbLine
 10
282.1482335893
 20
340.7503845936
 30
0.0
 11
282.1482335893
 21
336.7503845929
 31
0.0
  0
LINE
  5
18C
330
1F
100
AcDbEntity
  8
0
  6
Continuous
 62
     8
370
    18
100
AcDbLine
 10
328.3482335896
 20
340.7503845936
 30
0.0
 11
282.1482335893
 21
340.7503845936
 31
0.0
  0
LINE
  5
18D
330
1F
100
AcDbEntity
  8
0
  6
Continuous
 62
     8
370
    18
100
AcDbLine
 10
328.3482335896
 20
336.7503845929
 30
0.0
 11
328.3482335896
 21
340.7503845936
 31
0.0
  0
LINE
  5
18E
330
1F
100
AcDbEntity
  8
0
  6
Continuous
 62
     8
370
    18
100
AcDbLine
 10
328.3482335896
 20
341.7503845936
 30
0.0
 11
328.3482335896
 21
340.7503845936
 31
0.0
  0
LINE
  5
18F
330
1F
100
AcDbEntity
  8
0
  6
Continuous
 62
     8
370
    18
100
AcDbLine
 10
282.1482335893
 20
341.7503845936
 30
0.0
 11
282.1482335893
 21
340.7503845936
 31
0.0
  0
LINE
  5
190
330
1F
100
AcDbEntity
  8
0
  6
Continuous
 62
     8
370
    18
100
AcDbLine
 10
281.1482335893
 20
340.7503845936
 30
0.0
 11
282.1482335893
 21
340.7503845936
 31
0.0
  0
LINE
  5
191
330
1F
100
AcDbEntity
  8
0
  6
Continuous
 62
     8
370
    18
100
AcDbLine
 10
328.3482335896
 20
340.7503845936
 30
0.0
 11
329.3482335896
 21
340.7503845936
 31
0.0
  0
SPLINE
  5
192
330
1F
100
AcDbEntity
  8
0
  6
Continuous
 62
     8
370
    18
100
AcDbSpline
210
0.0
220
0.0
230
1.0
 70
     8
 71
     3
 72
    18
 73
    14
 74
     0
 42
0.00000001
 43
0.00000001
 40
0.0
 40
0.0
 40
0.0
 40
0.0
 40
0.2499999999999998
 40
0.2499999999999998
 40
0.3749999999999993
 40
0.3749999999999993
 40
0.499999999999999
 40
0.499999999999999
 40
0.6249999999999987
 40
0.6249999999999987
 40
0.7499999999999982
 40
0.7499999999999982
 40
1.0
 40
1.0
 40
1.0
 40
1.0
 10
288.2482328200475
 20
346.7503847293742
 30
0.0
 10
288.2482328200477
 20
346.1611290703821
 30
0.0
 10
288.2482328222648
 20
345.5253959122905
 30
0.0
 10
288.2482328298094
 20
344.6021687603843
 30
0.0
 10
288.2482328330141
 20
344.3001830924635
 30
0.0
 10
288.2482328407292
 20
343.7284887074169
 30
0.0
 10
288.248232845239
 20
343.4589284259887
 30
0.0
 10
288.2482328553153
 20
342.9707730452931
 30
0.0
 10
288.2482328608794
 20
342.7522878417621
 30
0.0
 10
288.2482328726799
 20
342.378526285944
 30
0.0
 10
288.2482328789132
 20
342.2232755034882
 30
0.0
 10
288.2482328979697
 20
341.8577782906187
 30
0.0
 10
288.2482329110919
 20
341.7503845935541
 30
0.0
 10
288.2482329232547
 20
341.7503845935541
 30
0.0
  0
SPLINE
  5
193
330
1F
100
AcDbEntity
  8
0
  6
Continuous
 62
     8
370
    18
100
AcDbSpline
210
0.0
220
0.0
230
1.0
 70
     8
 71
     3
 72
    18
 73
    14
 74
     0
 42
0.00000001
 43
0.00000001
 40
0.0
 40
0.0
 40
0.0
 40
0.0
 40
0.2500000000000003
 40
0.2500000000000003
 40
0.3750000000000004
 40
0.3750000000000004
 40
0.5000000000000004
 40
0.5000000000000004
 40
0.6250000000000004
 40
0.6250000000000004
 40
0.7500000000000006
 40
0.7500000000000006
 40
1.0
 40
1.0
 40
1.0
 40
1.0
 10
303.2482337699442
 20
341.7503845935541
 30
0.0
 10
303.2482337577815
 20
341.7503845935541
 30
0.0
 10
303.2482337446594
 20
341.8577782906187
 30
0.0
 10
303.2482337256031
 20
342.2232755034883
 30
0.0
 10
303.2482337193698
 20
342.378526285944
 30
0.0
 10
303.2482337075694
 20
342.7522878417621
 30
0.0
 10
303.2482337020054
 20
342.9707730452931
 30
0.0
 10
303.2482336919292
 20
343.4589284259887
 30
0.0
 10
303.2482336874194
 20
343.7284887074169
 30
0.0
 10
303.2482336797044
 20
344.3001830924635
 30
0.0
 10
303.2482336764998
 20
344.6021687603843
 30
0.0
 10
303.2482336689552
 20
345.5253959122905
 30
0.0
 10
303.2482336667381
 20
346.1611290703821
 30
0.0
 10
303.2482336667379
 20
346.7503847293742
 30
0.0
  0
LINE
  5
194
330
1F
100
AcDbEntity
  8
0
  6
Continuous
 62
     8
370
    18
100
AcDbLine
 10
353.2482325864
 20
426.818724881
 30
0.0
 11
446.1482325864
 21
426.818725092
 31
0.0
  0
SPLINE
  5
195
330
1F
100
AcDbEntity
  8
0
  6
Continuous
 62
     8
370
    18
100
AcDbSpline
210
0.0
220
0.0
230
1.0
 70
    24
 71
     3
 72
    22
 73
    18
 74
     0
 42
0.00000001
 43
0.00000001
 40
39.41772977525555
 40
39.41772977525555
 40
39.41772977525555
 40
39.41772977525555
 40
42.70254058986018
 40
42.70254058986018
 40
44.3449459971625
 40
44.3449459971625
 40
45.98735140446481
 40
45.98735140446481
 40
46.80855410811597
 40
46.80855410811597
 40
47.62975681176712
 40
47.62975681176712
 40
49.27216221906944
 40
49.27216221906944
 40
50.91456762637176
 40
50.91456762637176
 40
52.55697303367407
 40
52.55697303367407
 40
52.55697303367407
 40
52.55697303367407
 10
446.1482325863544
 20
421.8190510780211
 30
0.0
 10
446.1482325863544
 20
421.819642441808
 30
0.0
 10
446.1482325863543
 20
421.8165012084015
 30
0.0
 10
446.1482325863543
 20
421.8705566566738
 30
0.0
 10
446.1482325863543
 20
421.8995798671918
 30
0.0
 10
446.1482325863543
 20
422.0147803466776
 30
0.0
 10
446.1482325863543
 20
422.1001170146288
 30
0.0
 10
446.1482325863543
 20
422.3345974816135
 30
0.0
 10
446.1482325863543
 20
422.432031958926
 30
0.0
 10
446.1482325863543
 20
422.6751505899683
 30
0.0
 10
446.1482325863543
 20
422.8214585149495
 30
0.0
 10
446.1482325863543
 20
423.3258643903197
 30
0.0
 10
446.1482325863543
 20
423.7406143299687
 30
0.0
 10
446.1482325863543
 20
424.5957177977926
 30
0.0
 10
446.1482325863543
 20
425.0393124199133
 30
0.0
 10
446.1482325863543
 20
425.9268299103807
 30
0.0
 10
446.1482325863543
 20
426.3731138060637
 30
0.0
 10
446.1482325863543
 20
426.8187248810088
 30
0.0
  0
SPLINE
  5
196
330
1F
100
AcDbEntity
  8
0
  6
Continuous
 62
     8
370
    18
100
AcDbSpline
210
0.0
220
0.0
230
1.0
 70
     8
 71
     3
 72
    10
 73
     6
 74
     0
 42
0.00000001
 43
0.00000001
 40
0.0
 40
0.0
 40
0.0
 40
0.0
 40
0.5
 40
0.5
 40
1.0
 40
1.0
 40
1.0
 40
1.0
 10
447.1482325863542
 20
426.819323855241
 30
0.0
 10
447.1482325863542
 20
426.8191670441537
 30
0.0
 10
447.0404594899641
 20
426.8190111986829
 30
0.0
 10
446.6702192451175
 20
426.8187894343165
 30
0.0
 10
446.4100319741534
 20
426.8187248810088
 30
0.0
 10
446.1482325863542
 20
426.8187248810088
 30
0.0
  0
LINE
  5
197
330
1F
100
AcDbEntity
  8
0
  6
Continuous
 62
     8
370
    18
100
AcDbLine
 10
288.2595888154
 20
448.9222964898
 30
0.0
 11
288.2502818153
 21
446.5955464634
 31
0.0
  0
LINE
  5
198
330
1F
100
AcDbEntity
  8
0
  6
Continuous
 62
     8
370
    18
100
AcDbLine
 10
288.259637185
 20
448.9220029858
 30
0.0
 11
388.8088642495
 21
465.4921615621
 31
0.0
  0
LINE
  5
199
330
1F
100
AcDbEntity
  8
0
  6
Continuous
 62
     8
370
    18
100
AcDbLine
 10
389.1413987086
 20
463.4742938256
 30
0.0
 11
388.8088158793
 21
465.4924550716
 31
0.0
  0
LINE
  5
19A
330
1F
100
AcDbEntity
  8
0
  6
Continuous
 62
     8
370
    18
100
AcDbLine
 10
388.8088158803
 20
465.4924550656
 30
0.0
 11
389.8237184438
 21
465.6597074345
 31
0.0
  0
SPLINE
  5
19B
330
1F
100
AcDbEntity
  8
0
  6
Continuous
 62
     8
370
    18
100
AcDbSpline
210
0.0
220
0.0
230
1.0
 70
    24
 71
     3
 72
    10
 73
     6
 74
     0
 42
0.00000001
 43
0.00000001
 40
0.0
 40
0.0
 40
0.0
 40
0.0
 40
0.5
 40
0.5
 40
1.0
 40
1.0
 40
1.0
 40
1.0
 10
388.8088642494839
 20
465.4921615621229
 30
0.0
 10
388.7870584160657
 20
465.6244813401919
 30
0.0
 10
388.7633249945615
 20
465.768497897803
 30
0.0
 10
388.7182037598815
 20
466.0422976484294
 30
0.0
 10
388.6970389937356
 20
466.170727371804
 30
0.0
 10
388.6806635567502
 20
466.2700950106995
 30
0.0
  0
SPLINE
  5
19C
330
1F
100
AcDbEntity
  8
0
  6
Continuous
 62
     8
370
    18
100
AcDbSpline
210
0.0
220
0.0
230
1.0
 70
    24
 71
     3
 72
    14
 73
    10
 74
     0
 42
0.00000001
 43
0.00000001
 40
0.0
 40
0.0
 40
0.0
 40
0.0
 40
0.25
 40
0.25
 40
0.5
 40
0.5
 40
0.75
 40
0.75
 40
1.0
 40
1.0
 40
1.0
 40
1.0
 10
288.2596371850028
 20
448.9220029857808
 30
0.0
 10
288.1249918152548
 20
448.9225415672576
 30
0.0
 10
287.9903981396288
 20
448.9230799419583
 30
0.0
 10
287.7416022142153
 20
448.9240751256576
 30
0.0
 10
287.6274978669635
 20
448.924531543046
 30
0.0
 10
287.437075972933
 20
448.9252932306221
 30
0.0
 10
287.3608333581944
 20
448.9255982010818
 30
0.0
 10
287.2577772577341
 20
448.926010425486
 30
0.0
 10
287.2310043251424
 20
448.9261175172181
 30
0.0
 10
287.2310043251437
 20
448.9261175172203
 30
0.0
  0
LINE
  5
19D
330
1F
100
AcDbEntity
  8
0
  6
Continuous
 62
     8
370
    18
100
AcDbLine
 10
288.2482325864
 20
436.8187265057
 30
0.0
 11
287.2649656952
 21
436.8187265069
 31
0.0
  0
LINE
  5
19E
330
1F
100
AcDbEntity
  8
0
  6
Continuous
 62
     8
370
    18
100
AcDbLine
 10
288.2482325864
 20
436.8187265057
 30
0.0
 11
288.2482325862
 21
361.8187255355
 31
0.0
  0
LINE
  5
19F
330
1F
100
AcDbEntity
  8
0
  6
Continuous
 62
     8
370
    18
100
AcDbLine
 10
288.24823282
 20
361.8187255355
 30
0.0
 11
288.24823282
 21
357.7503847294
 31
0.0
  0
LINE
  5
1A0
330
1F
100
AcDbEntity
  8
0
  6
Continuous
 62
     8
370
    18
100
AcDbLine
 10
303.2482330019
 20
357.7503847294
 30
0.0
 11
303.2482330019
 21
361.8187255355
 31
0.0
  0
SPLINE
  5
1A1
330
1F
100
AcDbEntity
  8
0
  6
Continuous
 62
     8
370
    18
100
AcDbSpline
210
0.0
220
0.0
230
1.0
 70
     8
 71
     3
 72
    38
 73
    34
 74
     0
 42
0.00000001
 43
0.00000001
 40
0.0
 40
0.0
 40
0.0
 40
0.0
 40
0.0625
 40
0.0625
 40
0.125
 40
0.125
 40
0.1874999999999999
 40
0.1874999999999999
 40
0.2499999999999999
 40
0.2499999999999999
 40
0.3124999999999998
 40
0.3124999999999998
 40
0.3749999999999998
 40
0.3749999999999998
 40
0.4374999999999998
 40
0.4374999999999998
 40
0.4999999999999997
 40
0.4999999999999997
 40
0.5624999999999997
 40
0.5624999999999997
 40
0.6249999999999997
 40
0.6249999999999997
 40
0.6874999999999997
 40
0.6874999999999997
 40
0.7499999999999997
 40
0.7499999999999997
 40
0.8124999999999998
 40
0.8124999999999998
 40
0.8749999999999999
 40
0.8749999999999999
 40
0.9375
 40
0.9375
 40
1.0
 40
1.0
 40
1.0
 40
1.0
 10
353.2482325863548
 20
426.8187248809937
 30
0.0
 10
350.6945163307603
 20
426.8187248809937
 30
0.0
 10
348.1419300401353
 20
426.8192313800643
 30
0.0
 10
343.1403043390217
 20
426.8103204669325
 30
0.0
 10
340.6911787988462
 20
426.8008169250447
 30
0.0
 10
335.9720204646237
 20
426.7501711178541
 30
0.0
 10
333.7019015408898
 20
426.708942722866
 30
0.0
 10
329.3933173713164
 20
426.565110644541
 30
0.0
 10
327.3547659957902
 20
426.4624208315186
 30
0.0
 10
323.5414768107776
 20
426.1604914899629
 30
0.0
 10
321.7666528716044
 20
425.961165831744
 30
0.0
 10
318.4951612944289
 20
425.427936400969
 30
0.0
 10
316.9984075267396
 20
425.0939464987273
 30
0.0
 10
314.2821657652535
 20
424.2530900999807
 30
0.0
 10
313.0625916417696
 20
423.7461374737902
 30
0.0
 10
310.8871692696121
 20
422.5233709566839
 30
0.0
 10
309.9312348912516
 20
421.8074709360826
 30
0.0
 10
308.2594866290606
 20
420.1357226597212
 30
0.0
 10
307.5435866155432
 20
419.1797882742758
 30
0.0
 10
306.320820112166
 20
417.0043658883851
 30
0.0
 10
305.8138674926192
 20
415.7847917582545
 30
0.0
 10
304.9730111063238
 20
413.0685499843095
 30
0.0
 10
304.6390212098883
 20
411.5717962108096
 30
0.0
 10
304.1057917895749
 20
408.3003046231628
 30
0.0
 10
303.90646613601
 20
406.5254806793304
 30
0.0
 10
303.6045368024216
 20
402.7121914863403
 30
0.0
 10
303.5018469927112
 20
400.6736401074971
 30
0.0
 10
303.3580149196455
 20
396.3650559326562
 30
0.0
 10
303.3167865266034
 20
394.0949370069731
 30
0.0
 10
303.2661407221237
 20
389.3757786700367
 30
0.0
 10
303.2566371809992
 20
386.9266531290979
 30
0.0
 10
303.2477262686453
 20
381.9250274272117
 30
0.0
 10
303.248232767729
 20
379.372441136579
 30
0.0
 10
303.2482327677291
 20
376.8187248809937
 30
0.0
  0
LINE
  5
1A2
330
1F
100
AcDbEntity
  8
0
  6
Continuous
 62
     8
370
    18
100
AcDbLine
 10
303.2482327677
 20
361.8187255355
 30
0.0
 11
303.2482327677
 21
376.8187255076
 31
0.0
  0
LINE
  5
1A3
330
1F
100
AcDbEntity
  8
0
  6
Continuous
 62
     8
370
    18
100
AcDbLine
 10
446.1482325864
 20
436.8187265057
 30
0.0
 11
288.2482325864
 21
436.8187265057
 31
0.0
  0
LINE
  5
1A4
330
1F
100
AcDbEntity
  8
0
  6
Continuous
 62
     8
370
    18
100
AcDbLine
 10
446.1482325864
 20
426.818725092
 30
0.0
 11
446.1482325864
 21
436.8187265057
 31
0.0
  0
LINE
  5
1A5
330
1F
100
AcDbEntity
  8
0
  6
Continuous
 62
     8
370
    18
100
AcDbLine
 10
288.2482325865
 20
437.8187265072
 30
0.0
 11
288.2482325864
 21
436.8187265057
 31
0.0
  0
LINE
  5
1A6
330
1F
100
AcDbEntity
  8
0
  6
Continuous
 62
     8
370
    18
100
AcDbLine
 10
446.1482325864
 20
436.8187265057
 30
0.0
 11
446.1482325864
 21
437.8187265072
 31
0.0
  0
SPLINE
  5
1A7
330
1F
100
AcDbEntity
  8
0
  6
Continuous
 62
     8
370
    18
100
AcDbSpline
210
0.0
220
0.0
230
1.0
 70
     8
 71
     3
 72
    10
 73
     6
 74
     0
 42
0.00000001
 43
0.00000001
 40
0.0
 40
0.0
 40
0.0
 40
0.0
 40
0.5
 40
0.5
 40
1.0
 40
1.0
 40
1.0
 40
1.0
 10
447.1482325863542
 20
436.8187265072028
 30
0.0
 10
447.1482325863542
 20
436.8187265068078
 30
0.0
 10
447.0404594899641
 20
436.8187265064152
 30
0.0
 10
446.6702192451175
 20
436.8187265058565
 30
0.0
 10
446.4100319741534
 20
436.818726505694
 30
0.0
 10
446.1482325863542
 20
436.818726505694
 30
0.0
  0
LINE
  5
1A8
330
1F
100
AcDbEntity
  8
0
  6
Continuous
 62
     8
370
    18
100
AcDbLine
 10
288.2676371205
 20
450.921986986
 30
0.0
 11
288.259637185
 21
448.9220029858
 31
0.0
  0
LINE
  5
1A9
330
1F
100
AcDbEntity
  8
0
  6
Continuous
 62
     8
370
    18
100
AcDbLine
 10
303.2482336667
 20
346.7503847668
 30
0.0
 11
303.2482336667
 21
357.7503847294
 31
0.0
  0
LINE
  5
1AA
330
1F
100
AcDbEntity
  8
0
  6
Continuous
 62
     8
370
    18
100
AcDbLine
 10
288.24823282
 20
357.7503847294
 30
0.0
 11
288.24823282
 21
346.7503847668
 31
0.0
  0
LINE
  5
1AB
330
1F
100
AcDbEntity
  8
0
  6
Continuous
 62
     8
370
    18
100
AcDbLine
 10
292.117427492
 20
445.4859329124
 30
0.0
 11
289.9390098785
 21
445.4859329124
 31
0.0
  0
ENDSEC
  0
SECTION
  2
OBJECTS
  0
DICTIONARY
  5
C
330
0
100
AcDbDictionary
281
     1
  3
ACAD_GROUP
350
D
  3
ACAD_LAYOUT
350
1A
  3
ACAD_MLINESTYLE
350
17
  3
ACAD_PLOTSETTINGS
350
19
  3
ACAD_PLOTSTYLENAME
350
E
  3
ACAD_SCALELIST
350
47
  3
DWGPROPS
350
1AC
  0
DICTIONARY
  5
D
102
{ACAD_REACTORS
330
C
102
}
330
C
100
AcDbDictionary
281
     1
  0
DICTIONARY
  5
1A
102
{ACAD_REACTORS
330
C
102
}
330
C
100
AcDbDictionary
281
     1
  3
Layout1
350
1E
  3
Layout2
350
26
  3
Model
350
22
  0
DICTIONARY
  5
17
102
{ACAD_REACTORS
330
C
102
}
330
C
100
AcDbDictionary
281
     1
  3
Standard
350
18
  0
DICTIONARY
  5
19
102
{ACAD_REACTORS
330
C
102
}
330
C
100
AcDbDictionary
281
     1
  0
ACDBDICTIONARYWDFLT
  5
E
102
{ACAD_REACTORS
330
C
102
}
330
C
100
AcDbDictionary
281
     1
  3
Normal
350
F
100
AcDbDictionaryWithDefault
340
F
  0
DICTIONARY
  5
47
102
{ACAD_REACTORS
330
C
102
}
330
C
100
AcDbDictionary
281
     1
  3
A0
350
48
  3
A1
350
49
  3
A2
350
4A
  3
A3
350
4B
  3
A4
350
4C
  3
A5
350
4D
  3
A6
350
4E
  3
A7
350
4F
  3
A8
350
50
  3
A9
350
51
  3
B0
350
52
  3
B1
350
53
  3
B2
350
54
  3
B3
350
55
  3
B4
350
56
  3
B5
350
57
  3
B6
350
58
  0
XRECORD
  5
1AC
102
{ACAD_REACTORS
330
C
102
}
330
C
100
AcDbXrecord
280
     1
  1
DWGPROPS COOKIE
  2

  3

  4

  6

  7

  8
fue-task
  9

300
=
301
=
302
=
303
=
304
=
305
=
306
=
307
=
308
=
309
=
 40
0.0
 41
2460346.407957546
 42
2460346.407958634
  1

 90
        0
  0
LAYOUT
  5
1E
102
{ACAD_REACTORS
330
1A
102
}
330
1A
100
AcDbPlotSettings
  1

  2
none_device
  4

  6

 40
0.0
 41
0.0
 42
0.0
 43
0.0
 44
0.0
 45
0.0
 46
0.0
 47
0.0
 48
0.0
 49
0.0
140
0.0
141
0.0
142
1.0
143
1.0
 70
   688
 72
     1
 73
     0
 74
     5
  7

 75
    16
147
1.0
148
0.0
149
0.0
100
AcDbLayout
  1
Layout1
 70
     1
 71
     1
 10
0.0
 20
0.0
 11
420.0
 21
297.0
 12
0.0
 22
0.0
 32
0.0
 14
1.0000000000E+20
 24
1.0000000000E+20
 34
1.0000000000E+20
 15
-1.0000000000E+20
 25
-1.0000000000E+20
 35
-1.0000000000E+20
146
0.0
 13
0.0
 23
0.0
 33
0.0
 16
1.0
 26
0.0
 36
0.0
 17
0.0
 27
1.0
 37
0.0
 76
     0
330
1B
  0
LAYOUT
  5
26
102
{ACAD_REACTORS
330
1A
102
}
330
1A
100
AcDbPlotSettings
  1

  2
none_device
  4

  6

 40
0.0
 41
0.0
 42
0.0
 43
0.0
 44
0.0
 45
0.0
 46
0.0
 47
0.0
 48
0.0
 49
0.0
140
0.0
141
0.0
142
1.0
143
1.0
 70
   688
 72
     1
 73
     0
 74
     5
  7

 75
    16
147
1.0
148
0.0
149
0.0
100
AcDbLayout
  1
Layout2
 70
     1
 71
     2
 10
0.0
 20
0.0
 11
0.0
 21
0.0
 12
0.0
 22
0.0
 32
0.0
 14
0.0
 24
0.0
 34
0.0
 15
0.0
 25
0.0
 35
0.0
146
0.0
 13
0.0
 23
0.0
 33
0.0
 16
1.0
 26
0.0
 36
0.0
 17
0.0
 27
1.0
 37
0.0
 76
     0
330
23
  0
LAYOUT
  5
22
102
{ACAD_REACTORS
330
1A
102
}
330
1A
100
AcDbPlotSettings
  1

  2
none_device
  4
Letter_(8.50_x_11.00_Inches)
  6

 40
6.35
 41
6.35
 42
6.35000508
 43
6.35000508
 44
215.9
 45
279.4
 46
0.0
 47
0.0
 48
0.0
 49
0.0
140
0.0
141
0.0
142
1.0
143
1.0
 70
  1712
 72
     1
 73
     0
 74
     0
  7

 75
     0
147
1.0
148
0.0
149
0.0
100
AcDbLayout
  1
Model
 70
     1
 71
     0
 10
0.0
 20
0.0
 11
594.0
 21
841.0
 12
0.0
 22
0.0
 32
0.0
 14
0.0
 24
0.0
 34
0.0
 15
594.0
 25
841.0
 35
0.0
146
0.0
 13
0.0
 23
0.0
 33
0.0
 16
1.0
 26
0.0
 36
0.0
 17
0.0
 27
1.0
 37
0.0
 76
     0
330
1F
331
29
  0
MLINESTYLE
  5
18
102
{ACAD_REACTORS
330
17
102
}
330
17
100
AcDbMlineStyle
  2
Standard
 70
     0
  3

 62
   256
 51
90.0
 52
90.0
 71
     2
 49
0.5
 62
   256
  6
BYLAYER
 49
-0.5
 62
   256
  6
BYLAYER
  0
ACDBPLACEHOLDER
  5
F
102
{ACAD_REACTORS
330
E
102
}
330
E
  0
SCALE
  5
48
102
{ACAD_REACTORS
330
47
102
}
330
47
100
AcDbScale
 70
     0
300
1:1
140
1.0
141
1.0
290
     1
  0
SCALE
  5
49
102
{ACAD_REACTORS
330
47
102
}
330
47
100
AcDbScale
 70
     0
300
1:2
140
1.0
141
2.0
290
     0
  0
SCALE
  5
4A
102
{ACAD_REACTORS
330
47
102
}
330
47
100
AcDbScale
 70
     0
300
1:4
140
1.0
141
4.0
290
     0
  0
SCALE
  5
4B
102
{ACAD_REACTORS
330
47
102
}
330
47
100
AcDbScale
 70
     0
300
1:5
140
1.0
141
5.0
290
     0
  0
SCALE
  5
4C
102
{ACAD_REACTORS
330
47
102
}
330
47
100
AcDbScale
 70
     0
300
1:8
140
1.0
141
8.0
290
     0
  0
SCALE
  5
4D
102
{ACAD_REACTORS
330
47
102
}
330
47
100
AcDbScale
 70
     0
300
1:10
140
1.0
141
10.0
290
     0
  0
SCALE
  5
4E
102
{ACAD_REACTORS
330
47
102
}
330
47
100
AcDbScale
 70
     0
300
1:16
140
1.0
141
16.0
290
     0
  0
SCALE
  5
4F
102
{ACAD_REACTORS
330
47
102
}
330
47
100
AcDbScale
 70
     0
300
1:20
140
1.0
141
20.0
290
     0
  0
SCALE
  5
50
102
{ACAD_REACTORS
330
47
102
}
330
47
100
AcDbScale
 70
     0
300
1:30
140
1.0
141
30.0
290
     0
  0
SCALE
  5
51
102
{ACAD_REACTORS
330
47
102
}
330
47
100
AcDbScale
 70
     0
300
1:40
140
1.0
141
40.0
290
     0
  0
SCALE
  5
52
102
{ACAD_REACTORS
330
47
102
}
330
47
100
AcDbScale
 70
     0
300
1:50
140
1.0
141
50.0
290
     0
  0
SCALE
  5
53
102
{ACAD_REACTORS
330
47
102
}
330
47
100
AcDbScale
 70
     0
300
1:100
140
1.0
141
100.0
290
     0
  0
SCALE
  5
54
102
{ACAD_REACTORS
330
47
102
}
330
47
100
AcDbScale
 70
     0
300
2:1
140
2.0
141
1.0
290
     0
  0
SCALE
  5
55
102
{ACAD_REACTORS
330
47
102
}
330
47
100
AcDbScale
 70
     0
300
4:1
140
4.0
141
1.0
290
     0
  0
SCALE
  5
56
102
{ACAD_REACTORS
330
47
102
}
330
47
100
AcDbScale
 70
     0
300
8:1
140
8.0
141
1.0
290
     0
  0
SCALE
  5
57
102
{ACAD_REACTORS
330
47
102
}
330
47
100
AcDbScale
 70
     0
300
10:1
140
10.0
141
1.0
290
     0
  0
SCALE
  5
58
102
{ACAD_REACTORS
330
47
102
}
330
47
100
AcDbScale
 70
     0
300
100:1
140
100.0
141
1.0
290
     0
  0
ENDSEC
  0
EOF
