  0
SECTION
  2
HEADER
  9
$ACADVER
  1
AC1032
  9
$ACADMAINTVER
 90
        4
  9
$DWGCODEPAGE
  3
ANSI_1252
  9
$LASTSAVEDBY
  1
MKramer
  9
$REQUIREDVERSIONS
160
                 0
  9
$INSBASE
 10
0.0
 20
0.0
 30
0.0
  9
$EXTMIN
 10
33.76143973320001
 20
37.46023423129998
 30
0.0
  9
$EXTMAX
 10
520.6771150059001
 20
406.4961072554
 30
0.0
  9
$LIMMIN
 10
0.0
 20
0.0
  9
$LIMMAX
 10
594.0
 20
841.0
  9
$ORTHOMODE
 70
     0
  9
$REGENMODE
 70
     1
  9
$FILLMODE
 70
     1
  9
$QTEXTMODE
 70
     0
  9
$MIRRTEXT
 70
     1
  9
$LTSCALE
 40
1.0
  9
$ATTMODE
 70
     1
  9
$TEXTSIZE
 40
10.0
  9
$TRACEWID
 40
1.0
  9
$TEXTSTYLE
  7
STANDARD
  9
$CLAYER
  8
0
  9
$CELTYPE
  6
ByLayer
  9
$CECOLOR
 62
   256
  9
$CELTSCALE
 40
1.0
  9
$DISPSILH
 70
     0
  9
$DIMSCALE
 40
1.0
  9
$DIMASZ
 40
2.5
  9
$DIMEXO
 40
0.0
  9
$DIMDLI
 40
3.75
  9
$DIMRND
 40
0.0
  9
$DIMDLE
 40
0.0
  9
$DIMEXE
 40
1.0
  9
$DIMTP
 40
0.0
  9
$DIMTM
 40
0.0
  9
$DIMTXT
 40
3.5
  9
$DIMCEN
 40
2.5
  9
$DIMTSZ
 40
0.0
  9
$DIMTOL
 70
     0
  9
$DIMLIM
 70
     0
  9
$DIMTIH
 70
     1
  9
$DIMTOH
 70
     1
  9
$DIMSE1
 70
     0
  9
$DIMSE2
 70
     0
  9
$DIMTAD
 70
     1
  9
$DIMZIN
 70
     0
  9
$DIMBLK
  1

  9
$DIMASO
 70
     1
  9
$DIMSHO
 70
     1
  9
$DIMPOST
  1

  9
$DIMAPOST
  1

  9
$DIMALT
 70
     0
  9
$DIMALTD
 70
     3
  9
$DIMALTF
 40
0.0393700787
  9
$DIMLFAC
 40
2.0
  9
$DIMTOFL
 70
     1
  9
$DIMTVP
 40
0.0
  9
$DIMTIX
 70
     0
  9
$DIMSOXD
 70
     0
  9
$DIMSAH
 70
     0
  9
$DIMBLK1
  1

  9
$DIMBLK2
  1

  9
$DIMSTYLE
  2
ISO-25
  9
$DIMCLRD
 70
     0
  9
$DIMCLRE
 70
     0
  9
$DIMCLRT
 70
     0
  9
$DIMTFAC
 40
1.0
  9
$DIMGAP
 40
1.5
  9
$DIMJUST
 70
     0
  9
$DIMSD1
 70
     0
  9
$DIMSD2
 70
     0
  9
$DIMTOLJ
 70
     1
  9
$DIMTZIN
 70
     0
  9
$DIMALTZ
 70
     0
  9
$DIMALTTZ
 70
     0
  9
$DIMUPT
 70
     0
  9
$DIMDEC
 70
     2
  9
$DIMTDEC
 70
     2
  9
$DIMALTU
 70
     2
  9
$DIMALTTD
 70
     2
  9
$DIMTXSTY
  7
STANDARD
  9
$DIMAUNIT
 70
     0
  9
$DIMADEC
 70
     0
  9
$DIMALTRND
 40
0.0
  9
$DIMAZIN
 70
     0
  9
$DIMDSEP
 70
    46
  9
$DIMATFIT
 70
     3
  9
$DIMFRAC
 70
     0
  9
$DIMLDRBLK
  1

  9
$DIMLUNIT
 70
     2
  9
$DIMLWD
 70
    -2
  9
$DIMLWE
 70
    -2
  9
$DIMTMOVE
 70
     2
  9
$DIMFXL
 40
1.0
  9
$DIMFXLON
 70
     0
  9
$DIMJOGANG
 40
0.7853981633974483
  9
$DIMTFILL
 70
     0
  9
$DIMTFILLCLR
 70
     0
  9
$DIMARCSYM
 70
     0
  9
$DIMLTYPE
  6

  9
$DIMLTEX1
  6

  9
$DIMLTEX2
  6

  9
$DIMTXTDIRECTION
 70
     0
  9
$LUNITS
 70
     2
  9
$LUPREC
 70
     2
  9
$SKETCHINC
 40
1.0
  9
$FILLETRAD
 40
10.0
  9
$AUNITS
 70
     0
  9
$AUPREC
 70
     2
  9
$MENU
  1
.
  9
$ELEVATION
 40
0.0
  9
$PELEVATION
 40
0.0
  9
$THICKNESS
 40
0.0
  9
$LIMCHECK
 70
     0
  9
$CHAMFERA
 40
0.0
  9
$CHAMFERB
 40
0.0
  9
$CHAMFERC
 40
0.0
  9
$CHAMFERD
 40
0.0
  9
$SKPOLY
 70
     0
  9
$TDCREATE
 40
2458400.500930683
  9
$TDUCREATE
 40
2458400.459264016
  9
$TDUPDATE
 40
2459915.483999757
  9
$TDUUPDATE
 40
2459915.44233309
  9
$TDINDWG
 40
0.0003312963
  9
$TDUSRTIMER
 40
0.0003312847
  9
$USRTIMER
 70
     1
  9
$ANGBASE
 50
0.0
  9
$ANGDIR
 70
     0
  9
$PDMODE
 70
     0
  9
$PDSIZE
 40
-1.0
  9
$PLINEWID
 40
0.0
  9
$SPLFRAME
 70
     0
  9
$SPLINETYPE
 70
     6
  9
$SPLINESEGS
 70
     8
  9
$HANDSEED
  5
602
  9
$SURFTAB1
 70
     6
  9
$SURFTAB2
 70
     6
  9
$SURFTYPE
 70
     6
  9
$SURFU
 70
     6
  9
$SURFV
 70
     6
  9
$UCSBASE
  2

  9
$UCSNAME
  2

  9
$UCSORG
 10
0.0
 20
0.0
 30
0.0
  9
$UCSXDIR
 10
1.0
 20
0.0
 30
0.0
  9
$UCSYDIR
 10
0.0
 20
1.0
 30
0.0
  9
$UCSORTHOREF
  2

  9
$UCSORTHOVIEW
 70
     0
  9
$UCSORGTOP
 10
0.0
 20
0.0
 30
0.0
  9
$UCSORGBOTTOM
 10
0.0
 20
0.0
 30
0.0
  9
$UCSORGLEFT
 10
0.0
 20
0.0
 30
0.0
  9
$UCSORGRIGHT
 10
0.0
 20
0.0
 30
0.0
  9
$UCSORGFRONT
 10
0.0
 20
0.0
 30
0.0
  9
$UCSORGBACK
 10
0.0
 20
0.0
 30
0.0
  9
$PUCSBASE
  2

  9
$PUCSNAME
  2

  9
$PUCSORG
 10
0.0
 20
0.0
 30
0.0
  9
$PUCSXDIR
 10
1.0
 20
0.0
 30
0.0
  9
$PUCSYDIR
 10
0.0
 20
1.0
 30
0.0
  9
$PUCSORTHOREF
  2

  9
$PUCSORTHOVIEW
 70
     0
  9
$PUCSORGTOP
 10
0.0
 20
0.0
 30
0.0
  9
$PUCSORGBOTTOM
 10
0.0
 20
0.0
 30
0.0
  9
$PUCSORGLEFT
 10
0.0
 20
0.0
 30
0.0
  9
$PUCSORGRIGHT
 10
0.0
 20
0.0
 30
0.0
  9
$PUCSORGFRONT
 10
0.0
 20
0.0
 30
0.0
  9
$PUCSORGBACK
 10
0.0
 20
0.0
 30
0.0
  9
$USERI1
 70
     0
  9
$USERI2
 70
     0
  9
$USERI3
 70
     0
  9
$USERI4
 70
     0
  9
$USERI5
 70
     0
  9
$USERR1
 40
0.0
  9
$USERR2
 40
0.0
  9
$USERR3
 40
0.0
  9
$USERR4
 40
0.0
  9
$USERR5
 40
0.0
  9
$WORLDVIEW
 70
     1
  9
$SHADEDGE
 70
     3
  9
$SHADEDIF
 70
    70
  9
$TILEMODE
 70
     1
  9
$MAXACTVP
 70
    64
  9
$PINSBASE
 10
0.0
 20
0.0
 30
0.0
  9
$PLIMCHECK
 70
     0
  9
$PEXTMIN
 10
1.000000000000000E+20
 20
1.000000000000000E+20
 30
1.000000000000000E+20
  9
$PEXTMAX
 10
-1.000000000000000E+20
 20
-1.000000000000000E+20
 30
-1.000000000000000E+20
  9
$PLIMMIN
 10
0.0
 20
0.0
  9
$PLIMMAX
 10
0.0
 20
0.0
  9
$UNITMODE
 70
     0
  9
$VISRETAIN
 70
     1
  9
$PLINEGEN
 70
     0
  9
$PSLTSCALE
 70
     1
  9
$TREEDEPTH
 70
  3020
  9
$CMLSTYLE
  2
Standard
  9
$CMLJUST
 70
     0
  9
$CMLSCALE
 40
1.0
  9
$PROXYGRAPHICS
 70
     1
  9
$MEASUREMENT
 70
     0
  9
$CELWEIGHT
370
    -1
  9
$ENDCAPS
280
     0
  9
$JOINSTYLE
280
     0
  9
$LWDISPLAY
290
     0
  9
$INSUNITS
 70
     0
  9
$HYPERLINKBASE
  1

  9
$STYLESHEET
  1

  9
$XEDIT
290
     1
  9
$CEPSNTYPE
380
     0
  9
$PSTYLEMODE
290
     1
  9
$FINGERPRINTGUID
  2
{09d5d64b-6956-4a48-b4b8-39f20cc71acc}
  9
$VERSIONGUID
  2
{FAEB1C32-E019-11D5-929B-00C0DF256EC4}
  9
$EXTNAMES
290
     1
  9
$PSVPSCALE
 40
0.0
  9
$OLESTARTUP
290
     0
  9
$SORTENTS
280
   127
  9
$INDEXCTL
280
     0
  9
$HIDETEXT
280
     1
  9
$XCLIPFRAME
280
     2
  9
$HALOGAP
280
     0
  9
$OBSCOLOR
 70
   257
  9
$OBSLTYPE
280
     0
  9
$INTERSECTIONDISPLAY
280
     0
  9
$INTERSECTIONCOLOR
 70
   257
  9
$DIMASSOC
280
     2
  9
$PROJECTNAME
  1

  9
$CAMERADISPLAY
290
     0
  9
$LENSLENGTH
 40
50.0
  9
$CAMERAHEIGHT
 40
0.0
  9
$STEPSPERSEC
 40
2.0
  9
$STEPSIZE
 40
6.0
  9
$3DDWFPREC
 40
2.0
  9
$PSOLWIDTH
 40
0.25
  9
$PSOLHEIGHT
 40
4.0
  9
$LOFTANG1
 40
1.570796326794897
  9
$LOFTANG2
 40
1.570796326794897
  9
$LOFTMAG1
 40
0.0
  9
$LOFTMAG2
 40
0.0
  9
$LOFTPARAM
 70
     7
  9
$LOFTNORMALS
280
     1
  9
$LATITUDE
 40
37.795
  9
$LONGITUDE
 40
-122.394
  9
$NORTHDIRECTION
 40
0.0
  9
$TIMEZONE
 70
 -8000
  9
$LIGHTGLYPHDISPLAY
280
     1
  9
$TILEMODELIGHTSYNCH
280
     1
  9
$SOLIDHIST
280
     0
  9
$SHOWHIST
280
     1
  9
$DWFFRAME
280
     2
  9
$DGNFRAME
280
     2
  9
$REALWORLDSCALE
290
     1
  9
$INTERFERECOLOR
 62
   256
  9
$CSHADOW
280
     0
  9
$SHADOWPLANELOCATION
 40
0.0
  0
ENDSEC
  0
SECTION
  2
CLASSES
  0
CLASS
  1
ACDBDICTIONARYWDFLT
  2
AcDbDictionaryWithDefault
  3
ObjectDBX Classes
 90
        0
 91
        3
280
     0
281
     0
  0
CLASS
  1
MATERIAL
  2
AcDbMaterial
  3
ObjectDBX Classes
 90
     1153
 91
        3
280
     0
281
     0
  0
CLASS
  1
SCALE
  2
AcDbScale
  3
ObjectDBX Classes
 90
     1153
 91
        3
280
     0
281
     0
  0
CLASS
  1
VISUALSTYLE
  2
AcDbVisualStyle
  3
ObjectDBX Classes
 90
     4095
 91
        3
280
     0
281
     0
  0
CLASS
  1
TABLESTYLE
  2
AcDbTableStyle
  3
ObjectDBX Classes
 90
     4095
 91
        3
280
     0
281
     0
  0
CLASS
  1
MLEADERSTYLE
  2
AcDbMLeaderStyle
  3
ACDB_MLEADERSTYLE_CLASS
 90
     4095
 91
        3
280
     0
281
     0
  0
CLASS
  1
DICTIONARYVAR
  2
AcDbDictionaryVar
  3
ObjectDBX Classes
 90
        0
 91
        3
280
     0
281
     0
  0
CLASS
  1
CELLSTYLEMAP
  2
AcDbCellStyleMap
  3
ObjectDBX Classes
 90
     1152
 91
        3
280
     0
281
     0
  0
ENDSEC
  0
SECTION
  2
TABLES
  0
TABLE
  2
VPORT
  5
587
330
0
100
AcDbSymbolTable
 70
     1
  0
VPORT
  5
59E
330
587
100
AcDbSymbolTableRecord
100
AcDbViewportTableRecord
  2
*ACTIVE
 70
     0
 10
0.0
 20
0.0
 11
1.0
 21
1.0
 12
297.0
 22
420.5
 13
0.0
 23
0.0
 14
10.0
 24
10.0
 15
10.0
 25
10.0
 16
0.0
 26
0.0
 36
1.0
 17
0.0
 27
0.0
 37
0.0
 40
841.0
 41
0.7063020214
 42
50.0
 43
0.0
 44
0.0
 50
0.0
 51
0.0
 71
     0
 72
  2000
 73
     1
 74
     3
 75
     0
 76
     0
 77
     0
 78
     0
281
     0
 65
     0
110
0.0
120
0.0
130
0.0
111
1.0
121
0.0
131
0.0
112
0.0
122
1.0
132
0.0
 79
     0
146
0.0
348
5DD
 60
     3
 61
     5
292
     1
282
     1
141
0.0
142
0.0
 63
   256
  0
ENDTAB
  0
TABLE
  2
LTYPE
  5
584
330
0
100
AcDbSymbolTable
 70
     6
  0
LTYPE
  5
592
330
584
100
AcDbSymbolTableRecord
100
AcDbLinetypeTableRecord
  2
ByBlock
 70
     0
  3

 72
    65
 73
     0
 40
0.0
  0
LTYPE
  5
593
330
584
100
AcDbSymbolTableRecord
100
AcDbLinetypeTableRecord
  2
ByLayer
 70
     0
  3

 72
    65
 73
     0
 40
0.0
  0
LTYPE
  5
594
330
584
100
AcDbSymbolTableRecord
100
AcDbLinetypeTableRecord
  2
CONTINUOUS
 70
     0
  3
Solid line
 72
    65
 73
     0
 40
0.0
  0
LTYPE
  5
5A0
330
584
100
AcDbSymbolTableRecord
100
AcDbLinetypeTableRecord
  2
HIDDEN
 70
     0
  3
Hidden __ __ __ __ __ __ __ __ __ __ __ __ __ __
 72
    65
 73
     2
 40
1.905
 49
1.27
 74
     0
 49
-0.635
 74
     0
  0
LTYPE
  5
5A1
330
584
100
AcDbSymbolTableRecord
100
AcDbLinetypeTableRecord
  2
PHANTOM
 70
     0
  3
Phantom ______  __  __  ______  __  __  ______
 72
    65
 73
     6
 40
12.7
 49
6.35
 74
     0
 49
-1.27
 74
     0
 49
1.27
 74
     0
 49
-1.27
 74
     0
 49
1.27
 74
     0
 49
-1.27
 74
     0
  0
LTYPE
  5
5A2
330
584
100
AcDbSymbolTableRecord
100
AcDbLinetypeTableRecord
  2
CENTER
 70
     0
  3
Center ____ _ ____ _ ____ _ ____ _ ____ _ ____
 72
    65
 73
     4
 40
10.16
 49
6.35
 74
     0
 49
-1.27
 74
     0
 49
1.27
 74
     0
 49
-1.27
 74
     0
  0
LTYPE
  5
5A3
330
584
100
AcDbSymbolTableRecord
100
AcDbLinetypeTableRecord
  2
CENTERX2
 70
     0
  3
Center (2x) ________  __  ________  __  _____
 72
    65
 73
     4
 40
20.32
 49
12.7
 74
     0
 49
-2.54
 74
     0
 49
2.54
 74
     0
 49
-2.54
 74
     0
  0
LTYPE
  5
5A4
330
584
100
AcDbSymbolTableRecord
100
AcDbLinetypeTableRecord
  2
DOT2
 70
     0
  3
Dot (.5x) ........................................
 72
    65
 73
     2
 40
0.635
 49
0.0
 74
     0
 49
-0.635
 74
     0
  0
ENDTAB
  0
TABLE
  2
LAYER
  5
582
330
0
100
AcDbSymbolTable
 70
     1
  0
LAYER
  5
58F
330
582
100
AcDbSymbolTableRecord
100
AcDbLayerTableRecord
  2
0
 70
     0
 62
     7
  6
CONTINUOUS
370
    -3
390
58E
347
5A9
348
0
  0
ENDTAB
  0
TABLE
  2
STYLE
  5
583
330
0
100
AcDbSymbolTable
 70
     1
  0
STYLE
  5
590
330
583
100
AcDbSymbolTableRecord
100
AcDbTextStyleTableRecord
  2
STANDARD
 70
     0
 40
0.0
 41
1.0
 50
0.0
 71
     0
 42
10.0
  3
txt
  4

  0
ENDTAB
  0
TABLE
  2
VIEW
  5
585
330
0
100
AcDbSymbolTable
 70
     0
  0
ENDTAB
  0
TABLE
  2
UCS
  5
586
330
0
100
AcDbSymbolTable
 70
     0
  0
ENDTAB
  0
TABLE
  2
APPID
  5
588
330
0
100
AcDbSymbolTable
 70
     1
  0
APPID
  5
591
330
588
100
AcDbSymbolTableRecord
100
AcDbRegAppTableRecord
  2
ACAD
 70
     0
  0
ENDTAB
  0
TABLE
  2
DIMSTYLE
  5
589
330
0
100
AcDbSymbolTable
 70
     2
100
AcDbDimStyleTable
  0
DIMSTYLE
105
5AC
330
589
100
AcDbSymbolTableRecord
100
AcDbDimStyleTableRecord
  2
ISO-25
 70
     0
 41
2.5
 42
0.625
 43
3.75
 44
1.25
 73
     0
 74
     0
 77
     1
 78
     8
140
2.5
141
2.5
143
0.0393700787
147
0.625
171
     3
172
     1
178
     0
340
590
  0
DIMSTYLE
105
5AD
330
589
100
AcDbSymbolTableRecord
100
AcDbDimStyleTableRecord
  2
SLDDIMSTYLE0
 70
     0
 41
2.5
 44
0.0
 45
0.000000001
 73
     0
 74
     0
 77
     1
 78
    12
140
6.0
144
2.0
147
1.5
173
     1
178
     0
340
590
  0
ENDTAB
  0
TABLE
  2
BLOCK_RECORD
  5
581
330
0
100
AcDbSymbolTable
 70
     3
  0
BLOCK_RECORD
  5
59B
102
{ACAD_XDICTIONARY
360
5F6
102
}
330
581
100
AcDbSymbolTableRecord
100
AcDbBlockTableRecord
  2
*Model_Space
340
59C
 70
     0
280
     1
281
     0
  0
BLOCK_RECORD
  5
599
330
581
100
AcDbSymbolTableRecord
100
AcDbBlockTableRecord
  2
*Paper_Space
340
59A
 70
     0
280
     1
281
     0
  0
BLOCK_RECORD
  5
5B1
330
581
100
AcDbSymbolTableRecord
100
AcDbBlockTableRecord
  2
_D
340
0
 70
     0
280
     1
281
     0
  0
BLOCK_RECORD
  5
5B3
330
581
100
AcDbSymbolTableRecord
100
AcDbBlockTableRecord
  2
_D_1
340
0
 70
     0
280
     1
281
     0
  0
BLOCK_RECORD
  5
5B5
330
581
100
AcDbSymbolTableRecord
100
AcDbBlockTableRecord
  2
SW_CENTERMARKSYMBOL_0
340
0
102
{BLKREFS
331
10E
102
}
 70
     0
280
     1
281
     0
  0
ENDTAB
  0
ENDSEC
  0
SECTION
  2
BLOCKS
  0
BLOCK
  5
5AE
330
59B
100
AcDbEntity
  8
0
100
AcDbBlockBegin
  2
*Model_Space
 70
     0
 10
0.0
 20
0.0
 30
0.0
  3
*Model_Space
  1

  0
ENDBLK
  5
21
330
59B
100
AcDbEntity
  8
0
100
AcDbBlockEnd
  0
BLOCK
  5
5AF
330
599
100
AcDbEntity
 67
     1
  8
0
100
AcDbBlockBegin
  2
*Paper_Space
 70
     0
 10
0.0
 20
0.0
 30
0.0
  3
*Paper_Space
  1

  0
ENDBLK
  5
1D
330
599
100
AcDbEntity
 67
     1
  8
0
100
AcDbBlockEnd
  0
BLOCK
  5
5B0
330
5B1
100
AcDbEntity
  8
0
100
AcDbBlockBegin
  2
_D
 70
     0
 10
0.0
 20
0.0
 30
0.0
  3
_D
  1

  0
SOLID
  5
7A
330
5B1
100
AcDbEntity
  8
0
  6
Continuous
 62
     7
100
AcDbTrace
 10
42.7614395004
 20
152.0299240879
 30
0.0
 11
42.4614395004
 21
149.5299240879
 31
0.0
 12
43.0614395004
 22
149.5299240879
 32
0.0
 13
43.0614395004
 23
149.5299240879
 33
0.0
  0
SOLID
  5
7B
330
5B1
100
AcDbEntity
  8
0
  6
Continuous
 62
     7
100
AcDbTrace
 10
42.7614395004
 20
52.0299240879
 30
0.0
 11
43.0614395004
 21
54.5299240879
 31
0.0
 12
42.4614395004
 22
54.5299240879
 32
0.0
 13
42.4614395004
 23
54.5299240879
 33
0.0
  0
LINE
  5
7C
330
5B1
100
AcDbEntity
  8
0
  6
Continuous
 62
     7
100
AcDbLine
 10
56.6850079902
 20
152.0299240879
 30
0.0
 11
41.7614395004
 21
152.0299240879
 31
0.0
  0
LINE
  5
7D
330
5B1
100
AcDbEntity
  8
0
  6
Continuous
 62
     7
100
AcDbLine
 10
56.6850079902
 20
52.0299240879
 30
0.0
 11
41.7614395004
 21
52.0299240879
 31
0.0
  0
LINE
  5
7E
330
5B1
100
AcDbEntity
  8
0
  6
Continuous
 62
     7
100
AcDbLine
 10
42.7614395004
 20
152.0299240879
 30
0.0
 11
42.7614395004
 21
52.0299240879
 31
0.0
  0
TEXT
  5
7F
330
5B1
100
AcDbEntity
  8
0
  6
Continuous
 62
     7
100
AcDbText
 10
39.7614397332
 20
94.3680541463
 30
0.0
 40
6.0
  1
100
 50
90.0
 41
0.7
 11
42.7614397332
 21
94.3680541463
 31
0.0
100
AcDbText
 73
     1
  0
TEXT
  5
80
330
5B1
100
AcDbEntity
  8
0
  6
Continuous
 62
     7
100
AcDbText
 10
39.7614397332
 20
105.7430548466
 30
0.0
 40
6.0
  1
mm
 50
90.0
 41
0.7
 11
42.7614397332
 21
105.7430548466
 31
0.0
100
AcDbText
 73
     1
  0
ENDBLK
  5
79
330
5B1
100
AcDbEntity
  8
0
100
AcDbBlockEnd
  0
BLOCK
  5
5B2
330
5B3
100
AcDbEntity
  8
0
100
AcDbBlockBegin
  2
_D_1
 70
     0
 10
0.0
 20
0.0
 30
0.0
  3
_D_1
  1

  0
SOLID
  5
85
330
5B3
100
AcDbEntity
  8
0
  6
Continuous
 62
     7
100
AcDbTrace
 10
56.6850079902
 20
38.4602342313
 30
0.0
 11
59.1850079902
 21
38.1602342313
 31
0.0
 12
59.1850079902
 22
38.7602342313
 32
0.0
 13
59.1850079902
 23
38.7602342313
 33
0.0
  0
SOLID
  5
86
330
5B3
100
AcDbEntity
  8
0
  6
Continuous
 62
     7
100
AcDbTrace
 10
156.6850079902
 20
38.4602342313
 30
0.0
 11
154.1850079902
 21
38.7602342313
 31
0.0
 12
154.1850079902
 22
38.1602342313
 32
0.0
 13
154.1850079902
 23
38.1602342313
 33
0.0
  0
LINE
  5
87
330
5B3
100
AcDbEntity
  8
0
  6
Continuous
 62
     7
100
AcDbLine
 10
56.6850079902
 20
52.0299240879
 30
0.0
 11
56.6850079902
 21
37.4602342313
 31
0.0
  0
LINE
  5
88
330
5B3
100
AcDbEntity
  8
0
  6
Continuous
 62
     7
100
AcDbLine
 10
156.6850079902
 20
52.0299240879
 30
0.0
 11
156.6850079902
 21
37.4602342313
 31
0.0
  0
LINE
  5
89
330
5B3
100
AcDbEntity
  8
0
  6
Continuous
 62
     7
100
AcDbLine
 10
56.6850079902
 20
38.4602342313
 30
0.0
 11
156.6850079902
 21
38.4602342313
 31
0.0
  0
TEXT
  5
8A
330
5B3
100
AcDbEntity
  8
0
  6
Continuous
 62
     7
100
AcDbText
 10
93.9626484861
 20
41.4602339984
 30
0.0
 40
6.0
  1
100
 41
0.7
 11
93.9626484861
 21
38.4602339984
 31
0.0
100
AcDbText
 73
     1
  0
TEXT
  5
8B
330
5B3
100
AcDbEntity
  8
0
  6
Continuous
 62
     7
100
AcDbText
 10
105.3376491864
 20
41.4602339984
 30
0.0
 40
6.0
  1
mm
 41
0.7
 11
105.3376491864
 21
38.4602339984
 31
0.0
100
AcDbText
 73
     1
  0
ENDBLK
  5
84
330
5B3
100
AcDbEntity
  8
0
100
AcDbBlockEnd
  0
BLOCK
  5
5B4
330
5B5
100
AcDbEntity
  8
0
100
AcDbBlockBegin
  2
SW_CENTERMARKSYMBOL_0
 70
     0
 10
0.0
 20
0.0
 30
0.0
  3
SW_CENTERMARKSYMBOL_0
  1

  0
LINE
  5
106
330
5B5
100
AcDbEntity
  8
0
  6
Continuous
 62
     0
100
AcDbLine
 10
0.0
 20
0.0
 30
0.0
 11
0.0
 21
2.5
 31
0.0
  0
LINE
  5
107
330
5B5
100
AcDbEntity
  8
0
  6
Continuous
 62
     0
100
AcDbLine
 10
0.0
 20
0.0
 30
0.0
 11
-2.5
 21
0.0
 31
0.0
  0
LINE
  5
108
330
5B5
100
AcDbEntity
  8
0
  6
Continuous
 62
     0
100
AcDbLine
 10
0.0
 20
0.0
 30
0.0
 11
0.0
 21
-2.5
 31
0.0
  0
LINE
  5
109
330
5B5
100
AcDbEntity
  8
0
  6
Continuous
 62
     0
100
AcDbLine
 10
0.0
 20
0.0
 30
0.0
 11
2.5
 21
0.0
 31
0.0
  0
LINE
  5
10A
330
5B5
100
AcDbEntity
  8
0
  6
Continuous
 62
     0
100
AcDbLine
 10
0.0
 20
5.0
 30
0.0
 11
0.0
 21
25.5
 31
0.0
  0
LINE
  5
10B
330
5B5
100
AcDbEntity
  8
0
  6
Continuous
 62
     0
100
AcDbLine
 10
-5.0
 20
0.0
 30
0.0
 11
-25.5
 21
0.0
 31
0.0
  0
LINE
  5
10C
330
5B5
100
AcDbEntity
  8
0
  6
Continuous
 62
     0
100
AcDbLine
 10
0.0
 20
-5.0
 30
0.0
 11
0.0
 21
-87.9499046179
 31
0.0
  0
LINE
  5
10D
330
5B5
100
AcDbEntity
  8
0
  6
Continuous
 62
     0
100
AcDbLine
 10
5.0
 20
0.0
 30
0.0
 11
25.5
 21
0.0
 31
0.0
  0
ENDBLK
  5
105
330
5B5
100
AcDbEntity
  8
0
100
AcDbBlockEnd
  0
ENDSEC
  0
SECTION
  2
ENTITIES
  0
LINE
  5
73
330
59B
100
AcDbEntity
  8
0
  6
Continuous
 62
     7
100
AcDbLine
 10
56.6850079902
 20
152.0299240879
 30
0.0
 11
56.6850079902
 21
52.0299240879
 31
0.0
  0
LINE
  5
74
330
59B
100
AcDbEntity
  8
0
  6
Continuous
 62
     7
100
AcDbLine
 10
56.6850079902
 20
52.0299240879
 30
0.0
 11
156.6850079902
 21
52.0299240879
 31
0.0
  0
DIMENSION
  5
75
330
59B
100
AcDbEntity
  8
0
  6
Continuous
 62
     7
100
AcDbDimension
280
     0
  2
_D
 10
42.7614395004
 20
52.0299240879
 30
0.0
 11
42.7614395004
 21
105.4472211621
 31
0.0
 70
   160
  1
<>mm
 71
     5
 42
-1.0
 73
     0
 74
     0
 75
     0
  3
SLDDIMSTYLE0
100
AcDbAlignedDimension
 13
56.6850079902
 23
152.0299240879
 33
0.0
 14
56.6850079902
 24
52.0299240879
 34
0.0
 50
90.0
100
AcDbRotatedDimension
  0
DIMENSION
  5
81
330
59B
100
AcDbEntity
  8
0
  6
Continuous
 62
     7
100
AcDbDimension
280
     0
  2
_D_1
 10
156.6850079902
 20
38.4602342313
 30
0.0
 11
105.0418155019
 21
38.4602342313
 31
0.0
 70
   160
  1
<>mm
 71
     5
 42
-1.0
 73
     0
 74
     0
 75
     0
  3
SLDDIMSTYLE0
100
AcDbAlignedDimension
 13
56.6850079902
 23
52.0299240879
 33
0.0
 14
156.6850079902
 24
52.0299240879
 34
0.0
100
AcDbRotatedDimension
  0
TEXT
  5
8C
330
59B
100
AcDbEntity
  8
0
  6
Continuous
 62
     7
100
AcDbText
 10
412.8252631579
 20
40.5435675522
 30
0.0
 40
10.0
  1
KLUDI GmbH & Co KG
 41
0.6222222222
 11
412.8252631579
 21
35.5435675522
 31
0.0
100
AcDbText
 73
     1
  0
TEXT
  5
8D
330
59B
100
AcDbEntity
  8
0
  6
Continuous
 62
     7
100
AcDbText
 10
210.0873490389
 20
40.5435675522
 30
0.0
 40
10.0
  1
48 870 .. 65
 41
0.6125
 11
210.0873490389
 21
35.5435675522
 31
0.0
100
AcDbText
 73
     1
  0
ARC
  5
8E
330
59B
100
AcDbEntity
  8
0
  6
Continuous
 62
     7
100
AcDbCircle
 10
273.3639165434
 20
371.4961071063
 30
0.0
 40
35.0
100
AcDbArc
 50
212.8783495644
 51
90.0
  0
ARC
  5
8F
330
59B
100
AcDbEntity
  8
0
  6
Continuous
 62
     7
100
AcDbCircle
 10
273.3639165434
 20
371.4961071063
 30
0.0
 40
35.0
100
AcDbArc
 50
90.0
 51
138.9176668595
  0
ARC
  5
90
330
59B
100
AcDbEntity
  8
0
  6
Continuous
 62
     7
100
AcDbCircle
 10
95.4882330497
 20
332.2926514027
 30
0.0
 40
87.10700849024525
100
AcDbArc
 50
1.1095194739
 51
21.3416200953
  0
ARC
  5
91
330
59B
100
AcDbEntity
  8
0
  6
Continuous
 62
     7
100
AcDbCircle
 10
301.2396000372
 20
332.2926514027
 30
0.0
 40
87.10700849024524
100
AcDbArc
 50
158.6583799047
 51
178.8904805261
  0
ARC
  5
92
330
59B
100
AcDbEntity
  8
0
  6
Continuous
 62
     7
100
AcDbCircle
 10
185.1063516493
 20
287.750312452
 30
0.0
 40
2.29741509277674
100
AcDbArc
 50
169.1703868176
 51
281.1295364534
  0
ARC
  5
93
330
59B
100
AcDbEntity
  8
0
  6
Continuous
 62
     7
100
AcDbCircle
 10
211.6214814375
 20
287.750312452
 30
0.0
 40
2.297415092776713
100
AcDbArc
 50
258.8704635466
 51
10.8296131824
  0
LWPOLYLINE
  5
94
330
59B
100
AcDbEntity
  8
0
  6
Continuous
 62
     7
100
AcDbPolyline
 90
        3
 70
   128
 43
0.0
 10
182.5789097372
 20
333.9793529858
 10
182.6232779446
 20
330.9795778741
 10
182.6377711865
 20
328.6864046504
  0
LWPOLYLINE
  5
95
330
59B
100
AcDbEntity
  8
0
  6
Continuous
 62
     7
100
AcDbPolyline
 90
        3
 70
   128
 43
0.0
 10
214.1489233497
 20
333.9793529858
 10
214.1045551422
 20
330.9795778741
 10
214.0900619003
 20
328.6864046504
  0
LINE
  5
96
330
59B
100
AcDbEntity
  8
0
  6
Continuous
 62
     7
100
AcDbLine
 10
214.0900619003
 20
328.6864046504
 30
0.0
 11
213.8779801923
 21
288.1819714357
 31
0.0
  0
LINE
  5
97
330
59B
100
AcDbEntity
  8
0
  6
Continuous
 62
     7
100
AcDbLine
 10
182.6377711865
 20
328.6864046504
 30
0.0
 11
182.8498528946
 21
288.1819714357
 31
0.0
  0
LINE
  5
98
330
59B
100
AcDbEntity
  8
0
  6
Continuous
 62
     7
100
AcDbLine
 10
211.1780164439
 20
285.4961041857
 30
0.0
 11
185.549816643
 21
285.4961041857
 31
0.0
  0
ARC
  5
99
330
59B
100
AcDbEntity
  8
0
  6
Continuous
 62
     7
100
AcDbCircle
 10
198.3639165434
 20
371.4961071063
 30
0.0
 40
23.00000000000001
100
AcDbArc
 50
340.9612250535999
 51
199.0387749463999
  0
LINE
  5
9A
330
59B
100
AcDbEntity
  8
0
  6
Continuous
 62
     7
100
AcDbLine
 10
214.1489233497
 20
333.9793529858
 30
0.0
 11
214.0900619003
 21
328.6864046504
 31
0.0
  0
LINE
  5
9B
330
59B
100
AcDbEntity
  8
0
  6
Continuous
 62
     7
100
AcDbLine
 10
182.5789097372
 20
333.9793529858
 30
0.0
 11
182.6377711865
 21
328.6864046504
 31
0.0
  0
LWPOLYLINE
  5
9C
330
59B
100
AcDbEntity
  8
0
  6
Continuous
 62
     7
100
AcDbPolyline
 90
        3
 70
   128
 43
0.0
 10
225.3453895125
 20
352.4961077173
 10
218.8009913686
 20
352.3335230102
 10
216.3947034303
 20
352.0060942073
  0
LWPOLYLINE
  5
9D
330
59B
100
AcDbEntity
  8
0
  6
Continuous
 62
     7
100
AcDbPolyline
 90
        3
 70
   128
 43
0.0
 10
171.3824435744
 20
352.4961077173
 10
177.9268417183
 20
352.3335230102
 10
180.3009766761
 20
352.0104676981
  0
LINE
  5
9E
330
59B
100
AcDbEntity
  8
0
  6
Continuous
 62
     7
100
AcDbLine
 10
198.3639165434
 20
394.4961071511
 30
0.0
 11
238.7641980919
 21
394.4961071511
 31
0.0
  0
LINE
  5
9F
330
59B
100
AcDbEntity
  8
0
  6
Continuous
 62
     7
100
AcDbLine
 10
198.3639165434
 20
394.4961071511
 30
0.0
 11
157.9636349949
 21
394.4961071511
 31
0.0
  0
LWPOLYLINE
  5
A0
330
59B
100
AcDbEntity
  8
0
  6
Continuous
 62
     7
100
AcDbPolyline
 90
        7
 70
   128
 43
0.0
 10
104.6488374147
 20
355.6961078693
 10
104.7314420018
 20
354.4816390176
 10
104.9833610329
 20
353.714329799
 10
105.3508907232
 20
353.1999417145
 10
105.869108406
 20
352.8295975675
 10
106.7278921279
 20
352.5620900591
 10
107.8488394293
 20
352.4961077173
  0
LINE
  5
A1
330
59B
100
AcDbEntity
  8
0
  6
Continuous
 62
     7
100
AcDbLine
 10
157.9636349949
 20
394.4961071511
 30
0.0
 11
123.3639210138
 21
394.4961071511
 31
0.0
  0
LINE
  5
A2
330
59B
100
AcDbEntity
  8
0
  6
Continuous
 62
     7
100
AcDbLine
 10
104.6488374147
 20
371.1495383731
 30
0.0
 11
104.6488374147
 21
355.6961078693
 31
0.0
  0
LWPOLYLINE
  5
A3
330
59B
100
AcDbEntity
  8
0
  6
Continuous
 62
     7
100
AcDbPolyline
 90
        7
 70
   128
 43
0.0
 10
292.0789956722
 20
355.6961078693
 10
291.9963910851
 20
354.4816390176
 10
291.744472054
 20
353.714329799
 10
291.3769423637
 20
353.1999417145
 10
290.8587246809
 20
352.8295975675
 10
289.9999409589
 20
352.5620900591
 10
288.8789936575
 20
352.4961077173
  0
LINE
  5
A4
330
59B
100
AcDbEntity
  8
0
  6
Continuous
 62
     7
100
AcDbLine
 10
104.6488374147
 20
391.2961069991
 30
0.0
 11
104.6488374147
 21
371.8426758396
 31
0.0
  0
LWPOLYLINE
  5
A5
330
59B
100
AcDbEntity
  8
0
  6
Continuous
 62
     7
100
AcDbPolyline
 90
        7
 70
   128
 43
0.0
 10
107.8488394293
 20
394.4961071511
 10
106.6343649897
 20
394.4135007013
 10
105.8670594964
 20
394.1615835328
 10
105.352671412
 20
393.7940519799
 10
104.9823254022
 20
393.275839885
 10
104.7148197565
 20
392.4170561631
 10
104.6488374147
 20
391.2961069991
  0
LINE
  5
A6
330
59B
100
AcDbEntity
  8
0
  6
Continuous
 62
     7
100
AcDbLine
 10
104.6488374147
 20
371.8426758396
 30
0.0
 11
104.6488374147
 21
371.4961071063
 31
0.0
  0
LINE
  5
A7
330
59B
100
AcDbEntity
  8
0
  6
Continuous
 62
     7
100
AcDbLine
 10
238.7641980919
 20
394.4961071511
 30
0.0
 11
273.3639120731
 21
394.4961071511
 31
0.0
  0
LINE
  5
A8
330
59B
100
AcDbEntity
  8
0
  6
Continuous
 62
     7
100
AcDbLine
 10
123.3639210138
 20
352.4961077173
 30
0.0
 11
157.9636349949
 21
352.4961077173
 31
0.0
  0
LINE
  5
A9
330
59B
100
AcDbEntity
  8
0
  6
Continuous
 62
     7
100
AcDbLine
 10
107.8488394293
 20
352.4961077173
 30
0.0
 11
123.3639210138
 21
352.4961077173
 31
0.0
  0
LINE
  5
AA
330
59B
100
AcDbEntity
  8
0
  6
Continuous
 62
     7
100
AcDbLine
 10
104.6488374147
 20
371.4961071063
 30
0.0
 11
104.6488374147
 21
371.1495383731
 31
0.0
  0
LINE
  5
AB
330
59B
100
AcDbEntity
  8
0
  6
Continuous
 62
     7
100
AcDbLine
 10
238.7641980919
 20
352.4961077173
 30
0.0
 11
225.3453895125
 21
352.4961077173
 31
0.0
  0
LINE
  5
AC
330
59B
100
AcDbEntity
  8
0
  6
Continuous
 62
     7
100
AcDbLine
 10
273.3639120731
 20
352.4961077173
 30
0.0
 11
238.7641980919
 21
352.4961077173
 31
0.0
  0
LINE
  5
AD
330
59B
100
AcDbEntity
  8
0
  6
Continuous
 62
     7
100
AcDbLine
 10
288.8789936575
 20
352.4961077173
 30
0.0
 11
273.3639120731
 21
352.4961077173
 31
0.0
  0
LINE
  5
AE
330
59B
100
AcDbEntity
  8
0
  6
Continuous
 62
     7
100
AcDbLine
 10
273.3639120731
 20
394.4961071511
 30
0.0
 11
288.8789936575
 21
394.4961071511
 31
0.0
  0
LINE
  5
AF
330
59B
100
AcDbEntity
  8
0
  6
Continuous
 62
     7
100
AcDbLine
 10
292.0789956722
 20
371.1495383731
 30
0.0
 11
292.0789956722
 21
355.6961078693
 31
0.0
  0
LINE
  5
B0
330
59B
100
AcDbEntity
  8
0
  6
Continuous
 62
     7
100
AcDbLine
 10
292.0789956722
 20
371.4961071063
 30
0.0
 11
292.0789956722
 21
371.1495383731
 31
0.0
  0
LINE
  5
B1
330
59B
100
AcDbEntity
  8
0
  6
Continuous
 62
     7
100
AcDbLine
 10
292.0789956722
 20
371.8426758396
 30
0.0
 11
292.0789956722
 21
371.4961071063
 31
0.0
  0
LINE
  5
B2
330
59B
100
AcDbEntity
  8
0
  6
Continuous
 62
     7
100
AcDbLine
 10
292.0789956722
 20
391.2961069991
 30
0.0
 11
292.0789956722
 21
371.8426758396
 31
0.0
  0
LINE
  5
B3
330
59B
100
AcDbEntity
  8
0
  6
Continuous
 62
     7
100
AcDbLine
 10
157.9636349949
 20
352.4961077173
 30
0.0
 11
171.3824435744
 21
352.4961077173
 31
0.0
  0
LINE
  5
B4
330
59B
100
AcDbEntity
  8
0
  6
Continuous
 62
     7
100
AcDbLine
 10
123.3639210138
 20
394.4961071511
 30
0.0
 11
107.8488394293
 21
394.4961071511
 31
0.0
  0
LWPOLYLINE
  5
B5
330
59B
100
AcDbEntity
  8
0
  6
Continuous
 62
     7
100
AcDbPolyline
 90
        7
 70
   128
 43
0.0
 10
288.8789936575
 20
394.4961071511
 10
290.0934680972
 20
394.4135007013
 10
290.8607735905
 20
394.1615835328
 10
291.3751616749
 20
393.7940519799
 10
291.7455076847
 20
393.275839885
 10
292.0130133304
 20
392.4170561631
 10
292.0789956722
 20
391.2961069991
  0
ARC
  5
B6
330
59B
100
AcDbEntity
  8
0
  6
Continuous
 62
     7
100
AcDbCircle
 10
123.3639165434
 20
371.4961071063
 30
0.0
 40
35.0
100
AcDbArc
 50
41.0823331405
 51
90.0
  0
ARC
  5
B7
330
59B
100
AcDbEntity
  8
0
  6
Continuous
 62
     7
100
AcDbCircle
 10
123.3639165434
 20
371.4961071063
 30
0.0
 40
35.00000000000001
100
AcDbArc
 50
90.0
 51
327.1216504356
  0
ARC
  5
B8
330
59B
100
AcDbEntity
  8
0
  6
Continuous
 62
     8
100
AcDbCircle
 10
273.3639165434
 20
371.4961071063
 30
0.0
 40
32.60585337309747
100
AcDbArc
 50
215.641902037
 51
90.0
  0
ARC
  5
B9
330
59B
100
AcDbEntity
  8
0
  6
Continuous
 62
     8
100
AcDbCircle
 10
273.3639165434
 20
371.4961071063
 30
0.0
 40
32.60585337309745
100
AcDbArc
 50
90.0
 51
135.1385503862
  0
ARC
  5
BA
330
59B
100
AcDbEntity
  8
0
  6
Continuous
 62
     8
100
AcDbCircle
 10
273.3639165434
 20
371.4961071063
 30
0.0
 40
34.58178191833579
100
AcDbArc
 50
213.3273850764
 51
90.0
  0
ARC
  5
BB
330
59B
100
AcDbEntity
  8
0
  6
Continuous
 62
     8
100
AcDbCircle
 10
273.3639165434
 20
371.4961071063
 30
0.0
 40
34.58178191833577
100
AcDbArc
 50
90.0
 51
138.310763772
  0
LWPOLYLINE
  5
BC
330
59B
100
AcDbEntity
  8
0
  6
Continuous
 62
     8
100
AcDbPolyline
 90
        3
 70
   128
 43
0.0
 10
220.1057389054
 20
363.9932294872
 10
219.5079806867
 20
362.3420164485
 10
218.898428199
 20
360.596175914
  0
ARC
  5
BD
330
59B
100
AcDbEntity
  8
0
  6
Continuous
 62
     8
100
AcDbCircle
 10
95.7269588694
 20
332.3366401563
 30
0.0
 40
88.31747323915361
100
AcDbArc
 50
1.0874213236
 51
21.3336040678
  0
LWPOLYLINE
  5
BE
330
59B
100
AcDbEntity
  8
0
  6
Continuous
 62
     8
100
AcDbPolyline
 90
        9
 70
   128
 43
0.0
 10
184.0285263631
 20
334.0127241363
 10
183.7431803021
 20
334.0061527242
 10
183.4701807845
 20
333.9998681594
 10
183.2195805061
 20
333.9941014101
 10
183.0006060797
 20
333.9890610923
 10
182.8213208962
 20
333.9849334706
 10
182.6883252385
 20
333.981871282
 10
182.6065178636
 20
333.9799900104
 10
182.5789097372
 20
333.9793529858
  0
LWPOLYLINE
  5
BF
330
59B
100
AcDbEntity
  8
0
  6
Continuous
 62
     8
100
AcDbPolyline
 90
        9
 70
   128
 43
0.0
 10
177.9927439663
 20
364.4663255227
 10
177.7229342285
 20
364.3732184109
 10
177.4648014131
 20
364.2841402006
 10
177.2278450105
 20
364.2023710099
 10
177.0207952383
 20
364.1309208733
 10
176.851272178
 20
364.0724212427
 10
176.7255194161
 20
364.0290258017
 10
176.6481656257
 20
364.0023322341
 10
176.6220625165
 20
363.9933240165
  0
LWPOLYLINE
  5
C0
330
59B
100
AcDbEntity
  8
0
  6
Continuous
 62
     8
100
AcDbPolyline
 90
        9
 70
   128
 43
0.0
 10
212.6993067238
 20
334.0127241363
 10
212.9846527848
 20
334.0061527242
 10
213.2576523024
 20
333.9998681594
 10
213.5082525808
 20
333.9941014101
 10
213.7272270072
 20
333.9890610923
 10
213.9065121907
 20
333.9849334706
 10
214.0395078483
 20
333.981871282
 10
214.1213152233
 20
333.9799900104
 10
214.1489233497
 20
333.9793529858
  0
ARC
  5
C1
330
59B
100
AcDbEntity
  8
0
  6
Continuous
 62
     8
100
AcDbCircle
 10
301.0008742175
 20
332.3366401563
 30
0.0
 40
88.31747323915361
100
AcDbArc
 50
158.6663959322
 51
178.9125786764
  0
LWPOLYLINE
  5
C2
330
59B
100
AcDbEntity
  8
0
  6
Continuous
 62
     8
100
AcDbPolyline
 90
        9
 70
   128
 43
0.0
 10
218.7350891206
 20
364.4663255227
 10
219.0048988584
 20
364.3732184109
 10
219.2630316737
 20
364.2841402006
 10
219.4999880764
 20
364.2023710099
 10
219.7070378486
 20
364.1309208733
 10
219.8765609089
 20
364.0724212427
 10
220.0023136708
 20
364.0290258017
 10
220.0796674612
 20
364.0023322341
 10
220.1057705704
 20
363.9933240165
  0
LWPOLYLINE
  5
C3
330
59B
100
AcDbEntity
  8
0
  6
Continuous
 62
     8
100
AcDbPolyline
 90
        3
 70
   128
 43
0.0
 10
212.6993067238
 20
334.0127241363
 10
212.6578805644
 20
331.3535001625
 10
212.6400820586
 20
328.693996792
  0
LINE
  5
C4
330
59B
100
AcDbEntity
  8
0
  6
Continuous
 62
     8
100
AcDbLine
 10
212.6400820586
 20
328.693996792
 30
0.0
 11
212.4279994193
 21
288.1895635773
 31
0.0
  0
LWPOLYLINE
  5
C5
330
59B
100
AcDbEntity
  8
0
  6
Continuous
 62
     8
100
AcDbPolyline
 90
        9
 70
   128
 43
0.0
 10
212.4279994193
 20
288.1895635773
 10
212.4087378058
 20
287.638205712
 10
212.363880654
 20
287.3654325057
 10
212.3224796403
 20
287.2331847002
 10
212.2938843119
 20
287.1700708319
 10
212.2545042682
 20
287.1128876258
 10
212.1977066297
 20
287.0737050225
 10
211.7312611687
 20
286.9626466681
 10
211.1780164439
 20
286.9461063792
  0
LINE
  5
C6
330
59B
100
AcDbEntity
  8
0
  6
Continuous
 62
     8
100
AcDbLine
 10
211.1780164439
 20
286.9461063792
 30
0.0
 11
198.3639165434
 21
286.9461063792
 31
0.0
  0
ARC
  5
C7
330
59B
100
AcDbEntity
  8
0
  6
Continuous
 62
     8
100
AcDbCircle
 10
198.363916655
 20
371.4961069477
 30
0.0
 40
21.5499998725362
100
AcDbArc
 50
340.9612252547
 51
90.00000029660002
  0
LINE
  5
C8
330
59B
100
AcDbEntity
  8
0
  6
Continuous
 62
     8
100
AcDbLine
 10
185.549816643
 20
286.9461063792
 30
0.0
 11
198.3639165434
 21
286.9461063792
 31
0.0
  0
LWPOLYLINE
  5
C9
330
59B
100
AcDbEntity
  8
0
  6
Continuous
 62
     8
100
AcDbPolyline
 90
        9
 70
   128
 43
0.0
 10
184.2998336676
 20
288.1895635773
 10
184.3190952811
 20
287.638205712
 10
184.3639524329
 20
287.3654325057
 10
184.4053534466
 20
287.2331847002
 10
184.433948775
 20
287.1700708319
 10
184.4733288187
 20
287.1128876258
 10
184.5301264572
 20
287.0737050225
 10
184.9965719181
 20
286.9626466681
 10
185.549816643
 20
286.9461063792
  0
LINE
  5
CA
330
59B
100
AcDbEntity
  8
0
  6
Continuous
 62
     8
100
AcDbLine
 10
184.0877510283
 20
328.693996792
 30
0.0
 11
184.2998336676
 21
288.1895635773
 31
0.0
  0
LWPOLYLINE
  5
CB
330
59B
100
AcDbEntity
  8
0
  6
Continuous
 62
     8
100
AcDbPolyline
 90
        3
 70
   128
 43
0.0
 10
184.0285263631
 20
334.0127241363
 10
184.0699525225
 20
331.3535001625
 10
184.0877510283
 20
328.693996792
  0
ARC
  5
CC
330
59B
100
AcDbEntity
  8
0
  6
Continuous
 62
     8
100
AcDbCircle
 10
198.3639164319
 20
371.4961069477
 30
0.0
 40
21.5499998725362
100
AcDbArc
 50
89.9999997034
 51
199.0387747453
  0
LINE
  5
CD
330
59B
100
AcDbEntity
  8
0
  6
Continuous
 62
     8
100
AcDbLine
 10
185.549816643
 20
285.4961041857
 30
0.0
 11
185.549816643
 21
286.9461063792
 31
0.0
  0
LWPOLYLINE
  5
CE
330
59B
100
AcDbEntity
  8
0
  6
Continuous
 62
     8
100
AcDbPolyline
 90
        9
 70
   128
 43
0.0
 10
182.8498528946
 20
288.1819714357
 10
182.8774684715
 20
288.1821129967
 10
182.9592963356
 20
288.1825451304
 10
183.0923245895
 20
288.1832380344
 10
183.2716544765
 20
288.1841768075
 10
183.490683851
 20
288.185324197
 10
183.7413474593
 20
288.1866354991
 10
184.0144149634
 20
288.1880660106
 10
184.2998336676
 20
288.1895635773
  0
LINE
  5
CF
330
59B
100
AcDbEntity
  8
0
  6
Continuous
 62
     8
100
AcDbLine
 10
211.1780164439
 20
285.4961041857
 30
0.0
 11
211.1780164439
 21
286.9461063792
 31
0.0
  0
LWPOLYLINE
  5
D0
330
59B
100
AcDbEntity
  8
0
  6
Continuous
 62
     8
100
AcDbPolyline
 90
        9
 70
   128
 43
0.0
 10
213.8779801923
 20
288.1819714357
 10
213.8503646153
 20
288.1821129967
 10
213.7685367513
 20
288.1825451304
 10
213.6355084974
 20
288.1832380344
 10
213.4561786103
 20
288.1841768075
 10
213.2371492359
 20
288.185324197
 10
212.9864856276
 20
288.1866354991
 10
212.7134181234
 20
288.1880660106
 10
212.4279994193
 20
288.1895635773
  0
LWPOLYLINE
  5
D1
330
59B
100
AcDbEntity
  8
0
  6
Continuous
 62
     8
100
AcDbPolyline
 90
        9
 70
   128
 43
0.0
 10
184.0877510283
 20
328.693996792
 10
183.8023323241
 20
328.6925029506
 10
183.5292648199
 20
328.6910724391
 10
183.2786012116
 20
328.6897611369
 10
183.0595718372
 20
328.6886137475
 10
182.8802419502
 20
328.6876749743
 10
182.7472136963
 20
328.6869783451
 10
182.6653849009
 20
328.6865499367
 10
182.6377711865
 20
328.6864046504
  0
LWPOLYLINE
  5
D2
330
59B
100
AcDbEntity
  8
0
  6
Continuous
 62
     8
100
AcDbPolyline
 90
        9
 70
   128
 43
0.0
 10
212.6400820586
 20
328.693996792
 10
212.9255007628
 20
328.6925029506
 10
213.1985682669
 20
328.6910724391
 10
213.4492318753
 20
328.6897611369
 10
213.6682612497
 20
328.6886137475
 10
213.8475911367
 20
328.6876749743
 10
213.9806193906
 20
328.6869783451
 10
214.062448186
 20
328.6865499367
 10
214.0900619003
 20
328.6864046504
  0
LWPOLYLINE
  5
D3
330
59B
100
AcDbEntity
  8
0
  6
Continuous
 62
     8
100
AcDbPolyline
 90
        3
 70
   128
 43
0.0
 10
216.7902212265
 20
353.5705559452
 10
218.6949789199
 20
353.8297709574
 10
225.3453876499
 20
353.9961070318
  0
LWPOLYLINE
  5
D4
330
59B
100
AcDbEntity
  8
0
  6
Continuous
 62
     8
100
AcDbPolyline
 90
        9
 70
   128
 43
0.0
 10
225.3453895125
 20
352.4961077173
 10
225.3453895125
 20
352.5249284257
 10
225.3453895125
 20
352.6102878649
 10
225.3453895125
 20
352.7489021917
 10
225.3453895125
 20
352.9354461034
 10
225.3453895125
 20
353.1627521415
 10
225.3453876499
 20
353.4220826377
 10
225.3453876499
 20
353.7034724404
 10
225.3453876499
 20
353.9961070318
  0
LWPOLYLINE
  5
D5
330
59B
100
AcDbEntity
  8
0
  6
Continuous
 62
     8
100
AcDbPolyline
 90
        9
 70
   128
 43
0.0
 10
171.3824435744
 20
352.4961077173
 10
171.3824435744
 20
352.5249284257
 10
171.3824435744
 20
352.6102878649
 10
171.3824435744
 20
352.7489021917
 10
171.3824435744
 20
352.9354461034
 10
171.3824435744
 20
353.1627521415
 10
171.382445437
 20
353.4220826377
 10
171.382445437
 20
353.7034724404
 10
171.382445437
 20
353.9961070318
  0
LWPOLYLINE
  5
D6
330
59B
100
AcDbEntity
  8
0
  6
Continuous
 62
     8
100
AcDbPolyline
 90
        3
 70
   128
 43
0.0
 10
179.9363098714
 20
353.5707328965
 10
178.0328541669
 20
353.8297709574
 10
171.382445437
 20
353.9961070318
  0
LINE
  5
D7
330
59B
100
AcDbEntity
  8
0
  6
Continuous
 62
     8
100
AcDbLine
 10
273.3639120731
 20
392.9961078365
 30
0.0
 11
238.7641980919
 21
392.9961078365
 31
0.0
  0
LINE
  5
D8
330
59B
100
AcDbEntity
  8
0
  6
Continuous
 62
     8
100
AcDbLine
 10
288.8789936575
 20
392.9961078365
 30
0.0
 11
273.3639120731
 21
392.9961078365
 31
0.0
  0
LWPOLYLINE
  5
D9
330
59B
100
AcDbEntity
  8
0
  6
Continuous
 62
     8
100
AcDbPolyline
 90
        7
 70
   128
 43
0.0
 10
290.5789926323
 20
391.2961069991
 10
290.5330449018
 20
392.1727069218
 10
290.4062211189
 20
392.6003329952
 10
290.3152197275
 20
392.7326720704
 10
290.1839404974
 20
392.8229656567
 10
289.8124769005
 20
392.9400533934
 10
288.8789936575
 20
392.9961078365
  0
LINE
  5
DA
330
59B
100
AcDbEntity
  8
0
  6
Continuous
 62
     8
100
AcDbLine
 10
290.5789926323
 20
371.8426758396
 30
0.0
 11
290.5789926323
 21
391.2961069991
 31
0.0
  0
LINE
  5
DB
330
59B
100
AcDbEntity
  8
0
  6
Continuous
 62
     8
100
AcDbLine
 10
290.5789926323
 20
371.4961071063
 30
0.0
 11
290.5789926323
 21
371.8426758396
 31
0.0
  0
LINE
  5
DC
330
59B
100
AcDbEntity
  8
0
  6
Continuous
 62
     8
100
AcDbLine
 10
290.5789926323
 20
371.1495383731
 30
0.0
 11
290.5789926323
 21
371.4961071063
 31
0.0
  0
LINE
  5
DD
330
59B
100
AcDbEntity
  8
0
  6
Continuous
 62
     8
100
AcDbLine
 10
290.5789926323
 20
355.6961078693
 30
0.0
 11
290.5789926323
 21
371.1495383731
 31
0.0
  0
LWPOLYLINE
  5
DE
330
59B
100
AcDbEntity
  8
0
  6
Continuous
 62
     8
100
AcDbPolyline
 90
        7
 70
   128
 43
0.0
 10
288.8789936575
 20
353.9961070318
 10
289.7555917177
 20
354.0420547624
 10
290.183217791
 20
354.1688841332
 10
290.3155624542
 20
354.2598799367
 10
290.4058560404
 20
354.3911628921
 10
290.5229419145
 20
354.7626246263
 10
290.5789926323
 20
355.6961078693
  0
LINE
  5
DF
330
59B
100
AcDbEntity
  8
0
  6
Continuous
 62
     8
100
AcDbLine
 10
273.3639120731
 20
353.9961070318
 30
0.0
 11
288.8789936575
 21
353.9961070318
 31
0.0
  0
LINE
  5
E0
330
59B
100
AcDbEntity
  8
0
  6
Continuous
 62
     8
100
AcDbLine
 10
238.7641980919
 20
353.9961070318
 30
0.0
 11
273.3639120731
 21
353.9961070318
 31
0.0
  0
LINE
  5
E1
330
59B
100
AcDbEntity
  8
0
  6
Continuous
 62
     8
100
AcDbLine
 10
225.3453876499
 20
353.9961070318
 30
0.0
 11
238.7641980919
 21
353.9961070318
 31
0.0
  0
LINE
  5
E2
330
59B
100
AcDbEntity
  8
0
  6
Continuous
 62
     8
100
AcDbLine
 10
238.7641980919
 20
392.9961078365
 30
0.0
 11
206.5339838761
 21
392.9961078365
 31
0.0
  0
LINE
  5
E3
330
59B
100
AcDbEntity
  8
0
  6
Continuous
 62
     8
100
AcDbLine
 10
238.7641980919
 20
394.4961071511
 30
0.0
 11
238.7641980919
 21
392.9961078365
 31
0.0
  0
LINE
  5
E4
330
59B
100
AcDbEntity
  8
0
  6
Continuous
 62
     8
100
AcDbLine
 10
171.382445437
 20
353.9961070318
 30
0.0
 11
157.9636349949
 21
353.9961070318
 31
0.0
  0
LINE
  5
E5
330
59B
100
AcDbEntity
  8
0
  6
Continuous
 62
     8
100
AcDbLine
 10
157.9636349949
 20
353.9961070318
 30
0.0
 11
123.3639210138
 21
353.9961070318
 31
0.0
  0
LINE
  5
E6
330
59B
100
AcDbEntity
  8
0
  6
Continuous
 62
     8
100
AcDbLine
 10
123.3639210138
 20
353.9961070318
 30
0.0
 11
107.8488394293
 21
353.9961070318
 31
0.0
  0
LWPOLYLINE
  5
E7
330
59B
100
AcDbEntity
  8
0
  6
Continuous
 62
     8
100
AcDbPolyline
 90
        7
 70
   128
 43
0.0
 10
107.8488394293
 20
353.9961070318
 10
106.9722413692
 20
354.0420547624
 10
106.5446152958
 20
354.1688841332
 10
106.4122706327
 20
354.2598799367
 10
106.3219770464
 20
354.3911628921
 10
106.2048911724
 20
354.7626246263
 10
106.1488404545
 20
355.6961078693
  0
LINE
  5
E8
330
59B
100
AcDbEntity
  8
0
  6
Continuous
 62
     8
100
AcDbLine
 10
106.1488404545
 20
355.6961078693
 30
0.0
 11
106.1488404545
 21
371.1495383731
 31
0.0
  0
LINE
  5
E9
330
59B
100
AcDbEntity
  8
0
  6
Continuous
 62
     8
100
AcDbLine
 10
106.1488404545
 20
371.1495383731
 30
0.0
 11
106.1488404545
 21
371.4961071063
 31
0.0
  0
LINE
  5
EA
330
59B
100
AcDbEntity
  8
0
  6
Continuous
 62
     8
100
AcDbLine
 10
106.1488404545
 20
371.4961071063
 30
0.0
 11
106.1488404545
 21
371.8426758396
 31
0.0
  0
LINE
  5
EB
330
59B
100
AcDbEntity
  8
0
  6
Continuous
 62
     8
100
AcDbLine
 10
106.1488404545
 20
371.8426758396
 30
0.0
 11
106.1488404545
 21
391.2961069991
 31
0.0
  0
LWPOLYLINE
  5
EC
330
59B
100
AcDbEntity
  8
0
  6
Continuous
 62
     8
100
AcDbPolyline
 90
        7
 70
   128
 43
0.0
 10
106.1488404545
 20
391.2961069991
 10
106.1947881851
 20
392.1727069218
 10
106.321611968
 20
392.6003329952
 10
106.4126133594
 20
392.7326720704
 10
106.5438925895
 20
392.8229656567
 10
106.9153561863
 20
392.9400533934
 10
107.8488394293
 20
392.9961078365
  0
LINE
  5
ED
330
59B
100
AcDbEntity
  8
0
  6
Continuous
 62
     8
100
AcDbLine
 10
107.8488394293
 20
392.9961078365
 30
0.0
 11
123.3639210138
 21
392.9961078365
 31
0.0
  0
LINE
  5
EE
330
59B
100
AcDbEntity
  8
0
  6
Continuous
 62
     8
100
AcDbLine
 10
123.3639210138
 20
392.9961078365
 30
0.0
 11
157.9636349949
 21
392.9961078365
 31
0.0
  0
LINE
  5
EF
330
59B
100
AcDbEntity
  8
0
  6
Continuous
 62
     8
100
AcDbLine
 10
157.9636349949
 20
392.9961078365
 30
0.0
 11
190.1938492108
 21
392.9961078365
 31
0.0
  0
LINE
  5
F0
330
59B
100
AcDbEntity
  8
0
  6
Continuous
 62
     8
100
AcDbLine
 10
157.9636349949
 20
394.4961071511
 30
0.0
 11
157.9636349949
 21
392.9961078365
 31
0.0
  0
LINE
  5
F1
330
59B
100
AcDbEntity
  8
0
  6
Continuous
 62
     8
100
AcDbLine
 10
107.8488394293
 20
352.4961077173
 30
0.0
 11
107.8488394293
 21
353.9961070318
 31
0.0
  0
LINE
  5
F2
330
59B
100
AcDbEntity
  8
0
  6
Continuous
 62
     8
100
AcDbLine
 10
104.6488374147
 20
355.6961078693
 30
0.0
 11
106.1488404545
 21
355.6961078693
 31
0.0
  0
LINE
  5
F3
330
59B
100
AcDbEntity
  8
0
  6
Continuous
 62
     8
100
AcDbLine
 10
123.3639210138
 20
394.4961071511
 30
0.0
 11
123.3639210138
 21
392.9961078365
 31
0.0
  0
LINE
  5
F4
330
59B
100
AcDbEntity
  8
0
  6
Continuous
 62
     8
100
AcDbLine
 10
288.8789936575
 20
352.4961077173
 30
0.0
 11
288.8789936575
 21
353.9961070318
 31
0.0
  0
LINE
  5
F5
330
59B
100
AcDbEntity
  8
0
  6
Continuous
 62
     8
100
AcDbLine
 10
292.0789956722
 20
355.6961078693
 30
0.0
 11
290.5789926323
 21
355.6961078693
 31
0.0
  0
LINE
  5
F6
330
59B
100
AcDbEntity
  8
0
  6
Continuous
 62
     8
100
AcDbLine
 10
104.6488374147
 20
391.2961069991
 30
0.0
 11
106.1488404545
 21
391.2961069991
 31
0.0
  0
LINE
  5
F7
330
59B
100
AcDbEntity
  8
0
  6
Continuous
 62
     8
100
AcDbLine
 10
107.8488394293
 20
394.4961071511
 30
0.0
 11
107.8488394293
 21
392.9961078365
 31
0.0
  0
LINE
  5
F8
330
59B
100
AcDbEntity
  8
0
  6
Continuous
 62
     8
100
AcDbLine
 10
273.3639120731
 20
394.4961071511
 30
0.0
 11
273.3639120731
 21
392.9961078365
 31
0.0
  0
LINE
  5
F9
330
59B
100
AcDbEntity
  8
0
  6
Continuous
 62
     8
100
AcDbLine
 10
157.9636349949
 20
352.4961077173
 30
0.0
 11
157.9636349949
 21
353.9961070318
 31
0.0
  0
LINE
  5
FA
330
59B
100
AcDbEntity
  8
0
  6
Continuous
 62
     8
100
AcDbLine
 10
123.3639210138
 20
352.4961077173
 30
0.0
 11
123.3639210138
 21
353.9961070318
 31
0.0
  0
LINE
  5
FB
330
59B
100
AcDbEntity
  8
0
  6
Continuous
 62
     8
100
AcDbLine
 10
238.7641980919
 20
352.4961077173
 30
0.0
 11
238.7641980919
 21
353.9961070318
 31
0.0
  0
LINE
  5
FC
330
59B
100
AcDbEntity
  8
0
  6
Continuous
 62
     8
100
AcDbLine
 10
273.3639120731
 20
352.4961077173
 30
0.0
 11
273.3639120731
 21
353.9961070318
 31
0.0
  0
LINE
  5
FD
330
59B
100
AcDbEntity
  8
0
  6
Continuous
 62
     8
100
AcDbLine
 10
288.8789936575
 20
394.4961071511
 30
0.0
 11
288.8789936575
 21
392.9961078365
 31
0.0
  0
LINE
  5
FE
330
59B
100
AcDbEntity
  8
0
  6
Continuous
 62
     8
100
AcDbLine
 10
292.0789956722
 20
391.2961069991
 30
0.0
 11
290.5789926323
 21
391.2961069991
 31
0.0
  0
ARC
  5
FF
330
59B
100
AcDbEntity
  8
0
  6
Continuous
 62
     8
100
AcDbCircle
 10
123.3639165434
 20
371.4961071063
 30
0.0
 40
32.60585337309745
100
AcDbArc
 50
44.8614496138
 51
90.0
  0
ARC
  5
100
330
59B
100
AcDbEntity
  8
0
  6
Continuous
 62
     8
100
AcDbCircle
 10
123.3639165434
 20
371.4961071063
 30
0.0
 40
32.60585337309751
100
AcDbArc
 50
90.0
 51
324.3580979629999
  0
ARC
  5
101
330
59B
100
AcDbEntity
  8
0
  6
Continuous
 62
     8
100
AcDbCircle
 10
123.3639165434
 20
371.4961071063
 30
0.0
 40
34.58178191833577
100
AcDbArc
 50
41.689236228
 51
90.0
  0
ARC
  5
102
330
59B
100
AcDbEntity
  8
0
  6
Continuous
 62
     8
100
AcDbCircle
 10
123.3639165434
 20
371.4961071063
 30
0.0
 40
34.58178191833583
100
AcDbArc
 50
90.0
 51
326.6726149236001
  0
INSERT
  5
10E
330
59B
100
AcDbEntity
  8
0
  6
Continuous
 62
     7
100
AcDbBlockReference
  2
SW_CENTERMARKSYMBOL_0
 10
198.3639165434
 20
371.4961071063
 30
0.0
  0
ARC
  5
10F
330
59B
100
AcDbEntity
  8
0
  6
Continuous
 62
     7
100
AcDbCircle
 10
442.0014378729
 20
355.9976945222
 30
0.0
 40
3.49341045151863
100
AcDbArc
 50
247.639824617
 51
265.8750732106
  0
LWPOLYLINE
  5
110
330
59B
100
AcDbEntity
  8
0
  6
Continuous
 62
     7
100
AcDbPolyline
 90
        3
 70
   128
 43
0.0
 10
428.0807327694
 20
371.8469791028
 10
428.0720598243
 20
371.4957455224
 10
428.083097241
 20
371.1444860937
  0
ARC
  5
111
330
59B
100
AcDbEntity
  8
0
  6
Continuous
 62
     7
100
AcDbCircle
 10
423.0538210352
 20
361.4961071063
 30
0.0
 40
6.0
100
AcDbArc
 50
303.537063814
 51
311.4096221093001
  0
ARC
  5
112
330
59B
100
AcDbEntity
  8
0
  6
Continuous
 62
     7
100
AcDbCircle
 10
423.0538210352
 20
381.4961071063
 30
0.0
 40
6.000000000000019
100
AcDbArc
 50
48.5903778907
 51
56.7073833481
  0
ARC
  5
113
330
59B
100
AcDbEntity
  8
0
  6
Continuous
 62
     7
100
AcDbCircle
 10
413.9910749684
 20
361.4961071062
 30
0.0
 40
5.999999999875711
100
AcDbArc
 50
228.5903778903
 51
236.4469111686
  0
ARC
  5
114
330
59B
100
AcDbEntity
  8
0
  6
Continuous
 62
     7
100
AcDbCircle
 10
413.9910749684
 20
381.4961071065
 30
0.0
 40
5.999999999875796
100
AcDbArc
 50
123.2806108536
 51
131.4096221097
  0
LWPOLYLINE
  5
115
330
59B
100
AcDbEntity
  8
0
  6
Continuous
 62
     7
100
AcDbPolyline
 90
        3
 70
   128
 43
0.0
 10
437.8439905184
 20
353.9852049698
 10
439.2862664597
 20
353.3554930736
 10
440.6720819014
 20
352.7680352826
  0
LWPOLYLINE
  5
116
330
59B
100
AcDbEntity
  8
0
  6
Continuous
 62
     7
100
AcDbPolyline
 90
        3
 70
   128
 43
0.0
 10
440.6723808559
 20
394.0492082883
 10
440.0386447149
 20
393.6092980702
 10
439.2752964111
 20
393.074720775
  0
LINE
  5
117
330
59B
100
AcDbEntity
  8
0
  6
Continuous
 62
     7
100
AcDbLine
 10
427.0224480486
 20
360.9961072479
 30
0.0
 11
428.0224479797
 21
360.9961072479
 31
0.0
  0
LINE
  5
118
330
59B
100
AcDbEntity
  8
0
  6
Continuous
 62
     7
100
AcDbLine
 10
428.0224479797
 20
381.9961069648
 30
0.0
 11
427.0224480486
 21
381.9961069648
 31
0.0
  0
LINE
  5
119
330
59B
100
AcDbEntity
  8
0
  6
Continuous
 62
     7
100
AcDbLine
 10
491.8150790098
 20
394.4961071511
 30
0.0
 11
470.9425829413
 21
394.4961071511
 31
0.0
  0
ARC
  5
11A
330
59B
100
AcDbEntity
  8
0
  6
Continuous
 62
     7
100
AcDbCircle
 10
491.8150791046
 20
392.9961071063
 30
0.0
 40
1.5
100
AcDbArc
 50
0.0
 51
90.0
  0
LWPOLYLINE
  5
11B
330
59B
100
AcDbEntity
  8
0
  6
Continuous
 62
     7
100
AcDbPolyline
 90
        8
 70
   128
 43
0.0
 10
493.2984076502
 20
286.9462777425
 10
493.449535227
 20
301.198962753
 10
493.5050942066
 20
315.6692978491
 10
493.5349039795
 20
329.7201764335
 10
493.5530759456
 20
343.3516189952
 10
493.6495386126
 20
360.874503528
 10
493.6545975568
 20
377.6516529296
 10
493.3142475846
 20
392.492549171
  0
LINE
  5
11C
330
59B
100
AcDbEntity
  8
0
  6
Continuous
 62
     7
100
AcDbLine
 10
456.8535089555
 20
392.9961078365
 30
0.0
 11
455.02244868
 21
392.9961078365
 31
0.0
  0
LINE
  5
11D
330
59B
100
AcDbEntity
  8
0
  6
Continuous
 62
     7
100
AcDbLine
 10
455.02244868
 20
349.9961063762
 30
0.0
 11
456.8535089555
 21
349.9961063762
 31
0.0
  0
ARC
  5
11E
330
59B
100
AcDbEntity
  8
0
  6
Continuous
 62
     7
100
AcDbCircle
 10
456.8535087547
 20
359.9961071063
 30
0.0
 40
10.0
100
AcDbArc
 50
270.0
 51
279.0468459803
  0
ARC
  5
11F
330
59B
100
AcDbEntity
  8
0
  6
Continuous
 62
     7
100
AcDbCircle
 10
456.8535087547
 20
382.9961071063
 30
0.0
 40
10.00000000000004
100
AcDbArc
 50
80.9531540197
 51
90.0
  0
ARC
  5
120
330
59B
100
AcDbEntity
  8
0
  6
Continuous
 62
     7
100
AcDbCircle
 10
455.0224479797
 20
371.4961071063
 30
0.0
 40
21.64486082191339
100
AcDbArc
 50
279.0468459803
 51
287.4553079592
  0
ARC
  5
121
330
59B
100
AcDbEntity
  8
0
  6
Continuous
 62
     7
100
AcDbCircle
 10
455.0224479797
 20
371.4961071063
 30
0.0
 40
21.64486082191338
100
AcDbArc
 50
51.8519839392
 51
80.9531540197
  0
LINE
  5
122
330
59B
100
AcDbEntity
  8
0
  6
Continuous
 62
     7
100
AcDbLine
 10
461.7150798502
 20
348.4961070616
 30
0.0
 11
465.9791216316
 21
348.4961070616
 31
0.0
  0
ARC
  5
123
330
59B
100
AcDbEntity
  8
0
  6
Continuous
 62
     7
100
AcDbCircle
 10
461.7150791046
 20
348.6961071063
 30
0.0
 40
0.1999999999999886
100
AcDbArc
 50
180.0
 51
270.0
  0
LINE
  5
124
330
59B
100
AcDbEntity
  8
0
  6
Continuous
 62
     7
100
AcDbLine
 10
415.7911101418
 20
348.4963305791
 30
0.0
 11
420.0314674588
 21
348.4963305791
 31
0.0
  0
LINE
  5
125
330
59B
100
AcDbEntity
  8
0
  6
Continuous
 62
     7
100
AcDbLine
 10
417.0724479543
 20
346.0461065669
 30
0.0
 11
415.8724481302
 21
347.2461063911
 31
0.0
  0
LINE
  5
126
330
59B
100
AcDbEntity
  8
0
  6
Continuous
 62
     7
100
AcDbLine
 10
415.9224480452
 20
338.2461067785
 30
0.0
 11
417.0724479543
 21
339.3961076189
 31
0.0
  0
LINE
  5
127
330
59B
100
AcDbEntity
  8
0
  6
Continuous
 62
     7
100
AcDbLine
 10
417.0724479543
 20
339.3961076189
 30
0.0
 11
417.0724479543
 21
346.0461065669
 31
0.0
  0
LINE
  5
128
330
59B
100
AcDbEntity
  8
0
  6
Continuous
 62
     7
100
AcDbLine
 10
415.8724481302
 20
347.2461063911
 30
0.0
 11
415.8724481302
 21
348.5102948297
 31
0.0
  0
LINE
  5
129
330
59B
100
AcDbEntity
  8
0
  6
Continuous
 62
     7
100
AcDbLine
 10
466.5224477711
 20
348.4974742432
 30
0.0
 11
466.5224477711
 21
348.3461063851
 31
0.0
  0
LINE
  5
12A
330
59B
100
AcDbEntity
  8
0
  6
Continuous
 62
     7
100
AcDbLine
 10
466.5224477711
 20
348.3461063851
 30
0.0
 11
466.7410291793
 21
347.7455597867
 31
0.0
  0
LINE
  5
12B
330
59B
100
AcDbEntity
  8
0
  6
Continuous
 62
     7
100
AcDbLine
 10
474.3038676741
 20
347.7455597867
 30
0.0
 11
474.3900075617
 21
347.9822312047
 31
0.0
  0
ARC
  5
12C
330
59B
100
AcDbEntity
  8
0
  6
Continuous
 62
     7
100
AcDbCircle
 10
474.1159280886
 20
347.8139637651
 30
0.0
 40
0.2000000000000455
100
AcDbArc
 50
270.0
 51
340.0000000000001
  0
ARC
  5
12D
330
59B
100
AcDbEntity
  8
0
  6
Continuous
 62
     7
100
AcDbCircle
 10
466.9289678707
 20
347.8139637651
 30
0.0
 40
0.2000000000000019
100
AcDbArc
 50
200.0
 51
270.0
  0
LINE
  5
12E
330
59B
100
AcDbEntity
  8
0
  6
Continuous
 62
     7
100
AcDbLine
 10
466.9289663496
 20
347.6139639069
 30
0.0
 11
474.1159267785
 21
347.6139639069
 31
0.0
  0
LWPOLYLINE
  5
12F
330
59B
100
AcDbEntity
  8
0
  6
Continuous
 62
     7
100
AcDbPolyline
 90
        3
 70
   128
 43
0.0
 10
474.3715152206
 20
347.9220770796
 10
475.4874073031
 20
347.715412875
 10
477.4791523876
 20
346.9879940648
  0
LWPOLYLINE
  5
130
330
59B
100
AcDbEntity
  8
0
  6
Continuous
 62
     7
100
AcDbPolyline
 90
        3
 70
   128
 43
0.0
 10
488.3862175109
 20
330.511852776
 10
488.3992224994
 20
330.1630873729
 10
488.4039647939
 20
329.899429952
  0
ARC
  5
131
330
59B
100
AcDbEntity
  8
0
  6
Continuous
 62
     7
100
AcDbCircle
 10
471.1277935914
 20
330.9882902232
 30
0.0
 40
17.21374469832764
100
AcDbArc
 50
1.3282057375
 51
67.6362768976
  0
LWPOLYLINE
  5
132
330
59B
100
AcDbEntity
  8
0
  6
Continuous
 62
     7
100
AcDbPolyline
 90
        3
 70
   128
 43
0.0
 10
488.382022834
 20
330.6274299075
 10
488.3861914339
 20
330.6069482614
 10
488.392326987
 20
330.5886645366
  0
LWPOLYLINE
  5
133
330
59B
100
AcDbEntity
  8
0
  6
Continuous
 62
     7
100
AcDbPolyline
 90
        3
 70
   128
 43
0.0
 10
488.2546998622
 20
332.2896022846
 10
488.3352778914
 20
331.4089213063
 10
488.3868508103
 20
330.4957930495
  0
LINE
  5
134
330
59B
100
AcDbEntity
  8
0
  6
Continuous
 62
     7
100
AcDbLine
 10
384.0130642118
 20
336.4961069573
 30
0.0
 11
407.9727623674
 21
336.9143266727
 31
0.0
  0
LINE
  5
135
330
59B
100
AcDbEntity
  8
0
  6
Continuous
 62
     7
100
AcDbLine
 10
407.9727623674
 20
406.07788754
 30
0.0
 11
384.0130642118
 21
406.4961072554
 31
0.0
  0
ARC
  5
136
330
59B
100
AcDbEntity
  8
0
  6
Continuous
 62
     7
100
AcDbCircle
 10
407.9378567923
 20
338.9140205783
 30
0.0
 40
1.999999999999911
100
AcDbArc
 50
271.0
 51
359.3191140165001
  0
ARC
  5
137
330
59B
100
AcDbEntity
  8
0
  6
Continuous
 62
     7
100
AcDbCircle
 10
407.9378567923
 20
404.0781936344
 30
0.0
 40
1.999999999999893
100
AcDbArc
 50
0.6808859835
 51
89.00000000000001
  0
ARC
  5
138
330
59B
100
AcDbEntity
  8
0
  6
Continuous
 62
     7
100
AcDbCircle
 10
-789.9775519982
 20
353.1503607777
 30
0.0
 40
1200.0
100
AcDbArc
 50
359.3191140165001
 51
0.0
  0
ARC
  5
139
330
59B
100
AcDbEntity
  8
0
  6
Continuous
 62
     7
100
AcDbCircle
 10
-789.9775519982
 20
389.841853435
 30
0.0
 40
1200.0
100
AcDbArc
 50
0.0
 51
0.6808859835
  0
LINE
  5
13A
330
59B
100
AcDbEntity
  8
0
  6
Continuous
 62
     7
100
AcDbLine
 10
410.0224487545
 20
353.1503599633
 30
0.0
 11
410.0224487545
 21
389.8418542494
 31
0.0
  0
LINE
  5
13B
330
59B
100
AcDbEntity
  8
0
  6
Continuous
 62
     7
100
AcDbLine
 10
428.0224479797
 20
381.8207268168
 30
0.0
 11
428.0224479797
 21
378.1637490292
 31
0.0
  0
LWPOLYLINE
  5
13C
330
59B
100
AcDbEntity
  8
0
  6
Continuous
 62
     7
100
AcDbPolyline
 90
        3
 70
   128
 43
0.0
 10
438.4142905536
 20
392.4241174509
 10
438.457477844
 20
392.4560096611
 10
440.6725363868
 20
394.038417985
  0
LINE
  5
13D
330
59B
100
AcDbEntity
  8
0
  6
Continuous
 62
     7
100
AcDbLine
 10
455.02244868
 20
353.9961070318
 30
0.0
 11
455.02244868
 21
355.6961078693
 31
0.0
  0
ARC
  5
13E
330
59B
100
AcDbEntity
  8
0
  6
Continuous
 62
     7
100
AcDbCircle
 10
453.5224479797
 20
353.9961071063
 30
0.0
 40
1.5
100
AcDbArc
 50
270.0
 51
0.0
  0
LINE
  5
13F
330
59B
100
AcDbEntity
  8
0
  6
Continuous
 62
     7
100
AcDbLine
 10
455.02244868
 20
391.2961069991
 30
0.0
 11
455.02244868
 21
392.9961078365
 31
0.0
  0
ARC
  5
140
330
59B
100
AcDbEntity
  8
0
  6
Continuous
 62
     7
100
AcDbCircle
 10
453.5224479797
 20
392.9961071063
 30
0.0
 40
1.500000000000057
100
AcDbArc
 50
0.0000000001
 51
90.0
  0
LINE
  5
141
330
59B
100
AcDbEntity
  8
0
  6
Continuous
 62
     7
100
AcDbLine
 10
440.6724479111
 20
352.7688976873
 30
0.0
 11
440.6724479111
 21
352.7668990691
 31
0.0
  0
LINE
  5
142
330
59B
100
AcDbEntity
  8
0
  6
Continuous
 62
     7
100
AcDbLine
 10
440.6724479111
 20
394.0491077055
 30
0.0
 11
440.6724479111
 21
394.0384030838
 31
0.0
  0
LINE
  5
143
330
59B
100
AcDbEntity
  8
0
  6
Continuous
 62
     7
100
AcDbLine
 10
442.1224482419
 20
352.4961077173
 30
0.0
 11
453.5224475028
 21
352.4961077173
 31
0.0
  0
LINE
  5
144
330
59B
100
AcDbEntity
  8
0
  6
Continuous
 62
     7
100
AcDbLine
 10
453.5224475028
 20
394.4961071511
 30
0.0
 11
442.1224482419
 21
394.4961071511
 31
0.0
  0
LINE
  5
145
330
59B
100
AcDbEntity
  8
0
  6
Continuous
 62
     7
100
AcDbLine
 10
455.02244868
 20
371.1495383731
 30
0.0
 11
455.02244868
 21
371.4961071063
 31
0.0
  0
LINE
  5
146
330
59B
100
AcDbEntity
  8
0
  6
Continuous
 62
     7
100
AcDbLine
 10
455.02244868
 20
371.8426758396
 30
0.0
 11
455.02244868
 21
391.2961069991
 31
0.0
  0
LINE
  5
147
330
59B
100
AcDbEntity
  8
0
  6
Continuous
 62
     7
100
AcDbLine
 10
455.02244868
 20
355.6961078693
 30
0.0
 11
455.02244868
 21
371.1495383731
 31
0.0
  0
LINE
  5
148
330
59B
100
AcDbEntity
  8
0
  6
Continuous
 62
     7
100
AcDbLine
 10
455.02244868
 20
371.4961071063
 30
0.0
 11
455.02244868
 21
371.8426758396
 31
0.0
  0
LINE
  5
149
330
59B
100
AcDbEntity
  8
0
  6
Continuous
 62
     7
100
AcDbLine
 10
428.0224479797
 20
371.1495383731
 30
0.0
 11
428.0224479797
 21
365.5632512209
 31
0.0
  0
LINE
  5
14A
330
59B
100
AcDbEntity
  8
0
  6
Continuous
 62
     7
100
AcDbLine
 10
428.0224479797
 20
378.1637490292
 30
0.0
 11
428.0224479797
 21
371.8426758396
 31
0.0
  0
LINE
  5
14B
330
59B
100
AcDbEntity
  8
0
  6
Continuous
 62
     7
100
AcDbLine
 10
428.0224479797
 20
365.5632512209
 30
0.0
 11
428.0224479797
 21
361.7968034495
 31
0.0
  0
LWPOLYLINE
  5
14C
330
59B
100
AcDbEntity
  8
0
  6
Continuous
 62
     7
100
AcDbPolyline
 90
       12
 70
   128
 43
0.0
 10
423.0538210893
 20
368.8179325808
 10
423.7900856013
 20
368.7038942271
 10
424.4439625243
 20
368.3951633547
 10
425.2309748033
 20
367.6786289115
 10
425.9930676842
 20
366.2834620599
 10
426.3678087216
 20
363.7977667649
 10
426.2150141938
 20
362.4884501596
 10
425.7954105331
 20
361.2270044659
 10
425.1805222655
 20
360.2524992575
 10
424.2432981326
 20
359.4791876648
 10
423.5376878703
 20
359.2231344928
 10
423.0538210893
 20
359.1742819671
  0
LINE
  5
14D
330
59B
100
AcDbEntity
  8
0
  6
Continuous
 62
     7
100
AcDbLine
 10
423.0538210893
 20
359.1742819671
 30
0.0
 11
413.9910750153
 21
359.1742819671
 31
0.0
  0
LWPOLYLINE
  5
14E
330
59B
100
AcDbEntity
  8
0
  6
Continuous
 62
     7
100
AcDbPolyline
 90
       12
 70
   128
 43
0.0
 10
413.9910750153
 20
359.1742819671
 10
413.2548105033
 20
359.2883196224
 10
412.6009335803
 20
359.5970511933
 10
411.81392037
 20
360.3135856365
 10
411.0518284204
 20
361.708752488
 10
410.6770865681
 20
364.1944473174
 10
410.8298812123
 20
365.5037643884
 10
411.249484873
 20
366.7652100821
 10
411.8643738391
 20
367.739714592
 10
412.8015982049
 20
368.5130266503
 10
413.5072082343
 20
368.7690798224
 10
413.9910750153
 20
368.8179325808
  0
LINE
  5
14F
330
59B
100
AcDbEntity
  8
0
  6
Continuous
 62
     7
100
AcDbLine
 10
413.9910750153
 20
368.8179325808
 30
0.0
 11
423.0538210893
 21
368.8179325808
 31
0.0
  0
LWPOLYLINE
  5
150
330
59B
100
AcDbEntity
  8
0
  6
Continuous
 62
     7
100
AcDbPolyline
 90
       12
 70
   128
 43
0.0
 10
423.0538210893
 20
383.8179322456
 10
423.7900856013
 20
383.7038945903
 10
424.4439625243
 20
383.3951630194
 10
425.2309748033
 20
382.6786285762
 10
425.9930676842
 20
381.2834617247
 10
426.3678087216
 20
378.7977668953
 10
426.2150141938
 20
377.4884498243
 10
425.7954105331
 20
376.2270041306
 10
425.1805222655
 20
375.2524996207
 10
424.2432981326
 20
374.4791875624
 10
423.5376878703
 20
374.2231343903
 10
423.0538210893
 20
374.1742816318
  0
LINE
  5
151
330
59B
100
AcDbEntity
  8
0
  6
Continuous
 62
     7
100
AcDbLine
 10
423.0538210893
 20
374.1742816318
 30
0.0
 11
413.9910750153
 21
374.1742816318
 31
0.0
  0
LWPOLYLINE
  5
152
330
59B
100
AcDbEntity
  8
0
  6
Continuous
 62
     7
100
AcDbPolyline
 90
       12
 70
   128
 43
0.0
 10
413.9910750153
 20
374.1742816318
 10
413.2548105033
 20
374.2883199856
 10
412.6009335803
 20
374.597050858
 10
411.81392037
 20
375.3135853012
 10
411.0518284204
 20
376.7087521528
 10
410.6770865681
 20
379.1944474478
 10
410.8298812123
 20
380.5037640531
 10
411.249484873
 20
381.7652097468
 10
411.8643738391
 20
382.7397149552
 10
412.8015982049
 20
383.5130265479
 10
413.5072082343
 20
383.7690797199
 10
413.9910750153
 20
383.8179322456
  0
LINE
  5
153
330
59B
100
AcDbEntity
  8
0
  6
Continuous
 62
     7
100
AcDbLine
 10
413.9910750153
 20
383.8179322456
 30
0.0
 11
423.0538210893
 21
383.8179322456
 31
0.0
  0
LINE
  5
154
330
59B
100
AcDbEntity
  8
0
  6
Continuous
 62
     7
100
AcDbLine
 10
427.0224480486
 20
356.9961075236
 30
0.0
 11
427.0224480486
 21
385.9961066891
 31
0.0
  0
LINE
  5
155
330
59B
100
AcDbEntity
  8
0
  6
Continuous
 62
     7
100
AcDbLine
 10
423.0538210893
 20
386.4961067711
 30
0.0
 11
426.3678087216
 21
386.4961067711
 31
0.0
  0
LINE
  5
156
330
59B
100
AcDbEntity
  8
0
  6
Continuous
 62
     7
100
AcDbLine
 10
423.0538210893
 20
356.4961074416
 30
0.0
 11
426.3704458779
 21
356.4961074416
 31
0.0
  0
LINE
  5
157
330
59B
100
AcDbEntity
  8
0
  6
Continuous
 62
     7
100
AcDbLine
 10
410.6744509252
 20
356.4961074416
 30
0.0
 11
413.9910750153
 21
356.4961074416
 31
0.0
  0
LINE
  5
158
330
59B
100
AcDbEntity
  8
0
  6
Continuous
 62
     7
100
AcDbLine
 10
413.9910750153
 20
386.4961067711
 30
0.0
 11
410.7079319718
 21
386.4961067711
 31
0.0
  0
LWPOLYLINE
  5
159
330
59B
100
AcDbEntity
  8
0
  6
Continuous
 62
     7
100
AcDbPolyline
 90
        9
 70
   128
 43
0.0
 10
428.0224479797
 20
360.4104273517
 10
428.0744011037
 20
360.0979751472
 10
428.2302604759
 20
359.7612293933
 10
428.8536979646
 20
359.0148618941
 10
429.8927604748
 20
358.1713257854
 10
431.3474479193
 20
357.2306201358
 10
433.7882101598
 20
355.8988037084
 10
436.8965430247
 20
354.4109143813
 10
437.9486534806
 20
353.9528452356
  0
LINE
  5
15A
330
59B
100
AcDbEntity
  8
0
  6
Continuous
 62
     7
100
AcDbLine
 10
428.0224479797
 20
361.7968034495
 30
0.0
 11
428.0224479797
 21
360.4104273517
 31
0.0
  0
LINE
  5
15B
330
59B
100
AcDbEntity
  8
0
  6
Continuous
 62
     7
100
AcDbLine
 10
428.0224479797
 20
382.581786861
 30
0.0
 11
428.0224479797
 21
381.8207268168
 31
0.0
  0
LWPOLYLINE
  5
15C
330
59B
100
AcDbEntity
  8
0
  6
Continuous
 62
     7
100
AcDbPolyline
 90
        9
 70
   128
 43
0.0
 10
439.2837230178
 20
393.0628873904
 10
436.8965430247
 20
391.3681410749
 10
433.7882101598
 20
389.0047684808
 10
431.3474479193
 20
386.9586714108
 10
429.8927604748
 20
385.5681481336
 10
428.8536979646
 20
384.3751602371
 10
428.2302604759
 20
383.3797058587
 10
428.0744011037
 20
382.9560546701
 10
428.0224479797
 20
382.581786861
  0
LINE
  5
15D
330
59B
100
AcDbEntity
  8
0
  6
Continuous
 62
     7
100
AcDbLine
 10
423.0538210893
 20
386.4961067711
 30
0.0
 11
413.9910750153
 21
386.4961067711
 31
0.0
  0
LINE
  5
15E
330
59B
100
AcDbEntity
  8
0
  6
Continuous
 62
     7
100
AcDbLine
 10
413.9910750153
 20
356.4961074416
 30
0.0
 11
423.0538210893
 21
356.4961074416
 31
0.0
  0
LINE
  5
15F
330
59B
100
AcDbEntity
  8
0
  6
Continuous
 62
     7
100
AcDbLine
 10
455.02244868
 20
351.036714067
 30
0.0
 11
455.02244868
 21
353.9961070318
 31
0.0
  0
ARC
  5
160
330
59B
100
AcDbEntity
  8
0
  6
Continuous
 62
     7
100
AcDbCircle
 10
480.1570511977
 20
367.8724810529
 30
0.0
 40
18.643839961576
100
AcDbArc
 50
157.1887545226
 51
180.8112838987
  0
LINE
  5
161
330
59B
100
AcDbEntity
  8
0
  6
Continuous
 62
     7
100
AcDbLine
 10
493.3142475846
 20
392.8756393988
 30
0.0
 11
493.3142475846
 21
364.4663255227
 31
0.0
  0
LWPOLYLINE
  5
162
330
59B
100
AcDbEntity
  8
0
  6
Continuous
 62
     7
100
AcDbPolyline
 90
       15
 70
   128
 43
0.0
 10
462.9714004757
 20
375.1006328066
 10
463.9518372776
 20
377.5272976172
 10
464.9037756088
 20
379.8834287126
 10
465.815946466
 20
382.1411259968
 10
466.6775427821
 20
384.273653527
 10
467.4783647122
 20
386.2557575603
 10
468.2089276674
 20
388.063966905
 10
468.8605852487
 20
389.6768685926
 10
469.4256112041
 20
391.0753649224
 10
469.8973223629
 20
392.2428913911
 10
470.2701307895
 20
393.1656253089
 10
470.539622015
 20
393.8326366742
 10
470.7026034655
 20
394.2360315968
 10
470.7571454408
 20
394.3710286666
 10
470.7571454408
 20
394.3710286666
  0
LINE
  5
163
330
59B
100
AcDbEntity
  8
0
  6
Continuous
 62
     7
100
AcDbLine
 10
461.5150801899
 20
367.6085010201
 30
0.0
 11
461.5150801899
 21
357.6178463672
 31
0.0
  0
LWPOLYLINE
  5
164
330
59B
100
AcDbEntity
  8
0
  6
Continuous
 62
     7
100
AcDbPolyline
 90
        6
 70
   128
 43
0.0
 10
493.3140762212
 20
364.4663255227
 10
493.314150727
 20
359.5519463096
 10
493.3142699363
 20
354.5686655243
 10
493.3143220904
 20
349.444364806
 10
493.314150727
 20
341.7256210495
 10
493.3143593433
 20
334.0127241363
  0
LINE
  5
165
330
59B
100
AcDbEntity
  8
0
  6
Continuous
 62
     7
100
AcDbLine
 10
455.02244868
 20
349.9961063762
 30
0.0
 11
455.02244868
 21
350.9193394829
 31
0.0
  0
LINE
  5
166
330
59B
100
AcDbEntity
  8
0
  6
Continuous
 62
     7
100
AcDbLine
 10
434.721963952
 20
348.4961070616
 30
0.0
 11
419.8724478545
 21
348.4961070616
 31
0.0
  0
LINE
  5
167
330
59B
100
AcDbEntity
  8
0
  6
Continuous
 62
     7
100
AcDbLine
 10
434.721963952
 20
394.4961071511
 30
0.0
 11
410.0134223761
 21
394.4961071511
 31
0.0
  0
LWPOLYLINE
  5
168
330
59B
100
AcDbEntity
  8
0
  6
Continuous
 62
     7
100
AcDbPolyline
 90
        3
 70
   128
 43
0.0
 10
468.0614732268
 20
348.713297074
 10
468.3237373891
 20
348.7401340653
 10
469.455830759
 20
348.8215037186
  0
ARC
  5
169
330
59B
100
AcDbEntity
  8
0
  6
Continuous
 62
     7
100
AcDbCircle
 10
470.0410953348
 20
336.9197472628
 30
0.0
 40
11.91569434412549
100
AcDbArc
 50
77.80504286679998
 51
92.8236400617
  0
LINE
  5
16A
330
59B
100
AcDbEntity
  8
0
  6
Continuous
 62
     7
100
AcDbLine
 10
461.5150801899
 20
348.6961067219
 30
0.0
 11
461.5150801899
 21
357.6178463672
 31
0.0
  0
LINE
  5
16B
330
59B
100
AcDbEntity
  8
0
  6
Continuous
 62
     7
100
AcDbLine
 10
488.4135685923
 20
328.6837857713
 30
0.0
 11
488.3817285361
 21
333.2440402855
 31
0.0
  0
LINE
  5
16C
330
59B
100
AcDbEntity
  8
0
  6
Continuous
 62
     7
100
AcDbLine
 10
488.6963479283
 20
288.1793488313
 30
0.0
 11
488.4135685923
 21
328.6837857713
 31
0.0
  0
ARC
  5
16D
330
59B
100
AcDbEntity
  8
0
  6
Continuous
 62
     7
100
AcDbCircle
 10
490.2046435137
 20
286.9961071063
 30
0.0
 40
1.50000000000004
100
AcDbArc
 50
180.4
 51
270.0
  0
LWPOLYLINE
  5
16E
330
59B
100
AcDbEntity
  8
0
  6
Continuous
 62
     7
100
AcDbPolyline
 90
        8
 70
   128
 43
0.0
 10
488.7046814027
 20
286.9856317092
 10
488.7045323911
 20
287.0069999744
 10
488.7041188838
 20
287.0658297588
 10
488.7038022342
 20
287.1112633993
 10
488.7036122444
 20
287.1385995795
 10
488.7033291223
 20
287.1793691565
 10
488.7019172373
 20
287.3812426378
 10
488.6963479283
 20
288.1793488313
  0
LINE
  5
16F
330
59B
100
AcDbEntity
  8
0
  6
Continuous
 62
     7
100
AcDbLine
 10
491.8150790098
 20
285.4961041857
 30
0.0
 11
490.2046434643
 21
285.4961041857
 31
0.0
  0
ARC
  5
170
330
59B
100
AcDbEntity
  8
0
  6
Continuous
 62
     7
100
AcDbCircle
 10
491.8150791046
 20
286.9961071063
 30
0.0
 40
1.5
100
AcDbArc
 50
270.0
 51
358.0897868283
  0
LWPOLYLINE
  5
171
330
59B
100
AcDbEntity
  8
0
  6
Continuous
 62
     7
100
AcDbPolyline
 90
        3
 70
   128
 43
0.0
 10
415.1857262539
 20
348.7461839367
 10
415.8487515586
 20
348.4875426192
 10
415.7909769627
 20
348.5105239351
  0
LWPOLYLINE
  5
172
330
59B
100
AcDbEntity
  8
0
  6
Continuous
 62
     7
100
AcDbPolyline
 90
        9
 70
   128
 43
0.0
 10
414.3929435002
 20
349.2461067189
 10
414.3512547078
 20
349.2440615345
 10
414.3196176799
 20
349.2396042247
 10
414.2954358893
 20
349.2326621462
 10
414.2773859265
 20
349.2216930289
 10
414.26992417
 20
349.2010493328
 10
414.3260223853
 20
349.1359871377
 10
414.8354530396
 20
348.8841910411
 10
415.1857262539
 20
348.7461839367
  0
LINE
  5
173
330
59B
100
AcDbEntity
  8
0
  6
Continuous
 62
     7
100
AcDbLine
 10
416.8588565724
 20
349.2829144497
 30
0.0
 11
414.3929435002
 21
349.2461067189
 31
0.0
  0
ARC
  5
174
330
59B
100
AcDbEntity
  8
0
  6
Continuous
 62
     7
100
AcDbCircle
 10
405.7752663872
 20
326.6502452014
 30
0.0
 40
25.20086682437016
100
AcDbArc
 50
63.90824870779999
 51
80.3434767565
  0
LINE
  5
175
330
59B
100
AcDbEntity
  8
0
  6
Continuous
 62
     7
100
AcDbLine
 10
416.8588565724
 20
349.2829144497
 30
0.0
 11
410.0162163439
 21
349.2829144497
 31
0.0
  0
LINE
  5
176
330
59B
100
AcDbEntity
  8
0
  6
Continuous
 62
     7
100
AcDbLine
 10
414.3929435002
 20
349.2461067189
 30
0.0
 11
410.0160971346
 21
349.2461067189
 31
0.0
  0
LINE
  5
177
330
59B
100
AcDbEntity
  8
0
  6
Continuous
 62
     7
100
AcDbLine
 10
415.8724481302
 20
347.2461063911
 30
0.0
 11
410.007921985
 21
347.2461063911
 31
0.0
  0
LINE
  5
178
330
59B
100
AcDbEntity
  8
0
  6
Continuous
 62
     7
100
AcDbLine
 10
417.0724479543
 20
346.0461065669
 30
0.0
 11
411.1441597404
 21
346.0461065669
 31
0.0
  0
LINE
  5
179
330
59B
100
AcDbEntity
  8
0
  6
Continuous
 62
     7
100
AcDbLine
 10
411.1441597404
 20
346.0461065669
 30
0.0
 11
409.9240470739
 21
346.4541767289
 31
0.0
  0
LINE
  5
17A
330
59B
100
AcDbEntity
  8
0
  6
Continuous
 62
     7
100
AcDbLine
 10
415.9224480452
 20
338.2461067785
 30
0.0
 11
409.8230339649
 21
338.2461067785
 31
0.0
  0
LINE
  5
17B
330
59B
100
AcDbEntity
  8
0
  6
Continuous
 62
     7
100
AcDbLine
 10
417.0724479543
 20
339.3961076189
 30
0.0
 11
411.1441597404
 21
339.3961076189
 31
0.0
  0
LINE
  5
17C
330
59B
100
AcDbEntity
  8
0
  6
Continuous
 62
     7
100
AcDbLine
 10
409.8070301177
 20
338.9363881697
 30
0.0
 11
411.1441597404
 21
339.3961076189
 31
0.0
  0
LINE
  5
17D
330
59B
100
AcDbEntity
  8
0
  6
Continuous
 62
     7
100
AcDbLine
 10
411.1441597404
 20
339.3961076189
 30
0.0
 11
411.1441597404
 21
346.0461065669
 31
0.0
  0
LINE
  5
17E
330
59B
100
AcDbEntity
  8
0
  6
Continuous
 62
     7
100
AcDbLine
 10
453.5224475028
 20
348.4961070616
 30
0.0
 11
434.721963952
 21
348.4961070616
 31
0.0
  0
ARC
  5
17F
330
59B
100
AcDbEntity
  8
0
  6
Continuous
 62
     7
100
AcDbCircle
 10
453.5224479797
 20
349.9961071063
 30
0.0
 40
1.500000000000227
100
AcDbArc
 50
270.0
 51
0.0
  0
ARC
  5
180
330
59B
100
AcDbEntity
  8
0
  6
Continuous
 62
     7
100
AcDbCircle
 10
470.5043727241
 20
325.6868705668
 30
0.0
 40
23.15554720609397
100
AcDbArc
 50
96.05708790329999
 51
99.90204097419999
  0
LINE
  5
181
330
59B
100
AcDbEntity
  8
0
  6
Continuous
 62
     7
100
AcDbLine
 10
473.4136611285
 20
348.3461063851
 30
0.0
 11
472.5585170152
 21
348.5665746529
 31
0.0
  0
LINE
  5
182
330
59B
100
AcDbEntity
  8
0
  6
Continuous
 62
     7
100
AcDbLine
 10
466.5224477711
 20
348.3461063851
 30
0.0
 11
473.4136611285
 21
348.3461063851
 31
0.0
  0
ARC
  5
183
330
59B
100
AcDbEntity
  8
0
  6
Continuous
 62
     7
100
AcDbCircle
 10
469.995932567
 20
337.696356914
 30
0.0
 40
11.18472316676356
100
AcDbArc
 50
66.9063301828
 51
72.20747190579999
  0
LINE
  5
184
330
59B
100
AcDbEntity
  8
0
  6
Continuous
 62
     7
100
AcDbLine
 10
477.7650795939
 20
346.9333999355
 30
0.0
 11
478.1989604297
 21
346.7089474697
 31
0.0
  0
LINE
  5
185
330
59B
100
AcDbEntity
  8
0
  6
Continuous
 62
     7
100
AcDbLine
 10
488.0952090087
 20
333.1965204824
 30
0.0
 11
488.2857836845
 21
331.6251967598
 31
0.0
  0
LINE
  5
186
330
59B
100
AcDbEntity
  8
0
  6
Continuous
 62
     7
100
AcDbLine
 10
465.9788347843
 20
348.4962020565
 30
0.0
 11
466.5224477711
 21
348.4974742432
 31
0.0
  0
LINE
  5
187
330
59B
100
AcDbEntity
  8
0
  6
Continuous
 62
     7
100
AcDbLine
 10
442.1224482419
 20
394.4961071511
 30
0.0
 11
434.721963952
 21
394.4961071511
 31
0.0
  0
LINE
  5
188
330
59B
100
AcDbEntity
  8
0
  6
Continuous
 62
     7
100
AcDbLine
 10
384.0130642118
 20
336.4961069573
 30
0.0
 11
384.0130642118
 21
406.4961072554
 31
0.0
  0
LWPOLYLINE
  5
189
330
59B
100
AcDbEntity
  8
0
  6
Continuous
 62
     8
100
AcDbPolyline
 90
       11
 70
   128
 43
0.0
 10
428.0224479797
 20
381.8207268168
 10
428.0814377114
 20
382.4015796681
 10
428.24732833
 20
382.9585571338
 10
428.8171172437
 20
384.0190634628
 10
429.4633403249
 20
384.873147731
 10
430.355897878
 20
385.8545363445
 10
431.4661889864
 20
386.9256802399
 10
432.6867074767
 20
387.9998267193
 10
433.9435631471
 20
389.0369754781
 10
436.1357688966
 20
390.741550972
 10
438.4142905536
 20
392.4241174509
  0
LINE
  5
18A
330
59B
100
AcDbEntity
  8
0
  6
Continuous
 62
     8
100
AcDbLine
 10
440.6724479111
 20
352.8077580531
 30
0.0
 11
440.6724479111
 21
352.7688976873
 31
0.0
  0
LINE
  5
18B
330
59B
100
AcDbEntity
  8
0
  6
Continuous
 62
     8
100
AcDbLine
 10
423.0538210893
 20
383.8179322456
 30
0.0
 11
423.0538210893
 21
386.4961067711
 31
0.0
  0
LINE
  5
18C
330
59B
100
AcDbEntity
  8
0
  6
Continuous
 62
     8
100
AcDbLine
 10
423.0538210893
 20
356.4961074416
 30
0.0
 11
423.0538210893
 21
359.1742819671
 31
0.0
  0
LINE
  5
18D
330
59B
100
AcDbEntity
  8
0
  6
Continuous
 62
     8
100
AcDbLine
 10
423.0538210893
 20
368.8179325808
 30
0.0
 11
423.0538210893
 21
374.1742816318
 31
0.0
  0
LINE
  5
18E
330
59B
100
AcDbEntity
  8
0
  6
Continuous
 62
     8
100
AcDbLine
 10
413.9910750153
 20
368.8179325808
 30
0.0
 11
413.9910750153
 21
374.1742816318
 31
0.0
  0
LINE
  5
18F
330
59B
100
AcDbEntity
  8
0
  6
Continuous
 62
     8
100
AcDbLine
 10
413.9910750153
 20
356.4961074416
 30
0.0
 11
413.9910750153
 21
359.1742819671
 31
0.0
  0
LINE
  5
190
330
59B
100
AcDbEntity
  8
0
  6
Continuous
 62
     8
100
AcDbLine
 10
413.9910750153
 20
383.8179322456
 30
0.0
 11
413.9910750153
 21
386.4961067711
 31
0.0
  0
ARC
  5
191
330
59B
100
AcDbEntity
  8
0
  6
Continuous
 62
     8
100
AcDbCircle
 10
424.1936231318
 20
250.6059737262
 30
0.0
 40
109.8711702391219
100
AcDbArc
 50
88.002934438
 51
88.5246571901
  0
ARC
  5
192
330
59B
100
AcDbEntity
  8
0
  6
Continuous
 62
     8
100
AcDbCircle
 10
423.8731102076
 20
260.389683991
 30
0.0
 40
122.2625340623236
100
AcDbArc
 50
88.0551261675
 51
88.5239654285
  0
LWPOLYLINE
  5
193
330
59B
100
AcDbEntity
  8
0
  6
Continuous
 62
     8
100
AcDbPolyline
 90
        9
 70
   128
 43
0.0
 10
410.0224487545
 20
389.0310932447
 10
410.0303351941
 20
389.0386928369
 10
412.2087303611
 20
390.4996958126
 10
414.5975187483
 20
391.6935712595
 10
417.196701287
 20
392.6394988348
 10
421.2804497281
 20
393.5997389753
 10
425.5799299633
 20
394.1404853512
 10
430.2293688586
 20
394.4006111969
 10
434.9060361335
 20
394.4830202062
  0
ARC
  5
194
330
59B
100
AcDbEntity
  8
0
  6
Continuous
 62
     8
100
AcDbCircle
 10
441.0364821306
 20
437.3814222429
 30
0.0
 40
43.33422741235854
100
AcDbArc
 50
261.8671452386
 51
269.2784202729
  0
LWPOLYLINE
  5
195
330
59B
100
AcDbEntity
  8
0
  6
Continuous
 62
     8
100
AcDbPolyline
 90
        3
 70
   128
 43
0.0
 10
434.9060361335
 20
394.4830202062
 10
438.5218937012
 20
394.4952894498
 10
442.1224482419
 20
394.4961071511
  0
ARC
  5
196
330
59B
100
AcDbEntity
  8
0
  6
Continuous
 62
     8
100
AcDbCircle
 10
492.1731664665
 20
351.5836774934
 30
0.0
 40
17.6079660380443
100
AcDbArc
 50
268.834714105
 51
273.7156466822
  0
LWPOLYLINE
  5
197
330
59B
100
AcDbEntity
  8
0
  6
Continuous
 62
     8
100
AcDbPolyline
 90
        6
 70
   128
 43
0.0
 10
488.381944603
 20
333.2441222419
 10
488.4896315696
 20
333.5105252017
 10
488.7802638175
 20
333.7359425177
 10
489.2365038457
 20
333.905286764
 10
489.5304180744
 20
333.9583348979
 10
489.8765645983
 20
333.979420041
  0
LWPOLYLINE
  5
198
330
59B
100
AcDbEntity
  8
0
  6
Continuous
 62
     8
100
AcDbPolyline
 90
        9
 70
   128
 43
0.0
 10
493.3145903113
 20
288.1895635773
 10
493.3149628403
 20
287.638205712
 10
493.314612663
 20
287.3654325057
 10
493.3139868142
 20
287.2331847002
 10
493.3135919335
 20
287.1700708319
 10
493.313316262
 20
287.1128876258
 10
493.31354723
 20
287.0737050225
 10
493.3150075438
 20
286.9626466681
 10
493.3144934537
 20
286.9461063792
  0
LINE
  5
199
330
59B
100
AcDbEntity
  8
0
  6
Continuous
 62
     8
100
AcDbLine
 10
493.3142475846
 20
328.693996792
 30
0.0
 11
493.3142475846
 21
288.1895635773
 31
0.0
  0
LWPOLYLINE
  5
19A
330
59B
100
AcDbEntity
  8
0
  6
Continuous
 62
     8
100
AcDbPolyline
 90
        3
 70
   128
 43
0.0
 10
493.3143593433
 20
334.0127241363
 10
493.3141209247
 20
331.3535001625
 10
493.3140017154
 20
328.693996792
  0
LINE
  5
19B
330
59B
100
AcDbEntity
  8
0
  6
Continuous
 62
     8
100
AcDbLine
 10
491.8150790098
 20
333.9793529858
 30
0.0
 11
489.876393235
 21
333.9793529858
 31
0.0
  0
ARC
  5
19C
330
59B
100
AcDbEntity
  8
0
  6
Continuous
 62
     8
100
AcDbCircle
 10
403.3250145796
 20
320.7837034513
 30
0.0
 40
32.27684714847815
100
AcDbArc
 50
59.1580303893
 51
78.0359040568
  0
LINE
  5
19D
330
59B
100
AcDbEntity
  8
0
  6
Continuous
 62
     8
100
AcDbLine
 10
434.721963952
 20
394.4961071511
 30
0.0
 11
434.9060361335
 21
394.4830202062
 31
0.0
  0
ARC
  5
19E
330
59B
100
AcDbEntity
  8
0
  6
Continuous
 62
     8
100
AcDbCircle
 10
469.4622936542
 20
325.1916553395
 30
0.0
 40
23.56331804755661
100
AcDbArc
 50
93.4088330688
 51
98.5007175538
  0
LINE
  5
19F
330
59B
100
AcDbEntity
  8
0
  6
Continuous
 62
     8
100
AcDbLine
 10
415.1857262539
 20
348.7461839367
 30
0.0
 11
410.0143667372
 21
348.7461839367
 31
0.0
  0
LINE
  5
1A0
330
59B
100
AcDbEntity
  8
0
  6
Continuous
 62
     8
100
AcDbLine
 10
407.9727623674
 20
336.9143266727
 30
0.0
 11
407.9727623674
 21
406.07788754
 31
0.0
  0
LINE
  5
1A1
330
59B
100
AcDbEntity
  8
0
  6
Continuous
 62
     8
100
AcDbLine
 10
409.937715164
 20
338.8902541746
 30
0.0
 11
409.937715164
 21
404.1019600381
 31
0.0
  0
LINE
  5
1A2
330
59B
100
AcDbEntity
  8
0
  6
Continuous
 62
     7
100
AcDbLine
 10
441.4081761802
 20
394.5445493265
 30
0.0
 11
439.4404269196
 21
393.1910331105
 31
0.0
  0
LINE
  5
1A3
330
59B
100
AcDbEntity
  8
0
  6
CENTERX2
 62
     7
100
AcDbLine
 10
381.0609731928
 20
371.4961071063
 30
0.0
 11
496.4953487807
 21
371.4961071063
 31
0.0
  0
LINE
  5
1A4
330
59B
100
AcDbEntity
  8
0
  6
Continuous
 62
     7
100
AcDbLine
 10
238.3639156494
 20
229.2487157356
 30
0.0
 11
238.7821353647
 21
205.2890175801
 31
0.0
  0
LINE
  5
1A5
330
59B
100
AcDbEntity
  8
0
  6
Continuous
 62
     7
100
AcDbLine
 10
307.9456999573
 20
205.2890175801
 30
0.0
 11
308.3639159474
 21
229.2487157356
 31
0.0
  0
ARC
  5
1A6
330
59B
100
AcDbEntity
  8
0
  6
Continuous
 62
     7
100
AcDbCircle
 10
240.7818300154
 20
205.3239231551
 30
0.0
 40
1.999999999999865
100
AcDbArc
 50
181.0
 51
269.3191140165
  0
ARC
  5
1A7
330
59B
100
AcDbEntity
  8
0
  6
Continuous
 62
     7
100
AcDbCircle
 10
305.9460030715
 20
205.3239231551
 30
0.0
 40
1.999999999999912
100
AcDbArc
 50
270.6808859835
 51
358.9999999999999
  0
ARC
  5
1A8
330
59B
100
AcDbEntity
  8
0
  6
Continuous
 62
     7
100
AcDbCircle
 10
255.0181702148
 20
1403.2393319456
 30
0.0
 40
1200.0
100
AcDbArc
 50
269.3191140165
 51
270.0
  0
ARC
  5
1A9
330
59B
100
AcDbEntity
  8
0
  6
Continuous
 62
     7
100
AcDbCircle
 10
291.7096628721
 20
1403.2393319456
 30
0.0
 40
1200.0
100
AcDbArc
 50
270.0
 51
270.6808859835
  0
LINE
  5
1AA
330
59B
100
AcDbEntity
  8
0
  6
Continuous
 62
     7
100
AcDbLine
 10
255.0181686554
 20
203.2393311929
 30
0.0
 11
291.7096629414
 21
203.2393311929
 31
0.0
  0
ARC
  5
1AB
330
59B
100
AcDbEntity
  8
0
  6
Continuous
 62
     7
100
AcDbCircle
 10
277.8061493954
 20
-202.3959975179
 30
0.0
 40
387.63129945682
100
AcDbArc
 50
89.2254464257
 51
89.84682523859999
  0
LINE
  5
1AC
330
59B
100
AcDbEntity
  8
0
  6
Continuous
 62
     7
100
AcDbLine
 10
291.7511403236
 20
172.5986890342
 30
0.0
 11
291.3189544949
 21
173.4606560167
 31
0.0
  0
LINE
  5
1AD
330
59B
100
AcDbEntity
  8
0
  6
Continuous
 62
     7
100
AcDbLine
 10
105.408878592
 20
173.4606560167
 30
0.0
 11
104.9766927633
 21
172.5986890342
 31
0.0
  0
LWPOLYLINE
  5
1AE
330
59B
100
AcDbEntity
  8
0
  6
Continuous
 62
     7
100
AcDbPolyline
 90
        6
 70
   128
 43
0.0
 10
118.3000147018
 20
185.2366356486
 10
118.101046947
 20
185.2392549589
 10
117.4719050202
 20
185.2342450866
 10
116.1797806296
 20
185.2221505979
 10
114.8382365379
 20
185.2159562059
 10
113.7016206655
 20
185.2007963025
  0
LWPOLYLINE
  5
1AF
330
59B
100
AcDbEntity
  8
0
  6
Continuous
 62
     7
100
AcDbPolyline
 90
        3
 70
   128
 43
0.0
 10
292.0789956722
 20
171.1393317055
 10
292.0149653825
 20
171.8785876256
 10
291.8113037619
 20
172.5893320363
  0
LWPOLYLINE
  5
1B0
330
59B
100
AcDbEntity
  8
0
  6
Continuous
 62
     7
100
AcDbPolyline
 90
        3
 70
   128
 43
0.0
 10
104.916529325
 20
172.5893320363
 10
104.7128677044
 20
171.8785876256
 10
104.6488374147
 20
171.1393317055
  0
ARC
  5
1B1
330
59B
100
AcDbEntity
  8
0
  6
Continuous
 62
     7
100
AcDbCircle
 10
219.7639165434
 20
221.0393319678
 30
0.0
 40
1.599999999999994
100
AcDbArc
 50
0.0
 51
90.0
  0
ARC
  5
1B2
330
59B
100
AcDbEntity
  8
0
  6
Continuous
 62
     7
100
AcDbCircle
 10
176.9639165434
 20
221.0393319678
 30
0.0
 40
1.600000000000023
100
AcDbArc
 50
90.0
 51
180.0
  0
LINE
  5
1B3
330
59B
100
AcDbEntity
  8
0
  6
Continuous
 62
     7
100
AcDbLine
 10
175.3639164987
 20
151.2481143545
 30
0.0
 11
175.3639164987
 21
121.4467009377
 31
0.0
  0
LINE
  5
1B4
330
59B
100
AcDbEntity
  8
0
  6
Continuous
 62
     7
100
AcDbLine
 10
221.3639165881
 20
121.4467009377
 30
0.0
 11
221.3639165881
 21
151.2481143545
 31
0.0
  0
ARC
  5
1B5
330
59B
100
AcDbEntity
  8
0
  6
Continuous
 62
     7
100
AcDbCircle
 10
219.8639165434
 20
121.4467008429
 30
0.0
 40
1.5
100
AcDbArc
 50
270.0
 51
0.0
  0
ARC
  5
1B6
330
59B
100
AcDbEntity
  8
0
  6
Continuous
 62
     7
100
AcDbCircle
 10
176.8639165434
 20
121.4467008429
 30
0.0
 40
1.5
100
AcDbArc
 50
180.0
 51
270.0
  0
LWPOLYLINE
  5
1B7
330
59B
100
AcDbEntity
  8
0
  6
Continuous
 62
     7
100
AcDbPolyline
 90
        3
 70
   128
 43
0.0
 10
176.8626920554
 20
119.948329575
 10
187.5516432944
 20
119.6666752767
 10
198.4972203961
 20
119.5636859011
  0
LWPOLYLINE
  5
1B8
330
59B
100
AcDbEntity
  8
0
  6
Continuous
 62
     7
100
AcDbPolyline
 90
        3
 70
   128
 43
0.0
 10
198.2306126908
 20
119.5636859011
 10
209.1761897925
 20
119.6666752767
 10
219.8651410315
 20
119.948329575
  0
LINE
  5
1B9
330
59B
100
AcDbEntity
  8
0
  6
Continuous
 62
     7
100
AcDbLine
 10
219.8639172736
 20
156.408270992
 30
0.0
 11
219.8639172736
 21
158.2393312674
 31
0.0
  0
LINE
  5
1BA
330
59B
100
AcDbEntity
  8
0
  6
Continuous
 62
     7
100
AcDbLine
 10
176.8639158133
 20
158.2393312674
 30
0.0
 11
176.8639158133
 21
156.408270992
 31
0.0
  0
ARC
  5
1BB
330
59B
100
AcDbEntity
  8
0
  6
Continuous
 62
     7
100
AcDbCircle
 10
186.8639165434
 20
156.4082711928
 30
0.0
 40
10.0
100
AcDbArc
 50
180.0
 51
189.0468459803
  0
ARC
  5
1BC
330
59B
100
AcDbEntity
  8
0
  6
Continuous
 62
     7
100
AcDbCircle
 10
209.8639165434
 20
156.4082711928
 30
0.0
 40
10.00000000000003
100
AcDbArc
 50
350.9531540197
 51
0.0
  0
ARC
  5
1BD
330
59B
100
AcDbEntity
  8
0
  6
Continuous
 62
     7
100
AcDbCircle
 10
198.3639165434
 20
158.2393319678
 30
0.0
 40
21.64486082191336
100
AcDbArc
 50
189.0468459803
 51
198.3007331067
  0
ARC
  5
1BE
330
59B
100
AcDbEntity
  8
0
  6
Continuous
 62
     7
100
AcDbCircle
 10
198.3639165434
 20
158.2393319678
 30
0.0
 40
21.64486082191339
100
AcDbArc
 50
341.6847715863
 51
350.9531540197
  0
ARC
  5
1BF
330
59B
100
AcDbEntity
  8
0
  6
Continuous
 62
     7
100
AcDbCircle
 10
269.0182631946
 20
170.7833884076
 30
0.0
 40
21.61709843451783
100
AcDbArc
 50
21.8843751111
 51
41.3235125035
  0
LWPOLYLINE
  5
1C0
330
59B
100
AcDbEntity
  8
0
  6
Continuous
 62
     7
100
AcDbPolyline
 90
        3
 70
   128
 43
0.0
 10
284.725220469
 20
185.190141845
 10
284.2112272653
 20
185.1927805037
 10
283.0814361248
 20
185.1930042176
  0
LINE
  5
1C1
330
59B
100
AcDbEntity
  8
0
  6
Continuous
 62
     7
100
AcDbLine
 10
285.455474225
 20
184.8335749492
 30
0.0
 11
285.0403949294
 21
185.1881904768
 31
0.0
  0
LWPOLYLINE
  5
1C2
330
59B
100
AcDbEntity
  8
0
  6
Continuous
 62
     7
100
AcDbPolyline
 90
        3
 70
   128
 43
0.0
 10
113.6463969621
 20
185.1930042176
 10
112.5166058216
 20
185.1927805037
 10
111.8115350279
 20
185.1891608931
  0
LINE
  5
1C3
330
59B
100
AcDbEntity
  8
0
  6
Continuous
 62
     7
100
AcDbLine
 10
111.6874381575
 20
185.1881904768
 30
0.0
 11
111.2723588619
 21
184.8335749492
 31
0.0
  0
ARC
  5
1C4
330
59B
100
AcDbEntity
  8
0
  6
Continuous
 62
     7
100
AcDbCircle
 10
127.7095698923
 20
170.7833884076
 30
0.0
 40
21.61709843451785
100
AcDbArc
 50
138.6764874965
 51
158.1156248889
  0
ARC
  5
1C5
330
59B
100
AcDbEntity
  8
0
  6
Continuous
 62
     7
100
AcDbCircle
 10
263.3639165433
 20
199.2707049791
 30
0.0
 40
5.999999999875687
100
AcDbArc
 50
138.5903778903
 51
180.0000000009
  0
ARC
  5
1C6
330
59B
100
AcDbEntity
  8
0
  6
Continuous
 62
     7
100
AcDbCircle
 10
283.3639165436
 20
199.2707049791
 30
0.0
 40
5.99999999987574
100
AcDbArc
 50
359.9999999991001
 51
41.4096221097
  0
ARC
  5
1C7
330
59B
100
AcDbEntity
  8
0
  6
Continuous
 62
     7
100
AcDbCircle
 10
113.3639165433
 20
199.2707049791
 30
0.0
 40
5.999999999875754
100
AcDbArc
 50
138.5903778903
 51
180.0000000009
  0
ARC
  5
1C8
330
59B
100
AcDbEntity
  8
0
  6
Continuous
 62
     7
100
AcDbCircle
 10
133.3639165436
 20
199.2707049791
 30
0.0
 40
5.99999999987574
100
AcDbArc
 50
359.9999999991001
 51
41.4096221097
  0
ARC
  5
1C9
330
59B
100
AcDbEntity
  8
0
  6
Continuous
 62
     7
100
AcDbCircle
 10
263.3639165434
 20
190.2079589122
 30
0.0
 40
6.000000000000057
100
AcDbArc
 50
180.0
 51
221.4096221093
  0
ARC
  5
1CA
330
59B
100
AcDbEntity
  8
0
  6
Continuous
 62
     7
100
AcDbCircle
 10
283.3639165434
 20
190.2079589122
 30
0.0
 40
6.000000000000019
100
AcDbArc
 50
318.5903778906999
 51
0.0
  0
ARC
  5
1CB
330
59B
100
AcDbEntity
  8
0
  6
Continuous
 62
     7
100
AcDbCircle
 10
113.3639165434
 20
190.2079589122
 30
0.0
 40
6.00000000000004
100
AcDbArc
 50
180.0
 51
221.4096221093
  0
ARC
  5
1CC
330
59B
100
AcDbEntity
  8
0
  6
Continuous
 62
     7
100
AcDbCircle
 10
133.3639165434
 20
190.2079589122
 30
0.0
 40
6.00000000000004
100
AcDbArc
 50
318.5903778906999
 51
0.0
  0
LWPOLYLINE
  5
1CD
330
59B
100
AcDbEntity
  8
0
  6
Continuous
 62
     7
100
AcDbPolyline
 90
       16
 70
   128
 43
0.0
 10
175.3639164987
 20
211.2393325042
 10
175.0565576974
 20
206.7159658145
 10
174.2639407191
 20
202.9534971189
 10
173.1529920969
 20
199.8464299213
 10
171.858433229
 20
197.3008068126
 10
170.0288425806
 20
194.6378389221
 10
168.2534493181
 20
192.657455973
 10
166.5753103468
 20
191.1446728591
 10
165.3225622747
 20
190.1870148104
 10
164.0904858384
 20
189.3624017794
 10
162.891888586
 20
188.6565372661
 10
161.5784108314
 20
187.9790713392
 10
159.6157192859
 20
187.1315732679
 10
156.9241635177
 20
186.2497783113
 10
153.4905410978
 20
185.5373510589
 10
149.3639215502
 20
185.2393319678
  0
LWPOLYLINE
  5
1CE
330
59B
100
AcDbEntity
  8
0
  6
Continuous
 62
     7
100
AcDbPolyline
 90
       15
 70
   128
 43
0.0
 10
247.3639115367
 20
185.2393319678
 10
243.9699336562
 20
185.4408572654
 10
241.16335955
 20
185.9151440404
 10
238.975757328
 20
186.4889420649
 10
237.3874015781
 20
187.0271657208
 10
234.6999101016
 20
188.2003163301
 10
232.2541564378
 20
189.6074727956
 10
230.4778039131
 20
190.8833190646
 10
228.3553309414
 20
192.7765721303
 10
226.0570298556
 20
195.4831929725
 10
224.3705667231
 20
198.1935828772
 10
222.8829148832
 20
201.6240248304
 10
222.0984898183
 20
204.3810618889
 10
221.563577247
 20
207.5689455342
 10
221.3639165881
 20
211.2393325042
  0
LINE
  5
1CF
330
59B
100
AcDbEntity
  8
0
  6
Continuous
 62
     7
100
AcDbLine
 10
112.8639146361
 20
186.2393318988
 30
0.0
 11
112.8639146361
 21
185.2393319678
 31
0.0
  0
LINE
  5
1D0
330
59B
100
AcDbEntity
  8
0
  6
Continuous
 62
     7
100
AcDbLine
 10
133.8639199409
 20
185.2393319678
 30
0.0
 11
133.8639199409
 21
186.2393318988
 31
0.0
  0
LINE
  5
1D1
330
59B
100
AcDbEntity
  8
0
  6
Continuous
 62
     7
100
AcDbLine
 10
262.863913146
 20
186.2393318988
 30
0.0
 11
262.863913146
 21
185.2393319678
 31
0.0
  0
LINE
  5
1D2
330
59B
100
AcDbEntity
  8
0
  6
Continuous
 62
     7
100
AcDbLine
 10
283.8639184508
 20
185.2393319678
 30
0.0
 11
283.8639184508
 21
186.2393318988
 31
0.0
  0
LWPOLYLINE
  5
1D3
330
59B
100
AcDbEntity
  8
0
  6
Continuous
 62
     7
100
AcDbPolyline
 90
        5
 70
   128
 43
0.0
 10
175.9016435269
 20
151.7464725148
 10
175.8478205326
 20
151.7464054596
 10
175.5864541653
 20
151.6995897364
 10
175.3949965957
 20
151.47750283
 10
175.3726504418
 20
151.2462070059
  0
LWPOLYLINE
  5
1D4
330
59B
100
AcDbEntity
  8
0
  6
Continuous
 62
     7
100
AcDbPolyline
 90
        5
 70
   128
 43
0.0
 10
221.3489930752
 20
151.2536352348
 10
221.3308993402
 20
151.4831205677
 10
221.1269303832
 20
151.7060791921
 10
220.8843618307
 20
151.7463346791
 10
220.8259176138
 20
151.746424086
  0
LINE
  5
1D5
330
59B
100
AcDbEntity
  8
0
  6
Continuous
 62
     7
100
AcDbLine
 10
289.3639146957
 20
190.2079588581
 30
0.0
 11
289.3639146957
 21
199.2707049321
 31
0.0
  0
LINE
  5
1D6
330
59B
100
AcDbEntity
  8
0
  6
Continuous
 62
     7
100
AcDbLine
 10
139.3639161858
 20
190.2079588581
 30
0.0
 11
139.3639161858
 21
199.2707049321
 31
0.0
  0
LINE
  5
1D7
330
59B
100
AcDbEntity
  8
0
  6
Continuous
 62
     7
100
AcDbLine
 10
257.3639169011
 20
199.2707049321
 30
0.0
 11
257.3639169011
 21
190.2079588581
 31
0.0
  0
LINE
  5
1D8
330
59B
100
AcDbEntity
  8
0
  6
Continuous
 62
     7
100
AcDbLine
 10
107.3639183912
 20
199.2707049321
 30
0.0
 11
107.3639183912
 21
190.2079588581
 31
0.0
  0
LWPOLYLINE
  5
1D9
330
59B
100
AcDbEntity
  8
0
  6
Continuous
 62
     7
100
AcDbPolyline
 90
        3
 70
   128
 43
0.0
 10
107.4737324986
 20
178.4382571314
 10
107.0089056763
 20
177.4565569904
 10
104.8827558431
 20
172.5085137259
  0
LWPOLYLINE
  5
1DA
330
59B
100
AcDbEntity
  8
0
  6
Continuous
 62
     7
100
AcDbPolyline
 90
        3
 70
   128
 43
0.0
 10
291.7797356519
 20
172.6618336361
 10
290.0935351524
 20
176.618732683
 10
288.7220620784
 20
179.5512188073
  0
LINE
  5
1DB
330
59B
100
AcDbEntity
  8
0
  6
Continuous
 62
     7
100
AcDbLine
 10
88.3639171395
 20
229.2487157356
 30
0.0
 11
88.7821331296
 21
205.2890175801
 31
0.0
  0
LINE
  5
1DC
330
59B
100
AcDbEntity
  8
0
  6
Continuous
 62
     7
100
AcDbLine
 10
157.9456977222
 20
205.2890175801
 30
0.0
 11
158.3639174375
 21
229.2487157356
 31
0.0
  0
ARC
  5
1DD
330
59B
100
AcDbEntity
  8
0
  6
Continuous
 62
     7
100
AcDbCircle
 10
90.7818300154
 20
205.3239231551
 30
0.0
 40
1.99999999999987
100
AcDbArc
 50
181.0
 51
269.3191140165
  0
ARC
  5
1DE
330
59B
100
AcDbEntity
  8
0
  6
Continuous
 62
     7
100
AcDbCircle
 10
155.9460030715
 20
205.3239231551
 30
0.0
 40
1.999999999999865
100
AcDbArc
 50
270.6808859835
 51
358.9999999999999
  0
ARC
  5
1DF
330
59B
100
AcDbEntity
  8
0
  6
Continuous
 62
     7
100
AcDbCircle
 10
105.0181702148
 20
1403.2393319456
 30
0.0
 40
1200.0
100
AcDbArc
 50
269.3191140165
 51
270.0
  0
ARC
  5
1E0
330
59B
100
AcDbEntity
  8
0
  6
Continuous
 62
     7
100
AcDbCircle
 10
141.7096628721
 20
1403.2393319456
 30
0.0
 40
1200.0
100
AcDbArc
 50
270.0
 51
270.6808859835
  0
LINE
  5
1E1
330
59B
100
AcDbEntity
  8
0
  6
Continuous
 62
     7
100
AcDbLine
 10
105.0181701455
 20
203.2393311929
 30
0.0
 11
141.7096644315
 21
203.2393311929
 31
0.0
  0
LINE
  5
1E2
330
59B
100
AcDbEntity
  8
0
  6
Continuous
 62
     7
100
AcDbLine
 10
273.3639195237
 20
229.2487157356
 30
0.0
 11
308.3639159474
 21
229.2487157356
 31
0.0
  0
LINE
  5
1E3
330
59B
100
AcDbEntity
  8
0
  6
Continuous
 62
     7
100
AcDbLine
 10
238.3639156494
 20
229.2487157356
 30
0.0
 11
273.3639195237
 21
229.2487157356
 31
0.0
  0
LINE
  5
1E4
330
59B
100
AcDbEntity
  8
0
  6
Continuous
 62
     7
100
AcDbLine
 10
277.7292593989
 20
185.2393319678
 30
0.0
 11
278.842413393
 21
185.2393319678
 31
0.0
  0
LINE
  5
1E5
330
59B
100
AcDbEntity
  8
0
  6
Continuous
 62
     7
100
AcDbLine
 10
291.7356058631
 20
172.5893320363
 30
0.0
 11
291.7528092537
 21
172.5893320363
 31
0.0
  0
LINE
  5
1E6
330
59B
100
AcDbEntity
  8
0
  6
Continuous
 62
     7
100
AcDbLine
 10
104.9922272238
 20
172.5893320363
 30
0.0
 11
104.9750238332
 21
172.5893320363
 31
0.0
  0
LINE
  5
1E7
330
59B
100
AcDbEntity
  8
0
  6
Continuous
 62
     7
100
AcDbLine
 10
118.998573688
 20
185.2393319678
 30
0.0
 11
118.3000445041
 21
185.2393319678
 31
0.0
  0
LINE
  5
1E8
330
59B
100
AcDbEntity
  8
0
  6
Continuous
 62
     7
100
AcDbLine
 10
106.1488404545
 20
158.2393312674
 30
0.0
 11
107.8488394293
 21
158.2393312674
 31
0.0
  0
ARC
  5
1E9
330
59B
100
AcDbEntity
  8
0
  6
Continuous
 62
     7
100
AcDbCircle
 10
106.1488375707
 20
159.7393319678
 30
0.0
 40
1.5
100
AcDbArc
 50
180.0
 51
270.0
  0
ARC
  5
1EA
330
59B
100
AcDbEntity
  8
0
  6
Continuous
 62
     7
100
AcDbCircle
 10
290.5789955162
 20
159.7393319678
 30
0.0
 40
1.5
100
AcDbArc
 50
270.0
 51
0.0
  0
LINE
  5
1EB
330
59B
100
AcDbEntity
  8
0
  6
Continuous
 62
     7
100
AcDbLine
 10
290.5789926323
 20
158.2393312674
 30
0.0
 11
288.8789936575
 21
158.2393312674
 31
0.0
  0
LWPOLYLINE
  5
1EC
330
59B
100
AcDbEntity
  8
0
  6
Continuous
 62
     7
100
AcDbPolyline
 90
        3
 70
   128
 43
0.0
 10
273.3639120731
 20
172.5890768539
 10
280.8193653497
 20
172.5889744084
 10
288.2949575457
 20
172.5893087532
  0
LINE
  5
1ED
330
59B
100
AcDbEntity
  8
0
  6
Continuous
 62
     7
100
AcDbLine
 10
123.3639210138
 20
172.5893320363
 30
0.0
 11
108.4328755412
 21
172.5893320363
 31
0.0
  0
LINE
  5
1EE
330
59B
100
AcDbEntity
  8
0
  6
Continuous
 62
     7
100
AcDbLine
 10
104.6488374147
 20
171.1393317055
 30
0.0
 11
104.6488374147
 21
159.7393324446
 31
0.0
  0
LINE
  5
1EF
330
59B
100
AcDbEntity
  8
0
  6
Continuous
 62
     7
100
AcDbLine
 10
292.0789956722
 20
171.1393317055
 30
0.0
 11
292.0789956722
 21
159.7393324446
 31
0.0
  0
LINE
  5
1F0
330
59B
100
AcDbEntity
  8
0
  6
Continuous
 62
     7
100
AcDbLine
 10
198.3639165434
 20
222.6393317651
 30
0.0
 11
219.7639174435
 21
222.6393317651
 31
0.0
  0
LINE
  5
1F1
330
59B
100
AcDbEntity
  8
0
  6
Continuous
 62
     7
100
AcDbLine
 10
198.3639165434
 20
222.6393317651
 30
0.0
 11
176.9639156434
 21
222.6393317651
 31
0.0
  0
LINE
  5
1F2
330
59B
100
AcDbEntity
  8
0
  6
Continuous
 62
     7
100
AcDbLine
 10
238.7641980919
 20
158.2393312674
 30
0.0
 11
198.3639165434
 21
158.2393312674
 31
0.0
  0
LINE
  5
1F3
330
59B
100
AcDbEntity
  8
0
  6
Continuous
 62
     7
100
AcDbLine
 10
157.9636349949
 20
158.2393312674
 30
0.0
 11
198.3639165434
 21
158.2393312674
 31
0.0
  0
LINE
  5
1F4
330
59B
100
AcDbEntity
  8
0
  6
Continuous
 62
     7
100
AcDbLine
 10
198.3639165434
 20
119.9475323629
 30
0.0
 11
219.9074286643
 21
119.9475323629
 31
0.0
  0
LINE
  5
1F5
330
59B
100
AcDbEntity
  8
0
  6
Continuous
 62
     7
100
AcDbLine
 10
198.3639165434
 20
119.9475323629
 30
0.0
 11
176.8204044226
 21
119.9475323629
 31
0.0
  0
LINE
  5
1F6
330
59B
100
AcDbEntity
  8
0
  6
Continuous
 62
     7
100
AcDbLine
 10
107.8488394293
 20
158.2393312674
 30
0.0
 11
123.3639210138
 21
158.2393312674
 31
0.0
  0
LINE
  5
1F7
330
59B
100
AcDbEntity
  8
0
  6
Continuous
 62
     7
100
AcDbLine
 10
288.8789936575
 20
158.2393312674
 30
0.0
 11
273.3639120731
 21
158.2393312674
 31
0.0
  0
LINE
  5
1F8
330
59B
100
AcDbEntity
  8
0
  6
Continuous
 62
     7
100
AcDbLine
 10
123.3639210138
 20
158.2393312674
 30
0.0
 11
157.9636349949
 21
158.2393312674
 31
0.0
  0
LINE
  5
1F9
330
59B
100
AcDbEntity
  8
0
  6
Continuous
 62
     7
100
AcDbLine
 10
273.3639120731
 20
158.2393312674
 30
0.0
 11
238.7641980919
 21
158.2393312674
 31
0.0
  0
LWPOLYLINE
  5
1FA
330
59B
100
AcDbEntity
  8
0
  6
Continuous
 62
     7
100
AcDbPolyline
 90
       22
 70
   128
 43
0.0
 10
178.5568087968
 20
150.2903794717
 10
179.4574033144
 20
149.4178457033
 10
180.6307598624
 20
148.5920531523
 10
182.0599544469
 20
147.8249227475
 10
183.7243666548
 20
147.1275111508
 10
185.5999832648
 20
146.5098878216
 10
187.6597456309
 20
145.9809599292
 10
189.8739361811
 20
145.5483605933
 10
192.2106124136
 20
145.2183296751
 10
194.6360623139
 20
144.9956243705
 10
197.1152938811
 20
144.8834633302
 10
199.6125392058
 20
144.8834633302
 10
202.091770773
 20
144.9956243705
 10
204.5172206733
 20
145.2183296751
 10
206.8538969058
 20
145.5483605933
 10
209.0680874559
 20
145.9809599292
 10
211.1278498221
 20
146.5098878216
 10
213.0034664321
 20
147.1275111508
 10
214.66787864
 20
147.8249227475
 10
216.0970732245
 20
148.5920531523
 10
217.2704297725
 20
149.4178457033
 10
218.17102429
 20
150.2903794717
  0
LINE
  5
1FB
330
59B
100
AcDbEntity
  8
0
  6
Continuous
 62
     7
100
AcDbLine
 10
123.3639210138
 20
185.2393319678
 30
0.0
 11
118.998573688
 21
185.2393319678
 31
0.0
  0
LINE
  5
1FC
330
59B
100
AcDbEntity
  8
0
  6
Continuous
 62
     7
100
AcDbLine
 10
273.3639120731
 20
185.2393319678
 30
0.0
 11
277.7292593989
 21
185.2393319678
 31
0.0
  0
LINE
  5
1FD
330
59B
100
AcDbEntity
  8
0
  6
Continuous
 62
     7
100
AcDbLine
 10
273.3634426865
 20
185.2393319678
 30
0.0
 11
246.0934385333
 21
185.2393319678
 31
0.0
  0
LINE
  5
1FE
330
59B
100
AcDbEntity
  8
0
  6
Continuous
 62
     7
100
AcDbLine
 10
123.3643904004
 20
185.2393319678
 30
0.0
 11
150.6343945536
 21
185.2393319678
 31
0.0
  0
LWPOLYLINE
  5
1FF
330
59B
100
AcDbEntity
  8
0
  6
Continuous
 62
     7
100
AcDbPolyline
 90
        3
 70
   128
 43
0.0
 10
218.273575944
 20
150.4142043959
 10
218.71897724
 20
151.0492769849
 10
218.9012743208
 20
151.4411365461
  0
LINE
  5
200
330
59B
100
AcDbEntity
  8
0
  6
Continuous
 62
     7
100
AcDbLine
 10
218.17102429
 20
150.2903794717
 30
0.0
 11
218.273575944
 21
150.4142043959
 31
0.0
  0
ARC
  5
201
330
59B
100
AcDbEntity
  8
0
  6
Continuous
 62
     7
100
AcDbCircle
 10
180.3757110714
 20
152.2556306239
 30
0.0
 40
2.677800884253634
100
AcDbArc
 50
197.6246337556
 51
227.2147612142
  0
LINE
  5
202
330
59B
100
AcDbEntity
  8
0
  6
Continuous
 62
     7
100
AcDbLine
 10
282.5522586379
 20
185.2393319678
 30
0.0
 11
284.4176754031
 21
185.2393319678
 31
0.0
  0
LINE
  5
203
330
59B
100
AcDbEntity
  8
0
  6
Continuous
 62
     7
100
AcDbLine
 10
284.6807703051
 20
185.2393319678
 30
0.0
 11
284.799689022
 21
185.2393319678
 31
0.0
  0
LWPOLYLINE
  5
204
330
59B
100
AcDbEntity
  8
0
  6
Continuous
 62
     7
100
AcDbPolyline
 90
        3
 70
   128
 43
0.0
 10
289.0780061159
 20
178.841014098
 10
289.04353973
 20
178.919843569
 10
288.3595019254
 20
180.2632926811
  0
LWPOLYLINE
  5
205
330
59B
100
AcDbEntity
  8
0
  6
Continuous
 62
     7
100
AcDbPolyline
 90
        3
 70
   128
 43
0.0
 10
107.649826971
 20
178.841014098
 10
107.6842933569
 20
178.919843569
 10
108.3940282139
 20
180.3137582574
  0
LINE
  5
206
330
59B
100
AcDbEntity
  8
0
  6
Continuous
 62
     7
100
AcDbLine
 10
112.0470627818
 20
185.2393319678
 30
0.0
 11
111.9281440649
 21
185.2393319678
 31
0.0
  0
LWPOLYLINE
  5
207
330
59B
100
AcDbEntity
  8
0
  6
Continuous
 62
     7
100
AcDbPolyline
 90
       12
 70
   128
 43
0.0
 10
283.5704177293
 20
199.2707049321
 10
283.6362585101
 20
200.0069694441
 10
283.8144987497
 20
200.6608463671
 10
284.2281922373
 20
201.4478595775
 10
285.0336894068
 20
202.2099515271
 10
286.4688127908
 20
202.5846933793
 10
287.2247412476
 20
202.4318987351
 10
287.9530429515
 20
202.0122950744
 10
288.5156735453
 20
201.3974061083
 10
288.962142137
 20
200.4601817425
 10
289.1099765572
 20
199.7545717131
 10
289.1381770048
 20
199.2707049321
  0
LWPOLYLINE
  5
208
330
59B
100
AcDbEntity
  8
0
  6
Continuous
 62
     7
100
AcDbPolyline
 90
       12
 70
   128
 43
0.0
 10
267.7961527977
 20
199.2707049321
 10
267.9278343591
 20
200.0069694441
 10
268.2843222889
 20
200.6608463671
 10
269.1117092642
 20
201.4478595775
 10
270.7227036032
 20
202.2099515271
 10
273.5929429206
 20
202.5846933793
 10
275.1048072848
 20
202.4318987351
 10
276.5614032421
 20
202.0122950744
 10
277.6866644296
 20
201.3974061083
 10
278.5796090636
 20
200.4601817425
 10
278.8752704534
 20
199.7545717131
 10
278.9316787991
 20
199.2707049321
  0
LWPOLYLINE
  5
209
330
59B
100
AcDbEntity
  8
0
  6
Continuous
 62
     7
100
AcDbPolyline
 90
       12
 70
   128
 43
0.0
 10
257.589654592
 20
199.2707049321
 10
257.6554916474
 20
200.0069694441
 10
257.8337393376
 20
200.6608463671
 10
258.2474291
 20
201.4478595775
 10
259.0529299948
 20
202.2099515271
 10
260.4880459282
 20
202.5846933793
 10
261.2439781103
 20
202.4318987351
 10
261.9722798142
 20
202.0122950744
 10
262.534910408
 20
201.3974061083
 10
262.9813789997
 20
200.4601817425
 10
263.1292134199
 20
199.7545717131
 10
263.157421318
 20
199.2707049321
  0
LWPOLYLINE
  5
20A
330
59B
100
AcDbEntity
  8
0
  6
Continuous
 62
     7
100
AcDbPolyline
 90
       12
 70
   128
 43
0.0
 10
278.9316787991
 20
190.2079588581
 10
278.7999972376
 20
189.4716943462
 10
278.4435093078
 20
188.8178174231
 10
277.6161297831
 20
188.0308051441
 10
276.0051279935
 20
187.2687122632
 10
273.1348961267
 20
186.8939712258
 10
271.623024312
 20
187.0467657536
 10
270.1664283547
 20
187.4663694143
 10
269.0411746177
 20
188.0812576819
 10
268.1482299838
 20
189.0184818149
 10
267.8525611434
 20
189.7240920771
 10
267.7961527977
 20
190.2079588581
  0
LINE
  5
20B
330
59B
100
AcDbEntity
  8
0
  6
Continuous
 62
     7
100
AcDbLine
 10
267.7961527977
 20
190.2079588581
 30
0.0
 11
267.7961527977
 21
199.2707049321
 31
0.0
  0
LINE
  5
20C
330
59B
100
AcDbEntity
  8
0
  6
Continuous
 62
     7
100
AcDbLine
 10
278.9316787991
 20
199.2707049321
 30
0.0
 11
278.9316787991
 21
190.2079588581
 31
0.0
  0
LWPOLYLINE
  5
20D
330
59B
100
AcDbEntity
  8
0
  6
Continuous
 62
     7
100
AcDbPolyline
 90
       12
 70
   128
 43
0.0
 10
128.9316802892
 20
190.2079588581
 10
128.7999987278
 20
189.4716943462
 10
128.4435107979
 20
188.8178174231
 10
127.6161238226
 20
188.0308051441
 10
126.0051294837
 20
187.2687122632
 10
123.1348901662
 20
186.8939712258
 10
121.6230258021
 20
187.0467657536
 10
120.1664298448
 20
187.4663694143
 10
119.0411686573
 20
188.0812576819
 10
118.1482240233
 20
189.0184818149
 10
117.8525626335
 20
189.7240920771
 10
117.7961542878
 20
190.2079588581
  0
LINE
  5
20E
330
59B
100
AcDbEntity
  8
0
  6
Continuous
 62
     7
100
AcDbLine
 10
117.7961542878
 20
190.2079588581
 30
0.0
 11
117.7961542878
 21
199.2707049321
 31
0.0
  0
LWPOLYLINE
  5
20F
330
59B
100
AcDbEntity
  8
0
  6
Continuous
 62
     7
100
AcDbPolyline
 90
       12
 70
   128
 43
0.0
 10
117.7961542878
 20
199.2707049321
 10
117.9278358492
 20
200.0069694441
 10
118.2843237791
 20
200.6608463671
 10
119.1117033038
 20
201.4478595775
 10
120.7227050933
 20
202.2099515271
 10
123.5929369602
 20
202.5846933793
 10
125.1048087749
 20
202.4318987351
 10
126.5614047322
 20
202.0122950744
 10
127.6866584692
 20
201.3974061083
 10
128.5796031031
 20
200.4601817425
 10
128.8752719435
 20
199.7545717131
 10
128.9316802892
 20
199.2707049321
  0
LINE
  5
210
330
59B
100
AcDbEntity
  8
0
  6
Continuous
 62
     7
100
AcDbLine
 10
128.9316802892
 20
199.2707049321
 30
0.0
 11
128.9316802892
 21
190.2079588581
 31
0.0
  0
LWPOLYLINE
  5
211
330
59B
100
AcDbEntity
  8
0
  6
Continuous
 62
     7
100
AcDbPolyline
 90
       12
 70
   128
 43
0.0
 10
133.5704117689
 20
199.2707049321
 10
133.6362525496
 20
200.0069694441
 10
133.8145002398
 20
200.6608463671
 10
134.2281937275
 20
201.4478595775
 10
135.0336908969
 20
202.2099515271
 10
136.4688105557
 20
202.5846933793
 10
137.2247427377
 20
202.4318987351
 10
137.9530407164
 20
202.0122950744
 10
138.5156713101
 20
201.3974061083
 10
138.9621436271
 20
200.4601817425
 10
139.109974322
 20
199.7545717131
 10
139.1381784949
 20
199.2707049321
  0
LWPOLYLINE
  5
212
330
59B
100
AcDbEntity
  8
0
  6
Continuous
 62
     7
100
AcDbPolyline
 90
       12
 70
   128
 43
0.0
 10
107.5896560821
 20
199.2707049321
 10
107.6554968628
 20
200.0069694441
 10
107.8337371025
 20
200.6608463671
 10
108.2474305901
 20
201.4478595775
 10
109.0529277596
 20
202.2099515271
 10
110.488043693
 20
202.5846933793
 10
111.2439796004
 20
202.4318987351
 10
111.9722813043
 20
202.0122950744
 10
112.5349118981
 20
201.3974061083
 10
112.9813804898
 20
200.4601817425
 10
113.12921491
 20
199.7545717131
 10
113.1574153575
 20
199.2707049321
  0
LINE
  5
213
330
59B
100
AcDbEntity
  8
0
  6
Continuous
 62
     7
100
AcDbLine
 10
283.5704177293
 20
190.2079588581
 30
0.0
 11
283.5704177293
 21
199.2707049321
 31
0.0
  0
LINE
  5
214
330
59B
100
AcDbEntity
  8
0
  6
Continuous
 62
     7
100
AcDbLine
 10
263.157421318
 20
199.2707049321
 30
0.0
 11
263.157421318
 21
190.2079588581
 31
0.0
  0
LINE
  5
215
330
59B
100
AcDbEntity
  8
0
  6
Continuous
 62
     7
100
AcDbLine
 10
133.5704117689
 20
190.2079588581
 30
0.0
 11
133.5704117689
 21
199.2707049321
 31
0.0
  0
LINE
  5
216
330
59B
100
AcDbEntity
  8
0
  6
Continuous
 62
     7
100
AcDbLine
 10
113.1574153575
 20
199.2707049321
 30
0.0
 11
113.1574153575
 21
190.2079588581
 31
0.0
  0
LINE
  5
217
330
59B
100
AcDbEntity
  8
0
  6
Continuous
 62
     7
100
AcDbLine
 10
258.8639162156
 20
186.2393318988
 30
0.0
 11
287.8639191064
 21
186.2393318988
 31
0.0
  0
LWPOLYLINE
  5
218
330
59B
100
AcDbEntity
  8
0
  6
Continuous
 62
     7
100
AcDbPolyline
 90
       12
 70
   128
 43
0.0
 10
289.1381770048
 20
190.2079588581
 10
289.072336224
 20
189.4716943462
 10
288.8940959844
 20
188.8178174231
 10
288.4804024968
 20
188.0308051441
 10
287.6749053273
 20
187.2687122632
 10
286.2397893939
 20
186.8939712258
 10
285.4838534865
 20
187.0467657536
 10
284.7555517826
 20
187.4663694143
 10
284.1929211888
 20
188.0812576819
 10
283.7464525971
 20
189.0184818149
 10
283.5986181769
 20
189.7240920771
 10
283.5704177293
 20
190.2079588581
  0
LWPOLYLINE
  5
219
330
59B
100
AcDbEntity
  8
0
  6
Continuous
 62
     7
100
AcDbPolyline
 90
       12
 70
   128
 43
0.0
 10
263.157421318
 20
190.2079588581
 10
263.0915805373
 20
189.4716943462
 10
262.9133328471
 20
188.8178174231
 10
262.4996393594
 20
188.0308051441
 10
261.6941421899
 20
187.2687122632
 10
260.2590225312
 20
186.8939712258
 10
259.5030903492
 20
187.0467657536
 10
258.7747923705
 20
187.4663694143
 10
258.2121617767
 20
188.0812576819
 10
257.7656894598
 20
189.0184818149
 10
257.6178587648
 20
189.7240920771
 10
257.589654592
 20
190.2079588581
  0
LINE
  5
21A
330
59B
100
AcDbEntity
  8
0
  6
Continuous
 62
     7
100
AcDbLine
 10
108.8639139804
 20
186.2393318988
 30
0.0
 11
137.8639168713
 21
186.2393318988
 31
0.0
  0
LWPOLYLINE
  5
21B
330
59B
100
AcDbEntity
  8
0
  6
Continuous
 62
     7
100
AcDbPolyline
 90
       12
 70
   128
 43
0.0
 10
139.1381784949
 20
190.2079588581
 10
139.0723414394
 20
189.4716943462
 10
138.8940937492
 20
188.8178174231
 10
138.4804039869
 20
188.0308051441
 10
137.6749030921
 20
187.2687122632
 10
136.2397871587
 20
186.8939712258
 10
135.4838549766
 20
187.0467657536
 10
134.7555532727
 20
187.4663694143
 10
134.1929226789
 20
188.0812576819
 10
133.7464540872
 20
189.0184818149
 10
133.598619667
 20
189.7240920771
 10
133.5704117689
 20
190.2079588581
  0
LWPOLYLINE
  5
21C
330
59B
100
AcDbEntity
  8
0
  6
Continuous
 62
     7
100
AcDbPolyline
 90
       12
 70
   128
 43
0.0
 10
113.1574153575
 20
190.2079588581
 10
113.0915745768
 20
189.4716943462
 10
112.9133343372
 20
188.8178174231
 10
112.4996408495
 20
188.0308051441
 10
111.6941436801
 20
187.2687122632
 10
110.2590202961
 20
186.8939712258
 10
109.5030918393
 20
187.0467657536
 10
108.7747901353
 20
187.4663694143
 10
108.2121595416
 20
188.0812576819
 10
107.7656909499
 20
189.0184818149
 10
107.6178565297
 20
189.7240920771
 10
107.5896560821
 20
190.2079588581
  0
LINE
  5
21D
330
59B
100
AcDbEntity
  8
0
  6
Continuous
 62
     7
100
AcDbLine
 10
289.1381770048
 20
199.2707049321
 30
0.0
 11
289.1381770048
 21
190.2079588581
 31
0.0
  0
LINE
  5
21E
330
59B
100
AcDbEntity
  8
0
  6
Continuous
 62
     7
100
AcDbLine
 10
139.1381784949
 20
199.2707049321
 30
0.0
 11
139.1381784949
 21
190.2079588581
 31
0.0
  0
LINE
  5
21F
330
59B
100
AcDbEntity
  8
0
  6
Continuous
 62
     7
100
AcDbLine
 10
257.589654592
 20
190.2079588581
 30
0.0
 11
257.589654592
 21
199.2707049321
 31
0.0
  0
LINE
  5
220
330
59B
100
AcDbEntity
  8
0
  6
Continuous
 62
     7
100
AcDbLine
 10
107.5896560821
 20
190.2079588581
 30
0.0
 11
107.5896560821
 21
199.2707049321
 31
0.0
  0
LINE
  5
221
330
59B
100
AcDbEntity
  8
0
  6
Continuous
 62
     7
100
AcDbLine
 10
175.3639164987
 20
221.0393307578
 30
0.0
 11
175.3639164987
 21
211.2393325042
 31
0.0
  0
LINE
  5
222
330
59B
100
AcDbEntity
  8
0
  6
Continuous
 62
     7
100
AcDbLine
 10
221.3639165881
 20
221.0393307578
 30
0.0
 11
221.3639165881
 21
211.2393325042
 31
0.0
  0
LINE
  5
223
330
59B
100
AcDbEntity
  8
0
  6
Continuous
 62
     7
100
AcDbLine
 10
219.0120570037
 20
151.7466997575
 30
0.0
 11
220.8300359222
 21
151.7466997575
 31
0.0
  0
LINE
  5
224
330
59B
100
AcDbEntity
  8
0
  6
Continuous
 62
     7
100
AcDbLine
 10
176.5070572171
 20
151.7466997575
 30
0.0
 11
175.8977971646
 21
151.7466997575
 31
0.0
  0
LINE
  5
225
330
59B
100
AcDbEntity
  8
0
  6
Continuous
 62
     7
100
AcDbLine
 10
176.5070572171
 20
151.7466997575
 30
0.0
 11
177.7157760832
 21
151.7466997575
 31
0.0
  0
LINE
  5
226
330
59B
100
AcDbEntity
  8
0
  6
Continuous
 62
     7
100
AcDbLine
 10
123.3639135632
 20
229.2487157356
 30
0.0
 11
158.3639174375
 21
229.2487157356
 31
0.0
  0
LINE
  5
227
330
59B
100
AcDbEntity
  8
0
  6
Continuous
 62
     7
100
AcDbLine
 10
88.3639171395
 20
229.2487157356
 30
0.0
 11
123.3639135632
 21
229.2487157356
 31
0.0
  0
LINE
  5
228
330
59B
100
AcDbEntity
  8
0
  6
Continuous
 62
     8
100
AcDbLine
 10
273.3639195237
 20
205.2890175801
 30
0.0
 11
307.9456999573
 21
205.2890175801
 31
0.0
  0
LINE
  5
229
330
59B
100
AcDbEntity
  8
0
  6
Continuous
 62
     8
100
AcDbLine
 10
238.7821353647
 20
205.2890175801
 30
0.0
 11
273.3639195237
 21
205.2890175801
 31
0.0
  0
LINE
  5
22A
330
59B
100
AcDbEntity
  8
0
  6
Continuous
 62
     8
100
AcDbLine
 10
273.3639195237
 20
203.3240647834
 30
0.0
 11
305.9697687301
 21
203.3240647834
 31
0.0
  0
LINE
  5
22B
330
59B
100
AcDbEntity
  8
0
  6
Continuous
 62
     8
100
AcDbLine
 10
240.7580628666
 20
203.3240647834
 30
0.0
 11
273.3639195237
 21
203.3240647834
 31
0.0
  0
LINE
  5
22C
330
59B
100
AcDbEntity
  8
0
  6
Continuous
 62
     8
100
AcDbLine
 10
288.2949575457
 20
172.5893320363
 30
0.0
 11
291.7356058631
 21
172.5893320363
 31
0.0
  0
LINE
  5
22D
330
59B
100
AcDbEntity
  8
0
  6
Continuous
 62
     8
100
AcDbLine
 10
108.4328755412
 20
172.5893320363
 30
0.0
 11
104.9922272238
 21
172.5893320363
 31
0.0
  0
LINE
  5
22E
330
59B
100
AcDbEntity
  8
0
  6
Continuous
 62
     8
100
AcDbLine
 10
198.3639165434
 20
171.1393317055
 30
0.0
 11
238.7641980919
 21
171.1393317055
 31
0.0
  0
LWPOLYLINE
  5
22F
330
59B
100
AcDbEntity
  8
0
  6
Continuous
 62
     8
100
AcDbPolyline
 90
        5
 70
   128
 43
0.0
 10
199.1397108092
 20
178.3557438139
 10
210.2496964532
 20
175.9046681073
 10
221.4942775342
 20
173.9492241141
 10
230.3689732823
 20
172.953222118
 10
239.2341062102
 20
172.5893320363
  0
LWPOLYLINE
  5
230
330
59B
100
AcDbEntity
  8
0
  6
Continuous
 62
     8
100
AcDbPolyline
 90
        5
 70
   128
 43
0.0
 10
197.5881222777
 20
178.3557438139
 10
186.4781366337
 20
175.9046681073
 10
175.2335555527
 20
173.9492241141
 10
166.3588598046
 20
172.953222118
 10
157.4937268767
 20
172.5893320363
  0
LINE
  5
231
330
59B
100
AcDbEntity
  8
0
  6
Continuous
 62
     8
100
AcDbLine
 10
198.3639165434
 20
171.1393317055
 30
0.0
 11
157.9636349949
 21
171.1393317055
 31
0.0
  0
LINE
  5
232
330
59B
100
AcDbEntity
  8
0
  6
Continuous
 62
     8
100
AcDbLine
 10
123.3639210138
 20
171.1393317055
 30
0.0
 11
157.9636349949
 21
171.1393317055
 31
0.0
  0
LINE
  5
233
330
59B
100
AcDbEntity
  8
0
  6
Continuous
 62
     8
100
AcDbLine
 10
273.3639120731
 20
171.1393317055
 30
0.0
 11
238.7641980919
 21
171.1393317055
 31
0.0
  0
LINE
  5
234
330
59B
100
AcDbEntity
  8
0
  6
Continuous
 62
     8
100
AcDbLine
 10
107.8488394293
 20
171.1393317055
 30
0.0
 11
123.3639210138
 21
171.1393317055
 31
0.0
  0
LINE
  5
235
330
59B
100
AcDbEntity
  8
0
  6
Continuous
 62
     8
100
AcDbLine
 10
288.8789936575
 20
171.1393317055
 30
0.0
 11
273.3639120731
 21
171.1393317055
 31
0.0
  0
LINE
  5
236
330
59B
100
AcDbEntity
  8
0
  6
Continuous
 62
     8
100
AcDbLine
 10
198.3639165434
 20
178.5398159955
 30
0.0
 11
197.5881222777
 21
178.3557438139
 31
0.0
  0
LINE
  5
237
330
59B
100
AcDbEntity
  8
0
  6
Continuous
 62
     8
100
AcDbLine
 10
198.3639165434
 20
178.5398159955
 30
0.0
 11
199.1397108092
 21
178.3557438139
 31
0.0
  0
LINE
  5
238
330
59B
100
AcDbEntity
  8
0
  6
Continuous
 62
     8
100
AcDbLine
 10
292.0789956722
 20
171.1393317055
 30
0.0
 11
288.8789936575
 21
171.1393317055
 31
0.0
  0
LINE
  5
239
330
59B
100
AcDbEntity
  8
0
  6
Continuous
 62
     8
100
AcDbLine
 10
239.2341062102
 20
172.5893320363
 30
0.0
 11
273.3639120731
 21
172.5893320363
 31
0.0
  0
LWPOLYLINE
  5
23A
330
59B
100
AcDbEntity
  8
0
  6
Continuous
 62
     8
100
AcDbPolyline
 90
        3
 70
   128
 43
0.0
 10
291.8114378724
 20
172.5893320363
 10
291.811639038
 20
172.5892836075
 10
291.811817852
 20
172.5892249342
  0
LINE
  5
23B
330
59B
100
AcDbEntity
  8
0
  6
Continuous
 62
     8
100
AcDbLine
 10
157.4937268767
 20
172.5893320363
 30
0.0
 11
123.3639210138
 21
172.5893320363
 31
0.0
  0
LINE
  5
23C
330
59B
100
AcDbEntity
  8
0
  6
Continuous
 62
     8
100
AcDbLine
 10
104.6488374147
 20
171.1393317055
 30
0.0
 11
107.8488394293
 21
171.1393317055
 31
0.0
  0
ARC
  5
23D
330
59B
100
AcDbEntity
  8
0
  6
Continuous
 62
     8
100
AcDbCircle
 10
177.8882610623
 20
151.244528775
 30
0.0
 40
2.519522863946762
100
AcDbArc
 50
179.9184612903
 51
206.8915141955
  0
LWPOLYLINE
  5
23E
330
59B
100
AcDbEntity
  8
0
  6
Continuous
 62
     8
100
AcDbPolyline
 90
       27
 70
   128
 43
0.0
 10
221.0866450939
 20
150.1049419712
 10
220.5652162108
 20
149.1245051693
 10
219.7808842781
 20
148.1725668382
 10
218.7429327193
 20
147.260395981
 10
217.4636568549
 20
146.3987996649
 10
215.9582037154
 20
145.5979777347
 10
214.24440254
 20
144.8674147796
 10
212.3425449851
 20
144.2157609236
 10
210.2751550871
 20
143.6507312428
 10
208.0667126599
 20
143.1790200841
 10
205.7433720353
 20
142.8062116575
 10
203.3326444823
 20
142.536720432
 10
200.8630778316
 20
142.3737389814
 10
198.3639165434
 20
142.3191970062
 10
195.8647552553
 20
142.3737389814
 10
193.3951886046
 20
142.536720432
 10
190.9844610515
 20
142.8062116575
 10
188.661120427
 20
143.1790200841
 10
186.4526779998
 20
143.6507312428
 10
184.3852881018
 20
144.2157609236
 10
182.4834305468
 20
144.8674147796
 10
180.7696293715
 20
145.5979777347
 10
179.2641762319
 20
146.3987996649
 10
177.9849003676
 20
147.260395981
 10
176.9469488087
 20
148.1725668382
 10
176.1626168761
 20
149.1245051693
 10
175.641187993
 20
150.1049419712
  0
ARC
  5
23F
330
59B
100
AcDbEntity
  8
0
  6
Continuous
 62
     8
100
AcDbCircle
 10
218.8395720246
 20
151.244528775
 30
0.0
 40
2.519522863946762
100
AcDbArc
 50
333.1084858044999
 51
0.0815387097
  0
ARC
  5
240
330
59B
100
AcDbEntity
  8
0
  6
Continuous
 62
     8
100
AcDbCircle
 10
220.8817276612
 20
150.0845836631
 30
0.0
 40
0.205926236625906
100
AcDbArc
 50
5.673651121999999
 51
87.9606573409
  0
ARC
  5
241
330
59B
100
AcDbEntity
  8
0
  6
Continuous
 62
     8
100
AcDbCircle
 10
175.8461054257
 20
150.0845836631
 30
0.0
 40
0.205926236625906
100
AcDbArc
 50
92.0393426591
 51
174.326348878
  0
LWPOLYLINE
  5
242
330
59B
100
AcDbEntity
  8
0
  6
Continuous
 62
     8
100
AcDbPolyline
 90
       27
 70
   128
 43
0.0
 10
175.8387773904
 20
150.2903794717
 10
176.3556707326
 20
149.3099426698
 10
177.1331835213
 20
148.3580043387
 10
178.1621087018
 20
147.4458334815
 10
179.4302608493
 20
146.5842371654
 10
180.9226233188
 20
145.7834152352
 10
182.6215214703
 20
145.0528522801
 10
184.5068415302
 20
144.4011946987
 10
186.5562541086
 20
143.8361687433
 10
188.745491733
 20
143.3644575846
 10
191.0486301083
 20
142.9916491579
 10
193.4383949872
 20
142.7221579325
 10
195.8864869691
 20
142.5591764819
 10
198.3639165434
 20
142.5046345066
 10
200.8413461178
 20
142.5591764819
 10
203.2894380997
 20
142.7221579325
 10
205.6792029786
 20
142.9916491579
 10
207.9823413539
 20
143.3644575846
 10
210.1715789783
 20
143.8361687433
 10
212.2209915567
 20
144.4011946987
 10
214.1063116166
 20
145.0528522801
 10
215.8052097681
 20
145.7834152352
 10
217.2975722376
 20
146.5842371654
 10
218.5657243851
 20
147.4458334815
 10
219.5946495655
 20
148.3580043387
 10
220.3721623543
 20
149.3099426698
 10
220.8890556964
 20
150.2903794717
  0
LINE
  5
243
330
59B
100
AcDbEntity
  8
0
  6
Continuous
 62
     8
100
AcDbLine
 10
218.17102429
 20
150.2903794717
 30
0.0
 11
220.269292188
 21
150.2903794717
 31
0.0
  0
LINE
  5
244
330
59B
100
AcDbEntity
  8
0
  6
Continuous
 62
     8
100
AcDbLine
 10
220.8890556964
 20
150.2903794717
 30
0.0
 11
220.2693368915
 21
150.2903794717
 31
0.0
  0
LINE
  5
245
330
59B
100
AcDbEntity
  8
0
  6
Continuous
 62
     8
100
AcDbLine
 10
175.8387773904
 20
150.2903794717
 30
0.0
 11
178.5568087968
 21
150.2903794717
 31
0.0
  0
LINE
  5
246
330
59B
100
AcDbEntity
  8
0
  6
Continuous
 62
     8
100
AcDbLine
 10
198.3639165434
 20
119.9475249123
 30
0.0
 11
198.3639165434
 21
119.5632463168
 31
0.0
  0
LINE
  5
247
330
59B
100
AcDbEntity
  8
0
  6
Continuous
 62
     8
100
AcDbLine
 10
291.8114378724
 20
172.5893320363
 30
0.0
 11
289.0780061159
 21
178.841014098
 31
0.0
  0
LINE
  5
248
330
59B
100
AcDbEntity
  8
0
  6
Continuous
 62
     8
100
AcDbLine
 10
104.9163952145
 20
172.5893320363
 30
0.0
 11
107.649826971
 21
178.841014098
 31
0.0
  0
LINE
  5
249
330
59B
100
AcDbEntity
  8
0
  6
Continuous
 62
     8
100
AcDbLine
 10
257.3639169011
 20
199.2707049321
 30
0.0
 11
257.589654592
 21
199.2707049321
 31
0.0
  0
LINE
  5
24A
330
59B
100
AcDbEntity
  8
0
  6
Continuous
 62
     8
100
AcDbLine
 10
289.1381770048
 20
199.2707049321
 30
0.0
 11
289.3639146957
 21
199.2707049321
 31
0.0
  0
LINE
  5
24B
330
59B
100
AcDbEntity
  8
0
  6
Continuous
 62
     8
100
AcDbLine
 10
278.9316787991
 20
199.2707049321
 30
0.0
 11
283.5704177293
 21
199.2707049321
 31
0.0
  0
LINE
  5
24C
330
59B
100
AcDbEntity
  8
0
  6
Continuous
 62
     8
100
AcDbLine
 10
263.157421318
 20
199.2707049321
 30
0.0
 11
267.7961527977
 21
199.2707049321
 31
0.0
  0
LINE
  5
24D
330
59B
100
AcDbEntity
  8
0
  6
Continuous
 62
     8
100
AcDbLine
 10
107.3639183912
 20
199.2707049321
 30
0.0
 11
107.5896560821
 21
199.2707049321
 31
0.0
  0
LINE
  5
24E
330
59B
100
AcDbEntity
  8
0
  6
Continuous
 62
     8
100
AcDbLine
 10
139.1381784949
 20
199.2707049321
 30
0.0
 11
139.3639161858
 21
199.2707049321
 31
0.0
  0
LINE
  5
24F
330
59B
100
AcDbEntity
  8
0
  6
Continuous
 62
     8
100
AcDbLine
 10
128.9316802892
 20
199.2707049321
 30
0.0
 11
133.5704117689
 21
199.2707049321
 31
0.0
  0
LINE
  5
250
330
59B
100
AcDbEntity
  8
0
  6
Continuous
 62
     8
100
AcDbLine
 10
113.1574153575
 20
199.2707049321
 30
0.0
 11
117.7961542878
 21
199.2707049321
 31
0.0
  0
LINE
  5
251
330
59B
100
AcDbEntity
  8
0
  6
Continuous
 62
     8
100
AcDbLine
 10
278.9316787991
 20
190.2079588581
 30
0.0
 11
283.5704177293
 21
190.2079588581
 31
0.0
  0
LINE
  5
252
330
59B
100
AcDbEntity
  8
0
  6
Continuous
 62
     8
100
AcDbLine
 10
263.157421318
 20
190.2079588581
 30
0.0
 11
267.7961527977
 21
190.2079588581
 31
0.0
  0
LINE
  5
253
330
59B
100
AcDbEntity
  8
0
  6
Continuous
 62
     8
100
AcDbLine
 10
128.9316802892
 20
190.2079588581
 30
0.0
 11
133.5704117689
 21
190.2079588581
 31
0.0
  0
LINE
  5
254
330
59B
100
AcDbEntity
  8
0
  6
Continuous
 62
     8
100
AcDbLine
 10
113.1574153575
 20
190.2079588581
 30
0.0
 11
117.7961542878
 21
190.2079588581
 31
0.0
  0
LINE
  5
255
330
59B
100
AcDbEntity
  8
0
  6
Continuous
 62
     8
100
AcDbLine
 10
289.1381770048
 20
190.2079588581
 30
0.0
 11
289.3639146957
 21
190.2079588581
 31
0.0
  0
LINE
  5
256
330
59B
100
AcDbEntity
  8
0
  6
Continuous
 62
     8
100
AcDbLine
 10
257.3639169011
 20
190.2079588581
 30
0.0
 11
257.589654592
 21
190.2079588581
 31
0.0
  0
LINE
  5
257
330
59B
100
AcDbEntity
  8
0
  6
Continuous
 62
     8
100
AcDbLine
 10
139.1381784949
 20
190.2079588581
 30
0.0
 11
139.3639161858
 21
190.2079588581
 31
0.0
  0
LINE
  5
258
330
59B
100
AcDbEntity
  8
0
  6
Continuous
 62
     8
100
AcDbLine
 10
107.3639183912
 20
190.2079588581
 30
0.0
 11
107.5896560821
 21
190.2079588581
 31
0.0
  0
LINE
  5
259
330
59B
100
AcDbEntity
  8
0
  6
Continuous
 62
     8
100
AcDbLine
 10
218.273575944
 20
150.4142043959
 30
0.0
 11
220.269292188
 21
150.290383197
 31
0.0
  0
LWPOLYLINE
  5
25A
330
59B
100
AcDbEntity
  8
0
  6
Continuous
 62
     8
100
AcDbPolyline
 90
        7
 70
   128
 43
0.0
 10
220.8890556964
 20
150.2903794717
 10
220.8890650097
 20
150.2904018235
 10
221.0881985399
 20
150.9336141717
 10
221.1636133167
 20
151.4279341173
 10
221.0883997056
 20
151.6978761029
 10
220.8300452355
 20
151.7466997575
 10
220.8300359222
 20
151.7466997575
  0
LWPOLYLINE
  5
25B
330
59B
100
AcDbEntity
  8
0
  6
Continuous
 62
     8
100
AcDbPolyline
 90
        7
 70
   128
 43
0.0
 10
175.8387773904
 20
150.2903794717
 10
175.8387680772
 20
150.2904018235
 10
175.638358635
 20
150.9335396659
 10
175.5642197702
 20
151.4279341173
 10
175.6394333813
 20
151.6978761029
 10
175.8977878514
 20
151.7466997575
 10
175.8977971646
 20
151.7466997575
  0
LINE
  5
25C
330
59B
100
AcDbEntity
  8
0
  6
Continuous
 62
     8
100
AcDbLine
 10
176.5070572171
 20
151.7466997575
 30
0.0
 11
178.0380658481
 21
151.7465917241
 31
0.0
  0
LINE
  5
25D
330
59B
100
AcDbEntity
  8
0
  6
Continuous
 62
     8
100
AcDbLine
 10
123.3639135632
 20
205.2890175801
 30
0.0
 11
157.9456977222
 21
205.2890175801
 31
0.0
  0
LINE
  5
25E
330
59B
100
AcDbEntity
  8
0
  6
Continuous
 62
     8
100
AcDbLine
 10
88.7821331296
 20
205.2890175801
 30
0.0
 11
123.3639135632
 21
205.2890175801
 31
0.0
  0
LINE
  5
25F
330
59B
100
AcDbEntity
  8
0
  6
Continuous
 62
     8
100
AcDbLine
 10
123.3639135632
 20
203.3240647834
 30
0.0
 11
155.9697702202
 21
203.3240647834
 31
0.0
  0
LINE
  5
260
330
59B
100
AcDbEntity
  8
0
  6
Continuous
 62
     8
100
AcDbLine
 10
90.7580643568
 20
203.3240647834
 30
0.0
 11
123.3639135632
 21
203.3240647834
 31
0.0
  0
LINE
  5
261
330
59B
100
AcDbEntity
  8
0
  6
CENTERX2
 62
     7
100
AcDbLine
 10
198.3639165434
 20
115.3213657805
 30
0.0
 11
198.3639165434
 21
224.5016251643
 31
0.0
  0
LINE
  5
262
330
59B
100
AcDbEntity
  8
0
  6
CENTERX2
 62
     7
100
AcDbLine
 10
123.3639165434
 20
231.7660651233
 30
0.0
 11
123.3639165434
 21
182.1969454031
 31
0.0
  0
LINE
  5
263
330
59B
100
AcDbEntity
  8
0
  6
CENTERX2
 62
     7
100
AcDbLine
 10
273.3639165434
 20
232.4070451197
 30
0.0
 11
273.3639165434
 21
181.5559654067
 31
0.0
  0
ENDSEC
  0
SECTION
  2
OBJECTS
  0
DICTIONARY
  5
58B
330
0
100
AcDbDictionary
281
     1
  3
ACAD_DETAILVIEWSTYLE
350
600
  3
ACAD_GROUP
350
58C
  3
ACAD_LAYOUT
350
598
  3
ACAD_MATERIAL
350
5A6
  3
ACAD_MLEADERSTYLE
350
5F3
  3
ACAD_MLINESTYLE
350
595
  3
ACAD_PLOTSETTINGS
350
597
  3
ACAD_PLOTSTYLENAME
350
58D
  3
ACAD_SCALELIST
350
5B6
  3
ACAD_SECTIONVIEWSTYLE
350
601
  3
ACAD_TABLESTYLE
350
5F1
  3
ACAD_VISUALSTYLE
350
5D8
  3
ACDB_RECOMPOSE_DATA
350
5FC
  3
AcDbVariableDictionary
350
5F8
  3
APPDATA
350
5F5
  0
DICTIONARY
  5
5F6
330
59B
100
AcDbDictionary
280
     1
281
     1
  3
DIM_BOUNDING_BOXES_V1
360
5F7
  0
DICTIONARY
  5
600
102
{ACAD_REACTORS
330
58B
102
}
330
58B
100
AcDbDictionary
281
     1
  0
DICTIONARY
  5
58C
102
{ACAD_REACTORS
330
58B
102
}
330
58B
100
AcDbDictionary
281
     1
  0
DICTIONARY
  5
598
102
{ACAD_REACTORS
330
58B
102
}
330
58B
100
AcDbDictionary
281
     1
  3
Blatt1
350
59A
  3
Model
350
59C
  0
DICTIONARY
  5
5A6
102
{ACAD_REACTORS
330
58B
102
}
330
58B
100
AcDbDictionary
281
     1
  3
ByBlock
350
5A8
  3
ByLayer
350
5A7
  3
Global
350
5A9
  0
DICTIONARY
  5
5F3
102
{ACAD_REACTORS
330
58B
102
}
330
58B
100
AcDbDictionary
281
     1
  3
Standard
350
5F4
  0
DICTIONARY
  5
595
102
{ACAD_REACTORS
330
58B
102
}
330
58B
100
AcDbDictionary
281
     1
  3
Standard
350
596
  0
DICTIONARY
  5
597
102
{ACAD_REACTORS
330
58B
102
}
330
58B
100
AcDbDictionary
281
     1
  0
ACDBDICTIONARYWDFLT
  5
58D
102
{ACAD_REACTORS
330
58B
102
}
330
58B
100
AcDbDictionary
281
     1
  3
Normal
350
58E
100
AcDbDictionaryWithDefault
340
58E
  0
DICTIONARY
  5
5B6
102
{ACAD_REACTORS
330
58B
102
}
330
58B
100
AcDbDictionary
281
     1
  3
A0
350
5B7
  3
A1
350
5B8
  3
A2
350
5B9
  3
A3
350
5BA
  3
A4
350
5BB
  3
A5
350
5BC
  3
A6
350
5BD
  3
A7
350
5BE
  3
A8
350
5BF
  3
A9
350
5C0
  3
B0
350
5C1
  3
B1
350
5C2
  3
B2
350
5C3
  3
B3
350
5C4
  3
B4
350
5C5
  3
B5
350
5C6
  3
B6
350
5C7
  3
B7
350
5C8
  3
B8
350
5C9
  3
B9
350
5CA
  3
C0
350
5CB
  3
C1
350
5CC
  3
C2
350
5CD
  3
C3
350
5CE
  3
C4
350
5CF
  3
C5
350
5D0
  3
C6
350
5D1
  3
C7
350
5D2
  3
C8
350
5D3
  3
C9
350
5D4
  3
D0
350
5D5
  3
D1
350
5D6
  3
D2
350
5D7
  0
DICTIONARY
  5
601
102
{ACAD_REACTORS
330
58B
102
}
330
58B
100
AcDbDictionary
281
     1
  0
DICTIONARY
  5
5F1
102
{ACAD_REACTORS
330
58B
102
}
330
58B
100
AcDbDictionary
281
     1
  3
Standard
350
5F2
  0
DICTIONARY
  5
5D8
102
{ACAD_REACTORS
330
58B
102
}
330
58B
100
AcDbDictionary
281
     1
  3
2dWireframe
350
5DD
  3
Basic
350
5E0
  3
Brighten
350
5E4
  3
ColorChange
350
5E8
  3
Conceptual
350
5E2
  3
Dim
350
5E3
  3
EdgeColorOff
350
5EB
  3
Facepattern
350
5E7
  3
Flat
350
5D9
  3
FlatWithEdges
350
5DA
  3
Gouraud
350
5DB
  3
GouraudWithEdges
350
5DC
  3
Hidden
350
5DF
  3
JitterOff
350
5E9
  3
Linepattern
350
5E6
  3
OverhangOff
350
5EA
  3
Realistic
350
5E1
  3
Shaded
350
5F0
  3
Shaded with edges
350
5EF
  3
Shades of Gray
350
5EC
  3
Sketchy
350
5ED
  3
Thicken
350
5E5
  3
Wireframe
350
5DE
  3
X-Ray
350
5EE
  0
XRECORD
  5
5FC
102
{ACAD_REACTORS
330
58B
102
}
330
58B
100
AcDbXrecord
280
     1
 90
        1
330
5F2
  0
DICTIONARY
  5
5F8
102
{ACAD_REACTORS
330
58B
102
}
330
58B
100
AcDbDictionary
281
     1
  3
CANNOSCALE
350
5F9
  3
CMLEADERSTYLE
350
5FE
  3
CTABLESTYLE
350
5FD
  3
MSLTSCALE
350
5FF
  0
DICTIONARY
  5
5F5
102
{ACAD_REACTORS
330
58B
102
}
330
58B
100
AcDbDictionary
281
     1
  0
DICTIONARY
  5
5F7
102
{ACAD_REACTORS
330
5F6
102
}
330
5F6
100
AcDbDictionary
281
     1
  0
LAYOUT
  5
59A
102
{ACAD_REACTORS
330
598
102
}
330
598
100
AcDbPlotSettings
  1

  2
none_device
  4

  6

 40
0.0
 41
0.0
 42
0.0
 43
0.0
 44
0.0
 45
0.0
 46
0.0
 47
0.0
 48
0.0
 49
0.0
140
0.0
141
0.0
142
1.0
143
1.0
 70
   688
 72
     0
 73
     0
 74
     5
  7

 75
    16
 76
     0
 77
     2
 78
   300
147
1.0
148
0.0
149
0.0
100
AcDbLayout
  1
Blatt1
 70
     1
 71
     1
 10
0.0
 20
0.0
 11
0.0
 21
0.0
 12
0.0
 22
0.0
 32
0.0
 14
1.000000000000000E+20
 24
1.000000000000000E+20
 34
1.000000000000000E+20
 15
-1.000000000000000E+20
 25
-1.000000000000000E+20
 35
-1.000000000000000E+20
146
0.0
 13
0.0
 23
0.0
 33
0.0
 16
1.0
 26
0.0
 36
0.0
 17
0.0
 27
1.0
 37
0.0
 76
     0
330
599
  0
LAYOUT
  5
59C
102
{ACAD_REACTORS
330
598
102
}
330
598
100
AcDbPlotSettings
  1

  2
none_device
  4
Letter_(8.50_x_11.00_Inches)
  6

 40
6.35
 41
6.35
 42
6.35
 43
6.35
 44
215.9
 45
279.4
 46
0.0
 47
0.0
 48
0.0
 49
0.0
140
0.0
141
0.0
142
1.0
143
1.0
 70
  1712
 72
     0
 73
     0
 74
     0
  7

 75
     0
 76
     0
 77
     2
 78
   300
147
1.0
148
0.0
149
0.0
100
AcDbLayout
  1
Model
 70
     1
 71
     0
 10
0.0
 20
0.0
 11
12.0
 21
9.0
 12
0.0
 22
0.0
 32
0.0
 14
33.76143973320001
 24
37.46023423129998
 34
0.0
 15
520.6771150059001
 25
406.4961072554
 35
0.0
146
0.0
 13
0.0
 23
0.0
 33
0.0
 16
1.0
 26
0.0
 36
0.0
 17
0.0
 27
1.0
 37
0.0
 76
     0
330
59B
331
59E
  0
MATERIAL
  5
5A8
102
{ACAD_REACTORS
330
5A6
102
}
330
5A6
100
AcDbMaterial
  1
ByBlock
 72
     1
 94
      127
  0
MATERIAL
  5
5A7
102
{ACAD_REACTORS
330
5A6
102
}
330
5A6
100
AcDbMaterial
  1
ByLayer
 72
     1
 94
      127
  0
MATERIAL
  5
5A9
102
{ACAD_REACTORS
330
5A6
102
}
330
5A6
100
AcDbMaterial
  1
Global
 72
     1
 94
      127
  0
MLEADERSTYLE
  5
5F4
102
{ACAD_REACTORS
330
5F3
102
}
330
5F3
100
AcDbMLeaderStyle
179
     2
170
     2
171
     1
172
     0
 90
        2
 40
0.0
 41
0.0
173
     1
 91
-1056964608
340
592
 92
       -2
290
     1
 42
0.09
291
     1
 43
0.36
  3
Standard
341
0
 44
0.18
300

342
590
174
     1
178
     1
175
     1
176
     0
 93
-1056964608
 45
0.18
292
     0
297
     0
 46
0.18
343
0
 94
-1056964608
 47
1.0
 49
1.0
140
1.0
293
     1
141
0.0
294
     1
177
     0
142
1.0
295
     0
296
     0
143
0.125
271
     0
272
     9
273
     9
298
     0
  0
MLINESTYLE
  5
596
102
{ACAD_REACTORS
330
595
102
}
330
595
100
AcDbMlineStyle
  2
Standard
 70
     0
  3

 62
   256
 51
90.0
 52
90.0
 71
     2
 49
0.5
 62
   256
  6
BYLAYER
 49
-0.5
 62
   256
  6
BYLAYER
  0
ACDBPLACEHOLDER
  5
58E
102
{ACAD_REACTORS
330
58D
102
}
330
58D
  0
SCALE
  5
5B7
102
{ACAD_REACTORS
330
5B6
102
}
330
5B6
100
AcDbScale
 70
     0
300
1:1
140
1.0
141
1.0
290
     1
  0
SCALE
  5
5B8
102
{ACAD_REACTORS
330
5B6
102
}
330
5B6
100
AcDbScale
 70
     0
300
1:2
140
1.0
141
2.0
290
     0
  0
SCALE
  5
5B9
102
{ACAD_REACTORS
330
5B6
102
}
330
5B6
100
AcDbScale
 70
     0
300
1:4
140
1.0
141
4.0
290
     0
  0
SCALE
  5
5BA
102
{ACAD_REACTORS
330
5B6
102
}
330
5B6
100
AcDbScale
 70
     0
300
1:5
140
1.0
141
5.0
290
     0
  0
SCALE
  5
5BB
102
{ACAD_REACTORS
330
5B6
102
}
330
5B6
100
AcDbScale
 70
     0
300
1:8
140
1.0
141
8.0
290
     0
  0
SCALE
  5
5BC
102
{ACAD_REACTORS
330
5B6
102
}
330
5B6
100
AcDbScale
 70
     0
300
1:10
140
1.0
141
10.0
290
     0
  0
SCALE
  5
5BD
102
{ACAD_REACTORS
330
5B6
102
}
330
5B6
100
AcDbScale
 70
     0
300
1:16
140
1.0
141
16.0
290
     0
  0
SCALE
  5
5BE
102
{ACAD_REACTORS
330
5B6
102
}
330
5B6
100
AcDbScale
 70
     0
300
1:20
140
1.0
141
20.0
290
     0
  0
SCALE
  5
5BF
102
{ACAD_REACTORS
330
5B6
102
}
330
5B6
100
AcDbScale
 70
     0
300
1:30
140
1.0
141
30.0
290
     0
  0
SCALE
  5
5C0
102
{ACAD_REACTORS
330
5B6
102
}
330
5B6
100
AcDbScale
 70
     0
300
1:40
140
1.0
141
40.0
290
     0
  0
SCALE
  5
5C1
102
{ACAD_REACTORS
330
5B6
102
}
330
5B6
100
AcDbScale
 70
     0
300
1:50
140
1.0
141
50.0
290
     0
  0
SCALE
  5
5C2
102
{ACAD_REACTORS
330
5B6
102
}
330
5B6
100
AcDbScale
 70
     0
300
1:100
140
1.0
141
100.0
290
     0
  0
SCALE
  5
5C3
102
{ACAD_REACTORS
330
5B6
102
}
330
5B6
100
AcDbScale
 70
     0
300
2:1
140
2.0
141
1.0
290
     0
  0
SCALE
  5
5C4
102
{ACAD_REACTORS
330
5B6
102
}
330
5B6
100
AcDbScale
 70
     0
300
4:1
140
4.0
141
1.0
290
     0
  0
SCALE
  5
5C5
102
{ACAD_REACTORS
330
5B6
102
}
330
5B6
100
AcDbScale
 70
     0
300
8:1
140
8.0
141
1.0
290
     0
  0
SCALE
  5
5C6
102
{ACAD_REACTORS
330
5B6
102
}
330
5B6
100
AcDbScale
 70
     0
300
10:1
140
10.0
141
1.0
290
     0
  0
SCALE
  5
5C7
102
{ACAD_REACTORS
330
5B6
102
}
330
5B6
100
AcDbScale
 70
     0
300
100:1
140
100.0
141
1.0
290
     0
  0
SCALE
  5
5C8
102
{ACAD_REACTORS
330
5B6
102
}
330
5B6
100
AcDbScale
 70
     0
300
1/128" = 1'-0"
140
0.0078125
141
12.0
290
     0
  0
SCALE
  5
5C9
102
{ACAD_REACTORS
330
5B6
102
}
330
5B6
100
AcDbScale
 70
     0
300
1/64" = 1'-0"
140
0.015625
141
12.0
290
     0
  0
SCALE
  5
5CA
102
{ACAD_REACTORS
330
5B6
102
}
330
5B6
100
AcDbScale
 70
     0
300
1/32" = 1'-0"
140
0.03125
141
12.0
290
     0
  0
SCALE
  5
5CB
102
{ACAD_REACTORS
330
5B6
102
}
330
5B6
100
AcDbScale
 70
     0
300
1/16" = 1'-0"
140
0.0625
141
12.0
290
     0
  0
SCALE
  5
5CC
102
{ACAD_REACTORS
330
5B6
102
}
330
5B6
100
AcDbScale
 70
     0
300
3/32" = 1'-0"
140
0.09375
141
12.0
290
     0
  0
SCALE
  5
5CD
102
{ACAD_REACTORS
330
5B6
102
}
330
5B6
100
AcDbScale
 70
     0
300
1/8" = 1'-0"
140
0.125
141
12.0
290
     0
  0
SCALE
  5
5CE
102
{ACAD_REACTORS
330
5B6
102
}
330
5B6
100
AcDbScale
 70
     0
300
3/16" = 1'-0"
140
0.1875
141
12.0
290
     0
  0
SCALE
  5
5CF
102
{ACAD_REACTORS
330
5B6
102
}
330
5B6
100
AcDbScale
 70
     0
300
1/4" = 1'-0"
140
0.25
141
12.0
290
     0
  0
SCALE
  5
5D0
102
{ACAD_REACTORS
330
5B6
102
}
330
5B6
100
AcDbScale
 70
     0
300
3/8" = 1'-0"
140
0.375
141
12.0
290
     0
  0
SCALE
  5
5D1
102
{ACAD_REACTORS
330
5B6
102
}
330
5B6
100
AcDbScale
 70
     0
300
1/2" = 1'-0"
140
0.5
141
12.0
290
     0
  0
SCALE
  5
5D2
102
{ACAD_REACTORS
330
5B6
102
}
330
5B6
100
AcDbScale
 70
     0
300
3/4" = 1'-0"
140
0.75
141
12.0
290
     0
  0
SCALE
  5
5D3
102
{ACAD_REACTORS
330
5B6
102
}
330
5B6
100
AcDbScale
 70
     0
300
1" = 1'-0"
140
1.0
141
12.0
290
     0
  0
SCALE
  5
5D4
102
{ACAD_REACTORS
330
5B6
102
}
330
5B6
100
AcDbScale
 70
     0
300
1-1/2" = 1'-0"
140
1.5
141
12.0
290
     0
  0
SCALE
  5
5D5
102
{ACAD_REACTORS
330
5B6
102
}
330
5B6
100
AcDbScale
 70
     0
300
3" = 1'-0"
140
3.0
141
12.0
290
     0
  0
SCALE
  5
5D6
102
{ACAD_REACTORS
330
5B6
102
}
330
5B6
100
AcDbScale
 70
     0
300
6" = 1'-0"
140
6.0
141
12.0
290
     0
  0
SCALE
  5
5D7
102
{ACAD_REACTORS
330
5B6
102
}
330
5B6
100
AcDbScale
 70
     0
300
1'-0" = 1'-0"
140
12.0
141
12.0
290
     0
  0
TABLESTYLE
  5
5F2
102
{ACAD_REACTORS
330
5F1
102
}
102
{ACAD_XDICTIONARY
360
5FA
102
}
330
5F1
100
AcDbTableStyle
  3
Standard
 70
     0
 71
     0
 40
0.06
 41
0.06
280
     0
281
     0
  7
STANDARD
140
0.18
170
     2
 62
     0
 63
   257
283
     0
 90
        4
 91
        0
  1

274
    -2
284
     1
 64
     0
275
    -2
285
     1
 65
     0
276
    -2
286
     1
 66
     0
277
    -2
287
     1
 67
     0
278
    -2
288
     1
 68
     0
279
    -2
289
     1
 69
     0
  7
STANDARD
140
0.25
170
     5
 62
     0
 63
   257
283
     0
 90
        4
 91
        0
  1

274
    -2
284
     1
 64
     0
275
    -2
285
     1
 65
     0
276
    -2
286
     1
 66
     0
277
    -2
287
     1
 67
     0
278
    -2
288
     1
 68
     0
279
    -2
289
     1
 69
     0
  7
STANDARD
140
0.18
170
     5
 62
     0
 63
   257
283
     0
 90
        4
 91
        0
  1

274
    -2
284
     1
 64
     0
275
    -2
285
     1
 65
     0
276
    -2
286
     1
 66
     0
277
    -2
287
     1
 67
     0
278
    -2
288
     1
 68
     0
279
    -2
289
     1
 69
     0
  0
VISUALSTYLE
  5
5DD
102
{ACAD_REACTORS
330
5D8
102
}
330
5D8
100
AcDbVisualStyle
  2
2dWireframe
 70
     4
177
     3
291
     0
 70
    58
 90
        0
176
     1
 90
        2
176
     1
 90
        0
176
     1
 90
        0
176
     1
 40
0.6
176
     1
 40
30.0
176
     1
 62
     7
420
 16777215
176
     1
 90
        1
176
     1
 90
        4
176
     1
 62
     7
176
     1
 62
   257
176
     1
 90
        1
176
     1
 90
        1
176
     1
 40
1.0
176
     1
 90
        0
176
     1
 62
   257
176
     1
 40
1.0
176
     1
 90
        1
176
     1
 90
        6
176
     1
 90
        2
176
     1
 62
     7
176
     1
 90
        5
176
     1
 90
        0
176
     1
 90
        0
176
     1
290
     0
176
     1
 90
        1
176
     1
 40
0.0
176
     1
 90
        0
176
     1
290
     1
176
     1
290
     1
176
     1
290
     0
176
     1
290
     0
176
     1
290
     0
176
     1
290
     0
176
     1
290
     0
176
     1
290
     0
176
     1
290
     0
176
     1
 90
       50
176
     1
 40
0.0
176
     1
 40
1.0
176
     1
 90
        0
176
     1
 62
    18
420
        0
176
     1
 90
       50
176
     1
 90
        3
176
     1
 62
     5
420
      255
176
     1
290
     0
176
     1
 90
       50
176
     1
 90
       50
176
     1
 90
       50
176
     1
290
     0
176
     1
 90
       50
176
     1
 62
   256
176
     0
 40
1.0
176
     0
 90
        2
176
     1
  1
strokes_ogs.tif
176
     1
290
     0
176
     1
 40
1.0
176
     1
 40
1.0
176
     1
  0
VISUALSTYLE
  5
5E0
102
{ACAD_REACTORS
330
5D8
102
}
330
5D8
100
AcDbVisualStyle
  2
Basic
 70
     7
177
     3
291
     1
 70
    58
 90
        1
176
     1
 90
        0
176
     1
 90
        1
176
     1
 90
        0
176
     1
 40
0.6
176
     1
 40
30.0
176
     1
 62
     7
420
 16777215
176
     1
 90
        0
176
     1
 90
        4
176
     1
 62
     7
176
     1
 62
   257
176
     1
 90
        1
176
     1
 90
        1
176
     1
 40
1.0
176
     1
 90
        8
176
     1
 62
     7
176
     1
 40
1.0
176
     1
 90
        1
176
     1
 90
        6
176
     1
 90
        2
176
     1
 62
     7
176
     1
 90
        5
176
     1
 90
        0
176
     1
 90
        0
176
     1
290
     0
176
     1
 90
        1
176
     1
 40
0.0
176
     1
 90
        0
176
     1
290
     0
176
     1
290
     1
176
     1
290
     1
176
     1
290
     0
176
     1
290
     0
176
     1
290
     0
176
     1
290
     0
176
     1
290
     0
176
     1
290
     0
176
     1
 90
       50
176
     1
 40
0.0
176
     1
 40
1.0
176
     1
 90
        0
176
     1
 62
    18
420
        0
176
     1
 90
       50
176
     1
 90
        3
176
     1
 62
     5
420
      255
176
     1
290
     0
176
     1
 90
       50
176
     1
 90
       50
176
     1
 90
       50
176
     1
290
     0
176
     1
 90
       50
176
     1
 62
   256
176
     0
 40
1.0
176
     0
 90
        2
176
     1
  1
strokes_ogs.tif
176
     1
290
     0
176
     1
 40
1.0
176
     1
 40
1.0
176
     1
  0
VISUALSTYLE
  5
5E4
102
{ACAD_REACTORS
330
5D8
102
}
330
5D8
100
AcDbVisualStyle
  2
Brighten
 70
    12
177
     3
291
     1
 70
    58
 90
        2
176
     1
 90
        2
176
     1
 90
        0
176
     1
 90
        0
176
     1
 40
0.6
176
     1
 40
30.0
176
     1
 62
     7
420
 16777215
176
     1
 90
        1
176
     1
 90
        4
176
     1
 62
     7
176
     1
 62
   257
176
     1
 90
        1
176
     1
 90
        1
176
     1
 40
1.0
176
     1
 90
        8
176
     1
 62
     7
176
     1
 40
1.0
176
     1
 90
        1
176
     1
 90
        6
176
     1
 90
        2
176
     1
 62
     7
176
     1
 90
        5
176
     1
 90
        0
176
     1
 90
        0
176
     1
290
     0
176
     1
 90
        1
176
     1
 40
50.0
176
     1
 90
        0
176
     1
290
     0
176
     1
290
     1
176
     1
290
     1
176
     1
290
     0
176
     1
290
     0
176
     1
290
     0
176
     1
290
     0
176
     1
290
     0
176
     1
290
     0
176
     1
 90
       50
176
     1
 40
0.0
176
     1
 40
1.0
176
     1
 90
        0
176
     1
 62
    18
420
        0
176
     1
 90
       50
176
     1
 90
        3
176
     1
 62
     5
420
      255
176
     1
290
     0
176
     1
 90
       50
176
     1
 90
       50
176
     1
 90
       50
176
     1
290
     0
176
     1
 90
       50
176
     1
 62
   256
176
     0
 40
1.0
176
     0
 90
        2
176
     1
  1
strokes_ogs.tif
176
     1
290
     0
176
     1
 40
1.0
176
     1
 40
1.0
176
     1
  0
VISUALSTYLE
  5
5E8
102
{ACAD_REACTORS
330
5D8
102
}
330
5D8
100
AcDbVisualStyle
  2
ColorChange
 70
    16
177
     3
291
     1
 70
    58
 90
        2
176
     1
 90
        2
176
     1
 90
        3
176
     1
 90
        0
176
     1
 40
0.6
176
     1
 40
30.0
176
     1
 62
     8
420
  8421504
176
     1
 90
        1
176
     1
 90
        4
176
     1
 62
     7
176
     1
 62
   257
176
     1
 90
        1
176
     1
 90
        1
176
     1
 40
1.0
176
     1
 90
        8
176
     1
 62
     8
420
  8421504
176
     1
 40
1.0
176
     1
 90
        1
176
     1
 90
        6
176
     1
 90
        2
176
     1
 62
     7
176
     1
 90
        5
176
     1
 90
        0
176
     1
 90
        0
176
     1
290
     0
176
     1
 90
        1
176
     1
 40
0.0
176
     1
 90
        0
176
     1
290
     0
176
     1
290
     1
176
     1
290
     1
176
     1
290
     0
176
     1
290
     0
176
     1
290
     0
176
     1
290
     0
176
     1
290
     0
176
     1
290
     0
176
     1
 90
       50
176
     1
 40
0.0
176
     1
 40
1.0
176
     1
 90
        0
176
     1
 62
    18
420
        0
176
     1
 90
       50
176
     1
 90
        3
176
     1
 62
     5
420
      255
176
     1
290
     0
176
     1
 90
       50
176
     1
 90
       50
176
     1
 90
       50
176
     1
290
     0
176
     1
 90
       50
176
     1
 62
   256
176
     0
 40
1.0
176
     0
 90
        2
176
     1
  1
strokes_ogs.tif
176
     1
290
     0
176
     1
 40
1.0
176
     1
 40
1.0
176
     1
  0
VISUALSTYLE
  5
5E2
102
{ACAD_REACTORS
330
5D8
102
}
330
5D8
100
AcDbVisualStyle
  2
Conceptual
 70
     9
177
     3
291
     0
 70
    58
 90
        3
176
     1
 90
        2
176
     1
 90
        0
176
     1
 90
        0
176
     1
 40
0.6
176
     1
 40
30.0
176
     1
 62
     7
420
 16777215
176
     1
 90
        2
176
     1
 90
        2
176
     1
 62
     7
176
     1
 62
   257
176
     1
 90
        1
176
     1
 90
        1
176
     1
 40
179.0
176
     1
 90
        8
176
     1
 62
     7
176
     1
 40
1.0
176
     1
 90
        1
176
     1
 90
        6
176
     1
 90
        2
176
     1
 62
     7
176
     1
 90
        3
176
     1
 90
        0
176
     1
 90
        0
176
     1
290
     0
176
     1
 90
        1
176
     1
 40
0.0
176
     1
 90
        0
176
     1
290
     0
176
     1
290
     1
176
     1
290
     1
176
     1
290
     0
176
     1
290
     0
176
     1
290
     0
176
     1
290
     0
176
     1
290
     0
176
     1
290
     0
176
     1
 90
       50
176
     1
 40
0.0
176
     1
 40
1.0
176
     1
 90
        0
176
     1
 62
    18
420
        0
176
     1
 90
       50
176
     1
 90
        3
176
     1
 62
     5
420
      255
176
     1
290
     0
176
     1
 90
       50
176
     1
 90
       50
176
     1
 90
       50
176
     1
290
     0
176
     1
 90
       50
176
     1
 62
   256
176
     0
 40
1.0
176
     0
 90
        2
176
     1
  1
strokes_ogs.tif
176
     1
290
     0
176
     1
 40
1.0
176
     1
 40
1.0
176
     1
  0
VISUALSTYLE
  5
5E3
102
{ACAD_REACTORS
330
5D8
102
}
330
5D8
100
AcDbVisualStyle
  2
Dim
 70
    11
177
     3
291
     1
 70
    58
 90
        2
176
     1
 90
        2
176
     1
 90
        0
176
     1
 90
        0
176
     1
 40
0.6
176
     1
 40
30.0
176
     1
 62
     7
420
 16777215
176
     1
 90
        1
176
     1
 90
        4
176
     1
 62
     7
176
     1
 62
   257
176
     1
 90
        1
176
     1
 90
        1
176
     1
 40
1.0
176
     1
 90
        8
176
     1
 62
     7
176
     1
 40
1.0
176
     1
 90
        1
176
     1
 90
        6
176
     1
 90
        2
176
     1
 62
     7
176
     1
 90
        5
176
     1
 90
        0
176
     1
 90
        0
176
     1
290
     0
176
     1
 90
        1
176
     1
 40
-50.0
176
     1
 90
        0
176
     1
290
     0
176
     1
290
     1
176
     1
290
     1
176
     1
290
     0
176
     1
290
     0
176
     1
290
     0
176
     1
290
     0
176
     1
290
     0
176
     1
290
     0
176
     1
 90
       50
176
     1
 40
0.0
176
     1
 40
1.0
176
     1
 90
        0
176
     1
 62
    18
420
        0
176
     1
 90
       50
176
     1
 90
        3
176
     1
 62
     5
420
      255
176
     1
290
     0
176
     1
 90
       50
176
     1
 90
       50
176
     1
 90
       50
176
     1
290
     0
176
     1
 90
       50
176
     1
 62
   256
176
     0
 40
1.0
176
     0
 90
        2
176
     1
  1
strokes_ogs.tif
176
     1
290
     0
176
     1
 40
1.0
176
     1
 40
1.0
176
     1
  0
VISUALSTYLE
  5
5EB
102
{ACAD_REACTORS
330
5D8
102
}
330
5D8
100
AcDbVisualStyle
  2
EdgeColorOff
 70
    22
177
     3
291
     1
 70
    58
 90
        2
176
     0
 90
        2
176
     0
 90
        0
176
     0
 90
        0
176
     0
 40
0.6
176
     0
 40
30.0
176
     0
 62
     7
420
 16777215
176
     0
 90
        1
176
     0
 90
        4
176
     0
 62
     7
176
     0
 62
   257
176
     0
 90
        1
176
     0
 90
        1
176
     0
 40
1.0
176
     0
 90
        8
176
     2
 62
     7
176
     0
 40
1.0
176
     0
 90
        1
176
     0
 90
        6
176
     0
 90
        2
176
     0
 62
     7
176
     0
 90
        5
176
     0
 90
        0
176
     0
 90
        0
176
     0
290
     0
176
     0
 90
        1
176
     0
 40
0.0
176
     0
 90
        0
176
     0
290
     0
176
     0
290
     1
176
     0
290
     1
176
     0
290
     0
176
     0
290
     0
176
     0
290
     0
176
     0
290
     0
176
     0
290
     0
176
     0
290
     0
176
     0
 90
       50
176
     0
 40
0.0
176
     0
 40
1.0
176
     0
 90
        0
176
     0
 62
    18
420
        0
176
     0
 90
       50
176
     0
 90
        3
176
     0
 62
     5
420
      255
176
     0
290
     0
176
     0
 90
       50
176
     0
 90
       50
176
     0
 90
       50
176
     0
290
     0
176
     0
 90
       50
176
     0
 62
   256
176
     0
 40
1.0
176
     0
 90
        2
176
     0
  1
strokes_ogs.tif
176
     0
290
     0
176
     0
 40
1.0
176
     0
 40
1.0
176
     0
  0
VISUALSTYLE
  5
5E7
102
{ACAD_REACTORS
330
5D8
102
}
330
5D8
100
AcDbVisualStyle
  2
Facepattern
 70
    15
177
     3
291
     1
 70
    58
 90
        2
176
     1
 90
        2
176
     1
 90
        0
176
     1
 90
        0
176
     1
 40
0.6
176
     1
 40
30.0
176
     1
 62
     7
420
 16777215
176
     1
 90
        1
176
     1
 90
        4
176
     1
 62
     7
176
     1
 62
   257
176
     1
 90
        1
176
     1
 90
        1
176
     1
 40
1.0
176
     1
 90
        8
176
     1
 62
     7
176
     1
 40
1.0
176
     1
 90
        1
176
     1
 90
        6
176
     1
 90
        2
176
     1
 62
     7
176
     1
 90
        5
176
     1
 90
        0
176
     1
 90
        0
176
     1
290
     0
176
     1
 90
        1
176
     1
 40
0.0
176
     1
 90
        0
176
     1
290
     0
176
     1
290
     1
176
     1
290
     1
176
     1
290
     0
176
     1
290
     0
176
     1
290
     0
176
     1
290
     0
176
     1
290
     0
176
     1
290
     0
176
     1
 90
       50
176
     1
 40
0.0
176
     1
 40
1.0
176
     1
 90
        0
176
     1
 62
    18
420
        0
176
     1
 90
       50
176
     1
 90
        3
176
     1
 62
     5
420
      255
176
     1
290
     0
176
     1
 90
       50
176
     1
 90
       50
176
     1
 90
       50
176
     1
290
     0
176
     1
 90
       50
176
     1
 62
   256
176
     0
 40
1.0
176
     0
 90
        2
176
     1
  1
strokes_ogs.tif
176
     1
290
     0
176
     1
 40
1.0
176
     1
 40
1.0
176
     1
  0
VISUALSTYLE
  5
5D9
102
{ACAD_REACTORS
330
5D8
102
}
330
5D8
100
AcDbVisualStyle
  2
Flat
 70
     0
177
     3
291
     1
 70
    58
 90
        2
176
     1
 90
        1
176
     1
 90
        1
176
     1
 90
        2
176
     1
 40
0.6
176
     1
 40
30.0
176
     1
 62
     7
420
 16777215
176
     1
 90
        0
176
     1
 90
        0
176
     1
 62
     7
176
     1
 62
   257
176
     1
 90
        1
176
     1
 90
        1
176
     1
 40
1.0
176
     1
 90
        8
176
     1
 62
     7
176
     1
 40
1.0
176
     1
 90
        1
176
     1
 90
        6
176
     1
 90
        2
176
     1
 62
     7
176
     1
 90
        5
176
     1
 90
        0
176
     1
 90
        0
176
     1
290
     0
176
     1
 90
       13
176
     1
 40
0.0
176
     1
 90
        0
176
     1
290
     0
176
     1
290
     1
176
     1
290
     1
176
     1
290
     0
176
     1
290
     0
176
     1
290
     0
176
     1
290
     0
176
     1
290
     0
176
     1
290
     0
176
     1
 90
       50
176
     1
 40
0.0
176
     1
 40
1.0
176
     1
 90
        0
176
     1
 62
    18
420
        0
176
     1
 90
       50
176
     1
 90
        3
176
     1
 62
     5
420
      255
176
     1
290
     0
176
     1
 90
       50
176
     1
 90
       50
176
     1
 90
       50
176
     1
290
     0
176
     1
 90
       50
176
     1
 62
   256
176
     0
 40
1.0
176
     0
 90
        2
176
     1
  1
strokes_ogs.tif
176
     1
290
     0
176
     1
 40
1.0
176
     1
 40
1.0
176
     1
  0
VISUALSTYLE
  5
5DA
102
{ACAD_REACTORS
330
5D8
102
}
330
5D8
100
AcDbVisualStyle
  2
FlatWithEdges
 70
     1
177
     3
291
     1
 70
    58
 90
        2
176
     1
 90
        1
176
     1
 90
        1
176
     1
 90
        2
176
     1
 40
0.6
176
     1
 40
30.0
176
     1
 62
     7
420
 16777215
176
     1
 90
        1
176
     1
 90
        0
176
     1
 62
     7
176
     1
 62
   257
176
     1
 90
        1
176
     1
 90
        1
176
     1
 40
1.0
176
     1
 90
        0
176
     1
 62
   257
176
     1
 40
1.0
176
     1
 90
        1
176
     1
 90
        6
176
     1
 90
        2
176
     1
 62
     7
176
     1
 90
        5
176
     1
 90
        0
176
     1
 90
        0
176
     1
290
     0
176
     1
 90
       13
176
     1
 40
0.0
176
     1
 90
        0
176
     1
290
     0
176
     1
290
     1
176
     1
290
     1
176
     1
290
     0
176
     1
290
     0
176
     1
290
     0
176
     1
290
     0
176
     1
290
     0
176
     1
290
     0
176
     1
 90
       50
176
     1
 40
0.0
176
     1
 40
1.0
176
     1
 90
        0
176
     1
 62
    18
420
        0
176
     1
 90
       50
176
     1
 90
        3
176
     1
 62
     5
420
      255
176
     1
290
     0
176
     1
 90
       50
176
     1
 90
       50
176
     1
 90
       50
176
     1
290
     0
176
     1
 90
       50
176
     1
 62
   256
176
     0
 40
1.0
176
     0
 90
        2
176
     1
  1
strokes_ogs.tif
176
     1
290
     0
176
     1
 40
1.0
176
     1
 40
1.0
176
     1
  0
VISUALSTYLE
  5
5DB
102
{ACAD_REACTORS
330
5D8
102
}
330
5D8
100
AcDbVisualStyle
  2
Gouraud
 70
     2
177
     3
291
     1
 70
    58
 90
        2
176
     1
 90
        2
176
     1
 90
        1
176
     1
 90
        2
176
     1
 40
0.6
176
     1
 40
30.0
176
     1
 62
     7
420
 16777215
176
     1
 90
        0
176
     1
 90
        0
176
     1
 62
     7
176
     1
 62
   257
176
     1
 90
        1
176
     1
 90
        1
176
     1
 40
1.0
176
     1
 90
        0
176
     1
 62
     7
176
     1
 40
1.0
176
     1
 90
        1
176
     1
 90
        6
176
     1
 90
        2
176
     1
 62
     7
176
     1
 90
        5
176
     1
 90
        0
176
     1
 90
        0
176
     1
290
     0
176
     1
 90
       13
176
     1
 40
0.0
176
     1
 90
        0
176
     1
290
     0
176
     1
290
     1
176
     1
290
     1
176
     1
290
     0
176
     1
290
     0
176
     1
290
     0
176
     1
290
     0
176
     1
290
     0
176
     1
290
     0
176
     1
 90
       50
176
     1
 40
0.0
176
     1
 40
1.0
176
     1
 90
        0
176
     1
 62
    18
420
        0
176
     1
 90
       50
176
     1
 90
        3
176
     1
 62
     5
420
      255
176
     1
290
     0
176
     1
 90
       50
176
     1
 90
       50
176
     1
 90
       50
176
     1
290
     0
176
     1
 90
       50
176
     1
 62
   256
176
     0
 40
1.0
176
     0
 90
        2
176
     1
  1
strokes_ogs.tif
176
     1
290
     0
176
     1
 40
1.0
176
     1
 40
1.0
176
     1
  0
VISUALSTYLE
  5
5DC
102
{ACAD_REACTORS
330
5D8
102
}
330
5D8
100
AcDbVisualStyle
  2
GouraudWithEdges
 70
     3
177
     3
291
     1
 70
    58
 90
        2
176
     1
 90
        2
176
     1
 90
        1
176
     1
 90
        2
176
     1
 40
0.6
176
     1
 40
30.0
176
     1
 62
     7
420
 16777215
176
     1
 90
        1
176
     1
 90
        0
176
     1
 62
     7
176
     1
 62
   257
176
     1
 90
        1
176
     1
 90
        1
176
     1
 40
1.0
176
     1
 90
        0
176
     1
 62
   257
176
     1
 40
1.0
176
     1
 90
        1
176
     1
 90
        6
176
     1
 90
        2
176
     1
 62
     7
176
     1
 90
        5
176
     1
 90
        0
176
     1
 90
        0
176
     1
290
     0
176
     1
 90
       13
176
     1
 40
0.0
176
     1
 90
        0
176
     1
290
     0
176
     1
290
     1
176
     1
290
     1
176
     1
290
     0
176
     1
290
     0
176
     1
290
     0
176
     1
290
     0
176
     1
290
     0
176
     1
290
     0
176
     1
 90
       50
176
     1
 40
0.0
176
     1
 40
1.0
176
     1
 90
        0
176
     1
 62
    18
420
        0
176
     1
 90
       50
176
     1
 90
        3
176
     1
 62
     5
420
      255
176
     1
290
     0
176
     1
 90
       50
176
     1
 90
       50
176
     1
 90
       50
176
     1
290
     0
176
     1
 90
       50
176
     1
 62
   256
176
     0
 40
1.0
176
     0
 90
        2
176
     1
  1
strokes_ogs.tif
176
     1
290
     0
176
     1
 40
1.0
176
     1
 40
1.0
176
     1
  0
VISUALSTYLE
  5
5DF
102
{ACAD_REACTORS
330
5D8
102
}
330
5D8
100
AcDbVisualStyle
  2
Hidden
 70
     6
177
     3
291
     0
 70
    58
 90
        1
176
     1
 90
        2
176
     1
 90
        2
176
     1
 90
        0
176
     1
 40
0.6
176
     1
 40
30.0
176
     1
 62
     7
420
 16777215
176
     1
 90
        2
176
     1
 90
        2
176
     1
 62
     7
176
     1
 62
   257
176
     1
 90
        2
176
     1
 90
        1
176
     1
 40
40.0
176
     1
 90
        0
176
     1
 62
   257
176
     1
 40
1.0
176
     1
 90
        1
176
     1
 90
        6
176
     1
 90
        2
176
     1
 62
     7
176
     1
 90
        3
176
     1
 90
        0
176
     1
 90
        0
176
     1
290
     0
176
     1
 90
        1
176
     1
 40
0.0
176
     1
 90
        0
176
     1
290
     0
176
     1
290
     1
176
     1
290
     1
176
     1
290
     0
176
     1
290
     0
176
     1
290
     0
176
     1
290
     0
176
     1
290
     0
176
     1
290
     0
176
     1
 90
       50
176
     1
 40
0.0
176
     1
 40
1.0
176
     1
 90
        0
176
     1
 62
    18
420
        0
176
     1
 90
       50
176
     1
 90
        3
176
     1
 62
     5
420
      255
176
     1
290
     0
176
     1
 90
       50
176
     1
 90
       50
176
     1
 90
       50
176
     1
290
     0
176
     1
 90
       50
176
     1
 62
   256
176
     0
 40
1.0
176
     0
 90
        2
176
     1
  1
strokes_ogs.tif
176
     1
290
     0
176
     1
 40
1.0
176
     1
 40
1.0
176
     1
  0
VISUALSTYLE
  5
5E9
102
{ACAD_REACTORS
330
5D8
102
}
330
5D8
100
AcDbVisualStyle
  2
JitterOff
 70
    20
177
     3
291
     1
 70
    58
 90
        2
176
     0
 90
        2
176
     0
 90
        0
176
     0
 90
        0
176
     0
 40
0.6
176
     0
 40
30.0
176
     0
 62
     7
420
 16777215
176
     0
 90
        1
176
     0
 90
        4
176
     0
 62
     7
176
     0
 62
   257
176
     0
 90
        1
176
     0
 90
        1
176
     0
 40
1.0
176
     0
 90
       10
176
     2
 62
     7
176
     0
 40
1.0
176
     0
 90
        1
176
     0
 90
        6
176
     0
 90
        2
176
     0
 62
     7
176
     0
 90
        5
176
     0
 90
        0
176
     0
 90
        0
176
     0
290
     0
176
     0
 90
        1
176
     0
 40
0.0
176
     0
 90
        0
176
     0
290
     0
176
     0
290
     1
176
     0
290
     1
176
     0
290
     0
176
     0
290
     0
176
     0
290
     0
176
     0
290
     0
176
     0
290
     0
176
     0
290
     0
176
     0
 90
       50
176
     0
 40
0.0
176
     0
 40
1.0
176
     0
 90
        0
176
     0
 62
    18
420
        0
176
     0
 90
       50
176
     0
 90
        3
176
     0
 62
     5
420
      255
176
     0
290
     0
176
     0
 90
       50
176
     0
 90
       50
176
     0
 90
       50
176
     0
290
     0
176
     0
 90
       50
176
     0
 62
   256
176
     0
 40
1.0
176
     0
 90
        2
176
     0
  1
strokes_ogs.tif
176
     0
290
     0
176
     0
 40
1.0
176
     0
 40
1.0
176
     0
  0
VISUALSTYLE
  5
5E6
102
{ACAD_REACTORS
330
5D8
102
}
330
5D8
100
AcDbVisualStyle
  2
Linepattern
 70
    14
177
     3
291
     1
 70
    58
 90
        2
176
     1
 90
        2
176
     1
 90
        0
176
     1
 90
        0
176
     1
 40
0.6
176
     1
 40
30.0
176
     1
 62
     7
420
 16777215
176
     1
 90
        1
176
     1
 90
        4
176
     1
 62
     7
176
     1
 62
   257
176
     1
 90
        7
176
     1
 90
        7
176
     1
 40
1.0
176
     1
 90
        8
176
     1
 62
     7
176
     1
 40
1.0
176
     1
 90
        1
176
     1
 90
        6
176
     1
 90
        2
176
     1
 62
     7
176
     1
 90
        5
176
     1
 90
        0
176
     1
 90
        0
176
     1
290
     0
176
     1
 90
        1
176
     1
 40
0.0
176
     1
 90
        0
176
     1
290
     0
176
     1
290
     1
176
     1
290
     1
176
     1
290
     0
176
     1
290
     0
176
     1
290
     0
176
     1
290
     0
176
     1
290
     0
176
     1
290
     0
176
     1
 90
       50
176
     1
 40
0.0
176
     1
 40
1.0
176
     1
 90
        0
176
     1
 62
    18
420
        0
176
     1
 90
       50
176
     1
 90
        3
176
     1
 62
     5
420
      255
176
     1
290
     0
176
     1
 90
       50
176
     1
 90
       50
176
     1
 90
       50
176
     1
290
     0
176
     1
 90
       50
176
     1
 62
   256
176
     0
 40
1.0
176
     0
 90
        2
176
     1
  1
strokes_ogs.tif
176
     1
290
     0
176
     1
 40
1.0
176
     1
 40
1.0
176
     1
  0
VISUALSTYLE
  5
5EA
102
{ACAD_REACTORS
330
5D8
102
}
330
5D8
100
AcDbVisualStyle
  2
OverhangOff
 70
    21
177
     3
291
     1
 70
    58
 90
        2
176
     0
 90
        2
176
     0
 90
        0
176
     0
 90
        0
176
     0
 40
0.6
176
     0
 40
30.0
176
     0
 62
     7
420
 16777215
176
     0
 90
        1
176
     0
 90
        4
176
     0
 62
     7
176
     0
 62
   257
176
     0
 90
        1
176
     0
 90
        1
176
     0
 40
1.0
176
     0
 90
        9
176
     2
 62
     7
176
     0
 40
1.0
176
     0
 90
        1
176
     0
 90
        6
176
     0
 90
        2
176
     0
 62
     7
176
     0
 90
        5
176
     0
 90
        0
176
     0
 90
        0
176
     0
290
     0
176
     0
 90
        1
176
     0
 40
0.0
176
     0
 90
        0
176
     0
290
     0
176
     0
290
     1
176
     0
290
     1
176
     0
290
     0
176
     0
290
     0
176
     0
290
     0
176
     0
290
     0
176
     0
290
     0
176
     0
290
     0
176
     0
 90
       50
176
     0
 40
0.0
176
     0
 40
1.0
176
     0
 90
        0
176
     0
 62
    18
420
        0
176
     0
 90
       50
176
     0
 90
        3
176
     0
 62
     5
420
      255
176
     0
290
     0
176
     0
 90
       50
176
     0
 90
       50
176
     0
 90
       50
176
     0
290
     0
176
     0
 90
       50
176
     0
 62
   256
176
     0
 40
1.0
176
     0
 90
        2
176
     0
  1
strokes_ogs.tif
176
     0
290
     0
176
     0
 40
1.0
176
     0
 40
1.0
176
     0
  0
VISUALSTYLE
  5
5E1
102
{ACAD_REACTORS
330
5D8
102
}
330
5D8
100
AcDbVisualStyle
  2
Realistic
 70
     8
177
     3
291
     0
 70
    58
 90
        2
176
     1
 90
        3
176
     1
 90
        0
176
     1
 90
        2
176
     1
 40
0.6
176
     1
 40
30.0
176
     1
 62
     7
420
 16777215
176
     1
 90
        0
176
     1
 90
        0
176
     1
 62
     7
176
     1
 62
   257
176
     1
 90
        1
176
     1
 90
        1
176
     1
 40
1.0
176
     1
 90
        8
176
     1
 62
   257
176
     1
 40
1.0
176
     1
 90
        1
176
     1
 90
        6
176
     1
 90
        2
176
     1
 62
     7
176
     1
 90
        3
176
     1
 90
        0
176
     1
 90
        0
176
     1
290
     0
176
     1
 90
       13
176
     1
 40
0.0
176
     1
 90
        0
176
     1
290
     0
176
     1
290
     1
176
     1
290
     1
176
     1
290
     0
176
     1
290
     0
176
     1
290
     0
176
     1
290
     0
176
     1
290
     0
176
     1
290
     0
176
     1
 90
       50
176
     1
 40
0.0
176
     1
 40
1.0
176
     1
 90
        0
176
     1
 62
    18
420
        0
176
     1
 90
       50
176
     1
 90
        3
176
     1
 62
     5
420
      255
176
     1
290
     0
176
     1
 90
       50
176
     1
 90
       50
176
     1
 90
       50
176
     1
290
     0
176
     1
 90
       50
176
     1
 62
   256
176
     0
 40
1.0
176
     0
 90
        2
176
     1
  1
strokes_ogs.tif
176
     1
290
     0
176
     1
 40
1.0
176
     1
 40
1.0
176
     1
  0
VISUALSTYLE
  5
5F0
102
{ACAD_REACTORS
330
5D8
102
}
330
5D8
100
AcDbVisualStyle
  2
Shaded
 70
    27
177
     3
291
     0
 70
    58
 90
        2
176
     1
 90
        2
176
     1
 90
        1
176
     1
 90
        2
176
     1
 40
0.6
176
     1
 40
30.0
176
     1
 62
     7
420
 16777215
176
     1
 90
        0
176
     1
 90
        4
176
     1
 62
     7
176
     1
 62
   257
176
     1
 90
        1
176
     1
 90
        1
176
     1
 40
1.0
176
     1
 90
        8
176
     1
 62
   257
176
     1
 40
1.0
176
     1
 90
        1
176
     1
 90
        6
176
     1
 90
        2
176
     1
 62
     8
420
  7895160
176
     1
 90
        3
176
     1
 90
        0
176
     1
 90
        0
176
     1
290
     0
176
     1
 90
        5
176
     1
 40
0.0
176
     1
 90
        0
176
     1
290
     0
176
     1
290
     1
176
     1
290
     1
176
     1
290
     0
176
     1
290
     0
176
     1
290
     0
176
     1
290
     0
176
     1
290
     0
176
     1
290
     0
176
     1
 90
       50
176
     1
 40
0.0
176
     1
 40
1.0
176
     1
 90
        0
176
     1
 62
    18
420
        0
176
     1
 90
       50
176
     1
 90
        3
176
     1
 62
     5
420
      255
176
     1
290
     0
176
     1
 90
       50
176
     1
 90
       50
176
     1
 90
       50
176
     1
290
     0
176
     1
 90
       50
176
     1
 62
   256
176
     0
 40
1.0
176
     0
 90
        2
176
     1
  1
strokes_ogs.tif
176
     1
290
     0
176
     1
 40
1.0
176
     1
 40
1.0
176
     1
  0
VISUALSTYLE
  5
5EF
102
{ACAD_REACTORS
330
5D8
102
}
330
5D8
100
AcDbVisualStyle
  2
Shaded with edges
 70
    26
177
     3
291
     0
 70
    58
 90
        2
176
     1
 90
        2
176
     1
 90
        1
176
     1
 90
        2
176
     1
 40
0.6
176
     1
 40
30.0
176
     1
 62
     7
420
 16777215
176
     1
 90
        1
176
     1
 90
       10
176
     1
 62
     7
176
     1
 62
   257
176
     1
 90
        2
176
     1
 90
        1
176
     1
 40
1.0
176
     1
 90
        8
176
     1
 62
   257
176
     1
 40
1.0
176
     1
 90
        1
176
     1
 90
        6
176
     1
 90
        2
176
     1
 62
     7
176
     1
 90
        3
176
     1
 90
        0
176
     1
 90
        0
176
     1
290
     0
176
     1
 90
        5
176
     1
 40
0.0
176
     1
 90
        0
176
     1
290
     0
176
     1
290
     1
176
     1
290
     1
176
     1
290
     0
176
     1
290
     0
176
     1
290
     0
176
     1
290
     0
176
     1
290
     0
176
     1
290
     0
176
     1
 90
       50
176
     1
 40
0.0
176
     1
 40
1.0
176
     1
 90
        0
176
     1
 62
    18
420
        0
176
     1
 90
       50
176
     1
 90
        3
176
     1
 62
     5
420
      255
176
     1
290
     0
176
     1
 90
       50
176
     1
 90
       50
176
     1
 90
       50
176
     1
290
     0
176
     1
 90
       50
176
     1
 62
   256
176
     0
 40
1.0
176
     0
 90
        2
176
     1
  1
strokes_ogs.tif
176
     1
290
     0
176
     1
 40
1.0
176
     1
 40
1.0
176
     1
  0
VISUALSTYLE
  5
5EC
102
{ACAD_REACTORS
330
5D8
102
}
330
5D8
100
AcDbVisualStyle
  2
Shades of Gray
 70
    23
177
     3
291
     0
 70
    58
 90
        2
176
     1
 90
        2
176
     1
 90
        3
176
     1
 90
        0
176
     1
 40
0.6
176
     1
 40
30.0
176
     1
 62
     7
420
 16777215
176
     1
 90
        2
176
     1
 90
        2
176
     1
 62
     7
176
     1
 62
     7
176
     1
 90
        1
176
     1
 90
        1
176
     1
 40
40.0
176
     1
 90
        8
176
     1
 62
     7
176
     1
 40
1.0
176
     1
 90
        1
176
     1
 90
        6
176
     1
 90
        2
176
     1
 62
     7
176
     1
 90
        3
176
     1
 90
        0
176
     1
 90
        0
176
     1
290
     0
176
     1
 90
        1
176
     1
 40
0.0
176
     1
 90
        0
176
     1
290
     0
176
     1
290
     1
176
     1
290
     1
176
     1
290
     0
176
     1
290
     0
176
     1
290
     0
176
     1
290
     0
176
     1
290
     0
176
     1
290
     0
176
     1
 90
       50
176
     1
 40
0.0
176
     1
 40
1.0
176
     1
 90
        0
176
     1
 62
    18
420
        0
176
     1
 90
       50
176
     1
 90
        3
176
     1
 62
     5
420
      255
176
     1
290
     0
176
     1
 90
       50
176
     1
 90
       50
176
     1
 90
       50
176
     1
290
     0
176
     1
 90
       50
176
     1
 62
   256
176
     0
 40
1.0
176
     0
 90
        2
176
     1
  1
strokes_ogs.tif
176
     1
290
     0
176
     1
 40
1.0
176
     1
 40
1.0
176
     1
  0
VISUALSTYLE
  5
5ED
102
{ACAD_REACTORS
330
5D8
102
}
330
5D8
100
AcDbVisualStyle
  2
Sketchy
 70
    24
177
     3
291
     0
 70
    58
 90
        1
176
     1
 90
        2
176
     1
 90
        2
176
     1
 90
        0
176
     1
 40
0.6
176
     1
 40
30.0
176
     1
 62
     7
420
 16777215
176
     1
 90
        2
176
     1
 90
        2
176
     1
 62
     7
176
     1
 62
     7
176
     1
 90
        1
176
     1
 90
        1
176
     1
 40
40.0
176
     1
 90
       11
176
     1
 62
     7
176
     1
 40
1.0
176
     1
 90
        1
176
     1
 90
        6
176
     1
 90
        2
176
     1
 62
     7
176
     1
 90
        6
176
     1
 90
        0
176
     1
 90
        0
176
     1
290
     0
176
     1
 90
        1
176
     1
 40
0.0
176
     1
 90
        0
176
     1
290
     0
176
     1
290
     1
176
     1
290
     1
176
     1
290
     0
176
     1
290
     0
176
     1
290
     0
176
     1
290
     0
176
     1
290
     0
176
     1
290
     0
176
     1
 90
       50
176
     1
 40
0.0
176
     1
 40
1.0
176
     1
 90
        0
176
     1
 62
    18
420
        0
176
     1
 90
       50
176
     1
 90
        3
176
     1
 62
     5
420
      255
176
     1
290
     0
176
     1
 90
       50
176
     1
 90
       50
176
     1
 90
       50
176
     1
290
     0
176
     1
 90
       50
176
     1
 62
   256
176
     0
 40
1.0
176
     0
 90
        2
176
     1
  1
strokes_ogs.tif
176
     1
290
     0
176
     1
 40
1.0
176
     1
 40
1.0
176
     1
  0
VISUALSTYLE
  5
5E5
102
{ACAD_REACTORS
330
5D8
102
}
330
5D8
100
AcDbVisualStyle
  2
Thicken
 70
    13
177
     3
291
     1
 70
    58
 90
        2
176
     1
 90
        2
176
     1
 90
        0
176
     1
 90
        0
176
     1
 40
0.6
176
     1
 40
30.0
176
     1
 62
     7
420
 16777215
176
     1
 90
        1
176
     1
 90
        4
176
     1
 62
     7
176
     1
 62
   257
176
     1
 90
        1
176
     1
 90
        1
176
     1
 40
1.0
176
     1
 90
       12
176
     1
 62
     7
176
     1
 40
1.0
176
     1
 90
        1
176
     1
 90
        6
176
     1
 90
        2
176
     1
 62
     7
176
     1
 90
        5
176
     1
 90
        0
176
     1
 90
        0
176
     1
290
     0
176
     1
 90
        1
176
     1
 40
0.0
176
     1
 90
        0
176
     1
290
     0
176
     1
290
     1
176
     1
290
     1
176
     1
290
     0
176
     1
290
     0
176
     1
290
     0
176
     1
290
     0
176
     1
290
     0
176
     1
290
     0
176
     1
 90
       50
176
     1
 40
0.0
176
     1
 40
1.0
176
     1
 90
        0
176
     1
 62
    18
420
        0
176
     1
 90
       50
176
     1
 90
        3
176
     1
 62
     5
420
      255
176
     1
290
     0
176
     1
 90
       50
176
     1
 90
       50
176
     1
 90
       50
176
     1
290
     0
176
     1
 90
       50
176
     1
 62
   256
176
     0
 40
1.0
176
     0
 90
        2
176
     1
  1
strokes_ogs.tif
176
     1
290
     0
176
     1
 40
1.0
176
     1
 40
1.0
176
     1
  0
VISUALSTYLE
  5
5DE
102
{ACAD_REACTORS
330
5D8
102
}
330
5D8
100
AcDbVisualStyle
  2
Wireframe
 70
     5
177
     3
291
     0
 70
    58
 90
        0
176
     1
 90
        2
176
     1
 90
        0
176
     1
 90
        0
176
     1
 40
0.6
176
     1
 40
30.0
176
     1
 62
     7
420
 16777215
176
     1
 90
        1
176
     1
 90
        4
176
     1
 62
     7
176
     1
 62
   257
176
     1
 90
        1
176
     1
 90
        1
176
     1
 40
1.0
176
     1
 90
        0
176
     1
 62
   257
176
     1
 40
1.0
176
     1
 90
        1
176
     1
 90
        6
176
     1
 90
        2
176
     1
 62
     7
176
     1
 90
        3
176
     1
 90
        0
176
     1
 90
        0
176
     1
290
     0
176
     1
 90
        1
176
     1
 40
0.0
176
     1
 90
        0
176
     1
290
     0
176
     1
290
     1
176
     1
290
     1
176
     1
290
     0
176
     1
290
     0
176
     1
290
     0
176
     1
290
     0
176
     1
290
     0
176
     1
290
     0
176
     1
 90
       50
176
     1
 40
0.0
176
     1
 40
1.0
176
     1
 90
        0
176
     1
 62
    18
420
        0
176
     1
 90
       50
176
     1
 90
        3
176
     1
 62
     5
420
      255
176
     1
290
     0
176
     1
 90
       50
176
     1
 90
       50
176
     1
 90
       50
176
     1
290
     0
176
     1
 90
       50
176
     1
 62
   256
176
     0
 40
1.0
176
     0
 90
        2
176
     1
  1
strokes_ogs.tif
176
     1
290
     0
176
     1
 40
1.0
176
     1
 40
1.0
176
     1
  0
VISUALSTYLE
  5
5EE
102
{ACAD_REACTORS
330
5D8
102
}
330
5D8
100
AcDbVisualStyle
  2
X-Ray
 70
    25
177
     3
291
     0
 70
    58
 90
        2
176
     1
 90
        2
176
     1
 90
        1
176
     1
 90
        1
176
     1
 40
0.5
176
     1
 40
30.0
176
     1
 62
     7
420
 16777215
176
     1
 90
        1
176
     1
 90
        0
176
     1
 62
     7
176
     1
 62
   257
176
     1
 90
        1
176
     1
 90
        1
176
     1
 40
1.0
176
     1
 90
        8
176
     1
 62
     7
176
     1
 40
1.0
176
     1
 90
        1
176
     1
 90
        6
176
     1
 90
        2
176
     1
 62
     7
176
     1
 90
        3
176
     1
 90
        0
176
     1
 90
        0
176
     1
290
     0
176
     1
 90
       13
176
     1
 40
0.0
176
     1
 90
        0
176
     1
290
     0
176
     1
290
     1
176
     1
290
     1
176
     1
290
     0
176
     1
290
     0
176
     1
290
     0
176
     1
290
     0
176
     1
290
     0
176
     1
290
     0
176
     1
 90
       50
176
     1
 40
0.0
176
     1
 40
1.0
176
     1
 90
        0
176
     1
 62
    18
420
        0
176
     1
 90
       50
176
     1
 90
        3
176
     1
 62
     5
420
      255
176
     1
290
     0
176
     1
 90
       50
176
     1
 90
       50
176
     1
 90
       50
176
     1
290
     0
176
     1
 90
       50
176
     1
 62
   256
176
     0
 40
1.0
176
     0
 90
        2
176
     1
  1
strokes_ogs.tif
176
     1
290
     0
176
     1
 40
1.0
176
     1
 40
1.0
176
     1
  0
DICTIONARYVAR
  5
5F9
102
{ACAD_REACTORS
330
5F8
102
}
330
5F8
100
DictionaryVariables
280
     0
  1
1:1
  0
DICTIONARYVAR
  5
5FE
102
{ACAD_REACTORS
330
5F8
102
}
330
5F8
100
DictionaryVariables
280
     0
  1
Standard
  0
DICTIONARYVAR
  5
5FD
102
{ACAD_REACTORS
330
5F8
102
}
330
5F8
100
DictionaryVariables
280
     0
  1
Standard
  0
DICTIONARYVAR
  5
5FF
102
{ACAD_REACTORS
330
5F8
102
}
330
5F8
100
DictionaryVariables
280
     0
  1
0
  0
DICTIONARY
  5
5FA
330
5F2
100
AcDbDictionary
280
     1
281
     1
  3
ACAD_ROUNDTRIP_2008_TABLESTYLE_CELLSTYLEMAP
360
5FB
  0
CELLSTYLEMAP
  5
5FB
102
{ACAD_REACTORS
330
5FA
102
}
330
5FA
100
AcDbCellStyleMap
 90
        3
300
CELLSTYLE
  1
TABLEFORMAT_BEGIN
 90
        5
170
     1
 91
        0
 92
    32768
 62
   257
 93
        1
300
CONTENTFORMAT
  1
CONTENTFORMAT_BEGIN
 90
        0
 91
        0
 92
        4
 93
        0
300

 40
0.0
140
1.0
 94
        5
 62
     0
340
590
144
0.25
309
CONTENTFORMAT_END
171
     1
301
MARGIN
  1
CELLMARGIN_BEGIN
 40
0.06
 40
0.06
 40
0.06
 40
0.06
 40
0.06
 40
0.06
309
CELLMARGIN_END
 94
        6
 95
        1
302
GRIDFORMAT
  1
GRIDFORMAT_BEGIN
 90
        0
 91
        1
 62
     0
 92
       -2
340
592
 93
        0
 40
0.045
309
GRIDFORMAT_END
 95
        2
302
GRIDFORMAT
  1
GRIDFORMAT_BEGIN
 90
        0
 91
        1
 62
     0
 92
       -2
340
592
 93
        0
 40
0.045
309
GRIDFORMAT_END
 95
        4
302
GRIDFORMAT
  1
GRIDFORMAT_BEGIN
 90
        0
 91
        1
 62
     0
 92
       -2
340
592
 93
        0
 40
0.045
309
GRIDFORMAT_END
 95
        8
302
GRIDFORMAT
  1
GRIDFORMAT_BEGIN
 90
        0
 91
        1
 62
     0
 92
       -2
340
592
 93
        0
 40
0.045
309
GRIDFORMAT_END
 95
       16
302
GRIDFORMAT
  1
GRIDFORMAT_BEGIN
 90
        0
 91
        1
 62
     0
 92
       -2
340
592
 93
        0
 40
0.045
309
GRIDFORMAT_END
 95
       32
302
GRIDFORMAT
  1
GRIDFORMAT_BEGIN
 90
        0
 91
        1
 62
     0
 92
       -2
340
592
 93
        0
 40
0.045
309
GRIDFORMAT_END
309
TABLEFORMAT_END
  1
CELLSTYLE_BEGIN
 90
        1
 91
        1
300
_TITLE
309
CELLSTYLE_END
300
CELLSTYLE
  1
TABLEFORMAT_BEGIN
 90
        5
170
     1
 91
        0
 92
        0
 62
   257
 93
        1
300
CONTENTFORMAT
  1
CONTENTFORMAT_BEGIN
 90
        0
 91
        0
 92
        4
 93
        0
300

 40
0.0
140
1.0
 94
        5
 62
     0
340
590
144
0.18
309
CONTENTFORMAT_END
171
     1
301
MARGIN
  1
CELLMARGIN_BEGIN
 40
0.06
 40
0.06
 40
0.06
 40
0.06
 40
0.06
 40
0.06
309
CELLMARGIN_END
 94
        6
 95
        1
302
GRIDFORMAT
  1
GRIDFORMAT_BEGIN
 90
        0
 91
        1
 62
     0
 92
       -2
340
592
 93
        0
 40
0.045
309
GRIDFORMAT_END
 95
        2
302
GRIDFORMAT
  1
GRIDFORMAT_BEGIN
 90
        0
 91
        1
 62
     0
 92
       -2
340
592
 93
        0
 40
0.045
309
GRIDFORMAT_END
 95
        4
302
GRIDFORMAT
  1
GRIDFORMAT_BEGIN
 90
        0
 91
        1
 62
     0
 92
       -2
340
592
 93
        0
 40
0.045
309
GRIDFORMAT_END
 95
        8
302
GRIDFORMAT
  1
GRIDFORMAT_BEGIN
 90
        0
 91
        1
 62
     0
 92
       -2
340
592
 93
        0
 40
0.045
309
GRIDFORMAT_END
 95
       16
302
GRIDFORMAT
  1
GRIDFORMAT_BEGIN
 90
        0
 91
        1
 62
     0
 92
       -2
340
592
 93
        0
 40
0.045
309
GRIDFORMAT_END
 95
       32
302
GRIDFORMAT
  1
GRIDFORMAT_BEGIN
 90
        0
 91
        1
 62
     0
 92
       -2
340
592
 93
        0
 40
0.045
309
GRIDFORMAT_END
309
TABLEFORMAT_END
  1
CELLSTYLE_BEGIN
 90
        2
 91
        1
300
_HEADER
309
CELLSTYLE_END
300
CELLSTYLE
  1
TABLEFORMAT_BEGIN
 90
        5
170
     1
 91
        0
 92
        0
 62
   257
 93
        1
300
CONTENTFORMAT
  1
CONTENTFORMAT_BEGIN
 90
        0
 91
        0
 92
        4
 93
        0
300

 40
0.0
140
1.0
 94
        2
 62
     0
340
590
144
0.18
309
CONTENTFORMAT_END
171
     1
301
MARGIN
  1
CELLMARGIN_BEGIN
 40
0.06
 40
0.06
 40
0.06
 40
0.06
 40
0.06
 40
0.06
309
CELLMARGIN_END
 94
        6
 95
        1
302
GRIDFORMAT
  1
GRIDFORMAT_BEGIN
 90
        0
 91
        1
 62
     0
 92
       -2
340
592
 93
        0
 40
0.045
309
GRIDFORMAT_END
 95
        2
302
GRIDFORMAT
  1
GRIDFORMAT_BEGIN
 90
        0
 91
        1
 62
     0
 92
       -2
340
592
 93
        0
 40
0.045
309
GRIDFORMAT_END
 95
        4
302
GRIDFORMAT
  1
GRIDFORMAT_BEGIN
 90
        0
 91
        1
 62
     0
 92
       -2
340
592
 93
        0
 40
0.045
309
GRIDFORMAT_END
 95
        8
302
GRIDFORMAT
  1
GRIDFORMAT_BEGIN
 90
        0
 91
        1
 62
     0
 92
       -2
340
592
 93
        0
 40
0.045
309
GRIDFORMAT_END
 95
       16
302
GRIDFORMAT
  1
GRIDFORMAT_BEGIN
 90
        0
 91
        1
 62
     0
 92
       -2
340
592
 93
        0
 40
0.045
309
GRIDFORMAT_END
 95
       32
302
GRIDFORMAT
  1
GRIDFORMAT_BEGIN
 90
        0
 91
        1
 62
     0
 92
       -2
340
592
 93
        0
 40
0.045
309
GRIDFORMAT_END
309
TABLEFORMAT_END
  1
CELLSTYLE_BEGIN
 90
        3
 91
        2
300
_DATA
309
CELLSTYLE_END
  0
ENDSEC
  0
EOF
