  0
SECTION
  2
HEADER
  9
$ACADVER
  1
AC1015
  9
$ACADMAINTVER
 70
     6
  9
$DWGCODEPAGE
  3
ANSI_1252
  9
$INSBASE
 10
0.0
 20
0.0
 30
0.0
  9
$EXTMIN
 10
0.0
 20
0.0
 30
0.0
  9
$EXTMAX
 10
594.0
 20
841.0
 30
0.0
  9
$LIMMIN
 10
0.0
 20
0.0
  9
$LIMMAX
 10
594.0
 20
841.0
  9
$ORTHOMODE
 70
     0
  9
$REGENMODE
 70
     1
  9
$FILLMODE
 70
     1
  9
$QTEXTMODE
 70
     0
  9
$MIRRTEXT
 70
     1
  9
$LTSCALE
 40
1.0
  9
$ATTMODE
 70
     1
  9
$TEXTSIZE
 40
10.0
  9
$TRACEWID
 40
1.0
  9
$TEXTSTYLE
  7
Standard
  9
$CLAYER
  8
0
  9
$CELTYPE
  6
ByLayer
  9
$CECOLOR
 62
   256
  9
$CELTSCALE
 40
1.0
  9
$DISPSILH
 70
     0
  9
$DIMSCALE
 40
1.0
  9
$DIMASZ
 40
2.5
  9
$DIMEXO
 40
0.0
  9
$DIMDLI
 40
3.75
  9
$DIMRND
 40
0.0
  9
$DIMDLE
 40
0.0
  9
$DIMEXE
 40
1.0
  9
$DIMTP
 40
0.0
  9
$DIMTM
 40
0.0
  9
$DIMTXT
 40
3.5
  9
$DIMCEN
 40
2.5
  9
$DIMTSZ
 40
0.0
  9
$DIMTOL
 70
     0
  9
$DIMLIM
 70
     0
  9
$DIMTIH
 70
     1
  9
$DIMTOH
 70
     1
  9
$DIMSE1
 70
     0
  9
$DIMSE2
 70
     0
  9
$DIMTAD
 70
     1
  9
$DIMZIN
 70
     0
  9
$DIMBLK
  1

  9
$DIMASO
 70
     1
  9
$DIMSHO
 70
     1
  9
$DIMPOST
  1

  9
$DIMAPOST
  1

  9
$DIMALT
 70
     0
  9
$DIMALTD
 70
     3
  9
$DIMALTF
 40
0.0393700787
  9
$DIMLFAC
 40
1.0
  9
$DIMTOFL
 70
     1
  9
$DIMTVP
 40
0.0
  9
$DIMTIX
 70
     0
  9
$DIMSOXD
 70
     0
  9
$DIMSAH
 70
     0
  9
$DIMBLK1
  1

  9
$DIMBLK2
  1

  9
$DIMSTYLE
  2
ISO-25
  9
$DIMCLRD
 70
     0
  9
$DIMCLRE
 70
     0
  9
$DIMCLRT
 70
     0
  9
$DIMTFAC
 40
1.0
  9
$DIMGAP
 40
1.5
  9
$DIMJUST
 70
     0
  9
$DIMSD1
 70
     0
  9
$DIMSD2
 70
     0
  9
$DIMTOLJ
 70
     0
  9
$DIMTZIN
 70
     0
  9
$DIMALTZ
 70
     0
  9
$DIMALTTZ
 70
     0
  9
$DIMUPT
 70
     0
  9
$DIMDEC
 70
     2
  9
$DIMTDEC
 70
     2
  9
$DIMALTU
 70
     2
  9
$DIMALTTD
 70
     3
  9
$DIMTXSTY
  7
Standard
  9
$DIMAUNIT
 70
     0
  9
$DIMADEC
 70
     2
  9
$DIMALTRND
 40
0.0
  9
$DIMAZIN
 70
     0
  9
$DIMDSEP
 70
    44
  9
$DIMATFIT
 70
     3
  9
$DIMFRAC
 70
     0
  9
$DIMLDRBLK
  1

  9
$DIMLUNIT
 70
     2
  9
$DIMLWD
 70
    -2
  9
$DIMLWE
 70
    -2
  9
$DIMTMOVE
 70
     0
  9
$LUNITS
 70
     2
  9
$LUPREC
 70
     2
  9
$SKETCHINC
 40
1.0
  9
$FILLETRAD
 40
10.0
  9
$AUNITS
 70
     0
  9
$AUPREC
 70
     2
  9
$MENU
  1
.
  9
$ELEVATION
 40
0.0
  9
$PELEVATION
 40
0.0
  9
$THICKNESS
 40
0.0
  9
$LIMCHECK
 70
     0
  9
$CHAMFERA
 40
0.0
  9
$CHAMFERB
 40
0.0
  9
$CHAMFERC
 40
0.0
  9
$CHAMFERD
 40
0.0
  9
$SKPOLY
 70
     0
  9
$TDCREATE
 40
2458521.350284016
  9
$TDUCREATE
 40
2458521.30861735
  9
$TDUPDATE
 40
2458521.350285092
  9
$TDUUPDATE
 40
2458521.308618426
  9
$TDINDWG
 40
0.0000000116
  9
$TDUSRTIMER
 40
0.0000000116
  9
$USRTIMER
 70
     1
  9
$ANGBASE
 50
0.0
  9
$ANGDIR
 70
     0
  9
$PDMODE
 70
     0
  9
$PDSIZE
 40
-1.0
  9
$PLINEWID
 40
0.0
  9
$SPLFRAME
 70
     0
  9
$SPLINETYPE
 70
     6
  9
$SPLINESEGS
 70
     8
  9
$HANDSEED
  5
118
  9
$SURFTAB1
 70
     6
  9
$SURFTAB2
 70
     6
  9
$SURFTYPE
 70
     6
  9
$SURFU
 70
     6
  9
$SURFV
 70
     6
  9
$UCSBASE
  2

  9
$UCSNAME
  2

  9
$UCSORG
 10
0.0
 20
0.0
 30
0.0
  9
$UCSXDIR
 10
1.0
 20
0.0
 30
0.0
  9
$UCSYDIR
 10
0.0
 20
1.0
 30
0.0
  9
$UCSORTHOREF
  2

  9
$UCSORTHOVIEW
 70
     0
  9
$UCSORGTOP
 10
0.0
 20
0.0
 30
0.0
  9
$UCSORGBOTTOM
 10
0.0
 20
0.0
 30
0.0
  9
$UCSORGLEFT
 10
0.0
 20
0.0
 30
0.0
  9
$UCSORGRIGHT
 10
0.0
 20
0.0
 30
0.0
  9
$UCSORGFRONT
 10
0.0
 20
0.0
 30
0.0
  9
$UCSORGBACK
 10
0.0
 20
0.0
 30
0.0
  9
$PUCSBASE
  2

  9
$PUCSNAME
  2

  9
$PUCSORG
 10
0.0
 20
0.0
 30
0.0
  9
$PUCSXDIR
 10
1.0
 20
0.0
 30
0.0
  9
$PUCSYDIR
 10
0.0
 20
1.0
 30
0.0
  9
$PUCSORTHOREF
  2

  9
$PUCSORTHOVIEW
 70
     0
  9
$PUCSORGTOP
 10
0.0
 20
0.0
 30
0.0
  9
$PUCSORGBOTTOM
 10
0.0
 20
0.0
 30
0.0
  9
$PUCSORGLEFT
 10
0.0
 20
0.0
 30
0.0
  9
$PUCSORGRIGHT
 10
0.0
 20
0.0
 30
0.0
  9
$PUCSORGFRONT
 10
0.0
 20
0.0
 30
0.0
  9
$PUCSORGBACK
 10
0.0
 20
0.0
 30
0.0
  9
$USERI1
 70
     0
  9
$USERI2
 70
     0
  9
$USERI3
 70
     0
  9
$USERI4
 70
     0
  9
$USERI5
 70
     0
  9
$USERR1
 40
0.0
  9
$USERR2
 40
0.0
  9
$USERR3
 40
0.0
  9
$USERR4
 40
0.0
  9
$USERR5
 40
0.0
  9
$WORLDVIEW
 70
     1
  9
$SHADEDGE
 70
     3
  9
$SHADEDIF
 70
    70
  9
$TILEMODE
 70
     1
  9
$MAXACTVP
 70
    64
  9
$PINSBASE
 10
0.0
 20
0.0
 30
0.0
  9
$PLIMCHECK
 70
     0
  9
$PEXTMIN
 10
1.0000000000E+20
 20
1.0000000000E+20
 30
1.0000000000E+20
  9
$PEXTMAX
 10
-1.0000000000E+20
 20
-1.0000000000E+20
 30
-1.0000000000E+20
  9
$PLIMMIN
 10
0.0
 20
0.0
  9
$PLIMMAX
 10
420.0
 20
297.0
  9
$UNITMODE
 70
     0
  9
$VISRETAIN
 70
     1
  9
$PLINEGEN
 70
     0
  9
$PSLTSCALE
 70
     1
  9
$TREEDEPTH
 70
  3020
  9
$CMLSTYLE
  2
Standard
  9
$CMLJUST
 70
     0
  9
$CMLSCALE
 40
20.0
  9
$PROXYGRAPHICS
 70
     1
  9
$MEASUREMENT
 70
     1
  9
$CELWEIGHT
370
    -1
  9
$ENDCAPS
280
     0
  9
$JOINSTYLE
280
     0
  9
$LWDISPLAY
290
     1
  9
$INSUNITS
 70
     4
  9
$HYPERLINKBASE
  1

  9
$STYLESHEET
  1

  9
$XEDIT
290
     1
  9
$CEPSNTYPE
380
     0
  9
$PSTYLEMODE
290
     1
  9
$FINGERPRINTGUID
  2
{7060F101-AE53-45C9-9051-1773F641B47E}
  9
$VERSIONGUID
  2
{FAEB1C32-E019-11D5-929B-00C0DF256EC4}
  9
$EXTNAMES
290
     1
  9
$PSVPSCALE
 40
0.0
  9
$OLESTARTUP
290
     0
  0
ENDSEC
  0
SECTION
  2
CLASSES
  0
CLASS
  1
ACDBDICTIONARYWDFLT
  2
AcDbDictionaryWithDefault
  3
ObjectDBX Classes
 90
        0
280
     0
281
     0
  0
CLASS
  1
VISUALSTYLE
  2
AcDbVisualStyle
  3
ObjectDBX Classes
 90
     4095
280
     0
281
     0
  0
CLASS
  1
MATERIAL
  2
AcDbMaterial
  3
ObjectDBX Classes
 90
     1153
280
     0
281
     0
  0
CLASS
  1
SCALE
  2
AcDbScale
  3
ObjectDBX Classes
 90
     1153
280
     0
281
     0
  0
CLASS
  1
TABLESTYLE
  2
AcDbTableStyle
  3
ObjectDBX Classes
 90
     4095
280
     0
281
     0
  0
CLASS
  1
MLEADERSTYLE
  2
AcDbMLeaderStyle
  3
ACDB_MLEADERSTYLE_CLASS
 90
     4095
280
     0
281
     0
  0
CLASS
  1
SUN
  2
AcDbSun
  3
SCENEOE
 90
     1153
280
     0
281
     0
  0
CLASS
  1
ACDBPLACEHOLDER
  2
AcDbPlaceHolder
  3
ObjectDBX Classes
 90
        0
280
     0
281
     0
  0
CLASS
  1
LAYOUT
  2
AcDbLayout
  3
ObjectDBX Classes
 90
        0
280
     0
281
     0
  0
ENDSEC
  0
SECTION
  2
TABLES
  0
TABLE
  2
VPORT
  5
8
330
0
100
AcDbSymbolTable
 70
     1
  0
VPORT
  5
29
330
8
100
AcDbSymbolTableRecord
100
AcDbViewportTableRecord
  2
*Active
 70
     0
 10
0.0
 20
0.0
 11
1.0
 21
1.0
 12
297.0
 22
420.5
 13
0.0
 23
0.0
 14
10.0
 24
10.0
 15
10.0
 25
10.0
 16
0.0
 26
0.0
 36
1.0
 17
0.0
 27
0.0
 37
0.0
 40
841.0
 41
0.7063020214
 42
50.0
 43
0.0
 44
0.0
 50
0.0
 51
0.0
 71
     0
 72
  2000
 73
     1
 74
     3
 75
     0
 76
     0
 77
     0
 78
     0
281
     0
 65
     1
110
0.0
120
0.0
130
0.0
111
1.0
121
0.0
131
0.0
112
0.0
122
1.0
132
0.0
 79
     0
146
0.0
  0
ENDTAB
  0
TABLE
  2
LTYPE
  5
5
330
0
100
AcDbSymbolTable
 70
     6
  0
LTYPE
  5
14
330
5
100
AcDbSymbolTableRecord
100
AcDbLinetypeTableRecord
  2
ByBlock
 70
     0
  3

 72
    65
 73
     0
 40
0.0
  0
LTYPE
  5
15
330
5
100
AcDbSymbolTableRecord
100
AcDbLinetypeTableRecord
  2
ByLayer
 70
     0
  3

 72
    65
 73
     0
 40
0.0
  0
LTYPE
  5
16
330
5
100
AcDbSymbolTableRecord
100
AcDbLinetypeTableRecord
  2
Continuous
 70
     0
  3
Solid line
 72
    65
 73
     0
 40
0.0
  0
LTYPE
  5
6E
330
5
100
AcDbSymbolTableRecord
100
AcDbLinetypeTableRecord
  2
HIDDEN
 70
     0
  3
Hidden __ __ __ __ __ __ __ __ __ __ __ __ __ __
 72
    65
 73
     2
 40
1.905
 49
1.27
 74
     0
 49
-0.635
 74
     0
  0
LTYPE
  5
6F
330
5
100
AcDbSymbolTableRecord
100
AcDbLinetypeTableRecord
  2
PHANTOM
 70
     0
  3
Phantom ______  __  __  ______  __  __  ______
 72
    65
 73
     6
 40
12.7
 49
6.35
 74
     0
 49
-1.27
 74
     0
 49
1.27
 74
     0
 49
-1.27
 74
     0
 49
1.27
 74
     0
 49
-1.27
 74
     0
  0
LTYPE
  5
70
330
5
100
AcDbSymbolTableRecord
100
AcDbLinetypeTableRecord
  2
CENTER
 70
     0
  3
Center ____ _ ____ _ ____ _ ____ _ ____ _ ____
 72
    65
 73
     4
 40
10.16
 49
6.35
 74
     0
 49
-1.27
 74
     0
 49
1.27
 74
     0
 49
-1.27
 74
     0
  0
LTYPE
  5
71
330
5
100
AcDbSymbolTableRecord
100
AcDbLinetypeTableRecord
  2
CENTERX2
 70
     0
  3
Center (2x) ________  __  ________  __  _____
 72
    65
 73
     4
 40
20.32
 49
12.7
 74
     0
 49
-2.54
 74
     0
 49
2.54
 74
     0
 49
-2.54
 74
     0
  0
LTYPE
  5
72
330
5
100
AcDbSymbolTableRecord
100
AcDbLinetypeTableRecord
  2
DOT2
 70
     0
  3
Dot (.5x) ........................................
 72
    65
 73
     2
 40
0.635
 49
0.0
 74
     0
 49
-0.635
 74
     0
  0
ENDTAB
  0
TABLE
  2
LAYER
  5
2
330
0
100
AcDbSymbolTable
 70
     1
  0
LAYER
  5
10
330
2
100
AcDbSymbolTableRecord
100
AcDbLayerTableRecord
  2
0
 70
     0
 62
     7
  6
Continuous
370
    -3
390
F
  0
ENDTAB
  0
TABLE
  2
STYLE
  5
3
330
0
100
AcDbSymbolTable
 70
     3
  0
STYLE
  5
11
330
3
100
AcDbSymbolTableRecord
100
AcDbTextStyleTableRecord
  2
Standard
 70
     0
 40
0.0
 41
1.0
 50
0.0
 71
     0
 42
10.0
  3
txt
  4

  0
STYLE
  5
76
330
3
100
AcDbSymbolTableRecord
100
AcDbTextStyleTableRecord
  2
SLDTEXTSTYLE0
 70
     0
 40
0.0
 41
0.96
 50
0.0
 71
     0
 42
10.0
  3
ISOCP3
  4

  0
STYLE
  5
8D
330
3
100
AcDbSymbolTableRecord
100
AcDbTextStyleTableRecord
  2
SLDTEXTSTYLE1
 70
     0
 40
0.0
 41
0.605
 50
0.0
 71
     0
 42
10.0
  3
TXT
  4

  0
ENDTAB
  0
TABLE
  2
VIEW
  5
6
330
0
100
AcDbSymbolTable
 70
     0
  0
ENDTAB
  0
TABLE
  2
UCS
  5
7
330
0
100
AcDbSymbolTable
 70
     0
  0
ENDTAB
  0
TABLE
  2
APPID
  5
9
330
0
100
AcDbSymbolTable
 70
     1
  0
APPID
  5
12
330
9
100
AcDbSymbolTableRecord
100
AcDbRegAppTableRecord
  2
ACAD
 70
     0
  0
ENDTAB
  0
TABLE
  2
DIMSTYLE
  5
A
330
0
100
AcDbSymbolTable
 70
     2
100
AcDbDimStyleTable
  0
DIMSTYLE
105
27
330
A
100
AcDbSymbolTableRecord
100
AcDbDimStyleTableRecord
  2
ISO-25
 70
     0
 41
2.5
 42
0.625
 43
3.75
 44
1.25
 73
     0
 74
     0
 77
     1
 78
     8
140
2.5
141
2.5
143
0.0393700787
147
0.625
171
     3
172
     1
178
     0
271
     2
272
     2
274
     3
278
    44
283
     0
284
     8
340
11
  0
DIMSTYLE
105
77
102
{ACAD_REACTORS
330
75
330
82
102
}
330
A
100
AcDbSymbolTableRecord
100
AcDbDimStyleTableRecord
  2
SLDDIMSTYLE0
 70
     0
 41
2.5
 44
0.0
 45
0.000000001
 73
     0
 74
     0
 77
     1
 78
    12
 79
     3
140
6.0
147
1.5
173
     1
178
     0
271
     2
272
     2
276
     2
284
    12
340
76
  0
ENDTAB
  0
TABLE
  2
BLOCK_RECORD
  5
1
330
0
100
AcDbSymbolTable
 70
     3
  0
BLOCK_RECORD
  5
1F
330
1
100
AcDbSymbolTableRecord
100
AcDbBlockTableRecord
  2
*Model_Space
340
22
  0
BLOCK_RECORD
  5
1B
330
1
100
AcDbSymbolTableRecord
100
AcDbBlockTableRecord
  2
*Paper_Space
340
1E
  0
BLOCK_RECORD
  5
23
330
1
100
AcDbSymbolTableRecord
100
AcDbBlockTableRecord
  2
*Paper_Space0
340
26
  0
BLOCK_RECORD
  5
78
330
1
100
AcDbSymbolTableRecord
100
AcDbBlockTableRecord
  2
_D
340
0
  0
BLOCK_RECORD
  5
83
330
1
100
AcDbSymbolTableRecord
100
AcDbBlockTableRecord
  2
_D_1
340
0
  0
ENDTAB
  0
ENDSEC
  0
SECTION
  2
BLOCKS
  0
BLOCK
  5
20
330
1F
100
AcDbEntity
  8
0
100
AcDbBlockBegin
  2
*Model_Space
 70
     0
 10
0.0
 20
0.0
 30
0.0
  3
*Model_Space
  1

  0
ENDBLK
  5
21
330
1F
100
AcDbEntity
  8
0
100
AcDbBlockEnd
  0
BLOCK
  5
1C
330
1B
100
AcDbEntity
 67
     1
  8
0
100
AcDbBlockBegin
  2
*Paper_Space
 70
     0
 10
0.0
 20
0.0
 30
0.0
  3
*Paper_Space
  1

  0
ENDBLK
  5
1D
330
1B
100
AcDbEntity
 67
     1
  8
0
100
AcDbBlockEnd
  0
BLOCK
  5
24
330
23
100
AcDbEntity
  8
0
100
AcDbBlockBegin
  2
*Paper_Space0
 70
     0
 10
0.0
 20
0.0
 30
0.0
  3
*Paper_Space0
  1

  0
ENDBLK
  5
25
330
23
100
AcDbEntity
  8
0
100
AcDbBlockEnd
  0
BLOCK
  5
79
330
78
100
AcDbEntity
  8
0
100
AcDbBlockBegin
  2
_D
 70
     0
 10
0.0
 20
0.0
 30
0.0
  3
_D
  1

  0
SOLID
  5
7B
330
78
100
AcDbEntity
  8
0
  6
Continuous
 62
     7
370
    18
100
AcDbTrace
 10
42.7614395004
 20
152.0299240879
 30
0.0
 11
42.4614395004
 21
149.5299240879
 31
0.0
 12
43.0614395004
 22
149.5299240879
 32
0.0
 13
43.0614395004
 23
149.5299240879
 33
0.0
  0
SOLID
  5
7C
330
78
100
AcDbEntity
  8
0
  6
Continuous
 62
     7
370
    18
100
AcDbTrace
 10
42.7614395004
 20
52.0299240879
 30
0.0
 11
43.0614395004
 21
54.5299240879
 31
0.0
 12
42.4614395004
 22
54.5299240879
 32
0.0
 13
42.4614395004
 23
54.5299240879
 33
0.0
  0
LINE
  5
7D
330
78
100
AcDbEntity
  8
0
  6
Continuous
 62
     7
370
    18
100
AcDbLine
 10
56.6850079902
 20
152.0299240879
 30
0.0
 11
41.7614395004
 21
152.0299240879
 31
0.0
  0
LINE
  5
7E
330
78
100
AcDbEntity
  8
0
  6
Continuous
 62
     7
370
    18
100
AcDbLine
 10
56.6850079902
 20
52.0299240879
 30
0.0
 11
41.7614395004
 21
52.0299240879
 31
0.0
  0
LINE
  5
7F
330
78
100
AcDbEntity
  8
0
  6
Continuous
 62
     7
370
    18
100
AcDbLine
 10
42.7614395004
 20
152.0299240879
 30
0.0
 11
42.7614395004
 21
52.0299240879
 31
0.0
  0
MTEXT
  5
80
330
78
100
AcDbEntity
  8
0
  6
Continuous
 62
     7
370
    18
100
AcDbMText
 10
35.0270332946
 20
94.3680541463
 30
0.0
 40
6.0
 41
0.0
 71
     1
 72
     1
  1
100
  7
SLDTEXTSTYLE0
 11
-7.044195017643634E-15
 21
1.0
 31
0.0
 73
     1
 44
1.0
  0
MTEXT
  5
81
330
78
100
AcDbEntity
  8
0
  6
Continuous
 62
     7
370
    18
100
AcDbMText
 10
35.0270332946
 20
105.7430548466
 30
0.0
 40
6.0
 41
0.0
 71
     1
 72
     1
  1
mm
  7
SLDTEXTSTYLE0
 11
-7.044195017643634E-15
 21
1.0
 31
0.0
 73
     1
 44
1.0
  0
ENDBLK
  5
7A
330
78
100
AcDbEntity
  8
0
100
AcDbBlockEnd
  0
BLOCK
  5
84
330
83
100
AcDbEntity
  8
0
100
AcDbBlockBegin
  2
_D_1
 70
     0
 10
0.0
 20
0.0
 30
0.0
  3
_D_1
  1

  0
SOLID
  5
86
330
83
100
AcDbEntity
  8
0
  6
Continuous
 62
     7
370
    18
100
AcDbTrace
 10
56.6850079902
 20
38.4602342313
 30
0.0
 11
59.1850079902
 21
38.1602342313
 31
0.0
 12
59.1850079902
 22
38.7602342313
 32
0.0
 13
59.1850079902
 23
38.7602342313
 33
0.0
  0
SOLID
  5
87
330
83
100
AcDbEntity
  8
0
  6
Continuous
 62
     7
370
    18
100
AcDbTrace
 10
156.6850079902
 20
38.4602342313
 30
0.0
 11
154.1850079902
 21
38.7602342313
 31
0.0
 12
154.1850079902
 22
38.1602342313
 32
0.0
 13
154.1850079902
 23
38.1602342313
 33
0.0
  0
LINE
  5
88
330
83
100
AcDbEntity
  8
0
  6
Continuous
 62
     7
370
    18
100
AcDbLine
 10
56.6850079902
 20
52.0299240879
 30
0.0
 11
56.6850079902
 21
37.4602342313
 31
0.0
  0
LINE
  5
89
330
83
100
AcDbEntity
  8
0
  6
Continuous
 62
     7
370
    18
100
AcDbLine
 10
156.6850079902
 20
52.0299240879
 30
0.0
 11
156.6850079902
 21
37.4602342313
 31
0.0
  0
LINE
  5
8A
330
83
100
AcDbEntity
  8
0
  6
Continuous
 62
     7
370
    18
100
AcDbLine
 10
56.6850079902
 20
38.4602342313
 30
0.0
 11
156.6850079902
 21
38.4602342313
 31
0.0
  0
MTEXT
  5
8B
330
83
100
AcDbEntity
  8
0
  6
Continuous
 62
     7
370
    18
100
AcDbMText
 10
93.9626484861
 20
46.1946404371
 30
0.0
 40
6.0
 41
0.0
 71
     1
 72
     1
  1
100
  7
SLDTEXTSTYLE0
 73
     1
 44
1.0
  0
MTEXT
  5
8C
330
83
100
AcDbEntity
  8
0
  6
Continuous
 62
     7
370
    18
100
AcDbMText
 10
105.3376491864
 20
46.1946404371
 30
0.0
 40
6.0
 41
0.0
 71
     1
 72
     1
  1
mm
  7
SLDTEXTSTYLE0
 73
     1
 44
1.0
  0
ENDBLK
  5
85
330
83
100
AcDbEntity
  8
0
100
AcDbBlockEnd
  0
ENDSEC
  0
SECTION
  2
ENTITIES
  0
LINE
  5
73
330
1F
100
AcDbEntity
  8
0
  6
Continuous
 62
     7
370
    18
100
AcDbLine
 10
56.6850079902
 20
152.0299240879
 30
0.0
 11
56.6850079902
 21
52.0299240879
 31
0.0
  0
LINE
  5
74
330
1F
100
AcDbEntity
  8
0
  6
Continuous
 62
     7
370
    18
100
AcDbLine
 10
56.6850079902
 20
52.0299240879
 30
0.0
 11
156.6850079902
 21
52.0299240879
 31
0.0
  0
DIMENSION
  5
75
330
1F
100
AcDbEntity
  8
0
  6
Continuous
 62
     7
370
    18
100
AcDbDimension
  2
_D
 10
42.7614395004
 20
52.0299240879
 30
0.0
 11
42.7614395004
 21
105.4472211621
 31
0.0
 70
   160
  1
<>mm
 71
     2
 42
-1.0
  3
SLDDIMSTYLE0
100
AcDbAlignedDimension
 13
56.6850079902
 23
152.0299240879
 33
0.0
 14
56.6850079902
 24
52.0299240879
 34
0.0
 50
90.0
100
AcDbRotatedDimension
  0
DIMENSION
  5
82
330
1F
100
AcDbEntity
  8
0
  6
Continuous
 62
     7
370
    18
100
AcDbDimension
  2
_D_1
 10
156.6850079902
 20
38.4602342313
 30
0.0
 11
105.0418155019
 21
38.4602342313
 31
0.0
 70
   160
  1
<>mm
 71
     2
 42
-1.0
  3
SLDDIMSTYLE0
100
AcDbAlignedDimension
 13
56.6850079902
 23
52.0299240879
 33
0.0
 14
156.6850079902
 24
52.0299240879
 34
0.0
100
AcDbRotatedDimension
  0
MTEXT
  5
8E
330
1F
100
AcDbEntity
  8
0
  6
Continuous
 62
     7
370
     0
100
AcDbMText
 10
412.8252631579
 20
48.4342449499
 30
0.0
 40
10.0
 41
0.0
 71
     1
 72
     1
  1
KLUDI GmbH & Co KG
  7
SLDTEXTSTYLE1
 73
     1
 44
1.0
  0
MTEXT
  5
8F
330
1F
100
AcDbEntity
  8
0
  6
Continuous
 62
     7
370
     0
100
AcDbMText
 10
210.0873490389
 20
48.4342449499
 30
0.0
 40
10.0
 41
0.0
 71
     1
 72
     1
  1
65 540
  7
SLDTEXTSTYLE1
 73
     1
 44
1.0
  0
LINE
  5
90
330
1F
100
AcDbEntity
  8
0
  6
Continuous
 62
     7
370
    25
100
AcDbLine
 10
165.475185635
 20
284.7097474679
 30
0.0
 11
165.6640969687
 21
284.5208361342
 31
0.0
  0
LINE
  5
91
330
1F
100
AcDbEntity
  8
0
  6
Continuous
 62
     7
370
    25
100
AcDbLine
 10
184.6590970182
 20
284.5208361342
 30
0.0
 11
184.8422890999
 21
284.7040272846
 31
0.0
  0
ARC
  5
92
330
1F
100
AcDbEntity
  8
0
  6
Continuous
 62
     7
370
    25
100
AcDbCircle
 10
-797.3968079981
 20
312.0208359852
 30
0.0
 40
1000.427572926719
100
AcDbArc
 50
359.0872500103
 51
0.0
  0
ARC
  5
93
330
1F
100
AcDbEntity
  8
0
  6
Continuous
 62
     7
370
    25
100
AcDbCircle
 10
-797.3968079981
 20
312.0208359852
 30
0.0
 40
1000.427572926719
100
AcDbArc
 50
0.0
 51
0.9127499897
  0
SPLINE
  5
94
330
1F
100
AcDbEntity
  8
0
  6
Continuous
 62
     7
370
    25
100
AcDbSpline
210
0.0
220
0.0
230
1.0
 70
     8
 71
     3
 72
    26
 73
    22
 74
     0
 42
0.000000001
 43
0.00000001
 40
0.0
 40
0.0
 40
0.0
 40
0.0
 40
0.1250000000000002
 40
0.1250000000000002
 40
0.2500000000000005
 40
0.2500000000000005
 40
0.3125000000000005
 40
0.3125000000000005
 40
0.3750000000000005
 40
0.3750000000000005
 40
0.5000000000000006
 40
0.5000000000000006
 40
0.6250000000000006
 40
0.6250000000000006
 40
0.7500000000000006
 40
0.7500000000000006
 40
0.8125000000000006
 40
0.8125000000000006
 40
0.8750000000000004
 40
0.8750000000000004
 40
1.0
 40
1.0
 40
1.0
 40
1.0
 10
159.2249682794165
 20
339.7629859106506
 30
0.0
 10
158.4501518993896
 20
339.7506321351623
 30
0.0
 10
157.6828624299877
 20
339.6638911358908
 30
0.0
 10
156.1677312537401
 20
339.342388862031
 30
0.0
 10
155.437675467523
 20
339.1115539900368
 30
0.0
 10
154.3822463026249
 20
338.6642781816707
 30
0.0
 10
154.0370925295211
 20
338.4982296082421
 30
0.0
 10
153.3603872293751
 20
338.1314794961446
 30
0.0
 10
153.0277194262506
 20
337.9298276872391
 30
0.0
 10
152.0709174719206
 20
337.2847802674282
 30
0.0
 10
151.4812539760118
 20
336.7988249384348
 30
0.0
 10
150.3970953706292
 20
335.716506067425
 30
0.0
 10
149.8999205662056
 20
335.1140981537393
 30
0.0
 10
149.0429393576472
 20
333.8444894162281
 30
0.0
 10
148.6776030620803
 20
333.1733581432646
 30
0.0
 10
148.2256365189971
 20
332.1114194035398
 30
0.0
 10
148.0908309489538
 20
331.7469869277124
 30
0.0
 10
147.8581209224609
 20
331.0097587107963
 30
0.0
 10
147.7596823344268
 20
330.6359969158021
 30
0.0
 10
147.5184621544076
 20
329.4991689710432
 30
0.0
 10
147.431800853224
 20
328.7322816933836
 30
0.0
 10
147.4194470679431
 20
327.9574646991773
 30
0.0
  0
SPLINE
  5
95
330
1F
100
AcDbEntity
  8
0
  6
Continuous
 62
     7
370
    25
100
AcDbSpline
210
0.0
220
0.0
230
1.0
 70
     8
 71
     3
 72
    26
 73
    22
 74
     0
 42
0.000000001
 43
0.00000001
 40
0.0
 40
0.0
 40
0.0
 40
0.0
 40
0.1250000000000003
 40
0.1250000000000003
 40
0.2500000000000007
 40
0.2500000000000007
 40
0.3125000000000007
 40
0.3125000000000007
 40
0.3750000000000007
 40
0.3750000000000007
 40
0.5000000000000003
 40
0.5000000000000003
 40
0.625
 40
0.625
 40
0.7499999999999997
 40
0.7499999999999997
 40
0.8124999999999997
 40
0.8124999999999997
 40
0.8749999999999999
 40
0.8749999999999999
 40
1.0
 40
1.0
 40
1.0
 40
1.0
 10
191.0982257074305
 20
284.2786860596897
 30
0.0
 10
191.8730420874575
 20
284.2910398351781
 30
0.0
 10
192.6403315568593
 20
284.3777808344495
 30
0.0
 10
194.155462733107
 20
284.6992831083093
 30
0.0
 10
194.8855185193241
 20
284.9301179803035
 30
0.0
 10
195.9409476842222
 20
285.3773937886697
 30
0.0
 10
196.2861014573259
 20
285.5434423620983
 30
0.0
 10
196.962806757472
 20
285.9101924741958
 30
0.0
 10
197.2954745605965
 20
286.1118442831013
 30
0.0
 10
198.2522765149265
 20
286.7568917029122
 30
0.0
 10
198.8419400108353
 20
287.2428470319056
 30
0.0
 10
199.9260986162179
 20
288.3251659029153
 30
0.0
 10
200.4232734206414
 20
288.9275738166012
 30
0.0
 10
201.2802546291999
 20
290.1971825541123
 30
0.0
 10
201.6455909247667
 20
290.8683138270758
 30
0.0
 10
202.0975574678499
 20
291.9302525668006
 30
0.0
 10
202.2323630378933
 20
292.2946850426279
 30
0.0
 10
202.4650730643862
 20
293.031913259544
 30
0.0
 10
202.5635116524203
 20
293.4056750545382
 30
0.0
 10
202.8047318324395
 20
294.5425029992973
 30
0.0
 10
202.8913931336231
 20
295.3093902769568
 30
0.0
 10
202.9037469189039
 20
296.0842072711632
 30
0.0
  0
SPLINE
  5
96
330
1F
100
AcDbEntity
  8
0
  6
Continuous
 62
     7
370
    25
100
AcDbSpline
210
0.0
220
0.0
230
1.0
 70
     8
 71
     3
 72
    26
 73
    22
 74
     0
 42
0.000000001
 43
0.00000001
 40
0.0
 40
0.0
 40
0.0
 40
0.0
 40
0.1249999999999997
 40
0.1249999999999997
 40
0.2499999999999994
 40
0.2499999999999994
 40
0.3124999999999996
 40
0.3124999999999996
 40
0.3749999999999998
 40
0.3749999999999998
 40
0.5
 40
0.5
 40
0.6250000000000001
 40
0.6250000000000001
 40
0.7500000000000002
 40
0.7500000000000002
 40
0.8125000000000003
 40
0.8125000000000003
 40
0.8750000000000004
 40
0.8750000000000004
 40
1.0
 40
1.0
 40
1.0
 40
1.0
 10
202.903746918904
 20
327.9574646991773
 30
0.0
 10
202.8913931434157
 20
328.7322810792041
 30
0.0
 10
202.8046521441442
 20
329.4995705486061
 30
0.0
 10
202.4831498702844
 20
331.0147017248537
 30
0.0
 10
202.2523149982902
 20
331.7447575110708
 30
0.0
 10
201.8050391899241
 20
332.8001866759689
 30
0.0
 10
201.6389906164954
 20
333.1453404490726
 30
0.0
 10
201.2722405043979
 20
333.8220457492187
 30
0.0
 10
201.0705886954924
 20
334.1547135523432
 30
0.0
 10
200.4255412756816
 20
335.1115155066732
 30
0.0
 10
199.9395859466881
 20
335.701179002582
 30
0.0
 10
198.8572670756784
 20
336.7853376079647
 30
0.0
 10
198.2548591619926
 20
337.2825124123881
 30
0.0
 10
196.9852504244814
 20
338.1394936209466
 30
0.0
 10
196.314119151518
 20
338.5048299165134
 30
0.0
 10
195.2521804117931
 20
338.9567964595966
 30
0.0
 10
194.8877479359658
 20
339.0916020296399
 30
0.0
 10
194.1505197190496
 20
339.3243120561328
 30
0.0
 10
193.7767579240555
 20
339.4227506441669
 30
0.0
 10
192.6399299792965
 20
339.6639708241861
 30
0.0
 10
191.8730427016369
 20
339.7506321253696
 30
0.0
 10
191.0982257074305
 20
339.7629859106506
 30
0.0
  0
SPLINE
  5
97
330
1F
100
AcDbEntity
  8
0
  6
Continuous
 62
     7
370
    25
100
AcDbSpline
210
0.0
220
0.0
230
1.0
 70
     8
 71
     3
 72
    26
 73
    22
 74
     0
 42
0.000000001
 43
0.00000001
 40
0.0
 40
0.0
 40
0.0
 40
0.0
 40
0.1249999999999999
 40
0.1249999999999999
 40
0.2499999999999998
 40
0.2499999999999998
 40
0.3124999999999996
 40
0.3124999999999996
 40
0.3749999999999994
 40
0.3749999999999994
 40
0.4999999999999993
 40
0.4999999999999993
 40
0.6249999999999992
 40
0.6249999999999992
 40
0.7499999999999992
 40
0.7499999999999992
 40
0.8124999999999993
 40
0.8124999999999993
 40
0.8749999999999996
 40
0.8749999999999996
 40
1.0
 40
1.0
 40
1.0
 40
1.0
 10
147.4194470679431
 20
296.0842072711631
 30
0.0
 10
147.4318008434314
 20
295.3093908911362
 30
0.0
 10
147.5185418427029
 20
294.5421014217343
 30
0.0
 10
147.8400441165627
 20
293.0269702454867
 30
0.0
 10
148.070878988557
 20
292.2969144592697
 30
0.0
 10
148.5181547969231
 20
291.2414852943715
 30
0.0
 10
148.6842033703516
 20
290.8963315212678
 30
0.0
 10
149.0509534824492
 20
290.2196262211218
 30
0.0
 10
149.2526052913547
 20
289.8869584179972
 30
0.0
 10
149.8976527111656
 20
288.9301564636672
 30
0.0
 10
150.383608040159
 20
288.3404929677585
 30
0.0
 10
151.4659269111687
 20
287.2563343623758
 30
0.0
 10
152.0683348248545
 20
286.7591595579523
 30
0.0
 10
153.3379435623657
 20
285.9021783493939
 30
0.0
 10
154.0090748353292
 20
285.536842053827
 30
0.0
 10
155.071013575054
 20
285.0848755107439
 30
0.0
 10
155.4354460508813
 20
284.9500699407004
 30
0.0
 10
156.1726742677974
 20
284.7173599142075
 30
0.0
 10
156.5464360627916
 20
284.6189213261734
 30
0.0
 10
157.6832640075506
 20
284.3777011461542
 30
0.0
 10
158.4501512852102
 20
284.2910398449707
 30
0.0
 10
159.2249682794166
 20
284.2786860596898
 30
0.0
  0
ARC
  5
98
330
1F
100
AcDbEntity
  8
0
  6
Continuous
 62
     7
370
    25
100
AcDbCircle
 10
1147.720001985
 20
312.0208359852
 30
0.0
 40
1000.427496774298
100
AcDbArc
 50
179.0872500103
 51
180.9127499897
  0
SPLINE
  5
99
330
1F
100
AcDbEntity
  8
0
  6
Continuous
 62
     7
370
    25
100
AcDbSpline
210
0.0
220
0.0
230
1.0
 70
     8
 71
     3
 72
    27
 73
    23
 74
     0
 42
0.000000001
 43
0.00000001
 40
0.0
 40
0.0
 40
0.0
 40
0.0
 40
0.0369296485424185
 40
0.0904849513706682
 40
0.1424787052451592
 40
0.1959745399256507
 40
0.2480775869807824
 40
0.3016793221541613
 40
0.3540046578651117
 40
0.4078341001655827
 40
0.4603942610851128
 40
0.5144704119329531
 40
0.5671697765473498
 40
0.6213981510083039
 40
0.674075900521381
 40
0.7282908329748053
 40
0.7807950674411128
 40
0.8348358613309992
 40
0.8870955160163148
 40
0.9408824839505688
 40
0.9929409222781547
 40
0.9999999999999999
 40
0.9999999999999999
 40
0.9999999999999999
 40
0.9999999999999999
 10
184.8287187986742
 20
284.717598517166
 30
0.0
 10
184.8333142209407
 20
284.7242477169662
 30
0.0
 10
184.8445739154335
 20
284.7405395730852
 30
0.0
 10
184.5473530828382
 20
284.7628071887964
 30
0.0
 10
183.9871853972695
 20
284.784412482166
 30
0.0
 10
183.1756626151885
 20
284.8020070132627
 30
0.0
 10
182.133128755469
 20
284.8161270192474
 30
0.0
 10
180.9025293658078
 20
284.8267423311419
 30
0.0
 10
179.4974555867607
 20
284.8344218663569
 30
0.0
 10
177.9795717603518
 20
284.8393893706296
 30
0.0
 10
176.3659045985702
 20
284.8420489929292
 30
0.0
 10
174.7290213933606
 20
284.8425435861917
 30
0.0
 10
173.0879951790322
 20
284.8409116864476
 30
0.0
 10
171.5190572501581
 20
284.8370439556387
 30
0.0
 10
170.0399389256806
 20
284.8305907951681
 30
0.0
 10
168.7212137010821
 20
284.8213095173966
 30
0.0
 10
167.5756160098094
 20
284.8086335218603
 30
0.0
 10
166.6602267129526
 20
284.7924865689342
 30
0.0
 10
165.9733701645671
 20
284.7724756394096
 30
0.0
 10
165.5813436679925
 20
284.7487739506098
 30
0.0
 10
165.4224207657147
 20
284.7300858605598
 30
0.0
 10
165.4766839145527
 20
284.71904369497
 30
0.0
 10
165.4831633441816
 20
284.7177251770361
 30
0.0
  0
ARC
  5
9A
330
1F
100
AcDbEntity
  8
0
  6
Continuous
 62
     7
370
    25
100
AcDbCircle
 10
175.1615969934
 20
1284.5792409767
 30
0.0
 40
1000.427496774298
100
AcDbArc
 50
269.0872500103
 51
270.9127499897
  0
ARC
  5
9B
330
1F
100
AcDbEntity
  8
0
  6
Continuous
 62
     7
370
    25
100
AcDbCircle
 10
175.1615969934
 20
-660.5375690064
 30
0.0
 40
1000.427496774298
100
AcDbArc
 50
89.0872500103
 51
90.9127499897
  0
LINE
  5
9C
330
1F
100
AcDbEntity
  8
0
  6
Continuous
 62
     7
370
    25
100
AcDbLine
 10
184.6590970182
 20
284.5208361342
 30
0.0
 11
165.6640969687
 21
284.5208361342
 31
0.0
  0
SPLINE
  5
9D
330
1F
100
AcDbEntity
  8
0
  6
Continuous
 62
     8
370
    18
100
AcDbSpline
210
0.0
220
0.0
230
1.0
 70
     8
 71
     3
 72
    26
 73
    22
 74
     0
 42
0.000000001
 43
0.00000001
 40
0.0
 40
0.0
 40
0.0
 40
0.0
 40
0.1250000000000007
 40
0.1250000000000007
 40
0.2500000000000014
 40
0.2500000000000014
 40
0.3125000000000017
 40
0.3125000000000017
 40
0.3750000000000019
 40
0.3750000000000019
 40
0.5000000000000016
 40
0.5000000000000016
 40
0.6250000000000011
 40
0.6250000000000011
 40
0.7500000000000008
 40
0.7500000000000008
 40
0.8125000000000007
 40
0.8125000000000007
 40
0.8750000000000006
 40
0.8750000000000006
 40
1.0
 40
1.0
 40
1.0
 40
1.0
 10
201.0894838695695
 20
327.099655455204
 30
0.0
 10
201.0778765541431
 20
327.8125708350116
 30
0.0
 10
200.9974987875289
 20
328.5182455840703
 30
0.0
 10
200.6999919939035
 20
329.9122239082867
 30
0.0
 10
200.4865683755944
 20
330.5836677439606
 30
0.0
 10
200.0734952211643
 20
331.5541245204307
 30
0.0
 10
199.9202035695652
 20
331.8714481091357
 30
0.0
 10
199.5817791539472
 20
332.4935188548615
 30
0.0
 10
199.3957665777084
 20
332.799301328732
 30
0.0
 10
198.8009102269828
 20
333.6787820239805
 30
0.0
 10
198.3530059469306
 20
334.220746401434
 30
0.0
 10
197.3559194636963
 20
335.2171633623313
 30
0.0
 10
196.8012403243077
 20
335.6740299221779
 30
0.0
 10
195.6324133832526
 20
336.4615465971494
 30
0.0
 10
195.0146230741854
 20
336.797277696802
 30
0.0
 10
194.0370535690142
 20
337.2124129555657
 30
0.0
 10
193.7012247128408
 20
337.336249956524
 30
0.0
 10
193.025925190991
 20
337.5487987810168
 30
0.0
 10
192.6851206073973
 20
337.638223999672
 30
0.0
 10
191.6534254365797
 20
337.8569311279624
 30
0.0
 10
190.9533414952724
 20
337.9371148495001
 30
0.0
 10
190.2404163451175
 20
337.9487222648162
 30
0.0
  0
SPLINE
  5
9E
330
1F
100
AcDbEntity
  8
0
  6
Continuous
 62
     8
370
    18
100
AcDbSpline
210
0.0
220
0.0
230
1.0
 70
     8
 71
     3
 72
     8
 73
     4
 74
     0
 42
0.000000001
 43
0.00000001
 40
0.0
 40
0.0
 40
0.0
 40
0.0
 40
1.0
 40
1.0
 40
1.0
 40
1.0
 10
201.0894914948844
 20
296.9420165814689
 30
0.0
 10
201.2531505276915
 20
306.9938934022479
 30
0.0
 10
201.2531432713387
 20
317.0477786615342
 30
0.0
 10
201.0894838695694
 20
327.099655455204
 30
0.0
  0
SPLINE
  5
9F
330
1F
100
AcDbEntity
  8
0
  6
Continuous
 62
     8
370
    18
100
AcDbSpline
210
0.0
220
0.0
230
1.0
 70
     8
 71
     3
 72
    26
 73
    22
 74
     0
 42
0.000000001
 43
0.00000001
 40
0.0
 40
0.0
 40
0.0
 40
0.0
 40
0.1250000000000002
 40
0.1250000000000002
 40
0.2500000000000004
 40
0.2500000000000004
 40
0.3125000000000003
 40
0.3125000000000003
 40
0.3750000000000001
 40
0.3750000000000001
 40
0.5000000000000001
 40
0.5000000000000001
 40
0.6250000000000001
 40
0.6250000000000001
 40
0.7500000000000001
 40
0.7500000000000001
 40
0.8125000000000002
 40
0.8125000000000002
 40
0.8750000000000003
 40
0.8750000000000003
 40
1.0
 40
1.0
 40
1.0
 40
1.0
 10
190.2404162787269
 20
286.0929420809249
 30
0.0
 10
190.9533320715613
 20
286.1045493176538
 30
0.0
 10
191.6590072204359
 20
286.1849272106116
 30
0.0
 10
193.0529862333697
 20
286.4824346039807
 30
0.0
 10
193.7244303199548
 20
286.6958586760903
 30
0.0
 10
194.694887402211
 20
287.1089325778634
 30
0.0
 10
195.0122110811328
 20
287.2622244894195
 30
0.0
 10
195.6342819961593
 20
287.6006494158754
 30
0.0
 10
195.9400645429105
 20
287.7866622393653
 30
0.0
 10
196.8195454862357
 20
288.3815192763681
 30
0.0
 10
197.3615100748751
 20
288.829423946242
 30
0.0
 10
198.3579276310228
 20
289.8265109807167
 30
0.0
 10
198.8147945795224
 20
290.3811902666722
 30
0.0
 10
199.6023122799289
 20
291.5500174981823
 30
0.0
 10
199.9380439881803
 20
292.1678079307723
 30
0.0
 10
200.3531801452149
 20
293.1453776828457
 30
0.0
 10
200.4770174472535
 20
293.4812066417996
 30
0.0
 10
200.6895668229967
 20
294.1565064051408
 30
0.0
 10
200.7789922911451
 20
294.4973111207707
 30
0.0
 10
200.9977000524017
 20
295.5290067285063
 30
0.0
 10
201.077884039816
 20
296.2290910157305
 30
0.0
 10
201.0894914948846
 20
296.9420165814689
 30
0.0
  0
SPLINE
  5
A0
330
1F
100
AcDbEntity
  8
0
  6
Continuous
 62
     8
370
    18
100
AcDbSpline
210
0.0
220
0.0
230
1.0
 70
     8
 71
     3
 72
     8
 73
     4
 74
     0
 42
0.000000001
 43
0.00000001
 40
0.0
 40
0.0
 40
0.0
 40
0.0
 40
1.0
 40
1.0
 40
1.0
 40
1.0
 10
160.0827776417295
 20
286.092949705524
 30
0.0
 10
170.1346543637801
 20
285.9292911394128
 30
0.0
 10
180.188539529112
 20
285.9292838842974
 30
0.0
 10
190.2404162787269
 20
286.0929420809247
 30
0.0
  0
SPLINE
  5
A1
330
1F
100
AcDbEntity
  8
0
  6
Continuous
 62
     8
370
    18
100
AcDbSpline
210
0.0
220
0.0
230
1.0
 70
     8
 71
     3
 72
    26
 73
    22
 74
     0
 42
0.000000001
 43
0.00000001
 40
0.0
 40
0.0
 40
0.0
 40
0.0
 40
0.1249999999999997
 40
0.1249999999999997
 40
0.2499999999999994
 40
0.2499999999999994
 40
0.3124999999999993
 40
0.3124999999999993
 40
0.3749999999999993
 40
0.3749999999999993
 40
0.4999999999999997
 40
0.4999999999999997
 40
0.625
 40
0.625
 40
0.7500000000000003
 40
0.7500000000000003
 40
0.8125000000000004
 40
0.8125000000000004
 40
0.8750000000000006
 40
0.8750000000000006
 40
1.0
 40
1.0
 40
1.0
 40
1.0
 10
149.2337101172776
 20
296.9420165151363
 30
0.0
 10
149.245317432704
 20
296.2291011353287
 30
0.0
 10
149.3256951993181
 20
295.5234263862702
 30
0.0
 10
149.6232019929436
 20
294.1294480620537
 30
0.0
 10
149.8366256112527
 20
293.4580042263798
 30
0.0
 10
150.2496987656829
 20
292.4875474499098
 30
0.0
 10
150.402990417282
 20
292.1702238612047
 30
0.0
 10
150.7414148328999
 20
291.548153115479
 30
0.0
 10
150.9274274091386
 20
291.2423706416084
 30
0.0
 10
151.5222837598642
 20
290.3628899463598
 30
0.0
 10
151.9701880399165
 20
289.8209255689064
 30
0.0
 10
152.9672745231508
 20
288.8245086080091
 30
0.0
 10
153.5219536625393
 20
288.3676420481625
 30
0.0
 10
154.6907806035945
 20
287.5801253731909
 30
0.0
 10
155.3085709126617
 20
287.2443942735384
 30
0.0
 10
156.2861404178329
 20
286.8292590147747
 30
0.0
 10
156.6219692740063
 20
286.7054220138164
 30
0.0
 10
157.2972687958561
 20
286.4928731893236
 30
0.0
 10
157.6380733794498
 20
286.4034479706684
 30
0.0
 10
158.6697685502674
 20
286.1847408423779
 30
0.0
 10
159.3698524915746
 20
286.1045571208403
 30
0.0
 10
160.0827776417296
 20
286.0929497055242
 30
0.0
  0
SPLINE
  5
A2
330
1F
100
AcDbEntity
  8
0
  6
Continuous
 62
     8
370
    18
100
AcDbSpline
210
0.0
220
0.0
230
1.0
 70
     8
 71
     3
 72
     8
 73
     4
 74
     0
 42
0.000000001
 43
0.00000001
 40
0.0
 40
0.0
 40
0.0
 40
0.0
 40
1.0
 40
1.0
 40
1.0
 40
1.0
 10
149.2337024919627
 20
327.0996553888714
 30
0.0
 10
149.0700434591556
 20
317.0477785680924
 30
0.0
 10
149.0700507155082
 20
306.9938933088062
 30
0.0
 10
149.2337101172775
 20
296.9420165151363
 30
0.0
  0
SPLINE
  5
A3
330
1F
100
AcDbEntity
  8
0
  6
Continuous
 62
     8
370
    18
100
AcDbSpline
210
0.0
220
0.0
230
1.0
 70
     8
 71
     3
 72
    26
 73
    22
 74
     0
 42
0.000000001
 43
0.00000001
 40
0.0
 40
0.0
 40
0.0
 40
0.0
 40
0.1249999999999999
 40
0.1249999999999999
 40
0.2499999999999999
 40
0.2499999999999999
 40
0.3124999999999999
 40
0.3124999999999999
 40
0.3749999999999998
 40
0.3749999999999998
 40
0.4999999999999998
 40
0.4999999999999998
 40
0.6249999999999998
 40
0.6249999999999998
 40
0.7499999999999997
 40
0.7499999999999997
 40
0.8124999999999998
 40
0.8124999999999998
 40
0.8749999999999998
 40
0.8749999999999998
 40
1.0
 40
1.0
 40
1.0
 40
1.0
 10
160.0827777081202
 20
337.9487298894155
 30
0.0
 10
159.3698619152858
 20
337.9371226526865
 30
0.0
 10
158.6641867664112
 20
337.8567447597288
 30
0.0
 10
157.2702077534774
 20
337.5592373663596
 30
0.0
 10
156.5987636668923
 20
337.34581329425
 30
0.0
 10
155.6283065846361
 20
336.932739392477
 30
0.0
 10
155.3109829057143
 20
336.7794474809208
 30
0.0
 10
154.6889119906877
 20
336.441022554465
 30
0.0
 10
154.3831294439366
 20
336.2550097309752
 30
0.0
 10
153.5036485006113
 20
335.6601526939723
 30
0.0
 10
152.9616839119719
 20
335.2122480240984
 30
0.0
 10
151.9652663558242
 20
334.2151609896237
 30
0.0
 10
151.5083994073247
 20
333.6604817036683
 30
0.0
 10
150.7208817069182
 20
332.4916544721581
 30
0.0
 10
150.3851499986668
 20
331.873864039568
 30
0.0
 10
149.9700138416322
 20
330.8962942874947
 30
0.0
 10
149.8461765395936
 20
330.5604653285407
 30
0.0
 10
149.6336271638505
 20
329.8851655651996
 30
0.0
 10
149.544201695702
 20
329.5443608495697
 30
0.0
 10
149.3254939344453
 20
328.5126652418341
 30
0.0
 10
149.2453099470312
 20
327.8125809546099
 30
0.0
 10
149.2337024919627
 20
327.0996553888715
 30
0.0
  0
SPLINE
  5
A4
330
1F
100
AcDbEntity
  8
0
  6
Continuous
 62
     8
370
    18
100
AcDbSpline
210
0.0
220
0.0
230
1.0
 70
     8
 71
     3
 72
     8
 73
     4
 74
     0
 42
0.000000001
 43
0.00000001
 40
0.0
 40
0.0
 40
0.0
 40
0.0
 40
1.0
 40
1.0
 40
1.0
 40
1.0
 10
190.2404163451176
 20
337.9487222648163
 30
0.0
 10
180.1885396230669
 20
338.1123808309275
 30
0.0
 10
170.1346544577351
 20
338.1123880860428
 30
0.0
 10
160.0827777081202
 20
337.9487298894155
 30
0.0
  0
ARC
  5
A5
330
1F
100
AcDbEntity
  8
0
  6
Continuous
 62
     8
370
    18
100
AcDbCircle
 10
204.5614086578
 20
511.5337809213
 30
0.0
 40
214.6198488395889
100
AcDbArc
 50
269.0730823922
 51
269.3347840968
  0
SPLINE
  5
A6
330
1F
100
AcDbEntity
  8
0
  6
Continuous
 62
     8
370
    18
100
AcDbSpline
210
0.0
220
0.0
230
1.0
 70
     8
 71
     3
 72
    26
 73
    22
 74
     0
 42
0.000000001
 43
0.00000001
 40
0.0
 40
0.0
 40
0.0
 40
0.0
 40
0.1250000000000001
 40
0.1250000000000001
 40
0.1875000000000001
 40
0.1875000000000001
 40
0.2500000000000001
 40
0.2500000000000001
 40
0.3750000000000002
 40
0.3750000000000002
 40
0.5000000000000002
 40
0.5000000000000002
 40
0.6250000000000002
 40
0.6250000000000002
 40
0.6875000000000001
 40
0.6875000000000001
 40
0.7499999999999999
 40
0.7499999999999999
 40
0.8749999999999999
 40
0.8749999999999999
 40
1.0
 40
1.0
 40
1.0
 40
1.0
 10
202.0696827190006
 20
296.9283972052341
 30
0.0
 10
202.0579474112703
 20
296.1515432464764
 30
0.0
 10
201.9716595073664
 20
295.3885494949233
 30
0.0
 10
201.7349941775103
 20
294.2639929360295
 30
0.0
 10
201.6381056075049
 20
293.8924868655585
 30
0.0
 10
201.4075757569742
 20
293.1563064826354
 30
0.0
 10
201.2731530099137
 20
292.7901617358428
 30
0.0
 10
200.8222095811513
 20
291.7243158821279
 30
0.0
 10
200.4571597153667
 20
291.0507326922152
 30
0.0
 10
199.6000734361356
 20
289.7764601024429
 30
0.0
 10
199.102448448972
 20
289.1717646399402
 30
0.0
 10
198.0167218330793
 20
288.0853097813962
 30
0.0
 10
197.4259849764579
 20
287.5975162583143
 30
0.0
 10
196.4671252279566
 20
286.9500697623416
 30
0.0
 10
196.1337055085245
 20
286.7476870494733
 30
0.0
 10
195.4554551449539
 20
286.3796732388034
 30
0.0
 10
195.1094789007388
 20
286.2130723566286
 30
0.0
 10
194.0514308186093
 20
285.7643839986509
 30
0.0
 10
193.319429767394
 20
285.5329278303976
 30
0.0
 10
191.7999413458369
 20
285.2109715040378
 30
0.0
 10
191.0308896882951
 20
285.1244855529052
 30
0.0
 10
190.254035788628
 20
285.112750244508
 30
0.0
  0
ARC
  5
A7
330
1F
100
AcDbEntity
  8
0
  6
Continuous
 62
     8
370
    18
100
AcDbCircle
 10
-24.3513479427
 20
282.6210243208
 30
0.0
 40
214.6198488395889
100
AcDbArc
 50
0.6652159032
 51
0.9269176078
  0
ARC
  5
A8
330
1F
100
AcDbEntity
  8
0
  6
Continuous
 62
     8
370
    18
100
AcDbCircle
 10
145.761785329
 20
112.507891049
 30
0.0
 40
214.6198488395889
100
AcDbArc
 50
89.0730823922
 51
89.3347840968
  0
SPLINE
  5
A9
330
1F
100
AcDbEntity
  8
0
  6
Continuous
 62
     8
370
    18
100
AcDbSpline
210
0.0
220
0.0
230
1.0
 70
     8
 71
     3
 72
    26
 73
    22
 74
     0
 42
0.000000001
 43
0.00000001
 40
0.0
 40
0.0
 40
0.0
 40
0.0
 40
0.1250000000000008
 40
0.1250000000000008
 40
0.1875000000000009
 40
0.1875000000000009
 40
0.250000000000001
 40
0.250000000000001
 40
0.375000000000001
 40
0.375000000000001
 40
0.500000000000001
 40
0.500000000000001
 40
0.625000000000001
 40
0.625000000000001
 40
0.6875000000000008
 40
0.6875000000000008
 40
0.7500000000000007
 40
0.7500000000000007
 40
0.8750000000000003
 40
0.8750000000000003
 40
1.0
 40
1.0
 40
1.0
 40
1.0
 10
148.2535112678465
 20
327.1132747651063
 30
0.0
 10
148.2652465755768
 20
327.890128723864
 30
0.0
 10
148.3515344794807
 20
328.6531224754171
 30
0.0
 10
148.5881998093368
 20
329.7776790343109
 30
0.0
 10
148.6850883793422
 20
330.1491851047818
 30
0.0
 10
148.9156182298729
 20
330.8853654877049
 30
0.0
 10
149.0500409769334
 20
331.2515102344976
 30
0.0
 10
149.5009844056958
 20
332.3173560882125
 30
0.0
 10
149.8660342714803
 20
332.9909392781252
 30
0.0
 10
150.7231205507114
 20
334.2652118678975
 30
0.0
 10
151.2207455378752
 20
334.8699073304002
 30
0.0
 10
152.3064721537678
 20
335.9563621889441
 30
0.0
 10
152.8972090103892
 20
336.4441557120261
 30
0.0
 10
153.8560687588905
 20
337.0916022079988
 30
0.0
 10
154.1894884783226
 20
337.2939849208672
 30
0.0
 10
154.8677388418932
 20
337.6619987315371
 30
0.0
 10
155.2137150861083
 20
337.8285996137118
 30
0.0
 10
156.2717631682377
 20
338.2772879716895
 30
0.0
 10
157.0037642194531
 20
338.5087441399427
 30
0.0
 10
158.5232526410102
 20
338.8307004663026
 30
0.0
 10
159.292304298552
 20
338.9171864174352
 30
0.0
 10
160.0691581982191
 20
338.9289217258324
 30
0.0
  0
ARC
  5
AA
330
1F
100
AcDbEntity
  8
0
  6
Continuous
 62
     8
370
    18
100
AcDbCircle
 10
374.6745419296
 20
341.4206476495
 30
0.0
 40
214.6198488395889
100
AcDbArc
 50
180.6652159032
 51
180.9269176078
  0
ARC
  5
AB
330
1F
100
AcDbEntity
  8
0
  6
Continuous
 62
     8
370
    18
100
AcDbCircle
 10
-24.3497446105
 20
341.4205989813
 30
0.0
 40
214.6182450504176
100
AcDbArc
 50
359.0730864701
 51
359.3347921192
  0
SPLINE
  5
AC
330
1F
100
AcDbEntity
  8
0
  6
Continuous
 62
     8
370
    18
100
AcDbSpline
210
0.0
220
0.0
230
1.0
 70
     8
 71
     3
 72
    26
 73
    22
 74
     0
 42
0.000000001
 43
0.00000001
 40
0.0
 40
0.0
 40
0.0
 40
0.0
 40
0.125
 40
0.125
 40
0.1875
 40
0.1875
 40
0.2499999999999999
 40
0.2499999999999999
 40
0.3749999999999998
 40
0.3749999999999998
 40
0.4999999999999998
 40
0.4999999999999998
 40
0.6249999999999997
 40
0.6249999999999997
 40
0.6874999999999997
 40
0.6874999999999997
 40
0.7499999999999997
 40
0.7499999999999997
 40
0.8749999999999999
 40
0.8749999999999999
 40
1.0
 40
1.0
 40
1.0
 40
1.0
 10
190.2540359264488
 20
338.9289218619994
 30
0.0
 10
191.0308898885923
 20
338.9171865531195
 30
0.0
 10
191.7938836474132
 20
338.8308986563055
 30
0.0
 10
192.9184402214122
 20
338.5942333482636
 30
0.0
 10
193.2899462976
 20
338.4973447873213
 30
0.0
 10
194.0261266928279
 20
338.2668149574328
 30
0.0
 10
194.3922714481579
 20
338.1323922213912
 30
0.0
 10
195.4581173317076
 20
337.6814488232241
 30
0.0
 10
196.1317005395493
 20
337.3163989777912
 30
0.0
 10
197.4059731522981
 20
336.4593127287418
 30
0.0
 10
198.0106686271625
 20
335.9616877455146
 30
0.0
 10
199.0971234936332
 20
334.8759611139211
 30
0.0
 10
199.5849170075018
 20
334.2852242435778
 30
0.0
 10
200.2323634769504
 20
333.3263644723289
 30
0.0
 10
200.4347461803882
 20
332.9929447427364
 30
0.0
 10
200.8027599725612
 20
332.314694353872
 30
0.0
 10
200.9693608440523
 20
331.9687180974361
 30
0.0
 10
201.4180491690158
 20
330.9106699818748
 30
0.0
 10
201.6495053141223
 20
330.1786689127092
 30
0.0
 10
201.9714616062669
 20
328.6591804738104
 30
0.0
 10
202.0579475487459
 20
327.8901288065929
 30
0.0
 10
202.0696828551835
 20
327.1132749029431
 30
0.0
  0
ARC
  5
AD
330
1F
100
AcDbEntity
  8
0
  6
Continuous
 62
     8
370
    18
100
AcDbCircle
 10
204.5573072002
 20
112.8011716098
 30
0.0
 40
214.3265404286709
100
AcDbArc
 50
90.665029786
 51
90.9270916247
  0
SPLINE
  5
AE
330
1F
100
AcDbEntity
  8
0
  6
Continuous
 62
     8
370
    18
100
AcDbSpline
210
0.0
220
0.0
230
1.0
 70
     8
 71
     3
 72
    26
 73
    22
 74
     0
 42
0.000000001
 43
0.00000001
 40
0.0
 40
0.0
 40
0.0
 40
0.0
 40
0.1249999999999996
 40
0.1249999999999996
 40
0.1874999999999997
 40
0.1874999999999997
 40
0.2499999999999998
 40
0.2499999999999998
 40
0.3749999999999998
 40
0.3749999999999998
 40
0.4999999999999999
 40
0.4999999999999999
 40
0.6249999999999999
 40
0.6249999999999999
 40
0.6875000000000001
 40
0.6875000000000001
 40
0.7500000000000003
 40
0.7500000000000003
 40
0.8750000000000002
 40
0.8750000000000002
 40
1.0
 40
1.0
 40
1.0
 40
1.0
 10
160.0691580603983
 20
285.112750108341
 30
0.0
 10
159.2923040982548
 20
285.1244854172209
 30
0.0
 10
158.5293103394338
 20
285.2107733140349
 30
0.0
 10
157.4047537654349
 20
285.4474386220769
 30
0.0
 10
157.0332476892471
 20
285.5443271830192
 30
0.0
 10
156.2970672940192
 20
285.7748570129077
 30
0.0
 10
155.9309225386891
 20
285.9092797489491
 30
0.0
 10
154.8650766551395
 20
286.3602231471163
 30
0.0
 10
154.1914934472978
 20
286.7252729925493
 30
0.0
 10
152.917220834549
 20
287.5823592415986
 30
0.0
 10
152.3125253596846
 20
288.0799842248258
 30
0.0
 10
151.2260704932139
 20
289.1657108564194
 30
0.0
 10
150.7382769793453
 20
289.7564477267626
 30
0.0
 10
150.0908305098966
 20
290.7153074980115
 30
0.0
 10
149.8884478064588
 20
291.048727227604
 30
0.0
 10
149.5204340142859
 20
291.7269776164684
 30
0.0
 10
149.3538331427948
 20
292.0729538729043
 30
0.0
 10
148.9051448178313
 20
293.1310019884656
 30
0.0
 10
148.6736886727248
 20
293.8630030576313
 30
0.0
 10
148.3517323805802
 20
295.38249149653
 30
0.0
 10
148.2652464381012
 20
296.1515431637475
 30
0.0
 10
148.2535111316636
 20
296.9283970673974
 30
0.0
  0
ARC
  5
AF
330
1F
100
AcDbEntity
  8
0
  6
Continuous
 62
     8
370
    18
100
AcDbCircle
 10
145.7658867866
 20
511.2405003606
 30
0.0
 40
214.3265404286709
100
AcDbArc
 50
270.665029786
 51
270.9270916247
  0
ARC
  5
B0
330
1F
100
AcDbEntity
  8
0
  6
Continuous
 62
     8
370
    18
100
AcDbCircle
 10
374.6729385974
 20
282.6210729891
 30
0.0
 40
214.6182450504177
100
AcDbArc
 50
179.0730864701
 51
179.3347921192
  0
SPLINE
  5
B1
330
1F
100
AcDbEntity
  8
0
  6
Continuous
 62
     8
370
    18
100
AcDbSpline
210
0.0
220
0.0
230
1.0
 70
     8
 71
     3
 72
     8
 73
     4
 74
     0
 42
0.000000001
 43
0.00000001
 40
0.0
 40
0.0
 40
0.0
 40
0.0
 40
1.0
 40
1.0
 40
1.0
 40
1.0
 10
160.0691581982191
 20
338.9289217258324
 30
0.0
 10
170.130208654278
 20
339.0806410857908
 30
0.0
 10
180.1929854720109
 20
339.0806412153028
 30
0.0
 10
190.2540359264488
 20
338.9289218619994
 30
0.0
  0
SPLINE
  5
B2
330
1F
100
AcDbEntity
  8
0
  6
Continuous
 62
     8
370
    18
100
AcDbSpline
210
0.0
220
0.0
230
1.0
 70
     8
 71
     3
 72
     8
 73
     4
 74
     0
 42
0.000000001
 43
0.00000001
 40
0.0
 40
0.0
 40
0.0
 40
0.0
 40
1.0
 40
1.0
 40
1.0
 40
1.0
 10
190.254035788628
 20
285.1127502445079
 30
0.0
 10
180.1929853325691
 20
284.9610308845495
 30
0.0
 10
170.1302085148362
 20
284.9610307550378
 30
0.0
 10
160.0691580603983
 20
285.1127501083411
 30
0.0
  0
SPLINE
  5
B3
330
1F
100
AcDbEntity
  8
0
  6
Continuous
 62
     8
370
    18
100
AcDbSpline
210
0.0
220
0.0
230
1.0
 70
     8
 71
     3
 72
     8
 73
     4
 74
     0
 42
0.000000001
 43
0.00000001
 40
0.0
 40
0.0
 40
0.0
 40
0.0
 40
1.0
 40
1.0
 40
1.0
 40
1.0
 10
148.2535111316636
 20
296.9283970673973
 30
0.0
 10
148.1017918005069
 20
306.9894475111083
 30
0.0
 10
148.1017919300465
 20
317.0522243198176
 30
0.0
 10
148.2535112678465
 20
327.1132747651063
 30
0.0
  0
SPLINE
  5
B4
330
1F
100
AcDbEntity
  8
0
  6
Continuous
 62
     8
370
    18
100
AcDbSpline
210
0.0
220
0.0
230
1.0
 70
     8
 71
     3
 72
     8
 73
     4
 74
     0
 42
0.000000001
 43
0.00000001
 40
0.0
 40
0.0
 40
0.0
 40
0.0
 40
1.0
 40
1.0
 40
1.0
 40
1.0
 10
202.0696828551835
 20
327.1132749029431
 30
0.0
 10
202.2214021863403
 20
317.052224459232
 30
0.0
 10
202.2214020568006
 20
306.9894476505228
 30
0.0
 10
202.0696827190006
 20
296.9283972052341
 30
0.0
  0
LWPOLYLINE
  5
B5
330
1F
100
AcDbEntity
  8
0
  6
Continuous
 62
     8
370
    18
100
AcDbPolyline
 90
        3
 70
   128
 43
0.0
 10
148.2535103806
 20
327.1132750034
 10
147.8370266505
 20
327.5348176777
 10
147.4194476851
 20
327.9574639692
  0
LWPOLYLINE
  5
B6
330
1F
100
AcDbEntity
  8
0
  6
Continuous
 62
     8
370
    18
100
AcDbPolyline
 90
        3
 70
   128
 43
0.0
 10
159.2249690094
 20
339.7629852935
 10
159.6476153009
 20
339.3454063281
 10
160.0691579752
 20
338.928922598
  0
LWPOLYLINE
  5
B7
330
1F
100
AcDbEntity
  8
0
  6
Continuous
 62
     8
370
    18
100
AcDbPolyline
 90
        3
 70
   128
 43
0.0
 10
202.0696836062
 20
296.928396967
 10
202.4861673363
 20
296.5068542927
 10
202.9037463017
 20
296.0842080011
  0
LWPOLYLINE
  5
B8
330
1F
100
AcDbEntity
  8
0
  6
Continuous
 62
     8
370
    18
100
AcDbPolyline
 90
        3
 70
   128
 43
0.0
 10
191.0982249775
 20
284.2786866768
 10
190.6755786859
 20
284.6962656423
 10
190.2540360116
 20
285.1127493723
  0
LWPOLYLINE
  5
B9
330
1F
100
AcDbEntity
  8
0
  6
Continuous
 62
     8
370
    18
100
AcDbPolyline
 90
        3
 70
   128
 43
0.0
 10
190.2540360116
 20
338.928922598
 10
190.6755786859
 20
339.3454063281
 10
191.0982249775
 20
339.7629852935
  0
LWPOLYLINE
  5
BA
330
1F
100
AcDbEntity
  8
0
  6
Continuous
 62
     8
370
    18
100
AcDbPolyline
 90
        3
 70
   128
 43
0.0
 10
202.9037463017
 20
327.9574639692
 10
202.4861673363
 20
327.5348176777
 10
202.0696836062
 20
327.1132750034
  0
LWPOLYLINE
  5
BB
330
1F
100
AcDbEntity
  8
0
  6
Continuous
 62
     8
370
    18
100
AcDbPolyline
 90
        3
 70
   128
 43
0.0
 10
160.0691579752
 20
285.1127493723
 10
159.6476153009
 20
284.6962656423
 10
159.2249690094
 20
284.2786866768
  0
LWPOLYLINE
  5
BC
330
1F
100
AcDbEntity
  8
0
  6
Continuous
 62
     8
370
    18
100
AcDbPolyline
 90
        3
 70
   128
 43
0.0
 10
147.4194476851
 20
296.0842080011
 10
147.8370266505
 20
296.5068542927
 10
148.2535103806
 20
296.928396967
  0
ARC
  5
BD
330
1F
100
AcDbEntity
  8
0
  6
Continuous
 62
     8
370
    18
100
AcDbCircle
 10
-797.3968079981
 20
312.0208359852
 30
0.0
 40
1000.427496774298
100
AcDbArc
 50
359.0872500103
 51
0.9127499897
  0
SPLINE
  5
BE
330
1F
100
AcDbEntity
  8
0
  6
Continuous
 62
     7
370
    25
100
AcDbSpline
210
0.0
220
0.0
230
1.0
 70
     8
 71
     3
 72
    33
 73
    29
 74
     0
 42
0.000000001
 43
0.00000001
 40
0.0
 40
0.0
 40
0.0
 40
0.0
 40
0.0655497023226079
 40
0.131146425006216
 40
0.1907897598648889
 40
0.2444808185558995
 40
0.2922204618381667
 40
0.334009303384847
 40
0.369847739603416
 40
0.3997360650991142
 40
0.4241767243731249
 40
0.4460434424172593
 40
0.4657925848588866
 40
0.4834692774044269
 40
0.4989736843328974
 40
0.5152042287823834
 40
0.5291938041486597
 40
0.5414462176230843
 40
0.5586541141656586
 40
0.5823606445443076
 40
0.6125658911893619
 40
0.6492700207007087
 40
0.6924733281666016
 40
0.7421762597543783
 40
0.7983794570419225
 40
0.861083869196275
 40
0.9302907882074108
 40
1.0
 40
1.0
 40
1.0
 40
1.0
 10
359.2269506928602
 20
285.9702962978943
 30
0.0
 10
359.2584945605618
 20
287.1084193790279
 30
0.0
 10
359.3216049231318
 20
289.3854819440587
 30
0.0
 10
359.396756745382
 20
292.6985449357162
 30
0.0
 10
359.4571886061527
 20
295.8058864771889
 30
0.0
 10
359.5022859296786
 20
298.603286381253
 30
0.0
 10
359.5352314683926
 20
301.0907077989535
 30
0.0
 10
359.55848477227
 20
303.2681331826715
 30
0.0
 10
359.5742915325075
 20
305.1355484417098
 30
0.0
 10
359.5846012777653
 20
306.7016687188536
 30
0.0
 10
359.5912625938705
 20
308.0251255421811
 30
0.0
 10
359.5955183305849
 20
309.1724796519628
 30
0.0
 10
359.5981128650735
 20
310.2023523015403
 30
0.0
 10
359.5994464316354
 20
311.1217177050152
 30
0.0
 10
359.5998751655844
 20
311.9799680051127
 30
0.0
 10
359.5995532228165
 20
312.7741753646546
 30
0.0
 10
359.5986189946646
 20
313.5118970056266
 30
0.0
 10
359.5970947808436
 20
314.2665936914013
 30
0.0
 10
359.594453842323
 20
315.1900658536597
 30
0.0
 10
359.589474127398
 20
316.4253618157443
 30
0.0
 10
359.5807074027519
 20
317.9992815560956
 30
0.0
 10
359.5663957596037
 20
319.911819975261
 30
0.0
 10
359.544413755028
 20
322.1629685336453
 30
0.0
 10
359.5122332581059
 20
324.7527124273926
 30
0.0
 10
359.4670511368843
 20
327.6810325199591
 30
0.0
 10
359.4052434567174
 20
330.9478879719165
 30
0.0
 10
359.3270637778378
 20
334.4490568216223
 30
0.0
 10
359.2603772609271
 20
336.8610277465355
 30
0.0
 10
359.2269134399572
 20
338.0713738098009
 30
0.0
  0
ARC
  5
BF
330
1F
100
AcDbEntity
  8
0
  6
Continuous
 62
     7
370
    25
100
AcDbCircle
 10
309.6997519759
 20
284.65166805
 30
0.0
 40
0.5000000000000333
100
AcDbArc
 50
180.0
 51
271.0000000005
  0
ARC
  5
C0
330
1F
100
AcDbEntity
  8
0
  6
Continuous
 62
     7
370
    25
100
AcDbCircle
 10
309.6997519759
 20
339.3900039203
 30
0.0
 40
0.4999999999999765
100
AcDbArc
 50
88.9999999995
 51
180.0
  0
LINE
  5
C1
330
1F
100
AcDbEntity
  8
0
  6
Continuous
 62
     7
370
    25
100
AcDbLine
 10
349.2405500886
 20
284.8417792066
 30
0.0
 11
358.2453944412
 21
284.9989585175
 31
0.0
  0
LINE
  5
C2
330
1F
100
AcDbEntity
  8
0
  6
Continuous
 62
     7
370
    25
100
AcDbLine
 10
309.7084791091
 20
284.1517436846
 30
0.0
 11
330.8356765349
 21
284.5205213472
 31
0.0
  0
LINE
  5
C3
330
1F
100
AcDbEntity
  8
0
  6
Continuous
 62
     7
370
    25
100
AcDbLine
 10
358.2453944412
 20
339.0427134528
 30
0.0
 11
309.7084791091
 21
339.8899282857
 31
0.0
  0
ARC
  5
C4
330
1F
100
AcDbEntity
  8
0
  6
Continuous
 62
     7
370
    25
100
AcDbCircle
 10
358.227942924
 20
285.9988069379
 30
0.0
 40
1.000000000000082
100
AcDbArc
 50
271.0165037986
 51
358.3921728298
  0
ARC
  5
C5
330
1F
100
AcDbEntity
  8
0
  6
Continuous
 62
     7
370
    25
100
AcDbCircle
 10
358.227942924
 20
338.0428650325
 30
0.0
 40
0.9999999999999931
100
AcDbArc
 50
1.6214026728
 51
88.970576715
  0
LINE
  5
C6
330
1F
100
AcDbEntity
  8
0
  6
Continuous
 62
     7
370
    25
100
AcDbLine
 10
348.946892905
 20
284.5208361342
 30
0.0
 11
349.2543364567
 21
284.8282787546
 31
0.0
  0
SPLINE
  5
C7
330
1F
100
AcDbEntity
  8
0
  6
Continuous
 62
     7
370
    25
100
AcDbSpline
210
0.0
220
0.0
230
1.0
 70
    24
 71
     3
 72
    31
 73
    27
 74
     0
 42
0.000000001
 43
0.00000001
 40
0.0
 40
0.0
 40
0.0
 40
0.0
 40
0.01943881623173
 40
0.038780951396087
 40
0.058043698897285
 40
0.0772445666439837
 40
0.0964012322074548
 40
0.1155314956961672
 40
0.1346532309505247
 40
0.153784335714252
 40
0.1729426814720842
 40
0.1921460636540125
 40
0.2114121528946103
 40
0.2307584480019854
 40
0.2502022312369618
 40
0.3750890226461187
 40
0.5000111953040284
 40
0.6248979867129851
 40
0.7498201593711346
 40
0.7858402563503853
 40
0.8215778941000127
 40
0.8571455591231143
 40
0.8926573531669237
 40
0.9282279156444335
 40
0.963971320511159
 40
1.0
 40
1.0
 40
1.0
 40
1.0
 10
309.1997519758621
 20
284.778546473124
 30
0.0
 10
309.1997519758621
 20
284.7795216146203
 30
0.0
 10
309.1997519758621
 20
284.7814670476402
 30
0.0
 10
309.1997519758621
 20
284.7973081930754
 30
0.0
 10
309.1997519758621
 20
284.8226283111691
 30
0.0
 10
309.1997519758621
 20
284.85834191496
 30
0.0
 10
309.1997519758621
 20
284.9042055719442
 30
0.0
 10
309.1997519758621
 20
284.960284312361
 30
0.0
 10
309.1997519758621
 20
285.0265606777926
 30
0.0
 10
309.1997519758621
 20
285.103039252971
 30
0.0
 10
309.1997519758621
 20
285.1897180763742
 30
0.0
 10
309.1997519758621
 20
285.2865987361525
 30
0.0
 10
309.1997519758621
 20
285.3936745474741
 30
0.0
 10
309.1997519758621
 20
285.5109679799032
 30
0.0
 10
309.1997519758621
 20
285.8684134596837
 30
0.0
 10
309.1997519758621
 20
286.6211901777812
 30
0.0
 10
309.1997519758621
 20
288.0420452624175
 30
0.0
 10
309.1997519758621
 20
289.7632692715078
 30
0.0
 10
309.1997519758621
 20
291.2689083907361
 30
0.0
 10
309.1997519758621
 20
292.3565122873991
 30
0.0
 10
309.1997519758621
 20
292.9619367879159
 30
0.0
 10
309.1997519758621
 20
293.5743817412898
 30
0.0
 10
309.1997519758621
 20
294.1938897289697
 30
0.0
 10
309.1997519758621
 20
294.8204248789257
 30
0.0
 10
309.1997519758621
 20
295.4539736346734
 30
0.0
 10
309.1997519758621
 20
295.8788755664432
 30
0.0
 10
309.1997519758621
 20
296.0921709674529
 30
0.0
  0
SPLINE
  5
C8
330
1F
100
AcDbEntity
  8
0
  6
Continuous
 62
     7
370
    25
100
AcDbSpline
210
0.0
220
0.0
230
1.0
 70
    24
 71
     3
 72
    31
 73
    27
 74
     0
 42
0.000000001
 43
0.00000001
 40
0.0
 40
0.0
 40
0.0
 40
0.0
 40
0.019438816231631
 40
0.038780951395914
 40
0.0580436988970539
 40
0.0772445666437045
 40
0.0964012322071323
 40
0.1155314956958365
 40
0.1346532309501931
 40
0.1537843357139383
 40
0.1729426814717988
 40
0.1921460636537713
 40
0.2114121528944373
 40
0.2307584480018782
 40
0.2502022312369451
 40
0.3750890226464657
 40
0.5000111953040521
 40
0.6248979867138734
 40
0.7498201593711455
 40
0.7858402563505172
 40
0.8215778941002277
 40
0.8571455591233674
 40
0.8926573531671724
 40
0.928227915644648
 40
0.9639713205112885
 40
1.0
 40
1.0
 40
1.0
 40
1.0
 10
309.1997519758621
 20
327.9495010028876
 30
0.0
 10
309.1997519758621
 20
328.0645708762305
 30
0.0
 10
309.1997519758621
 20
328.2941383103824
 30
0.0
 10
309.1997519758621
 20
328.6374323544443
 30
0.0
 10
309.1997519758621
 20
328.9787086471634
 30
0.0
 10
309.1997519758621
 20
329.3179665024031
 30
0.0
 10
309.1997519758621
 20
329.6552050143693
 30
0.0
 10
309.1997519758621
 20
329.9904233153778
 30
0.0
 10
309.1997519758621
 20
330.3236204881464
 30
0.0
 10
309.1997519758621
 20
330.6547957567965
 30
0.0
 10
309.1997519758621
 20
330.9839479086504
 30
0.0
 10
309.1997519758621
 20
331.3110775186482
 30
0.0
 10
309.1997519758621
 20
331.6361786912465
 30
0.0
 10
309.1997519758621
 20
331.9592701043975
 30
0.0
 10
309.1997519758621
 20
332.8597517636671
 30
0.0
 10
309.1997519758621
 20
334.2782837062251
 30
0.0
 10
309.1997519758621
 20
335.9992956333989
 30
0.0
 10
309.1997519758621
 20
337.4204416553623
 30
0.0
 10
309.1997519758621
 20
338.2193269655476
 30
0.0
 10
309.1997519758621
 20
338.6354143580517
 30
0.0
 10
309.1997519758621
 20
338.8292052489872
 30
0.0
 10
309.1997519758621
 20
338.987646741528
 30
0.0
 10
309.1997519758621
 20
339.1110145759424
 30
0.0
 10
309.1997519758621
 20
339.1984553361563
 30
0.0
 10
309.1997519758621
 20
339.2531022819308
 30
0.0
 10
309.1997519758621
 20
339.259775583931
 30
0.0
 10
309.1997519758621
 20
339.2631254972163
 30
0.0
  0
LINE
  5
C9
330
1F
100
AcDbEntity
  8
0
  6
Continuous
 62
     7
370
    25
100
AcDbLine
 10
309.1997516033
 20
296.0921708091
 30
0.0
 11
309.1997516033
 21
327.9495011612
 31
0.0
  0
LINE
  5
CA
330
1F
100
AcDbEntity
  8
0
  6
Continuous
 62
     7
370
    25
100
AcDbLine
 10
359.2192803201
 20
286.0876988217
 30
0.0
 11
359.2265483615
 21
285.984279175
 31
0.0
  0
LINE
  5
CB
330
1F
100
AcDbEntity
  8
0
  6
Continuous
 62
     7
370
    25
100
AcDbLine
 10
359.2265409109
 20
338.0572661354
 30
0.0
 11
359.2192505178
 21
337.953457196
 31
0.0
  0
LINE
  5
CC
330
1F
100
AcDbEntity
  8
0
  6
Continuous
 62
     7
370
    25
100
AcDbLine
 10
309.1997516033
 20
284.6516683295
 30
0.0
 11
309.1997516033
 21
284.7785461291
 31
0.0
  0
LINE
  5
CD
330
1F
100
AcDbEntity
  8
0
  6
Continuous
 62
     7
370
    25
100
AcDbLine
 10
309.1997516033
 20
339.2631258412
 30
0.0
 11
309.1997516033
 21
339.3900036409
 31
0.0
  0
SPLINE
  5
CE
330
1F
100
AcDbEntity
  8
0
  6
Continuous
 62
     7
370
    25
100
AcDbSpline
210
0.0
220
0.0
230
1.0
 70
     8
 71
     3
 72
    25
 73
    21
 74
     0
 42
0.000000001
 43
0.00000001
 40
0.0
 40
0.0
 40
0.0
 40
0.0
 40
0.0164775798624894
 40
0.0763893328500292
 40
0.1380393546177096
 40
0.1979265342803044
 40
0.2595612743792085
 40
0.3192511918793891
 40
0.3806879609651577
 40
0.440099825712108
 40
0.5012480304467323
 40
0.5604311405434211
 40
0.6213354202999749
 40
0.6804423149494959
 40
0.7412579593798623
 40
0.8004676101769157
 40
0.861381850161638
 40
0.9208172036057458
 40
0.9819622085223986
 40
1.0
 40
1.0
 40
1.0
 40
1.0
 10
349.2405454319993
 20
284.8420492901667
 30
0.0
 10
349.2488039964475
 20
284.8421129434061
 30
0.0
 10
349.2870903366604
 20
284.842408037014
 30
0.0
 10
349.0787539197567
 20
284.8408057552078
 30
0.0
 10
348.6151099594896
 20
284.8370717968848
 30
0.0
 10
347.8659236896784
 20
284.8305829905383
 30
0.0
 10
346.8941840198414
 20
284.8213122811993
 30
0.0
 10
345.7029090311063
 20
284.8086301503767
 30
0.0
 10
344.3519971680099
 20
284.7924974701176
 30
0.0
 10
342.8543484966555
 20
284.7724364739903
 30
0.0
 10
341.2824252982031
 20
284.7489228492263
 30
0.0
 10
339.6505793888031
 20
284.7218449975929
 30
0.0
 10
338.0354936596665
 20
284.6923729628909
 30
0.0
 10
336.4517294721275
 20
284.6608951085377
 30
0.0
 10
334.9714410268541
 20
284.6291592420888
 30
0.0
 10
333.609260633193
 20
284.5979915788159
 30
0.0
 10
332.4255704290822
 20
284.5693633857921
 30
0.0
 10
331.4366183188233
 20
284.5443598963193
 30
0.0
 10
330.8515317805004
 20
284.5290470346738
 30
0.0
 10
330.5997751728286
 20
284.5223595410462
 30
0.0
 10
330.5424251751134
 20
284.5208361341818
 30
0.0
  0
LINE
  5
CF
330
1F
100
AcDbEntity
  8
0
  6
Continuous
 62
     7
370
    25
100
AcDbLine
 10
348.946892905
 20
284.5208361342
 30
0.0
 11
330.5424251751
 21
284.5208361342
 31
0.0
  0
ARC
  5
D0
330
1F
100
AcDbEntity
  8
0
  6
Continuous
 62
     8
370
    18
100
AcDbCircle
 10
309.5798111561
 20
304.118636786
 30
0.0
 40
8.035459000015477
100
AcDbArc
 50
267.289024116
 51
270.917489062
  0
SPLINE
  5
D1
330
1F
100
AcDbEntity
  8
0
  6
Continuous
 62
     8
370
    18
100
AcDbSpline
210
0.0
220
0.0
230
1.0
 70
     8
 71
     3
 72
    26
 73
    22
 74
     0
 42
0.000000001
 43
0.00000001
 40
0.0
 40
0.0
 40
0.0
 40
0.0
 40
0.1249999999999999
 40
0.1249999999999999
 40
0.2499999999999998
 40
0.2499999999999998
 40
0.3124999999999996
 40
0.3124999999999996
 40
0.3749999999999994
 40
0.3749999999999994
 40
0.4999999999999993
 40
0.4999999999999993
 40
0.6249999999999992
 40
0.6249999999999992
 40
0.7499999999999992
 40
0.7499999999999992
 40
0.8124999999999993
 40
0.8124999999999993
 40
0.8749999999999996
 40
0.8749999999999996
 40
1.0
 40
1.0
 40
1.0
 40
1.0
 10
309.7084781790808
 20
296.0842072711631
 30
0.0
 10
309.7090237763084
 20
295.3093908911362
 30
0.0
 10
309.7095107577024
 20
294.5421014217343
 30
0.0
 10
309.7103648847013
 20
293.0269702454867
 30
0.0
 10
309.7107221128306
 20
292.2969144592697
 30
0.0
 10
309.7111572897732
 20
291.2414852943715
 30
0.0
 10
309.7112854522471
 20
290.8963315212678
 30
0.0
 10
309.7115072471451
 20
290.2196262211218
 30
0.0
 10
309.7116009983577
 20
289.8869584179972
 30
0.0
 10
309.7118240807681
 20
288.9301564636672
 30
0.0
 10
309.7118982912747
 20
288.3404929677585
 30
0.0
 10
309.7118996077345
 20
287.2563343623758
 30
0.0
 10
309.7118243060239
 20
286.7591595579523
 30
0.0
 10
309.7115290418546
 20
285.9021783493939
 30
0.0
 10
309.7113102239101
 20
285.536842053827
 30
0.0
 10
309.7108737454605
 20
285.0848755107439
 30
0.0
 10
309.7107094310687
 20
284.9500699407004
 30
0.0
 10
309.710348412319
 20
284.7173599142075
 30
0.0
 10
309.7101513988903
 20
284.6189213261734
 30
0.0
 10
309.7095105273676
 20
284.3777011461542
 30
0.0
 10
309.7090237767409
 20
284.2910398449707
 30
0.0
 10
309.7084781790808
 20
284.2786860596898
 30
0.0
  0
ARC
  5
D2
330
1F
100
AcDbEntity
  8
0
  6
Continuous
 62
     8
370
    18
100
AcDbCircle
 10
309.6997198303
 20
284.7785781691
 30
0.0
 40
0.499968227953244
100
AcDbArc
 50
180.003671744
 51
271.0038545663
  0
SPLINE
  5
D3
330
1F
100
AcDbEntity
  8
0
  6
Continuous
 62
     8
370
    18
100
AcDbSpline
210
0.0
220
0.0
230
1.0
 70
     8
 71
     3
 72
    26
 73
    22
 74
     0
 42
0.000000001
 43
0.00000001
 40
0.0
 40
0.0
 40
0.0
 40
0.0
 40
0.1249999999999996
 40
0.1249999999999996
 40
0.1874999999999997
 40
0.1874999999999997
 40
0.2499999999999998
 40
0.2499999999999998
 40
0.3749999999999998
 40
0.3749999999999998
 40
0.4999999999999999
 40
0.4999999999999999
 40
0.6249999999999999
 40
0.6249999999999999
 40
0.6875000000000001
 40
0.6875000000000001
 40
0.7500000000000003
 40
0.7500000000000003
 40
0.8750000000000002
 40
0.8750000000000002
 40
1.0
 40
1.0
 40
1.0
 40
1.0
 10
358.2365560691696
 20
285.112750108341
 30
0.0
 10
358.2368097983916
 20
285.1244854172209
 30
0.0
 10
358.2382237224124
 20
285.2107733140349
 30
0.0
 10
358.2411456445453
 20
285.4474386220769
 30
0.0
 10
358.2422535150478
 20
285.5443271830192
 30
0.0
 10
358.2445823820269
 20
285.7748570129077
 30
0.0
 10
358.2458082140627
 20
285.9092797489491
 30
0.0
 10
358.2493504884395
 20
286.3602231471163
 30
0.0
 10
358.2515369450907
 20
286.7252729925493
 30
0.0
 10
358.2546214339816
 20
287.5823592415986
 30
0.0
 10
358.2555039232054
 20
288.0799842248258
 30
0.0
 10
358.2555098511825
 20
289.1657108564194
 30
0.0
 10
358.2546598042959
 20
289.7564477267626
 30
0.0
 10
358.2523542096436
 20
290.7153074980115
 30
0.0
 10
358.2514124225247
 20
291.048727227604
 30
0.0
 10
358.2493321474764
 20
291.7269776164684
 30
0.0
 10
358.2481922071588
 20
292.0729538729043
 30
0.0
 10
358.2446763877156
 20
293.1310019884656
 30
0.0
 10
358.2421965314812
 20
293.8630030576313
 30
0.0
 10
358.2382320472067
 20
295.38249149653
 30
0.0
 10
358.2368105861661
 20
296.1515431637475
 30
0.0
 10
358.2365569455806
 20
296.9283970673974
 30
0.0
  0
LWPOLYLINE
  5
D4
330
1F
100
AcDbEntity
  8
0
  6
Continuous
 62
     8
370
    18
100
AcDbPolyline
 90
        3
 70
   128
 43
0.0
 10
358.23655619
 20
285.1127493723
 10
334.0092812007
 20
284.6962656423
 10
309.7084791091
 20
284.2786866768
  0
LWPOLYLINE
  5
D5
330
1F
100
AcDbEntity
  8
0
  6
Continuous
 62
     8
370
    18
100
AcDbPolyline
 90
        3
 70
   128
 43
0.0
 10
309.7084791091
 20
296.0842080011
 10
334.0092812007
 20
296.5068542927
 10
358.23655619
 20
296.928396967
  0
ARC
  5
D6
330
1F
100
AcDbEntity
  8
0
  6
Continuous
 62
     8
370
    18
100
AcDbCircle
 10
309.6997198303
 20
339.2630938013
 30
0.0
 40
0.499968227953244
100
AcDbArc
 50
88.9961454337
 51
179.996328256
  0
SPLINE
  5
D7
330
1F
100
AcDbEntity
  8
0
  6
Continuous
 62
     8
370
    18
100
AcDbSpline
210
0.0
220
0.0
230
1.0
 70
     8
 71
     3
 72
    26
 73
    22
 74
     0
 42
0.000000001
 43
0.00000001
 40
0.0
 40
0.0
 40
0.0
 40
0.0
 40
0.1250000000000002
 40
0.1250000000000002
 40
0.2500000000000005
 40
0.2500000000000005
 40
0.3125000000000005
 40
0.3125000000000005
 40
0.3750000000000005
 40
0.3750000000000005
 40
0.5000000000000006
 40
0.5000000000000006
 40
0.6250000000000006
 40
0.6250000000000006
 40
0.7500000000000006
 40
0.7500000000000006
 40
0.8125000000000006
 40
0.8125000000000006
 40
0.8750000000000004
 40
0.8750000000000004
 40
1.0
 40
1.0
 40
1.0
 40
1.0
 10
309.7084781790808
 20
339.7629859106506
 30
0.0
 10
309.7090237763084
 20
339.7506321351623
 30
0.0
 10
309.7095107577024
 20
339.6638911358908
 30
0.0
 10
309.7103648847013
 20
339.342388862031
 30
0.0
 10
309.7107221128306
 20
339.1115539900368
 30
0.0
 10
309.7111572897732
 20
338.6642781816707
 30
0.0
 10
309.7112854522471
 20
338.4982296082421
 30
0.0
 10
309.7115072471451
 20
338.1314794961446
 30
0.0
 10
309.7116009983578
 20
337.9298276872391
 30
0.0
 10
309.7118240807681
 20
337.2847802674282
 30
0.0
 10
309.7118982912747
 20
336.7988249384348
 30
0.0
 10
309.7118996077345
 20
335.716506067425
 30
0.0
 10
309.7118243060239
 20
335.1140981537393
 30
0.0
 10
309.7115290418546
 20
333.8444894162281
 30
0.0
 10
309.7113102239101
 20
333.1733581432646
 30
0.0
 10
309.7108737454605
 20
332.1114194035398
 30
0.0
 10
309.7107094310687
 20
331.7469869277124
 30
0.0
 10
309.710348412319
 20
331.0097587107963
 30
0.0
 10
309.7101513988903
 20
330.6359969158021
 30
0.0
 10
309.7095105273676
 20
329.4991689710432
 30
0.0
 10
309.7090237767409
 20
328.7322816933836
 30
0.0
 10
309.7084781790808
 20
327.9574646991773
 30
0.0
  0
ARC
  5
D8
330
1F
100
AcDbEntity
  8
0
  6
Continuous
 62
     8
370
    18
100
AcDbCircle
 10
309.5798111561
 20
319.9230351844
 30
0.0
 40
8.035459000015477
100
AcDbArc
 50
89.082510938
 51
92.710975884
  0
SPLINE
  5
D9
330
1F
100
AcDbEntity
  8
0
  6
Continuous
 62
     8
370
    18
100
AcDbSpline
210
0.0
220
0.0
230
1.0
 70
     8
 71
     3
 72
    26
 73
    22
 74
     0
 42
0.000000001
 43
0.00000001
 40
0.0
 40
0.0
 40
0.0
 40
0.0
 40
0.1250000000000008
 40
0.1250000000000008
 40
0.1875000000000009
 40
0.1875000000000009
 40
0.250000000000001
 40
0.250000000000001
 40
0.375000000000001
 40
0.375000000000001
 40
0.500000000000001
 40
0.500000000000001
 40
0.625000000000001
 40
0.625000000000001
 40
0.6875000000000008
 40
0.6875000000000008
 40
0.7500000000000007
 40
0.7500000000000007
 40
0.8750000000000003
 40
0.8750000000000003
 40
1.0
 40
1.0
 40
1.0
 40
1.0
 10
358.2365648658335
 20
327.1132747651063
 30
0.0
 10
358.2368185388517
 20
327.890128723864
 30
0.0
 10
358.2382329236296
 20
328.6531224754171
 30
0.0
 10
358.2411560546556
 20
329.7776790343109
 30
0.0
 10
358.2422644115584
 20
330.1491851047818
 30
0.0
 10
358.2445943449916
 20
330.8853654877049
 30
0.0
 10
358.2458207593603
 20
331.2515102344976
 30
0.0
 10
358.2493647520553
 20
332.3173560882125
 30
0.0
 10
358.2515523160362
 20
332.9909392781252
 30
0.0
 10
358.2546383099021
 20
334.2652118678975
 30
0.0
 10
358.2555211815817
 20
334.8699073304002
 30
0.0
 10
358.2555268666526
 20
335.9563621889441
 30
0.0
 10
358.2546762100404
 20
336.4441557120261
 30
0.0
 10
358.2523691887104
 20
337.0916022079988
 30
0.0
 10
358.2514268409328
 20
337.2939849208672
 30
0.0
 10
358.2493453761347
 20
337.6619987315371
 30
0.0
 10
358.2482048058307
 20
337.8285996137118
 30
0.0
 10
358.244687115414
 20
338.2772879716895
 30
0.0
 10
358.2422060437335
 20
338.5087441399427
 30
0.0
 10
358.238239762401
 20
338.8307004663026
 30
0.0
 10
358.2368177501564
 20
338.9171864174352
 30
0.0
 10
358.2365639884953
 20
338.9289217258324
 30
0.0
  0
LWPOLYLINE
  5
DA
330
1F
100
AcDbEntity
  8
0
  6
Continuous
 62
     8
370
    18
100
AcDbPolyline
 90
        3
 70
   128
 43
0.0
 10
358.2365655032
 20
327.1132750034
 10
334.0092812007
 20
327.5348176777
 10
309.7084791091
 20
327.9574639692
  0
LWPOLYLINE
  5
DB
330
1F
100
AcDbEntity
  8
0
  6
Continuous
 62
     8
370
    18
100
AcDbPolyline
 90
        3
 70
   128
 43
0.0
 10
309.7084791091
 20
339.7629852935
 10
334.0092812007
 20
339.3454063281
 10
358.2365636406
 20
338.928922598
  0
LINE
  5
DC
330
1F
100
AcDbEntity
  8
0
  6
Continuous
 62
     8
370
    18
100
AcDbLine
 10
309.7084791091
 20
327.9574639692
 30
0.0
 11
309.7084791091
 21
296.0842080011
 31
0.0
  0
SPLINE
  5
DD
330
1F
100
AcDbEntity
  8
0
  6
Continuous
 62
     8
370
    18
100
AcDbSpline
210
0.0
220
0.0
230
1.0
 70
     8
 71
     3
 72
     8
 73
     4
 74
     0
 42
0.000000001
 43
0.00000001
 40
0.0
 40
0.0
 40
0.0
 40
0.0
 40
1.0
 40
1.0
 40
1.0
 40
1.0
 10
358.2365569455806
 20
296.9283970673973
 30
0.0
 10
358.2484439720795
 20
306.9894475111083
 30
0.0
 10
358.2484514348545
 20
317.0522243198176
 30
0.0
 10
358.2365648658335
 20
327.1132747651063
 30
0.0
  0
SPLINE
  5
DE
330
1F
100
AcDbEntity
  8
0
  6
Continuous
 62
     8
370
    18
100
AcDbSpline
210
0.0
220
0.0
230
1.0
 70
     8
 71
     3
 72
    26
 73
    22
 74
     0
 42
0.000000001
 43
0.00000001
 40
0.0
 40
0.0
 40
0.0
 40
0.0
 40
0.1249999999999999
 40
0.1249999999999999
 40
0.2499999999999999
 40
0.2499999999999999
 40
0.3124999999999999
 40
0.3124999999999999
 40
0.3749999999999998
 40
0.3749999999999998
 40
0.4999999999999998
 40
0.4999999999999998
 40
0.6249999999999998
 40
0.6249999999999998
 40
0.7499999999999997
 40
0.7499999999999997
 40
0.8124999999999998
 40
0.8124999999999998
 40
0.8749999999999998
 40
0.8749999999999998
 40
1.0
 40
1.0
 40
1.0
 40
1.0
 10
359.2189195303066
 20
337.9487298894155
 30
0.0
 10
359.2180932477907
 20
337.9371226526865
 30
0.0
 10
359.2185569104878
 20
337.8567447597288
 30
0.0
 10
359.2208443907161
 20
337.5592373663596
 30
0.0
 10
359.2226251729205
 20
337.34581329425
 30
0.0
 10
359.2252897016983
 20
336.932739392477
 30
0.0
 10
359.2261790428916
 20
336.7794474809208
 30
0.0
 10
359.2278257273894
 20
336.441022554465
 30
0.0
 10
359.2285842453861
 20
336.2550097309752
 30
0.0
 10
359.2304542795893
 20
335.6601526939723
 30
0.0
 10
359.2311602822289
 20
335.2122480240984
 30
0.0
 10
359.2311555905788
 20
334.2151609896237
 30
0.0
 10
359.2304232993526
 20
333.6604817036683
 30
0.0
 10
359.2279226308137
 20
332.4916544721581
 30
0.0
 10
359.2261674395024
 20
331.873864039568
 30
0.0
 10
359.2234844748887
 20
330.8962942874947
 30
0.0
 10
359.2225824415784
 20
330.5604653285407
 30
0.0
 10
359.2209604614237
 20
329.8851655651996
 30
0.0
 10
359.2202366822541
 20
329.5443608495697
 30
0.0
 10
359.2185582685555
 20
328.5126652418341
 30
0.0
 10
359.218094014591
 20
327.8125809546099
 30
0.0
 10
359.2189203954793
 20
327.0996553888715
 30
0.0
  0
ARC
  5
DF
330
1F
100
AcDbEntity
  8
0
  6
Continuous
 62
     8
370
    18
100
AcDbCircle
 10
358.492709671
 20
310.1540314442
 30
0.0
 40
16.96117778736794
100
AcDbArc
 50
87.5460691204
 51
90.8653017995
  0
ARC
  5
E0
330
1F
100
AcDbEntity
  8
0
  6
Continuous
 62
     8
370
    18
100
AcDbCircle
 10
358.219148663
 20
337.929111487
 30
0.0
 40
0.9999627688439204
100
AcDbArc
 50
1.124160659
 51
89.0021076845
  0
ARC
  5
E1
330
1F
100
AcDbEntity
  8
0
  6
Continuous
 62
     8
370
    18
100
AcDbCircle
 10
358.4927114764
 20
313.8869378807
 30
0.0
 40
16.96047538992223
100
AcDbArc
 50
269.1346247971
 51
272.4540012711
  0
SPLINE
  5
E2
330
1F
100
AcDbEntity
  8
0
  6
Continuous
 62
     8
370
    18
100
AcDbSpline
210
0.0
220
0.0
230
1.0
 70
     8
 71
     3
 72
    26
 73
    22
 74
     0
 42
0.000000001
 43
0.00000001
 40
0.0
 40
0.0
 40
0.0
 40
0.0
 40
0.1249999999999997
 40
0.1249999999999997
 40
0.2499999999999994
 40
0.2499999999999994
 40
0.3124999999999993
 40
0.3124999999999993
 40
0.3749999999999993
 40
0.3749999999999993
 40
0.4999999999999997
 40
0.4999999999999997
 40
0.625
 40
0.625
 40
0.7500000000000003
 40
0.7500000000000003
 40
0.8125000000000004
 40
0.8125000000000004
 40
0.8750000000000006
 40
0.8750000000000006
 40
1.0
 40
1.0
 40
1.0
 40
1.0
 10
359.2189126270099
 20
296.9420165151363
 30
0.0
 10
359.2180862193479
 20
296.2291011353287
 30
0.0
 10
359.2185493211089
 20
295.5234263862702
 30
0.0
 10
359.2208349808595
 20
294.1294480620537
 30
0.0
 10
359.2226145345231
 20
293.4580042263798
 30
0.0
 10
359.2252771759434
 20
292.4875474499098
 30
0.0
 10
359.2261658821989
 20
292.1702238612047
 30
0.0
 10
359.2278113685105
 20
291.548153115479
 30
0.0
 10
359.2285693224084
 20
291.2423706416084
 30
0.0
 10
359.230437921916
 20
290.3628899463598
 30
0.0
 10
359.2311433124481
 20
289.8209255689064
 30
0.0
 10
359.2311383787487
 20
288.8245086080091
 30
0.0
 10
359.2304064731168
 20
288.3676420481625
 30
0.0
 10
359.2279073224257
 20
287.5801253731909
 30
0.0
 10
359.2261532483681
 20
287.2443942735384
 30
0.0
 10
359.2234720213508
 20
286.8292590147747
 30
0.0
 10
359.2225705775665
 20
286.7054220138164
 30
0.0
 10
359.2209496787094
 20
286.4928731893236
 30
0.0
 10
359.2202263935715
 20
286.4034479706684
 30
0.0
 10
359.2185492106834
 20
286.1847408423779
 30
0.0
 10
359.21808543076
 20
286.1045571208403
 30
0.0
 10
359.2189117627453
 20
286.0929497055242
 30
0.0
  0
ARC
  5
E3
330
1F
100
AcDbEntity
  8
0
  6
Continuous
 62
     8
370
    18
100
AcDbCircle
 10
358.2191396975
 20
286.1125618524
 30
0.0
 40
0.9999641641253947
100
AcDbArc
 50
270.9979777347
 51
358.8761894321
  0
SPLINE
  5
E4
330
1F
100
AcDbEntity
  8
0
  6
Continuous
 62
     8
370
    18
100
AcDbSpline
210
0.0
220
0.0
230
1.0
 70
     8
 71
     3
 72
     8
 73
     4
 74
     0
 42
0.000000001
 43
0.00000001
 40
0.0
 40
0.0
 40
0.0
 40
0.0
 40
1.0
 40
1.0
 40
1.0
 40
1.0
 10
359.2189203954794
 20
327.0996553888714
 30
0.0
 10
359.2305719328854
 20
317.0477785680924
 30
0.0
 10
359.230564708357
 20
306.9938933088062
 30
0.0
 10
359.2189126270099
 20
296.9420165151363
 30
0.0
  0
LINE
  5
E5
330
1F
100
AcDbEntity
  8
0
  6
Continuous
 62
     8
370
    18
100
AcDbLine
 10
359.2189115164
 20
286.0929496183
 30
0.0
 11
359.2192803201
 21
286.0876988217
 31
0.0
  0
SPLINE
  5
E6
330
1F
100
AcDbEntity
  8
0
  6
Continuous
 62
     8
370
    18
100
AcDbSpline
210
0.0
220
0.0
230
1.0
 70
     8
 71
     3
 72
     9
 73
     5
 74
     0
 42
0.000000001
 43
0.00000001
 40
0.0
 40
0.0
 40
0.0
 40
0.0
 40
0.9969965988505178
 40
1.0
 40
1.0
 40
1.0
 40
1.0
 10
359.226548361508
 20
285.9842791750296
 30
0.0
 10
359.2272469546163
 20
285.9749028012286
 30
0.0
 10
359.2279476522006
 20
285.9654981815822
 30
0.0
 10
359.2275330832636
 20
285.9702670738367
 30
0.0
 10
359.2275318381468
 20
285.9702813967331
 30
0.0
  0
LINE
  5
E7
330
1F
100
AcDbEntity
  8
0
  6
Continuous
 62
     8
370
    18
100
AcDbLine
 10
359.2275318381
 20
338.0713905736
 30
0.0
 11
359.2265409109
 21
338.0572661354
 31
0.0
  0
LINE
  5
E8
330
1F
100
AcDbEntity
  8
0
  6
Continuous
 62
     8
370
    18
100
AcDbLine
 10
359.2192505178
 20
337.953457196
 30
0.0
 11
359.218918967
 21
337.9487298026
 31
0.0
  0
LINE
  5
E9
330
1F
100
AcDbEntity
  8
0
  6
Continuous
 62
     8
370
    18
100
AcDbLine
 10
309.7084791091
 20
284.2786866768
 30
0.0
 11
309.7084791091
 21
284.1517436846
 31
0.0
  0
LINE
  5
EA
330
1F
100
AcDbEntity
  8
0
  6
Continuous
 62
     8
370
    18
100
AcDbLine
 10
309.7084791091
 20
339.8899282857
 30
0.0
 11
309.7084791091
 21
339.7629852935
 31
0.0
  0
SPLINE
  5
EB
330
1F
100
AcDbEntity
  8
0
  6
Continuous
 62
     8
370
    18
100
AcDbSpline
210
0.0
220
0.0
230
1.0
 70
     8
 71
     3
 72
     9
 73
     5
 74
     0
 42
0.000000001
 43
0.00000001
 40
0.0
 40
0.0
 40
0.0
 40
0.0
 40
0.0001143868867718
 40
1.0
 40
1.0
 40
1.0
 40
1.0
 10
358.2453944412151
 20
284.998971556054
 30
0.0
 10
358.2453944412344
 20
284.9989672093852
 30
0.0
 10
358.2453946097623
 20
284.9609674972941
 30
0.0
 10
358.2409751471079
 20
285.0368627755341
 30
0.0
 10
358.236556189982
 20
285.1127493723496
 30
0.0
  0
LINE
  5
EC
330
1F
100
AcDbEntity
  8
0
  6
Continuous
 62
     8
370
    18
100
AcDbLine
 10
358.2365636406
 20
338.928922598
 30
0.0
 11
358.2453944412
 21
339.0427004143
 31
0.0
  0
SPLINE
  5
ED
330
1F
100
AcDbEntity
  8
0
  6
Continuous
 62
     7
370
    25
100
AcDbSpline
210
0.0
220
0.0
230
1.0
 70
     8
 71
     3
 72
    34
 73
    30
 74
     0
 42
0.000000001
 43
0.00000001
 40
0.0
 40
0.0
 40
0.0
 40
0.0
 40
0.0724918063046663
 40
0.1439743601110857
 40
0.2084471525661476
 40
0.2659097351183223
 40
0.3163617199505362
 40
0.3598028666902002
 40
0.3962330319135092
 40
0.425652092364231
 40
0.4480600041777565
 40
0.4634567313634148
 40
0.4764403264095547
 40
0.4921295507356745
 40
0.5039573440854815
 40
0.5118110100957295
 40
0.5183489727474473
 40
0.5291768209767032
 40
0.5444521514952956
 40
0.5641749481007314
 40
0.5883452058577365
 40
0.6169628923655751
 40
0.6551145877420079
 40
0.6990750104881006
 40
0.7488440022612707
 40
0.8044213555509176
 40
0.865806744861278
 40
0.9329997608350358
 40
1.0
 40
1.0
 40
1.0
 40
1.0
 10
149.1110256411801
 20
138.2057863731754
 30
0.0
 10
150.3696885170589
 20
138.1710413584744
 30
0.0
 10
152.8694907897271
 20
138.1020350595059
 30
0.0
 10
156.4892288862247
 20
138.0220484606852
 30
0.0
 10
159.8482105947893
 20
137.9596349896831
 30
0.0
 10
162.8421474837988
 20
137.9147171717205
 30
0.0
 10
165.470923784827
 20
137.8833257666656
 30
0.0
 10
167.7344687412255
 20
137.8623796944222
 30
0.0
 10
169.6327338754315
 20
137.8491480862398
 30
0.0
 10
171.1656896307422
 20
137.8413457258707
 30
0.0
 10
172.3333187034619
 20
137.8371299780317
 30
0.0
 10
173.2154779285808
 20
137.8348990021696
 30
0.0
 10
173.9809391258706
 20
137.8335876794312
 30
0.0
 10
174.6844109021139
 20
137.8329526461839
 30
0.0
 10
175.2987790387193
 20
137.8328847872505
 30
0.0
 10
175.7541950371637
 20
137.8330894431316
 30
0.0
 10
176.1922424514348
 20
137.8334685368772
 30
0.0
 10
176.7591995127397
 20
137.83423673249
 30
0.0
 10
177.5551682569248
 20
137.8359117433987
 30
0.0
 10
178.5828837793808
 20
137.8391027060665
 30
0.0
 10
179.8423414080252
 20
137.8445915718197
 30
0.0
 10
181.4218832918358
 20
137.8538589394346
 30
0.0
 10
183.3451386848989
 20
137.8688124050578
 30
0.0
 10
185.6357216234691
 20
137.891994375688
 30
0.0
 10
188.2288836444387
 20
137.9251988480744
 30
0.0
 10
191.1245609034881
 20
137.9709269535832
 30
0.0
 10
194.3226522371063
 20
138.0324142745957
 30
0.0
 10
197.7188893307126
 20
138.1089960114819
 30
0.0
 10
200.0488577213254
 20
138.1735202893538
 30
0.0
 10
201.212168345667
 20
138.2057360817563
 30
0.0
  0
ARC
  5
EE
330
1F
100
AcDbEntity
  8
0
  6
Continuous
 62
     7
370
    25
100
AcDbCircle
 10
147.7924290583
 20
187.7329236229
 30
0.0
 40
0.5000000000000284
100
AcDbArc
 50
90.0
 51
181.0000000005
  0
ARC
  5
EF
330
1F
100
AcDbEntity
  8
0
  6
Continuous
 62
     7
370
    25
100
AcDbCircle
 10
202.5307649286
 20
187.7329236229
 30
0.0
 40
0.5000000000000284
100
AcDbArc
 50
358.9999999995
 51
90.0
  0
LINE
  5
F0
330
1F
100
AcDbEntity
  8
0
  6
Continuous
 62
     7
370
    25
100
AcDbLine
 10
147.2925046929
 20
187.7241964896
 30
0.0
 11
148.1397195258
 21
139.1872792949
 31
0.0
  0
LINE
  5
F1
330
1F
100
AcDbEntity
  8
0
  6
Continuous
 62
     7
370
    25
100
AcDbLine
 10
202.1834744611
 20
139.1872792949
 30
0.0
 11
203.030689294
 21
187.7241964896
 31
0.0
  0
ARC
  5
F2
330
1F
100
AcDbEntity
  8
0
  6
Continuous
 62
     7
370
    25
100
AcDbCircle
 10
201.1836260038
 20
139.2047305611
 30
0.0
 40
1.000000000000011
100
AcDbArc
 50
271.6214804447
 51
358.970578303
  0
ARC
  5
F3
330
1F
100
AcDbEntity
  8
0
  6
Continuous
 62
     7
370
    25
100
AcDbCircle
 10
149.139567983
 20
139.2047305611
 30
0.0
 40
1.000000000000022
100
AcDbArc
 50
181.0165106062
 51
268.3920956469
  0
SPLINE
  5
F4
330
1F
100
AcDbEntity
  8
0
  6
Continuous
 62
     7
370
    25
100
AcDbSpline
210
0.0
220
0.0
230
1.0
 70
    24
 71
     3
 72
    31
 73
    27
 74
     0
 42
0.000000001
 43
0.00000001
 40
0.0
 40
0.0
 40
0.0
 40
0.0
 40
0.019438816231631
 40
0.038780951395914
 40
0.0580436988970539
 40
0.0772445666437045
 40
0.0964012322071323
 40
0.1155314956958365
 40
0.1346532309501931
 40
0.1537843357139383
 40
0.1729426814717988
 40
0.1921460636537713
 40
0.2114121528944373
 40
0.2307584480018782
 40
0.2502022312369451
 40
0.3750890226464657
 40
0.5000111953040521
 40
0.6248979867138734
 40
0.7498201593711455
 40
0.7858402563505172
 40
0.8215778941002277
 40
0.8571455591233674
 40
0.8926573531671724
 40
0.928227915644648
 40
0.9639713205112885
 40
1.0
 40
1.0
 40
1.0
 40
1.0
 10
147.9193074813775
 20
188.2329236228835
 30
0.0
 10
147.9202826228737
 20
188.2329236228835
 30
0.0
 10
147.9222280558937
 20
188.2329236228835
 30
0.0
 10
147.9380692013289
 20
188.2329236228835
 30
0.0
 10
147.9633893194225
 20
188.2329236228835
 30
0.0
 10
147.9991029232137
 20
188.2329236228835
 30
0.0
 10
148.0449665801977
 20
188.2329236228835
 30
0.0
 10
148.1010453206144
 20
188.2329236228835
 30
0.0
 10
148.1673216860464
 20
188.2329236228835
 30
0.0
 10
148.2438002612244
 20
188.2329236228835
 30
0.0
 10
148.330479084628
 20
188.2329236228835
 30
0.0
 10
148.427359744406
 20
188.2329236228835
 30
0.0
 10
148.5344355557278
 20
188.2329236228835
 30
0.0
 10
148.6517289881569
 20
188.2329236228835
 30
0.0
 10
149.0091744679372
 20
188.2329236228835
 30
0.0
 10
149.7619511860321
 20
188.2329236228835
 30
0.0
 10
151.1828062706768
 20
188.2329236228835
 30
0.0
 10
152.9040302797674
 20
188.2329236228835
 30
0.0
 10
154.4096693989949
 20
188.2329236228835
 30
0.0
 10
155.4972732956548
 20
188.2329236228835
 30
0.0
 10
156.1026977961729
 20
188.2329236228835
 30
0.0
 10
156.7151427495475
 20
188.2329236228835
 30
0.0
 10
157.3346507372275
 20
188.2329236228835
 30
0.0
 10
157.9611858871826
 20
188.2329236228835
 30
0.0
 10
158.5947346429289
 20
188.2329236228835
 30
0.0
 10
159.0196365746973
 20
188.2329236228835
 30
0.0
 10
159.2329319757062
 20
188.2329236228835
 30
0.0
  0
SPLINE
  5
F5
330
1F
100
AcDbEntity
  8
0
  6
Continuous
 62
     7
370
    25
100
AcDbSpline
210
0.0
220
0.0
230
1.0
 70
    24
 71
     3
 72
    26
 73
    22
 74
     0
 42
0.000000001
 43
0.00000001
 40
0.0
 40
0.0
 40
0.0
 40
0.0
 40
0.1250000000000007
 40
0.1250000000000007
 40
0.187500000000001
 40
0.187500000000001
 40
0.2500000000000013
 40
0.2500000000000013
 40
0.3750000000000014
 40
0.3750000000000014
 40
0.5000000000000016
 40
0.5000000000000016
 40
0.6250000000000017
 40
0.6250000000000017
 40
0.6875000000000017
 40
0.6875000000000017
 40
0.7500000000000017
 40
0.7500000000000017
 40
0.8750000000000009
 40
0.8750000000000009
 40
1.0
 40
1.0
 40
1.0
 40
1.0
 10
191.0902620111409
 20
188.2329236228835
 30
0.0
 10
191.8339442591648
 20
188.2329236228835
 30
0.0
 10
192.5643199610292
 20
188.2329236228835
 30
0.0
 10
193.6407426406196
 20
188.2329236228835
 30
0.0
 10
193.99633725482
 20
188.2329236228835
 30
0.0
 10
194.7009664388395
 20
188.2329236228835
 30
0.0
 10
195.051431502598
 20
188.2329236228835
 30
0.0
 10
196.0716960722597
 20
188.2329236228835
 30
0.0
 10
196.7164477203384
 20
188.2329236228835
 30
0.0
 10
197.9361321648951
 20
188.2329236228835
 30
0.0
 10
198.5149818050442
 20
188.2329236228835
 30
0.0
 10
199.5551325932698
 20
188.2329236228835
 30
0.0
 10
200.0221261053186
 20
188.2329236228835
 30
0.0
 10
200.642002428567
 20
188.2329236228835
 30
0.0
 10
200.8358106625964
 20
188.2329236228835
 30
0.0
 10
201.188334084157
 20
188.2329236228835
 30
0.0
 10
201.3479349444937
 20
188.2329236228835
 30
0.0
 10
201.7778332565538
 20
188.2329236228835
 30
0.0
 10
201.9996866316381
 20
188.2329236228835
 30
0.0
 10
202.3086722459815
 20
188.2329236228835
 30
0.0
 10
202.3920382658014
 20
188.2329236228835
 30
0.0
 10
202.4038865054696
 20
188.2329236228835
 30
0.0
  0
LINE
  5
F6
330
1F
100
AcDbEntity
  8
0
  6
Continuous
 62
     7
370
    25
100
AcDbLine
 10
159.2329318174
 20
188.2329239954
 30
0.0
 11
191.0902621695
 21
188.2329239954
 31
0.0
  0
LINE
  5
F7
330
1F
100
AcDbEntity
  8
0
  6
Continuous
 62
     7
370
    25
100
AcDbLine
 10
201.1979321488
 20
138.2061402758
 30
0.0
 11
201.0942126163
 21
138.2134306689
 31
0.0
  0
LINE
  5
F8
330
1F
100
AcDbEntity
  8
0
  6
Continuous
 62
     7
370
    25
100
AcDbLine
 10
149.2285753139
 20
138.2133952786
 30
0.0
 11
149.1249898919
 21
138.2061216493
 31
0.0
  0
LINE
  5
F9
330
1F
100
AcDbEntity
  8
0
  6
Continuous
 62
     7
370
    25
100
AcDbLine
 10
147.7924293377
 20
188.2329239954
 30
0.0
 11
147.9193071373
 21
188.2329239954
 31
0.0
  0
LINE
  5
FA
330
1F
100
AcDbEntity
  8
0
  6
Continuous
 62
     7
370
    25
100
AcDbLine
 10
202.4038868495
 20
188.2329239954
 30
0.0
 11
202.5307646491
 21
188.2329239954
 31
0.0
  0
ARC
  5
FB
330
1F
100
AcDbEntity
  8
0
  6
Continuous
 62
     8
370
    18
100
AcDbCircle
 10
167.2593977942
 20
187.8528644427
 30
0.0
 40
8.035459000015448
100
AcDbArc
 50
177.289024116
 51
180.917489062
  0
SPLINE
  5
FC
330
1F
100
AcDbEntity
  8
0
  6
Continuous
 62
     8
370
    18
100
AcDbSpline
210
0.0
220
0.0
230
1.0
 70
     8
 71
     3
 72
    26
 73
    22
 74
     0
 42
0.000000001
 43
0.00000001
 40
0.0
 40
0.0
 40
0.0
 40
0.0
 40
0.1250000000000002
 40
0.1250000000000002
 40
0.2500000000000005
 40
0.2500000000000005
 40
0.3125000000000005
 40
0.3125000000000005
 40
0.3750000000000005
 40
0.3750000000000005
 40
0.5000000000000006
 40
0.5000000000000006
 40
0.6250000000000006
 40
0.6250000000000006
 40
0.7500000000000006
 40
0.7500000000000006
 40
0.8125000000000006
 40
0.8125000000000006
 40
0.8750000000000004
 40
0.8750000000000004
 40
1.0
 40
1.0
 40
1.0
 40
1.0
 10
159.2249682794165
 20
187.7241974196649
 30
0.0
 10
158.4501518993896
 20
187.7236518224372
 30
0.0
 10
157.6828624299877
 20
187.7231648410432
 30
0.0
 10
156.1677312537401
 20
187.7223107140444
 30
0.0
 10
155.437675467523
 20
187.721953485915
 30
0.0
 10
154.3822463026249
 20
187.7215183089725
 30
0.0
 10
154.0370925295211
 20
187.7213901464985
 30
0.0
 10
153.3603872293751
 20
187.7211683516006
 30
0.0
 10
153.0277194262506
 20
187.7210746003879
 30
0.0
 10
152.0709174719206
 20
187.7208515179775
 30
0.0
 10
151.4812539760118
 20
187.7207773074709
 30
0.0
 10
150.3970953706292
 20
187.7207759910111
 30
0.0
 10
149.8999205662056
 20
187.7208512927217
 30
0.0
 10
149.0429393576472
 20
187.721146556891
 30
0.0
 10
148.6776030620803
 20
187.7213653748356
 30
0.0
 10
148.2256365189971
 20
187.7218018532851
 30
0.0
 10
148.0908309489538
 20
187.721966167677
 30
0.0
 10
147.8581209224609
 20
187.7223271864266
 30
0.0
 10
147.7596823344268
 20
187.7225241998553
 30
0.0
 10
147.5184621544076
 20
187.7231650713781
 30
0.0
 10
147.431800853224
 20
187.7236518220047
 30
0.0
 10
147.4194470679431
 20
187.7241974196649
 30
0.0
  0
ARC
  5
FD
330
1F
100
AcDbEntity
  8
0
  6
Continuous
 62
     8
370
    18
100
AcDbCircle
 10
147.9193391773
 20
187.7329557685
 30
0.0
 40
0.4999682279531942
100
AcDbArc
 50
90.003671744
 51
181.0038545663
  0
SPLINE
  5
FE
330
1F
100
AcDbEntity
  8
0
  6
Continuous
 62
     8
370
    18
100
AcDbSpline
210
0.0
220
0.0
230
1.0
 70
     8
 71
     3
 72
    26
 73
    22
 74
     0
 42
0.000000001
 43
0.00000001
 40
0.0
 40
0.0
 40
0.0
 40
0.0
 40
0.1250000000000008
 40
0.1250000000000008
 40
0.1875000000000009
 40
0.1875000000000009
 40
0.250000000000001
 40
0.250000000000001
 40
0.375000000000001
 40
0.375000000000001
 40
0.500000000000001
 40
0.500000000000001
 40
0.625000000000001
 40
0.625000000000001
 40
0.6875000000000008
 40
0.6875000000000008
 40
0.7500000000000007
 40
0.7500000000000007
 40
0.8750000000000003
 40
0.8750000000000003
 40
1.0
 40
1.0
 40
1.0
 40
1.0
 10
148.2535112678465
 20
139.1961107329121
 30
0.0
 10
148.2652465755768
 20
139.195857059894
 30
0.0
 10
148.3515344794807
 20
139.194442675116
 30
0.0
 10
148.5881998093368
 20
139.1915195440901
 30
0.0
 10
148.6850883793422
 20
139.1904111871872
 30
0.0
 10
148.9156182298729
 20
139.1880812537541
 30
0.0
 10
149.0500409769334
 20
139.1868548393853
 30
0.0
 10
149.5009844056958
 20
139.1833108466904
 30
0.0
 10
149.8660342714803
 20
139.1811232827094
 30
0.0
 10
150.7231205507114
 20
139.1780372888436
 30
0.0
 10
151.2207455378752
 20
139.1771544171639
 30
0.0
 10
152.3064721537678
 20
139.177148732093
 30
0.0
 10
152.8972090103892
 20
139.1779993887053
 30
0.0
 10
153.8560687588905
 20
139.1803064100353
 30
0.0
 10
154.1894884783226
 20
139.1812487578129
 30
0.0
 10
154.8677388418932
 20
139.1833302226109
 30
0.0
 10
155.2137150861083
 20
139.1844707929149
 30
0.0
 10
156.2717631682377
 20
139.1879884833317
 30
0.0
 10
157.0037642194531
 20
139.1904695550121
 30
0.0
 10
158.5232526410102
 20
139.1944358363447
 30
0.0
 10
159.292304298552
 20
139.1958578485893
 30
0.0
 10
160.0691581982191
 20
139.1961116102503
 30
0.0
  0
LWPOLYLINE
  5
FF
330
1F
100
AcDbEntity
  8
0
  6
Continuous
 62
     8
370
    18
100
AcDbPolyline
 90
        3
 70
   128
 43
0.0
 10
148.2535103806
 20
139.1961100955
 10
147.8370266505
 20
163.423394398
 10
147.4194476851
 20
187.7241964896
  0
LWPOLYLINE
  5
100
330
1F
100
AcDbEntity
  8
0
  6
Continuous
 62
     8
370
    18
100
AcDbPolyline
 90
        3
 70
   128
 43
0.0
 10
159.2249690094
 20
187.7241964896
 10
159.6476153009
 20
163.423394398
 10
160.0691579752
 20
139.1961119582
  0
SPLINE
  5
101
330
1F
100
AcDbEntity
  8
0
  6
Continuous
 62
     8
370
    18
100
AcDbSpline
210
0.0
220
0.0
230
1.0
 70
     8
 71
     3
 72
    26
 73
    22
 74
     0
 42
0.000000001
 43
0.00000001
 40
0.0
 40
0.0
 40
0.0
 40
0.0
 40
0.125
 40
0.125
 40
0.1875
 40
0.1875
 40
0.2499999999999999
 40
0.2499999999999999
 40
0.3749999999999998
 40
0.3749999999999998
 40
0.4999999999999998
 40
0.4999999999999998
 40
0.6249999999999997
 40
0.6249999999999997
 40
0.6874999999999997
 40
0.6874999999999997
 40
0.7499999999999997
 40
0.7499999999999997
 40
0.8749999999999999
 40
0.8749999999999999
 40
1.0
 40
1.0
 40
1.0
 40
1.0
 10
190.2540359264488
 20
139.196119529576
 30
0.0
 10
191.0308898885923
 20
139.195865800354
 30
0.0
 10
191.7938836474132
 20
139.1944518763332
 30
0.0
 10
192.9184402214122
 20
139.1915299542003
 30
0.0
 10
193.2899462976
 20
139.1904220836979
 30
0.0
 10
194.0261266928279
 20
139.1880932167187
 30
0.0
 10
194.3922714481579
 20
139.186867384683
 30
0.0
 10
195.4581173317076
 20
139.1833251103062
 30
0.0
 10
196.1317005395493
 20
139.1811386536549
 30
0.0
 10
197.4059731522981
 20
139.178054164764
 30
0.0
 10
198.0106686271625
 20
139.1771716755403
 30
0.0
 10
199.0971234936332
 20
139.1771657475631
 30
0.0
 10
199.5849170075018
 20
139.1780157944497
 30
0.0
 10
200.2323634769504
 20
139.180321389102
 30
0.0
 10
200.4347461803882
 20
139.181263176221
 30
0.0
 10
200.8027599725612
 20
139.1833434512693
 30
0.0
 10
200.9693608440523
 20
139.1844833915869
 30
0.0
 10
201.4180491690158
 20
139.18799921103
 30
0.0
 10
201.6495053141223
 20
139.1904790672644
 30
0.0
 10
201.9714616062669
 20
139.194443551539
 30
0.0
 10
202.0579475487459
 20
139.1958650125796
 30
0.0
 10
202.0696828551835
 20
139.196118653165
 30
0.0
  0
LWPOLYLINE
  5
102
330
1F
100
AcDbEntity
  8
0
  6
Continuous
 62
     8
370
    18
100
AcDbPolyline
 90
        3
 70
   128
 43
0.0
 10
190.2540360116
 20
139.1961194088
 10
190.6755786859
 20
163.423394398
 10
191.0982249775
 20
187.7241964896
  0
SPLINE
  5
103
330
1F
100
AcDbEntity
  8
0
  6
Continuous
 62
     8
370
    18
100
AcDbSpline
210
0.0
220
0.0
230
1.0
 70
     8
 71
     3
 72
    26
 73
    22
 74
     0
 42
0.000000001
 43
0.00000001
 40
0.0
 40
0.0
 40
0.0
 40
0.0
 40
0.1249999999999997
 40
0.1249999999999997
 40
0.2499999999999994
 40
0.2499999999999994
 40
0.3124999999999996
 40
0.3124999999999996
 40
0.3749999999999998
 40
0.3749999999999998
 40
0.5
 40
0.5
 40
0.6250000000000001
 40
0.6250000000000001
 40
0.7500000000000002
 40
0.7500000000000002
 40
0.8125000000000003
 40
0.8125000000000003
 40
0.8750000000000004
 40
0.8750000000000004
 40
1.0
 40
1.0
 40
1.0
 40
1.0
 10
202.903746918904
 20
187.7241974196649
 30
0.0
 10
202.8913931434157
 20
187.7236518224372
 30
0.0
 10
202.8046521441442
 20
187.7231648410432
 30
0.0
 10
202.4831498702844
 20
187.7223107140443
 30
0.0
 10
202.2523149982902
 20
187.721953485915
 30
0.0
 10
201.8050391899241
 20
187.7215183089725
 30
0.0
 10
201.6389906164954
 20
187.7213901464985
 30
0.0
 10
201.2722405043979
 20
187.7211683516006
 30
0.0
 10
201.0705886954924
 20
187.7210746003879
 30
0.0
 10
200.4255412756816
 20
187.7208515179775
 30
0.0
 10
199.9395859466881
 20
187.7207773074709
 30
0.0
 10
198.8572670756784
 20
187.7207759910111
 30
0.0
 10
198.2548591619926
 20
187.7208512927217
 30
0.0
 10
196.9852504244814
 20
187.721146556891
 30
0.0
 10
196.314119151518
 20
187.7213653748356
 30
0.0
 10
195.2521804117931
 20
187.7218018532851
 30
0.0
 10
194.8877479359658
 20
187.721966167677
 30
0.0
 10
194.1505197190496
 20
187.7223271864266
 30
0.0
 10
193.7767579240555
 20
187.7225241998553
 30
0.0
 10
192.6399299792965
 20
187.7231650713781
 30
0.0
 10
191.8730427016369
 20
187.7236518220047
 30
0.0
 10
191.0982257074305
 20
187.7241974196649
 30
0.0
  0
LWPOLYLINE
  5
104
330
1F
100
AcDbEntity
  8
0
  6
Continuous
 62
     8
370
    18
100
AcDbPolyline
 90
        3
 70
   128
 43
0.0
 10
202.9037463017
 20
187.7241964896
 10
202.4861673363
 20
163.423394398
 10
202.0696836062
 20
139.1961194088
  0
ARC
  5
105
330
1F
100
AcDbEntity
  8
0
  6
Continuous
 62
     8
370
    18
100
AcDbCircle
 10
202.4038548095
 20
187.7329557685
 30
0.0
 40
0.4999682279531942
100
AcDbArc
 50
358.9961454337
 51
89.996328256
  0
ARC
  5
106
330
1F
100
AcDbEntity
  8
0
  6
Continuous
 62
     8
370
    18
100
AcDbCircle
 10
183.0637961926
 20
187.8528644427
 30
0.0
 40
8.035459000015448
100
AcDbArc
 50
359.082510938
 51
2.710975884
  0
LINE
  5
107
330
1F
100
AcDbEntity
  8
0
  6
Continuous
 62
     8
370
    18
100
AcDbLine
 10
191.0982249775
 20
187.7241964896
 30
0.0
 11
159.2249690094
 21
187.7241964896
 31
0.0
  0
SPLINE
  5
108
330
1F
100
AcDbEntity
  8
0
  6
Continuous
 62
     8
370
    18
100
AcDbSpline
210
0.0
220
0.0
230
1.0
 70
     8
 71
     3
 72
     8
 73
     4
 74
     0
 42
0.000000001
 43
0.00000001
 40
0.0
 40
0.0
 40
0.0
 40
0.0
 40
1.0
 40
1.0
 40
1.0
 40
1.0
 10
160.0691581982191
 20
139.1961116102503
 30
0.0
 10
170.130208654278
 20
139.184226292553
 30
0.0
 10
180.1929854720109
 20
139.1842337537668
 30
0.0
 10
190.2540359264488
 20
139.196119529576
 30
0.0
  0
SPLINE
  5
109
330
1F
100
AcDbEntity
  8
0
  6
Continuous
 62
     8
370
    18
100
AcDbSpline
210
0.0
220
0.0
230
1.0
 70
     8
 71
     3
 72
    26
 73
    22
 74
     0
 42
0.000000001
 43
0.00000001
 40
0.0
 40
0.0
 40
0.0
 40
0.0
 40
0.1249999999999999
 40
0.1249999999999999
 40
0.2499999999999999
 40
0.2499999999999999
 40
0.3124999999999999
 40
0.3124999999999999
 40
0.3749999999999998
 40
0.3749999999999998
 40
0.4999999999999998
 40
0.4999999999999998
 40
0.6249999999999998
 40
0.6249999999999998
 40
0.7499999999999997
 40
0.7499999999999997
 40
0.8124999999999998
 40
0.8124999999999998
 40
0.8749999999999998
 40
0.8749999999999998
 40
1.0
 40
1.0
 40
1.0
 40
1.0
 10
160.0827777081202
 20
138.2137560684391
 30
0.0
 10
159.3698619152858
 20
138.214582350955
 30
0.0
 10
158.6641867664112
 20
138.2141186882577
 30
0.0
 10
157.2702077534774
 20
138.2118312080295
 30
0.0
 10
156.5987636668923
 20
138.2100504258251
 30
0.0
 10
155.6283065846361
 20
138.2073858970473
 30
0.0
 10
155.3109829057143
 20
138.206496555854
 30
0.0
 10
154.6889119906877
 20
138.2048498713563
 30
0.0
 10
154.3831294439366
 20
138.2040913533596
 30
0.0
 10
153.5036485006113
 20
138.2022213191564
 30
0.0
 10
152.9616839119719
 20
138.2015153165167
 30
0.0
 10
151.9652663558242
 20
138.2015200081668
 30
0.0
 10
151.5083994073247
 20
138.202252299393
 30
0.0
 10
150.7208817069182
 20
138.2047529679319
 30
0.0
 10
150.3851499986668
 20
138.2065081592433
 30
0.0
 10
149.9700138416322
 20
138.209191123857
 30
0.0
 10
149.8461765395936
 20
138.2100931571673
 30
0.0
 10
149.6336271638505
 20
138.211715137322
 30
0.0
 10
149.544201695702
 20
138.2124389164915
 30
0.0
 10
149.3254939344453
 20
138.2141173301901
 30
0.0
 10
149.2453099470312
 20
138.2145815841546
 30
0.0
 10
149.2337024919627
 20
138.2137552032663
 30
0.0
  0
ARC
  5
10A
330
1F
100
AcDbEntity
  8
0
  6
Continuous
 62
     8
370
    18
100
AcDbCircle
 10
149.2533253783
 20
139.2135289513
 30
0.0
 40
0.9999667224915882
100
AcDbArc
 50
180.9981106114
 51
268.875621045
  0
ARC
  5
10B
330
1F
100
AcDbEntity
  8
0
  6
Continuous
 62
     8
370
    18
100
AcDbCircle
 10
177.0282492
 20
138.9399656784
 30
0.0
 40
16.96102550223447
100
AcDbArc
 50
179.1346832954
 51
182.4539457847
  0
SPLINE
  5
10C
330
1F
100
AcDbEntity
  8
0
  6
Continuous
 62
     8
370
    18
100
AcDbSpline
210
0.0
220
0.0
230
1.0
 70
     8
 71
     3
 72
    26
 73
    22
 74
     0
 42
0.000000001
 43
0.00000001
 40
0.0
 40
0.0
 40
0.0
 40
0.0
 40
0.1250000000000007
 40
0.1250000000000007
 40
0.2500000000000014
 40
0.2500000000000014
 40
0.3125000000000017
 40
0.3125000000000017
 40
0.3750000000000019
 40
0.3750000000000019
 40
0.5000000000000016
 40
0.5000000000000016
 40
0.6250000000000011
 40
0.6250000000000011
 40
0.7500000000000008
 40
0.7500000000000008
 40
0.8125000000000007
 40
0.8125000000000007
 40
0.8750000000000006
 40
0.8750000000000006
 40
1.0
 40
1.0
 40
1.0
 40
1.0
 10
201.0894838695695
 20
138.2137629717358
 30
0.0
 10
201.0778765541431
 20
138.2145893793977
 30
0.0
 10
200.9974987875289
 20
138.2141262776367
 30
0.0
 10
200.6999919939035
 20
138.2118406178861
 30
0.0
 10
200.4865683755944
 20
138.2100610642225
 30
0.0
 10
200.0734952211643
 20
138.2073984228022
 30
0.0
 10
199.9202035695652
 20
138.2065097165467
 30
0.0
 10
199.5817791539472
 20
138.2048642302351
 30
0.0
 10
199.3957665777084
 20
138.2041062763372
 30
0.0
 10
198.8009102269828
 20
138.2022376768296
 30
0.0
 10
198.3530059469306
 20
138.2015322862975
 30
0.0
 10
197.3559194636963
 20
138.201537219997
 30
0.0
 10
196.8012403243077
 20
138.2022691256288
 30
0.0
 10
195.6324133832526
 20
138.2047682763199
 30
0.0
 10
195.0146230741854
 20
138.2065223503775
 30
0.0
 10
194.0370535690142
 20
138.2092035773948
 30
0.0
 10
193.7012247128408
 20
138.2101050211791
 30
0.0
 10
193.025925190991
 20
138.2117259200362
 30
0.0
 10
192.6851206073973
 20
138.2124492051741
 30
0.0
 10
191.6534254365797
 20
138.2141263880622
 30
0.0
 10
190.9533414952724
 20
138.2145901679857
 30
0.0
 10
190.2404163451175
 20
138.2137638360004
 30
0.0
  0
ARC
  5
10D
330
1F
100
AcDbEntity
  8
0
  6
Continuous
 62
     8
370
    18
100
AcDbCircle
 10
173.2950971203
 20
138.939971017
 30
0.0
 40
16.96087321802917
100
AcDbArc
 50
357.5460393101
 51
0.8653316099
  0
ARC
  5
10E
330
1F
100
AcDbEntity
  8
0
  6
Continuous
 62
     8
370
    18
100
AcDbCircle
 10
201.0698672736
 20
139.2135378496
 30
0.0
 40
0.9999680500190609
100
AcDbArc
 50
271.124026984
 51
359.0019144874
  0
SPLINE
  5
10F
330
1F
100
AcDbEntity
  8
0
  6
Continuous
 62
     8
370
    18
100
AcDbSpline
210
0.0
220
0.0
230
1.0
 70
     8
 71
     3
 72
     8
 73
     4
 74
     0
 42
0.000000001
 43
0.00000001
 40
0.0
 40
0.0
 40
0.0
 40
0.0
 40
1.0
 40
1.0
 40
1.0
 40
1.0
 10
190.2404163451176
 20
138.2137638360004
 30
0.0
 10
180.1885396230669
 20
138.2021129814245
 30
0.0
 10
170.1346544577351
 20
138.2021057584119
 30
0.0
 10
160.0827777081202
 20
138.2137560684391
 30
0.0
  0
SPLINE
  5
110
330
1F
100
AcDbEntity
  8
0
  6
Continuous
 62
     8
370
    18
100
AcDbSpline
210
0.0
220
0.0
230
1.0
 70
     8
 71
     3
 72
     9
 73
     5
 74
     0
 42
0.000000001
 43
0.00000001
 40
0.0
 40
0.0
 40
0.0
 40
0.0
 40
0.0007311715912012
 40
1.0
 40
1.0
 40
1.0
 40
1.0
 10
201.2121851094733
 20
138.2051400353086
 30
0.0
 10
201.2121882162886
 20
138.2051394141105
 30
0.0
 10
201.2164373081202
 20
138.2042898213981
 30
0.0
 10
201.207181344607
 20
138.2052153869495
 30
0.0
 10
201.1979321487914
 20
138.2061402757537
 30
0.0
  0
LINE
  5
111
330
1F
100
AcDbEntity
  8
0
  6
Continuous
 62
     8
370
    18
100
AcDbLine
 10
201.0942126163
 20
138.2134306689
 30
0.0
 11
201.0894833603
 21
138.2137622197
 31
0.0
  0
LINE
  5
112
330
1F
100
AcDbEntity
  8
0
  6
Continuous
 62
     8
370
    18
100
AcDbLine
 10
149.233703176
 20
138.2137547691
 30
0.0
 11
149.2285753139
 21
138.2133952786
 31
0.0
  0
LINE
  5
113
330
1F
100
AcDbEntity
  8
0
  6
Continuous
 62
     8
370
    18
100
AcDbLine
 10
149.1249898919
 20
138.2061216493
 30
0.0
 11
149.1110088774
 21
138.2051400353
 31
0.0
  0
LINE
  5
114
330
1F
100
AcDbEntity
  8
0
  6
Continuous
 62
     8
370
    18
100
AcDbLine
 10
147.4194476851
 20
187.7241964896
 30
0.0
 11
147.2925046929
 21
187.7241964896
 31
0.0
  0
LINE
  5
115
330
1F
100
AcDbEntity
  8
0
  6
Continuous
 62
     8
370
    18
100
AcDbLine
 10
203.030689294
 20
187.7241964896
 30
0.0
 11
202.9037463017
 21
187.7241964896
 31
0.0
  0
SPLINE
  5
116
330
1F
100
AcDbEntity
  8
0
  6
Continuous
 62
     8
370
    18
100
AcDbSpline
210
0.0
220
0.0
230
1.0
 70
     8
 71
     3
 72
     9
 73
     5
 74
     0
 42
0.000000001
 43
0.00000001
 40
0.0
 40
0.0
 40
0.0
 40
0.0
 40
0.000114377930222
 40
1.0
 40
1.0
 40
1.0
 40
1.0
 10
148.1397325643073
 20
139.1872792948854
 30
0.0
 10
148.1397282176386
 20
139.1872786739489
 30
0.0
 10
148.1017255304414
 20
139.181849860159
 30
0.0
 10
148.1776222959796
 20
139.1889803856358
 30
0.0
 10
148.2535103806029
 20
139.1961100955379
 30
0.0
  0
LINE
  5
117
330
1F
100
AcDbEntity
  8
0
  6
Continuous
 62
     8
370
    18
100
AcDbLine
 10
202.0696836062
 20
139.1961194088
 30
0.0
 11
202.1834614225
 21
139.1872792949
 31
0.0
  0
ENDSEC
  0
SECTION
  2
OBJECTS
  0
DICTIONARY
  5
C
330
0
100
AcDbDictionary
281
     1
  3
ACAD_GROUP
350
D
  3
ACAD_LAYOUT
350
1A
  3
ACAD_MLINESTYLE
350
17
  3
ACAD_PLOTSETTINGS
350
19
  3
ACAD_PLOTSTYLENAME
350
E
  3
ACAD_SCALELIST
350
47
  0
DICTIONARY
  5
D
102
{ACAD_REACTORS
330
C
102
}
330
C
100
AcDbDictionary
281
     1
  0
DICTIONARY
  5
1A
102
{ACAD_REACTORS
330
C
102
}
330
C
100
AcDbDictionary
281
     1
  3
Layout1
350
1E
  3
Layout2
350
26
  3
Model
350
22
  0
DICTIONARY
  5
17
102
{ACAD_REACTORS
330
C
102
}
330
C
100
AcDbDictionary
281
     1
  3
Standard
350
18
  0
DICTIONARY
  5
19
102
{ACAD_REACTORS
330
C
102
}
330
C
100
AcDbDictionary
281
     1
  0
ACDBDICTIONARYWDFLT
  5
E
102
{ACAD_REACTORS
330
C
102
}
330
C
100
AcDbDictionary
281
     1
  3
Normal
350
F
100
AcDbDictionaryWithDefault
340
F
  0
DICTIONARY
  5
47
102
{ACAD_REACTORS
330
C
102
}
330
C
100
AcDbDictionary
281
     1
  3
A0
350
48
  3
A1
350
49
  3
A2
350
4A
  3
A3
350
4B
  3
A4
350
4C
  3
A5
350
4D
  3
A6
350
4E
  3
A7
350
4F
  3
A8
350
50
  3
A9
350
51
  3
B0
350
52
  3
B1
350
53
  3
B2
350
54
  3
B3
350
55
  3
B4
350
56
  3
B5
350
57
  3
B6
350
58
  3
B7
350
59
  3
B8
350
5A
  3
B9
350
5B
  3
C0
350
5C
  3
C1
350
5D
  3
C2
350
5E
  3
C3
350
5F
  3
C4
350
60
  3
C5
350
61
  3
C6
350
62
  3
C7
350
63
  3
C8
350
64
  3
C9
350
65
  3
D0
350
66
  3
D1
350
67
  3
D2
350
68
  0
LAYOUT
  5
1E
102
{ACAD_REACTORS
330
1A
102
}
330
1A
100
AcDbPlotSettings
  1

  2
none_device
  4

  6

 40
0.0
 41
0.0
 42
0.0
 43
0.0
 44
0.0
 45
0.0
 46
0.0
 47
0.0
 48
0.0
 49
0.0
140
0.0
141
0.0
142
1.0
143
1.0
 70
   688
 72
     1
 73
     0
 74
     5
  7

 75
    16
147
1.0
148
0.0
149
0.0
100
AcDbLayout
  1
Layout1
 70
     1
 71
     1
 10
0.0
 20
0.0
 11
420.0
 21
297.0
 12
0.0
 22
0.0
 32
0.0
 14
1.0000000000E+20
 24
1.0000000000E+20
 34
1.0000000000E+20
 15
-1.0000000000E+20
 25
-1.0000000000E+20
 35
-1.0000000000E+20
146
0.0
 13
0.0
 23
0.0
 33
0.0
 16
1.0
 26
0.0
 36
0.0
 17
0.0
 27
1.0
 37
0.0
 76
     0
330
1B
  0
LAYOUT
  5
26
102
{ACAD_REACTORS
330
1A
102
}
330
1A
100
AcDbPlotSettings
  1

  2
none_device
  4

  6

 40
0.0
 41
0.0
 42
0.0
 43
0.0
 44
0.0
 45
0.0
 46
0.0
 47
0.0
 48
0.0
 49
0.0
140
0.0
141
0.0
142
1.0
143
1.0
 70
   688
 72
     1
 73
     0
 74
     5
  7

 75
    16
147
1.0
148
0.0
149
0.0
100
AcDbLayout
  1
Layout2
 70
     1
 71
     2
 10
0.0
 20
0.0
 11
0.0
 21
0.0
 12
0.0
 22
0.0
 32
0.0
 14
0.0
 24
0.0
 34
0.0
 15
0.0
 25
0.0
 35
0.0
146
0.0
 13
0.0
 23
0.0
 33
0.0
 16
1.0
 26
0.0
 36
0.0
 17
0.0
 27
1.0
 37
0.0
 76
     0
330
23
  0
LAYOUT
  5
22
102
{ACAD_REACTORS
330
1A
102
}
330
1A
100
AcDbPlotSettings
  1

  2
none_device
  4
Letter_(8.50_x_11.00_Inches)
  6

 40
6.35
 41
6.35
 42
6.35000508
 43
6.35000508
 44
215.9
 45
279.4
 46
0.0
 47
0.0
 48
0.0
 49
0.0
140
0.0
141
0.0
142
1.0
143
1.0
 70
  1712
 72
     1
 73
     0
 74
     0
  7

 75
     0
147
1.0
148
0.0
149
0.0
100
AcDbLayout
  1
Model
 70
     1
 71
     0
 10
0.0
 20
0.0
 11
594.0
 21
841.0
 12
0.0
 22
0.0
 32
0.0
 14
0.0
 24
0.0
 34
0.0
 15
594.0
 25
841.0
 35
0.0
146
0.0
 13
0.0
 23
0.0
 33
0.0
 16
1.0
 26
0.0
 36
0.0
 17
0.0
 27
1.0
 37
0.0
 76
     0
330
1F
331
29
  0
MLINESTYLE
  5
18
102
{ACAD_REACTORS
330
17
102
}
330
17
100
AcDbMlineStyle
  2
Standard
 70
     0
  3

 62
   256
 51
90.0
 52
90.0
 71
     2
 49
0.5
 62
   256
  6
BYLAYER
 49
-0.5
 62
   256
  6
BYLAYER
  0
ACDBPLACEHOLDER
  5
F
102
{ACAD_REACTORS
330
E
102
}
330
E
  0
SCALE
  5
48
102
{ACAD_REACTORS
330
47
102
}
330
47
100
AcDbScale
 70
     0
300
1:1
140
1.0
141
1.0
290
     1
  0
SCALE
  5
49
102
{ACAD_REACTORS
330
47
102
}
330
47
100
AcDbScale
 70
     0
300
1:2
140
1.0
141
2.0
290
     0
  0
SCALE
  5
4A
102
{ACAD_REACTORS
330
47
102
}
330
47
100
AcDbScale
 70
     0
300
1:4
140
1.0
141
4.0
290
     0
  0
SCALE
  5
4B
102
{ACAD_REACTORS
330
47
102
}
330
47
100
AcDbScale
 70
     0
300
1:5
140
1.0
141
5.0
290
     0
  0
SCALE
  5
4C
102
{ACAD_REACTORS
330
47
102
}
330
47
100
AcDbScale
 70
     0
300
1:8
140
1.0
141
8.0
290
     0
  0
SCALE
  5
4D
102
{ACAD_REACTORS
330
47
102
}
330
47
100
AcDbScale
 70
     0
300
1:10
140
1.0
141
10.0
290
     0
  0
SCALE
  5
4E
102
{ACAD_REACTORS
330
47
102
}
330
47
100
AcDbScale
 70
     0
300
1:16
140
1.0
141
16.0
290
     0
  0
SCALE
  5
4F
102
{ACAD_REACTORS
330
47
102
}
330
47
100
AcDbScale
 70
     0
300
1:20
140
1.0
141
20.0
290
     0
  0
SCALE
  5
50
102
{ACAD_REACTORS
330
47
102
}
330
47
100
AcDbScale
 70
     0
300
1:30
140
1.0
141
30.0
290
     0
  0
SCALE
  5
51
102
{ACAD_REACTORS
330
47
102
}
330
47
100
AcDbScale
 70
     0
300
1:40
140
1.0
141
40.0
290
     0
  0
SCALE
  5
52
102
{ACAD_REACTORS
330
47
102
}
330
47
100
AcDbScale
 70
     0
300
1:50
140
1.0
141
50.0
290
     0
  0
SCALE
  5
53
102
{ACAD_REACTORS
330
47
102
}
330
47
100
AcDbScale
 70
     0
300
1:100
140
1.0
141
100.0
290
     0
  0
SCALE
  5
54
102
{ACAD_REACTORS
330
47
102
}
330
47
100
AcDbScale
 70
     0
300
2:1
140
2.0
141
1.0
290
     0
  0
SCALE
  5
55
102
{ACAD_REACTORS
330
47
102
}
330
47
100
AcDbScale
 70
     0
300
4:1
140
4.0
141
1.0
290
     0
  0
SCALE
  5
56
102
{ACAD_REACTORS
330
47
102
}
330
47
100
AcDbScale
 70
     0
300
8:1
140
8.0
141
1.0
290
     0
  0
SCALE
  5
57
102
{ACAD_REACTORS
330
47
102
}
330
47
100
AcDbScale
 70
     0
300
10:1
140
10.0
141
1.0
290
     0
  0
SCALE
  5
58
102
{ACAD_REACTORS
330
47
102
}
330
47
100
AcDbScale
 70
     0
300
100:1
140
100.0
141
1.0
290
     0
  0
SCALE
  5
59
102
{ACAD_REACTORS
330
47
102
}
330
47
100
AcDbScale
 70
     0
300
1/128" = 1'-0"
140
0.0078125
141
12.0
290
     0
  0
SCALE
  5
5A
102
{ACAD_REACTORS
330
47
102
}
330
47
100
AcDbScale
 70
     0
300
1/64" = 1'-0"
140
0.015625
141
12.0
290
     0
  0
SCALE
  5
5B
102
{ACAD_REACTORS
330
47
102
}
330
47
100
AcDbScale
 70
     0
300
1/32" = 1'-0"
140
0.03125
141
12.0
290
     0
  0
SCALE
  5
5C
102
{ACAD_REACTORS
330
47
102
}
330
47
100
AcDbScale
 70
     0
300
1/16" = 1'-0"
140
0.0625
141
12.0
290
     0
  0
SCALE
  5
5D
102
{ACAD_REACTORS
330
47
102
}
330
47
100
AcDbScale
 70
     0
300
3/32" = 1'-0"
140
0.09375
141
12.0
290
     0
  0
SCALE
  5
5E
102
{ACAD_REACTORS
330
47
102
}
330
47
100
AcDbScale
 70
     0
300
1/8" = 1'-0"
140
0.125
141
12.0
290
     0
  0
SCALE
  5
5F
102
{ACAD_REACTORS
330
47
102
}
330
47
100
AcDbScale
 70
     0
300
3/16" = 1'-0"
140
0.1875
141
12.0
290
     0
  0
SCALE
  5
60
102
{ACAD_REACTORS
330
47
102
}
330
47
100
AcDbScale
 70
     0
300
1/4" = 1'-0"
140
0.25
141
12.0
290
     0
  0
SCALE
  5
61
102
{ACAD_REACTORS
330
47
102
}
330
47
100
AcDbScale
 70
     0
300
3/8" = 1'-0"
140
0.375
141
12.0
290
     0
  0
SCALE
  5
62
102
{ACAD_REACTORS
330
47
102
}
330
47
100
AcDbScale
 70
     0
300
1/2" = 1'-0"
140
0.5
141
12.0
290
     0
  0
SCALE
  5
63
102
{ACAD_REACTORS
330
47
102
}
330
47
100
AcDbScale
 70
     0
300
3/4" = 1'-0"
140
0.75
141
12.0
290
     0
  0
SCALE
  5
64
102
{ACAD_REACTORS
330
47
102
}
330
47
100
AcDbScale
 70
     0
300
1" = 1'-0"
140
1.0
141
12.0
290
     0
  0
SCALE
  5
65
102
{ACAD_REACTORS
330
47
102
}
330
47
100
AcDbScale
 70
     0
300
1-1/2" = 1'-0"
140
1.5
141
12.0
290
     0
  0
SCALE
  5
66
102
{ACAD_REACTORS
330
47
102
}
330
47
100
AcDbScale
 70
     0
300
3" = 1'-0"
140
3.0
141
12.0
290
     0
  0
SCALE
  5
67
102
{ACAD_REACTORS
330
47
102
}
330
47
100
AcDbScale
 70
     0
300
6" = 1'-0"
140
6.0
141
12.0
290
     0
  0
SCALE
  5
68
102
{ACAD_REACTORS
330
47
102
}
330
47
100
AcDbScale
 70
     0
300
1'-0" = 1'-0"
140
12.0
141
12.0
290
     0
  0
ENDSEC
  0
EOF
