  0
SECTION
  2
HEADER
  9
$ACADVER
  1
AC1015
  9
$ACADMAINTVER
 70
     6
  9
$DWGCODEPAGE
  3
ANSI_1252
  9
$INSBASE
 10
0.0
 20
0.0
 30
0.0
  9
$EXTMIN
 10
0.0
 20
0.0
 30
0.0
  9
$EXTMAX
 10
841.0
 20
594.0
 30
0.0
  9
$LIMMIN
 10
0.0
 20
0.0
  9
$LIMMAX
 10
841.0
 20
594.0
  9
$ORTHOMODE
 70
     0
  9
$REGENMODE
 70
     1
  9
$FILLMODE
 70
     1
  9
$QTEXTMODE
 70
     0
  9
$MIRRTEXT
 70
     1
  9
$LTSCALE
 40
1.0
  9
$ATTMODE
 70
     1
  9
$TEXTSIZE
 40
10.0
  9
$TRACEWID
 40
1.0
  9
$TEXTSTYLE
  7
Standard
  9
$CLAYER
  8
0
  9
$CELTYPE
  6
ByLayer
  9
$CECOLOR
 62
   256
  9
$CELTSCALE
 40
1.0
  9
$DISPSILH
 70
     0
  9
$DIMSCALE
 40
1.0
  9
$DIMASZ
 40
2.5
  9
$DIMEXO
 40
0.0
  9
$DIMDLI
 40
3.75
  9
$DIMRND
 40
0.0
  9
$DIMDLE
 40
0.0
  9
$DIMEXE
 40
1.0
  9
$DIMTP
 40
0.0
  9
$DIMTM
 40
0.0
  9
$DIMTXT
 40
3.5
  9
$DIMCEN
 40
2.5
  9
$DIMTSZ
 40
0.0
  9
$DIMTOL
 70
     0
  9
$DIMLIM
 70
     0
  9
$DIMTIH
 70
     1
  9
$DIMTOH
 70
     1
  9
$DIMSE1
 70
     0
  9
$DIMSE2
 70
     0
  9
$DIMTAD
 70
     1
  9
$DIMZIN
 70
     0
  9
$DIMBLK
  1

  9
$DIMASO
 70
     1
  9
$DIMSHO
 70
     1
  9
$DIMPOST
  1

  9
$DIMAPOST
  1

  9
$DIMALT
 70
     0
  9
$DIMALTD
 70
     3
  9
$DIMALTF
 40
0.0393700787
  9
$DIMLFAC
 40
1.0
  9
$DIMTOFL
 70
     1
  9
$DIMTVP
 40
0.0
  9
$DIMTIX
 70
     0
  9
$DIMSOXD
 70
     0
  9
$DIMSAH
 70
     0
  9
$DIMBLK1
  1

  9
$DIMBLK2
  1

  9
$DIMSTYLE
  2
ISO-25
  9
$DIMCLRD
 70
     0
  9
$DIMCLRE
 70
     0
  9
$DIMCLRT
 70
     0
  9
$DIMTFAC
 40
1.0
  9
$DIMGAP
 40
1.5
  9
$DIMJUST
 70
     0
  9
$DIMSD1
 70
     0
  9
$DIMSD2
 70
     0
  9
$DIMTOLJ
 70
     0
  9
$DIMTZIN
 70
     0
  9
$DIMALTZ
 70
     0
  9
$DIMALTTZ
 70
     0
  9
$DIMUPT
 70
     0
  9
$DIMDEC
 70
     2
  9
$DIMTDEC
 70
     2
  9
$DIMALTU
 70
     2
  9
$DIMALTTD
 70
     3
  9
$DIMTXSTY
  7
Standard
  9
$DIMAUNIT
 70
     0
  9
$DIMADEC
 70
     2
  9
$DIMALTRND
 40
0.0
  9
$DIMAZIN
 70
     0
  9
$DIMDSEP
 70
    44
  9
$DIMATFIT
 70
     3
  9
$DIMFRAC
 70
     0
  9
$DIMLDRBLK
  1

  9
$DIMLUNIT
 70
     2
  9
$DIMLWD
 70
    -2
  9
$DIMLWE
 70
    -2
  9
$DIMTMOVE
 70
     0
  9
$LUNITS
 70
     2
  9
$LUPREC
 70
     2
  9
$SKETCHINC
 40
1.0
  9
$FILLETRAD
 40
10.0
  9
$AUNITS
 70
     0
  9
$AUPREC
 70
     2
  9
$MENU
  1
.
  9
$ELEVATION
 40
0.0
  9
$PELEVATION
 40
0.0
  9
$THICKNESS
 40
0.0
  9
$LIMCHECK
 70
     0
  9
$CHAMFERA
 40
0.0
  9
$CHAMFERB
 40
0.0
  9
$CHAMFERC
 40
0.0
  9
$CHAMFERD
 40
0.0
  9
$SKPOLY
 70
     0
  9
$TDCREATE
 40
2458786.466498148
  9
$TDUCREATE
 40
2458786.424831482
  9
$TDUPDATE
 40
2458786.466498507
  9
$TDUUPDATE
 40
2458786.42483184
  9
$TDINDWG
 40
0.0000000116
  9
$TDUSRTIMER
 40
0.0000000116
  9
$USRTIMER
 70
     1
  9
$ANGBASE
 50
0.0
  9
$ANGDIR
 70
     0
  9
$PDMODE
 70
     0
  9
$PDSIZE
 40
-1.0
  9
$PLINEWID
 40
0.0
  9
$SPLFRAME
 70
     0
  9
$SPLINETYPE
 70
     6
  9
$SPLINESEGS
 70
     8
  9
$HANDSEED
  5
13F
  9
$SURFTAB1
 70
     6
  9
$SURFTAB2
 70
     6
  9
$SURFTYPE
 70
     6
  9
$SURFU
 70
     6
  9
$SURFV
 70
     6
  9
$UCSBASE
  2

  9
$UCSNAME
  2

  9
$UCSORG
 10
0.0
 20
0.0
 30
0.0
  9
$UCSXDIR
 10
1.0
 20
0.0
 30
0.0
  9
$UCSYDIR
 10
0.0
 20
1.0
 30
0.0
  9
$UCSORTHOREF
  2

  9
$UCSORTHOVIEW
 70
     0
  9
$UCSORGTOP
 10
0.0
 20
0.0
 30
0.0
  9
$UCSORGBOTTOM
 10
0.0
 20
0.0
 30
0.0
  9
$UCSORGLEFT
 10
0.0
 20
0.0
 30
0.0
  9
$UCSORGRIGHT
 10
0.0
 20
0.0
 30
0.0
  9
$UCSORGFRONT
 10
0.0
 20
0.0
 30
0.0
  9
$UCSORGBACK
 10
0.0
 20
0.0
 30
0.0
  9
$PUCSBASE
  2

  9
$PUCSNAME
  2

  9
$PUCSORG
 10
0.0
 20
0.0
 30
0.0
  9
$PUCSXDIR
 10
1.0
 20
0.0
 30
0.0
  9
$PUCSYDIR
 10
0.0
 20
1.0
 30
0.0
  9
$PUCSORTHOREF
  2

  9
$PUCSORTHOVIEW
 70
     0
  9
$PUCSORGTOP
 10
0.0
 20
0.0
 30
0.0
  9
$PUCSORGBOTTOM
 10
0.0
 20
0.0
 30
0.0
  9
$PUCSORGLEFT
 10
0.0
 20
0.0
 30
0.0
  9
$PUCSORGRIGHT
 10
0.0
 20
0.0
 30
0.0
  9
$PUCSORGFRONT
 10
0.0
 20
0.0
 30
0.0
  9
$PUCSORGBACK
 10
0.0
 20
0.0
 30
0.0
  9
$USERI1
 70
     0
  9
$USERI2
 70
     0
  9
$USERI3
 70
     0
  9
$USERI4
 70
     0
  9
$USERI5
 70
     0
  9
$USERR1
 40
0.0
  9
$USERR2
 40
0.0
  9
$USERR3
 40
0.0
  9
$USERR4
 40
0.0
  9
$USERR5
 40
0.0
  9
$WORLDVIEW
 70
     1
  9
$SHADEDGE
 70
     3
  9
$SHADEDIF
 70
    70
  9
$TILEMODE
 70
     1
  9
$MAXACTVP
 70
    64
  9
$PINSBASE
 10
0.0
 20
0.0
 30
0.0
  9
$PLIMCHECK
 70
     0
  9
$PEXTMIN
 10
1.0000000000E+20
 20
1.0000000000E+20
 30
1.0000000000E+20
  9
$PEXTMAX
 10
-1.0000000000E+20
 20
-1.0000000000E+20
 30
-1.0000000000E+20
  9
$PLIMMIN
 10
0.0
 20
0.0
  9
$PLIMMAX
 10
420.0
 20
297.0
  9
$UNITMODE
 70
     0
  9
$VISRETAIN
 70
     1
  9
$PLINEGEN
 70
     0
  9
$PSLTSCALE
 70
     1
  9
$TREEDEPTH
 70
  3020
  9
$CMLSTYLE
  2
Standard
  9
$CMLJUST
 70
     0
  9
$CMLSCALE
 40
20.0
  9
$PROXYGRAPHICS
 70
     1
  9
$MEASUREMENT
 70
     1
  9
$CELWEIGHT
370
    -1
  9
$ENDCAPS
280
     0
  9
$JOINSTYLE
280
     0
  9
$LWDISPLAY
290
     1
  9
$INSUNITS
 70
     4
  9
$HYPERLINKBASE
  1

  9
$STYLESHEET
  1

  9
$XEDIT
290
     1
  9
$CEPSNTYPE
380
     0
  9
$PSTYLEMODE
290
     1
  9
$FINGERPRINTGUID
  2
{f60a1861-8c88-414a-a71c-edb1fc1f669f}
  9
$VERSIONGUID
  2
{FAEB1C32-E019-11D5-929B-00C0DF256EC4}
  9
$EXTNAMES
290
     1
  9
$PSVPSCALE
 40
0.0
  9
$OLESTARTUP
290
     0
  0
ENDSEC
  0
SECTION
  2
CLASSES
  0
CLASS
  1
ACDBDICTIONARYWDFLT
  2
AcDbDictionaryWithDefault
  3
ObjectDBX Classes
 90
        0
280
     0
281
     0
  0
CLASS
  1
VISUALSTYLE
  2
AcDbVisualStyle
  3
ObjectDBX Classes
 90
     4095
280
     0
281
     0
  0
CLASS
  1
MATERIAL
  2
AcDbMaterial
  3
ObjectDBX Classes
 90
     1153
280
     0
281
     0
  0
CLASS
  1
SCALE
  2
AcDbScale
  3
ObjectDBX Classes
 90
     1153
280
     0
281
     0
  0
CLASS
  1
TABLESTYLE
  2
AcDbTableStyle
  3
ObjectDBX Classes
 90
     4095
280
     0
281
     0
  0
CLASS
  1
MLEADERSTYLE
  2
AcDbMLeaderStyle
  3
ACDB_MLEADERSTYLE_CLASS
 90
     4095
280
     0
281
     0
  0
CLASS
  1
SUN
  2
AcDbSun
  3
SCENEOE
 90
     1153
280
     0
281
     0
  0
CLASS
  1
ACDBPLACEHOLDER
  2
AcDbPlaceHolder
  3
ObjectDBX Classes
 90
        0
280
     0
281
     0
  0
CLASS
  1
LAYOUT
  2
AcDbLayout
  3
ObjectDBX Classes
 90
        0
280
     0
281
     0
  0
ENDSEC
  0
SECTION
  2
TABLES
  0
TABLE
  2
VPORT
  5
8
330
0
100
AcDbSymbolTable
 70
     1
  0
VPORT
  5
29
330
8
100
AcDbSymbolTableRecord
100
AcDbViewportTableRecord
  2
*Active
 70
     0
 10
0.0
 20
0.0
 11
1.0
 21
1.0
 12
420.5
 22
297.0
 13
0.0
 23
0.0
 14
10.0
 24
10.0
 15
10.0
 25
10.0
 16
0.0
 26
0.0
 36
1.0
 17
0.0
 27
0.0
 37
0.0
 40
594.0
 41
1.4158249158
 42
50.0
 43
0.0
 44
0.0
 50
0.0
 51
0.0
 71
     0
 72
  2000
 73
     1
 74
     3
 75
     0
 76
     0
 77
     0
 78
     0
281
     0
 65
     1
110
0.0
120
0.0
130
0.0
111
1.0
121
0.0
131
0.0
112
0.0
122
1.0
132
0.0
 79
     0
146
0.0
  0
ENDTAB
  0
TABLE
  2
LTYPE
  5
5
330
0
100
AcDbSymbolTable
 70
     6
  0
LTYPE
  5
14
330
5
100
AcDbSymbolTableRecord
100
AcDbLinetypeTableRecord
  2
ByBlock
 70
     0
  3

 72
    65
 73
     0
 40
0.0
  0
LTYPE
  5
15
330
5
100
AcDbSymbolTableRecord
100
AcDbLinetypeTableRecord
  2
ByLayer
 70
     0
  3

 72
    65
 73
     0
 40
0.0
  0
LTYPE
  5
16
330
5
100
AcDbSymbolTableRecord
100
AcDbLinetypeTableRecord
  2
Continuous
 70
     0
  3
Solid line
 72
    65
 73
     0
 40
0.0
  0
LTYPE
  5
6E
330
5
100
AcDbSymbolTableRecord
100
AcDbLinetypeTableRecord
  2
HIDDEN
 70
     0
  3
Hidden __ __ __ __ __ __ __ __ __ __ __ __ __ __
 72
    65
 73
     2
 40
1.905
 49
1.27
 74
     0
 49
-0.635
 74
     0
  0
LTYPE
  5
6F
330
5
100
AcDbSymbolTableRecord
100
AcDbLinetypeTableRecord
  2
PHANTOM
 70
     0
  3
Phantom ______  __  __  ______  __  __  ______
 72
    65
 73
     6
 40
12.7
 49
6.35
 74
     0
 49
-1.27
 74
     0
 49
1.27
 74
     0
 49
-1.27
 74
     0
 49
1.27
 74
     0
 49
-1.27
 74
     0
  0
LTYPE
  5
70
330
5
100
AcDbSymbolTableRecord
100
AcDbLinetypeTableRecord
  2
CENTER
 70
     0
  3
Center ____ _ ____ _ ____ _ ____ _ ____ _ ____
 72
    65
 73
     4
 40
10.16
 49
6.35
 74
     0
 49
-1.27
 74
     0
 49
1.27
 74
     0
 49
-1.27
 74
     0
  0
LTYPE
  5
71
330
5
100
AcDbSymbolTableRecord
100
AcDbLinetypeTableRecord
  2
CENTERX2
 70
     0
  3
Center (2x) ________  __  ________  __  _____
 72
    65
 73
     4
 40
20.32
 49
12.7
 74
     0
 49
-2.54
 74
     0
 49
2.54
 74
     0
 49
-2.54
 74
     0
  0
LTYPE
  5
72
330
5
100
AcDbSymbolTableRecord
100
AcDbLinetypeTableRecord
  2
DOT2
 70
     0
  3
Dot (.5x) ........................................
 72
    65
 73
     2
 40
0.635
 49
0.0
 74
     0
 49
-0.635
 74
     0
  0
ENDTAB
  0
TABLE
  2
LAYER
  5
2
330
0
100
AcDbSymbolTable
 70
     1
  0
LAYER
  5
10
330
2
100
AcDbSymbolTableRecord
100
AcDbLayerTableRecord
  2
0
 70
     0
 62
     7
  6
Continuous
370
    -3
390
F
  0
ENDTAB
  0
TABLE
  2
STYLE
  5
3
330
0
100
AcDbSymbolTable
 70
     3
  0
STYLE
  5
11
330
3
100
AcDbSymbolTableRecord
100
AcDbTextStyleTableRecord
  2
Standard
 70
     0
 40
0.0
 41
1.0
 50
0.0
 71
     0
 42
10.0
  3
txt
  4

  0
STYLE
  5
76
330
3
100
AcDbSymbolTableRecord
100
AcDbTextStyleTableRecord
  2
SLDTEXTSTYLE0
 70
     0
 40
0.0
 41
0.96
 50
0.0
 71
     0
 42
10.0
  3
ISOCP3
  4

  0
STYLE
  5
8D
330
3
100
AcDbSymbolTableRecord
100
AcDbTextStyleTableRecord
  2
SLDTEXTSTYLE1
 70
     0
 40
0.0
 41
0.605
 50
0.0
 71
     0
 42
10.0
  3
TXT
  4

  0
ENDTAB
  0
TABLE
  2
VIEW
  5
6
330
0
100
AcDbSymbolTable
 70
     0
  0
ENDTAB
  0
TABLE
  2
UCS
  5
7
330
0
100
AcDbSymbolTable
 70
     0
  0
ENDTAB
  0
TABLE
  2
APPID
  5
9
330
0
100
AcDbSymbolTable
 70
     1
  0
APPID
  5
12
330
9
100
AcDbSymbolTableRecord
100
AcDbRegAppTableRecord
  2
ACAD
 70
     0
  0
ENDTAB
  0
TABLE
  2
DIMSTYLE
  5
A
330
0
100
AcDbSymbolTable
 70
     2
100
AcDbDimStyleTable
  0
DIMSTYLE
105
27
330
A
100
AcDbSymbolTableRecord
100
AcDbDimStyleTableRecord
  2
ISO-25
 70
     0
 41
2.5
 42
0.625
 43
3.75
 44
1.25
 73
     0
 74
     0
 77
     1
 78
     8
140
2.5
141
2.5
143
0.0393700787
147
0.625
171
     3
172
     1
178
     0
271
     2
272
     2
274
     3
278
    44
283
     0
284
     8
340
11
  0
DIMSTYLE
105
77
102
{ACAD_REACTORS
330
75
330
82
102
}
330
A
100
AcDbSymbolTableRecord
100
AcDbDimStyleTableRecord
  2
SLDDIMSTYLE0
 70
     0
 41
2.5
 44
0.0
 45
0.000000001
 73
     0
 74
     0
 77
     1
 78
    12
 79
     3
140
6.0
147
1.5
173
     1
178
     0
271
     2
272
     2
276
     2
284
    12
340
76
  0
ENDTAB
  0
TABLE
  2
BLOCK_RECORD
  5
1
330
0
100
AcDbSymbolTable
 70
     3
  0
BLOCK_RECORD
  5
1F
330
1
100
AcDbSymbolTableRecord
100
AcDbBlockTableRecord
  2
*Model_Space
340
22
  0
BLOCK_RECORD
  5
1B
330
1
100
AcDbSymbolTableRecord
100
AcDbBlockTableRecord
  2
*Paper_Space
340
1E
  0
BLOCK_RECORD
  5
23
330
1
100
AcDbSymbolTableRecord
100
AcDbBlockTableRecord
  2
*Paper_Space0
340
26
  0
BLOCK_RECORD
  5
78
330
1
100
AcDbSymbolTableRecord
100
AcDbBlockTableRecord
  2
_D
340
0
  0
BLOCK_RECORD
  5
83
330
1
100
AcDbSymbolTableRecord
100
AcDbBlockTableRecord
  2
_D_1
340
0
  0
ENDTAB
  0
ENDSEC
  0
SECTION
  2
BLOCKS
  0
BLOCK
  5
20
330
1F
100
AcDbEntity
  8
0
100
AcDbBlockBegin
  2
*Model_Space
 70
     0
 10
0.0
 20
0.0
 30
0.0
  3
*Model_Space
  1

  0
ENDBLK
  5
21
330
1F
100
AcDbEntity
  8
0
100
AcDbBlockEnd
  0
BLOCK
  5
1C
330
1B
100
AcDbEntity
 67
     1
  8
0
100
AcDbBlockBegin
  2
*Paper_Space
 70
     0
 10
0.0
 20
0.0
 30
0.0
  3
*Paper_Space
  1

  0
ENDBLK
  5
1D
330
1B
100
AcDbEntity
 67
     1
  8
0
100
AcDbBlockEnd
  0
BLOCK
  5
24
330
23
100
AcDbEntity
  8
0
100
AcDbBlockBegin
  2
*Paper_Space0
 70
     0
 10
0.0
 20
0.0
 30
0.0
  3
*Paper_Space0
  1

  0
ENDBLK
  5
25
330
23
100
AcDbEntity
  8
0
100
AcDbBlockEnd
  0
BLOCK
  5
79
330
78
100
AcDbEntity
  8
0
100
AcDbBlockBegin
  2
_D
 70
     0
 10
0.0
 20
0.0
 30
0.0
  3
_D
  1

  0
SOLID
  5
7B
330
78
100
AcDbEntity
  8
0
  6
Continuous
 62
     7
370
    18
100
AcDbTrace
 10
42.7614395004
 20
152.0299240879
 30
0.0
 11
42.4614395004
 21
149.5299240879
 31
0.0
 12
43.0614395004
 22
149.5299240879
 32
0.0
 13
43.0614395004
 23
149.5299240879
 33
0.0
  0
SOLID
  5
7C
330
78
100
AcDbEntity
  8
0
  6
Continuous
 62
     7
370
    18
100
AcDbTrace
 10
42.7614395004
 20
52.0299240879
 30
0.0
 11
43.0614395004
 21
54.5299240879
 31
0.0
 12
42.4614395004
 22
54.5299240879
 32
0.0
 13
42.4614395004
 23
54.5299240879
 33
0.0
  0
LINE
  5
7D
330
78
100
AcDbEntity
  8
0
  6
Continuous
 62
     7
370
     0
100
AcDbLine
 10
56.6850079902
 20
152.0299240879
 30
0.0
 11
41.7614395004
 21
152.0299240879
 31
0.0
  0
LINE
  5
7E
330
78
100
AcDbEntity
  8
0
  6
Continuous
 62
     7
370
     0
100
AcDbLine
 10
56.6850079902
 20
52.0299240879
 30
0.0
 11
41.7614395004
 21
52.0299240879
 31
0.0
  0
LINE
  5
7F
330
78
100
AcDbEntity
  8
0
  6
Continuous
 62
     7
370
     0
100
AcDbLine
 10
42.7614395004
 20
152.0299240879
 30
0.0
 11
42.7614395004
 21
52.0299240879
 31
0.0
  0
MTEXT
  5
80
330
78
100
AcDbEntity
  8
0
  6
Continuous
 62
     7
370
    18
100
AcDbMText
 10
35.0270332946
 20
94.3680541463
 30
0.0
 40
6.0
 41
0.0
 71
     1
 72
     1
  1
100
  7
SLDTEXTSTYLE0
 11
-7.044195017643634E-15
 21
1.0
 31
0.0
 73
     1
 44
1.0
  0
MTEXT
  5
81
330
78
100
AcDbEntity
  8
0
  6
Continuous
 62
     7
370
    18
100
AcDbMText
 10
35.0270332946
 20
105.7430548466
 30
0.0
 40
6.0
 41
0.0
 71
     1
 72
     1
  1
mm
  7
SLDTEXTSTYLE0
 11
-7.044195017643634E-15
 21
1.0
 31
0.0
 73
     1
 44
1.0
  0
ENDBLK
  5
7A
330
78
100
AcDbEntity
  8
0
100
AcDbBlockEnd
  0
BLOCK
  5
84
330
83
100
AcDbEntity
  8
0
100
AcDbBlockBegin
  2
_D_1
 70
     0
 10
0.0
 20
0.0
 30
0.0
  3
_D_1
  1

  0
SOLID
  5
86
330
83
100
AcDbEntity
  8
0
  6
Continuous
 62
     7
370
    18
100
AcDbTrace
 10
56.6850079902
 20
38.4602342313
 30
0.0
 11
59.1850079902
 21
38.1602342313
 31
0.0
 12
59.1850079902
 22
38.7602342313
 32
0.0
 13
59.1850079902
 23
38.7602342313
 33
0.0
  0
SOLID
  5
87
330
83
100
AcDbEntity
  8
0
  6
Continuous
 62
     7
370
    18
100
AcDbTrace
 10
156.6850079902
 20
38.4602342313
 30
0.0
 11
154.1850079902
 21
38.7602342313
 31
0.0
 12
154.1850079902
 22
38.1602342313
 32
0.0
 13
154.1850079902
 23
38.1602342313
 33
0.0
  0
LINE
  5
88
330
83
100
AcDbEntity
  8
0
  6
Continuous
 62
     7
370
     0
100
AcDbLine
 10
56.6850079902
 20
52.0299240879
 30
0.0
 11
56.6850079902
 21
37.4602342313
 31
0.0
  0
LINE
  5
89
330
83
100
AcDbEntity
  8
0
  6
Continuous
 62
     7
370
     0
100
AcDbLine
 10
156.6850079902
 20
52.0299240879
 30
0.0
 11
156.6850079902
 21
37.4602342313
 31
0.0
  0
LINE
  5
8A
330
83
100
AcDbEntity
  8
0
  6
Continuous
 62
     7
370
     0
100
AcDbLine
 10
56.6850079902
 20
38.4602342313
 30
0.0
 11
156.6850079902
 21
38.4602342313
 31
0.0
  0
MTEXT
  5
8B
330
83
100
AcDbEntity
  8
0
  6
Continuous
 62
     7
370
    18
100
AcDbMText
 10
93.9626484861
 20
46.1946404371
 30
0.0
 40
6.0
 41
0.0
 71
     1
 72
     1
  1
100
  7
SLDTEXTSTYLE0
 73
     1
 44
1.0
  0
MTEXT
  5
8C
330
83
100
AcDbEntity
  8
0
  6
Continuous
 62
     7
370
    18
100
AcDbMText
 10
105.3376491864
 20
46.1946404371
 30
0.0
 40
6.0
 41
0.0
 71
     1
 72
     1
  1
mm
  7
SLDTEXTSTYLE0
 73
     1
 44
1.0
  0
ENDBLK
  5
85
330
83
100
AcDbEntity
  8
0
100
AcDbBlockEnd
  0
ENDSEC
  0
SECTION
  2
ENTITIES
  0
LINE
  5
73
330
1F
100
AcDbEntity
  8
0
  6
Continuous
 62
     7
370
    18
100
AcDbLine
 10
56.6850079902
 20
152.0299240879
 30
0.0
 11
56.6850079902
 21
52.0299240879
 31
0.0
  0
LINE
  5
74
330
1F
100
AcDbEntity
  8
0
  6
Continuous
 62
     7
370
    18
100
AcDbLine
 10
56.6850079902
 20
52.0299240879
 30
0.0
 11
156.6850079902
 21
52.0299240879
 31
0.0
  0
DIMENSION
  5
75
330
1F
100
AcDbEntity
  8
0
  6
Continuous
 62
     7
370
    18
100
AcDbDimension
  2
_D
 10
42.7614395004
 20
52.0299240879
 30
0.0
 11
42.7614395004
 21
105.4472211621
 31
0.0
 70
   160
  1
<>mm
 71
     2
 42
-1.0
  3
SLDDIMSTYLE0
100
AcDbAlignedDimension
 13
56.6850079902
 23
152.0299240879
 33
0.0
 14
56.6850079902
 24
52.0299240879
 34
0.0
 50
90.0
100
AcDbRotatedDimension
  0
DIMENSION
  5
82
330
1F
100
AcDbEntity
  8
0
  6
Continuous
 62
     7
370
    18
100
AcDbDimension
  2
_D_1
 10
156.6850079902
 20
38.4602342313
 30
0.0
 11
105.0418155019
 21
38.4602342313
 31
0.0
 70
   160
  1
<>mm
 71
     2
 42
-1.0
  3
SLDDIMSTYLE0
100
AcDbAlignedDimension
 13
56.6850079902
 23
52.0299240879
 33
0.0
 14
156.6850079902
 24
52.0299240879
 34
0.0
100
AcDbRotatedDimension
  0
MTEXT
  5
8E
330
1F
100
AcDbEntity
  8
0
  6
Continuous
 62
     7
370
     0
100
AcDbMText
 10
664.658399795
 20
48.4342449499
 30
0.0
 40
10.0
 41
0.0
 71
     1
 72
     1
  1
KLUDI GmbH & Co KG
  7
SLDTEXTSTYLE1
 73
     1
 44
1.0
  0
MTEXT
  5
8F
330
1F
100
AcDbEntity
  8
0
  6
Continuous
 62
     7
370
     0
100
AcDbMText
 10
349.0758972247
 20
48.4342449499
 30
0.0
 40
10.0
 41
0.0
 71
     1
 72
     1
  1
38 245 05 76
  7
SLDTEXTSTYLE1
 73
     1
 44
1.0
  0
ARC
  5
90
330
1F
100
AcDbEntity
  8
0
  6
Continuous
 62
     7
370
    25
100
AcDbCircle
 10
501.913991693
 20
505.2755163612
 30
0.0
 40
1.0
100
AcDbArc
 50
0.0
 51
90.0
  0
ARC
  5
91
330
1F
100
AcDbEntity
  8
0
  6
Continuous
 62
     7
370
    25
100
AcDbCircle
 10
501.913991693
 20
437.7755163612
 30
0.0
 40
1.0
100
AcDbArc
 50
270.0
 51
0.0
  0
LINE
  5
92
330
1F
100
AcDbEntity
  8
0
  6
Continuous
 62
     7
370
    25
100
AcDbLine
 10
501.9139919016
 20
506.2755160035
 30
0.0
 11
495.9139909181
 21
506.2755160035
 31
0.0
  0
LINE
  5
93
330
1F
100
AcDbEntity
  8
0
  6
Continuous
 62
     7
370
    25
100
AcDbLine
 10
495.9139909181
 20
436.7755167188
 30
0.0
 11
501.9139919016
 21
436.7755167188
 31
0.0
  0
LINE
  5
94
330
1F
100
AcDbEntity
  8
0
  6
Continuous
 62
     7
370
    25
100
AcDbLine
 10
502.9139920655
 20
458.5255160929
 30
0.0
 11
657.9139988456
 21
458.5255160929
 31
0.0
  0
LINE
  5
95
330
1F
100
AcDbEntity
  8
0
  6
Continuous
 62
     7
370
    25
100
AcDbLine
 10
657.9139988456
 20
484.5255166294
 30
0.0
 11
502.9139920655
 21
484.5255166294
 31
0.0
  0
ARC
  5
96
330
1F
100
AcDbEntity
  8
0
  6
Continuous
 62
     7
370
    25
100
AcDbCircle
 10
657.913991693
 20
431.5255163612
 30
0.0
 40
27.00000000000002
100
AcDbArc
 50
25.0
 51
90.0
  0
ARC
  5
97
330
1F
100
AcDbEntity
  8
0
  6
Continuous
 62
     7
370
    25
100
AcDbCircle
 10
657.913991693
 20
431.5255163612
 30
0.0
 40
53.00000000000001
100
AcDbArc
 50
25.0
 51
90.0
  0
LINE
  5
98
330
1F
100
AcDbEntity
  8
0
  6
Continuous
 62
     7
370
    25
100
AcDbLine
 10
713.831112865
 20
437.0195530357
 30
0.0
 11
705.9483091864
 21
453.9242833854
 31
0.0
  0
LINE
  5
99
330
1F
100
AcDbEntity
  8
0
  6
Continuous
 62
     7
370
    25
100
AcDbLine
 10
682.3842983279
 20
442.9362099619
 30
0.0
 11
690.2671020064
 21
426.0314777495
 31
0.0
  0
LINE
  5
9A
330
1F
100
AcDbEntity
  8
0
  6
Continuous
 62
     7
370
    25
100
AcDbLine
 10
521.8372728262
 20
494.075516239
 30
0.0
 11
502.9139920655
 21
494.075516239
 31
0.0
  0
LINE
  5
9B
330
1F
100
AcDbEntity
  8
0
  6
Continuous
 62
     7
370
    25
100
AcDbLine
 10
502.9139920655
 20
448.9755164833
 30
0.0
 11
521.8372728262
 21
448.9755164833
 31
0.0
  0
ARC
  5
9C
330
1F
100
AcDbEntity
  8
0
  6
Continuous
 62
     7
370
    25
100
AcDbCircle
 10
521.8372711147
 20
493.3755163612
 30
0.0
 40
0.7000000000000455
100
AcDbArc
 50
41.0
 51
90.0
  0
ARC
  5
9D
330
1F
100
AcDbEntity
  8
0
  6
Continuous
 62
     7
370
    25
100
AcDbCircle
 10
521.8372711147
 20
449.6755163612
 30
0.0
 40
0.7000000000000247
100
AcDbArc
 50
270.0
 51
319.0
  0
ARC
  5
9E
330
1F
100
AcDbEntity
  8
0
  6
Continuous
 62
     7
370
    25
100
AcDbCircle
 10
558.1551359532
 20
493.4855163612
 30
0.0
 40
0.5399999999999636
100
AcDbArc
 50
0.0
 51
90.0
  0
ARC
  5
9F
330
1F
100
AcDbEntity
  8
0
  6
Continuous
 62
     7
370
    25
100
AcDbCircle
 10
558.1551359532
 20
449.5655163612
 30
0.0
 40
0.5400000000000205
100
AcDbArc
 50
270.0
 51
0.0
  0
LINE
  5
A0
330
1F
100
AcDbEntity
  8
0
  6
Continuous
 62
     7
370
    25
100
AcDbLine
 10
555.6264008913
 20
449.0255154671
 30
0.0
 11
558.1551353965
 21
449.0255154671
 31
0.0
  0
LINE
  5
A1
330
1F
100
AcDbEntity
  8
0
  6
Continuous
 62
     7
370
    25
100
AcDbLine
 10
541.9581692252
 20
449.0255154671
 30
0.0
 11
542.7714895043
 21
449.0255154671
 31
0.0
  0
LINE
  5
A2
330
1F
100
AcDbEntity
  8
0
  6
Continuous
 62
     7
370
    25
100
AcDbLine
 10
529.6951356861
 20
449.0255154671
 30
0.0
 11
534.0321074757
 21
449.0255154671
 31
0.0
  0
LINE
  5
A3
330
1F
100
AcDbEntity
  8
0
  6
Continuous
 62
     7
370
    25
100
AcDbLine
 10
558.1551353965
 20
494.0255172552
 30
0.0
 11
533.6589674983
 21
494.0255172552
 31
0.0
  0
LINE
  5
A4
330
1F
100
AcDbEntity
  8
0
  6
Continuous
 62
     7
370
    25
100
AcDbLine
 10
522.3655674193
 20
449.2162745448
 30
0.0
 11
522.4270719621
 21
449.2870271208
 31
0.0
  0
LINE
  5
A5
330
1F
100
AcDbEntity
  8
0
  6
Continuous
 62
     7
370
    25
100
AcDbLine
 10
522.4270719621
 20
493.7640056016
 30
0.0
 11
522.3655674193
 21
493.8347581776
 31
0.0
  0
ARC
  5
A6
330
1F
100
AcDbEntity
  8
0
  6
Continuous
 62
     7
370
    25
100
AcDbCircle
 10
522.9553684012
 20
494.223246888
 30
0.0
 40
0.7000000000000247
100
AcDbArc
 50
221.0
 51
269.1898025957
  0
ARC
  5
A7
330
1F
100
AcDbEntity
  8
0
  6
Continuous
 62
     7
370
    25
100
AcDbCircle
 10
522.9553684012
 20
448.8277858343
 30
0.0
 40
0.6999999999999874
100
AcDbArc
 50
90.8101974043
 51
139.0
  0
ARC
  5
A8
330
1F
100
AcDbEntity
  8
0
  6
Continuous
 62
     7
370
    25
100
AcDbCircle
 10
522.6343871994
 20
471.5255163612
 30
0.0
 40
21.99999999999999
100
AcDbArc
 50
61.5842768709
 51
89.1898025957
  0
ARC
  5
A9
330
1F
100
AcDbEntity
  8
0
  6
Continuous
 62
     7
370
    25
100
AcDbCircle
 10
522.6343871994
 20
471.5255163612
 30
0.0
 40
22.0
100
AcDbArc
 50
270.8101974043
 51
288.7199706814
  0
SPLINE
  5
AA
330
1F
100
AcDbEntity
  8
0
  6
Continuous
 62
     7
370
    25
100
AcDbSpline
210
0.0
220
0.0
230
1.0
 70
     8
 71
     3
 72
    13
 73
     9
 74
     0
 42
0.000000001
 43
0.00000001
 40
0.0
 40
0.0
 40
0.0
 40
0.0
 40
0.108156642072635
 40
0.2739826565371754
 40
0.518466463030788
 40
0.7560816121026857
 40
0.9973426286257009
 40
1.0
 40
1.0
 40
1.0
 40
1.0
 10
542.7680473360895
 20
449.0174632521105
 30
0.0
 10
542.849086028448
 20
449.0122257360288
 30
0.0
 10
543.0543734318775
 20
448.9989580481439
 30
0.0
 10
543.4230779844157
 20
448.8621286264768
 30
0.0
 10
543.8248539317198
 20
448.5675078132167
 30
0.0
 10
544.1037972162652
 20
448.1009927190133
 30
0.0
 10
544.2200895525675
 20
447.7367230922176
 30
0.0
 10
544.1947077117725
 20
447.5559634223052
 30
0.0
 10
544.1944311890481
 20
447.5539941342307
 30
0.0
  0
SPLINE
  5
AB
330
1F
100
AcDbEntity
  8
0
  6
Continuous
 62
     7
370
    25
100
AcDbSpline
210
0.0
220
0.0
230
1.0
 70
     8
 71
     3
 72
    14
 73
    10
 74
     0
 42
0.000000001
 43
0.00000001
 40
0.0
 40
0.0
 40
0.0
 40
0.0
 40
0.0604804676500717
 40
0.3004640916342193
 40
0.5174662481018912
 40
0.6937873736078762
 40
0.8428022136386056
 40
0.9670038609835369
 40
1.0
 40
1.0
 40
1.0
 40
1.0
 10
554.2128990921854
 20
447.548544034524
 30
0.0
 10
554.2082012423043
 20
447.5940122974764
 30
0.0
 10
554.1848625471526
 20
447.8198964689619
 30
0.0
 10
554.3310732105663
 20
448.2032377551024
 30
0.0
 10
554.6083865798735
 20
448.5935992618986
 30
0.0
 10
554.9420112798235
 20
448.8413108726662
 30
0.0
 10
555.2568459839664
 20
448.9692313499088
 30
0.0
 10
555.4845631894726
 20
449.0198083162552
 30
0.0
 10
555.6030008882587
 20
449.020402568592
 30
0.0
 10
555.627861205089
 20
449.020527303381
 30
0.0
  0
LINE
  5
AC
330
1F
100
AcDbEntity
  8
0
  6
Continuous
 62
     7
370
    25
100
AcDbLine
 10
544.1951389942
 20
447.5459363313
 30
0.0
 11
544.1951389942
 21
387.0255164804
 31
0.0
  0
LINE
  5
AD
330
1F
100
AcDbEntity
  8
0
  6
Continuous
 62
     7
370
    25
100
AcDbLine
 10
554.195136908
 20
387.0255164804
 30
0.0
 11
554.195136908
 21
447.54380174
 31
0.0
  0
ARC
  5
AE
330
1F
100
AcDbEntity
  8
0
  6
Continuous
 62
     7
370
    25
100
AcDbCircle
 10
553.6951359532
 20
387.0255163612
 30
0.0
 40
0.5000000000000568
100
AcDbArc
 50
270.0
 51
0.0
  0
ARC
  5
AF
330
1F
100
AcDbEntity
  8
0
  6
Continuous
 62
     7
370
    25
100
AcDbCircle
 10
544.6951359532
 20
387.0255163612
 30
0.0
 40
0.5
100
AcDbArc
 50
180.0
 51
270.0
  0
LINE
  5
B0
330
1F
100
AcDbEntity
  8
0
  6
Continuous
 62
     7
370
    25
100
AcDbLine
 10
533.9951376948
 20
449.0319415929
 30
0.0
 11
533.9951376948
 21
448.6255161466
 31
0.0
  0
LINE
  5
B1
330
1F
100
AcDbEntity
  8
0
  6
Continuous
 62
     7
370
    25
100
AcDbLine
 10
541.9951390061
 20
448.6255161466
 30
0.0
 11
541.9951390061
 21
449.0319415929
 31
0.0
  0
LINE
  5
B2
330
1F
100
AcDbEntity
  8
0
  6
Continuous
 62
     7
370
    25
100
AcDbLine
 10
533.9951376948
 20
448.6255161466
 30
0.0
 11
534.2137191031
 21
448.0249695481
 31
0.0
  0
LINE
  5
B3
330
1F
100
AcDbEntity
  8
0
  6
Continuous
 62
     7
370
    25
100
AcDbLine
 10
541.7765538726
 20
448.0249695481
 30
0.0
 11
541.9951390061
 21
448.6255161466
 31
0.0
  0
ARC
  5
B4
330
1F
100
AcDbEntity
  8
0
  6
Continuous
 62
     7
370
    25
100
AcDbCircle
 10
541.5886160621
 20
448.0933730199
 30
0.0
 40
0.2000000000000455
100
AcDbArc
 50
270.0
 51
340.0
  0
ARC
  5
B5
330
1F
100
AcDbEntity
  8
0
  6
Continuous
 62
     7
370
    25
100
AcDbCircle
 10
534.4016558443
 20
448.0933730199
 30
0.0
 40
0.2000000000001087
100
AcDbArc
 50
200.0
 51
270.0
  0
LINE
  5
B6
330
1F
100
AcDbEntity
  8
0
  6
Continuous
 62
     7
370
    25
100
AcDbLine
 10
534.4016562734
 20
447.8933736684
 30
0.0
 11
541.588612977
 21
447.8933736684
 31
0.0
  0
LINE
  5
B7
330
1F
100
AcDbEntity
  8
0
  6
Continuous
 62
     7
370
    25
100
AcDbLine
 10
502.9139920655
 20
471.5255163612
 30
0.0
 11
502.9139920655
 21
437.7755150201
 31
0.0
  0
LINE
  5
B8
330
1F
100
AcDbEntity
  8
0
  6
Continuous
 62
     7
370
    25
100
AcDbLine
 10
502.9139920655
 20
505.2755177023
 30
0.0
 11
502.9139920655
 21
471.5255163612
 31
0.0
  0
LINE
  5
B9
330
1F
100
AcDbEntity
  8
0
  6
Continuous
 62
     7
370
    25
100
AcDbLine
 10
495.9139909181
 20
471.5255163612
 30
0.0
 11
495.9139909181
 21
436.7755167188
 31
0.0
  0
LINE
  5
BA
330
1F
100
AcDbEntity
  8
0
  6
Continuous
 62
     7
370
    25
100
AcDbLine
 10
495.9139909181
 20
506.2755160035
 30
0.0
 11
495.9139909181
 21
471.5255163612
 31
0.0
  0
LWPOLYLINE
  5
BB
330
1F
100
AcDbEntity
  8
0
  6
Continuous
 62
     7
370
    25
100
AcDbPolyline
 90
       22
 70
   128
 43
0.0
 10
713.831112865
 20
437.0195530357
 10
713.6860500607
 20
436.9519129397
 10
713.2544528279
 20
436.7506578566
 10
712.5469456944
 20
436.4207386972
 10
711.5809481177
 20
435.9702877702
 10
710.380242351
 20
435.4103878142
 10
708.9743922982
 20
434.7548298539
 10
707.3980282578
 20
434.0197555722
 10
705.6899528537
 20
433.2232661547
 10
703.8922171626
 20
432.3849715294
 10
702.0491074357
 20
431.5255172552
 10
700.2059977088
 20
430.6660592558
 10
698.4082769189
 20
429.8277646305
 10
696.7001866135
 20
429.0312752129
 10
695.1238225732
 20
428.2962009312
 10
693.7179725203
 20
427.6406466963
 10
692.5172667537
 20
427.0807467403
 10
691.5512691769
 20
426.630292088
 10
690.8437620435
 20
426.3003766538
 10
690.4121648106
 20
426.0991178455
 10
690.2671020064
 20
426.0314777495
 10
690.2671020064
 20
426.0314777495
  0
LINE
  5
BC
330
1F
100
AcDbEntity
  8
0
  6
Continuous
 62
     7
370
    25
100
AcDbLine
 10
558.695138577
 20
458.5255160929
 30
0.0
 11
558.695138577
 21
449.5655167849
 31
0.0
  0
LINE
  5
BD
330
1F
100
AcDbEntity
  8
0
  6
Continuous
 62
     7
370
    25
100
AcDbLine
 10
558.695138577
 20
493.4855159374
 30
0.0
 11
558.695138577
 21
484.5255166294
 31
0.0
  0
LWPOLYLINE
  5
BE
330
1F
100
AcDbEntity
  8
0
  6
Continuous
 62
     7
370
    25
100
AcDbPolyline
 90
       10
 70
   128
 43
0.0
 10
533.6589674983
 20
494.0255172552
 10
533.6518559191
 20
493.9851909877
 10
533.5951234732
 20
493.6634507032
 10
533.4824744198
 20
493.0245801808
 10
533.3155180845
 20
492.0777287336
 10
533.0966498289
 20
490.8364638688
 10
532.8290026221
 20
489.318566397
 10
532.5164135132
 20
487.5457771124
 10
532.1633565757
 20
485.5434950443
 10
531.9838609133
 20
484.5255166294
  0
LINE
  5
BF
330
1F
100
AcDbEntity
  8
0
  6
Continuous
 62
     7
370
    25
100
AcDbLine
 10
529.6951356861
 20
458.5255160929
 30
0.0
 11
529.6951356861
 21
449.0255154671
 31
0.0
  0
SPLINE
  5
C0
330
1F
100
AcDbEntity
  8
0
  6
Continuous
 62
     7
370
    25
100
AcDbSpline
210
0.0
220
0.0
230
1.0
 70
     8
 71
     3
 72
    12
 73
     8
 74
     0
 42
0.000000001
 43
0.00000001
 40
0.0
 40
0.0
 40
0.0
 40
0.0
 40
0.2366962760160349
 40
0.4732920491197649
 40
0.7120745576378745
 40
0.9503939910648477
 40
1.0
 40
1.0
 40
1.0
 40
1.0
 10
537.3848091397165
 20
449.3755158038569
 30
0.0
 10
536.94918639496
 20
449.3556388987305
 30
0.0
 10
536.0781258739445
 20
449.3158935283523
 30
0.0
 10
534.9952783053162
 20
449.186480943051
 30
0.0
 10
534.2778865806224
 20
449.076529270921
 30
0.0
 10
533.954015365691
 20
449.0183011305637
 30
0.0
 10
534.0206305070237
 20
449.0299861498856
 30
0.0
 10
534.0321074757455
 20
449.0319993348551
 30
0.0
  0
SPLINE
  5
C1
330
1F
100
AcDbEntity
  8
0
  6
Continuous
 62
     7
370
    25
100
AcDbSpline
210
0.0
220
0.0
230
1.0
 70
     8
 71
     3
 72
    12
 73
     8
 74
     0
 42
0.000000001
 43
0.00000001
 40
0.0
 40
0.0
 40
0.0
 40
0.0
 40
0.1854878782774936
 40
0.4195924388840431
 40
0.6564411870725669
 40
0.8956704154509378
 40
1.0
 40
1.0
 40
1.0
 40
1.0
 10
541.9581692252038
 20
449.0319993348551
 30
0.0
 10
541.9458815329863
 20
449.0342838985769
 30
0.0
 10
541.9180855239225
 20
449.0394518139831
 30
0.0
 10
541.355837528931
 20
449.1347463217226
 30
0.0
 10
540.427870574099
 20
449.2588151356219
 30
0.0
 10
539.4338000749424
 20
449.3460505460512
 30
0.0
 10
538.7984136336348
 20
449.3686522679341
 30
0.0
 10
538.6054638359426
 20
449.3755158038569
 30
0.0
  0
LINE
  5
C2
330
1F
100
AcDbEntity
  8
0
  6
Continuous
 62
     7
370
    25
100
AcDbLine
 10
553.6951358948
 20
386.5255154671
 30
0.0
 11
544.6951325569
 21
386.5255154671
 31
0.0
  0
LINE
  5
C3
330
1F
100
AcDbEntity
  8
0
  6
Continuous
 62
     7
370
    25
100
AcDbLine
 10
537.3848091397
 20
449.3755158039
 30
0.0
 11
538.6054638359
 21
449.3755158039
 31
0.0
  0
LINE
  5
C4
330
1F
100
AcDbEntity
  8
0
  6
Continuous
 62
     7
370
    25
100
AcDbLine
 10
538.8298566971
 20
448.6255161466
 30
0.0
 11
541.9951390061
 21
448.6255161466
 31
0.0
  0
LINE
  5
C5
330
1F
100
AcDbEntity
  8
0
  6
Continuous
 62
     7
370
    25
100
AcDbLine
 10
533.9951376948
 20
448.6255161466
 30
0.0
 11
538.8298566971
 21
448.6255161466
 31
0.0
  0
LINE
  5
C6
330
1F
100
AcDbEntity
  8
0
  6
Continuous
 62
     8
370
    18
100
AcDbLine
 10
501.9139919016
 20
471.5255163612
 30
0.0
 11
501.9139919016
 21
436.7755167188
 31
0.0
  0
LINE
  5
C7
330
1F
100
AcDbEntity
  8
0
  6
Continuous
 62
     8
370
    18
100
AcDbLine
 10
501.9139919016
 20
506.2755160035
 30
0.0
 11
501.9139919016
 21
471.5255163612
 31
0.0
  0
LINE
  5
C8
330
1F
100
AcDbEntity
  8
0
  6
Continuous
 62
     8
370
    18
100
AcDbLine
 10
657.9139988456
 20
484.5255166294
 30
0.0
 11
657.9139988456
 21
458.5255160929
 31
0.0
  0
LWPOLYLINE
  5
C9
330
1F
100
AcDbEntity
  8
0
  6
Continuous
 62
     8
370
    18
100
AcDbPolyline
 90
       22
 70
   128
 43
0.0
 10
705.9483091864
 20
453.9242833854
 10
705.8032463822
 20
453.8566432895
 10
705.3716491494
 20
453.6553863438
 10
704.6641420159
 20
453.3254709096
 10
703.6981444392
 20
452.8750162573
 10
702.4974386725
 20
452.315118164
 10
701.0915886197
 20
451.6595602037
 10
699.5152245793
 20
450.9244877847
 10
697.8071491752
 20
450.1279983671
 10
696.0094134841
 20
449.2897037418
 10
694.1663037572
 20
448.430247605
 10
692.3231940303
 20
447.5707896055
 10
690.5254583392
 20
446.7324949803
 10
688.817382935
 20
445.9360055627
 10
687.2410188947
 20
445.2009331437
 10
685.8351688418
 20
444.5453751834
 10
684.6344630751
 20
443.98547709
 10
683.6684654984
 20
443.5350243004
 10
682.960958365
 20
443.2051070036
 10
682.5293611321
 20
443.0038500579
 10
682.3842983279
 20
442.9362099619
 10
682.3842983279
 20
442.9362099619
  0
LINE
  5
CA
330
1F
100
AcDbEntity
  8
0
  6
Continuous
 62
     8
370
    18
100
AcDbLine
 10
521.8372728262
 20
493.767924607
 30
0.0
 11
521.8372728262
 21
484.5255166294
 31
0.0
  0
LINE
  5
CB
330
1F
100
AcDbEntity
  8
0
  6
Continuous
 62
     8
370
    18
100
AcDbLine
 10
521.8372728262
 20
458.5255160929
 30
0.0
 11
521.8372728262
 21
448.9755164833
 31
0.0
  0
LINE
  5
CC
330
1F
100
AcDbEntity
  8
0
  6
Continuous
 62
     8
370
    18
100
AcDbLine
 10
521.8372728262
 20
494.075516239
 30
0.0
 11
521.8372728262
 21
493.767924607
 31
0.0
  0
LINE
  5
CD
330
1F
100
AcDbEntity
  8
0
  6
Continuous
 62
     8
370
    18
100
AcDbLine
 10
522.3655674193
 20
493.530450389
 30
0.0
 11
522.3655674193
 21
484.5255166294
 31
0.0
  0
LINE
  5
CE
330
1F
100
AcDbEntity
  8
0
  6
Continuous
 62
     8
370
    18
100
AcDbLine
 10
522.3655674193
 20
458.5255160929
 30
0.0
 11
522.3655674193
 21
449.2162745448
 31
0.0
  0
LINE
  5
CF
330
1F
100
AcDbEntity
  8
0
  6
Continuous
 62
     8
370
    18
100
AcDbLine
 10
522.3655674193
 20
493.8347581776
 30
0.0
 11
522.3655674193
 21
493.530450389
 31
0.0
  0
LINE
  5
D0
330
1F
100
AcDbEntity
  8
0
  6
Continuous
 62
     8
370
    18
100
AcDbLine
 10
558.1551353965
 20
484.5255166294
 30
0.0
 11
558.1551353965
 21
494.0255172552
 31
0.0
  0
LINE
  5
D1
330
1F
100
AcDbEntity
  8
0
  6
Continuous
 62
     8
370
    18
100
AcDbLine
 10
558.1551353965
 20
449.0255154671
 30
0.0
 11
558.1551353965
 21
458.5255160929
 31
0.0
  0
SPLINE
  5
D2
330
1F
100
AcDbEntity
  8
0
  6
Continuous
 62
     8
370
    18
100
AcDbSpline
210
0.0
220
0.0
230
1.0
 70
     8
 71
     3
 72
    12
 73
     8
 74
     0
 42
0.000000001
 43
0.00000001
 40
0.0
 40
0.0
 40
0.0
 40
0.0
 40
0.2084975196989621
 40
0.4194268448838946
 40
0.632928757318721
 40
0.845962196771084
 40
1.0
 40
1.0
 40
1.0
 40
1.0
 10
549.1951342258333
 20
449.8664252461625
 30
0.0
 10
549.8846163974549
 20
449.8491962559617
 30
0.0
 10
551.2716224983644
 20
449.8145373256738
 30
0.0
 10
553.1709174750081
 20
449.5648990840447
 30
0.0
 10
554.6655604260441
 20
449.2781297733672
 30
0.0
 10
555.582359795875
 20
449.0545647343039
 30
0.0
 10
555.613382515113
 20
449.0462571901794
 30
0.0
 10
555.626400891292
 20
449.0427710117531
 30
0.0
  0
SPLINE
  5
D3
330
1F
100
AcDbEntity
  8
0
  6
Continuous
 62
     8
370
    18
100
AcDbSpline
210
0.0
220
0.0
230
1.0
 70
     8
 71
     3
 72
    12
 73
     8
 74
     0
 42
0.000000001
 43
0.00000001
 40
0.0
 40
0.0
 40
0.0
 40
0.0
 40
0.1391563212494905
 40
0.3412741954602294
 40
0.5520372961068252
 40
0.772919822342486
 40
1.0
 40
1.0
 40
1.0
 40
1.0
 10
542.7714895043252
 20
449.044728651805
 30
0.0
 10
542.7740216320668
 20
449.0454953999381
 30
0.0
 10
542.7802315537582
 20
449.0473758129148
 30
0.0
 10
543.5979504862546
 20
449.2486507063897
 30
0.0
 10
545.016926166894
 20
449.5309597909763
 30
0.0
 10
546.9613807693123
 20
449.8053798842208
 30
0.0
 10
548.4437136189161
 20
449.8458899705322
 30
0.0
 10
549.1951342258333
 20
449.8664252461625
 30
0.0
  0
LINE
  5
D4
330
1F
100
AcDbEntity
  8
0
  6
Continuous
 62
     8
370
    18
100
AcDbLine
 10
522.4270719621
 20
493.4606626631
 30
0.0
 11
522.4270719621
 21
484.5255166294
 31
0.0
  0
LINE
  5
D5
330
1F
100
AcDbEntity
  8
0
  6
Continuous
 62
     8
370
    18
100
AcDbLine
 10
522.4270719621
 20
458.5255160929
 30
0.0
 11
522.4270719621
 21
449.2870271208
 31
0.0
  0
LINE
  5
D6
330
1F
100
AcDbEntity
  8
0
  6
Continuous
 62
     8
370
    18
100
AcDbLine
 10
522.4270719621
 20
493.7640056016
 30
0.0
 11
522.4270719621
 21
493.4606626631
 31
0.0
  0
LINE
  5
D7
330
1F
100
AcDbEntity
  8
0
  6
Continuous
 62
     8
370
    18
100
AcDbLine
 10
522.9454684589
 20
493.223257363
 30
0.0
 11
522.9454684589
 21
484.5255166294
 31
0.0
  0
LINE
  5
D8
330
1F
100
AcDbEntity
  8
0
  6
Continuous
 62
     8
370
    18
100
AcDbLine
 10
522.9454684589
 20
458.5255160929
 30
0.0
 11
522.9454684589
 21
449.5277162643
 31
0.0
  0
LINE
  5
D9
330
1F
100
AcDbEntity
  8
0
  6
Continuous
 62
     8
370
    18
100
AcDbLine
 10
522.9454684589
 20
493.523316458
 30
0.0
 11
522.9454684589
 21
493.223257363
 31
0.0
  0
SPLINE
  5
DA
330
1F
100
AcDbEntity
  8
0
  6
Continuous
 62
     8
370
    18
100
AcDbSpline
210
0.0
220
0.0
230
1.0
 70
     8
 71
     3
 72
    14
 73
    10
 74
     0
 42
0.000000001
 43
0.00000001
 40
0.0
 40
0.0
 40
0.0
 40
0.0
 40
0.005493251037518
 40
0.2126552055996232
 40
0.2197931075054059
 40
0.4372125467272792
 40
0.6492426474367566
 40
0.855775448671135
 40
1.0
 40
1.0
 40
1.0
 40
1.0
 10
549.1951342258333
 20
448.4224859626723
 30
0.0
 10
549.1806964581542
 20
448.4224711790896
 30
0.0
 10
548.6217803567081
 20
448.4218988757704
 30
0.0
 10
548.0373311243239
 20
448.3832546617339
 30
0.0
 10
546.9754849634647
 20
448.2536068584952
 30
0.0
 10
545.965169644506
 20
448.0635191574821
 30
0.0
 10
544.8830738812543
 20
447.7606539081526
 30
0.0
 10
544.2593137238916
 20
447.5484991035814
 30
0.0
 10
544.2550773806073
 20
447.5466038597414
 30
0.0
 10
544.2533354792474
 20
447.5458245726061
 30
0.0
  0
SPLINE
  5
DB
330
1F
100
AcDbEntity
  8
0
  6
Continuous
 62
     8
370
    18
100
AcDbSpline
210
0.0
220
0.0
230
1.0
 70
     8
 71
     3
 72
    12
 73
     8
 74
     0
 42
0.000000001
 43
0.00000001
 40
0.0
 40
0.0
 40
0.0
 40
0.0
 40
0.1598860751904491
 40
0.3772588046268666
 40
0.5914306626424425
 40
0.7985112995207126
 40
1.0
 40
1.0
 40
1.0
 40
1.0
 10
554.1432585153459
 20
447.543576359911
 30
0.0
 10
554.1334382535401
 20
447.5472229874297
 30
0.0
 10
554.1102668783872
 20
447.5558273786311
 30
0.0
 10
553.4115583848712
 20
447.7923310873539
 30
0.0
 10
552.2680171168413
 20
448.0973954021939
 30
0.0
 10
550.8055543346932
 20
448.3660362576452
 30
0.0
 10
549.7270204314644
 20
448.40384187145
 30
0.0
 10
549.1951342258333
 20
448.4224859626723
 30
0.0
  0
LINE
  5
DC
330
1F
100
AcDbEntity
  8
0
  6
Continuous
 62
     8
370
    18
100
AcDbLine
 10
544.1951389942
 20
387.0255164804
 30
0.0
 11
554.195136908
 21
387.0255164804
 31
0.0
  0
LINE
  5
DD
330
1F
100
AcDbEntity
  8
0
  6
Continuous
 62
     8
370
    18
100
AcDbLine
 10
534.2137191031
 20
448.0249695481
 30
0.0
 11
541.7765538726
 21
448.0249695481
 31
0.0
  0
LINE
  5
DE
330
1F
100
AcDbEntity
  8
0
  6
Continuous
 62
     7
370
    25
100
AcDbLine
 10
229.2904456419
 20
431.5255172552
 30
0.0
 11
229.2904456419
 21
448.430247605
 31
0.0
  0
LINE
  5
DF
330
1F
100
AcDbEntity
  8
0
  6
Continuous
 62
     7
370
    25
100
AcDbLine
 10
203.2904451054
 20
448.430247605
 30
0.0
 11
203.2904451054
 21
431.5255172552
 31
0.0
  0
LINE
  5
E0
330
1F
100
AcDbEntity
  8
0
  6
Continuous
 62
     7
370
    25
100
AcDbLine
 10
203.2904451054
 20
471.5255163612
 30
0.0
 11
203.2904451054
 21
448.430247605
 31
0.0
  0
LINE
  5
E1
330
1F
100
AcDbEntity
  8
0
  6
Continuous
 62
     7
370
    25
100
AcDbLine
 10
229.2904456419
 20
448.430247605
 30
0.0
 11
229.2904456419
 21
471.5255163612
 31
0.0
  0
SPLINE
  5
E2
330
1F
100
AcDbEntity
  8
0
  6
Continuous
 62
     7
370
    25
100
AcDbSpline
210
0.0
220
0.0
230
1.0
 70
     8
 71
     3
 72
    11
 73
     7
 74
     0
 42
0.000000001
 43
0.00000001
 40
0.0
 40
0.0
 40
0.0
 40
0.0
 40
0.1898910694389235
 40
0.4814432784086369
 40
0.793464990741152
 40
1.0
 40
1.0
 40
1.0
 40
1.0
 10
320.4830003243716
 20
449.7465770693255
 30
0.0
 10
320.5727924262189
 20
449.6951519456654
 30
0.0
 10
320.8004482291817
 20
449.5647704580018
 30
0.0
 10
321.0807645450923
 20
449.2287077918432
 30
0.0
 10
321.2733179108005
 20
448.8186033228641
 30
0.0
 10
321.2699150567227
 20
448.5351667723083
 30
0.0
 10
321.2685597401889
 20
448.4222773464156
 30
0.0
  0
SPLINE
  5
E3
330
1F
100
AcDbEntity
  8
0
  6
Continuous
 62
     7
370
    25
100
AcDbSpline
210
0.0
220
0.0
230
1.0
 70
     8
 71
     3
 72
    13
 73
     9
 74
     0
 42
0.000000001
 43
0.00000001
 40
0.0
 40
0.0
 40
0.0
 40
0.0
 40
0.0758051975385811
 40
0.3592073364661972
 40
0.5942095295739098
 40
0.7926942672904147
 40
0.955707077873981
 40
1.0
 40
1.0
 40
1.0
 40
1.0
 10
331.308619425896
 20
448.4130907805396
 30
0.0
 10
331.3024508320841
 20
448.4528050213203
 30
0.0
 10
331.2732205916144
 20
448.6409932605684
 30
0.0
 10
331.3742542855845
 20
448.9532493063072
 30
0.0
 10
331.5476907722674
 20
449.2892821931206
 30
0.0
 10
331.7616875796041
 20
449.5240630742871
 30
0.0
 10
331.9296049462645
 20
449.659830438267
 30
0.0
 10
332.0264388937125
 20
449.7109704510743
 30
0.0
 10
332.0471284252437
 20
449.7218970210982
 30
0.0
  0
LINE
  5
E4
330
1F
100
AcDbEntity
  8
0
  6
Continuous
 62
     7
370
    25
100
AcDbLine
 10
321.2904420954
 20
448.4224859627
 30
0.0
 11
321.2904420954
 21
387.0255164804
 31
0.0
  0
LINE
  5
E5
330
1F
100
AcDbEntity
  8
0
  6
Continuous
 62
     7
370
    25
100
AcDbLine
 10
331.2904474598
 20
387.0255164804
 30
0.0
 11
331.2904474598
 21
448.4050553294
 31
0.0
  0
ARC
  5
E6
330
1F
100
AcDbEntity
  8
0
  6
Continuous
 62
     7
370
    25
100
AcDbCircle
 10
330.7904453737
 20
387.0255163612
 30
0.0
 40
0.5000000000000568
100
AcDbArc
 50
270.0
 51
0.0
  0
ARC
  5
E7
330
1F
100
AcDbEntity
  8
0
  6
Continuous
 62
     7
370
    25
100
AcDbCircle
 10
321.7904453737
 20
387.0255163612
 30
0.0
 40
0.5000000000000568
100
AcDbArc
 50
180.0
 51
270.0
  0
LWPOLYLINE
  5
E8
330
1F
100
AcDbEntity
  8
0
  6
Continuous
 62
     7
370
    25
100
AcDbPolyline
 90
       41
 70
   128
 43
0.0
 10
229.2904456419
 20
431.5255172552
 10
229.1303941321
 20
432.3849715294
 10
228.6541800287
 20
433.2232661547
 10
227.8735305455
 20
434.0197555722
 10
226.8076663178
 20
434.7548298539
 10
225.4828338784
 20
435.4103878142
 10
223.9316537318
 20
435.9702877702
 10
222.192321745
 20
436.4207386972
 10
220.3076661837
 20
436.7506578566
 10
218.3240934548
 20
436.9519129397
 10
216.2904453737
 20
437.0195530357
 10
214.2567972925
 20
436.9519129397
 10
212.2732245636
 20
436.7506578566
 10
210.3885690023
 20
436.4207386972
 10
208.6492370155
 20
435.9702877702
 10
207.0980568689
 20
435.4103878142
 10
205.7732244295
 20
434.7548298539
 10
204.7073602018
 20
434.0197555722
 10
203.9267107186
 20
433.2232661547
 10
203.4504966152
 20
432.3849715294
 10
203.2904451054
 20
431.5255172552
 10
203.4504966152
 20
430.6660592558
 10
203.9267107186
 20
429.8277646305
 10
204.7073602018
 20
429.0312752129
 10
205.7732244295
 20
428.2962009312
 10
207.0980568689
 20
427.6406466963
 10
208.6492370155
 20
427.0807467403
 10
210.3885690023
 20
426.630292088
 10
212.2732245636
 20
426.3003766538
 10
214.2567972925
 20
426.0991178455
 10
216.2904453737
 20
426.0314777495
 10
218.3240934548
 20
426.0991178455
 10
220.3076661837
 20
426.3003766538
 10
222.192321745
 20
426.630292088
 10
223.9316537318
 20
427.0807467403
 10
225.4828338784
 20
427.6406466963
 10
226.8076663178
 20
428.2962009312
 10
227.8735305455
 20
429.0312752129
 10
228.6541800287
 20
429.8277646305
 10
229.1303941321
 20
430.6660592558
 10
229.2904456419
 20
431.5255172552
  0
LWPOLYLINE
  5
E9
330
1F
100
AcDbEntity
  8
0
  6
Continuous
 62
     7
370
    25
100
AcDbPolyline
 90
       22
 70
   128
 43
0.0
 10
229.2904456419
 20
471.5255163612
 10
229.1303941321
 20
473.5591644423
 10
228.6541800287
 20
475.5427371712
 10
227.8735305455
 20
477.4273927325
 10
226.8076663178
 20
479.1667247193
 10
225.4828338784
 20
480.7179048659
 10
223.9316537318
 20
482.0427373053
 10
222.192321745
 20
483.108601533
 10
220.3076661837
 20
483.8892510162
 10
218.3240934548
 20
484.3654651196
 10
216.2904453737
 20
484.5255166294
 10
214.2567972925
 20
484.3654651196
 10
212.2732245636
 20
483.8892510162
 10
210.3885690023
 20
483.108601533
 10
208.6492370155
 20
482.0427373053
 10
207.0980568689
 20
480.7179048659
 10
205.7732244295
 20
479.1667247193
 10
204.7073602018
 20
477.4273927325
 10
203.9267107186
 20
475.5427371712
 10
203.4504966152
 20
473.5591644423
 10
203.2904451054
 20
471.5255163612
 10
203.2904451054
 20
471.5255163612
  0
ARC
  5
EA
330
1F
100
AcDbEntity
  8
0
  6
Continuous
 62
     7
370
    25
100
AcDbCircle
 10
216.2904453737
 20
471.5255163612
 30
0.0
 40
34.75000000000003
100
AcDbArc
 50
180.0
 51
248.0312572874
  0
ARC
  5
EB
330
1F
100
AcDbEntity
  8
0
  6
Continuous
 62
     7
370
    25
100
AcDbCircle
 10
216.2904453737
 20
471.5255163612
 30
0.0
 40
34.75000000000003
100
AcDbArc
 50
291.9687427126
 51
180.0
  0
CIRCLE
  5
EC
330
1F
100
AcDbEntity
  8
0
  6
Continuous
 62
     7
370
    25
100
AcDbCircle
 10
326.2904453737
 20
471.5255163612
 30
0.0
 40
22.49999999999994
  0
LINE
  5
ED
330
1F
100
AcDbEntity
  8
0
  6
Continuous
 62
     7
370
    25
100
AcDbLine
 10
330.7904464465
 20
386.5255154671
 30
0.0
 11
321.7904431087
 21
386.5255154671
 31
0.0
  0
LINE
  5
EE
330
1F
100
AcDbEntity
  8
0
  6
Continuous
 62
     7
370
    25
100
AcDbLine
 10
330.2436110836
 20
449.3755158039
 30
0.0
 11
330.2904454333
 21
449.3755158039
 31
0.0
  0
ARC
  5
EF
330
1F
100
AcDbEntity
  8
0
  6
Continuous
 62
     7
370
    25
100
AcDbCircle
 10
326.2904453737
 20
471.5255163612
 30
0.0
 40
22.54999999999999
100
AcDbArc
 50
99.4742791707
 51
255.5116181087
  0
ARC
  5
F0
330
1F
100
AcDbEntity
  8
0
  6
Continuous
 62
     7
370
    25
100
AcDbCircle
 10
326.2904453737
 20
471.5255163612
 30
0.0
 40
22.55000000000003
100
AcDbArc
 50
284.6748300504
 51
99.4742791707
  0
ARC
  5
F1
330
1F
100
AcDbEntity
  8
0
  6
Continuous
 62
     7
370
    25
100
AcDbCircle
 10
326.2904453737
 20
471.5255163612
 30
0.0
 40
34.75000000000001
100
AcDbArc
 50
180.0
 51
261.7272889043
  0
ARC
  5
F2
330
1F
100
AcDbEntity
  8
0
  6
Continuous
 62
     7
370
    25
100
AcDbCircle
 10
326.2904453737
 20
471.5255163612
 30
0.0
 40
34.75000000000001
100
AcDbArc
 50
278.2727110957
 51
180.0
  0
LWPOLYLINE
  5
F3
330
1F
100
AcDbEntity
  8
0
  6
Continuous
 62
     8
370
    18
100
AcDbPolyline
 90
       21
 70
   128
 43
0.0
 10
229.2904456419
 20
448.430247605
 10
229.1303941321
 20
449.2897037418
 10
228.6541800287
 20
450.1279983671
 10
227.8735305455
 20
450.9244877847
 10
226.8076663178
 20
451.6595602037
 10
225.4828338784
 20
452.315118164
 10
223.9316537318
 20
452.8750162573
 10
222.192321745
 20
453.3254709096
 10
220.3076661837
 20
453.6553863438
 10
218.3240934548
 20
453.8566432895
 10
216.2904453737
 20
453.9242833854
 10
214.2567972925
 20
453.8566432895
 10
212.2732245636
 20
453.6553863438
 10
210.3885690023
 20
453.3254709096
 10
208.6492370155
 20
452.8750162573
 10
207.0980568689
 20
452.315118164
 10
205.7732244295
 20
451.6595602037
 10
204.7073602018
 20
450.9244877847
 10
203.9267107186
 20
450.1279983671
 10
203.4504966152
 20
449.2897037418
 10
203.2904451054
 20
448.430247605
  0
ARC
  5
F4
330
1F
100
AcDbEntity
  8
0
  6
Continuous
 62
     8
370
    18
100
AcDbCircle
 10
216.2904453737
 20
471.5255163612
 30
0.0
 40
33.75
100
AcDbArc
 50
180.0
 51
247.3447627351
  0
ARC
  5
F5
330
1F
100
AcDbEntity
  8
0
  6
Continuous
 62
     8
370
    18
100
AcDbCircle
 10
216.2904453737
 20
471.5255163612
 30
0.0
 40
33.75
100
AcDbArc
 50
292.6552372649
 51
180.0
  0
CIRCLE
  5
F6
330
1F
100
AcDbEntity
  8
0
  6
Continuous
 62
     8
370
    18
100
AcDbCircle
 10
326.2904453737
 20
471.5255163612
 30
0.0
 40
21.95999999999998
  0
ARC
  5
F7
330
1F
100
AcDbEntity
  8
0
  6
Continuous
 62
     8
370
    18
100
AcDbCircle
 10
326.290270348
 20
461.9942957613
 30
0.0
 40
14.4634817304243
100
AcDbArc
 50
249.7763010648
 51
290.0230833352
  0
LINE
  5
F8
330
1F
100
AcDbEntity
  8
0
  6
Continuous
 62
     8
370
    18
100
AcDbLine
 10
321.2904420954
 20
387.0255164804
 30
0.0
 11
331.2904474598
 21
387.0255164804
 31
0.0
  0
ARC
  5
F9
330
1F
100
AcDbEntity
  8
0
  6
Continuous
 62
     8
370
    18
100
AcDbCircle
 10
326.2904453737
 20
471.5255163612
 30
0.0
 40
33.75
100
AcDbArc
 50
180.0
 51
261.4803757459
  0
ARC
  5
FA
330
1F
100
AcDbEntity
  8
0
  6
Continuous
 62
     8
370
    18
100
AcDbCircle
 10
326.2904453737
 20
471.5255163612
 30
0.0
 40
33.75
100
AcDbArc
 50
278.5196242541
 51
180.0
  0
LINE
  5
FB
330
1F
100
AcDbEntity
  8
0
  6
Continuous
 62
     7
370
    25
100
AcDbLine
 10
251.040445016
 20
298.7772567005
 30
0.0
 11
251.040445016
 21
304.777257684
 31
0.0
  0
LINE
  5
FC
330
1F
100
AcDbEntity
  8
0
  6
Continuous
 62
     7
370
    25
100
AcDbLine
 10
181.5404457313
 20
304.777257684
 30
0.0
 11
181.5404457313
 21
298.7772567005
 31
0.0
  0
ARC
  5
FD
330
1F
100
AcDbEntity
  8
0
  6
Continuous
 62
     7
370
    25
100
AcDbCircle
 10
250.0404453737
 20
298.7772569091
 30
0.0
 40
1.0
100
AcDbArc
 50
270.0
 51
0.0
  0
ARC
  5
FE
330
1F
100
AcDbEntity
  8
0
  6
Continuous
 62
     7
370
    25
100
AcDbCircle
 10
182.5404453737
 20
298.7772569091
 30
0.0
 40
1.0
100
AcDbArc
 50
180.0
 51
270.0
  0
LINE
  5
FF
330
1F
100
AcDbEntity
  8
0
  6
Continuous
 62
     7
370
    25
100
AcDbLine
 10
203.2904451054
 20
297.7772565366
 30
0.0
 11
203.2904451054
 21
142.7772497566
 31
0.0
  0
LINE
  5
100
330
1F
100
AcDbEntity
  8
0
  6
Continuous
 62
     7
370
    25
100
AcDbLine
 10
229.2904456419
 20
142.7772497566
 30
0.0
 11
229.2904456419
 21
297.7772565366
 31
0.0
  0
LINE
  5
101
330
1F
100
AcDbEntity
  8
0
  6
Continuous
 62
     7
370
    25
100
AcDbLine
 10
203.2904451054
 20
142.7772497566
 30
0.0
 11
203.2904451054
 21
106.524944845
 31
0.0
  0
LINE
  5
102
330
1F
100
AcDbEntity
  8
0
  6
Continuous
 62
     7
370
    25
100
AcDbLine
 10
229.2904456419
 20
106.524944845
 30
0.0
 11
229.2904456419
 21
142.7772497566
 31
0.0
  0
LINE
  5
103
330
1F
100
AcDbEntity
  8
0
  6
Continuous
 62
     7
370
    25
100
AcDbLine
 10
229.2904456419
 20
98.6421411664
 30
0.0
 11
229.2904456419
 21
106.524944845
 31
0.0
  0
LINE
  5
104
330
1F
100
AcDbEntity
  8
0
  6
Continuous
 62
     7
370
    25
100
AcDbLine
 10
203.2904451054
 20
106.524944845
 30
0.0
 11
203.2904451054
 21
98.6421411664
 31
0.0
  0
LINE
  5
105
330
1F
100
AcDbEntity
  8
0
  6
Continuous
 62
     7
370
    25
100
AcDbLine
 10
361.04044442
 20
298.7772567005
 30
0.0
 11
361.04044442
 21
304.777257684
 31
0.0
  0
LINE
  5
106
330
1F
100
AcDbEntity
  8
0
  6
Continuous
 62
     7
370
    25
100
AcDbLine
 10
291.5404451352
 20
304.777257684
 30
0.0
 11
291.5404451352
 21
298.7772567005
 31
0.0
  0
ARC
  5
107
330
1F
100
AcDbEntity
  8
0
  6
Continuous
 62
     7
370
    25
100
AcDbCircle
 10
360.0404453737
 20
298.7772569091
 30
0.0
 40
1.0
100
AcDbArc
 50
270.0
 51
0.0
  0
ARC
  5
108
330
1F
100
AcDbEntity
  8
0
  6
Continuous
 62
     7
370
    25
100
AcDbCircle
 10
292.5404453737
 20
298.7772569091
 30
0.0
 40
1.0
100
AcDbArc
 50
180.0
 51
270.0
  0
LINE
  5
109
330
1F
100
AcDbEntity
  8
0
  6
Continuous
 62
     7
370
    25
100
AcDbLine
 10
348.8404465181
 20
278.8539757759
 30
0.0
 11
348.8404465181
 21
297.7772565366
 31
0.0
  0
LINE
  5
10A
330
1F
100
AcDbEntity
  8
0
  6
Continuous
 62
     7
370
    25
100
AcDbLine
 10
303.7404430372
 20
297.7772565366
 30
0.0
 11
303.7404430372
 21
278.8539757759
 31
0.0
  0
ARC
  5
10B
330
1F
100
AcDbEntity
  8
0
  6
Continuous
 62
     7
370
    25
100
AcDbCircle
 10
348.1404453737
 20
278.8539774874
 30
0.0
 40
0.6999999999999502
100
AcDbArc
 50
311.0
 51
0.0
  0
ARC
  5
10C
330
1F
100
AcDbEntity
  8
0
  6
Continuous
 62
     7
370
    25
100
AcDbCircle
 10
304.4404453737
 20
278.8539774874
 30
0.0
 40
0.7000000000000247
100
AcDbArc
 50
180.0
 51
229.0
  0
LINE
  5
10D
330
1F
100
AcDbEntity
  8
0
  6
Continuous
 62
     7
370
    25
100
AcDbLine
 10
303.7904438835
 20
270.7814467878
 30
0.0
 11
303.7904438835
 21
242.5361132057
 31
0.0
  0
LINE
  5
10E
330
1F
100
AcDbEntity
  8
0
  6
Continuous
 62
     7
370
    25
100
AcDbLine
 10
348.7904382211
 20
242.5361132057
 30
0.0
 11
348.7904382211
 21
270.7817932398
 31
0.0
  0
ARC
  5
10F
330
1F
100
AcDbEntity
  8
0
  6
Continuous
 62
     7
370
    25
100
AcDbCircle
 10
348.2504453737
 20
242.5361126489
 30
0.0
 40
0.5400000000000773
100
AcDbArc
 50
270.0
 51
0.0
  0
ARC
  5
110
330
1F
100
AcDbEntity
  8
0
  6
Continuous
 62
     7
370
    25
100
AcDbCircle
 10
304.3304453737
 20
242.5361126489
 30
0.0
 40
0.539999999999992
100
AcDbArc
 50
180.0
 51
270.0
  0
LINE
  5
111
330
1F
100
AcDbEntity
  8
0
  6
Continuous
 62
     7
370
    25
100
AcDbLine
 10
303.9812010986
 20
278.3256811829
 30
0.0
 11
304.0519592625
 21
278.26417664
 31
0.0
  0
LINE
  5
112
330
1F
100
AcDbEntity
  8
0
  6
Continuous
 62
     7
370
    25
100
AcDbLine
 10
348.5289377433
 20
278.26417664
 30
0.0
 11
348.5996884567
 21
278.3256811829
 31
0.0
  0
ARC
  5
113
330
1F
100
AcDbEntity
  8
0
  6
Continuous
 62
     7
370
    25
100
AcDbCircle
 10
348.9881759005
 20
277.7358802009
 30
0.0
 40
0.7000000000000439
100
AcDbArc
 50
131.0
 51
179.1898025957
  0
ARC
  5
114
330
1F
100
AcDbEntity
  8
0
  6
Continuous
 62
     7
370
    25
100
AcDbCircle
 10
303.5927148468
 20
277.7358802009
 30
0.0
 40
0.7000000000000247
100
AcDbArc
 50
0.8101974043
 51
49.0
  0
ARC
  5
115
330
1F
100
AcDbEntity
  8
0
  6
Continuous
 62
     7
370
    25
100
AcDbCircle
 10
326.2904453737
 20
278.0568614027
 30
0.0
 40
21.99999999999999
100
AcDbArc
 50
180.8101974043
 51
199.3472766677
  0
ARC
  5
116
330
1F
100
AcDbEntity
  8
0
  6
Continuous
 62
     7
370
    25
100
AcDbCircle
 10
326.2904453737
 20
278.0568614027
 30
0.0
 40
22.00000000000008
100
AcDbArc
 50
340.6548969759
 51
359.1898025957
  0
LINE
  5
117
330
1F
100
AcDbEntity
  8
0
  6
Continuous
 62
     7
370
    25
100
AcDbLine
 10
251.040445016
 20
304.777257684
 30
0.0
 11
181.5404457313
 21
304.777257684
 31
0.0
  0
LINE
  5
118
330
1F
100
AcDbEntity
  8
0
  6
Continuous
 62
     7
370
    25
100
AcDbLine
 10
250.0404467148
 20
297.7772565366
 30
0.0
 11
182.5404440326
 21
297.7772565366
 31
0.0
  0
LWPOLYLINE
  5
119
330
1F
100
AcDbEntity
  8
0
  6
Continuous
 62
     7
370
    25
100
AcDbPolyline
 90
       21
 70
   128
 43
0.0
 10
229.2904456419
 20
98.6421411664
 10
229.1303941321
 20
96.7990314395
 10
228.6541800287
 20
95.0012957485
 10
227.8735305455
 20
93.2932203443
 10
226.8076663178
 20
91.7168563039
 10
225.4828338784
 20
90.3110062511
 10
223.9316537318
 20
89.1103004844
 10
222.192321745
 20
88.1443029077
 10
220.3076661837
 20
87.4367957742
 10
218.3240934548
 20
87.0051985414
 10
216.2904453737
 20
86.8601357372
 10
214.2567972925
 20
87.0051985414
 10
212.2732245636
 20
87.4367957742
 10
210.3885690023
 20
88.1443029077
 10
208.6492370155
 20
89.1103004844
 10
207.0980568689
 20
90.3110062511
 10
205.7732244295
 20
91.7168563039
 10
204.7073602018
 20
93.2932203443
 10
203.9267107186
 20
95.0012957485
 10
203.4504966152
 20
96.7990314395
 10
203.2904451054
 20
98.6421411664
  0
LINE
  5
11A
330
1F
100
AcDbEntity
  8
0
  6
Continuous
 62
     7
370
    25
100
AcDbLine
 10
361.04044442
 20
304.777257684
 30
0.0
 11
291.5404451352
 21
304.777257684
 31
0.0
  0
LINE
  5
11B
330
1F
100
AcDbEntity
  8
0
  6
Continuous
 62
     7
370
    25
100
AcDbLine
 10
360.0404423934
 20
297.7772565366
 30
0.0
 11
292.5404471618
 21
297.7772565366
 31
0.0
  0
SPLINE
  5
11C
330
1F
100
AcDbEntity
  8
0
  6
Continuous
 62
     7
370
    25
100
AcDbSpline
210
0.0
220
0.0
230
1.0
 70
     8
 71
     3
 72
    12
 73
     8
 74
     0
 42
0.000000001
 43
0.00000001
 40
0.0
 40
0.0
 40
0.0
 40
0.0
 40
0.5000000000000001
 40
0.5000000000000001
 40
0.75
 40
0.75
 40
1.0
 40
1.0
 40
1.0
 40
1.0
 10
304.2106214097038
 20
270.2365002995501
 30
0.0
 10
303.9311494265551
 20
270.487901785263
 30
0.0
 10
303.7914100122837
 20
270.6776709054719
 30
0.0
 10
303.7899704504249
 20
270.8684191971141
 30
0.0
 10
303.8244239611276
 20
270.9163309276208
 30
0.0
 10
303.9659796294331
 20
270.9802961616623
 30
0.0
 10
304.0730884517008
 20
270.9961126489397
 30
0.0
 10
304.2158239337965
 20
270.9961126489398
 30
0.0
  0
ELLIPSE
  5
11D
330
1F
100
AcDbEntity
  8
0
  6
Continuous
 62
     7
370
    25
100
AcDbEllipse
 10
326.2904453737
 20
270.9996391886
 30
0.0
 11
22.50000000000006
 21
0.0
 31
0.0
210
0.0
220
0.0
230
1.0
 40
0.1763269807
 41
3.335153519723927
 42
6.089624441045605
  0
SPLINE
  5
11E
330
1F
100
AcDbEntity
  8
0
  6
Continuous
 62
     7
370
    25
100
AcDbSpline
210
0.0
220
0.0
230
1.0
 70
     8
 71
     3
 72
    12
 73
     8
 74
     0
 42
0.000000001
 43
0.00000001
 40
0.0
 40
0.0
 40
0.0
 40
0.0
 40
0.5
 40
0.5
 40
0.75
 40
0.75
 40
1.0
 40
1.0
 40
1.0
 40
1.0
 10
348.3650668135185
 20
270.9961126489398
 30
0.0
 10
348.6505536093674
 20
270.9961126489398
 30
0.0
 10
348.789875410817
 20
270.933385591331
 30
0.0
 10
348.7907277624033
 20
270.743673821114
 30
0.0
 10
348.7560685570418
 20
270.6644792306759
 30
0.0
 10
348.615722588235
 20
270.4736419022669
 30
0.0
 10
348.5100422142276
 20
270.3622342226714
 30
0.0
 10
348.3702693376111
 20
270.2365002995501
 30
0.0
  0
LINE
  5
11F
330
1F
100
AcDbEntity
  8
0
  6
Continuous
 62
     7
370
    25
100
AcDbLine
 10
348.2504499418
 20
241.9961100252
 30
0.0
 11
304.330447064
 21
241.9961100252
 31
0.0
  0
SPLINE
  5
120
330
1F
100
AcDbEntity
  8
0
  6
Continuous
 62
     7
370
    25
100
AcDbSpline
210
0.0
220
0.0
230
1.0
 70
     8
 71
     3
 72
     9
 73
     5
 74
     0
 42
0.000000001
 43
0.00000001
 40
0.0
 40
0.0
 40
0.0
 40
0.0
 40
0.317371427744645
 40
1.0
 40
1.0
 40
1.0
 40
1.0
 10
347.0018518430026
 20
270.7845425040626
 30
0.0
 10
347.0012893763061
 20
270.7485904138154
 30
0.0
 10
346.9995171099731
 20
270.6353096106167
 30
0.0
 10
346.6390267279386
 20
270.3982938662641
 30
0.0
 10
346.3929456931384
 20
270.2365001470947
 30
0.0
  0
LWPOLYLINE
  5
121
330
1F
100
AcDbEntity
  8
0
  6
Continuous
 62
     7
370
    25
100
AcDbPolyline
 90
       22
 70
   128
 43
0.0
 10
306.1879438621
 20
270.2365001471
 10
307.0344862801
 20
269.8134636314
 10
308.1749913555
 20
269.411784205
 10
309.5920619828
 20
269.0375974209
 10
311.2640542251
 20
268.696610424
 10
313.1654423934
 20
268.3940311701
 10
315.2672064763
 20
268.1344790192
 10
317.5372568232
 20
267.9219139547
 10
319.940933333
 20
267.7595881553
 10
322.4415418965
 20
267.6499714882
 10
325.0009131891
 20
267.5947403343
 10
327.5799763662
 20
267.5947403343
 10
330.1393476588
 20
267.6499714882
 10
332.6399562222
 20
267.7595881553
 10
335.0436401826
 20
267.9219139547
 10
337.3136830789
 20
268.1344790192
 10
339.4154471618
 20
268.3940311701
 10
341.3168353301
 20
268.696610424
 10
342.988835023
 20
269.0375974209
 10
344.4059056503
 20
269.411784205
 10
345.5464107257
 20
269.8134636314
 10
346.3929456931
 20
270.2365001471
  0
SPLINE
  5
122
330
1F
100
AcDbEntity
  8
0
  6
Continuous
 62
     7
370
    25
100
AcDbSpline
210
0.0
220
0.0
230
1.0
 70
     8
 71
     3
 72
     9
 73
     5
 74
     0
 42
0.000000001
 43
0.00000001
 40
0.0
 40
0.0
 40
0.0
 40
0.0
 40
0.6457407703657653
 40
1.0
 40
1.0
 40
1.0
 40
1.0
 10
306.1879438620837
 20
270.2365001470947
 30
0.0
 10
305.9552514125871
 20
270.3894087908168
 30
0.0
 10
305.5949017797697
 20
270.626204500085
 30
0.0
 10
305.583072043341
 20
270.7431752993433
 30
0.0
 10
305.578881250027
 20
270.7846132845783
 30
0.0
  0
LINE
  5
123
330
1F
100
AcDbEntity
  8
0
  6
Continuous
 62
     7
370
    25
100
AcDbLine
 10
347.8552115423
 20
270.996112916
 30
0.0
 11
348.3650696737
 21
270.996112916
 31
0.0
  0
LINE
  5
124
330
1F
100
AcDbEntity
  8
0
  6
Continuous
 62
     7
370
    25
100
AcDbLine
 10
347.1266043645
 20
270.996112916
 30
0.0
 11
347.8552115423
 21
270.996112916
 31
0.0
  0
LINE
  5
125
330
1F
100
AcDbEntity
  8
0
  6
Continuous
 62
     7
370
    25
100
AcDbLine
 10
304.2158273321
 20
270.996112916
 30
0.0
 11
304.7256854636
 21
270.996112916
 31
0.0
  0
LINE
  5
126
330
1F
100
AcDbEntity
  8
0
  6
Continuous
 62
     7
370
    25
100
AcDbLine
 10
304.7256854636
 20
270.996112916
 30
0.0
 11
305.4542777401
 21
270.996112916
 31
0.0
  0
LINE
  5
127
330
1F
100
AcDbEntity
  8
0
  6
Continuous
 62
     8
370
    18
100
AcDbLine
 10
251.040445016
 20
298.7772567005
 30
0.0
 11
181.5404457313
 21
298.7772567005
 31
0.0
  0
LINE
  5
128
330
1F
100
AcDbEntity
  8
0
  6
Continuous
 62
     8
370
    18
100
AcDbLine
 10
229.2904456419
 20
142.7772497566
 30
0.0
 11
203.2904451054
 21
142.7772497566
 31
0.0
  0
LWPOLYLINE
  5
129
330
1F
100
AcDbEntity
  8
0
  6
Continuous
 62
     8
370
    18
100
AcDbPolyline
 90
       21
 70
   128
 43
0.0
 10
229.2904456419
 20
106.524944845
 10
229.1303941321
 20
104.681835118
 10
228.6541800287
 20
102.884099427
 10
227.8735305455
 20
101.1760240228
 10
226.8076663178
 20
99.5996599824
 10
225.4828338784
 20
98.1938099296
 10
223.9316537318
 20
96.9931041629
 10
222.192321745
 20
96.0271065862
 10
220.3076661837
 20
95.3195994527
 10
218.3240934548
 20
94.8880022199
 10
216.2904453737
 20
94.7429394157
 10
214.2567972925
 20
94.8880022199
 10
212.2732245636
 20
95.3195994527
 10
210.3885690023
 20
96.0271065862
 10
208.6492370155
 20
96.9931041629
 10
207.0980568689
 20
98.1938099296
 10
205.7732244295
 20
99.5996599824
 10
204.7073602018
 20
101.1760240228
 10
203.9267107186
 20
102.884099427
 10
203.4504966152
 20
104.681835118
 10
203.2904451054
 20
106.524944845
  0
LINE
  5
12A
330
1F
100
AcDbEntity
  8
0
  6
Continuous
 62
     8
370
    18
100
AcDbLine
 10
361.04044442
 20
298.7772567005
 30
0.0
 11
291.5404451352
 21
298.7772567005
 31
0.0
  0
LINE
  5
12B
330
1F
100
AcDbEntity
  8
0
  6
Continuous
 62
     8
370
    18
100
AcDbLine
 10
322.5786027771
 20
278.8539757759
 30
0.0
 11
303.7404430372
 21
278.8539757759
 31
0.0
  0
LINE
  5
12C
330
1F
100
AcDbEntity
  8
0
  6
Continuous
 62
     8
370
    18
100
AcDbLine
 10
348.8404465181
 20
278.8539757759
 30
0.0
 11
322.5786027771
 21
278.8539757759
 31
0.0
  0
LINE
  5
12D
330
1F
100
AcDbEntity
  8
0
  6
Continuous
 62
     8
370
    18
100
AcDbLine
 10
322.6182398659
 20
278.3256811829
 30
0.0
 11
303.9812010986
 21
278.3256811829
 31
0.0
  0
LINE
  5
12E
330
1F
100
AcDbEntity
  8
0
  6
Continuous
 62
     8
370
    18
100
AcDbLine
 10
348.5996884567
 20
278.3256811829
 30
0.0
 11
322.6182398659
 21
278.3256811829
 31
0.0
  0
LINE
  5
12F
330
1F
100
AcDbEntity
  8
0
  6
Continuous
 62
     8
370
    18
100
AcDbLine
 10
303.7904438835
 20
242.5361132057
 30
0.0
 11
348.7904382211
 21
242.5361132057
 31
0.0
  0
LINE
  5
130
330
1F
100
AcDbEntity
  8
0
  6
Continuous
 62
     8
370
    18
100
AcDbLine
 10
348.3702701789
 20
270.2365001471
 30
0.0
 11
347.7270019513
 21
270.2365001471
 31
0.0
  0
LINE
  5
131
330
1F
100
AcDbEntity
  8
0
  6
Continuous
 62
     8
370
    18
100
AcDbLine
 10
304.8538801533
 20
270.2365001471
 30
0.0
 11
304.2106193763
 21
270.2365001471
 31
0.0
  0
ELLIPSE
  5
132
330
1F
100
AcDbEntity
  8
0
  6
Continuous
 62
     8
370
    18
100
AcDbEllipse
 10
326.2904453737
 20
271.116614566
 30
0.0
 11
22.01000000000005
 21
5.684341886080801E-14
 31
0.0
210
0.0
220
0.0
230
1.0
 40
0.1763269807
 41
3.370360504152846
 42
6.054417456616657
  0
LINE
  5
133
330
1F
100
AcDbEntity
  8
0
  6
Continuous
 62
     8
370
    18
100
AcDbLine
 10
322.6298851234
 20
278.26417664
 30
0.0
 11
304.0519592625
 21
278.26417664
 31
0.0
  0
LINE
  5
134
330
1F
100
AcDbEntity
  8
0
  6
Continuous
 62
     8
370
    18
100
AcDbLine
 10
348.5289377433
 20
278.26417664
 30
0.0
 11
322.6298851234
 21
278.26417664
 31
0.0
  0
LINE
  5
135
330
1F
100
AcDbEntity
  8
0
  6
Continuous
 62
     8
370
    18
100
AcDbLine
 10
322.6694998604
 20
277.7457801433
 30
0.0
 11
304.2926428181
 21
277.7457801433
 31
0.0
  0
LINE
  5
136
330
1F
100
AcDbEntity
  8
0
  6
Continuous
 62
     8
370
    18
100
AcDbLine
 10
348.2882392865
 20
277.7457801433
 30
0.0
 11
322.6694998604
 21
277.7457801433
 31
0.0
  0
LINE
  5
137
330
1F
100
AcDbEntity
  8
0
  6
Continuous
 62
     8
370
    18
100
AcDbLine
 10
347.7270019513
 20
270.2365001471
 30
0.0
 11
346.3929456931
 21
270.2365001471
 31
0.0
  0
LINE
  5
138
330
1F
100
AcDbEntity
  8
0
  6
Continuous
 62
     8
370
    18
100
AcDbLine
 10
306.1879438621
 20
270.2365001471
 30
0.0
 11
304.8538801533
 21
270.2365001471
 31
0.0
  0
SPLINE
  5
139
330
1F
100
AcDbEntity
  8
0
  6
Continuous
 62
     8
370
    18
100
AcDbSpline
210
0.0
220
0.0
230
1.0
 70
     8
 71
     3
 72
     8
 73
     4
 74
     0
 42
0.000000001
 43
0.00000001
 40
0.0
 40
0.0
 40
0.0
 40
0.0
 40
1.0
 40
1.0
 40
1.0
 40
1.0
 10
347.8552062513759
 20
270.9961126489398
 30
0.0
 10
348.0983959235576
 20
270.9961126489398
 30
0.0
 10
348.239383032834
 20
270.9526576034256
 30
0.0
 10
348.2789653950009
 20
270.8631624794348
 30
0.0
  0
SPLINE
  5
13A
330
1F
100
AcDbEntity
  8
0
  6
Continuous
 62
     8
370
    18
100
AcDbSpline
210
0.0
220
0.0
230
1.0
 70
     8
 71
     3
 72
     8
 73
     4
 74
     0
 42
0.000000001
 43
0.00000001
 40
0.0
 40
0.0
 40
0.0
 40
0.0
 40
1.0
 40
1.0
 40
1.0
 40
1.0
 10
348.257578557994
 20
270.7390061942417
 30
0.0
 10
348.1809042920232
 20
270.6141197306608
 30
0.0
 10
348.0031140315965
 20
270.4455876617339
 30
0.0
 10
347.7270091197558
 20
270.2365002995501
 30
0.0
  0
SPLINE
  5
13B
330
1F
100
AcDbEntity
  8
0
  6
Continuous
 62
     8
370
    18
100
AcDbSpline
210
0.0
220
0.0
230
1.0
 70
     8
 71
     3
 72
     8
 73
     4
 74
     0
 42
0.000000001
 43
0.00000001
 40
0.0
 40
0.0
 40
0.0
 40
0.0
 40
1.0
 40
1.0
 40
1.0
 40
1.0
 10
348.2789653950009
 20
270.8631624794348
 30
0.0
 10
348.294295038745
 20
270.8285023860873
 30
0.0
 10
348.2871104225046
 20
270.7871074714431
 30
0.0
 10
348.257578557994
 20
270.7390061942416
 30
0.0
  0
SPLINE
  5
13C
330
1F
100
AcDbEntity
  8
0
  6
Continuous
 62
     8
370
    18
100
AcDbSpline
210
0.0
220
0.0
230
1.0
 70
     8
 71
     3
 72
     8
 73
     4
 74
     0
 42
0.000000001
 43
0.00000001
 40
0.0
 40
0.0
 40
0.0
 40
0.0
 40
1.0
 40
1.0
 40
1.0
 40
1.0
 10
304.3019253523141
 20
270.8631624794348
 30
0.0
 10
304.341507714481
 20
270.9526576034256
 30
0.0
 10
304.4824948237574
 20
270.9961126489398
 30
0.0
 10
304.7256844959392
 20
270.9961126489398
 30
0.0
  0
SPLINE
  5
13D
330
1F
100
AcDbEntity
  8
0
  6
Continuous
 62
     8
370
    18
100
AcDbSpline
210
0.0
220
0.0
230
1.0
 70
     8
 71
     3
 72
     8
 73
     4
 74
     0
 42
0.000000001
 43
0.00000001
 40
0.0
 40
0.0
 40
0.0
 40
0.0
 40
1.0
 40
1.0
 40
1.0
 40
1.0
 10
304.323312189321
 20
270.7390061942417
 30
0.0
 10
304.2937803248104
 20
270.7871074714431
 30
0.0
 10
304.28659570857
 20
270.8285023860874
 30
0.0
 10
304.3019253523141
 20
270.8631624794348
 30
0.0
  0
SPLINE
  5
13E
330
1F
100
AcDbEntity
  8
0
  6
Continuous
 62
     8
370
    18
100
AcDbSpline
210
0.0
220
0.0
230
1.0
 70
     8
 71
     3
 72
     8
 73
     4
 74
     0
 42
0.000000001
 43
0.00000001
 40
0.0
 40
0.0
 40
0.0
 40
0.0
 40
1.0
 40
1.0
 40
1.0
 40
1.0
 10
304.8538816275591
 20
270.2365002995501
 30
0.0
 10
304.5777767157185
 20
270.445587661734
 30
0.0
 10
304.3999864552918
 20
270.6141197306608
 30
0.0
 10
304.323312189321
 20
270.7390061942417
 30
0.0
  0
ENDSEC
  0
SECTION
  2
OBJECTS
  0
DICTIONARY
  5
C
330
0
100
AcDbDictionary
281
     1
  3
ACAD_GROUP
350
D
  3
ACAD_LAYOUT
350
1A
  3
ACAD_MLINESTYLE
350
17
  3
ACAD_PLOTSETTINGS
350
19
  3
ACAD_PLOTSTYLENAME
350
E
  3
ACAD_SCALELIST
350
47
  0
DICTIONARY
  5
D
102
{ACAD_REACTORS
330
C
102
}
330
C
100
AcDbDictionary
281
     1
  0
DICTIONARY
  5
1A
102
{ACAD_REACTORS
330
C
102
}
330
C
100
AcDbDictionary
281
     1
  3
Layout1
350
1E
  3
Layout2
350
26
  3
Model
350
22
  0
DICTIONARY
  5
17
102
{ACAD_REACTORS
330
C
102
}
330
C
100
AcDbDictionary
281
     1
  3
Standard
350
18
  0
DICTIONARY
  5
19
102
{ACAD_REACTORS
330
C
102
}
330
C
100
AcDbDictionary
281
     1
  0
ACDBDICTIONARYWDFLT
  5
E
102
{ACAD_REACTORS
330
C
102
}
330
C
100
AcDbDictionary
281
     1
  3
Normal
350
F
100
AcDbDictionaryWithDefault
340
F
  0
DICTIONARY
  5
47
102
{ACAD_REACTORS
330
C
102
}
330
C
100
AcDbDictionary
281
     1
  3
A0
350
48
  3
A1
350
49
  3
A2
350
4A
  3
A3
350
4B
  3
A4
350
4C
  3
A5
350
4D
  3
A6
350
4E
  3
A7
350
4F
  3
A8
350
50
  3
A9
350
51
  3
B0
350
52
  3
B1
350
53
  3
B2
350
54
  3
B3
350
55
  3
B4
350
56
  3
B5
350
57
  3
B6
350
58
  3
B7
350
59
  3
B8
350
5A
  3
B9
350
5B
  3
C0
350
5C
  3
C1
350
5D
  3
C2
350
5E
  3
C3
350
5F
  3
C4
350
60
  3
C5
350
61
  3
C6
350
62
  3
C7
350
63
  3
C8
350
64
  3
C9
350
65
  3
D0
350
66
  3
D1
350
67
  3
D2
350
68
  0
LAYOUT
  5
1E
102
{ACAD_REACTORS
330
1A
102
}
330
1A
100
AcDbPlotSettings
  1

  2
none_device
  4

  6

 40
0.0
 41
0.0
 42
0.0
 43
0.0
 44
0.0
 45
0.0
 46
0.0
 47
0.0
 48
0.0
 49
0.0
140
0.0
141
0.0
142
1.0
143
1.0
 70
   688
 72
     1
 73
     0
 74
     5
  7

 75
    16
147
1.0
148
0.0
149
0.0
100
AcDbLayout
  1
Layout1
 70
     1
 71
     1
 10
0.0
 20
0.0
 11
420.0
 21
297.0
 12
0.0
 22
0.0
 32
0.0
 14
1.0000000000E+20
 24
1.0000000000E+20
 34
1.0000000000E+20
 15
-1.0000000000E+20
 25
-1.0000000000E+20
 35
-1.0000000000E+20
146
0.0
 13
0.0
 23
0.0
 33
0.0
 16
1.0
 26
0.0
 36
0.0
 17
0.0
 27
1.0
 37
0.0
 76
     0
330
1B
  0
LAYOUT
  5
26
102
{ACAD_REACTORS
330
1A
102
}
330
1A
100
AcDbPlotSettings
  1

  2
none_device
  4

  6

 40
0.0
 41
0.0
 42
0.0
 43
0.0
 44
0.0
 45
0.0
 46
0.0
 47
0.0
 48
0.0
 49
0.0
140
0.0
141
0.0
142
1.0
143
1.0
 70
   688
 72
     1
 73
     0
 74
     5
  7

 75
    16
147
1.0
148
0.0
149
0.0
100
AcDbLayout
  1
Layout2
 70
     1
 71
     2
 10
0.0
 20
0.0
 11
0.0
 21
0.0
 12
0.0
 22
0.0
 32
0.0
 14
0.0
 24
0.0
 34
0.0
 15
0.0
 25
0.0
 35
0.0
146
0.0
 13
0.0
 23
0.0
 33
0.0
 16
1.0
 26
0.0
 36
0.0
 17
0.0
 27
1.0
 37
0.0
 76
     0
330
23
  0
LAYOUT
  5
22
102
{ACAD_REACTORS
330
1A
102
}
330
1A
100
AcDbPlotSettings
  1

  2
none_device
  4
Letter_(8.50_x_11.00_Inches)
  6

 40
6.35
 41
6.35
 42
6.35000508
 43
6.35000508
 44
215.9
 45
279.4
 46
0.0
 47
0.0
 48
0.0
 49
0.0
140
0.0
141
0.0
142
1.0
143
1.0
 70
  1712
 72
     1
 73
     0
 74
     0
  7

 75
     0
147
1.0
148
0.0
149
0.0
100
AcDbLayout
  1
Model
 70
     1
 71
     0
 10
0.0
 20
0.0
 11
841.0
 21
594.0
 12
0.0
 22
0.0
 32
0.0
 14
0.0
 24
0.0
 34
0.0
 15
841.0
 25
594.0
 35
0.0
146
0.0
 13
0.0
 23
0.0
 33
0.0
 16
1.0
 26
0.0
 36
0.0
 17
0.0
 27
1.0
 37
0.0
 76
     0
330
1F
331
29
  0
MLINESTYLE
  5
18
102
{ACAD_REACTORS
330
17
102
}
330
17
100
AcDbMlineStyle
  2
Standard
 70
     0
  3

 62
   256
 51
90.0
 52
90.0
 71
     2
 49
0.5
 62
   256
  6
BYLAYER
 49
-0.5
 62
   256
  6
BYLAYER
  0
ACDBPLACEHOLDER
  5
F
102
{ACAD_REACTORS
330
E
102
}
330
E
  0
SCALE
  5
48
102
{ACAD_REACTORS
330
47
102
}
330
47
100
AcDbScale
 70
     0
300
1:1
140
1.0
141
1.0
290
     1
  0
SCALE
  5
49
102
{ACAD_REACTORS
330
47
102
}
330
47
100
AcDbScale
 70
     0
300
1:2
140
1.0
141
2.0
290
     0
  0
SCALE
  5
4A
102
{ACAD_REACTORS
330
47
102
}
330
47
100
AcDbScale
 70
     0
300
1:4
140
1.0
141
4.0
290
     0
  0
SCALE
  5
4B
102
{ACAD_REACTORS
330
47
102
}
330
47
100
AcDbScale
 70
     0
300
1:5
140
1.0
141
5.0
290
     0
  0
SCALE
  5
4C
102
{ACAD_REACTORS
330
47
102
}
330
47
100
AcDbScale
 70
     0
300
1:8
140
1.0
141
8.0
290
     0
  0
SCALE
  5
4D
102
{ACAD_REACTORS
330
47
102
}
330
47
100
AcDbScale
 70
     0
300
1:10
140
1.0
141
10.0
290
     0
  0
SCALE
  5
4E
102
{ACAD_REACTORS
330
47
102
}
330
47
100
AcDbScale
 70
     0
300
1:16
140
1.0
141
16.0
290
     0
  0
SCALE
  5
4F
102
{ACAD_REACTORS
330
47
102
}
330
47
100
AcDbScale
 70
     0
300
1:20
140
1.0
141
20.0
290
     0
  0
SCALE
  5
50
102
{ACAD_REACTORS
330
47
102
}
330
47
100
AcDbScale
 70
     0
300
1:30
140
1.0
141
30.0
290
     0
  0
SCALE
  5
51
102
{ACAD_REACTORS
330
47
102
}
330
47
100
AcDbScale
 70
     0
300
1:40
140
1.0
141
40.0
290
     0
  0
SCALE
  5
52
102
{ACAD_REACTORS
330
47
102
}
330
47
100
AcDbScale
 70
     0
300
1:50
140
1.0
141
50.0
290
     0
  0
SCALE
  5
53
102
{ACAD_REACTORS
330
47
102
}
330
47
100
AcDbScale
 70
     0
300
1:100
140
1.0
141
100.0
290
     0
  0
SCALE
  5
54
102
{ACAD_REACTORS
330
47
102
}
330
47
100
AcDbScale
 70
     0
300
2:1
140
2.0
141
1.0
290
     0
  0
SCALE
  5
55
102
{ACAD_REACTORS
330
47
102
}
330
47
100
AcDbScale
 70
     0
300
4:1
140
4.0
141
1.0
290
     0
  0
SCALE
  5
56
102
{ACAD_REACTORS
330
47
102
}
330
47
100
AcDbScale
 70
     0
300
8:1
140
8.0
141
1.0
290
     0
  0
SCALE
  5
57
102
{ACAD_REACTORS
330
47
102
}
330
47
100
AcDbScale
 70
     0
300
10:1
140
10.0
141
1.0
290
     0
  0
SCALE
  5
58
102
{ACAD_REACTORS
330
47
102
}
330
47
100
AcDbScale
 70
     0
300
100:1
140
100.0
141
1.0
290
     0
  0
SCALE
  5
59
102
{ACAD_REACTORS
330
47
102
}
330
47
100
AcDbScale
 70
     0
300
1/128" = 1'-0"
140
0.0078125
141
12.0
290
     0
  0
SCALE
  5
5A
102
{ACAD_REACTORS
330
47
102
}
330
47
100
AcDbScale
 70
     0
300
1/64" = 1'-0"
140
0.015625
141
12.0
290
     0
  0
SCALE
  5
5B
102
{ACAD_REACTORS
330
47
102
}
330
47
100
AcDbScale
 70
     0
300
1/32" = 1'-0"
140
0.03125
141
12.0
290
     0
  0
SCALE
  5
5C
102
{ACAD_REACTORS
330
47
102
}
330
47
100
AcDbScale
 70
     0
300
1/16" = 1'-0"
140
0.0625
141
12.0
290
     0
  0
SCALE
  5
5D
102
{ACAD_REACTORS
330
47
102
}
330
47
100
AcDbScale
 70
     0
300
3/32" = 1'-0"
140
0.09375
141
12.0
290
     0
  0
SCALE
  5
5E
102
{ACAD_REACTORS
330
47
102
}
330
47
100
AcDbScale
 70
     0
300
1/8" = 1'-0"
140
0.125
141
12.0
290
     0
  0
SCALE
  5
5F
102
{ACAD_REACTORS
330
47
102
}
330
47
100
AcDbScale
 70
     0
300
3/16" = 1'-0"
140
0.1875
141
12.0
290
     0
  0
SCALE
  5
60
102
{ACAD_REACTORS
330
47
102
}
330
47
100
AcDbScale
 70
     0
300
1/4" = 1'-0"
140
0.25
141
12.0
290
     0
  0
SCALE
  5
61
102
{ACAD_REACTORS
330
47
102
}
330
47
100
AcDbScale
 70
     0
300
3/8" = 1'-0"
140
0.375
141
12.0
290
     0
  0
SCALE
  5
62
102
{ACAD_REACTORS
330
47
102
}
330
47
100
AcDbScale
 70
     0
300
1/2" = 1'-0"
140
0.5
141
12.0
290
     0
  0
SCALE
  5
63
102
{ACAD_REACTORS
330
47
102
}
330
47
100
AcDbScale
 70
     0
300
3/4" = 1'-0"
140
0.75
141
12.0
290
     0
  0
SCALE
  5
64
102
{ACAD_REACTORS
330
47
102
}
330
47
100
AcDbScale
 70
     0
300
1" = 1'-0"
140
1.0
141
12.0
290
     0
  0
SCALE
  5
65
102
{ACAD_REACTORS
330
47
102
}
330
47
100
AcDbScale
 70
     0
300
1-1/2" = 1'-0"
140
1.5
141
12.0
290
     0
  0
SCALE
  5
66
102
{ACAD_REACTORS
330
47
102
}
330
47
100
AcDbScale
 70
     0
300
3" = 1'-0"
140
3.0
141
12.0
290
     0
  0
SCALE
  5
67
102
{ACAD_REACTORS
330
47
102
}
330
47
100
AcDbScale
 70
     0
300
6" = 1'-0"
140
6.0
141
12.0
290
     0
  0
SCALE
  5
68
102
{ACAD_REACTORS
330
47
102
}
330
47
100
AcDbScale
 70
     0
300
1'-0" = 1'-0"
140
12.0
141
12.0
290
     0
  0
ENDSEC
  0
EOF
