  0
SECTION
  2
HEADER
  9
$ACADVER
  1
AC1024
  9
$ACADMAINTVER
 70
     6
  9
$DWGCODEPAGE
  3
ANSI_1252
  9
$INSBASE
 10
0.0
 20
0.0
 30
0.0
  9
$EXTMIN
 10
0.0
 20
0.0
 30
0.0
  9
$EXTMAX
 10
594.0
 20
841.0
 30
0.0
  9
$LIMMIN
 10
0.0
 20
0.0
  9
$LIMMAX
 10
594.0
 20
841.0
  9
$ORTHOMODE
 70
     0
  9
$REGENMODE
 70
     1
  9
$FILLMODE
 70
     1
  9
$QTEXTMODE
 70
     0
  9
$MIRRTEXT
 70
     1
  9
$LTSCALE
 40
1.0
  9
$ATTMODE
 70
     1
  9
$TEXTSIZE
 40
10.0
  9
$TRACEWID
 40
1.0
  9
$TEXTSTYLE
  7
Standard
  9
$CLAYER
  8
0
  9
$CELTYPE
  6
ByLayer
  9
$CECOLOR
 62
   256
  9
$CELTSCALE
 40
1.0
  9
$DISPSILH
 70
     0
  9
$DIMSCALE
 40
1.0
  9
$DIMASZ
 40
2.5
  9
$DIMEXO
 40
0.0
  9
$DIMDLI
 40
3.75
  9
$DIMRND
 40
0.0
  9
$DIMDLE
 40
0.0
  9
$DIMEXE
 40
1.0
  9
$DIMTP
 40
0.0
  9
$DIMTM
 40
0.0
  9
$DIMTXT
 40
3.5
  9
$DIMCEN
 40
2.5
  9
$DIMTSZ
 40
0.0
  9
$DIMTOL
 70
     0
  9
$DIMLIM
 70
     0
  9
$DIMTIH
 70
     1
  9
$DIMTOH
 70
     1
  9
$DIMSE1
 70
     0
  9
$DIMSE2
 70
     0
  9
$DIMTAD
 70
     1
  9
$DIMZIN
 70
     0
  9
$DIMBLK
  1

  9
$DIMASO
 70
     1
  9
$DIMSHO
 70
     1
  9
$DIMPOST
  1

  9
$DIMAPOST
  1

  9
$DIMALT
 70
     0
  9
$DIMALTD
 70
     3
  9
$DIMALTF
 40
0.0393700787
  9
$DIMLFAC
 40
1.0
  9
$DIMTOFL
 70
     1
  9
$DIMTVP
 40
0.0
  9
$DIMTIX
 70
     0
  9
$DIMSOXD
 70
     0
  9
$DIMSAH
 70
     0
  9
$DIMBLK1
  1

  9
$DIMBLK2
  1

  9
$DIMSTYLE
  2
ISO-25
  9
$DIMCLRD
 70
     0
  9
$DIMCLRE
 70
     0
  9
$DIMCLRT
 70
     0
  9
$DIMTFAC
 40
1.0
  9
$DIMGAP
 40
1.5
  9
$DIMJUST
 70
     0
  9
$DIMSD1
 70
     0
  9
$DIMSD2
 70
     0
  9
$DIMTOLJ
 70
     0
  9
$DIMTZIN
 70
     0
  9
$DIMALTZ
 70
     0
  9
$DIMALTTZ
 70
     0
  9
$DIMUPT
 70
     0
  9
$DIMDEC
 70
     2
  9
$DIMTDEC
 70
     2
  9
$DIMALTU
 70
     2
  9
$DIMALTTD
 70
     3
  9
$DIMTXSTY
  7
Standard
  9
$DIMAUNIT
 70
     0
  9
$DIMADEC
 70
     2
  9
$DIMALTRND
 40
0.0
  9
$DIMAZIN
 70
     0
  9
$DIMDSEP
 70
    44
  9
$DIMATFIT
 70
     3
  9
$DIMFRAC
 70
     0
  9
$DIMLDRBLK
  1

  9
$DIMLUNIT
 70
     2
  9
$DIMLWD
 70
    -2
  9
$DIMLWE
 70
    -2
  9
$DIMTMOVE
 70
     0
  9
$DIMFXL
 40
1.0
  9
$DIMFXLON
 70
     0
  9
$DIMJOGANG
 40
0.7853981634
  9
$DIMTFILL
 70
     0
  9
$DIMTFILLCLR
 70
     0
  9
$DIMARCSYM
 70
     0
  9
$DIMLTYPE
  6

  9
$DIMLTEX1
  6

  9
$DIMLTEX2
  6

  9
$DIMTXTDIRECTION
 70
     0
  9
$LUNITS
 70
     2
  9
$LUPREC
 70
     2
  9
$SKETCHINC
 40
1.0
  9
$FILLETRAD
 40
10.0
  9
$AUNITS
 70
     0
  9
$AUPREC
 70
     2
  9
$MENU
  1
.
  9
$ELEVATION
 40
0.0
  9
$PELEVATION
 40
0.0
  9
$THICKNESS
 40
0.0
  9
$LIMCHECK
 70
     0
  9
$CHAMFERA
 40
10.0
  9
$CHAMFERB
 40
10.0
  9
$CHAMFERC
 40
20.0
  9
$CHAMFERD
 40
0.0
  9
$SKPOLY
 70
     0
  9
$TDCREATE
 40
2456175.261985058
  9
$TDUCREATE
 40
2456175.178651724
  9
$TDUPDATE
 40
2456175.26198507
  9
$TDUUPDATE
 40
2456175.178651736
  9
$TDINDWG
 40
0.0000000116
  9
$TDUSRTIMER
 40
0.0000000116
  9
$USRTIMER
 70
     1
  9
$ANGBASE
 50
0.0
  9
$ANGDIR
 70
     0
  9
$PDMODE
 70
     0
  9
$PDSIZE
 40
-1.0
  9
$PLINEWID
 40
0.0
  9
$SPLFRAME
 70
     0
  9
$SPLINETYPE
 70
     6
  9
$SPLINESEGS
 70
     8
  9
$HANDSEED
  5
1FE
  9
$SURFTAB1
 70
     6
  9
$SURFTAB2
 70
     6
  9
$SURFTYPE
 70
     6
  9
$SURFU
 70
     6
  9
$SURFV
 70
     6
  9
$UCSBASE
  2

  9
$UCSNAME
  2

  9
$UCSORG
 10
0.0
 20
0.0
 30
0.0
  9
$UCSXDIR
 10
1.0
 20
0.0
 30
0.0
  9
$UCSYDIR
 10
0.0
 20
1.0
 30
0.0
  9
$UCSORTHOREF
  2

  9
$UCSORTHOVIEW
 70
     0
  9
$UCSORGTOP
 10
0.0
 20
0.0
 30
0.0
  9
$UCSORGBOTTOM
 10
0.0
 20
0.0
 30
0.0
  9
$UCSORGLEFT
 10
0.0
 20
0.0
 30
0.0
  9
$UCSORGRIGHT
 10
0.0
 20
0.0
 30
0.0
  9
$UCSORGFRONT
 10
0.0
 20
0.0
 30
0.0
  9
$UCSORGBACK
 10
0.0
 20
0.0
 30
0.0
  9
$PUCSBASE
  2

  9
$PUCSNAME
  2

  9
$PUCSORG
 10
0.0
 20
0.0
 30
0.0
  9
$PUCSXDIR
 10
1.0
 20
0.0
 30
0.0
  9
$PUCSYDIR
 10
0.0
 20
1.0
 30
0.0
  9
$PUCSORTHOREF
  2

  9
$PUCSORTHOVIEW
 70
     0
  9
$PUCSORGTOP
 10
0.0
 20
0.0
 30
0.0
  9
$PUCSORGBOTTOM
 10
0.0
 20
0.0
 30
0.0
  9
$PUCSORGLEFT
 10
0.0
 20
0.0
 30
0.0
  9
$PUCSORGRIGHT
 10
0.0
 20
0.0
 30
0.0
  9
$PUCSORGFRONT
 10
0.0
 20
0.0
 30
0.0
  9
$PUCSORGBACK
 10
0.0
 20
0.0
 30
0.0
  9
$USERI1
 70
     0
  9
$USERI2
 70
     0
  9
$USERI3
 70
     0
  9
$USERI4
 70
     0
  9
$USERI5
 70
     0
  9
$USERR1
 40
0.0
  9
$USERR2
 40
0.0
  9
$USERR3
 40
0.0
  9
$USERR4
 40
0.0
  9
$USERR5
 40
0.0
  9
$WORLDVIEW
 70
     1
  9
$SHADEDGE
 70
     3
  9
$SHADEDIF
 70
    70
  9
$TILEMODE
 70
     1
  9
$MAXACTVP
 70
    64
  9
$PINSBASE
 10
0.0
 20
0.0
 30
0.0
  9
$PLIMCHECK
 70
     0
  9
$PEXTMIN
 10
1.0000000000E+20
 20
1.0000000000E+20
 30
1.0000000000E+20
  9
$PEXTMAX
 10
-1.0000000000E+20
 20
-1.0000000000E+20
 30
-1.0000000000E+20
  9
$PLIMMIN
 10
0.0
 20
0.0
  9
$PLIMMAX
 10
420.0
 20
297.0
  9
$UNITMODE
 70
     0
  9
$VISRETAIN
 70
     1
  9
$PLINEGEN
 70
     0
  9
$PSLTSCALE
 70
     1
  9
$TREEDEPTH
 70
  3020
  9
$CMLSTYLE
  2
Standard
  9
$CMLJUST
 70
     0
  9
$CMLSCALE
 40
20.0
  9
$PROXYGRAPHICS
 70
     1
  9
$MEASUREMENT
 70
     1
  9
$CELWEIGHT
370
    -1
  9
$ENDCAPS
280
     0
  9
$JOINSTYLE
280
     0
  9
$LWDISPLAY
290
     1
  9
$INSUNITS
 70
     4
  9
$HYPERLINKBASE
  1

  9
$STYLESHEET
  1

  9
$XEDIT
290
     1
  9
$CEPSNTYPE
380
     0
  9
$PSTYLEMODE
290
     1
  9
$FINGERPRINTGUID
  2
{FC2F4EB1-7C3E-40AF-8FBE-387FE59BFD72}
  9
$VERSIONGUID
  2
{FAEB1C32-E019-11D5-929B-00C0DF256EC4}
  9
$EXTNAMES
290
     1
  9
$PSVPSCALE
 40
0.0
  9
$OLESTARTUP
290
     0
  9
$SORTENTS
280
   127
  9
$INDEXCTL
280
     0
  9
$HIDETEXT
280
     1
  9
$XCLIPFRAME
280
     2
  9
$HALOGAP
280
     0
  9
$OBSCOLOR
 70
   257
  9
$OBSLTYPE
280
     0
  9
$INTERSECTIONDISPLAY
280
     0
  9
$INTERSECTIONCOLOR
 70
   257
  9
$DIMASSOC
280
     2
  9
$PROJECTNAME
  1

  9
$CAMERADISPLAY
290
     0
  9
$LENSLENGTH
 40
50.0
  9
$CAMERAHEIGHT
 40
0.0
  9
$STEPSPERSEC
 40
2.0
  9
$STEPSIZE
 40
6.0
  9
$3DDWFPREC
 40
2.0
  9
$PSOLWIDTH
 40
5.0
  9
$PSOLHEIGHT
 40
80.0
  9
$LOFTANG1
 40
1.5707963268
  9
$LOFTANG2
 40
1.5707963268
  9
$LOFTMAG1
 40
0.0
  9
$LOFTMAG2
 40
0.0
  9
$LOFTPARAM
 70
     7
  9
$LOFTNORMALS
280
     1
  9
$LATITUDE
 40
37.795
  9
$LONGITUDE
 40
-122.394
  9
$NORTHDIRECTION
 40
0.0
  9
$TIMEZONE
 70
 -8000
  9
$LIGHTGLYPHDISPLAY
280
     1
  9
$TILEMODELIGHTSYNCH
280
     1
  9
$SOLIDHIST
280
     1
  9
$SHOWHIST
280
     1
  9
$DWFFRAME
280
     2
  9
$DGNFRAME
280
     2
  9
$REALWORLDSCALE
290
     1
  9
$INTERFERECOLOR
 62
   256
  9
$CSHADOW
280
     0
  9
$SHADOWPLANELOCATION
 40
0.0
  0
ENDSEC
  0
SECTION
  2
CLASSES
  0
CLASS
  1
ACDBDICTIONARYWDFLT
  2
AcDbDictionaryWithDefault
  3
ObjectDBX Classes
 90
        0
 91
        4
280
     0
281
     0
  0
CLASS
  1
VISUALSTYLE
  2
AcDbVisualStyle
  3
ObjectDBX Classes
 90
     4095
 91
        4
280
     0
281
     0
  0
CLASS
  1
MATERIAL
  2
AcDbMaterial
  3
ObjectDBX Classes
 90
     1153
 91
        4
280
     0
281
     0
  0
ENDSEC
  0
SECTION
  2
TABLES
  0
TABLE
  2
VPORT
  5
8
330
0
100
AcDbSymbolTable
 70
     1
  0
VPORT
  5
29
330
8
100
AcDbSymbolTableRecord
100
AcDbViewportTableRecord
  2
*Active
 70
     0
 10
0.0
 20
0.0
 11
1.0
 21
1.0
 12
297.0
 22
420.5
 13
0.0
 23
0.0
 14
10.0
 24
10.0
 15
10.0
 25
10.0
 16
0.0
 26
0.0
 36
1.0
 17
0.0
 27
0.0
 37
0.0
 40
841.0
 41
0.7063020214
 42
50.0
 43
0.0
 44
0.0
 50
0.0
 51
0.0
 71
     0
 72
  2000
 73
     1
 74
     3
 75
     0
 76
     0
 77
     0
 78
     0
281
     0
 65
     1
110
0.0
120
0.0
130
0.0
111
1.0
121
0.0
131
0.0
112
0.0
122
1.0
132
0.0
 79
     0
146
0.0
 60
     3
 61
     5
292
     1
282
     1
141
0.0
142
0.0
 63
   250
  0
ENDTAB
  0
TABLE
  2
LTYPE
  5
5
330
0
100
AcDbSymbolTable
 70
     6
  0
LTYPE
  5
14
330
5
100
AcDbSymbolTableRecord
100
AcDbLinetypeTableRecord
  2
ByBlock
 70
     0
  3

 72
    65
 73
     0
 40
0.0
  0
LTYPE
  5
15
330
5
100
AcDbSymbolTableRecord
100
AcDbLinetypeTableRecord
  2
ByLayer
 70
     0
  3

 72
    65
 73
     0
 40
0.0
  0
LTYPE
  5
16
330
5
100
AcDbSymbolTableRecord
100
AcDbLinetypeTableRecord
  2
Continuous
 70
     0
  3
Solid line
 72
    65
 73
     0
 40
0.0
  0
LTYPE
  5
3F
330
5
100
AcDbSymbolTableRecord
100
AcDbLinetypeTableRecord
  2
HIDDEN
 70
     0
  3
Hidden __ __ __ __ __ __ __ __ __ __ __ __ __ __
 72
    65
 73
     2
 40
1.905
 49
1.27
 74
     0
 49
-0.635
 74
     0
  0
LTYPE
  5
40
330
5
100
AcDbSymbolTableRecord
100
AcDbLinetypeTableRecord
  2
PHANTOM
 70
     0
  3
Phantom ______  __  __  ______  __  __  ______
 72
    65
 73
     6
 40
12.7
 49
6.35
 74
     0
 49
-1.27
 74
     0
 49
1.27
 74
     0
 49
-1.27
 74
     0
 49
1.27
 74
     0
 49
-1.27
 74
     0
  0
LTYPE
  5
41
330
5
100
AcDbSymbolTableRecord
100
AcDbLinetypeTableRecord
  2
CENTER
 70
     0
  3
Center ____ _ ____ _ ____ _ ____ _ ____ _ ____
 72
    65
 73
     4
 40
10.16
 49
6.35
 74
     0
 49
-1.27
 74
     0
 49
1.27
 74
     0
 49
-1.27
 74
     0
  0
LTYPE
  5
42
330
5
100
AcDbSymbolTableRecord
100
AcDbLinetypeTableRecord
  2
CENTERX2
 70
     0
  3
Center (2x) ________  __  ________  __  _____
 72
    65
 73
     4
 40
20.32
 49
12.7
 74
     0
 49
-2.54
 74
     0
 49
2.54
 74
     0
 49
-2.54
 74
     0
  0
LTYPE
  5
43
330
5
100
AcDbSymbolTableRecord
100
AcDbLinetypeTableRecord
  2
DOT2
 70
     0
  3
Dot (.5x) ........................................
 72
    65
 73
     2
 40
0.635
 49
0.0
 74
     0
 49
-0.635
 74
     0
  0
ENDTAB
  0
TABLE
  2
LAYER
  5
2
330
0
100
AcDbSymbolTable
 70
     1
  0
LAYER
  5
10
330
2
100
AcDbSymbolTableRecord
100
AcDbLayerTableRecord
  2
0
 70
     0
 62
     7
  6
Continuous
370
    -3
390
F
347
3E
  0
ENDTAB
  0
TABLE
  2
STYLE
  5
3
330
0
100
AcDbSymbolTable
 70
     3
  0
STYLE
  5
11
330
3
100
AcDbSymbolTableRecord
100
AcDbTextStyleTableRecord
  2
Standard
 70
     0
 40
0.0
 41
1.0
 50
0.0
 71
     0
 42
2.5
  3
txt
  4

  0
STYLE
  5
48
330
3
100
AcDbSymbolTableRecord
100
AcDbTextStyleTableRecord
  2
SLDTEXTSTYLE0
 70
     0
 40
0.0
 41
0.96
 50
0.0
 71
     0
 42
0.2
  3
ISOCP3
  4

  0
STYLE
  5
5F
330
3
100
AcDbSymbolTableRecord
100
AcDbTextStyleTableRecord
  2
SLDTEXTSTYLE1
 70
     0
 40
0.0
 41
0.605
 50
0.0
 71
     0
 42
0.2
  3
TXT
  4

  0
ENDTAB
  0
TABLE
  2
VIEW
  5
6
330
0
100
AcDbSymbolTable
 70
     0
  0
ENDTAB
  0
TABLE
  2
UCS
  5
7
330
0
100
AcDbSymbolTable
 70
     0
  0
ENDTAB
  0
TABLE
  2
APPID
  5
9
330
0
100
AcDbSymbolTable
 70
     1
  0
APPID
  5
12
330
9
100
AcDbSymbolTableRecord
100
AcDbRegAppTableRecord
  2
ACAD
 70
     0
  0
ENDTAB
  0
TABLE
  2
DIMSTYLE
  5
A
330
0
100
AcDbSymbolTable
 70
     2
100
AcDbDimStyleTable
  0
DIMSTYLE
105
27
330
A
100
AcDbSymbolTableRecord
100
AcDbDimStyleTableRecord
  2
ISO-25
 70
     0
 41
2.5
 42
0.625
 43
3.75
 44
1.25
 73
     0
 74
     0
 77
     1
 78
     8
140
2.5
141
2.5
143
0.0393700787
147
0.625
171
     3
172
     1
178
     0
271
     2
272
     2
274
     3
278
    44
283
     0
284
     8
340
11
  0
DIMSTYLE
105
49
102
{ACAD_REACTORS
330
47
330
54
102
}
330
A
100
AcDbSymbolTableRecord
100
AcDbDimStyleTableRecord
  2
SLDDIMSTYLE0
 70
     0
 41
2.5
 44
0.0
 45
0.000000001
 73
     0
 74
     0
 77
     1
 78
    12
 79
     3
140
6.0
147
1.5
173
     1
178
     0
271
     2
272
     2
276
     2
284
    12
340
48
  0
ENDTAB
  0
TABLE
  2
BLOCK_RECORD
  5
1
330
0
100
AcDbSymbolTable
 70
     3
  0
BLOCK_RECORD
  5
1F
330
1
100
AcDbSymbolTableRecord
100
AcDbBlockTableRecord
  2
*Model_Space
340
22
 70
     0
280
     1
281
     0
  0
BLOCK_RECORD
  5
1B
330
1
100
AcDbSymbolTableRecord
100
AcDbBlockTableRecord
  2
*Paper_Space
340
1E
 70
     0
280
     1
281
     0
  0
BLOCK_RECORD
  5
23
330
1
100
AcDbSymbolTableRecord
100
AcDbBlockTableRecord
  2
*Paper_Space0
340
26
 70
     0
280
     1
281
     0
  0
BLOCK_RECORD
  5
4A
330
1
100
AcDbSymbolTableRecord
100
AcDbBlockTableRecord
  2
*D1
340
0
 70
     0
280
     1
281
     0
  0
BLOCK_RECORD
  5
55
330
1
100
AcDbSymbolTableRecord
100
AcDbBlockTableRecord
  2
*D2
340
0
 70
     0
280
     1
281
     0
  0
ENDTAB
  0
ENDSEC
  0
SECTION
  2
BLOCKS
  0
BLOCK
  5
20
330
1F
100
AcDbEntity
  8
0
100
AcDbBlockBegin
  2
*Model_Space
 70
     0
 10
0.0
 20
0.0
 30
0.0
  3
*Model_Space
  1

  0
ENDBLK
  5
21
330
1F
100
AcDbEntity
  8
0
100
AcDbBlockEnd
  0
BLOCK
  5
1C
330
1B
100
AcDbEntity
 67
     1
  8
0
100
AcDbBlockBegin
  2
*Paper_Space
 70
     0
 10
0.0
 20
0.0
 30
0.0
  3
*Paper_Space
  1

  0
ENDBLK
  5
1D
330
1B
100
AcDbEntity
 67
     1
  8
0
100
AcDbBlockEnd
  0
BLOCK
  5
24
330
23
100
AcDbEntity
  8
0
100
AcDbBlockBegin
  2
*Paper_Space0
 70
     0
 10
0.0
 20
0.0
 30
0.0
  3
*Paper_Space0
  1

  0
ENDBLK
  5
25
330
23
100
AcDbEntity
  8
0
100
AcDbBlockEnd
  0
BLOCK
  5
4B
330
4A
100
AcDbEntity
  8
0
100
AcDbBlockBegin
  2
*D1
 70
     1
 10
0.0
 20
0.0
 30
0.0
  3
*D1
  1

  0
SOLID
  5
4D
330
4A
100
AcDbEntity
  8
0
  6
Continuous
 62
     7
370
     0
100
AcDbTrace
 10
42.7614395004
 20
152.0299240879
 30
0.0
 11
42.4614395004
 21
149.5299240879
 31
0.0
 12
43.0614395004
 22
149.5299240879
 32
0.0
 13
43.0614395004
 23
149.5299240879
 33
0.0
  0
SOLID
  5
4E
330
4A
100
AcDbEntity
  8
0
  6
Continuous
 62
     7
370
     0
100
AcDbTrace
 10
42.7614395004
 20
52.0299240879
 30
0.0
 11
43.0614395004
 21
54.5299240879
 31
0.0
 12
42.4614395004
 22
54.5299240879
 32
0.0
 13
42.4614395004
 23
54.5299240879
 33
0.0
  0
LINE
  5
4F
330
4A
100
AcDbEntity
  8
0
  6
Continuous
 62
     7
370
     0
100
AcDbLine
 10
56.6850079902
 20
152.0299240879
 30
0.0
 11
41.7614395004
 21
152.0299240879
 31
0.0
  0
LINE
  5
50
330
4A
100
AcDbEntity
  8
0
  6
Continuous
 62
     7
370
     0
100
AcDbLine
 10
56.6850079902
 20
52.0299240879
 30
0.0
 11
41.7614395004
 21
52.0299240879
 31
0.0
  0
LINE
  5
51
330
4A
100
AcDbEntity
  8
0
  6
Continuous
 62
     7
370
     0
100
AcDbLine
 10
42.7614395004
 20
152.0299240879
 30
0.0
 11
42.7614395004
 21
52.0299240879
 31
0.0
  0
MTEXT
  5
52
330
4A
100
AcDbEntity
  8
0
  6
Continuous
 62
     7
370
     0
100
AcDbMText
 10
35.0270332946
 20
91.6722208134
 30
0.1
 40
6.0
 41
0.0
 46
0.0
 71
     1
 72
     1
  1
100
  7
SLDTEXTSTYLE0
 11
-7.044195017643634E-15
 21
1.0
 31
0.0
 73
     1
 44
1.0
  0
MTEXT
  5
53
330
4A
100
AcDbEntity
  8
0
  6
Continuous
 62
     7
370
     0
100
AcDbMText
 10
35.0270332946
 20
108.4388881795
 30
0.1
 40
6.0
 41
0.0
 46
0.0
 71
     1
 72
     1
  1
mm
  7
SLDTEXTSTYLE0
 11
-7.044195017643634E-15
 21
1.0
 31
0.0
 73
     1
 44
1.0
  0
ENDBLK
  5
4C
330
4A
100
AcDbEntity
  8
0
100
AcDbBlockEnd
  0
BLOCK
  5
56
330
55
100
AcDbEntity
  8
0
100
AcDbBlockBegin
  2
*D2
 70
     1
 10
0.0
 20
0.0
 30
0.0
  3
*D2
  1

  0
SOLID
  5
58
330
55
100
AcDbEntity
  8
0
  6
Continuous
 62
     7
370
     0
100
AcDbTrace
 10
56.6850079902
 20
38.4602342313
 30
0.0
 11
59.1850079902
 21
38.1602342313
 31
0.0
 12
59.1850079902
 22
38.7602342313
 32
0.0
 13
59.1850079902
 23
38.7602342313
 33
0.0
  0
SOLID
  5
59
330
55
100
AcDbEntity
  8
0
  6
Continuous
 62
     7
370
     0
100
AcDbTrace
 10
156.6850079902
 20
38.4602342313
 30
0.0
 11
154.1850079902
 21
38.7602342313
 31
0.0
 12
154.1850079902
 22
38.1602342313
 32
0.0
 13
154.1850079902
 23
38.1602342313
 33
0.0
  0
LINE
  5
5A
330
55
100
AcDbEntity
  8
0
  6
Continuous
 62
     7
370
     0
100
AcDbLine
 10
56.6850079902
 20
52.0299240879
 30
0.0
 11
56.6850079902
 21
37.4602342313
 31
0.0
  0
LINE
  5
5B
330
55
100
AcDbEntity
  8
0
  6
Continuous
 62
     7
370
     0
100
AcDbLine
 10
156.6850079902
 20
52.0299240879
 30
0.0
 11
156.6850079902
 21
37.4602342313
 31
0.0
  0
LINE
  5
5C
330
55
100
AcDbEntity
  8
0
  6
Continuous
 62
     7
370
     0
100
AcDbLine
 10
56.6850079902
 20
38.4602342313
 30
0.0
 11
156.6850079902
 21
38.4602342313
 31
0.0
  0
MTEXT
  5
5D
330
55
100
AcDbEntity
  8
0
  6
Continuous
 62
     7
370
     0
100
AcDbMText
 10
91.2668151533
 20
46.1946404371
 30
0.1
 40
6.0
 41
0.0
 46
0.0
 71
     1
 72
     1
  1
100
  7
SLDTEXTSTYLE0
 73
     1
 44
1.0
  0
MTEXT
  5
5E
330
55
100
AcDbEntity
  8
0
  6
Continuous
 62
     7
370
     0
100
AcDbMText
 10
108.0334825193
 20
46.1946404371
 30
0.1
 40
6.0
 41
0.0
 46
0.0
 71
     1
 72
     1
  1
mm
  7
SLDTEXTSTYLE0
 73
     1
 44
1.0
  0
ENDBLK
  5
57
330
55
100
AcDbEntity
  8
0
100
AcDbBlockEnd
  0
ENDSEC
  0
SECTION
  2
ENTITIES
  0
LINE
  5
44
330
1F
100
AcDbEntity
  8
0
  6
Continuous
 62
     7
370
    15
100
AcDbLine
 10
401.6044051506
 20
489.6032133325
 30
0.0
 11
402.3005681306
 21
494.9049547942
 31
0.0
  0
LINE
  5
45
330
1F
100
AcDbEntity
  8
0
  6
Continuous
 62
     7
370
     0
100
AcDbLine
 10
56.6850079902
 20
152.0299240879
 30
0.0
 11
56.6850079902
 21
52.0299240879
 31
0.0
  0
LINE
  5
46
330
1F
100
AcDbEntity
  8
0
  6
Continuous
 62
     7
370
     0
100
AcDbLine
 10
56.6850079902
 20
52.0299240879
 30
0.0
 11
156.6850079902
 21
52.0299240879
 31
0.0
  0
DIMENSION
  5
47
330
1F
100
AcDbEntity
  8
0
  6
Continuous
 62
     7
370
     0
100
AcDbDimension
280
     0
  2
*D1
 10
42.7614395004
 20
52.0299240879
 30
0.0
 11
42.7614395004
 21
105.4472211621
 31
0.0
 70
   160
  1
<>mm
 71
     2
 42
-1.0
 73
     0
 74
     0
 75
     0
  3
SLDDIMSTYLE0
100
AcDbAlignedDimension
 13
56.6850079902
 23
152.0299240879
 33
0.0
 14
56.6850079902
 24
52.0299240879
 34
0.0
 50
90.0
100
AcDbRotatedDimension
  0
DIMENSION
  5
54
330
1F
100
AcDbEntity
  8
0
  6
Continuous
 62
     7
370
     0
100
AcDbDimension
280
     0
  2
*D2
 10
156.6850079902
 20
38.4602342313
 30
0.0
 11
105.0418155019
 21
38.4602342313
 31
0.0
 70
   160
  1
<>mm
 71
     2
 42
-1.0
 73
     0
 74
     0
 75
     0
  3
SLDDIMSTYLE0
100
AcDbAlignedDimension
 13
56.6850079902
 23
52.0299240879
 33
0.0
 14
156.6850079902
 24
52.0299240879
 34
0.0
100
AcDbRotatedDimension
  0
MTEXT
  5
60
330
1F
100
AcDbEntity
  8
0
  6
Continuous
 62
     7
370
     0
100
AcDbMText
 10
268.2830093517
 20
48.3576784789
 30
0.0
 40
10.0
 41
0.0
 46
0.0
 71
     1
 72
     1
  1
42 857 05 78
  7
SLDTEXTSTYLE1
 73
     1
 44
1.0
  0
MTEXT
  5
61
330
1F
100
AcDbEntity
  8
0
  6
Continuous
 62
     7
370
     0
100
AcDbMText
 10
412.8252631579
 20
48.4342449499
 30
0.0
 40
10.0
 41
0.0
 46
0.0
 71
     1
 72
     1
  1
KLUDI GmbH & Co KG
  7
SLDTEXTSTYLE1
 73
     1
 44
1.0
  0
LINE
  5
62
330
1F
100
AcDbEntity
  8
0
  6
Continuous
 62
     7
370
    15
100
AcDbLine
 10
190.0484783935
 20
622.8956143837
 30
0.0
 11
190.0484783935
 21
623.8833765599
 31
0.0
  0
LINE
  5
63
330
1F
100
AcDbEntity
  8
0
  6
Continuous
 62
     7
370
    15
100
AcDbLine
 10
167.9824783935
 20
623.8833765599
 30
0.0
 11
167.9824783935
 21
622.8956143837
 31
0.0
  0
LINE
  5
64
330
1F
100
AcDbEntity
  8
0
  6
Continuous
 62
     7
370
    15
100
AcDbLine
 10
190.0484783935
 20
623.8833765599
 30
0.0
 11
190.0484783935
 21
666.3571501396
 31
0.0
  0
LINE
  5
65
330
1F
100
AcDbEntity
  8
0
  6
Continuous
 62
     7
370
    15
100
AcDbLine
 10
167.9824783935
 20
666.3571501396
 30
0.0
 11
167.9824783935
 21
623.8833765599
 31
0.0
  0
ARC
  5
66
330
1F
100
AcDbEntity
  8
0
  6
Continuous
 62
     7
370
    15
100
AcDbCircle
 10
179.0154783935
 20
753.3843923086
 30
0.0
 40
11.03300000000002
100
AcDbArc
 50
0.0
 51
180.0
  0
LINE
  5
67
330
1F
100
AcDbEntity
  8
0
  6
Continuous
 62
     7
370
    15
100
AcDbLine
 10
167.9824783935
 20
753.3843923086
 30
0.0
 11
167.9824783935
 21
666.3571501396
 31
0.0
  0
LINE
  5
68
330
1F
100
AcDbEntity
  8
0
  6
Continuous
 62
     7
370
    15
100
AcDbLine
 10
190.0484783935
 20
666.3571501396
 30
0.0
 11
190.0484783935
 21
753.3843923086
 31
0.0
  0
SPLINE
  5
69
330
1F
100
AcDbEntity
  8
0
  6
Continuous
 62
     7
370
    15
100
AcDbSpline
210
0.0
220
0.0
230
1.0
 70
     8
 71
     3
 72
     9
 73
     5
 74
     0
 42
0.00000001
 43
0.00000001
 40
0.0
 40
0.0
 40
0.0
 40
0.0
 40
0.482869827844518
 40
1.0
 40
1.0
 40
1.0
 40
1.0
 10
147.9643950127507
 20
549.5807227550079
 30
0.0
 10
147.7642444054196
 20
549.526558341445
 30
0.0
 10
147.34974220257
 20
549.4143864672885
 30
0.0
 10
146.9445127467587
 20
549.2722776690538
 30
0.0
 10
146.7349563685126
 20
549.1987889217577
 30
0.0
  0
SPLINE
  5
6A
330
1F
100
AcDbEntity
  8
0
  6
Continuous
 62
     7
370
    15
100
AcDbSpline
210
0.0
220
0.0
230
1.0
 70
     8
 71
     3
 72
     9
 73
     5
 74
     0
 42
0.00000001
 43
0.00000001
 40
0.0
 40
0.0
 40
0.0
 40
0.0
 40
0.5003005011051326
 40
0.9999999999999999
 40
0.9999999999999999
 40
0.9999999999999999
 40
0.9999999999999999
 10
146.7349550795619
 20
549.19878845262
 30
0.0
 10
146.5271173851474
 20
549.1202592667349
 30
0.0
 10
146.1116916680927
 20
548.9632952306974
 30
0.0
 10
145.7088275275036
 20
548.7764356348285
 30
0.0
 10
145.5075165183286
 20
548.6830619884093
 30
0.0
  0
SPLINE
  5
6B
330
1F
100
AcDbEntity
  8
0
  6
Continuous
 62
     7
370
    15
100
AcDbSpline
210
0.0
220
0.0
230
1.0
 70
     8
 71
     3
 72
    22
 73
    18
 74
     0
 42
0.00000001
 43
0.00000001
 40
0.0
 40
0.0
 40
0.0
 40
0.0
 40
0.0112186577227026
 40
0.0199649595529639
 40
0.0352710946418375
 40
0.061799052024833
 40
0.1067298978369765
 40
0.1797371530833095
 40
0.3147329036663429
 40
0.3829975190173693
 40
0.4353385670439711
 40
0.4785616252759032
 40
0.5190148293953247
 40
0.5687283138911604
 40
0.6913143596144432
 40
0.8427801133304
 40
0.9999999999999999
 40
0.9999999999999999
 40
0.9999999999999999
 40
0.9999999999999999
 10
188.4158143674328
 20
481.575248849753
 30
0.0
 10
188.3313911893613
 20
481.6131915070087
 30
0.0
 10
188.1811499236776
 20
481.6807150589492
 30
0.0
 10
187.9158207175467
 20
481.7989674840782
 30
0.0
 10
187.5348830093987
 20
481.9672314760917
 30
0.0
 10
186.8813660777927
 20
482.2517982843436
 30
0.0
 10
185.7941042276785
 20
482.7155903224892
 30
0.0
 10
183.9003888359951
 20
483.5052354971709
 30
0.0
 10
181.8704478851975
 20
484.3525450209489
 30
0.0
 10
180.0536315472397
 20
485.1796391701973
 30
0.0
 10
178.9129211744635
 20
485.7412656237133
 30
0.0
 10
177.9988019382891
 20
486.2307551438786
 30
0.0
 10
177.3541911679725
 20
486.5954944687599
 30
0.0
 10
176.5235038603671
 20
487.0899331135968
 30
0.0
 10
175.5623739767878
 20
487.7379522869899
 30
0.0
 10
174.5775217581864
 20
488.5614968742672
 30
0.0
 10
174.0926601062425
 20
489.1373294047475
 30
0.0
 10
173.8457101869854
 20
489.4306126461374
 30
0.0
  0
SPLINE
  5
6C
330
1F
100
AcDbEntity
  8
0
  6
Continuous
 62
     7
370
    15
100
AcDbSpline
210
0.0
220
0.0
230
1.0
 70
     8
 71
     3
 72
    20
 73
    16
 74
     0
 42
0.00000001
 43
0.00000001
 40
0.0
 40
0.0
 40
0.0
 40
0.0
 40
0.1572313424336614
 40
0.3086976174632699
 40
0.4312840850991312
 40
0.4809977406965709
 40
0.5214510840470112
 40
0.5646742910374719
 40
0.6170155190749306
 40
0.68528036905809
 40
0.8202765835080099
 40
0.9147736805701845
 40
0.961214065177636
 40
0.9826753976156747
 40
1.0
 40
1.0
 40
1.0
 40
1.0
 10
164.3849806135723
 20
485.9872852840418
 30
0.0
 10
164.3843241389165
 20
485.6038547361695
 30
0.0
 10
164.3830352600008
 20
484.8510525609876
 30
0.0
 10
164.1579514905572
 20
483.587100351741
 30
0.0
 10
163.8382185096697
 20
482.4728871166591
 30
0.0
 10
163.5196915691812
 20
481.5601704635763
 30
0.0
 10
163.2603391133609
 20
480.8664170689941
 30
0.0
 10
162.8747178845378
 20
479.9038619805473
 30
0.0
 10
162.36188807199
 20
478.7404028393124
 30
0.0
 10
161.5017546740016
 20
476.9389552526869
 30
0.0
 10
160.4128536623479
 20
474.8332956356207
 30
0.0
 10
159.3817503099652
 20
472.841135847974
 30
0.0
 10
158.784080431455
 20
471.6501977393615
 30
0.0
 10
158.4744564293146
 20
471.0207008511983
 30
0.0
 10
158.3351442605033
 20
470.7327841396404
 30
0.0
 10
158.2729173748293
 20
470.6041797223332
 30
0.0
  0
LINE
  5
6D
330
1F
100
AcDbEntity
  8
0
  6
Continuous
 62
     7
370
    15
100
AcDbLine
 10
203.0874783934
 20
390.2983923079
 30
0.0
 11
203.0874783934
 21
492.4042934371
 31
0.0
  0
LINE
  5
6E
330
1F
100
AcDbEntity
  8
0
  6
Continuous
 62
     7
370
    15
100
AcDbLine
 10
154.9434783937
 20
492.4042934371
 30
0.0
 11
154.9434783937
 21
390.2983923079
 31
0.0
  0
ARC
  5
6F
330
1F
100
AcDbEntity
  8
0
  6
Continuous
 62
     7
370
    15
100
AcDbCircle
 10
202.8868783703
 20
492.4042938079
 30
0.0
 40
0.2006000231938588
100
AcDbArc
 50
359.9998940873
 51
89.9999966786
  0
ARC
  5
70
330
1F
100
AcDbEntity
  8
0
  6
Continuous
 62
     7
370
    15
100
AcDbCircle
 10
155.1440784168
 20
492.4042938079
 30
0.0
 40
0.2006000231938873
100
AcDbArc
 50
90.0000033214
 51
180.0001059127
  0
LINE
  5
71
330
1F
100
AcDbEntity
  8
0
  6
Continuous
 62
     7
370
    15
100
AcDbLine
 10
154.9434783935
 20
501.3482085721
 30
0.0
 11
154.9434783935
 21
492.8054938079
 31
0.0
  0
LINE
  5
72
330
1F
100
AcDbEntity
  8
0
  6
Continuous
 62
     7
370
    15
100
AcDbLine
 10
203.0874783935
 20
492.8054938079
 30
0.0
 11
203.0874783935
 21
501.3482085721
 31
0.0
  0
ARC
  5
73
330
1F
100
AcDbEntity
  8
0
  6
Continuous
 62
     7
370
    15
100
AcDbCircle
 10
162.4659783935
 20
501.3482085721
 30
0.0
 40
7.522500000000008
100
AcDbArc
 50
129.1033187148
 51
180.0
  0
ARC
  5
74
330
1F
100
AcDbEntity
  8
0
  6
Continuous
 62
     7
370
    15
100
AcDbCircle
 10
195.5649783935
 20
501.3482085721
 30
0.0
 40
7.522500000000008
100
AcDbArc
 50
0.0
 51
53.53076561
  0
ARC
  5
75
330
1F
100
AcDbEntity
  8
0
  6
Continuous
 62
     7
370
    15
100
AcDbCircle
 10
155.1440783935
 20
492.8054938079
 30
0.0
 40
0.2006000000000085
100
AcDbArc
 50
180.0
 51
270.0
  0
ARC
  5
76
330
1F
100
AcDbEntity
  8
0
  6
Continuous
 62
     7
370
    15
100
AcDbCircle
 10
202.8868783935
 20
492.8054938079
 30
0.0
 40
0.2006000000000085
100
AcDbArc
 50
270.0
 51
0.0
  0
LINE
  5
77
330
1F
100
AcDbEntity
  8
0
  6
Continuous
 62
     7
370
    15
100
AcDbLine
 10
200.0362851505
 20
507.3976235962
 30
0.0
 11
191.6858448815
 21
513.5696881429
 31
0.0
  0
LINE
  5
78
330
1F
100
AcDbEntity
  8
0
  6
Continuous
 62
     7
370
    15
100
AcDbLine
 10
166.3451119055
 20
513.5696881429
 30
0.0
 11
164.4753214844
 21
512.187669136
 31
0.0
  0
ARC
  5
79
330
1F
100
AcDbEntity
  8
0
  6
Continuous
 62
     7
370
    15
100
AcDbCircle
 10
166.6431990226
 20
513.1663938079
 30
0.0
 40
0.5014999999998508
100
AcDbArc
 50
90.0
 51
126.46923439
  0
ARC
  5
7A
330
1F
100
AcDbEntity
  8
0
  6
Continuous
 62
     7
370
    15
100
AcDbCircle
 10
191.3877577644
 20
513.1663938079
 30
0.0
 40
0.5014999999998602
100
AcDbArc
 50
53.5307656099
 51
90.0
  0
LINE
  5
7B
330
1F
100
AcDbEntity
  8
0
  6
Continuous
 62
     7
370
    15
100
AcDbLine
 10
191.0013283953
 20
513.6678938079
 30
0.0
 11
191.0013283954
 21
513.8684938087
 31
0.0
  0
LINE
  5
7C
330
1F
100
AcDbEntity
  8
0
  6
Continuous
 62
     7
370
    15
100
AcDbLine
 10
167.0296283954
 20
513.8684938108
 30
0.0
 11
167.0296283953
 21
513.6678938079
 31
0.0
  0
LINE
  5
7D
330
1F
100
AcDbEntity
  8
0
  6
Continuous
 62
     7
370
    15
100
AcDbLine
 10
167.9824783935
 20
622.8956143837
 30
0.0
 11
167.9824783935
 21
513.8684938107
 31
0.0
  0
LINE
  5
7E
330
1F
100
AcDbEntity
  8
0
  6
Continuous
 62
     7
370
    15
100
AcDbLine
 10
190.0484783935
 20
513.8684938088
 30
0.0
 11
190.0484783935
 21
622.8956143837
 31
0.0
  0
LWPOLYLINE
  5
7F
330
1F
100
AcDbEntity
  8
0
  6
Continuous
 62
     7
370
    15
100
AcDbPolyline
 90
       36
 70
   128
 43
0.0
 10
190.0484783935
 20
622.8956143837
 10
189.8711735445
 20
623.2377044576
 10
189.3449577213
 20
623.5687994751
 10
188.4867439333
 20
623.8782577698
 10
187.3241158779
 20
624.1561330976
 10
185.8944413774
 20
624.3934943168
 10
184.2436713466
 20
624.5827124424
 10
182.4248628925
 20
624.7177058483
 10
180.4964740153
 20
624.7941357353
 10
178.5204847203
 20
624.809545584
 10
176.5604049292
 20
624.7634401091
 10
174.6792332193
 20
624.6573011785
 10
172.9374319972
 20
624.4945401848
 10
171.3909841872
 20
624.2803884003
 10
170.0895938946
 20
624.0217288394
 10
169.0750888739
 20
623.7268750334
 10
168.3800761515
 20
623.4053038262
 10
168.0268940079
 20
623.0673507809
 10
168.0268940079
 20
622.7238779864
 10
168.3800761515
 20
622.3859249411
 10
169.0750888739
 20
622.0643537339
 10
170.0895938946
 20
621.7694999279
 10
171.3909841872
 20
621.5108403671
 10
172.9374319972
 20
621.2966885825
 10
174.6792332193
 20
621.1339275888
 10
176.5604049292
 20
621.0277886583
 10
178.5204847203
 20
620.9816831833
 10
180.4964740153
 20
620.997093032
 10
182.4248628925
 20
621.073522919
 10
184.2436713466
 20
621.2085163249
 10
185.8944413774
 20
621.3977344506
 10
187.3241158779
 20
621.6350956697
 10
188.4867439333
 20
621.9129709975
 10
189.3449577213
 20
622.2224292923
 10
189.8711735445
 20
622.5535243097
 10
190.0484783935
 20
622.8956143837
  0
SPLINE
  5
80
330
1F
100
AcDbEntity
  8
0
  6
Continuous
 62
     7
370
    15
100
AcDbSpline
210
0.0
220
0.0
230
1.0
 70
     8
 71
     3
 72
    26
 73
    22
 74
     0
 42
0.00000001
 43
0.00000001
 40
0.0
 40
0.0
 40
0.0
 40
0.0
 40
0.1249999999999994
 40
0.1249999999999994
 40
0.2499999999999988
 40
0.2499999999999988
 40
0.3124999999999983
 40
0.3124999999999983
 40
0.3437499999999981
 40
0.3437499999999981
 40
0.3749999999999979
 40
0.3749999999999979
 40
0.4999999999999983
 40
0.4999999999999983
 40
0.6249999999999987
 40
0.6249999999999987
 40
0.7499999999999991
 40
0.7499999999999991
 40
0.8749999999999994
 40
0.8749999999999994
 40
1.0
 40
1.0
 40
1.0
 40
1.0
 10
170.2869966753077
 20
496.220152698139
 30
0.0
 10
170.6359669888673
 20
495.261425443753
 30
0.0
 10
171.0151565454508
 20
494.3129814311755
 30
0.0
 10
171.8712073997636
 20
492.4591469875378
 30
0.0
 10
172.3471850991143
 20
491.5567183961134
 30
0.0
 10
173.1749659762746
 20
490.2842911787523
 30
0.0
 10
173.4704634699338
 20
489.8732701091711
 30
0.0
 10
173.9499861915652
 20
489.2810626944706
 30
0.0
 10
174.1158426752439
 20
489.087692922254
 30
0.0
 10
174.4604862501678
 20
488.7096174575435
 30
0.0
 10
174.6398163085901
 20
488.5244730627407
 30
0.0
 10
175.5570459841461
 20
487.6344173908451
 30
0.0
 10
176.3665403996145
 20
487.0298439721003
 30
0.0
 10
178.095681379856
 20
485.9768760221591
 30
0.0
 10
179.0159375578053
 20
485.524829251566
 30
0.0
 10
180.8781527037331
 20
484.6928460694641
 30
0.0
 10
181.8232080912749
 20
484.3098608963682
 30
0.0
 10
183.7150328789844
 20
483.5478647118879
 30
0.0
 10
184.6620905511961
 20
483.16951267045
 30
0.0
 10
186.5467974835323
 20
482.3907357233546
 30
0.0
 10
187.4842014975181
 20
481.9908278543875
 30
0.0
 10
188.4158143673855
 20
481.5752488497242
 30
0.0
  0
SPLINE
  5
81
330
1F
100
AcDbEntity
  8
0
  6
Continuous
 62
     7
370
    15
100
AcDbSpline
210
0.0
220
0.0
230
1.0
 70
     8
 71
     3
 72
    26
 73
    22
 74
     0
 42
0.00000001
 43
0.00000001
 40
0.0
 40
0.0
 40
0.0
 40
0.0
 40
0.125
 40
0.125
 40
0.2499999999999999
 40
0.2499999999999999
 40
0.3749999999999999
 40
0.3749999999999999
 40
0.4999999999999999
 40
0.4999999999999999
 40
0.6249999999999999
 40
0.6249999999999999
 40
0.6562499999999999
 40
0.6562499999999999
 40
0.6874999999999999
 40
0.6874999999999999
 40
0.7499999999999998
 40
0.7499999999999998
 40
0.8749999999999999
 40
0.8749999999999999
 40
1.0
 40
1.0
 40
1.0
 40
1.0
 10
158.2729173747819
 20
470.6041797223045
 30
0.0
 10
158.7191786659004
 20
471.5208068755953
 30
0.0
 10
159.1804876524645
 20
472.4302572181975
 30
0.0
 10
160.1236738558993
 20
474.2382985795633
 30
0.0
 10
160.605964655146
 20
475.136888637866
 30
0.0
 10
161.5653898955504
 20
476.9366504124623
 30
0.0
 10
162.0431687427301
 20
477.8375026243654
 30
0.0
 10
162.9349250043469
 20
479.6718450295658
 30
0.0
 10
163.3493147198339
 20
480.609661048753
 30
0.0
 10
163.9970842207491
 20
482.527749871289
 30
0.0
 10
164.2285833916834
 20
483.5112123094394
 30
0.0
 10
164.3591089162547
 20
484.7826180174224
 30
0.0
 10
164.3774759131856
 20
485.0397179408017
 30
0.0
 10
164.3984674260491
 20
485.5508731115881
 30
0.0
 10
164.4012258884971
 20
485.8056134367043
 30
0.0
 10
164.3879001648566
 20
486.5675019397106
 30
0.0
 10
164.3500665504683
 20
487.0723045818605
 30
0.0
 10
164.1662872908453
 20
488.5791281951402
 30
0.0
 10
163.9508402569764
 20
489.5763817812976
 30
0.0
 10
163.4149970015649
 20
491.546761754713
 30
0.0
 10
163.0956174416417
 20
492.5176290739249
 30
0.0
 10
162.7468992149098
 20
493.4757937041841
 30
0.0
  0
SPLINE
  5
82
330
1F
100
AcDbEntity
  8
0
  6
Continuous
 62
     7
370
    15
100
AcDbSpline
210
0.0
220
0.0
230
1.0
 70
     8
 71
     3
 72
    18
 73
    14
 74
     0
 42
0.00000001
 43
0.00000001
 40
0.0
 40
0.0
 40
0.0
 40
0.0
 40
0.2499999999999995
 40
0.2499999999999995
 40
0.3749999999999995
 40
0.3749999999999995
 40
0.4999999999999996
 40
0.4999999999999996
 40
0.7499999999999996
 40
0.7499999999999996
 40
0.8749999999999998
 40
0.8749999999999998
 40
1.0
 40
1.0
 40
1.0
 40
1.0
 10
157.3376981917182
 20
452.6183602017757
 30
0.0
 10
156.8059790898074
 20
454.0792528398218
 30
0.0
 10
156.4294882891281
 20
455.5684566972988
 30
0.0
 10
156.0881524977739
 20
457.8430074716216
 30
0.0
 10
156.0118944412795
 20
458.6080342128793
 30
0.0
 10
155.9362821152739
 20
460.1521133584
 30
0.0
 10
155.9375023613834
 20
460.9320938420393
 30
0.0
 10
156.0570687839143
 20
463.2406345594366
 30
0.0
 10
156.2886310556775
 20
464.7556108957845
 30
0.0
 10
156.8629929685419
 20
466.9921083921215
 30
0.0
 10
157.0936315228066
 20
467.734312990336
 30
0.0
 10
157.6289463361137
 20
469.1915683678653
 30
0.0
 10
157.932777699481
 20
469.9053369595036
 30
0.0
 10
158.2729173747819
 20
470.6041797223045
 30
0.0
  0
SPLINE
  5
83
330
1F
100
AcDbEntity
  8
0
  6
Continuous
 62
     7
370
    15
100
AcDbSpline
210
0.0
220
0.0
230
1.0
 70
     8
 71
     3
 72
    18
 73
    14
 74
     0
 42
0.00000001
 43
0.00000001
 40
0.0
 40
0.0
 40
0.0
 40
0.0
 40
0.25
 40
0.25
 40
0.375
 40
0.375
 40
0.5
 40
0.5
 40
0.75
 40
0.75
 40
0.875
 40
0.875
 40
1.0
 40
1.0
 40
1.0
 40
1.0
 10
188.4158144582246
 20
481.5752488091906
 30
0.0
 10
189.8354238219276
 20
480.9417985788204
 30
0.0
 10
191.1675558093712
 20
480.177072336168
 30
0.0
 10
193.0397728371133
 20
478.8410333058264
 30
0.0
 10
193.6426877981702
 20
478.3639525708116
 30
0.0
 10
194.805147618157
 20
477.3447408739766
 30
0.0
 10
195.3649434955129
 20
476.801567031983
 30
0.0
 10
196.9411899594151
 20
475.1105424544151
 30
0.0
 10
197.8691846867314
 20
473.8907222740033
 30
0.0
 10
199.0774919253153
 20
471.9227224591342
 30
0.0
 10
199.4506522821905
 20
471.2408241003544
 30
0.0
 10
200.12593585056
 20
469.8427380261909
 30
0.0
 10
200.4277498644508
 20
469.1280025441162
 30
0.0
 10
200.6935909921416
 20
468.3975110830343
 30
0.0
  0
SPLINE
  5
84
330
1F
100
AcDbEntity
  8
0
  6
Continuous
 62
     7
370
    15
100
AcDbSpline
210
0.0
220
0.0
230
1.0
 70
    24
 71
     3
 72
    20
 73
    16
 74
     0
 42
0.00000001
 43
0.00000001
 40
0.0
 40
0.0
 40
0.0
 40
0.0
 40
0.0624999999999997
 40
0.0624999999999997
 40
0.1249999999999994
 40
0.1249999999999994
 40
0.1874999999999991
 40
0.1874999999999991
 40
0.2499999999999988
 40
0.2499999999999988
 40
0.3749999999999991
 40
0.3749999999999991
 40
0.4999999999999993
 40
0.4999999999999993
 40
1.0
 40
1.0
 40
1.0
 40
1.0
 10
153.3034543791497
 20
542.8822564600373
 30
0.0
 10
153.657105335048
 20
541.9106041797376
 30
0.0
 10
154.010974545194
 20
540.9383522481899
 30
0.0
 10
154.7186122830542
 20
538.9941250090153
 30
0.0
 10
155.0724369915939
 20
538.0219953451618
 30
0.0
 10
155.7800922818815
 20
536.0777198808775
 30
0.0
 10
156.133922607883
 20
535.1055747831061
 30
0.0
 10
156.8415814732253
 20
533.1612894963966
 30
0.0
 10
157.1954094019281
 20
532.1891509851791
 30
0.0
 10
158.2568903209107
 20
529.2727433289247
 30
0.0
 10
158.9645428856826
 20
527.3284753529658
 30
0.0
 10
160.3798497164212
 20
523.4399347270338
 30
0.0
 10
161.0875030635559
 20
521.4956646015416
 30
0.0
 10
164.6257698255163
 20
511.7743139018571
 30
0.0
 10
167.4563832543835
 20
503.9972332890865
 30
0.0
 10
170.2869966753077
 20
496.220152698139
 30
0.0
  0
SPLINE
  5
85
330
1F
100
AcDbEntity
  8
0
  6
Continuous
 62
     7
370
    15
100
AcDbSpline
210
0.0
220
0.0
230
1.0
 70
    24
 71
     3
 72
    20
 73
    16
 74
     0
 42
0.00000001
 43
0.00000001
 40
0.0
 40
0.0
 40
0.0
 40
0.0
 40
0.4999999999999978
 40
0.4999999999999978
 40
0.6249999999999979
 40
0.6249999999999979
 40
0.749999999999998
 40
0.749999999999998
 40
0.8124999999999984
 40
0.8124999999999984
 40
0.874999999999999
 40
0.874999999999999
 40
0.9374999999999994
 40
0.9374999999999994
 40
1.0
 40
1.0
 40
1.0
 40
1.0
 10
162.7468992149098
 20
493.4757937041841
 30
0.0
 10
159.9162639440607
 20
501.2529343275704
 30
0.0
 10
157.0856287966375
 20
509.0300746118456
 30
0.0
 10
153.5473345119809
 20
518.7515009298482
 30
0.0
 10
152.839675643059
 20
520.6957862263913
 30
0.0
 10
151.4243582057463
 20
524.5843559937744
 30
0.0
 10
150.716698671495
 20
526.5286431183052
 30
0.0
 10
149.6552103896824
 20
529.4450710038578
 30
0.0
 10
149.3013813058577
 20
530.4172126887606
 30
0.0
 10
148.5937242187046
 20
532.3614930899141
 30
0.0
 10
148.2398927787538
 20
533.3336412482479
 30
0.0
 10
147.5322443779049
 20
535.277897783872
 30
0.0
 10
147.1784320594308
 20
536.2499934061512
 30
0.0
 10
146.470854652863
 20
538.1940548857345
 30
0.0
 10
146.1170041459262
 20
539.1662554304121
 30
0.0
 10
145.763371601561
 20
540.1378571252184
 30
0.0
  0
SPLINE
  5
86
330
1F
100
AcDbEntity
  8
0
  6
Continuous
 62
     7
370
    15
100
AcDbSpline
210
0.0
220
0.0
230
1.0
 70
    24
 71
     3
 72
    10
 73
     6
 74
     0
 42
0.00000001
 43
0.00000001
 40
0.0
 40
0.0
 40
0.0
 40
0.0
 40
0.5
 40
0.5
 40
1.0
 40
1.0
 40
1.0
 40
1.0
 10
152.8157366131238
 20
544.2222558905448
 30
0.0
 10
152.8957711200848
 20
544.0023619247728
 30
0.0
 10
152.9766676127567
 20
543.7800996623304
 30
0.0
 10
153.1394081377014
 20
543.332971782361
 30
0.0
 10
153.2212700698432
 20
543.1080569851332
 30
0.0
 10
153.3034543791496
 20
542.8822564600375
 30
0.0
  0
SPLINE
  5
87
330
1F
100
AcDbEntity
  8
0
  6
Continuous
 62
     7
370
    15
100
AcDbSpline
210
0.0
220
0.0
230
1.0
 70
    24
 71
     3
 72
    10
 73
     6
 74
     0
 42
0.00000001
 43
0.00000001
 40
0.0
 40
0.0
 40
0.0
 40
0.0
 40
0.5
 40
0.5
 40
1.0
 40
1.0
 40
1.0
 40
1.0
 10
145.763371601561
 20
540.1378571252184
 30
0.0
 10
145.6832050016281
 20
540.3581140150402
 30
0.0
 10
145.603231915177
 20
540.5778392286073
 30
0.0
 10
145.444348265508
 20
541.0143703843376
 30
0.0
 10
145.3653686900636
 20
541.2313659368667
 30
0.0
 10
145.2872075831336
 20
541.4461127557651
 30
0.0
  0
ARC
  5
88
330
1F
100
AcDbEntity
  8
0
  6
Continuous
 62
     7
370
    15
100
AcDbCircle
 10
179.0154783907
 20
460.5083923086
 30
0.0
 40
23.06900000000002
100
AcDbArc
 50
334.0469578561
 51
19.997505198
  0
ARC
  5
89
330
1F
100
AcDbEntity
  8
0
  6
Continuous
 62
     7
370
    15
100
AcDbCircle
 10
179.0154783907
 20
460.5083923086
 30
0.0
 40
23.06900000000002
100
AcDbArc
 50
199.9999191783
 51
245.9528805006
  0
ARC
  5
8A
330
1F
100
AcDbEntity
  8
0
  6
Continuous
 62
     7
370
    15
100
AcDbCircle
 10
179.0154783907
 20
460.5083923086
 30
0.0
 40
23.069
100
AcDbArc
 50
289.9999191783
 51
334.0469578561
  0
ARC
  5
8B
330
1F
100
AcDbEntity
  8
0
  6
Continuous
 62
     7
370
    15
100
AcDbCircle
 10
179.0154783907
 20
460.5083923086
 30
0.0
 40
23.06900000000002
100
AcDbArc
 50
245.9528805006
 51
289.9999191783
  0
SPLINE
  5
8C
330
1F
100
AcDbEntity
  8
0
  6
Continuous
 62
     7
370
    15
100
AcDbSpline
210
0.0
220
0.0
230
1.0
 70
    24
 71
     3
 72
     8
 73
     4
 74
     0
 42
0.00000001
 43
0.00000001
 40
0.0
 40
0.0
 40
0.0
 40
0.0
 40
1.0
 40
1.0
 40
1.0
 40
1.0
 10
145.2872075831336
 20
541.4461127557651
 30
0.0
 10
145.138257897514
 20
541.8553504497926
 30
0.0
 10
144.9989931318445
 20
542.2379789281606
 30
0.0
 10
144.8670043009584
 20
542.6006168522675
 30
0.0
  0
SPLINE
  5
8D
330
1F
100
AcDbEntity
  8
0
  6
Continuous
 62
     7
370
    15
100
AcDbSpline
210
0.0
220
0.0
230
1.0
 70
    24
 71
     3
 72
     8
 73
     4
 74
     0
 42
0.00000001
 43
0.00000001
 40
0.0
 40
0.0
 40
0.0
 40
0.0
 40
1.0
 40
1.0
 40
1.0
 40
1.0
 10
152.4101626969731
 20
545.3365659578221
 30
0.0
 10
152.5377695144013
 20
544.9859675695842
 30
0.0
 10
152.6722113150396
 20
544.6165901368934
 30
0.0
 10
152.8157366131238
 20
544.2222558905447
 30
0.0
  0
SPLINE
  5
8E
330
1F
100
AcDbEntity
  8
0
  6
Continuous
 62
     7
370
    15
100
AcDbSpline
210
0.0
220
0.0
230
1.0
 70
    24
 71
     3
 72
    12
 73
     8
 74
     0
 42
0.00000001
 43
0.00000001
 40
0.0
 40
0.0
 40
0.0
 40
0.0
 40
0.2499999999999979
 40
0.2499999999999979
 40
0.4999999999999959
 40
0.4999999999999959
 40
1.0
 40
1.0
 40
1.0
 40
1.0
 10
151.765443483778
 20
547.1079252125138
 30
0.0
 10
151.8033790249277
 20
547.0036977123516
 30
0.0
 10
151.8456790845497
 20
546.8874787436088
 30
0.0
 10
151.9388138604807
 20
546.6315919266764
 30
0.0
 10
151.9899247799056
 20
546.4911652133324
 30
0.0
 10
152.1530143615976
 20
546.0430783036185
 30
0.0
 10
152.275338283406
 20
545.7069946155095
 30
0.0
 10
152.4101626969731
 20
545.3365659578221
 30
0.0
  0
SPLINE
  5
8F
330
1F
100
AcDbEntity
  8
0
  6
Continuous
 62
     7
370
    15
100
AcDbSpline
210
0.0
220
0.0
230
1.0
 70
    24
 71
     3
 72
    12
 73
     8
 74
     0
 42
0.00000001
 43
0.00000001
 40
0.0
 40
0.0
 40
0.0
 40
0.0
 40
0.5000000000000105
 40
0.5000000000000105
 40
0.7500000000000052
 40
0.7500000000000052
 40
1.0
 40
1.0
 40
1.0
 40
1.0
 10
144.8670043009584
 20
542.6006168522676
 30
0.0
 10
144.7328596514909
 20
542.9691778652439
 30
0.0
 10
144.6111522147086
 20
543.3035677672295
 30
0.0
 10
144.448889686142
 20
543.7493823571838
 30
0.0
 10
144.3980275414028
 20
543.8891255646969
 30
0.0
 10
144.305304374149
 20
544.1438814911195
 30
0.0
 10
144.2631807076712
 20
544.2596158215545
 30
0.0
 10
144.2253901661761
 20
544.3634449366913
 30
0.0
  0
SPLINE
  5
90
330
1F
100
AcDbEntity
  8
0
  6
Continuous
 62
     7
370
    15
100
AcDbSpline
210
0.0
220
0.0
230
1.0
 70
    24
 71
     3
 72
     8
 73
     4
 74
     0
 42
0.00000001
 43
0.00000001
 40
0.0
 40
0.0
 40
0.0
 40
0.0
 40
1.0
 40
1.0
 40
1.0
 40
1.0
 10
144.2253901661761
 20
544.3634449366913
 30
0.0
 10
144.1570930071241
 20
544.551090662584
 30
0.0
 10
144.1048078786302
 20
544.6947435029934
 30
0.0
 10
144.0685784417096
 20
544.7942834997394
 30
0.0
  0
SPLINE
  5
91
330
1F
100
AcDbEntity
  8
0
  6
Continuous
 62
     7
370
    15
100
AcDbSpline
210
0.0
220
0.0
230
1.0
 70
    24
 71
     3
 72
     8
 73
     4
 74
     0
 42
0.00000001
 43
0.00000001
 40
0.0
 40
0.0
 40
0.0
 40
0.0
 40
1.0
 40
1.0
 40
1.0
 40
1.0
 10
151.6087750957114
 20
547.5383699603115
 30
0.0
 10
151.6449935564014
 20
547.4388601206434
 30
0.0
 10
151.6972310224883
 20
547.2953382321958
 30
0.0
 10
151.765443483778
 20
547.1079252125138
 30
0.0
  0
ARC
  5
92
330
1F
100
AcDbEntity
  8
0
  6
Continuous
 62
     7
370
    15
100
AcDbCircle
 10
148.7227713496
 20
546.6698753231
 30
0.0
 40
3.008999325232618
100
AcDbArc
 50
19.999928338
 51
104.6034432662
  0
SPLINE
  5
93
330
1F
100
AcDbEntity
  8
0
  6
Continuous
 62
     7
370
    15
100
AcDbSpline
210
0.0
220
0.0
230
1.0
 70
    24
 71
     3
 72
     8
 73
     4
 74
     0
 42
0.00000001
 43
0.00000001
 40
0.0
 40
0.0
 40
0.0
 40
0.0
 40
1.0
 40
1.0
 40
1.0
 40
1.0
 10
151.5503070986441
 20
547.6990101670815
 30
0.0
 10
151.55043545705
 20
547.6986575037071
 30
0.0
 10
151.5700802212272
 20
547.6446837208232
 30
0.0
 10
151.6087750957114
 20
547.5383699603116
 30
0.0
  0
ARC
  5
94
330
1F
100
AcDbEntity
  8
0
  6
Continuous
 62
     7
370
    15
100
AcDbCircle
 10
146.8377457022
 20
545.9837853472
 30
0.0
 40
3.008999392054456
100
AcDbArc
 50
115.3963962491
 51
199.9999109258
  0
SPLINE
  5
95
330
1F
100
AcDbEntity
  8
0
  6
Continuous
 62
     7
370
    15
100
AcDbSpline
210
0.0
220
0.0
230
1.0
 70
    24
 71
     3
 72
     8
 73
     4
 74
     0
 42
0.00000001
 43
0.00000001
 40
0.0
 40
0.0
 40
0.0
 40
0.0
 40
1.0
 40
1.0
 40
1.0
 40
1.0
 10
144.0685784417096
 20
544.7942834997394
 30
0.0
 10
144.0299434246473
 20
544.9004328026143
 30
0.0
 10
144.0103313288446
 20
544.9543168294831
 30
0.0
 10
144.0102095776464
 20
544.9546513396238
 30
0.0
  0
LINE
  5
96
330
1F
100
AcDbEntity
  8
0
  6
Continuous
 62
     7
370
    15
100
AcDbLine
 10
200.6935898758
 20
468.3975106768
 30
0.0
 11
200.2732510509
 21
469.4686271104
 31
0.0
  0
LINE
  5
97
330
1F
100
AcDbEntity
  8
0
  6
Continuous
 62
     7
370
    15
100
AcDbLine
 10
188.6048342506
 20
481.489883204
 30
0.0
 11
188.2368862565
 21
481.6541801391
 31
0.0
  0
LWPOLYLINE
  5
98
330
1F
100
AcDbEntity
  8
0
  6
Continuous
 62
     7
370
    15
100
AcDbPolyline
 90
        3
 70
   128
 43
0.0
 10
158.3679774083
 20
470.7971925204
 10
158.1420242134
 20
470.3306942668
 10
157.2777150582
 20
468.2316268597
  0
ARC
  5
99
330
1F
100
AcDbEntity
  8
0
  6
Continuous
 62
     7
370
    15
100
AcDbCircle
 10
179.0154783935
 20
460.5083923041
 30
0.0
 40
23.06899882572623
100
AcDbArc
 50
189.5067727935
 51
199.9999191656
  0
LINE
  5
9A
330
1F
100
AcDbEntity
  8
0
  6
Continuous
 62
     7
370
    15
100
AcDbLine
 10
179.0154783935
 20
390.2983923079
 30
0.0
 11
203.0874783934
 21
390.2983923079
 31
0.0
  0
LINE
  5
9B
330
1F
100
AcDbEntity
  8
0
  6
Continuous
 62
     7
370
    15
100
AcDbLine
 10
154.9434783937
 20
390.2983923079
 30
0.0
 11
179.0154783935
 21
390.2983923079
 31
0.0
  0
LINE
  5
9C
330
1F
100
AcDbEntity
  8
0
  6
Continuous
 62
     7
370
    15
100
AcDbLine
 10
179.0154783935
 20
492.6048938312
 30
0.0
 11
202.8868783935
 21
492.6048938079
 31
0.0
  0
LWPOLYLINE
  5
9D
330
1F
100
AcDbEntity
  8
0
  6
Continuous
 62
     7
370
    15
100
AcDbPolyline
 90
        9
 70
   128
 43
0.0
 10
155.1440783935
 20
492.6048938079
 10
155.2459095886
 20
492.6048938101
 10
155.6967414718
 20
492.6048938129
 10
156.501061637
 20
492.6048938157
 10
157.6466774102
 20
492.6048938183
 10
159.1162224242
 20
492.6048938208
 10
160.8874198745
 20
492.6048938231
 10
162.9334202133
 20
492.6048938251
 10
163.0031467016
 20
492.6048938079
  0
LWPOLYLINE
  5
9E
330
1F
100
AcDbEntity
  8
0
  6
Continuous
 62
     7
370
    15
100
AcDbPolyline
 90
        4
 70
   128
 43
0.0
 10
171.7897908808
 20
492.6048938079
 10
173.192916418
 20
492.6048938305
 10
176.0819628531
 20
492.604893831
 10
179.0154783935
 20
492.6048938312
  0
LINE
  5
9F
330
1F
100
AcDbEntity
  8
0
  6
Continuous
 62
     7
370
    15
100
AcDbLine
 10
166.6431990226
 20
513.6678938079
 30
0.0
 11
191.3877574023
 21
513.6678938079
 31
0.0
  0
LINE
  5
A0
330
1F
100
AcDbEntity
  8
0
  6
Continuous
 62
     7
370
    15
100
AcDbLine
 10
191.0013283954
 20
513.8684938087
 30
0.0
 11
167.0296283954
 21
513.8684938108
 31
0.0
  0
ARC
  5
A1
330
1F
100
AcDbEntity
  8
0
  6
Continuous
 62
     8
370
     0
100
AcDbCircle
 10
179.0154783906
 20
460.5083923086
 30
0.0
 40
20.52174859719142
100
AcDbArc
 50
245.9528805006
 51
289.9999191783
  0
ARC
  5
A2
330
1F
100
AcDbEntity
  8
0
  6
Continuous
 62
     8
370
     0
100
AcDbCircle
 10
179.0154783906
 20
460.5083923086
 30
0.0
 40
20.52174859719142
100
AcDbArc
 50
199.9999191783
 51
245.9528805006
  0
ARC
  5
A3
330
1F
100
AcDbEntity
  8
0
  6
Continuous
 62
     8
370
     0
100
AcDbCircle
 10
179.0154783906
 20
460.5083923086
 30
0.0
 40
20.52174859719139
100
AcDbArc
 50
334.0469578561
 51
19.9999191783
  0
ARC
  5
A4
330
1F
100
AcDbEntity
  8
0
  6
Continuous
 62
     8
370
     0
100
AcDbCircle
 10
179.0154783906
 20
460.5083923086
 30
0.0
 40
20.52174859719142
100
AcDbArc
 50
289.9999191783
 51
334.0469578561
  0
SPLINE
  5
A5
330
1F
100
AcDbEntity
  8
0
  6
Continuous
 62
     8
370
     0
100
AcDbSpline
210
0.0
220
0.0
230
1.0
 70
     8
 71
     3
 72
    30
 73
    26
 74
     0
 42
0.00000001
 43
0.00000001
 40
0.0
 40
0.0
 40
0.0
 40
0.0
 40
0.1250000000000003
 40
0.1250000000000003
 40
0.1875000000000004
 40
0.1875000000000004
 40
0.2500000000000004
 40
0.2500000000000004
 40
0.3750000000000008
 40
0.3750000000000008
 40
0.4375000000000008
 40
0.4375000000000008
 40
0.5000000000000008
 40
0.5000000000000008
 40
0.6250000000000008
 40
0.6250000000000008
 40
0.6875000000000006
 40
0.6875000000000006
 40
0.7500000000000004
 40
0.7500000000000004
 40
0.8125000000000002
 40
0.8125000000000002
 40
0.8750000000000001
 40
0.8750000000000001
 40
1.0
 40
1.0
 40
1.0
 40
1.0
 10
187.4462706755616
 20
479.2643705878709
 30
0.0
 10
186.4376776789236
 20
479.7253188264033
 30
0.0
 10
185.422153658837
 20
480.1702131053013
 30
0.0
 10
183.88907443142
 20
480.8147636070265
 30
0.0
 10
183.3762648892189
 20
481.0254566863734
 30
0.0
 10
182.3480589070346
 20
481.4407772445183
 30
0.0
 10
181.8327600141575
 20
481.6456305611887
 30
0.0
 10
180.290458840916
 20
482.2686165313973
 30
0.0
 10
179.2664636527599
 20
482.693819090221
 30
0.0
 10
177.7577942330882
 20
483.3956239478035
 30
0.0
 10
177.2591156852816
 20
483.6412103227778
 30
0.0
 10
176.2851018337042
 20
484.1634685055694
 30
0.0
 10
175.8090944232194
 20
484.4405354430755
 30
0.0
 10
174.423663123719
 20
485.3334561179013
 30
0.0
 10
173.5588912694395
 20
486.0140163865942
 30
0.0
 10
172.3662872810726
 20
487.186398709487
 30
0.0
 10
171.9923157303129
 20
487.5967474734415
 30
0.0
 10
171.2909692930037
 20
488.447462700931
 30
0.0
 10
170.9628764506972
 20
488.8887296920657
 30
0.0
 10
170.3453857998026
 20
489.7985252482292
 30
0.0
 10
170.0559309511436
 20
490.267013785814
 30
0.0
 10
169.5100928322302
 20
491.2272917944938
 30
0.0
 10
169.2532105210918
 20
491.7201500733581
 30
0.0
 10
168.5282688273035
 20
493.2190674246948
 30
0.0
 10
168.1042975279263
 20
494.2458368596568
 30
0.0
 10
167.725382317164
 20
495.2878054122065
 30
0.0
  0
SPLINE
  5
A6
330
1F
100
AcDbEntity
  8
0
  6
Continuous
 62
     8
370
     0
100
AcDbSpline
210
0.0
220
0.0
230
1.0
 70
     8
 71
     3
 72
    25
 73
    21
 74
     0
 42
0.00000001
 43
0.00000001
 40
0.0
 40
0.0
 40
0.0
 40
0.0
 40
0.015625
 40
0.015625
 40
0.03125
 40
0.0625
 40
0.0625
 40
0.1250000000000001
 40
0.1250000000000001
 40
0.2500000000000002
 40
0.2500000000000002
 40
0.3750000000000003
 40
0.3750000000000003
 40
0.5000000000000004
 40
0.5000000000000004
 40
0.7500000000000007
 40
0.7500000000000007
 40
0.8750000000000003
 40
0.8750000000000003
 40
1.0
 40
1.0
 40
1.0
 40
1.0
 10
198.2996306490929
 20
467.5272189178237
 30
0.0
 10
198.2705537658152
 20
467.6070458723725
 30
0.0
 10
198.2401712431274
 20
467.6888858042599
 30
0.0
 10
198.1792926377231
 20
467.8497458803198
 30
0.0
 10
198.0865577677066
 20
468.0902294818399
 30
0.0
 10
197.9895891970968
 20
468.3283033337848
 30
0.0
 10
197.7900425562178
 20
468.8012582242366
 30
0.0
 10
197.6495205881784
 20
469.1122978399216
 30
0.0
 10
197.205732245938
 20
470.0327681294315
 30
0.0
 10
196.8804271909588
 20
470.6296548103242
 30
0.0
 10
196.1712951450016
 20
471.7901185687398
 30
0.0
 10
195.7873906174279
 20
472.3536514891523
 30
0.0
 10
194.9601508444701
 20
473.4468900235009
 30
0.0
 10
194.5159192722706
 20
473.9770531848341
 30
0.0
 10
193.1226434515434
 20
475.4816973489737
 30
0.0
 10
192.1048209453597
 20
476.3833332450782
 30
0.0
 10
190.4474367518979
 20
477.5867863591514
 30
0.0
 10
189.8708148745373
 20
477.964080627329
 30
0.0
 10
188.6828722573341
 20
478.6596141873371
 30
0.0
 10
188.0730506742496
 20
478.9778215336913
 30
0.0
 10
187.4462706668926
 20
479.2643705687602
 30
0.0
  0
SPLINE
  5
A7
330
1F
100
AcDbEntity
  8
0
  6
Continuous
 62
     8
370
     0
100
AcDbSpline
210
0.0
220
0.0
230
1.0
 70
     8
 71
     3
 72
    20
 73
    16
 74
     0
 42
0.00000001
 43
0.00000001
 40
0.0
 40
0.0
 40
0.0
 40
0.0
 40
0.1250000000000002
 40
0.1250000000000002
 40
0.2500000000000005
 40
0.2500000000000005
 40
0.5000000000000003
 40
0.5000000000000003
 40
0.6250000000000002
 40
0.6250000000000002
 40
0.7500000000000001
 40
0.7500000000000001
 40
0.8750000000000001
 40
0.8750000000000001
 40
1.0
 40
1.0
 40
1.0
 40
1.0
 10
160.5011718839521
 20
469.4574436000556
 30
0.0
 10
160.2052028047848
 20
468.8350412835817
 30
0.0
 10
159.9425759109901
 20
468.1992868494697
 30
0.0
 10
159.4796091324566
 20
466.9028653944275
 30
0.0
 10
159.2803964993784
 20
466.2431841069047
 30
0.0
 10
158.7842922633131
 20
464.2559052383866
 30
0.0
 10
158.58413475855
 20
462.9109443150158
 30
0.0
 10
158.4839664217839
 20
460.8627018098632
 30
0.0
 10
158.4844408417067
 20
460.1710134933522
 30
0.0
 10
158.5534480671167
 20
458.8017759667637
 30
0.0
 10
158.6215882279886
 20
458.1233014111738
 30
0.0
 10
158.8242881958352
 20
456.7784851615032
 30
0.0
 10
158.9587602295612
 20
456.1121274556863
 30
0.0
 10
159.2943675166761
 20
454.7915894974528
 30
0.0
 10
159.4962171421183
 20
454.1360229362814
 30
0.0
 10
159.7313261321959
 20
453.4895656993531
 30
0.0
  0
SPLINE
  5
A8
330
1F
100
AcDbEntity
  8
0
  6
Continuous
 62
     8
370
     0
100
AcDbSpline
210
0.0
220
0.0
230
1.0
 70
     8
 71
     3
 72
    30
 73
    26
 74
     0
 42
0.00000001
 43
0.00000001
 40
0.0
 40
0.0
 40
0.0
 40
0.0
 40
0.1249999999999985
 40
0.1249999999999985
 40
0.1874999999999981
 40
0.1874999999999981
 40
0.2499999999999978
 40
0.2499999999999978
 40
0.3124999999999974
 40
0.3124999999999974
 40
0.374999999999997
 40
0.374999999999997
 40
0.499999999999997
 40
0.499999999999997
 40
0.562499999999997
 40
0.562499999999997
 40
0.6249999999999971
 40
0.6249999999999971
 40
0.749999999999998
 40
0.749999999999998
 40
0.8124999999999984
 40
0.8124999999999984
 40
0.8749999999999986
 40
0.8749999999999986
 40
1.0
 40
1.0
 40
1.0
 40
1.0
 10
165.3085135730372
 20
494.4081409900966
 30
0.0
 10
165.6880544688339
 20
493.3662594778083
 30
0.0
 10
166.0232118064962
 20
492.3073341327236
 30
0.0
 10
166.4313525472087
 20
490.6931326303315
 30
0.0
 10
166.5513705834638
 20
490.1504669181247
 30
0.0
 10
166.7504865991139
 20
489.0640063123417
 30
0.0
 10
166.829889277894
 20
488.5190718920579
 30
0.0
 10
166.9416694764821
 20
487.4252262054638
 30
0.0
 10
166.9739775865165
 20
486.876308938743
 30
0.0
 10
166.9835477617848
 20
485.7738205217217
 30
0.0
 10
166.9608387642273
 20
485.2190993556286
 30
0.0
 10
166.8008543619968
 20
483.5544285560655
 30
0.0
 10
166.5758659217527
 20
482.4772356485822
 30
0.0
 10
166.088537937892
 20
480.9026974499297
 30
0.0
 10
165.9019956743286
 20
480.3844858222841
 30
0.0
 10
165.4915691788441
 20
479.3583402923841
 30
0.0
 10
165.2674239694493
 20
478.8496714520111
 30
0.0
 10
164.5628400619488
 20
477.3423201351238
 30
0.0
 10
164.0517360983111
 20
476.3583964728704
 30
0.0
 10
163.2707199809862
 20
474.8898087180474
 30
0.0
 10
163.0076573455654
 20
474.4016608908337
 30
0.0
 10
162.4869706662548
 20
473.4226032314963
 30
0.0
 10
162.2295672032235
 20
472.9315827478839
 30
0.0
 10
161.4694705822012
 20
471.4524064665484
 30
0.0
 10
160.9775104023602
 20
470.4588447048322
 30
0.0
 10
160.5011719013761
 20
469.4574435917045
 30
0.0
  0
SPLINE
  5
A9
330
1F
100
AcDbEntity
  8
0
  6
Continuous
 62
     8
370
     0
100
AcDbSpline
210
0.0
220
0.0
230
1.0
 70
     8
 71
     3
 72
    24
 73
    20
 74
     0
 42
0.00000001
 43
0.00000001
 40
0.0
 40
0.0
 40
0.0
 40
0.0
 40
0.5000000000000004
 40
0.5000000000000004
 40
0.6250000000000004
 40
0.6250000000000004
 40
0.6875000000000003
 40
0.6875000000000003
 40
0.7500000000000003
 40
0.7500000000000003
 40
0.8125000000000002
 40
0.8125000000000002
 40
0.8750000000000002
 40
0.8750000000000002
 40
0.9375000000000001
 40
0.9375000000000001
 40
0.9687500000000001
 40
0.9687500000000001
 40
1.0
 40
1.0
 40
1.0
 40
1.0
 10
167.7253823127924
 20
495.2878054106201
 30
0.0
 10
164.888570299514
 20
503.081913172372
 30
0.0
 10
162.0517678478828
 20
510.8760244253863
 30
0.0
 10
158.5057482699735
 20
520.6186574522451
 30
0.0
 10
157.7964635227258
 20
522.5671545308306
 30
0.0
 10
156.7320629712111
 20
525.4897282193118
 30
0.0
 10
156.3776610990355
 20
526.4640640269209
 30
0.0
 10
155.671232546348
 20
528.4135975239363
 30
0.0
 10
155.3185617206761
 20
529.3885602222449
 30
0.0
 10
154.6094496514671
 20
531.3371240969021
 30
0.0
 10
154.2525659243187
 20
532.3105667542386
 30
0.0
 10
153.5323717338297
 20
534.2551351110645
 30
0.0
 10
153.1704657306344
 20
535.2267671974216
 30
0.0
 10
152.4591736207322
 20
537.1745450054555
 30
0.0
 10
152.111028215841
 20
538.1511378141324
 30
0.0
 10
151.6077606151268
 20
539.622860494422
 30
0.0
 10
151.4408157887811
 20
540.1137908492905
 30
0.0
 10
151.0892423159736
 20
541.0889635969457
 30
0.0
 10
150.9043706928759
 20
541.5732089137127
 30
0.0
 10
150.7046815038545
 20
542.0513178167768
 30
0.0
  0
LINE
  5
AA
330
1F
100
AcDbEntity
  8
0
  6
Continuous
 62
     8
370
     0
100
AcDbLine
 10
150.7046815039
 20
542.0513178168
 30
0.0
 11
150.7046604569
 21
542.0513681375
 31
0.0
  0
SPLINE
  5
AB
330
1F
100
AcDbEntity
  8
0
  6
Continuous
 62
     8
370
     0
100
AcDbSpline
210
0.0
220
0.0
230
1.0
 70
     8
 71
     3
 72
    24
 73
    20
 74
     0
 42
0.00000001
 43
0.00000001
 40
0.0
 40
0.0
 40
0.0
 40
0.0
 40
0.0312500000000003
 40
0.0312500000000003
 40
0.0625000000000007
 40
0.0625000000000007
 40
0.1250000000000006
 40
0.1250000000000006
 40
0.1875000000000004
 40
0.1875000000000004
 40
0.2500000000000003
 40
0.2500000000000003
 40
0.3125000000000002
 40
0.3125000000000002
 40
0.3750000000000001
 40
0.3750000000000001
 40
0.4999999999999997
 40
0.4999999999999997
 40
1.0
 40
1.0
 40
1.0
 40
1.0
 10
148.2882524199791
 20
541.1718134172093
 30
0.0
 10
148.4425404922565
 20
540.6774019520046
 30
0.0
 10
148.6122484347938
 20
540.18741519455
 30
0.0
 10
148.969753916052
 20
539.2144010176049
 30
0.0
 10
149.1574294209779
 20
538.7310157771809
 30
0.0
 10
149.7179052913804
 20
537.2801144837973
 30
0.0
 10
150.0789495715981
 20
536.3082160384137
 30
0.0
 10
150.7860703987146
 20
534.3589191646732
 30
0.0
 10
151.1333847547938
 20
533.3819757499156
 30
0.0
 10
151.8316232122632
 20
531.4294153429511
 30
0.0
 10
152.1839486920325
 20
530.4543132014719
 30
0.0
 10
152.8932448343823
 20
528.5058154747564
 30
0.0
 10
153.2497747148533
 20
527.5322567072617
 30
0.0
 10
153.9617499326267
 20
525.5847407601651
 30
0.0
 10
154.3165505825376
 20
524.6105500754045
 30
0.0
 10
155.3797582011391
 20
521.6875426997503
 30
0.0
 10
156.0888787243233
 20
519.7389862276486
 30
0.0
 10
159.6348856290791
 20
509.9963511154566
 30
0.0
 10
162.4717043896318
 20
502.202247783336
 30
0.0
 10
165.3085135774058
 20
494.4081409916913
 30
0.0
  0
SPLINE
  5
AC
330
1F
100
AcDbEntity
  8
0
  6
Continuous
 62
     8
370
     0
100
AcDbSpline
210
0.0
220
0.0
230
1.0
 70
     8
 71
     3
 72
     8
 73
     4
 74
     0
 42
0.00000001
 43
0.00000001
 40
0.0
 40
0.0
 40
0.0
 40
0.0
 40
1.0
 40
1.0
 40
1.0
 40
1.0
 10
148.0572189743513
 20
549.3258778582277
 30
0.0
 10
147.9955315257756
 20
549.4954186857007
 30
0.0
 10
147.964324433141
 20
549.5811036012683
 30
0.0
 10
147.9641198314194
 20
549.581665977191
 30
0.0
  0
SPLINE
  5
AD
330
1F
100
AcDbEntity
  8
0
  6
Continuous
 62
     8
370
     0
100
AcDbSpline
210
0.0
220
0.0
230
1.0
 70
     8
 71
     3
 72
     8
 73
     4
 74
     0
 42
0.00000001
 43
0.00000001
 40
0.0
 40
0.0
 40
0.0
 40
0.0
 40
1.0
 40
1.0
 40
1.0
 40
1.0
 10
148.3081940371705
 20
548.6365291361891
 30
0.0
 10
148.1988063875897
 20
548.9366546214773
 30
0.0
 10
148.1152093089703
 20
549.1664981214454
 30
0.0
 10
148.0572189743512
 20
549.3258778582277
 30
0.0
  0
SPLINE
  5
AE
330
1F
100
AcDbEntity
  8
0
  6
Continuous
 62
     8
370
     0
100
AcDbSpline
210
0.0
220
0.0
230
1.0
 70
     8
 71
     3
 72
    12
 73
     8
 74
     0
 42
0.00000001
 43
0.00000001
 40
0.0
 40
0.0
 40
0.0
 40
0.0
 40
0.5000000000000002
 40
0.5000000000000002
 40
0.7500000000000001
 40
0.7500000000000001
 40
1.0
 40
1.0
 40
1.0
 40
1.0
 10
149.3321381208762
 20
545.8229031335272
 30
0.0
 10
149.1152586322822
 20
546.4112137275781
 30
0.0
 10
148.9233159389999
 20
546.9447249925954
 30
0.0
 10
148.6652786991498
 20
547.6564372571174
 30
0.0
 10
148.5840737742062
 20
547.879612847447
 30
0.0
 10
148.4359342575565
 20
548.2862346887737
 30
0.0
 10
148.3685704155786
 20
548.4708752443727
 30
0.0
 10
148.3081940371704
 20
548.6365291361889
 30
0.0
  0
SPLINE
  5
AF
330
1F
100
AcDbEntity
  8
0
  6
Continuous
 62
     8
370
     0
100
AcDbSpline
210
0.0
220
0.0
230
1.0
 70
     8
 71
     3
 72
     8
 73
     4
 74
     0
 42
0.00000001
 43
0.00000001
 40
0.0
 40
0.0
 40
0.0
 40
0.0
 40
1.0
 40
1.0
 40
1.0
 40
1.0
 10
150.0032664585446
 20
543.9778456638173
 30
0.0
 10
149.7755895032128
 20
544.632896698005
 30
0.0
 10
149.5456868682606
 20
545.2436275586587
 30
0.0
 10
149.3321381208762
 20
545.8229031335272
 30
0.0
  0
SPLINE
  5
B0
330
1F
100
AcDbEntity
  8
0
  6
Continuous
 62
     8
370
     0
100
AcDbSpline
210
0.0
220
0.0
230
1.0
 70
     8
 71
     3
 72
     8
 73
     4
 74
     0
 42
0.00000001
 43
0.00000001
 40
0.0
 40
0.0
 40
0.0
 40
0.0
 40
1.0
 40
1.0
 40
1.0
 40
1.0
 10
150.7046582941197
 20
542.0513733084528
 30
0.0
 10
150.4372941801767
 20
542.6906128215426
 30
0.0
 10
150.22416600529
 20
543.3422939614661
 30
0.0
 10
150.0032664585445
 20
543.9778456638173
 30
0.0
  0
SPLINE
  5
B1
330
1F
100
AcDbEntity
  8
0
  6
Continuous
 62
     8
370
     0
100
AcDbSpline
210
0.0
220
0.0
230
1.0
 70
     8
 71
     3
 72
     8
 73
     4
 74
     0
 42
0.00000001
 43
0.00000001
 40
0.0
 40
0.0
 40
0.0
 40
0.0
 40
1.0
 40
1.0
 40
1.0
 40
1.0
 10
146.910638458746
 20
544.956422811223
 30
0.0
 10
147.1267441702073
 20
544.3551693634688
 30
0.0
 10
147.3510386646028
 20
543.7170478748792
 30
0.0
 10
147.6078457535961
 20
543.0443839832102
 30
0.0
  0
SPLINE
  5
B2
330
1F
100
AcDbEntity
  8
0
  6
Continuous
 62
     8
370
     0
100
AcDbSpline
210
0.0
220
0.0
230
1.0
 70
     8
 71
     3
 72
    12
 73
     8
 74
     0
 42
0.00000001
 43
0.00000001
 40
0.0
 40
0.0
 40
0.0
 40
0.0
 40
0.25
 40
0.25
 40
0.5
 40
0.5
 40
1.0
 40
1.0
 40
1.0
 40
1.0
 10
145.8912650543314
 20
547.7566234955399
 30
0.0
 10
145.9512677777902
 20
547.5915378322403
 30
0.0
 10
146.0180738330418
 20
547.4075505590249
 30
0.0
 10
146.1653202154389
 20
547.002600643169
 30
0.0
 10
146.2461781336449
 20
546.7805054795662
 30
0.0
 10
146.5046862613507
 20
546.072966375572
 30
0.0
 10
146.6996131978739
 20
545.5435413320826
 30
0.0
 10
146.910638458746
 20
544.956422811223
 30
0.0
  0
SPLINE
  5
B3
330
1F
100
AcDbEntity
  8
0
  6
Continuous
 62
     8
370
     0
100
AcDbSpline
210
0.0
220
0.0
230
1.0
 70
     8
 71
     3
 72
     8
 73
     4
 74
     0
 42
0.00000001
 43
0.00000001
 40
0.0
 40
0.0
 40
0.0
 40
0.0
 40
1.0
 40
1.0
 40
1.0
 40
1.0
 10
145.6401912823858
 20
548.4466487914829
 30
0.0
 10
145.6982323342611
 20
548.287233294958
 30
0.0
 10
145.782009622645
 20
548.0572182747306
 30
0.0
 10
145.8912650543313
 20
547.7566234955398
 30
0.0
  0
SPLINE
  5
B4
330
1F
100
AcDbEntity
  8
0
  6
Continuous
 62
     8
370
     0
100
AcDbSpline
210
0.0
220
0.0
230
1.0
 70
     8
 71
     3
 72
     8
 73
     4
 74
     0
 42
0.00000001
 43
0.00000001
 40
0.0
 40
0.0
 40
0.0
 40
0.0
 40
1.0
 40
1.0
 40
1.0
 40
1.0
 10
145.5472511125823
 20
548.7020018682392
 30
0.0
 10
145.5474453283137
 20
548.7014684938606
 30
0.0
 10
145.5785639002401
 20
548.6159144992341
 30
0.0
 10
145.6401912823857
 20
548.4466487914829
 30
0.0
  0
SPLINE
  5
B5
330
1F
100
AcDbEntity
  8
0
  6
Continuous
 62
     8
370
     0
100
AcDbSpline
210
0.0
220
0.0
230
1.0
 70
     8
 71
     3
 72
    10
 73
     6
 74
     0
 42
0.00000001
 43
0.00000001
 40
0.0
 40
0.0
 40
0.0
 40
0.0
 40
0.5
 40
0.5
 40
1.0
 40
1.0
 40
1.0
 40
1.0
 10
147.6078457535962
 20
543.0443839832102
 30
0.0
 10
147.724576837478
 20
542.7386261263283
 30
0.0
 10
147.8447433703789
 20
542.4310293357695
 30
0.0
 10
148.0764508878641
 20
541.808181082473
 30
0.0
 10
148.188751901471
 20
541.4912250862297
 30
0.0
 10
148.2882524199791
 20
541.1718134172093
 30
0.0
  0
SPLINE
  5
B6
330
1F
100
AcDbEntity
  8
0
  6
Continuous
 62
     8
370
     0
100
AcDbSpline
210
0.0
220
0.0
230
1.0
 70
     8
 71
     3
 72
     9
 73
     5
 74
     0
 42
0.00000001
 43
0.00000001
 40
0.0
 40
0.0
 40
0.0
 40
0.0
 40
0.6221743898058713
 40
1.0
 40
1.0
 40
1.0
 40
1.0
 10
179.0154783935164
 20
489.495025157078
 30
0.0
 10
177.9833748972071
 20
489.5215463811595
 30
0.0
 10
176.3245096124574
 20
489.5641730538675
 30
0.0
 10
174.7440291131185
 20
489.225243304485
 30
0.0
 10
174.1468831040559
 20
489.0971869651117
 30
0.0
  0
SPLINE
  5
B7
330
1F
100
AcDbEntity
  8
0
  6
Continuous
 62
     8
370
     0
100
AcDbSpline
210
0.0
220
0.0
230
1.0
 70
     8
 71
     3
 72
    12
 73
     8
 74
     0
 42
0.00000001
 43
0.00000001
 40
0.0
 40
0.0
 40
0.0
 40
0.0
 40
0.4999999999999997
 40
0.4999999999999997
 40
0.7499999999999998
 40
0.7499999999999998
 40
1.0
 40
1.0
 40
1.0
 40
1.0
 10
190.6041433924865
 20
486.6108766311979
 30
0.0
 10
188.9595162525195
 20
487.5531933860763
 30
0.0
 10
187.1299244367213
 20
488.3444194305295
 30
0.0
 10
184.1878218457721
 20
489.1211816274844
 30
0.0
 10
183.1750681227285
 20
489.3118396322614
 30
0.0
 10
181.1134326302551
 20
489.5298938251949
 30
0.0
 10
180.0643509837834
 20
489.5572442145133
 30
0.0
 10
179.0154783935164
 20
489.495025157078
 30
0.0
  0
SPLINE
  5
B8
330
1F
100
AcDbEntity
  8
0
  6
Continuous
 62
     8
370
     0
100
AcDbSpline
210
0.0
220
0.0
230
1.0
 70
     8
 71
     3
 72
    12
 73
     8
 74
     0
 42
0.00000001
 43
0.00000001
 40
0.0
 40
0.0
 40
0.0
 40
0.0
 40
0.5
 40
0.5
 40
0.75
 40
0.75
 40
1.0
 40
1.0
 40
1.0
 40
1.0
 10
167.4264767175365
 20
434.406031805008
 30
0.0
 10
169.071138649997
 20
433.463677618528
 30
0.0
 10
170.9007655572475
 20
432.67234566043
 30
0.0
 10
173.8429559023034
 20
431.8955442398988
 30
0.0
 10
174.8557509916919
 20
431.7048928537813
 30
0.0
 10
176.917445358772
 20
431.4868321651653
 30
0.0
 10
177.9665679124317
 20
431.4594900376117
 30
0.0
 10
179.0154783935164
 20
431.521692307928
 30
0.0
  0
SPLINE
  5
B9
330
1F
100
AcDbEntity
  8
0
  6
Continuous
 62
     8
370
     0
100
AcDbSpline
210
0.0
220
0.0
230
1.0
 70
     8
 71
     3
 72
    12
 73
     8
 74
     0
 42
0.00000001
 43
0.00000001
 40
0.0
 40
0.0
 40
0.0
 40
0.0
 40
0.2499999999999999
 40
0.2499999999999999
 40
0.4999999999999998
 40
0.4999999999999998
 40
1.0
 40
1.0
 40
1.0
 40
1.0
 10
179.0154783935164
 20
431.521692307928
 30
0.0
 10
180.0643888502713
 20
431.4594900390545
 30
0.0
 10
181.1135113795913
 20
431.4868321638968
 30
0.0
 10
183.1752057464837
 20
431.7048928448831
 30
0.0
 10
184.1880008598707
 20
431.8955442334473
 30
0.0
 10
187.1301912312573
 20
432.672345660387
 30
0.0
 10
188.9598181370359
 20
433.463677618528
 30
0.0
 10
190.6044800694964
 20
434.406031805008
 30
0.0
  0
SPLINE
  5
BA
330
1F
100
AcDbEntity
  8
0
  6
Continuous
 62
     8
370
     0
100
AcDbSpline
210
0.0
220
0.0
230
1.0
 70
     8
 71
     3
 72
    10
 73
     6
 74
     0
 42
0.00000001
 43
0.00000001
 40
0.0
 40
0.0
 40
0.0
 40
0.0
 40
0.5
 40
0.5
 40
1.0
 40
1.0
 40
1.0
 40
1.0
 10
193.9262426930002
 20
484.5464211217033
 30
0.0
 10
193.42652871321
 20
484.8745032907864
 30
0.0
 10
192.8965978994386
 20
485.2150115758814
 30
0.0
 10
191.7867528674045
 20
485.9116252044248
 30
0.0
 10
191.2064715087989
 20
486.2657626244161
 30
0.0
 10
190.6041433924865
 20
486.6108766311979
 30
0.0
  0
SPLINE
  5
BB
330
1F
100
AcDbEntity
  8
0
  6
Continuous
 62
     8
370
     0
100
AcDbSpline
210
0.0
220
0.0
230
1.0
 70
     8
 71
     3
 72
    14
 73
    10
 74
     0
 42
0.00000001
 43
0.00000001
 40
0.0
 40
0.0
 40
0.0
 40
0.0
 40
0.2499999999999997
 40
0.2499999999999997
 40
0.4999999999999998
 40
0.4999999999999998
 40
0.7499999999999999
 40
0.7499999999999999
 40
1.0
 40
1.0
 40
1.0
 40
1.0
 10
198.1435311843265
 20
480.735074127738
 30
0.0
 10
197.871549484362
 20
481.0954044877224
 30
0.0
 10
197.5803704287268
 20
481.4645253987123
 30
0.0
 10
196.96060648038
 20
482.1675827932768
 30
0.0
 10
196.6319644636134
 20
482.5013860608782
 30
0.0
 10
195.9342893021857
 20
483.1229193678328
 30
0.0
 10
195.5650664773711
 20
483.4123090764885
 30
0.0
 10
194.7807492472509
 20
483.9789326321768
 30
0.0
 10
194.3652452653558
 20
484.2581984143221
 30
0.0
 10
193.9262426930002
 20
484.5464211217033
 30
0.0
  0
SPLINE
  5
BC
330
1F
100
AcDbEntity
  8
0
  6
Continuous
 62
     8
370
     0
100
AcDbSpline
210
0.0
220
0.0
230
1.0
 70
     8
 71
     3
 72
    14
 73
    10
 74
     0
 42
0.00000001
 43
0.00000001
 40
0.0
 40
0.0
 40
0.0
 40
0.0
 40
0.2499999999999994
 40
0.2499999999999994
 40
0.4999999999999998
 40
0.4999999999999998
 40
0.7500000000000001
 40
0.7500000000000001
 40
1.0
 40
1.0
 40
1.0
 40
1.0
 10
164.104714502861
 20
484.5464213901154
 30
0.0
 10
163.6657118819191
 20
484.2581986549856
 30
0.0
 10
163.2502078548082
 20
483.9789328497037
 30
0.0
 10
162.4658905424418
 20
483.4123092547196
 30
0.0
 10
162.0966676806864
 20
483.1229195304752
 30
0.0
 10
161.398992452441
 20
482.5013861876422
 30
0.0
 10
161.0703504057814
 20
482.167582899971
 30
0.0
 10
160.4505864034689
 20
481.4645254557015
 30
0.0
 10
160.1594073237781
 20
481.095404515686
 30
0.0
 10
159.8874256027065
 20
480.735074127738
 30
0.0
  0
SPLINE
  5
BD
330
1F
100
AcDbEntity
  8
0
  6
Continuous
 62
     8
370
     0
100
AcDbSpline
210
0.0
220
0.0
230
1.0
 70
     8
 71
     3
 72
    20
 73
    16
 74
     0
 42
0.00000001
 43
0.00000001
 40
0.0
 40
0.0
 40
0.0
 40
0.0
 40
0.125
 40
0.125
 40
0.2500000000000001
 40
0.2500000000000001
 40
0.3750000000000001
 40
0.3750000000000001
 40
0.5000000000000001
 40
0.5000000000000001
 40
0.6250000000000002
 40
0.6250000000000002
 40
0.7500000000000002
 40
0.7500000000000002
 40
1.0
 40
1.0
 40
1.0
 40
1.0
 10
159.8873150420164
 20
440.281745011378
 30
0.0
 10
160.1006961080579
 20
439.999064067995
 30
0.0
 10
160.3259242592857
 20
439.7106663251528
 30
0.0
 10
160.799450945941
 20
439.149366495238
 30
0.0
 10
161.047725691671
 20
438.8766952577432
 30
0.0
 10
161.5681915652169
 20
438.3595152575011
 30
0.0
 10
161.8403428730008
 20
438.1155814722154
 30
0.0
 10
162.4108384849981
 20
437.6482747877515
 30
0.0
 10
162.7091800758271
 20
437.4252503230578
 30
0.0
 10
163.3345530808704
 20
436.9822500633145
 30
0.0
 10
163.6617241467538
 20
436.7618783192424
 30
0.0
 10
164.3448898575656
 20
436.3116316596258
 30
0.0
 10
164.7010418605556
 20
436.0811761059435
 30
0.0
 10
165.8077659318478
 20
435.3745147794181
 30
0.0
 10
166.5961828037406
 20
434.8817714901906
 30
0.0
 10
167.4264767175365
 20
434.406031805008
 30
0.0
  0
SPLINE
  5
BE
330
1F
100
AcDbEntity
  8
0
  6
Continuous
 62
     8
370
     0
100
AcDbSpline
210
0.0
220
0.0
230
1.0
 70
     8
 71
     3
 72
    20
 73
    16
 74
     0
 42
0.00000001
 43
0.00000001
 40
0.0
 40
0.0
 40
0.0
 40
0.0
 40
0.2500000000000001
 40
0.2500000000000001
 40
0.3750000000000001
 40
0.3750000000000001
 40
0.5
 40
0.5
 40
0.625
 40
0.625
 40
0.75
 40
0.75
 40
0.875
 40
0.875
 40
1.0
 40
1.0
 40
1.0
 40
1.0
 10
190.6044800694964
 20
434.406031805008
 30
0.0
 10
191.4347739832923
 20
434.8817714901906
 30
0.0
 10
192.2231908551852
 20
435.3745147794181
 30
0.0
 10
193.3299149264772
 20
436.0811761059435
 30
0.0
 10
193.6860669294673
 20
436.3116316596258
 30
0.0
 10
194.3692326402791
 20
436.7618783192424
 30
0.0
 10
194.6964037061923
 20
436.9822500633408
 30
0.0
 10
195.3217767111669
 20
437.4252503230235
 30
0.0
 10
195.6201183016472
 20
437.6482747874147
 30
0.0
 10
196.1906139087684
 20
438.1155814675673
 30
0.0
 10
196.4627652125455
 20
438.3595152492533
 30
0.0
 10
196.9832310830705
 20
438.876695245513
 30
0.0
 10
197.2315058294209
 20
439.1493664823565
 30
0.0
 10
197.7050325171815
 20
439.7106663116097
 30
0.0
 10
197.9302606692629
 20
439.9990640551287
 30
0.0
 10
198.1436417450165
 20
440.281745011378
 30
0.0
  0
SPLINE
  5
BF
330
1F
100
AcDbEntity
  8
0
  6
Continuous
 62
     8
370
     0
100
AcDbSpline
210
0.0
220
0.0
230
1.0
 70
     8
 71
     3
 72
    16
 73
    12
 74
     0
 42
0.00000001
 43
0.00000001
 40
0.0
 40
0.0
 40
0.0
 40
0.0
 40
0.2499999999999994
 40
0.2499999999999994
 40
0.4999999999999988
 40
0.4999999999999988
 40
0.6249999999999987
 40
0.6249999999999987
 40
0.7499999999999984
 40
0.7499999999999984
 40
1.0
 40
1.0
 40
1.0
 40
1.0
 10
159.8874256027065
 20
480.735074127738
 30
0.0
 10
159.3547247327353
 20
480.0293343907272
 30
0.0
 10
158.898312584779
 20
479.3652863771827
 30
0.0
 10
158.1135798679896
 20
478.0714402355626
 30
0.0
 10
157.7835325394865
 20
477.4366679769279
 30
0.0
 10
157.3523637586486
 20
476.4310253197335
 30
0.0
 10
157.2195748975618
 20
476.0883551042231
 30
0.0
 10
156.9731955393586
 20
475.3887225301003
 30
0.0
 10
156.8594025332095
 20
475.0301471337037
 30
0.0
 10
156.5450641172689
 20
473.9505353673757
 30
0.0
 10
156.3717254323513
 20
473.228866733782
 30
0.0
 10
156.2314139434165
 20
472.583751371948
 30
0.0
  0
SPLINE
  5
C0
330
1F
100
AcDbEntity
  8
0
  6
Continuous
 62
     8
370
     0
100
AcDbSpline
210
0.0
220
0.0
230
1.0
 70
     8
 71
     3
 72
    38
 73
    34
 74
     0
 42
0.00000001
 43
0.00000001
 40
0.0
 40
0.0
 40
0.0
 40
0.0
 40
0.0624999999999999
 40
0.0624999999999999
 40
0.1249999999999998
 40
0.1249999999999998
 40
0.1874999999999997
 40
0.1874999999999997
 40
0.2499999999999996
 40
0.2499999999999996
 40
0.3749999999999994
 40
0.3749999999999994
 40
0.4999999999999993
 40
0.4999999999999993
 40
0.6249999999999991
 40
0.6249999999999991
 40
0.749999999999999
 40
0.749999999999999
 40
0.8124999999999989
 40
0.8124999999999989
 40
0.8749999999999989
 40
0.8749999999999989
 40
0.9062499999999991
 40
0.9062499999999991
 40
0.9374999999999994
 40
0.9374999999999994
 40
0.9687499999999998
 40
0.9687499999999998
 40
0.9843749999999999
 40
0.9843749999999999
 40
0.9921874999999999
 40
0.9921874999999999
 40
1.0
 40
1.0
 40
1.0
 40
1.0
 10
156.2314139434164
 20
472.583751371948
 30
0.0
 10
156.1517098388406
 20
472.2172928178553
 30
0.0
 10
156.0897963340666
 20
471.9549206396817
 30
0.0
 10
155.9809979663807
 20
471.4838251098844
 30
0.0
 10
155.9342014732717
 20
471.2761254352115
 30
0.0
 10
155.8497516212663
 20
470.8804743064237
 30
0.0
 10
155.8124352462761
 20
470.694915400538
 30
0.0
 10
155.7439236518045
 20
470.3290547910754
 30
0.0
 10
155.712731633208
 20
470.1489953208329
 30
0.0
 10
155.6267836823228
 20
469.612586501177
 30
0.0
 10
155.57945756378
 20
469.2587930169187
 30
0.0
 10
155.4965314199324
 20
468.5296897294025
 30
0.0
 10
155.461348365257
 20
468.1560422782258
 30
0.0
 10
155.3995788036142
 20
467.3747297886047
 30
0.0
 10
155.3729965019775
 20
466.967626377566
 30
0.0
 10
155.326339695755
 20
466.1012918225405
 30
0.0
 10
155.3061887803423
 20
465.6455056773756
 30
0.0
 10
155.2797940640474
 20
464.8948119470668
 30
0.0
 10
155.2716406141528
 20
464.6328237319842
 30
0.0
 10
155.2564881340014
 20
464.0777405989622
 30
0.0
 10
155.249483237046
 20
463.786406476563
 30
0.0
 10
155.2398209837781
 20
463.3041959729644
 30
0.0
 10
155.2367394365728
 20
463.1364004947613
 30
0.0
 10
155.2308610627758
 20
462.7785976775739
 30
0.0
 10
155.2280685257688
 20
462.5874721232165
 30
0.0
 10
155.2228232131126
 20
462.1625469157421
 30
0.0
 10
155.220320919403
 20
461.9356751209838
 30
0.0
 10
155.2171030885588
 20
461.5030729784408
 30
0.0
 10
155.2160960365407
 20
461.3449261508915
 30
0.0
 10
155.2148932524775
 20
461.0639818321168
 30
0.0
 10
155.2145458096905
 20
460.9630340496968
 30
0.0
 10
155.2140749238816
 20
460.7428947931454
 30
0.0
 10
155.2139501322577
 20
460.6250324103571
 30
0.0
 10
155.2139503022764
 20
460.507827287938
 30
0.0
  0
SPLINE
  5
C1
330
1F
100
AcDbEntity
  8
0
  6
Continuous
 62
     8
370
     0
100
AcDbSpline
210
0.0
220
0.0
230
1.0
 70
     8
 71
     3
 72
    26
 73
    22
 74
     0
 42
0.00000001
 43
0.00000001
 40
0.0
 40
0.0
 40
0.0
 40
0.0
 40
0.0156250000000004
 40
0.0156250000000004
 40
0.0312500000000009
 40
0.0312500000000009
 40
0.0625000000000012
 40
0.0625000000000012
 40
0.1250000000000011
 40
0.1250000000000011
 40
0.1875000000000011
 40
0.1875000000000011
 40
0.250000000000001
 40
0.250000000000001
 40
0.3750000000000009
 40
0.3750000000000009
 40
0.5000000000000007
 40
0.5000000000000007
 40
0.7500000000000003
 40
0.7500000000000003
 40
1.0
 40
1.0
 40
1.0
 40
1.0
 10
155.2139503022764
 20
460.507827287938
 30
0.0
 10
155.2139504718976
 20
460.3916612365763
 30
0.0
 10
155.2140694272528
 20
460.2746166627352
 30
0.0
 10
155.2145358314829
 20
460.0566515585786
 30
0.0
 10
155.2148761904363
 20
459.9565750048181
 30
0.0
 10
155.2160584425932
 20
459.6776499981872
 30
0.0
 10
155.2170655496435
 20
459.5205825382027
 30
0.0
 10
155.2202545751896
 20
459.0912183032876
 30
0.0
 10
155.2227170994627
 20
458.8637565656453
 30
0.0
 10
155.2279046700028
 20
458.4404273668549
 30
0.0
 10
155.2306664483516
 20
458.2501828337475
 30
0.0
 10
155.2364794536767
 20
457.8943863027831
 30
0.0
 10
155.2395264270736
 20
457.7277140567241
 30
0.0
 10
155.2490733946305
 20
457.2482951463028
 30
0.0
 10
155.2559885376679
 20
456.9588794322655
 30
0.0
 10
155.2709451288453
 20
456.4077551330239
 30
0.0
 10
155.2789908399429
 20
456.1472645248543
 30
0.0
 10
155.3050207096375
 20
455.4005336460512
 30
0.0
 10
155.324868179182
 20
454.947352445129
 30
0.0
 10
155.3707671423801
 20
454.0861248676729
 30
0.0
 10
155.3968967416422
 20
453.6810818100984
 30
0.0
 10
155.4272101059818
 20
453.2925395407051
 30
0.0
  0
SPLINE
  5
C2
330
1F
100
AcDbEntity
  8
0
  6
Continuous
 62
     8
370
     0
100
AcDbSpline
210
0.0
220
0.0
230
1.0
 70
     8
 71
     3
 72
    19
 73
    15
 74
     0
 42
0.00000001
 43
0.00000001
 40
0.0
 40
0.0
 40
0.0
 40
0.0
 40
0.2500000000000007
 40
0.2500000000000007
 40
0.5000000000000012
 40
0.5000000000000012
 40
0.6250000000000011
 40
0.6250000000000011
 40
0.750000000000001
 40
0.8125000000000009
 40
0.8125000000000009
 40
0.8750000000000007
 40
0.8750000000000007
 40
1.0
 40
1.0
 40
1.0
 40
1.0
 10
155.4272101059818
 20
453.2925395407051
 30
0.0
 10
155.458064554321
 20
452.8970619142597
 30
0.0
 10
155.4932065307954
 20
452.5192452341792
 30
0.0
 10
155.5762267048394
 20
451.7825868190924
 30
0.0
 10
155.6237600725889
 20
451.4249206297924
 30
0.0
 10
155.7098915365914
 20
450.8842444751456
 30
0.0
 10
155.7410553287121
 20
450.7034155542005
 30
0.0
 10
155.8096531690209
 20
450.3358507804932
 30
0.0
 10
155.8660777658425
 20
450.0541132506643
 30
0.0
 10
155.933488971059
 20
449.7458748526067
 30
0.0
 10
155.9812626079033
 20
449.5325596227503
 30
0.0
 10
156.0065237274113
 20
449.4224233632882
 30
0.0
 10
156.0886355882784
 20
449.0667661848017
 30
0.0
 10
156.1509721740415
 20
448.8027128454514
 30
0.0
 10
156.2313739638365
 20
448.433045661048
 30
0.0
  0
SPLINE
  5
C3
330
1F
100
AcDbEntity
  8
0
  6
Continuous
 62
     8
370
     0
100
AcDbSpline
210
0.0
220
0.0
230
1.0
 70
     8
 71
     3
 72
    16
 73
    12
 74
     0
 42
0.00000001
 43
0.00000001
 40
0.0
 40
0.0
 40
0.0
 40
0.0
 40
0.2499999999999993
 40
0.2499999999999993
 40
0.3749999999999992
 40
0.3749999999999992
 40
0.4999999999999991
 40
0.4999999999999991
 40
0.7499999999999996
 40
0.7499999999999996
 40
1.0
 40
1.0
 40
1.0
 40
1.0
 10
156.2313739638365
 20
448.433045661048
 30
0.0
 10
156.3716778785532
 20
447.7879635891784
 30
0.0
 10
156.5450110012794
 20
447.0663269744709
 30
0.0
 10
156.8593385072105
 20
445.9867147419383
 30
0.0
 10
156.9731319384869
 20
445.6281028243104
 30
0.0
 10
157.21950598579
 20
444.9284535216264
 30
0.0
 10
157.3522886957887
 20
444.5857980437108
 30
0.0
 10
157.7834552564885
 20
443.5800940299873
 30
0.0
 10
158.1135121431811
 20
442.9452100227206
 30
0.0
 10
158.8982325776533
 20
441.6513471414226
 30
0.0
 10
159.3546213726669
 20
440.9874418540666
 30
0.0
 10
159.8873150420164
 20
440.281745011378
 30
0.0
  0
SPLINE
  5
C4
330
1F
100
AcDbEntity
  8
0
  6
Continuous
 62
     8
370
     0
100
AcDbSpline
210
0.0
220
0.0
230
1.0
 70
     8
 71
     3
 72
    16
 73
    12
 74
     0
 42
0.00000001
 43
0.00000001
 40
0.0
 40
0.0
 40
0.0
 40
0.0
 40
0.25
 40
0.25
 40
0.5
 40
0.5
 40
0.625
 40
0.625
 40
0.75
 40
0.75
 40
1.0
 40
1.0
 40
1.0
 40
1.0
 10
198.1436417450165
 20
440.281745011378
 30
0.0
 10
198.6763354143661
 20
440.9874418540666
 30
0.0
 10
199.1327242092092
 20
441.6513471410634
 30
0.0
 10
199.9174446441517
 20
442.9452100233531
 30
0.0
 10
200.2475015330259
 20
443.5800940338445
 30
0.0
 10
200.6786680988306
 20
444.5857980618217
 30
0.0
 10
200.8114508103918
 20
444.928453545125
 30
0.0
 10
201.0578248587454
 20
445.6281028544886
 30
0.0
 10
201.1716182890825
 20
445.9867147727223
 30
0.0
 10
201.4859457915869
 20
447.0663269987572
 30
0.0
 10
201.6592789108406
 20
447.7879636000334
 30
0.0
 10
201.7995828231965
 20
448.433045661048
 30
0.0
  0
SPLINE
  5
C5
330
1F
100
AcDbEntity
  8
0
  6
Continuous
 62
     8
370
     0
100
AcDbSpline
210
0.0
220
0.0
230
1.0
 70
     8
 71
     3
 72
    39
 73
    35
 74
     0
 42
0.00000001
 43
0.00000001
 40
0.0
 40
0.0
 40
0.0
 40
0.0
 40
0.0625
 40
0.0625
 40
0.0937499999999999
 40
0.0937499999999999
 40
0.1249999999999999
 40
0.1875
 40
0.1875
 40
0.2500000000000001
 40
0.2500000000000001
 40
0.3750000000000002
 40
0.3750000000000002
 40
0.5000000000000003
 40
0.5000000000000003
 40
0.6250000000000004
 40
0.6250000000000004
 40
0.7500000000000007
 40
0.7500000000000007
 40
0.8125000000000008
 40
0.8125000000000008
 40
0.8750000000000008
 40
0.8750000000000008
 40
0.9062500000000006
 40
0.9062500000000006
 40
0.9375000000000002
 40
0.9375000000000002
 40
0.9687499999999999
 40
0.9687499999999999
 40
0.984375
 40
0.984375
 40
0.9921875
 40
0.9921875
 40
1.0
 40
1.0
 40
1.0
 40
1.0
 10
201.7995828231965
 20
448.433045661048
 30
0.0
 10
201.8792796235273
 20
448.7994714814109
 30
0.0
 10
201.9412118352844
 20
449.0620079404604
 30
0.0
 10
202.0228248582355
 20
449.4154351570014
 30
0.0
 10
202.0479416566663
 20
449.5248651698911
 30
0.0
 10
202.09544439543
 20
449.7367192650182
 30
0.0
 10
202.1625082718309
 20
450.0428958679469
 30
0.0
 10
202.218716672956
 20
450.3227344064589
 30
0.0
 10
202.2870611763584
 20
450.6875084980933
 30
0.0
 10
202.3181115189137
 20
450.8667957683999
 30
0.0
 10
202.4040135562753
 20
451.4029183082247
 30
0.0
 10
202.4514715161341
 20
451.7572584603409
 30
0.0
 10
202.5344307730705
 20
452.4864793047636
 30
0.0
 10
202.5695997026492
 20
452.8602003011023
 30
0.0
 10
202.6313688264185
 20
453.6417841427892
 30
0.0
 10
202.6579622511267
 20
454.0491248718742
 30
0.0
 10
202.7046155313892
 20
454.9152853378474
 30
0.0
 10
202.7247584773724
 20
455.3711363907956
 30
0.0
 10
202.7511572495748
 20
456.1220425948376
 30
0.0
 10
202.7593123089068
 20
456.3840057362781
 30
0.0
 10
202.7744637886373
 20
456.9384252437865
 30
0.0
 10
202.781465396655
 20
457.2294443079533
 30
0.0
 10
202.7911273368372
 20
457.7115104155821
 30
0.0
 10
202.7942098195859
 20
457.8791960095806
 30
0.0
 10
202.8000903094408
 20
458.2368470312936
 30
0.0
 10
202.8028838694237
 20
458.427992867634
 30
0.0
 10
202.8081298247968
 20
458.8535630313685
 30
0.0
 10
202.8106199685648
 20
459.0820978533521
 30
0.0
 10
202.813846849523
 20
459.5136683246085
 30
0.0
 10
202.8148658186838
 20
459.6715313618182
 30
0.0
 10
202.8160651186089
 20
459.9521763890456
 30
0.0
 10
202.8164105457915
 20
460.052908725493
 30
0.0
 10
202.8168852269441
 20
460.272527326686
 30
0.0
 10
202.8170063136214
 20
460.3906244444318
 30
0.0
 10
202.8170064847565
 20
460.507827287938
 30
0.0
  0
SPLINE
  5
C6
330
1F
100
AcDbEntity
  8
0
  6
Continuous
 62
     8
370
     0
100
AcDbSpline
210
0.0
220
0.0
230
1.0
 70
     8
 71
     3
 72
    30
 73
    26
 74
     0
 42
0.00000001
 43
0.00000001
 40
0.0
 40
0.0
 40
0.0
 40
0.0
 40
0.0078125000000001
 40
0.0078125000000001
 40
0.0156250000000002
 40
0.0156250000000002
 40
0.0312500000000003
 40
0.0312500000000003
 40
0.0625000000000001
 40
0.0625000000000001
 40
0.1249999999999998
 40
0.1249999999999998
 40
0.1874999999999994
 40
0.1874999999999994
 40
0.2499999999999992
 40
0.2499999999999992
 40
0.3749999999999994
 40
0.3749999999999994
 40
0.4999999999999997
 40
0.4999999999999997
 40
0.7500000000000004
 40
0.7500000000000004
 40
0.8750000000000002
 40
0.8750000000000002
 40
1.0
 40
1.0
 40
1.0
 40
1.0
 10
202.8170064847565
 20
460.507827287938
 30
0.0
 10
202.817006639372
 20
460.6144140279711
 30
0.0
 10
202.8169034488856
 20
460.7215443319213
 30
0.0
 10
202.8165119030662
 20
460.9241817258599
 30
0.0
 10
202.8162184018846
 20
461.0183785730005
 30
0.0
 10
202.8151866013215
 20
461.2812312013024
 30
0.0
 10
202.8142985694839
 20
461.4307405498601
 30
0.0
 10
202.8114672110174
 20
461.840391433053
 30
0.0
 10
202.8092513501057
 20
462.0571693214587
 30
0.0
 10
202.8022569859195
 20
462.6578201495791
 30
0.0
 10
202.7970335787007
 20
462.9841238068029
 30
0.0
 10
202.7856885776171
 20
463.5900191498195
 30
0.0
 10
202.7795513858728
 20
463.8650444895285
 30
0.0
 10
202.7663350387212
 20
464.3858659495571
 30
0.0
 10
202.759262987106
 20
464.632425813163
 30
0.0
 10
202.7365102912479
 20
465.3397168604951
 30
0.0
 10
202.7192898414901
 20
465.7678003980403
 30
0.0
 10
202.6799317620275
 20
466.5827633164953
 30
0.0
 10
202.6578021262578
 20
466.9664661385985
 30
0.0
 10
202.5816738125683
 20
468.0682217298464
 30
0.0
 10
202.5187601796999
 20
468.7377119259019
 30
0.0
 10
202.3887465384631
 20
469.7135843312037
 30
0.0
 10
202.3390979200877
 20
470.0350637977368
 30
0.0
 10
202.2203194717394
 20
470.6954419400487
 30
0.0
 10
202.1521273949078
 20
471.0280598457928
 30
0.0
 10
202.0644813937671
 20
471.4177399174768
 30
0.0
  0
SPLINE
  5
C7
330
1F
100
AcDbEntity
  8
0
  6
Continuous
 62
     8
370
     0
100
AcDbSpline
210
0.0
220
0.0
230
1.0
 70
     8
 71
     3
 72
    10
 73
     6
 74
     0
 42
0.00000001
 43
0.00000001
 40
0.0
 40
0.0
 40
0.0
 40
0.0
 40
0.5
 40
0.5
 40
1.0
 40
1.0
 40
1.0
 40
1.0
 10
202.0644813937671
 20
471.4177399174768
 30
0.0
 10
202.0295555200823
 20
471.5730227231267
 30
0.0
 10
201.9916977688596
 20
471.7360599837252
 30
0.0
 10
201.9055804822688
 20
472.1083354622754
 30
0.0
 10
201.8573101896827
 20
472.3181522760684
 30
0.0
 10
201.7995428436165
 20
472.583751371948
 30
0.0
  0
SPLINE
  5
C8
330
1F
100
AcDbEntity
  8
0
  6
Continuous
 62
     8
370
     0
100
AcDbSpline
210
0.0
220
0.0
230
1.0
 70
     8
 71
     3
 72
    16
 73
    12
 74
     0
 42
0.00000001
 43
0.00000001
 40
0.0
 40
0.0
 40
0.0
 40
0.0
 40
0.2499999999999997
 40
0.2499999999999997
 40
0.3749999999999993
 40
0.3749999999999993
 40
0.499999999999999
 40
0.499999999999999
 40
0.7499999999999996
 40
0.7499999999999996
 40
1.0
 40
1.0
 40
1.0
 40
1.0
 10
201.7995428436165
 20
472.583751371948
 30
0.0
 10
201.6592313546817
 20
473.228866733782
 30
0.0
 10
201.485892669764
 20
473.9505353673757
 30
0.0
 10
201.1715542517626
 20
475.0301471401788
 30
0.0
 10
201.0577612445668
 20
475.3887225401363
 30
0.0
 10
200.8113818826913
 20
476.088355123079
 30
0.0
 10
200.678593019281
 20
476.4310253433491
 30
0.0
 10
200.2474242331037
 20
477.4366680077582
 30
0.0
 10
199.9173769061535
 20
478.0714402576176
 30
0.0
 10
199.1326441992512
 20
479.3652863808834
 30
0.0
 10
198.6762320542976
 20
480.0293343907272
 30
0.0
 10
198.1435311843265
 20
480.735074127738
 30
0.0
  0
LINE
  5
C9
330
1F
100
AcDbEntity
  8
0
  6
Continuous
 62
     8
370
     0
100
AcDbLine
 10
179.0154783935
 20
492.4042936225
 30
0.0
 11
179.0154783935
 21
492.6048938312
 31
0.0
  0
LINE
  5
CA
330
1F
100
AcDbEntity
  8
0
  6
Continuous
 62
     8
370
     0
100
AcDbLine
 10
154.9434783935
 20
501.3482085721
 30
0.0
 11
159.7545108985
 21
501.3482085721
 31
0.0
  0
LINE
  5
CB
330
1F
100
AcDbEntity
  8
0
  6
Continuous
 62
     8
370
     0
100
AcDbLine
 10
168.3439158689
 20
501.3482085721
 30
0.0
 11
203.0874783935
 21
501.3482085721
 31
0.0
  0
LINE
  5
CC
330
1F
100
AcDbEntity
  8
0
  6
Continuous
 62
     8
370
     0
100
AcDbLine
 10
166.1109995022
 20
507.3976235962
 30
0.0
 11
200.0362851505
 21
507.3976235962
 31
0.0
  0
SPLINE
  5
CD
330
1F
100
AcDbEntity
  8
0
  6
Continuous
 62
     7
370
    15
100
AcDbSpline
210
0.0
220
0.0
230
1.0
 70
     8
 71
     3
 72
     9
 73
     5
 74
     0
 42
0.00000001
 43
0.00000001
 40
0.0
 40
0.0
 40
0.0
 40
0.0
 40
0.5704193055399873
 40
1.0
 40
1.0
 40
1.0
 40
1.0
 10
418.4666318455194
 20
539.1514276600708
 30
0.0
 10
418.4884254336851
 20
539.9622363688152
 30
0.0
 10
418.5266316934557
 20
541.3836621530928
 30
0.0
 10
418.2893460964202
 20
542.7824912190533
 30
0.0
 10
418.1874127848603
 20
543.3834011806395
 30
0.0
  0
SPLINE
  5
CE
330
1F
100
AcDbEntity
  8
0
  6
Continuous
 62
     7
370
    15
100
AcDbSpline
210
0.0
220
0.0
230
1.0
 70
     8
 71
     3
 72
     9
 73
     5
 74
     0
 42
0.00000001
 43
0.00000001
 40
0.0
 40
0.0
 40
0.0
 40
0.0
 40
0.5124773688710248
 40
1.0
 40
1.0
 40
1.0
 40
1.0
 10
402.6605077668735
 20
544.0973290052623
 30
0.0
 10
402.5138079830821
 20
543.2591638161616
 30
0.0
 10
402.2275518619296
 20
541.6236473231166
 30
0.0
 10
402.2632894922151
 20
539.9617329319705
 30
0.0
 10
402.2807123957621
 20
539.1515120552878
 30
0.0
  0
SPLINE
  5
CF
330
1F
100
AcDbEntity
  8
0
  6
Continuous
 62
     7
370
    15
100
AcDbSpline
210
0.0
220
0.0
230
1.0
 70
     8
 71
     3
 72
     9
 73
     5
 74
     0
 42
0.00000001
 43
0.00000001
 40
0.0
 40
0.0
 40
0.0
 40
0.0
 40
0.2694115949670842
 40
1.0
 40
1.0
 40
1.0
 40
1.0
 10
410.3801939440461
 20
549.6629715452804
 30
0.0
 10
410.195625219334
 20
549.6660720197815
 30
0.0
 10
409.5105443684728
 20
549.6775803384988
 30
0.0
 10
408.8395108997321
 20
549.5286181483349
 30
0.0
 10
408.3492616280812
 20
549.4197880994127
 30
0.0
  0
SPLINE
  5
D0
330
1F
100
AcDbEntity
  8
0
  6
Continuous
 62
     7
370
    15
100
AcDbSpline
210
0.0
220
0.0
230
1.0
 70
     8
 71
     3
 72
     9
 73
     5
 74
     0
 42
0.00000001
 43
0.00000001
 40
0.0
 40
0.0
 40
0.0
 40
0.0
 40
0.2710878401940977
 40
1.0
 40
1.0
 40
1.0
 40
1.0
 10
412.3997267997742
 20
549.4127827621359
 30
0.0
 10
412.2218389755012
 20
549.460485962831
 30
0.0
 10
411.5656390362278
 20
549.6364554960305
 30
0.0
 10
410.8822697649448
 20
549.6547548298875
 30
0.0
 10
410.384153593469
 20
549.6680934368522
 30
0.0
  0
SPLINE
  5
D1
330
1F
100
AcDbEntity
  8
0
  6
Continuous
 62
     7
370
    15
100
AcDbSpline
210
0.0
220
0.0
230
1.0
 70
     8
 71
     3
 72
     9
 73
     5
 74
     0
 42
0.00000001
 43
0.00000001
 40
0.0
 40
0.0
 40
0.0
 40
0.0
 40
0.2672378586265862
 40
1.0
 40
1.0
 40
1.0
 40
1.0
 10
408.3468459352981
 20
549.4122524122396
 30
0.0
 10
408.1658231525823
 20
549.3699592319044
 30
0.0
 10
407.4884386545691
 20
549.2116987947327
 30
0.0
 10
406.8680266554714
 20
548.8960027557195
 30
0.0
 10
406.4134122304789
 20
548.6646726501491
 30
0.0
  0
SPLINE
  5
D2
330
1F
100
AcDbEntity
  8
0
  6
Continuous
 62
     7
370
    15
100
AcDbSpline
210
0.0
220
0.0
230
1.0
 70
     8
 71
     3
 72
     9
 73
     5
 74
     0
 42
0.00000001
 43
0.00000001
 40
0.0
 40
0.0
 40
0.0
 40
0.0
 40
0.3006961447915657
 40
1.0
 40
1.0
 40
1.0
 40
1.0
 10
414.1901380522568
 20
548.7323612984753
 30
0.0
 10
414.0213183977685
 20
548.8240980625335
 30
0.0
 10
413.459889003303
 20
549.1291793402526
 30
0.0
 10
412.8367604405743
 20
549.292850248978
 30
0.0
 10
412.4010042343675
 20
549.4073059464353
 30
0.0
  0
SPLINE
  5
D3
330
1F
100
AcDbEntity
  8
0
  6
Continuous
 62
     7
370
    15
100
AcDbSpline
210
0.0
220
0.0
230
1.0
 70
     8
 71
     3
 72
     9
 73
     5
 74
     0
 42
0.00000001
 43
0.00000001
 40
0.0
 40
0.0
 40
0.0
 40
0.0
 40
0.5357137789639675
 40
1.0
 40
1.0
 40
1.0
 40
1.0
 10
417.2687071477816
 20
545.8871612065218
 30
0.0
 10
417.2250335059875
 20
545.9699913104516
 30
0.0
 10
417.1435092975222
 20
546.1246076507109
 30
0.0
 10
417.0274390645977
 20
546.2561615197633
 30
0.0
 10
416.9735492547784
 20
546.3172401684883
 30
0.0
  0
SPLINE
  5
D4
330
1F
100
AcDbEntity
  8
0
  6
Continuous
 62
     7
370
    15
100
AcDbSpline
210
0.0
220
0.0
230
1.0
 70
     8
 71
     3
 72
    10
 73
     6
 74
     0
 42
0.00000001
 43
0.00000001
 40
0.0
 40
0.0
 40
0.0
 40
0.0
 40
0.1651047172880543
 40
0.7089782666070605
 40
1.0
 40
1.0
 40
1.0
 40
1.0
 10
416.4692560555379
 20
546.9326600808188
 30
0.0
 10
416.370036529622
 20
547.0583206348508
 30
0.0
 10
415.9439767013336
 20
547.5979212182981
 30
0.0
 10
415.1652508056296
 20
548.218856806398
 30
0.0
 10
414.4349848839594
 20
548.5860547719527
 30
0.0
 10
414.180434093264
 20
548.7140499716467
 30
0.0
  0
SPLINE
  5
D5
330
1F
100
AcDbEntity
  8
0
  6
Continuous
 62
     7
370
    15
100
AcDbSpline
210
0.0
220
0.0
230
1.0
 70
     8
 71
     3
 72
     9
 73
     5
 74
     0
 42
0.00000001
 43
0.00000001
 40
0.0
 40
0.0
 40
0.0
 40
0.0
 40
0.5296992539665311
 40
1.0
 40
1.0
 40
1.0
 40
1.0
 10
406.4123826637248
 20
548.6560005849233
 30
0.0
 10
406.2213476949649
 20
548.5580867653739
 30
0.0
 10
405.8606997096612
 20
548.3732388185132
 30
0.0
 10
405.5573910660553
 20
548.1080555586849
 30
0.0
 10
405.414744784689
 20
547.9833396737521
 30
0.0
  0
SPLINE
  5
D6
330
1F
100
AcDbEntity
  8
0
  6
Continuous
 62
     7
370
    15
100
AcDbSpline
210
0.0
220
0.0
230
1.0
 70
     8
 71
     3
 72
     9
 73
     5
 74
     0
 42
0.00000001
 43
0.00000001
 40
0.0
 40
0.0
 40
0.0
 40
0.0
 40
0.5212055961435328
 40
1.0
 40
1.0
 40
1.0
 40
1.0
 10
405.4019147944522
 20
547.9993082579248
 30
0.0
 10
405.2348248079064
 20
547.88017359948
 30
0.0
 10
404.9142411691617
 20
547.6515984281344
 30
0.0
 10
404.6614379998368
 20
547.3529966304611
 30
0.0
 10
404.5403972570869
 20
547.2100277607535
 30
0.0
  0
SPLINE
  5
D7
330
1F
100
AcDbEntity
  8
0
  6
Continuous
 62
     7
370
    15
100
AcDbSpline
210
0.0
220
0.0
230
1.0
 70
     8
 71
     3
 72
     9
 73
     5
 74
     0
 42
0.00000001
 43
0.00000001
 40
0.0
 40
0.0
 40
0.0
 40
0.0
 40
0.7729611984207524
 40
1.0
 40
1.0
 40
1.0
 40
1.0
 10
404.1600817559098
 20
546.8202992528574
 30
0.0
 10
404.0154246846648
 20
546.6647974882172
 30
0.0
 10
403.8282780703968
 20
546.4636208121334
 30
0.0
 10
403.6976287061602
 20
546.22492819128
 30
0.0
 10
403.6679662310768
 20
546.1707357046955
 30
0.0
  0
SPLINE
  5
D8
330
1F
100
AcDbEntity
  8
0
  6
Continuous
 62
     7
370
    15
100
AcDbSpline
210
0.0
220
0.0
230
1.0
 70
     8
 71
     3
 72
     9
 73
     5
 74
     0
 42
0.00000001
 43
0.00000001
 40
0.0
 40
0.0
 40
0.0
 40
0.0
 40
0.6585943820010044
 40
1.0
 40
1.0
 40
1.0
 40
1.0
 10
417.368034597402
 20
545.7253521201726
 30
0.0
 10
417.3515576732203
 20
545.7650368632851
 30
0.0
 10
417.3265393544614
 20
545.8252935921569
 30
0.0
 10
417.2861426805423
 20
545.8764429163111
 30
0.0
 10
417.2723510291179
 20
545.8939055829343
 30
0.0
  0
SPLINE
  5
D9
330
1F
100
AcDbEntity
  8
0
  6
Continuous
 62
     7
370
    15
100
AcDbSpline
210
0.0
220
0.0
230
1.0
 70
     8
 71
     3
 72
     9
 73
     5
 74
     0
 42
0.00000001
 43
0.00000001
 40
0.0
 40
0.0
 40
0.0
 40
0.0
 40
0.6164312764015237
 40
1.0
 40
1.0
 40
1.0
 40
1.0
 10
403.4784340592144
 20
545.8897867453202
 30
0.0
 10
403.4322350931787
 20
545.8278036644426
 30
0.0
 10
403.3572892430828
 20
545.7272521784124
 30
0.0
 10
403.3084676884161
 20
545.612153324841
 30
0.0
 10
403.2897412670085
 20
545.5680050044889
 30
0.0
  0
ARC
  5
DA
330
1F
100
AcDbEntity
  8
0
  6
Continuous
 62
     7
370
    15
100
AcDbCircle
 10
310.5250531005
 20
501.3482085721
 30
0.0
 40
7.52249999999998
100
AcDbArc
 50
126.46923439
 51
180.0
  0
ARC
  5
DB
330
1F
100
AcDbEntity
  8
0
  6
Continuous
 62
     7
370
    15
100
AcDbCircle
 10
343.6240531005
 20
501.3482085721
 30
0.0
 40
7.522500000000036
100
AcDbArc
 50
0.0
 51
53.53076561
  0
LINE
  5
DC
330
1F
100
AcDbEntity
  8
0
  6
Continuous
 62
     7
370
    15
100
AcDbLine
 10
303.0025531005
 20
501.3482085721
 30
0.0
 11
303.0025531005
 21
492.8054938079
 31
0.0
  0
LINE
  5
DD
330
1F
100
AcDbEntity
  8
0
  6
Continuous
 62
     7
370
    15
100
AcDbLine
 10
351.1465531005
 20
492.8054938079
 30
0.0
 11
351.1465531005
 21
501.3482085721
 31
0.0
  0
ARC
  5
DE
330
1F
100
AcDbEntity
  8
0
  6
Continuous
 62
     7
370
    15
100
AcDbCircle
 10
303.2031531005
 20
492.8054938079
 30
0.0
 40
0.2006000000000085
100
AcDbArc
 50
180.0
 51
270.0
  0
ARC
  5
DF
330
1F
100
AcDbEntity
  8
0
  6
Continuous
 62
     7
370
    15
100
AcDbCircle
 10
350.9459531005
 20
492.8054938079
 30
0.0
 40
0.2006000000000085
100
AcDbArc
 50
270.0
 51
0.0
  0
ARC
  5
E0
330
1F
100
AcDbEntity
  8
0
  6
Continuous
 62
     7
370
    15
100
AcDbCircle
 10
303.2031531237
 20
492.4042938079
 30
0.0
 40
0.2006000231938304
100
AcDbArc
 50
90.0000033214
 51
180.0001059127
  0
LINE
  5
E1
330
1F
100
AcDbEntity
  8
0
  6
Continuous
 62
     7
370
    15
100
AcDbLine
 10
303.0025531006
 20
492.4042934371
 30
0.0
 11
303.0025531006
 21
390.2983923079
 31
0.0
  0
LINE
  5
E2
330
1F
100
AcDbEntity
  8
0
  6
Continuous
 62
     7
370
    15
100
AcDbLine
 10
380.0329547063
 20
483.5773911299
 30
0.0
 11
357.0641859506
 21
483.5773923118
 31
0.0
  0
ARC
  5
E3
330
1F
100
AcDbEntity
  8
0
  6
Continuous
 62
     7
370
    15
100
AcDbCircle
 10
379.7320531014
 20
437.8405923023
 30
0.0
 40
0.5015000107815785
100
AcDbArc
 50
306.8701287354
 51
0.0000149883
  0
LINE
  5
E4
330
1F
100
AcDbEntity
  8
0
  6
Continuous
 62
     7
370
    15
100
AcDbLine
 10
382.2395531014
 20
482.5743923086
 30
0.0
 11
380.2335531014
 21
482.5743923086
 31
0.0
  0
LINE
  5
E5
330
1F
100
AcDbEntity
  8
0
  6
Continuous
 62
     7
370
    15
100
AcDbLine
 10
380.2335531014
 20
438.4423923086
 30
0.0
 11
382.2395531014
 21
438.4423923086
 31
0.0
  0
ARC
  5
E6
330
1F
100
AcDbEntity
  8
0
  6
Continuous
 62
     7
370
    15
100
AcDbCircle
 10
382.3132394042
 20
460.5085153415
 30
0.0
 40
22.06600000000005
100
AcDbArc
 50
269.814578935
 51
294.6394738715
  0
ARC
  5
E7
330
1F
100
AcDbEntity
  8
0
  6
Continuous
 62
     7
370
    15
100
AcDbCircle
 10
382.3132394042
 20
460.5085153415
 30
0.0
 40
22.066
100
AcDbArc
 50
75.7200063084
 51
90.1843276442
  0
LINE
  5
E8
330
1F
100
AcDbEntity
  8
0
  6
Continuous
 62
     7
370
    15
100
AcDbLine
 10
348.0953598575
 20
507.3976235962
 30
0.0
 11
339.7449195885
 21
513.5696881429
 31
0.0
  0
LINE
  5
E9
330
1F
100
AcDbEntity
  8
0
  6
Continuous
 62
     7
370
    15
100
AcDbLine
 10
314.4041866124
 20
513.5696881429
 30
0.0
 11
306.0537463435
 21
507.3976235962
 31
0.0
  0
ARC
  5
EA
330
1F
100
AcDbEntity
  8
0
  6
Continuous
 62
     7
370
    15
100
AcDbCircle
 10
286.1201678265
 20
460.5083923088
 30
0.0
 40
133.730653226773
100
AcDbArc
 50
351.1727494785
 51
0.0
  0
ARC
  5
EB
330
1F
100
AcDbEntity
  8
0
  6
Continuous
 62
     7
370
    15
100
AcDbCircle
 10
314.7022737296
 20
513.1663938079
 30
0.0
 40
0.5014999999998602
100
AcDbArc
 50
90.0
 51
126.4692343901
  0
ARC
  5
EC
330
1F
100
AcDbEntity
  8
0
  6
Continuous
 62
     7
370
    15
100
AcDbCircle
 10
339.4468324713
 20
513.1663938079
 30
0.0
 40
0.5014999999998602
100
AcDbArc
 50
53.5307656099
 51
90.0
  0
SPLINE
  5
ED
330
1F
100
AcDbEntity
  8
0
  6
Continuous
 62
     7
370
    15
100
AcDbSpline
210
0.0
220
0.0
230
1.0
 70
     8
 71
     3
 72
    14
 73
    10
 74
     0
 42
0.00000001
 43
0.00000001
 40
0.0
 40
0.0
 40
0.0
 40
0.0
 40
0.0628496658188213
 40
0.1932813719937534
 40
0.4151668801980419
 40
0.5929503575655414
 40
0.7528478039654091
 40
0.9594068541323056
 40
1.0
 40
1.0
 40
1.0
 40
1.0
 10
401.5856611512416
 20
489.8045289910721
 30
0.0
 10
401.5223134962093
 20
489.6001772793277
 30
0.0
 10
401.327500659614
 20
488.9717351277165
 30
0.0
 10
400.7015787296446
 20
487.83182827494
 30
0.0
 10
399.8586791901654
 20
486.6446213874191
 30
0.0
 10
398.8092315636962
 20
485.6535647643771
 30
0.0
 10
397.5089533273451
 20
484.8449582797303
 30
0.0
 10
396.3776781597836
 20
484.3892825249717
 30
0.0
 10
395.5683306362681
 20
484.2114485500094
 30
0.0
 10
395.4354005526724
 20
484.1822404725506
 30
0.0
  0
SPLINE
  5
EE
330
1F
100
AcDbEntity
  8
0
  6
Continuous
 62
     7
370
    15
100
AcDbSpline
210
0.0
220
0.0
230
1.0
 70
     8
 71
     3
 72
    10
 73
     6
 74
     0
 42
0.00000001
 43
0.00000001
 40
0.0
 40
0.0
 40
0.0
 40
0.0
 40
0.4190895544172177
 40
0.703605570799696
 40
0.9999999999999999
 40
0.9999999999999999
 40
0.9999999999999999
 40
0.9999999999999999
 10
390.8352159510747
 20
483.6198617807698
 30
0.0
 10
390.5894084524384
 20
483.6096824000688
 30
0.0
 10
390.1767245199427
 20
483.5925923321035
 30
0.0
 10
389.5862049622891
 20
483.5819599174948
 30
0.0
 10
389.243729897669
 20
483.5785487759309
 30
0.0
 10
389.0689909132604
 20
483.5768083297667
 30
0.0
  0
SPLINE
  5
EF
330
1F
100
AcDbEntity
  8
0
  6
Continuous
 62
     7
370
    15
100
AcDbSpline
210
0.0
220
0.0
230
1.0
 70
     8
 71
     3
 72
    15
 73
    11
 74
     0
 42
0.00000001
 43
0.00000001
 40
0.0
 40
0.0
 40
0.0
 40
0.0
 40
0.1266664456142873
 40
0.2571693682471796
 40
0.3850741155286228
 40
0.5057735698760097
 40
0.6192080416117659
 40
0.7338340453932446
 40
0.8622737091707393
 40
1.0
 40
1.0
 40
1.0
 40
1.0
 10
419.8508210532774
 20
460.5083923087439
 30
0.0
 10
419.832789001193
 20
462.0768904483853
 30
0.0
 10
419.7961787417018
 20
465.2613934453096
 30
0.0
 10
419.565115680698
 20
469.9560060276978
 30
0.0
 10
419.3139993185616
 20
474.3851492392934
 30
0.0
 10
419.0594679146186
 20
478.3468450927737
 30
0.0
 10
418.8230083289947
 20
481.9555596602834
 30
0.0
 10
418.6240651846352
 20
485.8220095093623
 30
0.0
 10
418.4810854791046
 20
490.1863118669546
 30
0.0
 10
418.4591852628367
 20
493.2583578225183
 30
0.0
 10
418.4478531014437
 20
494.8479732011717
 30
0.0
  0
LINE
  5
F0
330
1F
100
AcDbEntity
  8
0
  6
Continuous
 62
     7
370
    15
100
AcDbLine
 10
390.315617675
 20
483.1596682209
 30
0.0
 11
390.0983128072
 21
482.6035783166
 31
0.0
  0
LINE
  5
F1
330
1F
100
AcDbEntity
  8
0
  6
Continuous
 62
     7
370
    15
100
AcDbLine
 10
339.0604030998
 20
513.6678938079
 30
0.0
 11
339.0604030998
 21
513.8684938098
 31
0.0
  0
LINE
  5
F2
330
1F
100
AcDbEntity
  8
0
  6
Continuous
 62
     7
370
    15
100
AcDbLine
 10
315.0887030998
 20
513.8684938098
 30
0.0
 11
315.0887030998
 21
513.6678938079
 31
0.0
  0
LINE
  5
F3
330
1F
100
AcDbEntity
  8
0
  6
Continuous
 62
     7
370
    15
100
AcDbLine
 10
390.0629531014
 20
482.4218005529
 30
0.0
 11
390.0629531014
 21
482.2000245466
 31
0.0
  0
ARC
  5
F4
330
1F
100
AcDbEntity
  8
0
  6
Continuous
 62
     7
370
    15
100
AcDbCircle
 10
432.3895531014
 20
648.0693923086
 30
0.0
 40
94.28200000000017
100
AcDbArc
 50
10.0
 51
180.0
  0
ARC
  5
F5
330
1F
100
AcDbEntity
  8
0
  6
Continuous
 62
     7
370
    15
100
AcDbCircle
 10
432.3895531014
 20
648.0693923086
 30
0.0
 40
116.3480000000001
100
AcDbArc
 50
10.0
 51
180.0
  0
LINE
  5
F6
330
1F
100
AcDbEntity
  8
0
  6
Continuous
 62
     7
370
    15
100
AcDbLine
 10
316.0415531014
 20
648.0693923086
 30
0.0
 11
316.0415531014
 21
513.8684938098
 31
0.0
  0
LINE
  5
F7
330
1F
100
AcDbEntity
  8
0
  6
Continuous
 62
     7
370
    15
100
AcDbLine
 10
338.1075531014
 20
513.8684938098
 30
0.0
 11
338.1075531014
 21
648.0693923086
 31
0.0
  0
LINE
  5
F8
330
1F
100
AcDbEntity
  8
0
  6
Continuous
 62
     7
370
    15
100
AcDbLine
 10
554.4592378035
 20
625.7992369041
 30
0.0
 11
546.9699655489
 21
668.2730104838
 31
0.0
  0
LINE
  5
F9
330
1F
100
AcDbEntity
  8
0
  6
Continuous
 62
     7
370
    15
100
AcDbLine
 10
525.2391976709
 20
664.4412897954
 30
0.0
 11
532.7284699255
 21
621.9675162157
 31
0.0
  0
LINE
  5
FA
330
1F
100
AcDbEntity
  8
0
  6
Continuous
 62
     7
370
    15
100
AcDbLine
 10
554.6334069257
 20
624.8114747279
 30
0.0
 11
554.4592378035
 21
625.7992369041
 31
0.0
  0
LINE
  5
FB
330
1F
100
AcDbEntity
  8
0
  6
Continuous
 62
     7
370
    15
100
AcDbLine
 10
532.7284699255
 20
621.9675162157
 30
0.0
 11
532.9026390477
 21
620.9797540395
 31
0.0
  0
LINE
  5
FC
330
1F
100
AcDbEntity
  8
0
  6
Continuous
 62
     7
370
    15
100
AcDbLine
 10
393.3206729024
 20
437.4393923086
 30
0.0
 11
415.2934894619
 21
437.4393923086
 31
0.0
  0
ARC
  5
FD
330
1F
100
AcDbEntity
  8
0
  6
Continuous
 62
     7
370
    15
100
AcDbCircle
 10
415.2934894619
 20
440.4483923086
 30
0.0
 40
3.009000000000071
100
AcDbArc
 50
269.9999999999
 51
351.1727494785
  0
LINE
  5
FE
330
1F
100
AcDbEntity
  8
0
  6
Continuous
 62
     7
370
    15
100
AcDbLine
 10
389.124619977
 20
483.5773923086
 30
0.0
 11
387.9566531015
 21
483.5773923086
 31
0.0
  0
ARC
  5
FF
330
1F
100
AcDbEntity
  8
0
  6
Continuous
 62
     7
370
    15
100
AcDbCircle
 10
387.9566531015
 20
483.3767923086
 30
0.0
 40
0.2006000000000085
100
AcDbArc
 50
89.9999999999
 51
179.9999999999
  0
SPLINE
  5
100
330
1F
100
AcDbEntity
  8
0
  6
Continuous
 62
     7
370
    15
100
AcDbSpline
210
0.0
220
0.0
230
1.0
 70
     8
 71
     3
 72
    12
 73
     8
 74
     0
 42
0.00000001
 43
0.00000001
 40
0.8952832756313803
 40
0.8952832756313803
 40
0.8952832756313803
 40
0.8952832756313803
 40
0.9214624567598514
 40
0.947641637839901
 40
0.9738208189199504
 40
0.9912736063066502
 40
1.0
 40
1.0
 40
1.0
 40
1.0
 10
402.3601565327838
 20
494.4081445318727
 30
0.0
 10
402.3482719319164
 20
494.4511749034011
 30
0.0
 10
402.3296760678706
 20
494.5308837351025
 30
0.0
 10
402.3117701742818
 20
494.6408675761668
 30
0.0
 10
402.3028444806428
 20
494.7339322240109
 30
0.0
 10
402.2999157133077
 20
494.8024600597676
 30
0.0
 10
402.2995531016901
 20
494.8365949562236
 30
0.0
 10
402.2995531014442
 20
494.847972928974
 30
0.0
  0
SPLINE
  5
101
330
1F
100
AcDbEntity
  8
0
  6
Continuous
 62
     7
370
    15
100
AcDbSpline
210
0.0
220
0.0
230
1.0
 70
     8
 71
     3
 72
     8
 73
     4
 74
     0
 42
0.00000001
 43
0.00000001
 40
0.0
 40
0.0
 40
0.0
 40
0.0
 40
1.0
 40
1.0
 40
1.0
 40
1.0
 10
403.4370692519784
 20
545.8234641318562
 30
0.0
 10
403.0766518170213
 20
545.2445019441194
 30
0.0
 10
402.8026883963273
 20
544.6330013670683
 30
0.0
 10
402.6271700457984
 20
543.9777374355508
 30
0.0
  0
SPLINE
  5
102
330
1F
100
AcDbEntity
  8
0
  6
Continuous
 62
     7
370
    15
100
AcDbSpline
210
0.0
220
0.0
230
1.0
 70
     8
 71
     3
 72
     8
 73
     4
 74
     0
 42
0.00000001
 43
0.00000001
 40
0.0
 40
0.0
 40
0.0
 40
0.0
 40
1.0
 40
1.0
 40
1.0
 40
1.0
 10
418.1202203739962
 20
543.9778456638173
 30
0.0
 10
417.9444429544858
 20
544.632896698005
 30
0.0
 10
417.6696232724376
 20
545.2436275586587
 30
0.0
 10
417.3096618455822
 20
545.8229031335272
 30
0.0
  0
SPLINE
  5
103
330
1F
100
AcDbEntity
  8
0
  6
Continuous
 62
     7
370
    15
100
AcDbSpline
210
0.0
220
0.0
230
1.0
 70
     8
 71
     3
 72
     8
 73
     4
 74
     0
 42
0.00000001
 43
0.00000001
 40
0.0
 40
0.0
 40
0.0
 40
0.0
 40
1.0
 40
1.0
 40
1.0
 40
1.0
 10
418.3872660322444
 20
542.0513733084528
 30
0.0
 10
418.365363591177
 20
542.6906128215426
 30
0.0
 10
418.2907653122898
 20
543.3422939614661
 30
0.0
 10
418.1202203739962
 20
543.9778456638173
 30
0.0
  0
LWPOLYLINE
  5
104
330
1F
100
AcDbEntity
  8
0
  6
Continuous
 62
     7
370
    15
100
AcDbPolyline
 90
       27
 70
   128
 43
0.0
 10
303.2031531174
 20
492.6048938079
 10
303.24842931
 20
492.6048937847
 10
303.6096090596
 20
492.604893785
 10
304.3264934421
 20
492.6048937857
 10
305.3882152209
 20
492.6048937868
 10
306.7786797761
 20
492.6048937881
 10
308.4768090824
 20
492.6048937898
 10
310.4568612306
 20
492.6048937917
 10
312.6888206483
 20
492.6048937939
 10
315.138853106
 20
492.6048937963
 10
317.7698186091
 20
492.6048937989
 10
320.5418344023
 20
492.6048938016
 10
323.4128795519
 20
492.6048938044
 10
326.33943194
 20
492.6048938072
 10
329.2771280155
 20
492.6048938101
 10
332.1814353005
 20
492.6048938129
 10
335.0083274571
 20
492.6048938157
 10
337.7149516816
 20
492.6048938183
 10
340.2602783098
 20
492.6048938208
 10
342.6057227847
 20
492.6048938231
 10
344.7157305588
 20
492.6048938251
 10
346.558316065
 20
492.6048938269
 10
348.1055475853
 20
492.6048938284
 10
349.3339706671
 20
492.6048938296
 10
350.2249636685
 20
492.6048938305
 10
350.765020044
 20
492.604893831
 10
350.9459530893
 20
492.6048938312
  0
ARC
  5
105
330
1F
100
AcDbEntity
  8
0
  6
Continuous
 62
     7
370
    15
100
AcDbCircle
 10
350.9459530772
 20
492.4042938079
 30
0.0
 40
0.2006000236563925
100
AcDbArc
 50
359.9999470437
 51
89.9999965369
  0
LINE
  5
106
330
1F
100
AcDbEntity
  8
0
  6
Continuous
 62
     7
370
    15
100
AcDbLine
 10
351.1465531003
 20
431.5216919795
 30
0.0
 11
351.1465531003
 21
390.2983923079
 31
0.0
  0
LINE
  5
107
330
1F
100
AcDbEntity
  8
0
  6
Continuous
 62
     7
370
    15
100
AcDbLine
 10
351.1465531009
 20
492.4042936225
 30
0.0
 11
351.1465531003
 21
489.4950250384
 31
0.0
  0
LINE
  5
108
330
1F
100
AcDbEntity
  8
0
  6
Continuous
 62
     7
370
    15
100
AcDbLine
 10
303.0025531006
 20
390.2983923079
 30
0.0
 11
351.1465531003
 21
390.2983923079
 31
0.0
  0
LINE
  5
109
330
1F
100
AcDbEntity
  8
0
  6
Continuous
 62
     7
370
    15
100
AcDbLine
 10
380.0329547261
 20
437.4393934657
 30
0.0
 11
357.0642531476
 21
437.4393923088
 31
0.0
  0
LINE
  5
10A
330
1F
100
AcDbEntity
  8
0
  6
Continuous
 62
     7
370
    15
100
AcDbLine
 10
387.7560531013
 20
453.2684348078
 30
0.0
 11
387.7560531014
 21
481.9976700708
 31
0.0
  0
LINE
  5
10B
330
1F
100
AcDbEntity
  8
0
  6
Continuous
 62
     7
370
    15
100
AcDbLine
 10
380.233553101
 20
483.1761921767
 30
0.0
 11
380.233553101
 21
437.8405924335
 31
0.0
  0
ARC
  5
10C
330
1F
100
AcDbEntity
  8
0
  6
Continuous
 62
     7
370
    15
100
AcDbCircle
 10
379.7320531014
 20
483.1761923079
 30
0.0
 40
0.5014999995768962
100
AcDbArc
 50
359.9999850117
 51
53.1298716798
  0
SPLINE
  5
10D
330
1F
100
AcDbEntity
  8
0
  6
Continuous
 62
     7
370
    15
100
AcDbSpline
210
0.0
220
0.0
230
1.0
 70
     8
 71
     3
 72
     8
 73
     4
 74
     0
 42
0.00000001
 43
0.00000001
 40
0.0
 40
0.0
 40
0.0
 40
0.0
 40
1.0
 40
1.0
 40
1.0
 40
1.0
 10
387.9050200340579
 20
452.1277809659798
 30
0.0
 10
387.8057054365332
 20
452.4989476984172
 30
0.0
 10
387.7560531013326
 20
452.8790644081901
 30
0.0
 10
387.756053101333
 20
453.2684348077561
 30
0.0
  0
ELLIPSE
  5
10E
330
1F
100
AcDbEntity
  8
0
  6
Continuous
 62
     7
370
    15
100
AcDbEllipse
 10
387.7681528728
 20
460.4627894419
 30
0.0
 11
-5.394075470412076
 21
22.86424549068226
 31
0.0
210
0.0
220
0.0
230
0.9999999999999999
 40
0.0808083079
 41
1.924805774718068
 42
2.815806791206596
  0
SPLINE
  5
10F
330
1F
100
AcDbEntity
  8
0
  6
Continuous
 62
     7
370
    15
100
AcDbSpline
210
0.0
220
0.0
230
1.0
 70
     8
 71
     3
 72
    10
 73
     6
 74
     0
 42
0.00000001
 43
0.00000001
 40
0.0
 40
0.0
 40
0.0
 40
0.0
 40
0.5
 40
0.5
 40
1.0
 40
1.0
 40
1.0
 40
1.0
 10
394.7839188945386
 20
481.0712154223376
 30
0.0
 10
395.0578022683903
 20
481.1783572197892
 30
0.0
 10
395.3117344598564
 20
481.3048521556913
 30
0.0
 10
395.7862501593331
 20
481.5887949692765
 30
0.0
 10
396.0081622969749
 20
481.7475561942425
 30
0.0
 10
396.2106081889717
 20
481.9158237533133
 30
0.0
  0
SPLINE
  5
110
330
1F
100
AcDbEntity
  8
0
  6
Continuous
 62
     7
370
    15
100
AcDbSpline
210
0.0
220
0.0
230
1.0
 70
     8
 71
     3
 72
    12
 73
     8
 74
     0
 42
0.00000001
 43
0.00000001
 40
0.0
 40
0.0
 40
0.0
 40
0.0
 40
0.5000000000000073
 40
0.5000000000000073
 40
0.7500000000000037
 40
0.7500000000000037
 40
1.0
 40
1.0
 40
1.0
 40
1.0
 10
396.2106081889717
 20
481.9158237533131
 30
0.0
 10
396.2652303909761
 20
481.9612242527339
 30
0.0
 10
396.3129119915343
 20
482.0073521536484
 30
0.0
 10
396.368038352908
 20
482.0771954354495
 30
0.0
 10
396.3838657380774
 20
482.1008992810221
 30
0.0
 10
396.4012761339851
 20
482.1446170569954
 30
0.0
 10
396.4041652882013
 20
482.1669356662059
 30
0.0
 10
396.3813327965711
 20
482.1738698433935
 30
0.0
  0
SPLINE
  5
111
330
1F
100
AcDbEntity
  8
0
  6
Continuous
 62
     7
370
    15
100
AcDbSpline
210
0.0
220
0.0
230
1.0
 70
     8
 71
     3
 72
    12
 73
     8
 74
     0
 42
0.00000001
 43
0.00000001
 40
0.0
 40
0.0
 40
0.0
 40
0.0
 40
0.4999999999999982
 40
0.4999999999999982
 40
0.7499999999999991
 40
0.7499999999999991
 40
1.0
 40
1.0
 40
1.0
 40
1.0
 10
396.3813327965711
 20
482.1738698433935
 30
0.0
 10
396.2327220121812
 20
482.3239540226182
 30
0.0
 10
396.1084817006303
 20
482.4761927793987
 30
0.0
 10
395.9903336482925
 20
482.7105815295409
 30
0.0
 10
395.962756210155
 20
482.789754806993
 30
0.0
 10
395.9254288635209
 20
482.9496774821267
 30
0.0
 10
395.914461170884
 20
483.0301101837189
 30
0.0
 10
395.9144493404985
 20
483.11051536052
 30
0.0
  0
SPLINE
  5
112
330
1F
100
AcDbEntity
  8
0
  6
Continuous
 62
     7
370
    15
100
AcDbSpline
210
0.0
220
0.0
230
1.0
 70
     8
 71
     3
 72
    22
 73
    18
 74
     0
 42
0.00000001
 43
0.00000001
 40
0.0
 40
0.0
 40
0.0
 40
0.0
 40
0.125
 40
0.125
 40
0.25
 40
0.25
 40
0.375
 40
0.375
 40
0.5
 40
0.5
 40
0.625
 40
0.625
 40
0.75
 40
0.75
 40
0.875
 40
0.875
 40
1.0
 40
1.0
 40
1.0
 40
1.0
 10
390.0629531014339
 20
482.2000245465799
 30
0.0
 10
390.0629531014328
 20
482.0986100975
 30
0.0
 10
390.0954228712586
 20
481.9945520103681
 30
0.0
 10
390.222724078979
 20
481.7828920268419
 30
0.0
 10
390.319368706816
 20
481.6741602773857
 30
0.0
 10
390.5682070198543
 20
481.4659120588586
 30
0.0
 10
390.7203299563683
 20
481.365385321559
 30
0.0
 10
391.0817997382937
 20
481.1773215253601
 30
0.0
 10
391.2861685418265
 20
481.0926112582101
 30
0.0
 10
391.7358190418839
 20
480.9497440996034
 30
0.0
 10
391.9854404830236
 20
480.8908144585804
 30
0.0
 10
392.5070643223041
 20
480.8115343004952
 30
0.0
 10
392.7797328990637
 20
480.7903504033172
 30
0.0
 10
393.348695137579
 20
480.7919471044193
 30
0.0
 10
393.638702954615
 20
480.8151620400554
 30
0.0
 10
394.213568201923
 20
480.9078186988609
 30
0.0
 10
394.5029979968431
 20
480.9781835625916
 30
0.0
 10
394.7839188945385
 20
481.0712154223374
 30
0.0
  0
LINE
  5
113
330
1F
100
AcDbEntity
  8
0
  6
Continuous
 62
     7
370
    15
100
AcDbLine
 10
327.0745531005
 20
513.6678938079
 30
0.0
 11
339.4468324713
 21
513.6678938079
 31
0.0
  0
LINE
  5
114
330
1F
100
AcDbEntity
  8
0
  6
Continuous
 62
     7
370
    15
100
AcDbLine
 10
314.7022737296
 20
513.6678938079
 30
0.0
 11
327.0745531005
 21
513.6678938079
 31
0.0
  0
SPLINE
  5
115
330
1F
100
AcDbEntity
  8
0
  6
Continuous
 62
     7
370
    15
100
AcDbSpline
210
0.0
220
0.0
230
1.0
 70
     8
 71
     3
 72
    12
 73
     8
 74
     0
 42
0.00000001
 43
0.00000001
 40
0.0
 40
0.0
 40
0.0
 40
0.0
 40
0.2500000000000002
 40
0.2500000000000002
 40
0.5000000000000004
 40
0.5000000000000004
 40
1.0
 40
1.0
 40
1.0
 40
1.0
 10
395.9144493361448
 20
483.1105153595562
 30
0.0
 10
395.9144611939756
 20
483.1911070571105
 30
0.0
 10
395.9254141970968
 20
483.2709848461468
 30
0.0
 10
395.9623321133141
 20
483.4297608952302
 30
0.0
 10
395.9895947126473
 20
483.5085744823159
 30
0.0
 10
396.1069953413786
 20
483.7426915069096
 30
0.0
 10
396.2314162473692
 20
483.8957579872414
 30
0.0
 10
396.3813327965914
 20
484.0471608772402
 30
0.0
  0
SPLINE
  5
116
330
1F
100
AcDbEntity
  8
0
  6
Continuous
 62
     7
370
    15
100
AcDbSpline
210
0.0
220
0.0
230
1.0
 70
     8
 71
     3
 72
     8
 73
     4
 74
     0
 42
0.00000001
 43
0.00000001
 40
0.0
 40
0.0
 40
0.0
 40
0.0
 40
1.0
 40
1.0
 40
1.0
 40
1.0
 10
396.3813327965914
 20
484.0471608772402
 30
0.0
 10
396.3872458997686
 20
484.051312378103
 30
0.0
 10
396.391360375443
 20
484.054926179699
 30
0.0
 10
396.3941418434209
 20
484.0581319631024
 30
0.0
  0
LWPOLYLINE
  5
117
330
1F
100
AcDbEntity
  8
0
  6
Continuous
 62
     7
370
    15
100
AcDbPolyline
 90
        7
 70
   128
 43
0.0
 10
394.7839188945
 20
481.0712154223
 10
393.5140966735
 20
481.0630951636
 10
392.3004784874
 20
481.1911322552
 10
391.2646823396
 20
481.4424959604
 10
390.5105064927
 20
481.7919968479
 10
390.1135277318
 20
482.2046110523
 10
390.0983128072
 20
482.6035783166
  0
LWPOLYLINE
  5
118
330
1F
100
AcDbEntity
  8
0
  6
Continuous
 62
     7
370
    15
100
AcDbPolyline
 90
        5
 70
   128
 43
0.0
 10
391.3235263703
 20
482.0949842293
 10
390.9874206771
 20
482.2344351147
 10
390.4627980155
 20
482.5922947186
 10
390.2821902125
 20
482.9878237653
 10
390.315617675
 20
483.1596682209
  0
LINE
  5
119
330
1F
100
AcDbEntity
  8
0
  6
Continuous
 62
     7
370
    15
100
AcDbLine
 10
339.0604030998
 20
513.8684938098
 30
0.0
 11
315.0887030998
 21
513.8684938098
 31
0.0
  0
LWPOLYLINE
  5
11A
330
1F
100
AcDbEntity
  8
0
  6
Continuous
 62
     7
370
    15
100
AcDbPolyline
 90
       15
 70
   128
 43
0.0
 10
396.3813327966
 20
484.0471608772
 10
395.3881735348
 20
484.2497334653
 10
394.258032678
 20
484.3334745844
 10
393.1087948503
 20
484.2896492258
 10
392.0603366746
 20
484.1228287983
 10
391.2220224812
 20
483.8504142862
 10
390.6812965503
 20
483.5008211585
 10
390.4945618273
 20
483.1105153603
 10
390.6812965503
 20
482.7202095621
 10
391.2220224812
 20
482.3706164345
 10
392.0603366745
 20
482.0982019224
 10
393.1087948502
 20
481.9313814949
 10
394.258032678
 20
481.8875561362
 10
395.3881735348
 20
481.9712972553
 10
396.3813327966
 20
482.1738698434
  0
ARC
  5
11B
330
1F
100
AcDbEntity
  8
0
  6
Continuous
 62
     7
370
    15
100
AcDbCircle
 10
357.0642531014
 20
431.5216923079
 30
0.0
 40
5.917699999432045
100
AcDbArc
 50
90.0
 51
180.0
  0
ARC
  5
11C
330
1F
100
AcDbEntity
  8
0
  6
Continuous
 62
     7
370
    15
100
AcDbCircle
 10
357.0641859506
 20
489.4950251571
 30
0.0
 40
5.917632848582059
100
AcDbArc
 50
180.0
 51
270.0
  0
LINE
  5
11D
330
1F
100
AcDbEntity
  8
0
  6
Continuous
 62
     7
370
    15
100
AcDbLine
 10
554.6334069257
 20
624.8114747279
 30
0.0
 11
532.9026390477
 21
620.9797540395
 31
0.0
  0
ELLIPSE
  5
11E
330
1F
100
AcDbEntity
  8
0
  6
Continuous
 62
     7
370
    15
100
AcDbEllipse
 10
387.9627941955
 20
460.5083923086
 30
0.0
 11
-5.39349317519259
 21
23.0649464181746
 31
0.0
210
0.0
220
0.0
230
1.0
 40
0.0801788167
 41
2.816121805808325
 42
3.12284588383474
  0
LINE
  5
11F
330
1F
100
AcDbEntity
  8
0
  6
Continuous
 62
     7
370
    15
100
AcDbLine
 10
387.7560531014
 20
481.9976700708
 30
0.0
 11
387.7560531015
 21
483.3767923086
 31
0.0
  0
ELLIPSE
  5
120
330
1F
100
AcDbEntity
  8
0
  6
Continuous
 62
     7
370
    15
100
AcDbEllipse
 10
387.7681528728
 20
460.4627894419
 30
0.0
 11
-5.394075470412076
 21
22.86424549068226
 31
0.0
210
0.0
220
0.0
230
0.9999999999999999
 40
0.0808083079
 41
2.815806791206577
 42
3.081074166255194
  0
SPLINE
  5
121
330
1F
100
AcDbEntity
  8
0
  6
Continuous
 62
     8
370
     0
100
AcDbSpline
210
0.0
220
0.0
230
1.0
 70
     8
 71
     3
 72
     8
 73
     4
 74
     0
 42
0.00000001
 43
0.00000001
 40
0.0
 40
0.0
 40
0.0
 40
0.0
 40
1.0
 40
1.0
 40
1.0
 40
1.0
 10
408.3034664882018
 20
548.4463771340701
 30
0.0
 10
408.9838258248218
 20
548.6168685736634
 30
0.0
 10
409.6760105721274
 20
548.7025388983645
 30
0.0
 10
410.3802113222642
 20
548.7020018682392
 30
0.0
  0
SPLINE
  5
122
330
1F
100
AcDbEntity
  8
0
  6
Continuous
 62
     8
370
     0
100
AcDbSpline
210
0.0
220
0.0
230
1.0
 70
     8
 71
     3
 72
     8
 73
     4
 74
     0
 42
0.00000001
 43
0.00000001
 40
0.0
 40
0.0
 40
0.0
 40
0.0
 40
1.0
 40
1.0
 40
1.0
 40
1.0
 10
410.3802113222644
 20
548.7020018682392
 30
0.0
 10
411.0796183385278
 20
548.7014684938606
 30
0.0
 10
411.7671064888162
 20
548.6159144992341
 30
0.0
 10
412.4428565382809
 20
548.4466487914829
 30
0.0
  0
LINE
  5
123
330
1F
100
AcDbEntity
  8
0
  6
Continuous
 62
     8
370
     0
100
AcDbLine
 10
415.3915825372
 20
493.4757937042
 30
0.0
 11
405.3558208099
 21
493.4757937042
 31
0.0
  0
SPLINE
  5
124
330
1F
100
AcDbEntity
  8
0
  6
Continuous
 62
     8
370
     0
100
AcDbSpline
210
0.0
220
0.0
230
1.0
 70
     8
 71
     3
 72
     8
 73
     4
 74
     0
 42
0.00000001
 43
0.00000001
 40
0.0
 40
0.0
 40
0.0
 40
0.0
 40
1.0
 40
1.0
 40
1.0
 40
1.0
 10
406.341183460525
 20
547.6791263943412
 30
0.0
 10
406.9587389819013
 20
548.0174183559869
 30
0.0
 10
407.6127706064173
 20
548.2732954566851
 30
0.0
 10
408.3034664882018
 20
548.44637713407
 30
0.0
  0
SPLINE
  5
125
330
1F
100
AcDbEntity
  8
0
  6
Continuous
 62
     8
370
     0
100
AcDbSpline
210
0.0
220
0.0
230
1.0
 70
     8
 71
     3
 72
     8
 73
     4
 74
     0
 42
0.00000001
 43
0.00000001
 40
0.0
 40
0.0
 40
0.0
 40
0.0
 40
1.0
 40
1.0
 40
1.0
 40
1.0
 10
412.4428565382809
 20
548.4466487914829
 30
0.0
 10
413.0792821385593
 20
548.287233294958
 30
0.0
 10
413.6853619892535
 20
548.0572182747306
 30
0.0
 10
414.2611392292026
 20
547.7566234955398
 30
0.0
  0
SPLINE
  5
126
330
1F
100
AcDbEntity
  8
0
  6
Continuous
 62
     8
370
     0
100
AcDbSpline
210
0.0
220
0.0
230
1.0
 70
     8
 71
     3
 72
    12
 73
     8
 74
     0
 42
0.00000001
 43
0.00000001
 40
0.0
 40
0.0
 40
0.0
 40
0.0
 40
0.25
 40
0.25
 40
0.5
 40
0.5
 40
1.0
 40
1.0
 40
1.0
 40
1.0
 10
414.2611392292026
 20
547.7566234955399
 30
0.0
 10
414.5773541941651
 20
547.5915378322403
 30
0.0
 10
414.8796600673292
 20
547.4075505590249
 30
0.0
 10
415.4569857914007
 20
547.002600643169
 30
0.0
 10
415.7328772029921
 20
546.7805054795662
 30
0.0
 10
416.4992930739086
 20
546.072966375572
 30
0.0
 10
416.9361088595542
 20
545.5435413320826
 30
0.0
 10
417.3014967232671
 20
544.956422811223
 30
0.0
  0
SPLINE
  5
127
330
1F
100
AcDbEntity
  8
0
  6
Continuous
 62
     8
370
     0
100
AcDbSpline
210
0.0
220
0.0
230
1.0
 70
     8
 71
     3
 72
     8
 73
     4
 74
     0
 42
0.00000001
 43
0.00000001
 40
0.0
 40
0.0
 40
0.0
 40
0.0
 40
1.0
 40
1.0
 40
1.0
 40
1.0
 10
405.3291398400132
 20
547.022838146179
 30
0.0
 10
405.6486696065635
 20
547.2658320221107
 30
0.0
 10
405.9860404788067
 20
547.4845819172999
 30
0.0
 10
406.341183460525
 20
547.6791263943412
 30
0.0
  0
SPLINE
  5
128
330
1F
100
AcDbEntity
  8
0
  6
Continuous
 62
     8
370
     0
100
AcDbSpline
210
0.0
220
0.0
230
1.0
 70
     8
 71
     3
 72
     8
 73
     4
 74
     0
 42
0.00000001
 43
0.00000001
 40
0.0
 40
0.0
 40
0.0
 40
0.0
 40
1.0
 40
1.0
 40
1.0
 40
1.0
 10
404.0985450962526
 20
545.8540277712466
 30
0.0
 10
404.4630697262465
 20
546.2861525390682
 30
0.0
 10
404.8729278391033
 20
546.6759010719139
 30
0.0
 10
405.3291398400131
 20
547.022838146179
 30
0.0
  0
SPLINE
  5
129
330
1F
100
AcDbEntity
  8
0
  6
Continuous
 62
     8
370
     0
100
AcDbSpline
210
0.0
220
0.0
230
1.0
 70
     8
 71
     3
 72
     8
 73
     4
 74
     0
 42
0.00000001
 43
0.00000001
 40
0.0
 40
0.0
 40
0.0
 40
0.0
 40
1.0
 40
1.0
 40
1.0
 40
1.0
 10
403.446707168408
 20
544.958713443822
 30
0.0
 10
403.6418822058067
 20
545.2717158735779
 30
0.0
 10
403.8590678487645
 20
545.5701400954779
 30
0.0
 10
404.0985450962526
 20
545.8540277712466
 30
0.0
  0
SPLINE
  5
12A
330
1F
100
AcDbEntity
  8
0
  6
Continuous
 62
     8
370
     0
100
AcDbSpline
210
0.0
220
0.0
230
1.0
 70
     8
 71
     3
 72
     8
 73
     4
 74
     0
 42
0.00000001
 43
0.00000001
 40
0.0
 40
0.0
 40
0.0
 40
0.0
 40
1.0
 40
1.0
 40
1.0
 40
1.0
 10
402.6121494673656
 20
543.0419224789819
 30
0.0
 10
402.788337597497
 20
543.7163066081854
 30
0.0
 10
403.0708585983446
 20
544.3559646639678
 30
0.0
 10
403.446707168408
 20
544.958713443822
 30
0.0
  0
SPLINE
  5
12B
330
1F
100
AcDbEntity
  8
0
  6
Continuous
 62
     8
370
     0
100
AcDbSpline
210
0.0
220
0.0
230
1.0
 70
     8
 71
     3
 72
     8
 73
     4
 74
     0
 42
0.00000001
 43
0.00000001
 40
0.0
 40
0.0
 40
0.0
 40
0.0
 40
1.0
 40
1.0
 40
1.0
 40
1.0
 10
417.3014967232671
 20
544.956422811223
 30
0.0
 10
417.6756813299854
 20
544.3551693634688
 30
0.0
 10
417.9584024342765
 20
543.7170478748792
 30
0.0
 10
418.134642215902
 20
543.0443839832102
 30
0.0
  0
SPLINE
  5
12C
330
1F
100
AcDbEntity
  8
0
  6
Continuous
 62
     8
370
     0
100
AcDbSpline
210
0.0
220
0.0
230
1.0
 70
     8
 71
     3
 72
    10
 73
     6
 74
     0
 42
0.00000001
 43
0.00000001
 40
0.0
 40
0.0
 40
0.0
 40
0.0
 40
0.5
 40
0.5
 40
1.0
 40
1.0
 40
1.0
 40
1.0
 10
418.134642215902
 20
543.0443839832102
 30
0.0
 10
418.2147516116856
 20
542.7386261263283
 30
0.0
 10
418.2719777001474
 20
542.4310293357695
 30
0.0
 10
418.3529225535135
 20
541.808181082473
 30
0.0
 10
418.3766943571804
 20
541.4912250862297
 30
0.0
 10
418.3872679334208
 20
541.1718134172093
 30
0.0
  0
SPLINE
  5
12D
330
1F
100
AcDbEntity
  8
0
  6
Continuous
 62
     8
370
     0
100
AcDbSpline
210
0.0
220
0.0
230
1.0
 70
     8
 71
     3
 72
     8
 73
     4
 74
     0
 42
0.00000001
 43
0.00000001
 40
0.0
 40
0.0
 40
0.0
 40
0.0
 40
1.0
 40
1.0
 40
1.0
 40
1.0
 10
402.3652871832927
 20
541.303661994261
 30
0.0
 10
402.3920369953719
 20
541.8985472836243
 30
0.0
 10
402.4636809653932
 20
542.473639012087
 30
0.0
 10
402.6121494673656
 20
543.0419224789819
 30
0.0
  0
SPLINE
  5
12E
330
1F
100
AcDbEntity
  8
0
  6
Continuous
 62
     8
370
    15
100
AcDbSpline
210
0.0
220
0.0
230
1.0
 70
     8
 71
     3
 72
    24
 73
    20
 74
     0
 42
0.00000001
 43
0.00000001
 40
0.0
 40
0.0
 40
0.0
 40
0.0
 40
0.2499999999999991
 40
0.2499999999999991
 40
0.4999999999999981
 40
0.4999999999999981
 40
0.6249999999999982
 40
0.6249999999999982
 40
0.7499999999999982
 40
0.7499999999999982
 40
0.8749999999999983
 40
0.8749999999999983
 40
0.9374999999999984
 40
0.9374999999999984
 40
0.9687499999999992
 40
0.9687499999999992
 40
0.9843749999999997
 40
0.9843749999999997
 40
1.0
 40
1.0
 40
1.0
 40
1.0
 10
402.3601575154861
 20
509.8730876222915
 30
0.0
 10
402.3602155183958
 20
512.4922372297589
 30
0.0
 10
402.3603475761327
 20
515.1113847097585
 30
0.0
 10
402.3597677840972
 20
520.34968224708
 30
0.0
 10
402.3612106153408
 20
522.969650191609
 30
0.0
 10
402.3594899095411
 20
526.8972574358728
 30
0.0
 10
402.3570779654731
 20
528.2055660578858
 30
0.0
 10
402.3571120283117
 20
530.824721113006
 30
0.0
 10
402.3615122811158
 20
532.136572250576
 30
0.0
 10
402.3727063339083
 20
534.761411056755
 30
0.0
 10
402.3770278097235
 20
536.0732448007888
 30
0.0
 10
402.3594138221384
 20
538.0286152657495
 30
0.0
 10
402.347003939759
 20
538.6769268488913
 30
0.0
 10
402.3393789444804
 20
539.6550645535781
 30
0.0
 10
402.3388418333544
 20
539.9821407836292
 30
0.0
 10
402.3437026882106
 20
540.4755519584829
 30
0.0
 10
402.3462642995136
 20
540.6404839000137
 30
0.0
 10
402.3536975367562
 20
540.9714166637835
 30
0.0
 10
402.3578359873902
 20
541.1379559019193
 30
0.0
 10
402.3652871832927
 20
541.303661994261
 30
0.0
  0
LINE
  5
12F
330
1F
100
AcDbEntity
  8
0
  6
Continuous
 62
     8
370
    15
100
AcDbLine
 10
402.3601565329
 20
509.8730918193
 30
0.0
 11
402.3601565329
 21
502.5936795397
 31
0.0
  0
LINE
  5
130
330
1F
100
AcDbEntity
  8
0
  6
Continuous
 62
     8
370
    15
100
AcDbLine
 10
402.3601565329
 20
502.5936795397
 30
0.0
 11
402.3601565328
 21
494.4081445316
 31
0.0
  0
SPLINE
  5
131
330
1F
100
AcDbEntity
  8
0
  6
Continuous
 62
     8
370
     0
100
AcDbSpline
210
0.0
220
0.0
230
1.0
 70
     8
 71
     3
 72
     8
 73
     4
 74
     0
 42
0.00000001
 43
0.00000001
 40
0.6838575018985269
 40
0.6838575018985269
 40
0.6838575018985269
 40
0.6838575018985269
 40
1.0
 40
1.0
 40
1.0
 40
1.0
 10
418.3872458366439
 20
494.4081409916914
 30
0.0
 10
418.427579838936
 20
494.554172236582
 30
0.0
 10
418.4478531014421
 20
494.7009444992233
 30
0.0
 10
418.4478531014438
 20
494.8479732011556
 30
0.0
  0
SPLINE
  5
132
330
1F
100
AcDbEntity
  8
0
  6
Continuous
 62
     8
370
    15
100
AcDbSpline
210
0.0
220
0.0
230
1.0
 70
     8
 71
     3
 72
    24
 73
    20
 74
     0
 42
0.00000001
 43
0.00000001
 40
0.0
 40
0.0
 40
0.0
 40
0.0
 40
0.0312500000000003
 40
0.0312500000000003
 40
0.0625000000000007
 40
0.0625000000000007
 40
0.1250000000000006
 40
0.1250000000000006
 40
0.1875000000000004
 40
0.1875000000000004
 40
0.2500000000000003
 40
0.2500000000000003
 40
0.3125000000000002
 40
0.3125000000000002
 40
0.3750000000000001
 40
0.3750000000000001
 40
0.4999999999999997
 40
0.4999999999999997
 40
1.0
 40
1.0
 40
1.0
 40
1.0
 10
418.3872679334208
 20
541.1718134172093
 30
0.0
 10
418.4036621819615
 20
540.6774019520046
 30
0.0
 10
418.4084887165864
 20
540.18741519455
 30
0.0
 10
418.4062193870748
 20
539.2144010176049
 30
0.0
 10
418.3990549706938
 20
538.7310157771809
 30
0.0
 10
418.3789455327874
 20
537.2801144837973
 30
0.0
 10
418.374071241051
 20
536.3082160384137
 30
0.0
 10
418.3755366362207
 20
534.3589191646732
 30
0.0
 10
418.3808312780131
 20
533.3819757499156
 30
0.0
 10
418.388716046096
 20
531.4294153429511
 30
0.0
 10
418.3903201810292
 20
530.4543132014719
 30
0.0
 10
418.3902818424403
 20
528.5058154747564
 30
0.0
 10
418.3889452454454
 20
527.5322567072617
 30
0.0
 10
418.3871314940338
 20
525.5847407601651
 30
0.0
 10
418.3871541089713
 20
524.6105500754045
 30
0.0
 10
418.387837754607
 20
521.6875426997503
 30
0.0
 10
418.387571375861
 20
519.7389862276486
 30
0.0
 10
418.3864883625471
 20
509.9963511154566
 30
0.0
 10
418.3872198684077
 20
502.202247783336
 30
0.0
 10
418.3872458366438
 20
494.4081409916913
 30
0.0
  0
SPLINE
  5
133
330
1F
100
AcDbEntity
  8
0
  6
Continuous
 62
     8
370
     0
100
AcDbSpline
210
0.0
220
0.0
230
1.0
 70
     8
 71
     3
 72
    14
 73
    10
 74
     0
 42
0.00000001
 43
0.00000001
 40
0.0
 40
0.0
 40
0.0
 40
0.0
 40
0.25
 40
0.25
 40
0.5
 40
0.5
 40
0.75
 40
0.75
 40
1.0
 40
1.0
 40
1.0
 40
1.0
 10
418.3872458276028
 20
494.4082191934268
 30
0.0
 10
418.3524238778018
 20
494.2821500265067
 30
0.0
 10
418.2488121996431
 20
494.1583375369789
 30
0.0
 10
417.9178461101255
 20
493.9317603344618
 30
0.0
 10
417.6905934725512
 20
493.8290652951343
 30
0.0
 10
417.1428972502144
 20
493.6585766521915
 30
0.0
 10
416.8226220848735
 20
493.5908354747158
 30
0.0
 10
416.1319884897356
 20
493.4994058392003
 30
0.0
 10
415.7618424333417
 20
493.4757454962464
 30
0.0
 10
415.3915825205447
 20
493.4757194771518
 30
0.0
  0
SPLINE
  5
134
330
1F
100
AcDbEntity
  8
0
  6
Continuous
 62
     8
370
     0
100
AcDbSpline
210
0.0
220
0.0
230
1.0
 70
     8
 71
     3
 72
     8
 73
     4
 74
     0
 42
0.00000001
 43
0.00000001
 40
0.0
 40
0.0
 40
0.0
 40
0.0
 40
1.0
 40
1.0
 40
1.0
 40
1.0
 10
404.100596459205
 20
546.7352935687121
 30
0.0
 10
403.8563384201699
 20
546.4458876067866
 30
0.0
 10
403.6352490697901
 20
546.1418133840205
 30
0.0
 10
403.4370692519784
 20
545.8234641318562
 30
0.0
  0
SPLINE
  5
135
330
1F
100
AcDbEntity
  8
0
  6
Continuous
 62
     8
370
     0
100
AcDbSpline
210
0.0
220
0.0
230
1.0
 70
     8
 71
     3
 72
     8
 73
     4
 74
     0
 42
0.00000001
 43
0.00000001
 40
0.0
 40
0.0
 40
0.0
 40
0.0
 40
1.0
 40
1.0
 40
1.0
 40
1.0
 10
405.3288762445239
 20
547.902316854437
 30
0.0
 10
404.8736347468832
 20
547.5560001689732
 30
0.0
 10
404.464543782001
 20
547.1665118224084
 30
0.0
 10
404.100596459205
 20
546.7352935687122
 30
0.0
  0
SPLINE
  5
136
330
1F
100
AcDbEntity
  8
0
  6
Continuous
 62
     8
370
     0
100
AcDbSpline
210
0.0
220
0.0
230
1.0
 70
     8
 71
     3
 72
     8
 73
     4
 74
     0
 42
0.00000001
 43
0.00000001
 40
0.0
 40
0.0
 40
0.0
 40
0.0
 40
1.0
 40
1.0
 40
1.0
 40
1.0
 10
406.3420640518754
 20
548.5592827193668
 30
0.0
 10
405.9865013441645
 20
548.364593070313
 30
0.0
 10
405.648749077575
 20
548.1456542915694
 30
0.0
 10
405.3288762445239
 20
547.902316854437
 30
0.0
  0
SPLINE
  5
137
330
1F
100
AcDbEntity
  8
0
  6
Continuous
 62
     8
370
     0
100
AcDbSpline
210
0.0
220
0.0
230
1.0
 70
     8
 71
     3
 72
     8
 73
     4
 74
     0
 42
0.00000001
 43
0.00000001
 40
0.0
 40
0.0
 40
0.0
 40
0.0
 40
1.0
 40
1.0
 40
1.0
 40
1.0
 10
408.3022998253078
 20
549.3257491954546
 30
0.0
 10
407.6123617648855
 20
549.1527398980812
 30
0.0
 10
406.9590124074917
 20
548.89709502711
 30
0.0
 10
406.3420640518754
 20
548.5592827193668
 30
0.0
  0
SPLINE
  5
138
330
1F
100
AcDbEntity
  8
0
  6
Continuous
 62
     8
370
     0
100
AcDbSpline
210
0.0
220
0.0
230
1.0
 70
     8
 71
     3
 72
     8
 73
     4
 74
     0
 42
0.00000001
 43
0.00000001
 40
0.0
 40
0.0
 40
0.0
 40
0.0
 40
1.0
 40
1.0
 40
1.0
 40
1.0
 10
410.3805540780344
 20
549.581665977191
 30
0.0
 10
409.6758275675718
 20
549.5822322308354
 30
0.0
 10
408.9831397325594
 20
549.4964770342773
 30
0.0
 10
408.3022998253078
 20
549.3257491954546
 30
0.0
  0
SPLINE
  5
139
330
1F
100
AcDbEntity
  8
0
  6
Continuous
 62
     8
370
     0
100
AcDbSpline
210
0.0
220
0.0
230
1.0
 70
     8
 71
     3
 72
     8
 73
     4
 74
     0
 42
0.00000001
 43
0.00000001
 40
0.0
 40
0.0
 40
0.0
 40
0.0
 40
1.0
 40
1.0
 40
1.0
 40
1.0
 10
412.4445943643718
 20
549.3258778582277
 30
0.0
 10
411.7684078561691
 20
549.4954186857007
 30
0.0
 10
411.0804546004154
 20
549.5811036012683
 30
0.0
 10
410.3805540780345
 20
549.581665977191
 30
0.0
  0
SPLINE
  5
13A
330
1F
100
AcDbEntity
  8
0
  6
Continuous
 62
     8
370
     0
100
AcDbSpline
210
0.0
220
0.0
230
1.0
 70
     8
 71
     3
 72
     8
 73
     4
 74
     0
 42
0.00000001
 43
0.00000001
 40
0.0
 40
0.0
 40
0.0
 40
0.0
 40
1.0
 40
1.0
 40
1.0
 40
1.0
 10
414.2607682338548
 20
548.6365291361891
 30
0.0
 10
413.6856317443183
 20
548.9366546214773
 30
0.0
 10
413.0802549854703
 20
549.1664981214454
 30
0.0
 10
412.4445943643718
 20
549.3258778582277
 30
0.0
  0
SPLINE
  5
13B
330
1F
100
AcDbEntity
  8
0
  6
Continuous
 62
     8
370
     0
100
AcDbSpline
210
0.0
220
0.0
230
1.0
 70
     8
 71
     3
 72
    12
 73
     8
 74
     0
 42
0.00000001
 43
0.00000001
 40
0.0
 40
0.0
 40
0.0
 40
0.0
 40
0.5000000000000002
 40
0.5000000000000002
 40
0.7500000000000001
 40
0.7500000000000001
 40
1.0
 40
1.0
 40
1.0
 40
1.0
 10
417.3096618455822
 20
545.8229031335272
 30
0.0
 10
416.9440860642856
 20
546.4112137275781
 30
0.0
 10
416.5064273807237
 20
546.9447249925954
 30
0.0
 10
415.7377325501452
 20
547.6564372571174
 30
0.0
 10
415.4609119156421
 20
547.879612847447
 30
0.0
 10
414.8816227940392
 20
548.2862346887737
 30
0.0
 10
414.5782141106214
 20
548.4708752443727
 30
0.0
 10
414.260768233855
 20
548.6365291361889
 30
0.0
  0
LINE
  5
13C
330
1F
100
AcDbEntity
  8
0
  6
Continuous
 62
     8
370
     0
100
AcDbLine
 10
418.3872679334
 20
542.0513178168
 30
0.0
 11
418.3872662094
 21
542.0513681375
 31
0.0
  0
SPLINE
  5
13D
330
1F
100
AcDbEntity
  8
0
  6
Continuous
 62
     8
370
     0
100
AcDbSpline
210
0.0
220
0.0
230
1.0
 70
     8
 71
     3
 72
     9
 73
     5
 74
     0
 42
0.00000001
 43
0.00000001
 40
0.0
 40
0.0
 40
0.0
 40
0.0
 40
0.0001602911323896
 40
1.0
 40
1.0
 40
1.0
 40
1.0
 10
402.3601380657219
 20
542.0513172417376
 30
0.0
 10
402.3601374288841
 20
542.0512987420032
 30
0.0
 10
402.3561644214938
 20
541.935885404807
 30
0.0
 10
402.3567545699095
 20
541.8179398149784
 30
0.0
 10
402.3573446237297
 20
541.7000131307822
 30
0.0
  0
LWPOLYLINE
  5
13E
330
1F
100
AcDbEntity
  8
0
  6
Continuous
 62
     8
370
     0
100
AcDbPolyline
 90
        3
 70
   128
 43
0.0
 10
408.3022998253
 20
549.3257491955
 10
408.3288096001
 20
549.4187915823
 10
408.343027124
 20
549.4278253394
  0
LWPOLYLINE
  5
13F
330
1F
100
AcDbEntity
  8
0
  6
Continuous
 62
     8
370
     0
100
AcDbPolyline
 90
        3
 70
   128
 43
0.0
 10
410.380554078
 20
549.5816659772
 10
410.3804661617
 20
549.6714418719
 10
410.3804091746
 20
549.6788720234
  0
LWPOLYLINE
  5
140
330
1F
100
AcDbEntity
  8
0
  6
Continuous
 62
     8
370
     0
100
AcDbPolyline
 90
        3
 70
   128
 43
0.0
 10
412.4445943644
 20
549.3258778582
 10
412.4180875421
 20
549.4189194877
 10
412.4037887033
 20
549.4279725768
  0
LWPOLYLINE
  5
141
330
1F
100
AcDbEntity
  8
0
  6
Continuous
 62
     8
370
     0
100
AcDbPolyline
 90
        3
 70
   128
 43
0.0
 10
406.3420640519
 20
548.5592827194
 10
406.393833104
 20
548.6621956815
 10
406.4054535432
 20
548.669709681
  0
LWPOLYLINE
  5
142
330
1F
100
AcDbEntity
  8
0
  6
Continuous
 62
     8
370
     0
100
AcDbPolyline
 90
        3
 70
   128
 43
0.0
 10
414.2607682339
 20
548.6365291362
 10
414.2108406511
 20
548.7384457532
 10
414.197963667
 20
548.7466183691
  0
LINE
  5
143
330
1F
100
AcDbEntity
  8
0
  6
Continuous
 62
     8
370
     0
100
AcDbLine
 10
417.3096618456
 20
545.8229031335
 30
0.0
 11
417.2786342928
 21
545.8945664203
 31
0.0
  0
LINE
  5
144
330
1F
100
AcDbEntity
  8
0
  6
Continuous
 62
     8
370
     0
100
AcDbLine
 10
405.3288762445
 20
547.9023168544
 30
0.0
 11
405.3930049085
 21
548.0131901823
 31
0.0
  0
LINE
  5
145
330
1F
100
AcDbEntity
  8
0
  6
Continuous
 62
     8
370
     0
100
AcDbLine
 10
404.1005964592
 20
546.7352935687
 30
0.0
 11
404.1494743092
 21
546.8317441169
 31
0.0
  0
LINE
  5
146
330
1F
100
AcDbEntity
  8
0
  6
Continuous
 62
     8
370
     0
100
AcDbLine
 10
403.437069252
 20
545.8234641319
 30
0.0
 11
403.4688050734
 21
545.8961123432
 31
0.0
  0
LINE
  5
147
330
1F
100
AcDbEntity
  8
0
  6
Continuous
 62
     8
370
     0
100
AcDbLine
 10
327.0745531005
 20
501.3482085721
 30
0.0
 11
351.1465531005
 21
501.3482085721
 31
0.0
  0
LINE
  5
148
330
1F
100
AcDbEntity
  8
0
  6
Continuous
 62
     8
370
     0
100
AcDbLine
 10
303.0025531005
 20
501.3482085721
 30
0.0
 11
327.0745531005
 21
501.3482085721
 31
0.0
  0
LINE
  5
149
330
1F
100
AcDbEntity
  8
0
  6
Continuous
 62
     8
370
     0
100
AcDbLine
 10
327.0745531005
 20
507.3976235962
 30
0.0
 11
348.0953598575
 21
507.3976235962
 31
0.0
  0
LINE
  5
14A
330
1F
100
AcDbEntity
  8
0
  6
Continuous
 62
     8
370
     0
100
AcDbLine
 10
306.0537463435
 20
507.3976235962
 30
0.0
 11
327.0745531005
 21
507.3976235962
 31
0.0
  0
SPLINE
  5
14B
330
1F
100
AcDbEntity
  8
0
  6
Continuous
 62
     8
370
     0
100
AcDbSpline
210
0.0
220
0.0
230
1.0
 70
     8
 71
     3
 72
    10
 73
     6
 74
     0
 42
0.00000001
 43
0.00000001
 40
0.0
 40
0.0
 40
0.0
 40
0.0
 40
0.5
 40
0.5
 40
1.0
 40
1.0
 40
1.0
 40
1.0
 10
348.1734636809269
 20
486.6108766311979
 30
0.0
 10
347.8426324838868
 20
486.2657626714738
 30
0.0
 10
347.4901476485416
 20
485.9116253010009
 30
0.0
 10
346.7524935037211
 20
485.2150117642636
 30
0.0
 10
346.3667266738477
 20
484.8745035205881
 30
0.0
 10
345.9724416640153
 20
484.5464213901154
 30
0.0
  0
SPLINE
  5
14C
330
1F
100
AcDbEntity
  8
0
  6
Continuous
 62
     8
370
     0
100
AcDbSpline
210
0.0
220
0.0
230
1.0
 70
     8
 71
     3
 72
    14
 73
    10
 74
     0
 42
0.00000001
 43
0.00000001
 40
0.0
 40
0.0
 40
0.0
 40
0.0
 40
0.2499999999999994
 40
0.2499999999999994
 40
0.4999999999999998
 40
0.4999999999999998
 40
0.7500000000000001
 40
0.7500000000000001
 40
1.0
 40
1.0
 40
1.0
 40
1.0
 10
345.9724416640154
 20
484.5464213901154
 30
0.0
 10
345.6260591780481
 20
484.2581986549856
 30
0.0
 10
345.2733814069364
 20
483.9789328497037
 30
0.0
 10
344.5631997385408
 20
483.4123092547196
 30
0.0
 10
344.2053923013964
 20
483.1229195304752
 30
0.0
 10
343.4870913443208
 20
482.5013861876422
 30
0.0
 10
343.1263331809133
 20
482.167582899971
 30
0.0
 10
342.4053132194636
 20
481.4645254557015
 30
0.0
 10
342.0448726385059
 20
481.095404515686
 30
0.0
 10
341.6888878600869
 20
480.735074127738
 30
0.0
  0
SPLINE
  5
14D
330
1F
100
AcDbEntity
  8
0
  6
Continuous
 62
     8
370
     0
100
AcDbSpline
210
0.0
220
0.0
230
1.0
 70
     8
 71
     3
 72
    16
 73
    12
 74
     0
 42
0.00000001
 43
0.00000001
 40
0.0
 40
0.0
 40
0.0
 40
0.0
 40
0.2499999999999994
 40
0.2499999999999994
 40
0.4999999999999988
 40
0.4999999999999988
 40
0.6249999999999987
 40
0.6249999999999987
 40
0.7499999999999984
 40
0.7499999999999984
 40
1.0
 40
1.0
 40
1.0
 40
1.0
 10
341.6888878600869
 20
480.735074127738
 30
0.0
 10
340.9916593845008
 20
480.0293343907272
 30
0.0
 10
340.3154010198059
 20
479.3652863771827
 30
0.0
 10
339.0388109613717
 20
478.0714402355626
 30
0.0
 10
338.4357147273247
 20
477.4366679769279
 30
0.0
 10
337.5757830608956
 20
476.4310253197335
 30
0.0
 10
337.2966351272358
 20
476.0883551042231
 30
0.0
 10
336.7538075635092
 20
475.3887225301003
 30
0.0
 10
336.4897200774989
 20
475.0301471337037
 30
0.0
 10
335.7255656997082
 20
473.9505353673757
 30
0.0
 10
335.2544476457157
 20
473.228866733782
 30
0.0
 10
334.842924308817
 20
472.583751371948
 30
0.0
  0
SPLINE
  5
14E
330
1F
100
AcDbEntity
  8
0
  6
Continuous
 62
     8
370
     0
100
AcDbSpline
210
0.0
220
0.0
230
1.0
 70
     8
 71
     3
 72
    38
 73
    34
 74
     0
 42
0.00000001
 43
0.00000001
 40
0.0
 40
0.0
 40
0.0
 40
0.0
 40
0.0624999999999999
 40
0.0624999999999999
 40
0.1249999999999998
 40
0.1249999999999998
 40
0.1874999999999997
 40
0.1874999999999997
 40
0.2499999999999996
 40
0.2499999999999996
 40
0.3749999999999994
 40
0.3749999999999994
 40
0.4999999999999993
 40
0.4999999999999993
 40
0.6249999999999991
 40
0.6249999999999991
 40
0.749999999999999
 40
0.749999999999999
 40
0.8124999999999989
 40
0.8124999999999989
 40
0.8749999999999989
 40
0.8749999999999989
 40
0.9062499999999991
 40
0.9062499999999991
 40
0.9374999999999994
 40
0.9374999999999994
 40
0.9687499999999998
 40
0.9687499999999998
 40
0.9843749999999999
 40
0.9843749999999999
 40
0.9921874999999999
 40
0.9921874999999999
 40
1.0
 40
1.0
 40
1.0
 40
1.0
 10
334.842924308817
 20
472.583751371948
 30
0.0
 10
334.6091579820419
 20
472.2172928178553
 30
0.0
 10
334.4167769167444
 20
471.9549206396817
 30
0.0
 10
334.0679379995278
 20
471.4838251098844
 30
0.0
 10
333.9112831334544
 20
471.2761254352115
 30
0.0
 10
333.619577862645
 20
470.8804743064237
 30
0.0
 10
333.4853393810985
 20
470.694915400538
 30
0.0
 10
333.2318611066684
 20
470.3290547910754
 30
0.0
 10
333.1126499634245
 20
470.1489953208329
 30
0.0
 10
332.7744517867364
 20
469.612586501177
 30
0.0
 10
332.5744435925462
 20
469.2587930169187
 30
0.0
 10
332.2084161549787
 20
468.5296897294025
 30
0.0
 10
332.0432850983553
 20
468.1560422782258
 30
0.0
 10
331.7408166230578
 20
467.3747297886047
 30
0.0
 10
331.6034712628441
 20
466.967626377566
 30
0.0
 10
331.3526366091605
 20
466.1012918225405
 30
0.0
 10
331.2389266743657
 20
465.6455056773756
 30
0.0
 10
331.0847233851003
 20
464.8948119470668
 30
0.0
 10
331.0360710314585
 20
464.6328237319842
 30
0.0
 10
330.9441380690557
 20
464.0777405989622
 30
0.0
 10
330.900822521035
 20
463.786406476563
 30
0.0
 10
330.8401497710662
 20
463.3041959729644
 30
0.0
 10
330.8206333076938
 20
463.1364004947613
 30
0.0
 10
330.7831262751839
 20
462.7785976775739
 30
0.0
 10
330.7651639026986
 20
462.5874721232165
 30
0.0
 10
330.7311964828411
 20
462.1625469157421
 30
0.0
 10
330.7148615647274
 20
461.9356751209838
 30
0.0
 10
330.6937472057818
 20
461.5030729784408
 30
0.0
 10
330.6871159533695
 20
461.3449261508915
 30
0.0
 10
330.6791803332702
 20
461.0639818321168
 30
0.0
 10
330.6768849060501
 20
460.9630340496968
 30
0.0
 10
330.6737725226918
 20
460.7428947931454
 30
0.0
 10
330.672946698601
 20
460.6250324103571
 30
0.0
 10
330.6729478269069
 20
460.507827287938
 30
0.0
  0
SPLINE
  5
14F
330
1F
100
AcDbEntity
  8
0
  6
Continuous
 62
     8
370
     0
100
AcDbSpline
210
0.0
220
0.0
230
1.0
 70
     8
 71
     3
 72
    26
 73
    22
 74
     0
 42
0.00000001
 43
0.00000001
 40
0.0
 40
0.0
 40
0.0
 40
0.0
 40
0.0156250000000004
 40
0.0156250000000004
 40
0.0312500000000009
 40
0.0312500000000009
 40
0.0625000000000012
 40
0.0625000000000012
 40
0.1250000000000011
 40
0.1250000000000011
 40
0.1875000000000011
 40
0.1875000000000011
 40
0.250000000000001
 40
0.250000000000001
 40
0.3750000000000009
 40
0.3750000000000009
 40
0.5000000000000007
 40
0.5000000000000007
 40
0.7500000000000003
 40
0.7500000000000003
 40
1.0
 40
1.0
 40
1.0
 40
1.0
 10
330.6729478269069
 20
460.507827287938
 30
0.0
 10
330.6729489464065
 20
460.3916612365763
 30
0.0
 10
330.6737361070508
 20
460.2746166627352
 30
0.0
 10
330.6768189403481
 20
460.0566515585786
 30
0.0
 10
330.679067508069
 20
459.9565750048181
 30
0.0
 10
330.6868677865767
 20
459.6776499981872
 30
0.0
 10
330.6935006315907
 20
459.5205825382027
 30
0.0
 10
330.7144289410808
 20
459.0912183032876
 30
0.0
 10
330.7305051558923
 20
458.8637565656453
 30
0.0
 10
330.7641066245048
 20
458.4404273668549
 30
0.0
 10
330.7818766469181
 20
458.2501828337475
 30
0.0
 10
330.8189814813051
 20
457.8943863027831
 30
0.0
 10
330.8382881962357
 20
457.7277140567241
 30
0.0
 10
330.8982710905863
 20
457.2482951463028
 30
0.0
 10
330.9410641176148
 20
456.9588794322655
 30
0.0
 10
331.0318880790256
 20
456.4077551330239
 30
0.0
 10
331.0799506331549
 20
456.1472645248543
 30
0.0
 10
331.2322332850837
 20
455.4005336460512
 30
0.0
 10
331.3444265769855
 20
454.947352445129
 30
0.0
 10
331.5917651446691
 20
454.0861248676729
 30
0.0
 10
331.7271514058334
 20
453.6810818100984
 30
0.0
 10
331.8760938499236
 20
453.2925395407051
 30
0.0
  0
SPLINE
  5
150
330
1F
100
AcDbEntity
  8
0
  6
Continuous
 62
     8
370
     0
100
AcDbSpline
210
0.0
220
0.0
230
1.0
 70
     8
 71
     3
 72
    19
 73
    15
 74
     0
 42
0.00000001
 43
0.00000001
 40
0.0
 40
0.0
 40
0.0
 40
0.0
 40
0.2500000000000007
 40
0.2500000000000007
 40
0.5000000000000012
 40
0.5000000000000012
 40
0.6250000000000011
 40
0.6250000000000011
 40
0.750000000000001
 40
0.8125000000000009
 40
0.8125000000000009
 40
0.8750000000000007
 40
0.8750000000000007
 40
1.0
 40
1.0
 40
1.0
 40
1.0
 10
331.8760938499236
 20
453.2925395407051
 30
0.0
 10
332.0276948696987
 20
452.8970619142597
 30
0.0
 10
332.193262371708
 20
452.5192452341792
 30
0.0
 10
332.5606904560034
 20
451.7825868190924
 30
0.0
 10
332.76182254706
 20
451.4249206297924
 30
0.0
 10
333.1015427522892
 20
450.8842444751456
 30
0.0
 10
333.2210785905737
 20
450.7034155542005
 30
0.0
 10
333.4755379313312
 20
450.3358507804932
 30
0.0
 10
333.6785531013551
 20
450.0541132506643
 30
0.0
 10
333.9075720652703
 20
449.7458748526067
 30
0.0
 10
334.0668908617682
 20
449.5325596227503
 30
0.0
 10
334.1497612660189
 20
449.4224233632882
 30
0.0
 10
334.4132109431915
 20
449.0667661848017
 30
0.0
 10
334.6069905237015
 20
448.8027128454514
 30
0.0
 10
334.842807048087
 20
448.433045661048
 30
0.0
  0
SPLINE
  5
151
330
1F
100
AcDbEntity
  8
0
  6
Continuous
 62
     8
370
     0
100
AcDbSpline
210
0.0
220
0.0
230
1.0
 70
     8
 71
     3
 72
    16
 73
    12
 74
     0
 42
0.00000001
 43
0.00000001
 40
0.0
 40
0.0
 40
0.0
 40
0.0
 40
0.2499999999999993
 40
0.2499999999999993
 40
0.3749999999999992
 40
0.3749999999999992
 40
0.4999999999999991
 40
0.4999999999999991
 40
0.7499999999999996
 40
0.7499999999999996
 40
1.0
 40
1.0
 40
1.0
 40
1.0
 10
334.842807048087
 20
448.433045661048
 30
0.0
 10
335.2543150912775
 20
447.7879635891784
 30
0.0
 10
335.7254196207999
 20
447.0663269744709
 30
0.0
 10
336.4895665205599
 20
445.9867147419383
 30
0.0
 10
336.7536605669094
 20
445.6281028243104
 30
0.0
 10
337.2964886157582
 20
444.9284535216264
 30
0.0
 10
337.5756314422198
 20
444.5857980437108
 30
0.0
 10
338.4355723798295
 20
443.5800940299873
 30
0.0
 10
339.0386886348954
 20
442.9452100227206
 30
0.0
 10
340.3152838394013
 20
441.6513471414226
 30
0.0
 10
340.9915131713905
 20
440.9874418540666
 30
0.0
 10
341.688743147247
 20
440.281745011378
 30
0.0
  0
SPLINE
  5
152
330
1F
100
AcDbEntity
  8
0
  6
Continuous
 62
     8
370
     0
100
AcDbSpline
210
0.0
220
0.0
230
1.0
 70
     8
 71
     3
 72
    20
 73
    16
 74
     0
 42
0.00000001
 43
0.00000001
 40
0.0
 40
0.0
 40
0.0
 40
0.0
 40
0.125
 40
0.125
 40
0.2500000000000001
 40
0.2500000000000001
 40
0.3750000000000001
 40
0.3750000000000001
 40
0.5000000000000001
 40
0.5000000000000001
 40
0.6250000000000002
 40
0.6250000000000002
 40
0.7500000000000002
 40
0.7500000000000002
 40
1.0
 40
1.0
 40
1.0
 40
1.0
 10
341.688743147247
 20
440.281745011378
 30
0.0
 10
341.9680325208446
 20
439.999064067995
 30
0.0
 10
342.2501095785206
 20
439.7106663251528
 30
0.0
 10
342.8153864675167
 20
439.149366495238
 30
0.0
 10
343.0985509956333
 20
438.8766952577432
 30
0.0
 10
343.6637313468426
 20
438.3595152575011
 30
0.0
 10
343.9457146141755
 20
438.1155814722154
 30
0.0
 10
344.5074853150223
 20
437.6482747877515
 30
0.0
 10
344.7872997154596
 20
437.4252503230578
 30
0.0
 10
345.3432307413235
 20
436.9822500633145
 30
0.0
 10
345.6194723753832
 20
436.7618783192424
 30
0.0
 10
346.1644977509247
 20
436.3116316596258
 30
0.0
 10
346.4333623894985
 20
436.0811761059435
 30
0.0
 10
347.2199892286328
 20
435.3745147794181
 30
0.0
 10
347.7172190986442
 20
434.8817714901906
 30
0.0
 10
348.1732787578169
 20
434.406031805008
 30
0.0
  0
SPLINE
  5
153
330
1F
100
AcDbEntity
  8
0
  6
Continuous
 62
     8
370
     0
100
AcDbSpline
210
0.0
220
0.0
230
1.0
 70
     8
 71
     3
 72
    12
 73
     8
 74
     0
 42
0.00000001
 43
0.00000001
 40
0.0
 40
0.0
 40
0.0
 40
0.0
 40
0.5
 40
0.5
 40
0.75
 40
0.75
 40
1.0
 40
1.0
 40
1.0
 40
1.0
 10
348.1732787578169
 20
434.406031805008
 30
0.0
 10
349.0766503716285
 20
433.463677618528
 30
0.0
 10
349.8282550046662
 20
432.67234566043
 30
0.0
 10
350.6061091714834
 20
431.8955442398988
 30
0.0
 10
350.8072247363227
 20
431.7048928537813
 30
0.0
 10
351.0774557394332
 20
431.4868321651653
 30
0.0
 10
351.1465531014169
 20
431.4594900376117
 30
0.0
 10
351.1465531014169
 20
431.521692307928
 30
0.0
  0
SPLINE
  5
154
330
1F
100
AcDbEntity
  8
0
  6
Continuous
 62
     8
370
     0
100
AcDbSpline
210
0.0
220
0.0
230
1.0
 70
     8
 71
     3
 72
    12
 73
     8
 74
     0
 42
0.00000001
 43
0.00000001
 40
0.0
 40
0.0
 40
0.0
 40
0.0
 40
0.2499999999999998
 40
0.2499999999999998
 40
0.4999999999999996
 40
0.4999999999999996
 40
1.0
 40
1.0
 40
1.0
 40
1.0
 10
351.1465531014169
 20
489.495025157078
 30
0.0
 10
351.1465531014169
 20
489.5572442145133
 30
0.0
 10
351.0774557025525
 20
489.529893825195
 30
0.0
 10
350.8072524014381
 20
489.3118396322614
 30
0.0
 10
350.6061473339701
 20
489.1211816274844
 30
0.0
 10
349.8283438914002
 20
488.3444194305295
 30
0.0
 10
349.0767820271106
 20
487.5531933860763
 30
0.0
 10
348.1734636809269
 20
486.6108766311979
 30
0.0
  0
SPLINE
  5
155
330
1F
100
AcDbEntity
  8
0
  6
Continuous
 62
     8
370
     0
100
AcDbSpline
210
0.0
220
0.0
230
1.0
 70
     8
 71
     3
 72
    17
 73
    13
 74
     0
 42
0.00000001
 43
0.00000001
 40
0.0
 40
0.0
 40
0.0
 40
0.0
 40
0.0563538146638346
 40
0.1149636980182019
 40
0.1759409394675254
 40
0.2393843707904122
 40
0.3053817445039632
 40
0.3740110162909315
 40
0.4846732050839236
 40
0.6229912083000089
 40
0.8008359370204249
 40
1.0
 40
1.0
 40
1.0
 40
1.0
 10
342.611085788917
 20
466.417692042234
 30
0.0
 10
342.5673297486252
 20
466.3671526696329
 30
0.0
 10
342.478065938667
 20
466.2640506311214
 30
0.0
 10
342.3512040899916
 20
466.098360820598
 30
0.0
 10
342.2261561345395
 20
465.9209764819684
 30
0.0
 10
342.1036709469734
 20
465.7311828084226
 30
0.0
 10
341.9835662280595
 20
465.5290901086307
 30
0.0
 10
341.8432478898681
 20
465.2737079754739
 30
0.0
 10
341.6758179651799
 20
464.9349796683905
 30
0.0
 10
341.4645766526934
 20
464.4719697336068
 30
0.0
 10
341.2206866655961
 20
463.9060074824288
 30
0.0
 10
341.051084194294
 20
463.4862668262592
 30
0.0
 10
340.9614875641369
 20
463.2645286166447
 30
0.0
  0
SPLINE
  5
156
330
1F
100
AcDbEntity
  8
0
  6
Continuous
 62
     8
370
     0
100
AcDbSpline
210
0.0
220
0.0
230
1.0
 70
     8
 71
     3
 72
    16
 73
    12
 74
     0
 42
0.00000001
 43
0.00000001
 40
0.0
 40
0.0
 40
0.0
 40
0.0
 40
0.145644691493028
 40
0.2730426942910888
 40
0.3822728532919588
 40
0.4734612287852322
 40
0.6899564737939369
 40
0.7481680001955109
 40
0.8102478408626459
 40
0.9051103832177912
 40
1.0
 40
1.0
 40
1.0
 40
1.0
 10
340.9614875641369
 20
463.2645286166447
 30
0.0
 10
340.9111095641559
 20
463.136635692631
 30
0.0
 10
340.8166650313218
 20
462.8968725526534
 30
0.0
 10
340.6929873089122
 20
462.5572428152866
 30
0.0
 10
340.5947005868103
 20
462.262914372025
 30
0.0
 10
340.4846202667951
 20
461.88377826591
 30
0.0
 10
340.4210872565768
 20
461.5405334766173
 30
0.0
 10
340.4036514451293
 20
461.221396170237
 30
0.0
 10
340.403624237645
 20
461.0171940962375
 30
0.0
 10
340.4095754358867
 20
460.7782683599279
 30
0.0
 10
340.4155916695219
 20
460.5982611054659
 30
0.0
 10
340.4186002155469
 20
460.508244636238
 30
0.0
  0
SPLINE
  5
157
330
1F
100
AcDbEntity
  8
0
  6
Continuous
 62
     8
370
     0
100
AcDbSpline
210
0.0
220
0.0
230
1.0
 70
     8
 71
     3
 72
    16
 73
    12
 74
     0
 42
0.00000001
 43
0.00000001
 40
0.0
 40
0.0
 40
0.0
 40
0.0
 40
0.0451079396551944
 40
0.1054423885481416
 40
0.172878690609981
 40
0.2840101300585378
 40
0.3822398838888187
 40
0.4950071303974019
 40
0.6208833611186583
 40
0.7891735579132964
 40
0.9999999999999999
 40
0.9999999999999999
 40
0.9999999999999999
 40
0.9999999999999999
 10
340.4186002155469
 20
460.508244636238
 30
0.0
 10
340.4180343164829
 20
460.4534211061491
 30
0.0
 10
340.4167114950585
 20
460.325267969353
 30
0.0
 10
340.4082103029199
 20
460.1153270290383
 30
0.0
 10
340.3993978101777
 20
459.8251276971438
 30
0.0
 10
340.4208677946601
 20
459.4885104228721
 30
0.0
 10
340.4945291849191
 20
459.1038784494908
 30
0.0
 10
340.6047180149383
 20
458.710078163043
 30
0.0
 10
340.7688075506096
 20
458.2450797377047
 30
0.0
 10
340.9897639638259
 20
457.6756091331881
 30
0.0
 10
341.1653819818475
 20
457.2539238368071
 30
0.0
 10
341.2630430130675
 20
457.0194250003049
 30
0.0
  0
SPLINE
  5
158
330
1F
100
AcDbEntity
  8
0
  6
Continuous
 62
     8
370
     0
100
AcDbSpline
210
0.0
220
0.0
230
1.0
 70
     8
 71
     3
 72
    15
 73
    11
 74
     0
 42
0.00000001
 43
0.00000001
 40
0.0
 40
0.0
 40
0.0
 40
0.0
 40
0.1495663411710858
 40
0.2791435943512529
 40
0.3887609063575123
 40
0.5275572288900283
 40
0.6577666855645652
 40
0.7796696681445565
 40
0.8936079251357587
 40
1.0
 40
1.0
 40
1.0
 40
1.0
 10
341.2630430130675
 20
457.0194250003049
 30
0.0
 10
341.3175592808087
 20
456.8909560572253
 30
0.0
 10
341.4193058824084
 20
456.6511876557724
 30
0.0
 10
341.5660760508867
 20
456.3205167776302
 30
0.0
 10
341.7139240215592
 20
456.0019943388377
 30
0.0
 10
341.872372827511
 20
455.68856842791
 30
0.0
 10
342.0500979963488
 20
455.3731233270749
 30
0.0
 10
342.2316114720958
 20
455.0872835060247
 30
0.0
 10
342.4151408197766
 20
454.8292643774907
 30
0.0
 10
342.5473107659602
 20
454.6741221751729
 30
0.0
 10
342.611132368237
 20
454.5992078378477
 30
0.0
  0
SPLINE
  5
159
330
1F
100
AcDbEntity
  8
0
  6
Continuous
 62
     8
370
     0
100
AcDbSpline
210
0.0
220
0.0
230
1.0
 70
     8
 71
     3
 72
    14
 73
    10
 74
     0
 42
0.00000001
 43
0.00000001
 40
0.6042583100847677
 40
0.6042583100847677
 40
0.6042583100847677
 40
0.6042583100847677
 40
0.6770145513661534
 40
0.7133926720850947
 40
0.7497707928040362
 40
0.7861489135229777
 40
0.8225270342419189
 40
0.8589051549608604
 40
0.8952832756313803
 40
0.8952832756313803
 40
0.8952832756313803
 40
0.8952832756313803
 10
405.3558208128791
 20
493.4757937042037
 30
0.0
 10
404.8971176741371
 20
493.4757937042046
 30
0.0
 10
404.2940225905571
 20
493.5269880869888
 30
0.0
 10
403.6385225076157
 20
493.6529291105552
 30
0.0
 10
403.2221566682324
 20
493.7716118946524
 30
0.0
 10
402.8819959269122
 20
493.9099077883337
 30
0.0
 10
402.6204362929555
 20
494.0642119677291
 30
0.0
 10
402.4398737756627
 20
494.2309196089687
 30
0.0
 10
402.3766711610961
 20
494.3483502989952
 30
0.0
 10
402.3601565327838
 20
494.4081445318727
 30
0.0
  0
SPLINE
  5
15A
330
1F
100
AcDbEntity
  8
0
  6
Continuous
 62
     8
370
     0
100
AcDbSpline
210
0.0
220
0.0
230
1.0
 70
     8
 71
     3
 72
    29
 73
    25
 74
     0
 42
0.00000001
 43
0.00000001
 40
0.0
 40
0.0
 40
0.0
 40
0.0
 40
0.0387733510723907
 40
0.0770524170461501
 40
0.1148432504013195
 40
0.152152141235268
 40
0.1889856265560601
 40
0.2253504997558727
 40
0.2612538202353012
 40
0.2967029231437039
 40
0.3317054291943489
 40
0.3662692545062426
 40
0.4004026204171022
 40
0.4341140632037814
 40
0.4674124436380859
 40
0.5003069562968672
 40
0.5652984949265287
 40
0.6293975305067667
 40
0.6926851678084102
 40
0.7552456674444589
 40
0.8171662585535666
 40
0.8785368989567424
 40
0.9394499830830945
 40
0.9999999999999999
 40
0.9999999999999999
 40
0.9999999999999999
 40
0.9999999999999999
 10
354.327071668067
 20
440.4965810166113
 30
0.0
 10
354.3957107232084
 20
440.4248388004408
 30
0.0
 10
354.5321138185338
 20
440.2822689423477
 30
0.0
 10
354.7286562695506
 20
440.0773179481957
 30
0.0
 10
354.9175824212484
 20
439.8805776479037
 30
0.0
 10
355.0984273404121
 20
439.6924863363083
 30
0.0
 10
355.2713131682954
 20
439.5128161164194
 30
0.0
 10
355.4362077316702
 20
439.3415090349675
 30
0.0
 10
355.5931194083121
 20
439.178457574625
 30
0.0
 10
355.7420458949454
 20
439.0235626039973
 30
0.0
 10
355.8829877201269
 20
438.8767183925886
 30
0.0
 10
356.0159445165947
 20
438.7378168071522
 30
0.0
 10
356.1409166402813
 20
438.6067464073607
 30
0.0
 10
356.2579023994636
 20
438.4833930766384
 30
0.0
 10
356.3669073705603
 20
438.3676395163662
 30
0.0
 10
356.501162338718
 20
438.2237228709436
 30
0.0
 10
356.6502414471675
 20
438.0610785625582
 30
0.0
 10
356.7998640970889
 20
437.8925605647742
 30
0.0
 10
356.9195836436988
 20
437.7510322198168
 30
0.0
 10
357.009346184226
 20
437.6361976916368
 30
0.0
 10
357.0693513839514
 20
437.5475117896584
 30
0.0
 10
357.0988391061344
 20
437.4851825235867
 30
0.0
 10
357.1005963122718
 20
437.4465061209627
 30
0.0
 10
357.0763433400588
 20
437.4417588494449
 30
0.0
 10
357.0642531014169
 20
437.439392308757
 30
0.0
  0
SPLINE
  5
15B
330
1F
100
AcDbEntity
  8
0
  6
Continuous
 62
     8
370
     0
100
AcDbSpline
210
0.0
220
0.0
230
1.0
 70
     8
 71
     3
 72
    14
 73
    10
 74
     0
 42
0.00000001
 43
0.00000001
 40
0.0
 40
0.0
 40
0.0
 40
0.0
 40
0.1172106750887376
 40
0.2380343354057196
 40
0.3624725273286185
 40
0.4905266653604756
 40
0.7219089093148795
 40
0.8917343070858849
 40
1.0
 40
1.0
 40
1.0
 40
1.0
 10
352.4005053501476
 20
442.7733778295718
 30
0.0
 10
352.4744509745112
 20
442.6738682003015
 30
0.0
 10
352.6246215757661
 20
442.4717815861608
 30
0.0
 10
352.8556219077701
 20
442.1745936358955
 30
0.0
 10
353.0950349299106
 20
441.8767985956906
 30
0.0
 10
353.4079239283018
 20
441.5030517673592
 30
0.0
 10
353.7508143583578
 20
441.1125746260576
 30
0.0
 10
354.0800303989428
 20
440.7552884272927
 30
0.0
 10
354.2578452552913
 20
440.5690765395798
 30
0.0
 10
354.327071668067
 20
440.4965810166113
 30
0.0
  0
SPLINE
  5
15C
330
1F
100
AcDbEntity
  8
0
  6
Continuous
 62
     8
370
     0
100
AcDbSpline
210
0.0
220
0.0
230
1.0
 70
     8
 71
     3
 72
    17
 73
    13
 74
     0
 42
0.00000001
 43
0.00000001
 40
0.0
 40
0.0
 40
0.0
 40
0.0
 40
0.0785198924556773
 40
0.1453703545944143
 40
0.2005531538915446
 40
0.2440715683492471
 40
0.3702713948005698
 40
0.4913176338110107
 40
0.6077052835256651
 40
0.7408201869766518
 40
0.8153278988879725
 40
1.0
 40
1.0
 40
1.0
 40
1.0
 10
348.995866810827
 20
447.2166133693953
 30
0.0
 10
349.0996311862581
 20
447.0945045029001
 30
0.0
 10
349.2917387347907
 20
446.8684342846868
 30
0.0
 10
349.554798015125
 20
446.5607149494852
 30
0.0
 10
349.7702165986796
 20
446.3084587010399
 30
0.0
 10
350.0585024794062
 20
445.9668623915978
 30
0.0
 10
350.4170299471193
 20
445.5254950155062
 30
0.0
 10
350.8399480318306
 20
444.9769396667993
 30
0.0
 10
351.2405593054466
 20
444.421493514788
 30
0.0
 10
351.5739905535038
 20
443.9457027752617
 30
0.0
 10
351.9610432303432
 20
443.3797053241723
 30
0.0
 10
352.2176596972646
 20
443.025650645851
 30
0.0
 10
352.4005053501476
 20
442.7733778295718
 30
0.0
  0
SPLINE
  5
15D
330
1F
100
AcDbEntity
  8
0
  6
Continuous
 62
     8
370
     0
100
AcDbSpline
210
0.0
220
0.0
230
1.0
 70
     8
 71
     3
 72
     8
 73
     4
 74
     0
 42
0.00000001
 43
0.00000001
 40
0.0
 40
0.0
 40
0.0
 40
0.0
 40
1.0
 40
1.0
 40
1.0
 40
1.0
 10
348.995866810827
 20
447.2166133693179
 30
0.0
 10
348.7990327965887
 20
447.4487458550436
 30
0.0
 10
348.6073190950609
 20
447.6789753060173
 30
0.0
 10
348.4201997825701
 20
447.9066286867597
 30
0.0
  0
SPLINE
  5
15E
330
1F
100
AcDbEntity
  8
0
  6
Continuous
 62
     8
370
     0
100
AcDbSpline
210
0.0
220
0.0
230
1.0
 70
     8
 71
     3
 72
    18
 73
    14
 74
     0
 42
0.00000001
 43
0.00000001
 40
0.0
 40
0.0
 40
0.0
 40
0.0
 40
0.045028598820909
 40
0.101685895196179
 40
0.1579963091052576
 40
0.2143690592055789
 40
0.2995374660684814
 40
0.3804509236618357
 40
0.4571372425838575
 40
0.5791689112749473
 40
0.7144457095324492
 40
0.8189310604131607
 40
1.0
 40
1.0
 40
1.0
 40
1.0
 10
342.611132368237
 20
454.5992078378477
 30
0.0
 10
342.7037003405746
 20
454.4966826856309
 30
0.0
 10
342.912742091376
 20
454.2651551196779
 30
0.0
 10
343.2433338017328
 20
453.9122432811212
 30
0.0
 10
343.5982962769626
 20
453.536364059193
 30
0.0
 10
344.0143177500456
 20
453.1007095594863
 30
0.0
 10
344.478476939945
 20
452.6112458401995
 30
0.0
 10
344.9738763585117
 20
452.072843189496
 30
0.0
 10
345.5321580560239
 20
451.4489810416863
 30
0.0
 10
346.1734290433072
 20
450.6945373576455
 30
0.0
 10
346.8405363821478
 20
449.8751059137961
 30
0.0
 10
347.591586867332
 20
448.9244947714127
 30
0.0
 10
348.0986640076095
 20
448.3016017825881
 30
0.0
 10
348.4201997825701
 20
447.9066275982468
 30
0.0
  0
SPLINE
  5
15F
330
1F
100
AcDbEntity
  8
0
  6
Continuous
 62
     8
370
     0
100
AcDbSpline
210
0.0
220
0.0
230
1.0
 70
     8
 71
     3
 72
     8
 73
     4
 74
     0
 42
0.00000001
 43
0.00000001
 40
0.0
 40
0.0
 40
0.0
 40
0.0
 40
1.0
 40
1.0
 40
1.0
 40
1.0
 10
342.611085788917
 20
466.417692042508
 30
0.0
 10
342.8331889350796
 20
466.6666567558131
 30
0.0
 10
343.0809959045853
 20
466.932509349471
 30
0.0
 10
343.3441710625757
 20
467.2110603052244
 30
0.0
  0
SPLINE
  5
160
330
1F
100
AcDbEntity
  8
0
  6
Continuous
 62
     8
370
     0
100
AcDbSpline
210
0.0
220
0.0
230
1.0
 70
     8
 71
     3
 72
    19
 73
    15
 74
     0
 42
0.00000001
 43
0.00000001
 40
0.0
 40
0.0
 40
0.0
 40
0.0
 40
0.0408220227067241
 40
0.0900089647237838
 40
0.1475608190123502
 40
0.2333603357917991
 40
0.2859025352178581
 40
0.4160332044162409
 40
0.5400683301081634
 40
0.777537329946065
 40
0.8916957581795002
 40
0.9467983377205926
 40
0.9736638793205786
 40
1.0
 40
1.0
 40
1.0
 40
1.0
 10
348.9958835609269
 20
473.8003188602634
 30
0.0
 10
348.9239038022492
 20
473.7150905376844
 30
0.0
 10
348.7651947738848
 20
473.5271695927672
 30
0.0
 10
348.5056566859595
 20
473.2147646322715
 30
0.0
 10
348.1674380880954
 20
472.8023926735463
 30
0.0
 10
347.8233825485411
 20
472.37631877422
 30
0.0
 10
347.3510518119716
 20
471.7849008102792
 30
0.0
 10
346.8061271600541
 20
471.1005888149585
 30
0.0
 10
345.9086392781892
 20
469.9951962846598
 30
0.0
 10
344.9792481839056
 20
468.9377546644584
 30
0.0
 10
344.142154543351
 20
468.0509816211753
 30
0.0
 10
343.7347810014288
 20
467.6228546044103
 30
0.0
 10
343.5094932141234
 20
467.3858333092857
 30
0.0
 10
343.3989116395967
 20
467.2689663995364
 30
0.0
 10
343.3441710625757
 20
467.2111144282498
 30
0.0
  0
SPLINE
  5
161
330
1F
100
AcDbEntity
  8
0
  6
Continuous
 62
     8
370
     0
100
AcDbSpline
210
0.0
220
0.0
230
1.0
 70
     8
 71
     3
 72
    17
 73
    13
 74
     0
 42
0.00000001
 43
0.00000001
 40
0.0
 40
0.0
 40
0.0
 40
0.0
 40
0.077461705560419
 40
0.1459141357122371
 40
0.2053588834139635
 40
0.2557984397990318
 40
0.3845362588792291
 40
0.5056491445340306
 40
0.6257324929360826
 40
0.7545880759908196
 40
0.8526809920680279
 40
1.0
 40
1.0
 40
1.0
 40
1.0
 10
352.0154430116564
 20
477.7075350568948
 30
0.0
 10
351.948838469711
 20
477.6125816833435
 30
0.0
 10
351.8233759059557
 20
477.433718600812
 30
0.0
 10
351.6448934568264
 20
477.1764520894264
 30
0.0
 10
351.488214482843
 20
476.9503424902412
 30
0.0
 10
351.2752680181234
 20
476.6448269148557
 30
0.0
 10
350.9971804778999
 20
476.2558714113646
 30
0.0
 10
350.635490779874
 20
475.771087206495
 30
0.0
 10
350.2504955888678
 20
475.2844628885778
 30
0.0
 10
349.8718720022052
 20
474.8256987909611
 30
0.0
 10
349.4473035819208
 20
474.3304032853381
 30
0.0
 10
349.165217688302
 20
473.9991611343777
 30
0.0
 10
348.9958835609269
 20
473.8003188602634
 30
0.0
  0
SPLINE
  5
162
330
1F
100
AcDbEntity
  8
0
  6
Continuous
 62
     8
370
     0
100
AcDbSpline
210
0.0
220
0.0
230
1.0
 70
     8
 71
     3
 72
    14
 73
    10
 74
     0
 42
0.00000001
 43
0.00000001
 40
0.0
 40
0.0
 40
0.0
 40
0.0
 40
0.1420404257341145
 40
0.2642153313241589
 40
0.3665245764962346
 40
0.4489681148234759
 40
0.5115460674885317
 40
0.7022720428544723
 40
0.9999999999999999
 40
0.9999999999999999
 40
0.9999999999999999
 40
0.9999999999999999
 10
353.6880176128572
 20
479.8297630786983
 30
0.0
 10
353.6076296332876
 20
479.7388758601206
 30
0.0
 10
353.4580965933332
 20
479.5698127469576
 30
0.0
 10
353.2509973351495
 20
479.3261492153981
 30
0.0
 10
353.0778941443305
 20
479.117510754466
 30
0.0
 10
352.9387663307772
 20
478.9459868121534
 30
0.0
 10
352.7508019415286
 20
478.7094008583978
 30
0.0
 10
352.4469215022062
 20
478.3111624779516
 30
0.0
 10
352.1788443965426
 20
477.936129433477
 30
0.0
 10
352.0154430116538
 20
477.7075350568909
 30
0.0
  0
SPLINE
  5
163
330
1F
100
AcDbEntity
  8
0
  6
Continuous
 62
     8
370
     0
100
AcDbSpline
210
0.0
220
0.0
230
1.0
 70
     8
 71
     3
 72
    10
 73
     6
 74
     0
 42
0.00000001
 43
0.00000001
 40
0.0
 40
0.0
 40
0.0
 40
0.0
 40
0.284472207658353
 40
0.6178045841992507
 40
0.9999999999999999
 40
0.9999999999999999
 40
0.9999999999999999
 40
0.9999999999999999
 10
354.327184997037
 20
480.5203937867787
 30
0.0
 10
354.2671346750713
 20
480.4573133748348
 30
0.0
 10
354.1367199519656
 20
480.3203180317996
 30
0.0
 10
353.9234672769891
 20
480.0912027123986
 30
0.0
 10
353.7699943640232
 20
479.9207887842384
 30
0.0
 10
353.6880176128572
 20
479.8297630786983
 30
0.0
  0
SPLINE
  5
164
330
1F
100
AcDbEntity
  8
0
  6
Continuous
 62
     8
370
     0
100
AcDbSpline
210
0.0
220
0.0
230
1.0
 70
     8
 71
     3
 72
    30
 73
    26
 74
     0
 42
0.00000001
 43
0.00000001
 40
0.0
 40
0.0
 40
0.0
 40
0.0
 40
0.0302333116997198
 40
0.0605460324354669
 40
0.0909501454457869
 40
0.1214575262729835
 40
0.1520799303157382
 40
0.1828289810521586
 40
0.2137161589811251
 40
0.2447527913211832
 40
0.2759500424975299
 40
0.3073189054389891
 40
0.3388701936984544
 40
0.3706145344022018
 40
0.4025623620258607
 40
0.4347239129878079
 40
0.4671092210443354
 40
0.4997281134652221
 40
0.5659183610609221
 40
0.6337597321181848
 40
0.7033218349533059
 40
0.7746692414302517
 40
0.8478617982188325
 40
0.9229549402955652
 40
1.0
 40
1.0
 40
1.0
 40
1.0
 10
357.0641859505669
 20
483.5773923118292
 30
0.0
 10
357.0709530007622
 20
483.5768028719485
 30
0.0
 10
357.0845048750883
 20
483.5756224439991
 30
0.0
 10
357.0953131370002
 20
483.5660380832713
 30
0.0
 10
357.0991913923256
 20
483.5506611866361
 30
0.0
 10
357.0954494553164
 20
483.5288719650621
 30
0.0
 10
357.0842732469191
 20
483.5007638403449
 30
0.0
 10
357.0656128148323
 20
483.4662402706757
 30
0.0
 10
357.0394817613024
 20
483.4252580251287
 30
0.0
 10
357.0058765683872
 20
483.3777617106215
 30
0.0
 10
356.964798341342
 20
483.3237014934315
 30
0.0
 10
356.9162469534125
 20
483.2630283926186
 30
0.0
 10
356.8602225829909
 20
483.195695618527
 30
0.0
 10
356.7967254527811
 20
483.1216582993054
 30
0.0
 10
356.7257553122295
 20
483.0408735702565
 30
0.0
 10
356.6473137863986
 20
482.953300839095
 30
0.0
 10
356.5613954065606
 20
482.8589009718875
 30
0.0
 10
356.4362231698244
 20
482.7231553446237
 30
0.0
 10
356.2597784703746
 20
482.5350413066283
 30
0.0
 10
356.0175045394379
 20
482.2804220545697
 30
0.0
 10
355.7432766956271
 20
481.9944435535044
 30
0.0
 10
355.4372098555797
 20
481.6763684345857
 30
0.0
 10
355.0988475597641
 20
481.324851773218
 30
0.0
 10
354.7299795065613
 20
480.9411445842488
 30
0.0
 10
354.4625933459441
 20
480.6618385419569
 30
0.0
 10
354.327184997037
 20
480.5203937867787
 30
0.0
  0
SPLINE
  5
165
330
1F
100
AcDbEntity
  8
0
  6
Continuous
 62
     8
370
     0
100
AcDbSpline
210
0.0
220
0.0
230
1.0
 70
    24
 71
     3
 72
    12
 73
     8
 74
     0
 42
0.00000001
 43
0.00000001
 40
0.8952831452635766
 40
0.8952831452635766
 40
0.8952831452635766
 40
0.8952831452635766
 40
0.9040095389569264
 40
0.9214623263436261
 40
0.9476415074236756
 40
0.9738206885037252
 40
1.0
 40
1.0
 40
1.0
 40
1.0
 10
389.0313645639081
 20
482.1861725072895
 30
0.0
 10
389.0313645639073
 20
482.1141139313034
 30
0.0
 10
389.031364563905
 20
481.8888013861149
 30
0.0
 10
389.0313645639002
 20
481.3884032738868
 30
0.0
 10
389.031364563894
 20
480.6330341047149
 30
0.0
 10
389.0313645638876
 20
479.7265977246778
 30
0.0
 10
389.0313645638836
 20
479.1171623036909
 30
0.0
 10
389.0313645638818
 20
478.81595071856
 30
0.0
  0
SPLINE
  5
166
330
1F
100
AcDbEntity
  8
0
  6
Continuous
 62
     8
370
     0
100
AcDbSpline
210
0.0
220
0.0
230
1.0
 70
     8
 71
     3
 72
    14
 73
    10
 74
     0
 42
0.00000001
 43
0.00000001
 40
0.6042587306707183
 40
0.6042587306707183
 40
0.6042587306707183
 40
0.6042587306707183
 40
0.6406367209734345
 40
0.677014841692376
 40
0.7133929624113172
 40
0.7497710831302586
 40
0.7861492038492002
 40
0.8225273245681415
 40
0.8952831452635766
 40
0.8952831452635766
 40
0.8952831452635766
 40
0.8952831452635766
 10
389.0313645638818
 20
478.81595071856
 30
0.0
 10
389.0313645638792
 20
478.3973924996329
 30
0.0
 10
389.1735590355771
 20
477.4833951594619
 30
0.0
 10
389.8291554572231
 20
475.9777585589212
 30
0.0
 10
390.8501980273521
 20
474.4772789885989
 30
0.0
 10
392.1373334770934
 20
473.1159967597044
 30
0.0
 10
393.5848920069375
 20
471.9949447414144
 30
0.0
 10
395.6356448454836
 20
470.9033167284468
 30
0.0
 10
397.1906521149081
 20
470.6041820288314
 30
0.0
 10
398.1419541219291
 20
470.6041797223583
 30
0.0
  0
LINE
  5
167
330
1F
100
AcDbEntity
  8
0
  6
Continuous
 62
     8
370
     0
100
AcDbLine
 10
398.1419541219
 20
470.6041797223
 30
0.0
 11
415.3826183832
 21
470.6041797223
 31
0.0
  0
SPLINE
  5
168
330
1F
100
AcDbEntity
  8
0
  6
Continuous
 62
     8
370
     0
100
AcDbSpline
210
0.0
220
0.0
230
1.0
 70
     8
 71
     3
 72
    20
 73
    16
 74
     0
 42
0.00000001
 43
0.00000001
 40
0.0
 40
0.0
 40
0.0
 40
0.0
 40
0.1250000000000002
 40
0.1250000000000002
 40
0.2500000000000005
 40
0.2500000000000005
 40
0.5000000000000003
 40
0.5000000000000003
 40
0.6250000000000002
 40
0.6250000000000002
 40
0.7500000000000001
 40
0.7500000000000001
 40
0.8750000000000001
 40
0.8750000000000001
 40
1.0
 40
1.0
 40
1.0
 40
1.0
 10
418.3486542347579
 20
469.4574436000556
 30
0.0
 10
418.3367221423329
 20
468.8350412835817
 30
0.0
 10
418.3271309922204
 20
468.1992868494697
 30
0.0
 10
418.3102784622874
 20
466.9028653944275
 30
0.0
 10
418.3031720958563
 20
466.2431841069047
 30
0.0
 10
418.28497475184
 20
464.2559052383866
 30
0.0
 10
418.277066367704
 20
462.9109443150158
 30
0.0
 10
418.27039013447
 20
460.8627018098632
 30
0.0
 10
418.2689301008951
 20
460.1710134933522
 30
0.0
 10
418.2671485398724
 20
458.8017759667637
 30
0.0
 10
418.2669004915201
 20
458.1233014111738
 30
0.0
 10
418.2667294046761
 20
456.7784851615032
 30
0.0
 10
418.2667456734362
 20
456.1121274556863
 30
0.0
 10
418.2668322829758
 20
454.7915894974528
 30
0.0
 10
418.2666827022319
 20
454.1360229362814
 30
0.0
 10
418.2668517920045
 20
453.4895656993531
 30
0.0
  0
ARC
  5
169
330
1F
100
AcDbEntity
  8
0
  6
Continuous
 62
     8
370
     0
100
AcDbCircle
 10
415.7952444459
 20
467.2622404357
 30
0.0
 40
3.367316210719378
100
AcDbArc
 50
40.6861229905
 51
97.0386325516
  0
SPLINE
  5
16A
330
1F
100
AcDbEntity
  8
0
  6
Continuous
 62
     8
370
     0
100
AcDbSpline
210
0.0
220
0.0
230
1.0
 70
     8
 71
     3
 72
    30
 73
    26
 74
     0
 42
0.00000001
 43
0.00000001
 40
0.0
 40
0.0
 40
0.0
 40
0.0
 40
0.1249999999999985
 40
0.1249999999999985
 40
0.1874999999999981
 40
0.1874999999999981
 40
0.2499999999999978
 40
0.2499999999999978
 40
0.3124999999999974
 40
0.3124999999999974
 40
0.374999999999997
 40
0.374999999999997
 40
0.499999999999997
 40
0.499999999999997
 40
0.562499999999997
 40
0.562499999999997
 40
0.6249999999999971
 40
0.6249999999999971
 40
0.749999999999998
 40
0.749999999999998
 40
0.8124999999999984
 40
0.8124999999999984
 40
0.8749999999999986
 40
0.8749999999999986
 40
1.0
 40
1.0
 40
1.0
 40
1.0
 10
418.3872458362043
 20
494.4081409900966
 30
0.0
 10
418.3873603488656
 20
493.3662594778083
 30
0.0
 10
418.3914149172286
 20
492.3073341327236
 30
0.0
 10
418.3998422905499
 20
490.6931326303315
 30
0.0
 10
418.4030168220144
 20
490.1504669181247
 30
0.0
 10
418.4089736213087
 20
489.0640063123417
 30
0.0
 10
418.4117541354381
 20
488.5190718920579
 30
0.0
 10
418.4166452367401
 20
487.4252262054638
 30
0.0
 10
418.4187248145936
 20
486.876308938743
 30
0.0
 10
418.4223933623256
 20
485.7738205217217
 30
0.0
 10
418.4240347435972
 20
485.2190993556286
 30
0.0
 10
418.429863686091
 20
483.5544285560655
 30
0.0
 10
418.4354262533961
 20
482.4772356485822
 30
0.0
 10
418.4400821248512
 20
480.9026974499297
 30
0.0
 10
418.441048705438
 20
480.3844858222841
 30
0.0
 10
418.4412027864163
 20
479.3583402923841
 30
0.0
 10
418.440402274438
 20
478.8496714520111
 30
0.0
 10
418.4353425532066
 20
477.3423201351238
 30
0.0
 10
418.4278428375952
 20
476.3583964728704
 30
0.0
 10
418.4132660547554
 20
474.8898087180474
 30
0.0
 10
418.4080732568236
 20
474.4016608908337
 30
0.0
 10
418.3987554095157
 20
473.4226032314963
 30
0.0
 10
418.3945310311724
 20
472.9315827478839
 30
0.0
 10
418.3803682240339
 20
471.4524064665484
 30
0.0
 10
418.3678755054265
 20
470.4588447048322
 30
0.0
 10
418.3486542380407
 20
469.4574435917045
 30
0.0
  0
LINE
  5
16B
330
1F
100
AcDbEntity
  8
0
  6
Continuous
 62
     8
370
     0
100
AcDbLine
 10
418.2668493851
 20
453.4895681144
 30
0.0
 11
418.2668493851
 21
441.7677128829
 31
0.0
  0
ARC
  5
16C
330
1F
100
AcDbEntity
  8
0
  6
Continuous
 62
     8
370
     0
100
AcDbCircle
 10
392.4688876916
 20
438.7017009652
 30
0.0
 40
0.1860764539201516
100
AcDbArc
 50
192.4113314795
 51
273.9794668459
  0
SPLINE
  5
16D
330
1F
100
AcDbEntity
  8
0
  6
Continuous
 62
     8
370
     0
100
AcDbSpline
210
0.0
220
0.0
230
1.0
 70
     8
 71
     3
 72
    87
 73
    83
 74
     0
 42
0.00000001
 43
0.00000001
 40
0.0
 40
0.0
 40
0.0
 40
0.0
 40
0.0335711687056576
 40
0.067018047056459
 40
0.093392457496776
 40
0.120000673279818
 40
0.1470335355119635
 40
0.1735983359606556
 40
0.199756465814821
 40
0.2255699789452433
 40
0.25
 40
0.265591756233596
 40
0.3051824309723724
 40
0.3433879332470948
 40
0.375
 40
0.3817705848771541
 40
0.41229599014316
 40
0.4375
 40
0.4433947353476333
 40
0.4671842114838626
 40
0.4858887679867854
 40
0.5
 40
0.5209692807633557
 40
0.5485897842611636
 40
0.5625
 40
0.5674875894953508
 40
0.5685180150510237
 40
0.5830082359460304
 40
0.5841659094457906
 40
0.5979164154117349
 40
0.5991825692971162
 40
0.6096119775388815
 40
0.6109498247093306
 40
0.6301940187506019
 40
0.6316138840422743
 40
0.646292597575724
 40
0.6477198529092457
 40
0.6637500644552602
 40
0.6651096701025327
 40
0.6773868022334969
 40
0.6786298836040341
 40
0.6875
 40
0.6946697917715647
 40
0.6956818423244244
 40
0.7089223372078133
 40
0.7319585354591802
 40
0.749823589420505
 40
0.7673203212028574
 40
0.7810065472781169
 40
0.7970962540561054
 40
0.7980441722344717
 40
0.8097465277826166
 40
0.8108284135345581
 40
0.81590416886141
 40
0.8170368185464351
 40
0.8207486726336523
 40
0.8219144691504365
 40
0.8344204272246287
 40
0.8356473365345608
 40
0.8452134698577592
 40
0.846455229453319
 40
0.8616419003517818
 40
0.8628526543862504
 40
0.8746568686308852
 40
0.8934928481118956
 40
0.8944872684224783
 40
0.9084687759026806
 40
0.9093094680265338
 40
0.9208420823870498
 40
0.9215413730080736
 40
0.9306486505172666
 40
0.9312315391616997
 40
0.9416884209708023
 40
0.9504336215008937
 40
0.9618939958568822
 40
0.9709780577471064
 40
0.9784837120550812
 40
0.9844157704527053
 40
0.9898246057161714
 40
0.9940926327471847
 40
0.9962937090941468
 40
1.0
 40
1.0
 40
1.0
 40
1.0
 10
419.8508210532774
 20
460.5083923085853
 30
0.0
 10
419.8508210532777
 20
460.9281377981836
 30
0.0
 10
419.8456658216332
 20
461.7663570426295
 30
0.0
 10
419.8258995623289
 20
462.932320120306
 30
0.0
 10
419.7986611191237
 20
464.0071940710494
 30
0.0
 10
419.7670450056829
 20
464.9973381425363
 30
0.0
 10
419.7298181221903
 20
465.983213482333
 30
0.0
 10
419.688267626586
 20
466.9553706549625
 30
0.0
 10
419.6438829390967
 20
467.9032094486817
 30
0.0
 10
419.5982473019212
 20
468.8147752752608
 30
0.0
 10
419.5575908362356
 20
469.590332039704
 30
0.0
 10
419.5077947317357
 20
470.5175331971556
 30
0.0
 10
419.4484621428566
 20
471.5882591907776
 30
0.0
 10
419.3778564446303
 20
472.8160820354532
 30
0.0
 10
419.3280007295471
 20
473.6597027283555
 30
0.0
 10
419.2830370950479
 20
474.4112057529251
 30
0.0
 10
419.2421801196409
 20
475.0862577981395
 30
0.0
 10
419.2019178393809
 20
475.7425964083103
 30
0.0
 10
419.1661217536027
 20
476.3227656530187
 30
0.0
 10
419.1346299659963
 20
476.8305440323838
 30
0.0
 10
419.0979728237605
 20
477.4185910785616
 30
0.0
 10
419.063317201578
 20
477.9731043313045
 30
0.0
 10
419.023174178827
 20
478.6143843488857
 30
0.0
 10
418.9836425984573
 20
479.248710711637
 30
0.0
 10
418.9546332844597
 20
479.719579256603
 30
0.0
 10
418.9422969538986
 20
479.9212349033025
 30
0.0
 10
418.9296326725413
 20
480.1287607176353
 30
0.0
 10
418.9193991979449
 20
480.2975425352386
 30
0.0
 10
418.9014911133411
 20
480.5953021546688
 30
0.0
 10
418.8917072803068
 20
480.759264936972
 30
0.0
 10
418.8764344982924
 20
481.0176257806709
 30
0.0
 10
418.868659880531
 20
481.1501271887824
 30
0.0
 10
418.8502837647875
 20
481.4659373557635
 30
0.0
 10
418.8373997651095
 20
481.6906871065042
 30
0.0
 10
418.8169790819642
 20
482.0533161605638
 30
0.0
 10
418.8069600853564
 20
482.2337701928157
 30
0.0
 10
418.7888007174926
 20
482.5660849207825
 30
0.0
 10
418.7783030937332
 20
482.7615903416207
 30
0.0
 10
418.761981807563
 20
483.0715588084854
 30
0.0
 10
418.7538863833695
 20
483.2277193212862
 30
0.0
 10
418.7418476018294
 20
483.4638630338479
 30
0.0
 10
418.7326377879953
 20
483.6468197361478
 30
0.0
 10
418.723685605263
 20
483.828477035638
 30
0.0
 10
418.712527713548
 20
484.0574710528396
 30
0.0
 10
418.6933758280026
 20
484.4584478450992
 30
0.0
 10
418.6665309555235
 20
485.0522762553261
 30
0.0
 10
418.6390627430211
 20
485.7044772986909
 30
0.0
 10
418.6170621016826
 20
486.2633026472856
 30
0.0
 10
418.5968986058766
 20
486.8083446620615
 30
0.0
 10
418.5843773747449
 20
487.1687867628428
 30
0.0
 10
418.5730223132613
 20
487.5083012873058
 30
0.0
 10
418.5677240709123
 20
487.6713506129279
 30
0.0
 10
418.5610069437671
 20
487.8844094379592
 30
0.0
 10
418.5582993501163
 20
487.9715726276193
 30
0.0
 10
418.5546627758015
 20
488.0904362482405
 30
0.0
 10
418.552482185672
 20
488.1625711989397
 30
0.0
 10
418.5462420332007
 20
488.3715465044627
 30
0.0
 10
418.5410548788665
 20
488.5514561493945
 30
0.0
 10
418.5332055782854
 20
488.8339379692729
 30
0.0
 10
418.5292580856584
 20
488.9803051539271
 30
0.0
 10
418.5209695426365
 20
489.2973445654184
 30
0.0
 10
418.5155913605815
 20
489.5133884129284
 30
0.0
 10
418.5073028765885
 20
489.8642347738091
 30
0.0
 10
418.4984326896886
 20
490.2568197935543
 30
0.0
 10
418.4905130148417
 20
490.6488549595928
 30
0.0
 10
418.4827623147056
 20
491.064640527169
 30
0.0
 10
418.479328200206
 20
491.261494481789
 30
0.0
 10
418.4739963728859
 20
491.5899222523415
 30
0.0
 10
418.4715136227467
 20
491.7529974106703
 30
0.0
 10
418.4677295021646
 20
492.0193640746007
 30
0.0
 10
418.465992142982
 20
492.1491143317634
 30
0.0
 10
418.4628286228237
 20
492.4007862408387
 30
0.0
 10
418.4599522172375
 20
492.6480008822883
 30
0.0
 10
418.4561299646353
 20
493.0311014639556
 30
0.0
 10
418.4531301648901
 20
493.3968473867067
 30
0.0
 10
418.4509074787359
 20
493.7466965380717
 30
0.0
 10
418.4495525838532
 20
494.0272100236135
 30
0.0
 10
418.4487146555481
 20
494.2616232746007
 30
0.0
 10
418.4482300132792
 20
494.4555049535198
 30
0.0
 10
418.4479986422951
 20
494.6028523951078
 30
0.0
 10
418.4478798169627
 20
494.7289607939827
 30
0.0
 10
418.4478531014437
 20
494.8021080210407
 30
0.0
 10
418.4478531014437
 20
494.8479732011514
 30
0.0
  0
LINE
  5
16E
330
1F
100
AcDbEntity
  8
0
  6
Continuous
 62
     8
370
     0
100
AcDbLine
 10
418.2668493851
 20
441.7677128829
 30
0.0
 11
418.2668493852
 21
439.9866437114
 31
0.0
  0
SPLINE
  5
16F
330
1F
100
AcDbEntity
  8
0
  6
Continuous
 62
     8
370
     0
100
AcDbSpline
210
0.0
220
0.0
230
1.0
 70
    24
 71
     3
 72
     8
 73
     4
 74
     0
 42
0.00000001
 43
0.00000001
 40
0.0
 40
0.0
 40
0.0
 40
0.0
 40
1.0
 40
1.0
 40
1.0
 40
1.0
 10
389.0313645639081
 20
482.1861725072895
 30
0.0
 10
389.0313645639168
 20
482.9884021991193
 30
0.0
 10
389.0313645639253
 20
483.4517744370655
 30
0.0
 10
389.0313645639329
 20
483.5550292042965
 30
0.0
  0
LINE
  5
170
330
1F
100
AcDbEntity
  8
0
  6
Continuous
 62
     8
370
     0
100
AcDbLine
 10
389.0313645639
 20
483.5550292043
 30
0.0
 11
389.1117339922
 21
483.5577562409
 31
0.0
  0
ARC
  5
171
330
1F
100
AcDbEntity
  8
0
  6
Continuous
 62
     8
370
     0
100
AcDbCircle
 10
394.0950056667
 20
490.9508017952
 30
0.0
 40
9.27936432362537
100
AcDbArc
 50
252.6221875008
 51
283.1787650581
  0
LINE
  5
172
330
1F
100
AcDbEntity
  8
0
  6
Continuous
 62
     7
370
    15
100
AcDbLine
 10
167.9824783935
 20
321.2657532623
 30
0.0
 11
167.9824783935
 21
112.2357247538
 31
0.0
  0
LINE
  5
173
330
1F
100
AcDbEntity
  8
0
  6
Continuous
 62
     7
370
    15
100
AcDbLine
 10
190.0484783935
 20
112.2357247538
 30
0.0
 11
190.0484783935
 21
321.2657532623
 31
0.0
  0
LINE
  5
174
330
1F
100
AcDbEntity
  8
0
  6
Continuous
 62
     7
370
    15
100
AcDbLine
 10
190.0484783935
 20
104.7464524992
 30
0.0
 11
190.0484783935
 21
112.2357247538
 31
0.0
  0
LINE
  5
175
330
1F
100
AcDbEntity
  8
0
  6
Continuous
 62
     7
370
    15
100
AcDbLine
 10
167.9824783935
 20
112.2357247538
 30
0.0
 11
167.9824783935
 21
104.7464524992
 31
0.0
  0
LINE
  5
176
330
1F
100
AcDbEntity
  8
0
  6
Continuous
 62
     7
370
    15
100
AcDbLine
 10
190.0484783935
 20
104.572283377
 30
0.0
 11
190.0484783935
 21
104.7464524992
 31
0.0
  0
LINE
  5
177
330
1F
100
AcDbEntity
  8
0
  6
Continuous
 62
     7
370
    15
100
AcDbLine
 10
167.9824783935
 20
104.7464524992
 30
0.0
 11
167.9824783935
 21
104.572283377
 31
0.0
  0
SPLINE
  5
178
330
1F
100
AcDbEntity
  8
0
  6
Continuous
 62
     7
370
    15
100
AcDbSpline
210
0.0
220
0.0
230
1.0
 70
     8
 71
     3
 72
     9
 73
     5
 74
     0
 42
0.00000001
 43
0.00000001
 40
0.0
 40
0.0
 40
0.0
 40
0.0
 40
0.5056683846036255
 40
1.0
 40
1.0
 40
1.0
 40
1.0
 10
148.2922740802493
 20
229.9528185558743
 30
0.0
 10
148.639139835589
 20
229.9232441781105
 30
0.0
 10
149.3250948327787
 20
229.8647584616522
 30
0.0
 10
150.0248922905002
 20
229.8698945898233
 30
0.0
 10
150.3708242982259
 20
229.872433540359
 30
0.0
  0
SPLINE
  5
179
330
1F
100
AcDbEntity
  8
0
  6
Continuous
 62
     7
370
    15
100
AcDbSpline
210
0.0
220
0.0
230
1.0
 70
     8
 71
     3
 72
     9
 73
     5
 74
     0
 42
0.00000001
 43
0.00000001
 40
0.0
 40
0.0
 40
0.0
 40
0.0
 40
0.5096523580226084
 40
1.0
 40
1.0
 40
1.0
 40
1.0
 10
150.3707514035969
 20
246.06084134117
 30
0.0
 10
150.0249256317549
 20
246.0635527680051
 30
0.0
 10
149.3463733472453
 20
246.0688729176963
 30
0.0
 10
148.6811858612203
 20
246.0124463783407
 30
0.0
 10
148.3550127459752
 20
245.9847777578229
 30
0.0
  0
SPLINE
  5
17A
330
1F
100
AcDbEntity
  8
0
  6
Continuous
 62
     7
370
    15
100
AcDbSpline
210
0.0
220
0.0
230
1.0
 70
     8
 71
     3
 72
     9
 73
     5
 74
     0
 42
0.00000001
 43
0.00000001
 40
0.0
 40
0.0
 40
0.0
 40
0.0
 40
0.1807144263826524
 40
1.0
 40
1.0
 40
1.0
 40
1.0
 10
143.9098886911323
 20
239.5327879057793
 30
0.0
 10
143.8980366311308
 20
239.4414587086218
 30
0.0
 10
143.8324521604343
 20
238.936080145407
 30
0.0
 10
143.8329693786241
 20
238.4012137117908
 30
0.0
 10
143.8333931280253
 20
237.9630053589169
 30
0.0
  0
SPLINE
  5
17B
330
1F
100
AcDbEntity
  8
0
  6
Continuous
 62
     7
370
    15
100
AcDbSpline
210
0.0
220
0.0
230
1.0
 70
     8
 71
     3
 72
     9
 73
     5
 74
     0
 42
0.00000001
 43
0.00000001
 40
0.0
 40
0.0
 40
0.0
 40
0.0
 40
0.1618519672969546
 40
1.0
 40
1.0
 40
1.0
 40
1.0
 10
143.8378743460423
 20
237.9626002108797
 30
0.0
 10
143.8349362737785
 20
237.8777643578436
 30
0.0
 10
143.8167834374995
 20
237.3536072873247
 30
0.0
 10
143.863832534399
 20
236.8348610469234
 30
0.0
 10
143.9032666424058
 20
236.4000749060589
 30
0.0
  0
SPLINE
  5
17C
330
1F
100
AcDbEntity
  8
0
  6
Continuous
 62
     7
370
    15
100
AcDbSpline
210
0.0
220
0.0
230
1.0
 70
     8
 71
     3
 72
     9
 73
     5
 74
     0
 42
0.00000001
 43
0.00000001
 40
0.0
 40
0.0
 40
0.0
 40
0.0
 40
0.1524252389534284
 40
0.9999999999999999
 40
0.9999999999999999
 40
0.9999999999999999
 40
0.9999999999999999
 10
143.907397280863
 20
236.4022392306408
 30
0.0
 10
143.9114961069027
 20
236.326615709554
 30
0.0
 10
143.9383868375176
 20
235.830480544498
 30
0.0
 10
144.0274213280577
 20
235.3711252736636
 30
0.0
 10
144.1028847151021
 20
234.9817873397507
 30
0.0
  0
SPLINE
  5
17D
330
1F
100
AcDbEntity
  8
0
  6
Continuous
 62
     7
370
    15
100
AcDbSpline
210
0.0
220
0.0
230
1.0
 70
     8
 71
     3
 72
     9
 73
     5
 74
     0
 42
0.00000001
 43
0.00000001
 40
0.0
 40
0.0
 40
0.0
 40
0.0
 40
0.1846592073312556
 40
0.9999999999999999
 40
0.9999999999999999
 40
0.9999999999999999
 40
0.9999999999999999
 10
144.1312518918275
 20
241.0678921601595
 30
0.0
 10
144.1093327827607
 20
240.9805466161866
 30
0.0
 10
143.9906324515744
 20
240.5075371993522
 30
0.0
 10
143.9431828439511
 20
239.9727174509021
 30
0.0
 10
143.9044952432597
 20
239.536657093266
 30
0.0
  0
SPLINE
  5
17E
330
1F
100
AcDbEntity
  8
0
  6
Continuous
 62
     7
370
    15
100
AcDbSpline
210
0.0
220
0.0
230
1.0
 70
     8
 71
     3
 72
    10
 73
     6
 74
     0
 42
0.00000001
 43
0.00000001
 40
0.0
 40
0.0
 40
0.0
 40
0.0
 40
0.082073997661139
 40
0.5347635012651305
 40
0.9999999999999999
 40
0.9999999999999999
 40
0.9999999999999999
 40
0.9999999999999999
 10
144.1062131200906
 20
234.9851559732655
 30
0.0
 10
144.1198298842502
 20
234.8941742905451
 30
0.0
 10
144.2085516315195
 20
234.3013716418496
 30
0.0
 10
144.4968090163102
 20
233.3073280549611
 30
0.0
 10
144.8995136594193
 20
232.5142222839698
 30
0.0
 10
145.1036182361575
 20
232.1122489755742
 30
0.0
  0
SPLINE
  5
17F
330
1F
100
AcDbEntity
  8
0
  6
Continuous
 62
     7
370
    15
100
AcDbSpline
210
0.0
220
0.0
230
1.0
 70
     8
 71
     3
 72
     9
 73
     5
 74
     0
 42
0.00000001
 43
0.00000001
 40
0.0
 40
0.0
 40
0.0
 40
0.0
 40
0.3291077792653077
 40
1.0
 40
1.0
 40
1.0
 40
1.0
 10
144.3342655428517
 20
241.9168504305305
 30
0.0
 10
144.304337852304
 20
241.8307776259824
 30
0.0
 10
144.2134020178046
 20
241.5692438368381
 30
0.0
 10
144.1606027055359
 20
241.2721807758396
 30
0.0
 10
144.1251800576746
 20
241.0728834791479
 30
0.0
  0
SPLINE
  5
180
330
1F
100
AcDbEntity
  8
0
  6
Continuous
 62
     7
370
    15
100
AcDbSpline
210
0.0
220
0.0
230
1.0
 70
     8
 71
     3
 72
     9
 73
     5
 74
     0
 42
0.00000001
 43
0.00000001
 40
0.0
 40
0.0
 40
0.0
 40
0.0
 40
0.8878182647853233
 40
1.0
 40
1.0
 40
1.0
 40
1.0
 10
144.7341315183782
 20
243.0710091803437
 30
0.0
 10
144.5966333505688
 20
242.7464009532978
 30
0.0
 10
144.4417613759056
 20
242.3807763205083
 30
0.0
 10
144.3342414432191
 20
241.9725583412464
 30
0.0
 10
144.3221796706002
 20
241.926763739987
 30
0.0
  0
SPLINE
  5
181
330
1F
100
AcDbEntity
  8
0
  6
Continuous
 62
     7
370
    15
100
AcDbSpline
210
0.0
220
0.0
230
1.0
 70
     8
 71
     3
 72
     9
 73
     5
 74
     0
 42
0.00000001
 43
0.00000001
 40
0.0
 40
0.0
 40
0.0
 40
0.0
 40
0.4707134943908873
 40
1.0
 40
1.0
 40
1.0
 40
1.0
 10
145.1108636757968
 20
243.8199910563822
 30
0.0
 10
145.0407236458799
 20
243.7103607563779
 30
0.0
 10
144.8917157445713
 20
243.4774583617987
 30
0.0
 10
144.7858697096735
 20
243.2179909294319
 30
0.0
 10
144.7298468317299
 20
243.0806583188352
 30
0.0
  0
SPLINE
  5
182
330
1F
100
AcDbEntity
  8
0
  6
Continuous
 62
     7
370
    15
100
AcDbSpline
210
0.0
220
0.0
230
1.0
 70
     8
 71
     3
 72
    10
 73
     6
 74
     0
 42
0.00000001
 43
0.00000001
 40
0.0
 40
0.0
 40
0.0
 40
0.0
 40
0.2656738178093795
 40
0.7470211964408071
 40
1.0
 40
1.0
 40
1.0
 40
1.0
 10
146.3910001566707
 20
245.2386412164249
 30
0.0
 10
146.2424216978243
 20
245.1410025318425
 30
0.0
 10
145.8246490358134
 20
244.8664622418845
 30
0.0
 10
145.4090719878362
 20
244.3470466961237
 30
0.0
 10
145.1860250991828
 20
243.9562886715846
 30
0.0
 10
145.1091844030485
 20
243.8216707049011
 30
0.0
  0
SPLINE
  5
183
330
1F
100
AcDbEntity
  8
0
  6
Continuous
 62
     7
370
    15
100
AcDbSpline
210
0.0
220
0.0
230
1.0
 70
     8
 71
     3
 72
    10
 73
     6
 74
     0
 42
0.00000001
 43
0.00000001
 40
0.0
 40
0.0
 40
0.0
 40
0.0
 40
0.1533143537598848
 40
0.6566948236124788
 40
1.0
 40
1.0
 40
1.0
 40
1.0
 10
145.1162588993796
 20
232.1223466086289
 30
0.0
 10
145.1570645765532
 20
232.036408338398
 30
0.0
 10
145.3318484524052
 20
231.6683070104604
 30
0.0
 10
145.737408029685
 20
231.1604030558559
 30
0.0
 10
146.1996924915334
 20
230.8279414427112
 30
0.0
 10
146.3871347251662
 20
230.6931384101458
 30
0.0
  0
SPLINE
  5
184
330
1F
100
AcDbEntity
  8
0
  6
Continuous
 62
     7
370
    15
100
AcDbSpline
210
0.0
220
0.0
230
1.0
 70
     8
 71
     3
 72
    10
 73
     6
 74
     0
 42
0.00000001
 43
0.00000001
 40
0.0
 40
0.0
 40
0.0
 40
0.0
 40
0.1423940226498681
 40
0.680785597699231
 40
1.0
 40
1.0
 40
1.0
 40
1.0
 10
146.6531204654678
 20
230.5126515944404
 30
0.0
 10
146.7229384835461
 20
230.4617163411702
 30
0.0
 10
147.0567383178583
 20
230.2181949756227
 30
0.0
 10
147.6552748996172
 20
230.0451713025372
 30
0.0
 10
148.065929122042
 20
229.9918128010568
 30
0.0
 10
148.2187810676041
 20
229.9719519295055
 30
0.0
  0
SPLINE
  5
185
330
1F
100
AcDbEntity
  8
0
  6
Continuous
 62
     7
370
    15
100
AcDbSpline
210
0.0
220
0.0
230
1.0
 70
     8
 71
     3
 72
    10
 73
     6
 74
     0
 42
0.00000001
 43
0.00000001
 40
0.0
 40
0.0
 40
0.0
 40
0.0
 40
0.4126527563077137
 40
0.9428164116163815
 40
1.0
 40
1.0
 40
1.0
 40
1.0
 10
148.1272775288303
 20
245.9522507655219
 30
0.0
 10
147.9114515167357
 20
245.9123690384527
 30
0.0
 10
147.4183388375009
 20
245.8212484867788
 30
0.0
 10
146.8157737036426
 20
245.6074224677085
 30
0.0
 10
146.5423783447597
 20
245.3728307038152
 30
0.0
 10
146.5157608236318
 20
245.3499910650687
 30
0.0
  0
LINE
  5
186
330
1F
100
AcDbEntity
  8
0
  6
Continuous
 62
     7
370
    15
100
AcDbLine
 10
166.4485770264
 20
229.8924532622
 30
0.0
 11
166.6267107667
 21
229.8886942262
 31
0.0
  0
SPLINE
  5
187
330
1F
100
AcDbEntity
  8
0
  6
Continuous
 62
     7
370
    15
100
AcDbSpline
210
0.0
220
0.0
230
1.0
 70
     8
 71
     3
 72
     9
 73
     5
 74
     0
 42
0.00000001
 43
0.00000001
 40
0.0
 40
0.0
 40
0.0
 40
0.0
 40
0.4482139058638526
 40
1.0
 40
1.0
 40
1.0
 40
1.0
 10
159.8829273320258
 20
229.8924532622176
 30
0.0
 10
161.0817654612452
 20
229.7175989562496
 30
0.0
 10
163.7564663429791
 20
229.3274854330401
 30
0.0
 10
166.4797875961507
 20
229.0952548432502
 30
0.0
 10
167.9824783935161
 20
228.9671132331711
 30
0.0
  0
LINE
  5
188
330
1F
100
AcDbEntity
  8
0
  6
Continuous
 62
     7
370
    15
100
AcDbLine
 10
202.0844783907
 20
233.0468169016
 30
0.0
 11
202.0844783907
 21
258.4274123591
 31
0.0
  0
LINE
  5
189
330
1F
100
AcDbEntity
  8
0
  6
Continuous
 62
     7
370
    15
100
AcDbLine
 10
155.946478392
 20
307.962470561
 30
0.0
 11
155.9464795678
 21
268.3073516575
 31
0.0
  0
LINE
  5
18A
330
1F
100
AcDbEntity
  8
0
  6
Continuous
 62
     7
370
    15
100
AcDbLine
 10
202.0844772043
 20
268.3073516375
 30
0.0
 11
202.0844783951
 21
307.962470561
 31
0.0
  0
ARC
  5
18B
330
1F
100
AcDbEntity
  8
0
  6
Continuous
 62
     7
370
    15
100
AcDbCircle
 10
156.3476783907
 20
268.6082532623
 30
0.0
 40
0.5015000103922164
100
AcDbArc
 50
216.8701259309
 51
270.0000149883
  0
ARC
  5
18C
330
1F
100
AcDbEntity
  8
0
  6
Continuous
 62
     7
370
    15
100
AcDbCircle
 10
201.6832783963
 20
268.6082532623
 30
0.0
 40
0.5015000104154972
100
AcDbArc
 50
269.9999850117
 51
323.1298712175
  0
LINE
  5
18D
330
1F
100
AcDbEntity
  8
0
  6
Continuous
 62
     7
370
    15
100
AcDbLine
 10
201.0814783907
 20
266.1007532623
 30
0.0
 11
201.0814783907
 21
268.1067532623
 31
0.0
  0
LINE
  5
18E
330
1F
100
AcDbEntity
  8
0
  6
Continuous
 62
     7
370
    15
100
AcDbLine
 10
156.9494783907
 20
268.1067532623
 30
0.0
 11
156.9494783907
 21
266.1007532623
 31
0.0
  0
ARC
  5
18F
330
1F
100
AcDbEntity
  8
0
  6
Continuous
 62
     7
370
    15
100
AcDbCircle
 10
179.0154783907
 20
266.0270669595
 30
0.0
 40
22.06599999999999
100
AcDbArc
 50
179.8145617156
 51
194.2799936913
  0
ARC
  5
190
330
1F
100
AcDbEntity
  8
0
  6
Continuous
 62
     7
370
    15
100
AcDbCircle
 10
179.0154783907
 20
266.0270669595
 30
0.0
 40
22.06599999999998
100
AcDbArc
 50
345.6968273846
 51
0.1843083425
  0
LINE
  5
191
330
1F
100
AcDbEntity
  8
0
  6
Continuous
 62
     7
370
    15
100
AcDbLine
 10
155.9464783907
 20
260.3836532623
 30
0.0
 11
155.9464783907
 21
246.0407930302
 31
0.0
  0
ARC
  5
192
330
1F
100
AcDbEntity
  8
0
  6
Continuous
 62
     7
370
    15
100
AcDbCircle
 10
156.1470783907
 20
260.3836532623
 30
0.0
 40
0.2006000000000085
100
AcDbArc
 50
89.9999999998
 51
179.9999999998
  0
SPLINE
  5
193
330
1F
100
AcDbEntity
  8
0
  6
Continuous
 62
     7
370
    15
100
AcDbSpline
210
0.0
220
0.0
230
1.0
 70
     8
 71
     3
 72
    11
 73
     7
 74
     0
 42
0.00000001
 43
0.00000001
 40
0.0
 40
0.0
 40
0.0
 40
0.0
 40
0.2553011245776744
 40
0.4996294268408234
 40
0.7429620095674729
 40
1.0
 40
1.0
 40
1.0
 40
1.0
 10
155.4762533628639
 20
316.2291862034286
 30
0.0
 10
155.5325509535024
 20
315.8899880576089
 30
0.0
 10
155.6427264687485
 20
315.2261704756781
 30
0.0
 10
155.807662923211
 20
313.2481817527555
 30
0.0
 10
155.9446465358195
 20
310.7515166317466
 30
0.0
 10
155.9553470503464
 20
308.888006749956
 30
0.0
 10
155.9608438539119
 20
307.9307305613457
 30
0.0
  0
SPLINE
  5
194
330
1F
100
AcDbEntity
  8
0
  6
Continuous
 62
     7
370
    15
100
AcDbSpline
210
0.0
220
0.0
230
1.0
 70
     8
 71
     3
 72
    11
 73
     7
 74
     0
 42
0.00000001
 43
0.00000001
 40
0.0
 40
0.0
 40
0.0
 40
0.0
 40
0.2570379904398429
 40
0.5003705730453119
 40
0.744698875311505
 40
1.0
 40
1.0
 40
1.0
 40
1.0
 10
202.0701129328934
 20
307.9307305609291
 30
0.0
 10
202.0756097363739
 20
308.8880067491532
 30
0.0
 10
202.0863102507326
 20
310.7515166297148
 30
0.0
 10
202.2232938638342
 20
313.2481817533753
 30
0.0
 10
202.388230318201
 20
315.226170475534
 30
0.0
 10
202.4984058333026
 20
315.8899880566164
 30
0.0
 10
202.5547034238789
 20
316.2291862020725
 30
0.0
  0
ARC
  5
195
330
1F
100
AcDbEntity
  8
0
  6
Continuous
 62
     7
370
    15
100
AcDbCircle
 10
199.0754783907
 20
233.0468169016
 30
0.0
 40
3.008999999999986
100
AcDbArc
 50
278.8272505212
 51
359.9999999998
  0
ARC
  5
196
330
1F
100
AcDbEntity
  8
0
  6
Continuous
 62
     7
370
    15
100
AcDbCircle
 10
179.0154783911
 20
362.2201385372
 30
0.0
 40
133.730653226773
100
AcDbArc
 50
274.7323754363
 51
278.8272505212
  0
ARC
  5
197
330
1F
100
AcDbEntity
  8
0
  6
Continuous
 62
     7
370
    15
100
AcDbCircle
 10
179.0154783935
 20
321.2657532623
 30
0.0
 40
11.03300000000002
100
AcDbArc
 50
0.0
 51
180.0
  0
ARC
  5
198
330
1F
100
AcDbEntity
  8
0
  6
Continuous
 62
     7
370
    15
100
AcDbCircle
 10
179.0154783935
 20
104.6986676321
 30
0.0
 40
11.033723849179
100
AcDbArc
 50
180.6563008889
 51
359.3436991111
  0
SPLINE
  5
199
330
1F
100
AcDbEntity
  8
0
  6
Continuous
 62
     7
370
    15
100
AcDbSpline
210
0.0
220
0.0
230
1.0
 70
     8
 71
     3
 72
    53
 73
    49
 74
     0
 42
0.00000001
 43
0.00000001
 40
0.0
 40
0.0
 40
0.0
 40
0.0
 40
0.0672622171874036
 40
0.1345244343748073
 40
0.1922622171874023
 40
0.2499999999999974
 40
0.2690488687496146
 40
0.3220244343748053
 40
0.322858642499534
 40
0.3430373076557549
 40
0.3632159728119757
 40
0.3749999999999961
 40
0.3766684162494641
 40
0.3833946379681966
 40
0.3901208596869449
 40
0.3968470814056853
 40
0.403573303124423
 40
0.403573303124423
 40
0.4196444192703497
 40
0.4357155354855795
 40
0.4517866516418417
 40
0.467857767708124
 40
0.4839288839227792
 40
0.4999999999999999
 40
0.5160711160772209
 40
0.5312499999229543
 40
0.5321422322918553
 40
0.5482133483581579
 40
0.5625000000352444
 40
0.5642844645837148
 40
0.5803555807296503
 40
0.5964266968755769
 40
0.5964266968755769
 40
0.6031529185943227
 40
0.609879140313063
 40
0.6166053620317955
 40
0.6233315837505436
 40
0.6249999999999962
 40
0.6367840271880169
 40
0.6569626923442381
 40
0.6771413575004595
 40
0.6779755656251909
 40
0.7309511312503858
 40
0.7499999999999976
 40
0.8077377828125952
 40
0.8654755656251929
 40
0.9327377828125962
 40
1.0
 40
1.0
 40
1.0
 40
1.0
 10
166.5169479450989
 20
229.892453262232
 30
0.0
 10
165.5713630592017
 20
229.892462019977
 30
0.0
 10
163.6801932874073
 20
229.8924795354668
 30
0.0
 10
160.9773796638208
 20
229.8923543698097
 30
0.0
 10
158.4083020374324
 20
229.8927660076362
 30
0.0
 10
156.5174813692603
 20
229.8916116955266
 30
0.0
 10
154.6925515165244
 20
229.8940058720067
 30
0.0
 10
153.6718857133969
 20
229.8819491798047
 30
0.0
 10
152.6273067307257
 20
229.8968477109431
 30
0.0
 10
152.0441290142461
 20
229.9106131964014
 30
0.0
 10
151.3094942313694
 20
229.9160637855495
 30
0.0
 10
150.841324484787
 20
229.9005512724738
 30
0.0
 10
150.5624213992478
 20
229.8845345676809
 30
0.0
 10
150.3540221550027
 20
229.8705303309505
 30
0.0
 10
150.0742749966047
 20
229.8573469048997
 30
0.0
 10
149.7899721824651
 20
229.8594553371702
 30
0.0
 10
149.5954561318559
 20
229.877580026588
 30
0.0
 10
149.2599498630452
 20
229.9279902258741
 30
0.0
 10
148.7671499245642
 20
230.0654113289678
 30
0.0
 10
148.1040942445524
 20
230.8933952328124
 30
0.0
 10
147.5206460449951
 20
232.1893617815037
 30
0.0
 10
147.0759304691356
 20
233.8933277187009
 30
0.0
 10
146.7996608332597
 20
235.8424815783696
 30
0.0
 10
146.7025976618683
 20
237.9665828659605
 30
0.0
 10
146.7978824190049
 20
240.051495817673
 30
0.0
 10
146.9786845276627
 20
241.3539335934391
 30
0.0
 10
147.2159814055073
 20
242.5766161983978
 30
0.0
 10
147.5041214207664
 20
243.6805088749778
 30
0.0
 10
147.8881074095996
 20
244.5601555031406
 30
0.0
 10
148.3000701110639
 20
245.2865107104975
 30
0.0
 10
148.7673593958457
 20
245.8672287897949
 30
0.0
 10
149.2599923078135
 20
246.0050999214822
 30
0.0
 10
149.5954373066587
 20
246.0556752049195
 30
0.0
 10
149.7899313280138
 20
246.0738592493691
 30
0.0
 10
150.0742315795057
 20
246.0759745863695
 30
0.0
 10
150.3539947614083
 20
246.0627479870195
 30
0.0
 10
150.5624110267942
 20
246.0486978889852
 30
0.0
 10
150.8413335794842
 20
246.0326287324252
 30
0.0
 10
151.3095221804085
 20
246.0170654187186
 30
0.0
 10
152.0441503384868
 20
246.0225338575488
 30
0.0
 10
152.6273113240105
 20
246.0363444224478
 30
0.0
 10
153.6718721985905
 20
246.0512917435455
 30
0.0
 10
154.6925526557588
 20
246.039195567894
 30
0.0
 10
156.5174795985457
 20
246.0415975848705
 30
0.0
 10
158.4083016697011
 20
246.0404394926087
 30
0.0
 10
160.9773787957733
 20
246.0408524784846
 30
0.0
 10
163.6801925714898
 20
246.0407269029445
 30
0.0
 10
165.5713623219953
 20
246.0407444758025
 30
0.0
 10
166.5169471972481
 20
246.0407532622315
 30
0.0
  0
SPLINE
  5
19A
330
1F
100
AcDbEntity
  8
0
  6
Continuous
 62
     7
370
    15
100
AcDbSpline
210
0.0
220
0.0
230
1.0
 70
     8
 71
     3
 72
     8
 73
     4
 74
     0
 42
0.00000001
 43
0.00000001
 40
0.6838601914107016
 40
0.6838601914107016
 40
0.6838601914107016
 40
0.6838601914107016
 40
1.0
 40
1.0
 40
1.0
 40
1.0
 10
167.7253725869697
 20
245.9801470201729
 30
0.0
 10
167.3241567350577
 20
246.0204803392475
 30
0.0
 10
166.9209049902989
 20
246.0407532590525
 30
0.0
 10
166.5169486930565
 20
246.0407532622315
 30
0.0
  0
LINE
  5
19B
330
1F
100
AcDbEntity
  8
0
  6
Continuous
 62
     7
370
    15
100
AcDbLine
 10
148.355193626
 20
245.9822213265
 30
0.0
 11
148.2464561379
 21
245.9750191804
 31
0.0
  0
ARC
  5
19C
330
1F
100
AcDbEntity
  8
0
  6
Continuous
 62
     7
370
    15
100
AcDbCircle
 10
179.0154783935
 20
321.2657532632
 30
0.0
 40
24.072
100
AcDbArc
 50
180.0
 51
242.720387264
  0
ARC
  5
19D
330
1F
100
AcDbEntity
  8
0
  6
Continuous
 62
     7
370
    15
100
AcDbCircle
 10
179.0154783935
 20
321.2657532632
 30
0.0
 40
24.072
100
AcDbArc
 50
297.279612736
 51
180.0
  0
SPLINE
  5
19E
330
1F
100
AcDbEntity
  8
0
  6
Continuous
 62
     7
370
    15
100
AcDbSpline
210
0.0
220
0.0
230
1.0
 70
     8
 71
     3
 72
    10
 73
     6
 74
     0
 42
0.00000001
 43
0.00000001
 40
0.0
 40
0.0
 40
0.0
 40
0.0
 40
0.5
 40
0.5
 40
1.0
 40
1.0
 40
1.0
 40
1.0
 10
167.3289666288111
 20
253.5563874691372
 30
0.0
 10
167.3756367485256
 20
253.2825040952855
 30
0.0
 10
167.4472276204871
 20
253.0285719038193
 30
0.0
 10
167.6342522665644
 20
252.5540562043427
 30
0.0
 10
167.7507593549725
 20
252.3321440667009
 30
0.0
 10
167.8883616140424
 20
252.1296981747041
 30
0.0
  0
ELLIPSE
  5
19F
330
1F
100
AcDbEntity
  8
0
  6
Continuous
 62
     7
370
    15
100
AcDbEllipse
 10
179.0154783907
 20
260.3775121682
 30
0.0
 11
23.06411229080172
 21
-2.059973340623912
 31
0.0
210
0.0
220
0.0
230
0.9999999999999999
 40
0.2305140794
 41
0.0205854782317459
 42
0.3456431255411799
  0
ARC
  5
1A0
330
1F
100
AcDbEntity
  8
0
  6
Continuous
 62
     7
370
    15
100
AcDbCircle
 10
171.2372971256
 20
254.2649332523
 30
0.0
 40
3.97172480125447
100
AcDbArc
 50
145.0345278676
 51
212.5210223227
  0
ARC
  5
1A1
330
1F
100
AcDbEntity
  8
0
  6
Continuous
 62
     7
370
    15
100
AcDbCircle
 10
171.1897308733
 20
254.2653532622
 30
0.0
 40
3.766375084500498
100
AcDbArc
 50
148.3805357126
 51
211.6194642874
  0
ARC
  5
1A2
330
1F
100
AcDbEntity
  8
0
  6
Continuous
 62
     7
370
    15
100
AcDbCircle
 10
171.4721212114
 20
254.2687416208
 30
0.0
 40
4.20394794599262
100
AcDbArc
 50
146.107682868
 51
189.7557756797
  0
LINE
  5
1A3
330
1F
100
AcDbEntity
  8
0
  6
Continuous
 62
     7
370
    15
100
AcDbLine
 10
202.0844783946
 20
307.9217061481
 30
0.0
 11
202.0573120954
 21
307.8643240371
 31
0.0
  0
LINE
  5
1A4
330
1F
100
AcDbEntity
  8
0
  6
Continuous
 62
     7
370
    15
100
AcDbLine
 10
167.9824783935
 20
268.1067532627
 30
0.0
 11
156.3476786531
 21
268.1067532627
 31
0.0
  0
LINE
  5
1A5
330
1F
100
AcDbEntity
  8
0
  6
Continuous
 62
     7
370
    15
100
AcDbLine
 10
201.6832781339
 20
268.1067532627
 30
0.0
 11
190.0484783935
 21
268.1067532627
 31
0.0
  0
LINE
  5
1A6
330
1F
100
AcDbEntity
  8
0
  6
Continuous
 62
     7
370
    15
100
AcDbLine
 10
156.1470783907
 20
260.5842532623
 30
0.0
 11
167.9824783935
 21
260.5842532623
 31
0.0
  0
ARC
  5
1A7
330
1F
100
AcDbEntity
  8
0
  6
Continuous
 62
     7
370
    15
100
AcDbCircle
 10
90.7514782533
 20
307.9217061304
 30
0.0
 40
65.19500014157552
100
AcDbArc
 50
0.0003674951
 51
8.5970630209
  0
ARC
  5
1A8
330
1F
100
AcDbEntity
  8
0
  6
Continuous
 62
     7
370
    15
100
AcDbCircle
 10
267.2794785338
 20
307.9217061304
 30
0.0
 40
65.19500014157556
100
AcDbArc
 50
171.4029369791
 51
179.9996325049
  0
SPLINE
  5
1A9
330
1F
100
AcDbEntity
  8
0
  6
Continuous
 62
     7
370
    15
100
AcDbSpline
210
0.0
220
0.0
230
1.0
 70
     8
 71
     3
 72
     8
 73
     4
 74
     0
 42
0.00000001
 43
0.00000001
 40
0.0
 40
0.0
 40
0.0
 40
0.0
 40
1.0
 40
1.0
 40
1.0
 40
1.0
 10
200.2863614501501
 20
260.5842532621739
 30
0.0
 10
200.4367334308113
 20
260.5842532621742
 30
0.0
 10
200.5753033827462
 20
260.5346009269736
 30
0.0
 10
200.7029112946034
 20
260.435286329449
 30
0.0
  0
ARC
  5
1AA
330
1F
100
AcDbEntity
  8
0
  6
Continuous
 62
     7
370
    15
100
AcDbCircle
 10
200.7018411289
 20
260.2596869141
 30
0.0
 40
0.1756026763455223
100
AcDbArc
 50
353.7747504761
 51
89.6508233182
  0
ELLIPSE
  5
1AB
330
1F
100
AcDbEntity
  8
0
  6
Continuous
 62
     7
370
    15
100
AcDbEllipse
 10
179.032076404
 20
260.5721534909
 30
0.0
 11
22.86337406175784
 21
-2.061995775133198
 31
0.0
210
0.0
220
0.0
230
1.0
 40
0.2325036778
 41
0.2320836782830845
 42
0.2752183946774112
  0
ARC
  5
1AC
330
1F
100
AcDbEntity
  8
0
  6
Continuous
 62
     8
370
     0
100
AcDbCircle
 10
179.0154783935
 20
104.8728367543
 30
0.0
 40
11.03372384917906
100
AcDbArc
 50
180.6563008889
 51
359.3436991111
  0
SPLINE
  5
1AD
330
1F
100
AcDbEntity
  8
0
  6
Continuous
 62
     8
370
     0
100
AcDbSpline
210
0.0
220
0.0
230
1.0
 70
     8
 71
     3
 72
     8
 73
     4
 74
     0
 42
0.00000001
 43
0.00000001
 40
0.0
 40
0.0
 40
0.0
 40
0.0
 40
1.0
 40
1.0
 40
1.0
 40
1.0
 10
147.9641198314195
 20
237.9597522856414
 30
0.0
 10
147.9639138189179
 20
238.664478796104
 30
0.0
 10
147.9951458123746
 20
239.3571666311163
 30
0.0
 10
148.0572657111242
 20
240.038006538368
 30
0.0
  0
SPLINE
  5
1AE
330
1F
100
AcDbEntity
  8
0
  6
Continuous
 62
     8
370
     0
100
AcDbSpline
210
0.0
220
0.0
230
1.0
 70
     8
 71
     3
 72
     8
 73
     4
 74
     0
 42
0.00000001
 43
0.00000001
 40
0.0
 40
0.0
 40
0.0
 40
0.0
 40
1.0
 40
1.0
 40
1.0
 40
1.0
 10
151.6088140576916
 20
239.2656500210369
 30
0.0
 10
151.5698455108024
 20
238.8386747940285
 30
0.0
 10
151.5501778457188
 20
238.4042928086137
 30
0.0
 10
151.5503070986441
 20
237.9623137097428
 30
0.0
  0
SPLINE
  5
1AF
330
1F
100
AcDbEntity
  8
0
  6
Continuous
 62
     8
370
     0
100
AcDbSpline
210
0.0
220
0.0
230
1.0
 70
     8
 71
     3
 72
     8
 73
     4
 74
     0
 42
0.00000001
 43
0.00000001
 40
0.0
 40
0.0
 40
0.0
 40
0.0
 40
1.0
 40
1.0
 40
1.0
 40
1.0
 10
148.0572189743513
 20
235.895711999304
 30
0.0
 10
147.9955315257756
 20
236.5718985075067
 30
0.0
 10
147.964324433141
 20
237.2598517632604
 30
0.0
 10
147.9641198314194
 20
237.9597522856413
 30
0.0
  0
SPLINE
  5
1B0
330
1F
100
AcDbEntity
  8
0
  6
Continuous
 62
     8
370
     0
100
AcDbSpline
210
0.0
220
0.0
230
1.0
 70
     8
 71
     3
 72
     8
 73
     4
 74
     0
 42
0.00000001
 43
0.00000001
 40
0.0
 40
0.0
 40
0.0
 40
0.0
 40
1.0
 40
1.0
 40
1.0
 40
1.0
 10
151.5503070986441
 20
237.9623137097428
 30
0.0
 10
151.55043545705
 20
237.5233934110852
 30
0.0
 10
151.5700802212272
 20
237.0920096626041
 30
0.0
 10
151.6087750957114
 20
236.667982397375
 30
0.0
  0
SPLINE
  5
1B1
330
1F
100
AcDbEntity
  8
0
  6
Continuous
 62
     8
370
     0
100
AcDbSpline
210
0.0
220
0.0
230
1.0
 70
     8
 71
     3
 72
     8
 73
     4
 74
     0
 42
0.00000001
 43
0.00000001
 40
0.0
 40
0.0
 40
0.0
 40
0.0
 40
1.0
 40
1.0
 40
1.0
 40
1.0
 10
149.3328962914082
 20
244.9032371116974
 30
0.0
 10
149.5469721480785
 20
245.2636545466544
 30
0.0
 10
149.7759081158956
 20
245.5376179673485
 30
0.0
 10
150.0032858741179
 20
245.7131363178774
 30
0.0
  0
SPLINE
  5
1B2
330
1F
100
AcDbEntity
  8
0
  6
Continuous
 62
     8
370
     0
100
AcDbSpline
210
0.0
220
0.0
230
1.0
 70
     8
 71
     3
 72
     8
 73
     4
 74
     0
 42
0.00000001
 43
0.00000001
 40
0.0
 40
0.0
 40
0.0
 40
0.0
 40
1.0
 40
1.0
 40
1.0
 40
1.0
 10
148.9988198724356
 20
244.2397099044709
 30
0.0
 10
149.1040115142946
 20
244.4839679435059
 30
0.0
 10
149.2151841327888
 20
244.7050572938857
 30
0.0
 10
149.3328962914082
 20
244.9032371116974
 30
0.0
  0
SPLINE
  5
1B3
330
1F
100
AcDbEntity
  8
0
  6
Continuous
 62
     8
370
     0
100
AcDbSpline
210
0.0
220
0.0
230
1.0
 70
     8
 71
     3
 72
     8
 73
     4
 74
     0
 42
0.00000001
 43
0.00000001
 40
0.0
 40
0.0
 40
0.0
 40
0.0
 40
1.0
 40
1.0
 40
1.0
 40
1.0
 10
148.5753732623739
 20
243.0114301191519
 30
0.0
 10
148.70128517408
 20
243.4666716167926
 30
0.0
 10
148.8420831010019
 20
243.8757625816748
 30
0.0
 10
148.9988198724356
 20
244.2397099044708
 30
0.0
  0
SPLINE
  5
1B4
330
1F
100
AcDbEntity
  8
0
  6
Continuous
 62
     8
370
     0
100
AcDbSpline
210
0.0
220
0.0
230
1.0
 70
     8
 71
     3
 72
     8
 73
     4
 74
     0
 42
0.00000001
 43
0.00000001
 40
0.0
 40
0.0
 40
0.0
 40
0.0
 40
1.0
 40
1.0
 40
1.0
 40
1.0
 10
148.3362502646901
 20
241.9982423118005
 30
0.0
 10
148.4071548166121
 20
242.3538050195113
 30
0.0
 10
148.486901978185
 20
242.6915572861008
 30
0.0
 10
148.5753732623739
 20
243.0114301191519
 30
0.0
  0
SPLINE
  5
1B5
330
1F
100
AcDbEntity
  8
0
  6
Continuous
 62
     8
370
     0
100
AcDbSpline
210
0.0
220
0.0
230
1.0
 70
     8
 71
     3
 72
     8
 73
     4
 74
     0
 42
0.00000001
 43
0.00000001
 40
0.0
 40
0.0
 40
0.0
 40
0.0
 40
1.0
 40
1.0
 40
1.0
 40
1.0
 10
148.0572657111241
 20
240.038006538368
 30
0.0
 10
148.1202157262458
 20
240.7279445987903
 30
0.0
 10
148.2132214830844
 20
241.3812939561842
 30
0.0
 10
148.3362502646901
 20
241.9982423118005
 30
0.0
  0
SPLINE
  5
1B6
330
1F
100
AcDbEntity
  8
0
  6
Continuous
 62
     8
370
     0
100
AcDbSpline
210
0.0
220
0.0
230
1.0
 70
     8
 71
     3
 72
     8
 73
     4
 74
     0
 42
0.00000001
 43
0.00000001
 40
0.0
 40
0.0
 40
0.0
 40
0.0
 40
1.0
 40
1.0
 40
1.0
 40
1.0
 10
148.3081940371705
 20
234.079538129821
 30
0.0
 10
148.1988063875897
 20
234.6546746193575
 30
0.0
 10
148.1152093089703
 20
235.2600513782055
 30
0.0
 10
148.0572189743512
 20
235.895711999304
 30
0.0
  0
SPLINE
  5
1B7
330
1F
100
AcDbEntity
  8
0
  6
Continuous
 62
     8
370
     0
100
AcDbSpline
210
0.0
220
0.0
230
1.0
 70
     8
 71
     3
 72
    12
 73
     8
 74
     0
 42
0.00000001
 43
0.00000001
 40
0.0
 40
0.0
 40
0.0
 40
0.0
 40
0.5000000000000002
 40
0.5000000000000002
 40
0.7500000000000001
 40
0.7500000000000001
 40
1.0
 40
1.0
 40
1.0
 40
1.0
 10
149.3321381208762
 20
231.0306445180936
 30
0.0
 10
149.1152586322822
 20
231.3962202993902
 30
0.0
 10
148.9233159389999
 20
231.8338789829521
 30
0.0
 10
148.6652786991498
 20
232.6025738135306
 30
0.0
 10
148.5840737742062
 20
232.8793944480337
 30
0.0
 10
148.4359342575565
 20
233.4586835696367
 30
0.0
 10
148.3685704155786
 20
233.7620922530544
 30
0.0
 10
148.3081940371704
 20
234.0795381298208
 30
0.0
  0
SPLINE
  5
1B8
330
1F
100
AcDbEntity
  8
0
  6
Continuous
 62
     8
370
     0
100
AcDbSpline
210
0.0
220
0.0
230
1.0
 70
     8
 71
     3
 72
     8
 73
     4
 74
     0
 42
0.00000001
 43
0.00000001
 40
0.0
 40
0.0
 40
0.0
 40
0.0
 40
1.0
 40
1.0
 40
1.0
 40
1.0
 10
150.0032664585446
 20
230.2200859896796
 30
0.0
 10
149.7755895032128
 20
230.39586340919
 30
0.0
 10
149.5456868682606
 20
230.6706830912382
 30
0.0
 10
149.3321381208762
 20
231.0306445180936
 30
0.0
  0
SPLINE
  5
1B9
330
1F
100
AcDbEntity
  8
0
  6
Continuous
 62
     8
370
     0
100
AcDbSpline
210
0.0
220
0.0
230
1.0
 70
     8
 71
     3
 72
     8
 73
     4
 74
     0
 42
0.00000001
 43
0.00000001
 40
0.0
 40
0.0
 40
0.0
 40
0.0
 40
1.0
 40
1.0
 40
1.0
 40
1.0
 10
150.7046582941197
 20
229.9530403314313
 30
0.0
 10
150.4372941801767
 20
229.9749427724987
 30
0.0
 10
150.22416600529
 20
230.049541051386
 30
0.0
 10
150.0032664585445
 20
230.2200859896796
 30
0.0
  0
SPLINE
  5
1BA
330
1F
100
AcDbEntity
  8
0
  6
Continuous
 62
     8
370
     0
100
AcDbSpline
210
0.0
220
0.0
230
1.0
 70
     8
 71
     3
 72
    24
 73
    20
 74
     0
 42
0.00000001
 43
0.00000001
 40
0.0
 40
0.0
 40
0.0
 40
0.0
 40
0.5000000000000004
 40
0.5000000000000004
 40
0.6250000000000004
 40
0.6250000000000004
 40
0.6875000000000003
 40
0.6875000000000003
 40
0.7500000000000003
 40
0.7500000000000003
 40
0.8125000000000002
 40
0.8125000000000002
 40
0.8750000000000002
 40
0.8750000000000002
 40
0.9375000000000001
 40
0.9375000000000001
 40
0.9687500000000001
 40
0.9687500000000001
 40
1.0
 40
1.0
 40
1.0
 40
1.0
 10
167.7253823127924
 20
229.9530605270224
 30
0.0
 10
164.888570299514
 20
229.9530864952645
 30
0.0
 10
162.0517678478828
 20
229.9538180012756
 30
0.0
 10
158.5057482699735
 20
229.9527349870293
 30
0.0
 10
157.7964635227258
 20
229.9524686101076
 30
0.0
 10
156.7320629712111
 20
229.9531522564092
 30
0.0
 10
156.3776610990355
 20
229.9531748653341
 30
0.0
 10
155.671232546348
 20
229.9513611114366
 30
0.0
 10
155.3185617206761
 20
229.9500245171259
 30
0.0
 10
154.6094496514671
 20
229.9499861865619
 30
0.0
 10
154.2525659243187
 20
229.951590329556
 30
0.0
 10
153.5323717338297
 20
229.959475100585
 30
0.0
 10
153.1704657306344
 20
229.9647697363001
 30
0.0
 10
152.4591736207322
 20
229.9662351170674
 30
0.0
 10
152.111028215841
 20
229.9613608125813
 30
0.0
 10
151.6077606151268
 20
229.9412513798386
 30
0.0
 10
151.4408157887811
 20
229.9340869708903
 30
0.0
 10
151.0892423159736
 20
229.931817650463
 30
0.0
 10
150.9043706928759
 20
229.936637570614
 30
0.0
 10
150.7046815038545
 20
229.9530384302454
 30
0.0
  0
SPLINE
  5
1BB
330
1F
100
AcDbEntity
  8
0
  6
Continuous
 62
     8
370
     0
100
AcDbSpline
210
0.0
220
0.0
230
1.0
 70
     8
 71
     3
 72
     8
 73
     4
 74
     0
 42
0.00000001
 43
0.00000001
 40
0.0
 40
0.0
 40
0.0
 40
0.0
 40
0.3161424992488832
 40
0.3161424992488832
 40
0.3161424992488832
 40
0.3161424992488832
 10
167.7253823171625
 20
229.9530605274617
 30
0.0
 10
167.3241630068899
 20
229.9127265248807
 30
0.0
 10
166.9209077581245
 20
229.8924532622306
 30
0.0
 10
166.5169479451004
 20
229.8924532622322
 30
0.0
  0
LINE
  5
1BC
330
1F
100
AcDbEntity
  8
0
  6
Continuous
 62
     8
370
     0
100
AcDbLine
 10
164.7460945687
 20
245.9801498308
 30
0.0
 11
167.725372587
 21
245.9801498308
 31
0.0
  0
LINE
  5
1BD
330
1F
100
AcDbEntity
  8
0
  6
Continuous
 62
     8
370
     0
100
AcDbLine
 10
162.0966168046
 20
245.9801498308
 30
0.0
 11
164.7460945687
 21
245.9801498308
 31
0.0
  0
SPLINE
  5
1BE
330
1F
100
AcDbEntity
  8
0
  6
Continuous
 62
     8
370
     0
100
AcDbSpline
210
0.0
220
0.0
230
1.0
 70
     8
 71
     3
 72
    20
 73
    16
 74
     0
 42
0.00000001
 43
0.00000001
 40
0.0
 40
0.0
 40
0.0
 40
0.0
 40
0.0625
 40
0.0625
 40
0.125
 40
0.125
 40
0.25
 40
0.25
 40
0.375
 40
0.375
 40
0.5
 40
0.5
 40
0.75
 40
0.75
 40
1.0
 40
1.0
 40
1.0
 40
1.0
 10
150.7046799239057
 20
245.9801682979539
 30
0.0
 10
150.9719910613372
 20
246.0021893300317
 30
0.0
 10
151.2122905324997
 20
246.003338248002
 30
0.0
 10
151.6698365372177
 20
245.9913614290471
 30
0.0
 10
151.8901275653382
 20
245.9794301698621
 30
0.0
 10
152.5796339936624
 20
245.9632594427257
 30
0.0
 10
153.0609876644872
 20
245.9679851118092
 30
0.0
 10
154.0259485650375
 20
245.9792480793631
 30
0.0
 10
154.5063304669794
 20
245.9832904287066
 30
0.0
 10
155.4553907014193
 20
245.9831282671941
 30
0.0
 10
155.926603043794
 20
245.9807270371239
 30
0.0
 10
157.3478014595504
 20
245.9791935803279
 30
0.0
 10
158.2992711406257
 20
245.9805324909776
 30
0.0
 10
160.1979493858784
 20
245.9799576879044
 30
0.0
 10
161.1472847555623
 20
245.9800910855091
 30
0.0
 10
162.0966268119883
 20
245.9801488481802
 30
0.0
  0
SPLINE
  5
1BF
330
1F
100
AcDbEntity
  8
0
  6
Continuous
 62
     8
370
     0
100
AcDbSpline
210
0.0
220
0.0
230
1.0
 70
     8
 71
     3
 72
    10
 73
     6
 74
     0
 42
0.00000001
 43
0.00000001
 40
0.0
 40
0.0
 40
0.0
 40
0.0
 40
0.5
 40
0.5
 40
1.0
 40
1.0
 40
1.0
 40
1.0
 10
150.0032858741179
 20
245.7131363178774
 30
0.0
 10
150.1135780504561
 20
245.7982734967223
 30
0.0
 10
150.2220062604386
 20
245.8588551344512
 30
0.0
 10
150.4508066518893
 20
245.9443141675509
 30
0.0
 10
150.5717344932979
 20
245.9692462189448
 30
0.0
 10
150.7046799239057
 20
245.9801682979539
 30
0.0
  0
SPLINE
  5
1C0
330
1F
100
AcDbEntity
  8
0
  6
Continuous
 62
     8
370
     0
100
AcDbSpline
210
0.0
220
0.0
230
1.0
 70
     8
 71
     3
 72
     8
 73
     4
 74
     0
 42
0.00000001
 43
0.00000001
 40
0.0
 40
0.0
 40
0.0
 40
0.0
 40
1.0
 40
1.0
 40
1.0
 40
1.0
 10
151.6087750957114
 20
236.667982397375
 30
0.0
 10
151.6449935564014
 20
236.27109223965
 30
0.0
 10
151.6972310224883
 20
235.8931219495245
 30
0.0
 10
151.765443483778
 20
235.534019547052
 30
0.0
  0
SPLINE
  5
1C1
330
1F
100
AcDbEntity
  8
0
  6
Continuous
 62
     8
370
     0
100
AcDbSpline
210
0.0
220
0.0
230
1.0
 70
     8
 71
     3
 72
     8
 73
     4
 74
     0
 42
0.00000001
 43
0.00000001
 40
0.0
 40
0.0
 40
0.0
 40
0.0
 40
1.0
 40
1.0
 40
1.0
 40
1.0
 10
151.7830906699791
 20
240.4899929651603
 30
0.0
 10
151.706289758696
 20
240.1046442871703
 30
0.0
 10
151.6481448306142
 20
239.6965941294938
 30
0.0
 10
151.6088140576916
 20
239.2656500210369
 30
0.0
  0
SPLINE
  5
1C2
330
1F
100
AcDbEntity
  8
0
  6
Continuous
 62
     8
370
     0
100
AcDbSpline
210
0.0
220
0.0
230
1.0
 70
     8
 71
     3
 72
     8
 73
     4
 74
     0
 42
0.00000001
 43
0.00000001
 40
0.0
 40
0.0
 40
0.0
 40
0.0
 40
1.0
 40
1.0
 40
1.0
 40
1.0
 10
146.910638458746
 20
231.0388096404087
 30
0.0
 10
147.1267441702073
 20
230.6646250336904
 30
0.0
 10
147.3510386646028
 20
230.3819039293993
 30
0.0
 10
147.6078457535961
 20
230.2056641477739
 30
0.0
  0
SPLINE
  5
1C3
330
1F
100
AcDbEntity
  8
0
  6
Continuous
 62
     8
370
     0
100
AcDbSpline
210
0.0
220
0.0
230
1.0
 70
     8
 71
     3
 72
    12
 73
     8
 74
     0
 42
0.00000001
 43
0.00000001
 40
0.0
 40
0.0
 40
0.0
 40
0.0
 40
0.25
 40
0.25
 40
0.5
 40
0.5
 40
1.0
 40
1.0
 40
1.0
 40
1.0
 10
145.8912650543314
 20
234.0791671344732
 30
0.0
 10
145.9512677777902
 20
233.7629521695107
 30
0.0
 10
146.0180738330418
 20
233.4606462963466
 30
0.0
 10
146.1653202154389
 20
232.8833205722751
 30
0.0
 10
146.2461781336449
 20
232.6074291606837
 30
0.0
 10
146.5046862613507
 20
231.8410132897672
 30
0.0
 10
146.6996131978739
 20
231.4041975041216
 30
0.0
 10
146.910638458746
 20
231.0388096404087
 30
0.0
  0
SPLINE
  5
1C4
330
1F
100
AcDbEntity
  8
0
  6
Continuous
 62
     8
370
     0
100
AcDbSpline
210
0.0
220
0.0
230
1.0
 70
     8
 71
     3
 72
     8
 73
     4
 74
     0
 42
0.00000001
 43
0.00000001
 40
0.0
 40
0.0
 40
0.0
 40
0.0
 40
1.0
 40
1.0
 40
1.0
 40
1.0
 10
145.6401912823858
 20
235.8974498253949
 30
0.0
 10
145.6982323342611
 20
235.2610242251165
 30
0.0
 10
145.782009622645
 20
234.6549443744223
 30
0.0
 10
145.8912650543313
 20
234.0791671344732
 30
0.0
  0
SPLINE
  5
1C5
330
1F
100
AcDbEntity
  8
0
  6
Continuous
 62
     8
370
     0
100
AcDbSpline
210
0.0
220
0.0
230
1.0
 70
     8
 71
     3
 72
     8
 73
     4
 74
     0
 42
0.00000001
 43
0.00000001
 40
0.0
 40
0.0
 40
0.0
 40
0.0
 40
1.0
 40
1.0
 40
1.0
 40
1.0
 10
145.5472511125823
 20
237.9600950414114
 30
0.0
 10
145.5474453283137
 20
237.2606880251479
 30
0.0
 10
145.5785639002401
 20
236.5731998748596
 30
0.0
 10
145.6401912823857
 20
235.8974498253949
 30
0.0
  0
SPLINE
  5
1C6
330
1F
100
AcDbEntity
  8
0
  6
Continuous
 62
     8
370
     0
100
AcDbSpline
210
0.0
220
0.0
230
1.0
 70
     8
 71
     3
 72
     8
 73
     4
 74
     0
 42
0.00000001
 43
0.00000001
 40
0.0
 40
0.0
 40
0.0
 40
0.0
 40
1.0
 40
1.0
 40
1.0
 40
1.0
 10
145.6402902674812
 20
240.036839875474
 30
0.0
 10
145.5782171355848
 20
239.356480538854
 30
0.0
 10
145.5470555656968
 20
238.6642957915484
 30
0.0
 10
145.5472511125823
 20
237.9600950414116
 30
0.0
  0
SPLINE
  5
1C7
330
1F
100
AcDbEntity
  8
0
  6
Continuous
 62
     8
370
     0
100
AcDbSpline
210
0.0
220
0.0
230
1.0
 70
     8
 71
     3
 72
     8
 73
     4
 74
     0
 42
0.00000001
 43
0.00000001
 40
0.0
 40
0.0
 40
0.0
 40
0.0
 40
1.0
 40
1.0
 40
1.0
 40
1.0
 10
145.9195306037822
 20
241.9991229031508
 30
0.0
 10
145.7964787590041
 20
241.3815673817745
 30
0.0
 10
145.7033064623984
 20
240.7275357572585
 30
0.0
 10
145.6402902674811
 20
240.036839875474
 30
0.0
  0
SPLINE
  5
1C8
330
1F
100
AcDbEntity
  8
0
  6
Continuous
 62
     8
370
     0
100
AcDbSpline
210
0.0
220
0.0
230
1.0
 70
     8
 71
     3
 72
     8
 73
     4
 74
     0
 42
0.00000001
 43
0.00000001
 40
0.0
 40
0.0
 40
0.0
 40
0.0
 40
1.0
 40
1.0
 40
1.0
 40
1.0
 10
146.1583909444915
 20
243.0111665236626
 30
0.0
 10
146.069853076409
 20
242.6916367571123
 30
0.0
 10
145.9902950898044
 20
242.3542658848691
 30
0.0
 10
145.9195306037822
 20
241.9991229031508
 30
0.0
  0
SPLINE
  5
1C9
330
1F
100
AcDbEntity
  8
0
  6
Continuous
 62
     8
370
     0
100
AcDbSpline
210
0.0
220
0.0
230
1.0
 70
     8
 71
     3
 72
     8
 73
     4
 74
     0
 42
0.00000001
 43
0.00000001
 40
0.0
 40
0.0
 40
0.0
 40
0.0
 40
1.0
 40
1.0
 40
1.0
 40
1.0
 10
146.5851157953922
 20
244.2417612674232
 30
0.0
 10
146.4276269613413
 20
243.8772366374293
 30
0.0
 10
146.2848018212942
 20
243.4673785245724
 30
0.0
 10
146.1583909444915
 20
243.0111665236627
 30
0.0
  0
SPLINE
  5
1CA
330
1F
100
AcDbEntity
  8
0
  6
Continuous
 62
     8
370
     0
100
AcDbSpline
210
0.0
220
0.0
230
1.0
 70
     8
 71
     3
 72
     8
 73
     4
 74
     0
 42
0.00000001
 43
0.00000001
 40
0.0
 40
0.0
 40
0.0
 40
0.0
 40
1.0
 40
1.0
 40
1.0
 40
1.0
 10
146.9088705339135
 20
244.8935991952679
 30
0.0
 10
146.7967245260963
 20
244.6984241578691
 30
0.0
 10
146.6885792910942
 20
244.4812385149114
 30
0.0
 10
146.5851157953922
 20
244.2417612674232
 30
0.0
  0
SPLINE
  5
1CB
330
1F
100
AcDbEntity
  8
0
  6
Continuous
 62
     8
370
     0
100
AcDbSpline
210
0.0
220
0.0
230
1.0
 70
     8
 71
     3
 72
     8
 73
     4
 74
     0
 42
0.00000001
 43
0.00000001
 40
0.0
 40
0.0
 40
0.0
 40
0.0
 40
1.0
 40
1.0
 40
1.0
 40
1.0
 10
147.6088348122088
 20
245.7281568963102
 30
0.0
 10
147.3509900109935
 20
245.5519687661788
 30
0.0
 10
147.1248301014792
 20
245.2694477653312
 30
0.0
 10
146.9088705339135
 20
244.8935991952679
 30
0.0
  0
SPLINE
  5
1CC
330
1F
100
AcDbEntity
  8
0
  6
Continuous
 62
     8
370
     0
100
AcDbSpline
210
0.0
220
0.0
230
1.0
 70
     8
 71
     3
 72
     8
 73
     4
 74
     0
 42
0.00000001
 43
0.00000001
 40
0.0
 40
0.0
 40
0.0
 40
0.0
 40
1.0
 40
1.0
 40
1.0
 40
1.0
 10
148.2464561378761
 20
245.9750191803831
 30
0.0
 10
148.0545741609309
 20
245.9482693683038
 30
0.0
 10
147.8261129645409
 20
245.8766253982826
 30
0.0
 10
147.6088348122088
 20
245.7281568963102
 30
0.0
  0
SPLINE
  5
1CD
330
1F
100
AcDbEntity
  8
0
  6
Continuous
 62
     8
370
     0
100
AcDbSpline
210
0.0
220
0.0
230
1.0
 70
     8
 71
     3
 72
    11
 73
     7
 74
     0
 42
0.00000001
 43
0.00000001
 40
0.0
 40
0.0
 40
0.0
 40
0.0
 40
0.1653611055277185
 40
0.7045031061025495
 40
0.9225317170485356
 40
1.0
 40
1.0
 40
1.0
 40
1.0
 10
150.3315164323263
 20
245.9700008313961
 30
0.0
 10
150.2321587993909
 20
245.9693009891513
 30
0.0
 10
149.8088563499148
 20
245.9663193869561
 30
0.0
 10
149.2135461121757
 20
245.9910877550823
 30
0.0
 10
148.6867632842396
 20
246.0063276529462
 30
0.0
 10
148.524330839173
 20
245.9938695514707
 30
0.0
 10
148.4817471001395
 20
245.9906035011328
 30
0.0
  0
SPLINE
  5
1CE
330
1F
100
AcDbEntity
  8
0
  6
Continuous
 62
     8
370
     0
100
AcDbSpline
210
0.0
220
0.0
230
1.0
 70
     8
 71
     3
 72
    11
 73
     7
 74
     0
 42
0.00000001
 43
0.00000001
 40
0.0
 40
0.0
 40
0.0
 40
0.0
 40
0.000010137136774
 40
0.3183350952938646
 40
0.8020643389897136
 40
1.0
 40
1.0
 40
1.0
 40
1.0
 10
148.2882524199791
 20
229.9530384302549
 30
0.0
 10
148.2882583927721
 20
229.9530377956143
 30
0.0
 10
148.4758211808271
 20
229.9331082626009
 30
0.0
 10
149.0092109735823
 20
229.9274144000346
 30
0.0
 10
149.7421080256364
 20
229.9667385570385
 30
0.0
 10
150.1988674125592
 20
229.9635340427305
 30
0.0
 10
150.3314970529428
 20
229.9626035449839
 30
0.0
  0
SPLINE
  5
1CF
330
1F
100
AcDbEntity
  8
0
  6
Continuous
 62
     8
370
     0
100
AcDbSpline
210
0.0
220
0.0
230
1.0
 70
     8
 71
     3
 72
    10
 73
     6
 74
     0
 42
0.00000001
 43
0.00000001
 40
0.0
 40
0.0
 40
0.0
 40
0.0
 40
0.5
 40
0.5
 40
1.0
 40
1.0
 40
1.0
 40
1.0
 10
147.6078457535962
 20
230.2056641477739
 30
0.0
 10
147.724576837478
 20
230.1255547519901
 30
0.0
 10
147.8447433703789
 20
230.0683286635284
 30
0.0
 10
148.0764508878641
 20
229.9873838101623
 30
0.0
 10
148.188751901471
 20
229.9636120064955
 30
0.0
 10
148.2882524199791
 20
229.9530384302549
 30
0.0
  0
SPLINE
  5
1D0
330
1F
100
AcDbEntity
  8
0
  6
Continuous
 62
     8
370
     0
100
AcDbSpline
210
0.0
220
0.0
230
1.0
 70
     8
 71
     3
 72
    12
 73
     8
 74
     0
 42
0.00000001
 43
0.00000001
 40
0.0
 40
0.0
 40
0.0
 40
0.0
 40
0.2499999999999979
 40
0.2499999999999979
 40
0.4999999999999959
 40
0.4999999999999959
 40
1.0
 40
1.0
 40
1.0
 40
1.0
 10
151.765443483778
 20
235.534019547052
 30
0.0
 10
151.8033790249277
 20
235.334309058552
 30
0.0
 10
151.8456790845497
 20
235.143451432611
 30
0.0
 10
151.9388138604807
 20
234.7790476305742
 30
0.0
 10
151.9899247799056
 20
234.6049037661695
 30
0.0
 10
152.1530143615976
 20
234.1220858742789
 30
0.0
 10
152.275338283406
 20
233.8480691654231
 30
0.0
 10
152.4101626969731
 20
233.6180528692599
 30
0.0
  0
SPLINE
  5
1D1
330
1F
100
AcDbEntity
  8
0
  6
Continuous
 62
     8
370
     0
100
AcDbSpline
210
0.0
220
0.0
230
1.0
 70
     8
 71
     3
 72
     8
 73
     4
 74
     0
 42
0.00000001
 43
0.00000001
 40
0.0
 40
0.0
 40
0.0
 40
0.0
 40
1.0
 40
1.0
 40
1.0
 40
1.0
 10
151.9333261466791
 20
241.1266197310404
 30
0.0
 10
151.877682480287
 20
240.9256378773211
 30
0.0
 10
151.8276168319869
 20
240.7134030442735
 30
0.0
 10
151.7830906699791
 20
240.4899929651602
 30
0.0
  0
SPLINE
  5
1D2
330
1F
100
AcDbEntity
  8
0
  6
Continuous
 62
     8
370
     0
100
AcDbSpline
210
0.0
220
0.0
230
1.0
 70
     8
 71
     3
 72
     8
 73
     4
 74
     0
 42
0.00000001
 43
0.00000001
 40
0.0
 40
0.0
 40
0.0
 40
0.0
 40
1.0
 40
1.0
 40
1.0
 40
1.0
 10
152.1982963839454
 20
241.8926042059046
 30
0.0
 10
152.1004021594545
 20
241.6655786202016
 30
0.0
 10
152.0119540244565
 20
241.4106192884806
 30
0.0
 10
151.9333261466791
 20
241.1266197310404
 30
0.0
  0
SPLINE
  5
1D3
330
1F
100
AcDbEntity
  8
0
  6
Continuous
 62
     8
370
     0
100
AcDbSpline
210
0.0
220
0.0
230
1.0
 70
     8
 71
     3
 72
    13
 73
     9
 74
     0
 42
0.00000001
 43
0.00000001
 40
0.0
 40
0.0
 40
0.0
 40
0.0
 40
0.0409850494549286
 40
0.1750460311800944
 40
0.3091134073117123
 40
0.5772395637195281
 40
0.7113026407218543
 40
1.0
 40
1.0
 40
1.0
 40
1.0
 10
153.3034543791497
 20
232.9467763176051
 30
0.0
 10
153.5039820533104
 20
232.9388217952707
 30
0.0
 10
154.3604302940821
 20
232.9048482467914
 30
0.0
 10
155.8729390549314
 20
232.9840648819217
 30
0.0
 10
158.4968360000038
 20
232.9226614709062
 30
0.0
 10
161.1207626383007
 20
232.9524591839493
 30
0.0
 10
164.5012920289431
 20
232.9471973837781
 30
0.0
 10
166.5698727310563
 20
232.9481185867287
 30
0.0
 10
167.9824783935161
 20
232.9487476637103
 30
0.0
  0
SPLINE
  5
1D4
330
1F
100
AcDbEntity
  8
0
  6
Continuous
 62
     8
370
     0
100
AcDbSpline
210
0.0
220
0.0
230
1.0
 70
     8
 71
     3
 72
    10
 73
     6
 74
     0
 42
0.00000001
 43
0.00000001
 40
0.0
 40
0.0
 40
0.0
 40
0.0
 40
0.5
 40
0.5
 40
1.0
 40
1.0
 40
1.0
 40
1.0
 10
152.8157366131238
 20
233.1249201718747
 30
0.0
 10
152.8957711200848
 20
233.0659321824107
 30
0.0
 10
152.9766676127567
 20
233.0271184613747
 30
0.0
 10
153.1394081377014
 20
232.9716676262031
 30
0.0
 10
153.2212700698432
 20
232.9554494479673
 30
0.0
 10
153.3034543791496
 20
232.9467763176042
 30
0.0
  0
SPLINE
  5
1D5
330
1F
100
AcDbEntity
  8
0
  6
Continuous
 62
     8
370
     0
100
AcDbSpline
210
0.0
220
0.0
230
1.0
 70
     8
 71
     3
 72
     8
 73
     4
 74
     0
 42
0.00000001
 43
0.00000001
 40
0.0
 40
0.0
 40
0.0
 40
0.0
 40
1.0
 40
1.0
 40
1.0
 40
1.0
 10
152.4101626969731
 20
233.6180528692599
 30
0.0
 10
152.5377695144013
 20
233.4003501050981
 30
0.0
 10
152.6722113150396
 20
233.2307029035074
 30
0.0
 10
152.8157366131238
 20
233.1249201718747
 30
0.0
  0
SPLINE
  5
1D6
330
1F
100
AcDbEntity
  8
0
  6
Continuous
 62
     8
370
     0
100
AcDbSpline
210
0.0
220
0.0
230
1.0
 70
     8
 71
     3
 72
     8
 73
     4
 74
     0
 42
0.00000001
 43
0.00000001
 40
0.0
 40
0.0
 40
0.0
 40
0.0
 40
1.0
 40
1.0
 40
1.0
 40
1.0
 10
152.4106867118434
 20
242.3169789760621
 30
0.0
 10
152.3364696642507
 20
242.1901541371878
 30
0.0
 10
152.2656485533948
 20
242.0487999957702
 30
0.0
 10
152.1982963839454
 20
241.8926042059047
 30
0.0
  0
SPLINE
  5
1D7
330
1F
100
AcDbEntity
  8
0
  6
Continuous
 62
     8
370
     0
100
AcDbSpline
210
0.0
220
0.0
230
1.0
 70
     8
 71
     3
 72
     8
 73
     4
 74
     0
 42
0.00000001
 43
0.00000001
 40
0.0
 40
0.0
 40
0.0
 40
0.0
 40
1.0
 40
1.0
 40
1.0
 40
1.0
 10
152.8153454672101
 20
242.807984999219
 30
0.0
 10
152.6721783098883
 20
242.7026581416236
 30
0.0
 10
152.5379389020124
 20
242.5344322302408
 30
0.0
 10
152.4106867118434
 20
242.3169789760621
 30
0.0
  0
SPLINE
  5
1D8
330
1F
100
AcDbEntity
  8
0
  6
Continuous
 62
     8
370
     0
100
AcDbSpline
210
0.0
220
0.0
230
1.0
 70
     8
 71
     3
 72
    10
 73
     6
 74
     0
 42
0.00000001
 43
0.00000001
 40
0.0
 40
0.0
 40
0.0
 40
0.0
 40
0.5
 40
0.5
 40
1.0
 40
1.0
 40
1.0
 40
1.0
 10
153.3035958554536
 20
242.986445203608
 30
0.0
 10
153.2213215497641
 20
242.977733677682
 30
0.0
 10
153.139371433797
 20
242.9614398607054
 30
0.0
 10
152.9764552278311
 20
242.9058373969474
 30
0.0
 10
152.8954718412673
 20
242.8669332897895
 30
0.0
 10
152.8153454672101
 20
242.807984999219
 30
0.0
  0
SPLINE
  5
1D9
330
1F
100
AcDbEntity
  8
0
  6
Continuous
 62
     8
370
     0
100
AcDbSpline
210
0.0
220
0.0
230
1.0
 70
     8
 71
     3
 72
    20
 73
    16
 74
     0
 42
0.00000001
 43
0.00000001
 40
0.0
 40
0.0
 40
0.0
 40
0.0
 40
0.2500000000000012
 40
0.2500000000000012
 40
0.5000000000000022
 40
0.5000000000000022
 40
0.625000000000002
 40
0.625000000000002
 40
0.7500000000000019
 40
0.7500000000000019
 40
0.8750000000000017
 40
0.8750000000000017
 40
0.9375000000000009
 40
0.9375000000000009
 40
1.0
 40
1.0
 40
1.0
 40
1.0
 10
164.658240892974
 20
242.9844855530468
 30
0.0
 10
163.7120091968152
 20
242.9844277345499
 30
0.0
 10
162.7657774965039
 20
242.9842937304576
 30
0.0
 10
160.8733141416105
 20
242.9848647037419
 30
0.0
 10
159.9270823689512
 20
242.983403354499
 30
0.0
 10
158.5077349194423
 20
242.9850545943184
 30
0.0
 10
158.0346192221536
 20
242.9877921922459
 30
0.0
 10
157.0883875488673
 20
242.9881540077527
 30
0.0
 10
156.6152699709859
 20
242.9838025148257
 30
0.0
 10
155.6690319922114
 20
242.9710003704316
 30
0.0
 10
155.1959134450406
 20
242.9654201497352
 30
0.0
 10
154.4862491797144
 20
242.9822116844782
 30
0.0
 10
154.2496983645583
 20
242.9951222832471
 30
0.0
 10
153.776591310102
 20
243.0108750737354
 30
0.0
 10
153.5400568907786
 20
243.011482624738
 30
0.0
 10
153.3035958554536
 20
242.986445203608
 30
0.0
  0
LINE
  5
1DA
330
1F
100
AcDbEntity
  8
0
  6
Continuous
 62
     8
370
     0
100
AcDbLine
 10
164.6582518316
 20
242.9844855537
 30
0.0
 11
167.9824783935
 21
242.9844855537
 31
0.0
  0
ARC
  5
1DB
330
1F
100
AcDbEntity
  8
0
  6
Continuous
 62
     8
370
     0
100
AcDbCircle
 10
147.8475415193
 20
232.7490330655
 30
0.0
 40
2.554638822162276
100
AcDbArc
 50
234.5601159975
 51
264.616152105
  0
ARC
  5
1DC
330
1F
100
AcDbEntity
  8
0
  6
Continuous
 62
     8
370
    15
100
AcDbCircle
 10
179.0154783935
 20
321.2657532632
 30
0.0
 40
12.37227937088164
100
AcDbArc
 50
180.0
 51
206.905815116
  0
ARC
  5
1DD
330
1F
100
AcDbEntity
  8
0
  6
Continuous
 62
     8
370
    15
100
AcDbCircle
 10
179.0154783935
 20
321.2657532632
 30
0.0
 40
12.37227937088165
100
AcDbArc
 50
333.094184884
 51
180.0
  0
ARC
  5
1DE
330
1F
100
AcDbEntity
  8
0
  6
Continuous
 62
     8
370
     0
100
AcDbCircle
 10
179.0154783935
 20
321.2657532632
 30
0.0
 40
12.67036648801507
100
AcDbArc
 50
180.0
 51
209.4515282091
  0
ARC
  5
1DF
330
1F
100
AcDbEntity
  8
0
  6
Continuous
 62
     8
370
     0
100
AcDbCircle
 10
179.0154783935
 20
321.2657532632
 30
0.0
 40
12.67036648801505
100
AcDbArc
 50
330.548471791
 51
180.0
  0
ARC
  5
1E0
330
1F
100
AcDbEntity
  8
0
  6
Continuous
 62
     8
370
     0
100
AcDbCircle
 10
179.0154783935
 20
321.2657532632
 30
0.0
 40
21.02080675700125
100
AcDbArc
 50
180.0
 51
238.3411189868
  0
ARC
  5
1E1
330
1F
100
AcDbEntity
  8
0
  6
Continuous
 62
     8
370
     0
100
AcDbCircle
 10
179.0154783935
 20
321.2657532632
 30
0.0
 40
21.02080675700125
100
AcDbArc
 50
301.6588810132
 51
180.0
  0
SPLINE
  5
1E2
330
1F
100
AcDbEntity
  8
0
  6
Continuous
 62
     8
370
     0
100
AcDbSpline
210
0.0
220
0.0
230
1.0
 70
     8
 71
     3
 72
     9
 73
     5
 74
     0
 42
0.00000001
 43
0.00000001
 40
0.0
 40
0.0
 40
0.0
 40
0.0
 40
0.9149333242384937
 40
1.0
 40
1.0
 40
1.0
 40
1.0
 10
166.5169471972481
 20
246.0407532622315
 30
0.0
 10
166.9695993390442
 20
246.0788785187795
 30
0.0
 10
167.4643371847477
 20
246.1205485023051
 30
0.0
 10
167.9418573411978
 20
246.4651527258033
 30
0.0
 10
167.9824783935161
 20
246.4944670615496
 30
0.0
  0
LINE
  5
1E3
330
1F
100
AcDbEntity
  8
0
  6
Continuous
 62
     8
370
     0
100
AcDbLine
 10
198.2996240139
 20
230.0734569784
 30
0.0
 11
190.0484783935
 21
229.0543232876
 31
0.0
  0
LINE
  5
1E4
330
1F
100
AcDbEntity
  8
0
  6
Continuous
 62
     8
370
     0
100
AcDbLine
 10
166.5169479451
 20
229.8924532622
 30
0.0
 11
167.9824783935
 21
229.8422633923
 31
0.0
  0
SPLINE
  5
1E5
330
1F
100
AcDbEntity
  8
0
  6
Continuous
 62
     8
370
     0
100
AcDbSpline
210
0.0
220
0.0
230
1.0
 70
     8
 71
     3
 72
    12
 73
     8
 74
     0
 42
0.00000001
 43
0.00000001
 40
0.0
 40
0.0
 40
0.0
 40
0.0
 40
0.0000044895352453
 40
0.2540135079623232
 40
0.5153404934290341
 40
0.7687175265891127
 40
1.0
 40
1.0
 40
1.0
 40
1.0
 10
198.2996306490929
 20
230.0734545715196
 30
0.0
 10
198.2996237835392
 20
230.0734545764547
 30
0.0
 10
197.9111774808234
 20
230.0737337976895
 30
0.0
 10
196.9432928326314
 20
230.0736766347781
 30
0.0
 10
194.986471010122
 20
230.072756371371
 30
0.0
 10
192.6848460021887
 20
230.0620811246854
 30
0.0
 10
190.900147437102
 20
230.0412125925271
 30
0.0
 10
190.0484783935161
 20
230.0312540016637
 30
0.0
  0
LINE
  5
1E6
330
1F
100
AcDbEntity
  8
0
  6
Continuous
 62
     8
370
     0
100
AcDbLine
 10
158.2729173748
 20
250.1983522417
 30
0.0
 11
158.2729173748
 21
246.0407532622
 31
0.0
  0
SPLINE
  5
1E7
330
1F
100
AcDbEntity
  8
0
  6
Continuous
 62
     8
370
     0
100
AcDbSpline
210
0.0
220
0.0
230
1.0
 70
     8
 71
     3
 72
    14
 73
    10
 74
     0
 42
0.00000001
 43
0.00000001
 40
0.6042587306707183
 40
0.6042587306707183
 40
0.6042587306707183
 40
0.6042587306707183
 40
0.6406367209734345
 40
0.677014841692376
 40
0.7133929624113172
 40
0.7497710831302586
 40
0.7861492038492002
 40
0.8225273245681415
 40
0.8952831452635766
 40
0.8952831452635766
 40
0.8952831452635766
 40
0.8952831452635766
 10
164.9793797138404
 20
259.308941799794
 30
0.0
 10
164.4334463937847
 20
259.3089417997966
 30
0.0
 10
163.3450598456304
 20
259.1667473280987
 30
0.0
 10
161.8610702802168
 20
258.5111509064528
 30
0.0
 10
160.6270010349827
 20
257.4901083363237
 30
0.0
 10
159.6778491427923
 20
256.2029728865825
 30
0.0
 10
158.9991779188537
 20
254.7554143567383
 30
0.0
 10
158.4104014932923
 20
252.7046615181922
 30
0.0
 10
158.2729184349088
 20
251.1496542487677
 30
0.0
 10
158.2729173748466
 20
250.1983522417466
 30
0.0
  0
SPLINE
  5
1E8
330
1F
100
AcDbEntity
  8
0
  6
Continuous
 62
     8
370
     0
100
AcDbSpline
210
0.0
220
0.0
230
1.0
 70
    24
 71
     3
 72
     9
 73
     5
 74
     0
 42
0.00000001
 43
0.00000001
 40
0.0
 40
0.0
 40
0.0
 40
0.0
 40
0.0180396159560244
 40
0.9999999999999999
 40
0.9999999999999999
 40
0.9999999999999999
 40
0.9999999999999999
 10
167.9824783935161
 20
259.3089417997805
 30
0.0
 10
167.9628574643423
 20
259.3089417997807
 30
0.0
 10
166.8751996549064
 20
259.3089417997851
 30
0.0
 10
165.9186589349917
 20
259.3089417997896
 30
0.0
 10
164.9793738423106
 20
259.308941799794
 30
0.0
  0
LINE
  5
1E9
330
1F
100
AcDbEntity
  8
0
  6
Continuous
 62
     8
370
     0
100
AcDbLine
 10
167.9824783935
 20
293.8045661266
 30
0.0
 11
167.5394791788
 21
294.0131213666
 31
0.0
  0
LINE
  5
1EA
330
1F
100
AcDbEntity
  8
0
  6
Continuous
 62
     8
370
     0
100
AcDbLine
 10
190.4914776082
 20
294.0131213666
 30
0.0
 11
190.0484783935
 21
293.7933994506
 31
0.0
  0
LINE
  5
1EB
330
1F
100
AcDbEntity
  8
0
  6
Continuous
 62
     8
370
     0
100
AcDbLine
 10
200.4729481437
 20
260.3836532622
 30
0.0
 11
190.0484783935
 21
260.3836532622
 31
0.0
  0
SPLINE
  5
1EC
330
1F
100
AcDbEntity
  8
0
  6
Continuous
 62
     8
370
     0
100
AcDbSpline
210
0.0
220
0.0
230
1.0
 70
     8
 71
     3
 72
     8
 73
     4
 74
     0
 42
0.00000001
 43
0.00000001
 40
0.0
 40
0.0
 40
0.0
 40
0.0
 40
1.0
 40
1.0
 40
1.0
 40
1.0
 10
200.8764083242523
 20
260.2406450067572
 30
0.0
 10
200.7531462290979
 20
260.3360118246209
 30
0.0
 10
200.6189360449541
 20
260.3836532621734
 30
0.0
 10
200.472948143653
 20
260.3836532621731
 30
0.0
  0
SPLINE
  5
1ED
330
1F
100
AcDbEntity
  8
0
  6
Continuous
 62
     8
370
     0
100
AcDbSpline
210
0.0
220
0.0
230
1.0
 70
     8
 71
     3
 72
    16
 73
    12
 74
     0
 42
0.00000001
 43
0.00000001
 40
0.0
 40
0.0
 40
0.0
 40
0.0
 40
0.1036665090622322
 40
0.1854733428942127
 40
0.2454236206767318
 40
0.3742566143602686
 40
0.4943707195643787
 40
0.594318207310356
 40
0.7118692412557802
 40
0.8470835714063849
 40
1.0
 40
1.0
 40
1.0
 40
1.0
 10
197.870277508359
 20
299.3444228027489
 30
0.0
 10
197.7701356985731
 20
299.2252434638697
 30
0.0
 10
197.5909685172675
 20
299.0120155797072
 30
0.0
 10
197.3444603533901
 20
298.7319256061194
 30
0.0
 10
197.0661383952096
 20
298.4267726265088
 30
0.0
 10
196.7350343906002
 20
298.0900407519058
 30
0.0
 10
196.3416951976688
 20
297.7262863038519
 30
0.0
 10
195.9414435058105
 20
297.3968116651076
 30
0.0
 10
195.5053229436434
 20
297.0694146942844
 30
0.0
 10
194.9847977990445
 20
296.7058923185644
 30
0.0
 10
194.5960609226106
 20
296.4569708152661
 30
0.0
 10
194.3897509296548
 20
296.3248634781306
 30
0.0
  0
SPLINE
  5
1EE
330
1F
100
AcDbEntity
  8
0
  6
Continuous
 62
     8
370
     0
100
AcDbSpline
210
0.0
220
0.0
230
1.0
 70
     8
 71
     3
 72
    14
 73
    10
 74
     0
 42
0.00000001
 43
0.00000001
 40
0.0
 40
0.0
 40
0.0
 40
0.0
 40
0.1319268462748004
 40
0.2467380459343434
 40
0.3444335378349176
 40
0.4250133478416466
 40
0.4884776568461974
 40
0.6821455681505076
 40
1.0
 40
1.0
 40
1.0
 40
1.0
 10
194.3897509296548
 20
296.3248634781306
 30
0.0
 10
194.2742188466842
 20
296.2525060631153
 30
0.0
 10
194.0581433381747
 20
296.1171785866094
 30
0.0
 10
193.7502928015512
 20
295.9278972431723
 30
0.0
 10
193.4852388638146
 20
295.7664866688723
 30
0.0
 10
193.2643299759162
 20
295.6329539079267
 30
0.0
 10
192.953357197352
 20
295.4454888092043
 30
0.0
 10
192.4187036167666
 20
295.1214582250366
 30
0.0
 10
191.9258405834775
 20
294.8320956501288
 30
0.0
 10
191.6195808442453
 20
294.652288886892
 30
0.0
  0
SPLINE
  5
1EF
330
1F
100
AcDbEntity
  8
0
  6
Continuous
 62
     8
370
     0
100
AcDbSpline
210
0.0
220
0.0
230
1.0
 70
     8
 71
     3
 72
     8
 73
     4
 74
     0
 42
0.00000001
 43
0.00000001
 40
0.0
 40
0.0
 40
0.0
 40
0.0
 40
1.0
 40
1.0
 40
1.0
 40
1.0
 10
190.4914776060864
 20
294.0131213666388
 30
0.0
 10
190.8772403115964
 20
294.2246604976306
 30
0.0
 10
191.253593341819
 20
294.4390867237373
 30
0.0
 10
191.6195496239763
 20
294.6522888868917
 30
0.0
  0
SPLINE
  5
1F0
330
1F
100
AcDbEntity
  8
0
  6
Continuous
 62
     8
370
     0
100
AcDbSpline
210
0.0
220
0.0
230
1.0
 70
     8
 71
     3
 72
    10
 73
     6
 74
     0
 42
0.00000001
 43
0.00000001
 40
0.0
 40
0.0
 40
0.0
 40
0.0
 40
0.284472207658353
 40
0.6178045841992507
 40
0.9999999999999999
 40
0.9999999999999999
 40
0.9999999999999999
 40
0.9999999999999999
 10
167.5394791788071
 20
294.0131213666388
 30
0.0
 10
167.430740348971
 20
294.0731716886045
 30
0.0
 10
167.1945860050855
 20
294.2035864117103
 30
0.0
 10
166.817864864816
 20
294.4168390866867
 30
0.0
 10
166.5529037601314
 20
294.5703119996526
 30
0.0
 10
166.4113761763536
 20
294.6522887508186
 30
0.0
  0
SPLINE
  5
1F1
330
1F
100
AcDbEntity
  8
0
  6
Continuous
 62
     8
370
     0
100
AcDbSpline
210
0.0
220
0.0
230
1.0
 70
     8
 71
     3
 72
    14
 73
    10
 74
     0
 42
0.00000001
 43
0.00000001
 40
0.0
 40
0.0
 40
0.0
 40
0.0
 40
0.1420404257341145
 40
0.2642153313241589
 40
0.3665245764962346
 40
0.4489681148234759
 40
0.5115460674885317
 40
0.7022720428544723
 40
0.9999999999999999
 40
0.9999999999999999
 40
0.9999999999999999
 40
0.9999999999999999
 10
166.4113761763536
 20
294.6522887508186
 30
0.0
 10
166.2738957656534
 20
294.7326767303882
 30
0.0
 10
166.0181627088424
 20
294.8822097703427
 30
0.0
 10
165.6693887550896
 20
295.0893090285263
 30
0.0
 10
165.3804271105495
 20
295.2624122193453
 30
0.0
 10
165.1498401561514
 20
295.4015400328985
 30
0.0
 10
164.8391194888347
 20
295.5895044221473
 30
0.0
 10
164.3338526936725
 20
295.8933848614695
 30
0.0
 10
163.9035121101667
 20
296.1614619671333
 30
0.0
 10
163.641206057792
 20
296.324863352022
 30
0.0
  0
SPLINE
  5
1F2
330
1F
100
AcDbEntity
  8
0
  6
Continuous
 62
     8
370
     0
100
AcDbSpline
210
0.0
220
0.0
230
1.0
 70
     8
 71
     3
 72
    17
 73
    13
 74
     0
 42
0.00000001
 43
0.00000001
 40
0.0
 40
0.0
 40
0.0
 40
0.0
 40
0.077461705560419
 40
0.1459141357122371
 40
0.2053588834139635
 40
0.2557984397990318
 40
0.3845362588792291
 40
0.5056491445340306
 40
0.6257324929360826
 40
0.7545880759908196
 40
0.8526809920680279
 40
1.0
 40
1.0
 40
1.0
 40
1.0
 10
163.6412060577962
 20
296.3248633520193
 30
0.0
 10
163.5361025517447
 20
296.3914678939648
 30
0.0
 10
163.3381197273945
 20
296.51693045772
 30
0.0
 10
163.0657995293024
 20
296.6954129068494
 30
0.0
 10
162.8330308590869
 20
296.8520918808329
 30
0.0
 10
162.5267634544231
 20
297.0650383455524
 30
0.0
 10
162.1529465597379
 20
297.343125885776
 30
0.0
 10
161.7133986692704
 20
297.7048155838017
 30
0.0
 10
161.2958239813078
 20
298.089810774808
 30
0.0
 10
160.9241992614313
 20
298.4684343614706
 30
0.0
 10
160.5414954748249
 20
298.893002781755
 30
0.0
 10
160.3035288982445
 20
299.1750886753738
 30
0.0
 10
160.1606792786739
 20
299.3444228027489
 30
0.0
  0
SPLINE
  5
1F3
330
1F
100
AcDbEntity
  8
0
  6
Continuous
 62
     8
370
     0
100
AcDbSpline
210
0.0
220
0.0
230
1.0
 70
     8
 71
     3
 72
    16
 73
    12
 74
     0
 42
0.00000001
 43
0.00000001
 40
0.0
 40
0.0
 40
0.0
 40
0.0
 40
0.145644691493028
 40
0.2730426942910888
 40
0.3822728532919588
 40
0.4734612287852322
 40
0.6899564737939369
 40
0.7481680001955109
 40
0.8102478408626459
 40
0.9051103832177912
 40
1.0
 40
1.0
 40
1.0
 40
1.0
 10
156.1117129010983
 20
307.3788187995389
 30
0.0
 10
156.096940506801
 20
307.42919679952
 30
0.0
 10
156.0692464363976
 20
307.523641332354
 30
0.0
 10
156.0369581252501
 20
307.6473190547636
 30
0.0
 10
156.0127473919155
 20
307.7456057768655
 30
0.0
 10
155.9861507683732
 20
307.8556860968807
 30
0.0
 10
155.9683567128453
 20
307.919219107099
 30
0.0
 10
155.9572833019847
 20
307.9366549185465
 30
0.0
 10
155.9517475408913
 20
307.9366821260308
 30
0.0
 10
155.9473872242883
 20
307.9307309277891
 30
0.0
 10
155.9467813652134
 20
307.9247146941539
 30
0.0
 10
155.946478392453
 20
307.9217061481289
 30
0.0
  0
SPLINE
  5
1F4
330
1F
100
AcDbEntity
  8
0
  6
Continuous
 62
     8
370
     0
100
AcDbSpline
210
0.0
220
0.0
230
1.0
 70
     8
 71
     3
 72
    17
 73
    13
 74
     0
 42
0.00000001
 43
0.00000001
 40
0.0
 40
0.0
 40
0.0
 40
0.0
 40
0.0563538146638346
 40
0.1149636980182019
 40
0.1759409394675254
 40
0.2393843707904122
 40
0.3053817445039632
 40
0.3740110162909315
 40
0.4846732050839236
 40
0.6229912083000089
 40
0.8008359370204249
 40
1.0
 40
1.0
 40
1.0
 40
1.0
 10
156.7161748674205
 20
305.7292205747588
 30
0.0
 10
156.7028859542903
 20
305.7729766150506
 30
0.0
 10
156.6757761196641
 20
305.8622404250088
 30
0.0
 10
156.6337709791945
 20
305.9891022736842
 30
0.0
 10
156.5901638004581
 20
306.1141502291363
 30
0.0
 10
156.545172372643
 20
306.2366354167024
 30
0.0
 10
156.4991163917191
 20
306.3567401356163
 30
0.0
 10
156.4434013640061
 20
306.4970584738078
 30
0.0
 10
156.3738885306168
 20
306.6644883984959
 30
0.0
 10
156.2876474759535
 20
306.8757297109825
 30
0.0
 10
156.194341560492
 20
307.1196196980797
 30
0.0
 10
156.1402749192318
 20
307.2892221693818
 30
0.0
 10
156.1117129010983
 20
307.3788187995389
 30
0.0
  0
SPLINE
  5
1F5
330
1F
100
AcDbEntity
  8
0
  6
Continuous
 62
     8
370
     0
100
AcDbSpline
210
0.0
220
0.0
230
1.0
 70
     8
 71
     3
 72
     8
 73
     4
 74
     0
 42
0.00000001
 43
0.00000001
 40
0.0
 40
0.0
 40
0.0
 40
0.0
 40
1.0
 40
1.0
 40
1.0
 40
1.0
 10
156.7161748663864
 20
305.7292205747589
 30
0.0
 10
156.7821503414094
 20
305.5071174285961
 30
0.0
 10
156.8572448970795
 20
305.2593104590904
 30
0.0
 10
156.9418649965337
 20
304.9961353011001
 30
0.0
  0
SPLINE
  5
1F6
330
1F
100
AcDbEntity
  8
0
  6
Continuous
 62
     8
370
     0
100
AcDbSpline
210
0.0
220
0.0
230
1.0
 70
     8
 71
     3
 72
    19
 73
    15
 74
     0
 42
0.00000001
 43
0.00000001
 40
0.0
 40
0.0
 40
0.0
 40
0.0
 40
0.0408220227067241
 40
0.0900089647237838
 40
0.1475608190123502
 40
0.2333603357917991
 40
0.2859025352178581
 40
0.4160332044162409
 40
0.5400683301081634
 40
0.777537329946065
 40
0.8916957581795002
 40
0.9467983377205926
 40
0.9736638793205786
 40
1.0
 40
1.0
 40
1.0
 40
1.0
 10
160.1606792786739
 20
299.3444228027489
 30
0.0
 10
160.1011000465837
 20
299.4164025614266
 30
0.0
 10
159.9697330871851
 20
299.575111589791
 30
0.0
 10
159.7598560331307
 20
299.8346496777163
 30
0.0
 10
159.4926802435501
 20
300.1728682755804
 30
0.0
 10
159.2309890125361
 20
300.5169238151347
 30
0.0
 10
158.8861040487795
 20
300.9892545517042
 30
0.0
 10
158.5144252600314
 20
301.5341792036217
 30
0.0
 10
157.9725786936384
 20
302.4316670854867
 30
0.0
 10
157.5294531692685
 20
303.3610581797703
 30
0.0
 10
157.2116362729007
 20
304.1981518203249
 30
0.0
 10
157.0703402836324
 20
304.6055253622471
 30
0.0
 10
156.9951765065928
 20
304.8308131495525
 30
0.0
 10
156.9593979926676
 20
304.941394724079
 30
0.0
 10
156.9416867554601
 20
304.9961353011001
 30
0.0
  0
SPLINE
  5
1F7
330
1F
100
AcDbEntity
  8
0
  6
Continuous
 62
     8
370
     0
100
AcDbSpline
210
0.0
220
0.0
230
1.0
 70
     8
 71
     3
 72
    20
 73
    16
 74
     0
 42
0.00000001
 43
0.00000001
 40
0.0
 40
0.0
 40
0.0
 40
0.0
 40
0.0437151794859232
 40
0.1002249593106613
 40
0.1560037281490511
 40
0.2117860088060835
 40
0.2941874687861326
 40
0.37413602853989
 40
0.4516708032489383
 40
0.5683446985452262
 40
0.7084165334618524
 40
0.7654219890233566
 40
0.8487956302218176
 40
0.9374756594550782
 40
1.0
 40
1.0
 40
1.0
 40
1.0
 10
201.3147819196124
 20
305.7292205747588
 30
0.0
 10
201.2850534237382
 20
305.6295897246323
 30
0.0
 10
201.2168954675226
 20
305.4011679723383
 30
0.0
 10
201.1042058230751
 20
305.0390589823339
 30
0.0
 10
200.975644394114
 20
304.6486511064992
 30
0.0
 10
200.818534551674
 20
304.1971543485341
 30
0.0
 10
200.6280261701268
 20
303.6948365946832
 30
0.0
 10
200.3976936727257
 20
303.1574033104711
 30
0.0
 10
200.111073180425
 20
302.5587870313551
 30
0.0
 10
199.7228022639305
 20
301.8607514870217
 30
0.0
 10
199.3135249998911
 20
301.230281943511
 30
0.0
 10
198.9189483929788
 20
300.6769133380463
 30
0.0
 10
198.5811227159103
 20
300.2265717460102
 30
0.0
 10
198.2179385893704
 20
299.765774940493
 30
0.0
 10
197.9719825146285
 20
299.4676854402758
 30
0.0
 10
197.870277508359
 20
299.3444228027489
 30
0.0
  0
SPLINE
  5
1F8
330
1F
100
AcDbEntity
  8
0
  6
Continuous
 62
     8
370
     0
100
AcDbSpline
210
0.0
220
0.0
230
1.0
 70
     8
 71
     3
 72
    16
 73
    12
 74
     0
 42
0.00000001
 43
0.00000001
 40
0.0
 40
0.0
 40
0.0
 40
0.0
 40
0.1351377619873028
 40
0.2608071674629265
 40
0.3770254609824759
 40
0.5153163987958074
 40
0.6260111288965768
 40
0.7279499300926541
 40
0.8240596235261832
 40
0.9146282584350903
 40
1.0
 40
1.0
 40
1.0
 40
1.0
 10
201.9192439134745
 20
307.3788188909099
 30
0.0
 10
201.9002574519849
 20
307.3182060485241
 30
0.0
 10
201.8636148054854
 20
307.2012271708065
 30
0.0
 10
201.8007833292666
 20
307.026543220472
 30
0.0
 10
201.7310117427869
 20
306.8453115072726
 30
0.0
 10
201.6570383610596
 20
306.6645043069682
 30
0.0
 10
201.5802881986341
 20
306.4794706510913
 30
0.0
 10
201.5096420725102
 20
306.3004986939453
 30
0.0
 10
201.4416376749417
 20
306.1174731131001
 30
0.0
 10
201.3765639583616
 20
305.9303444805772
 30
0.0
 10
201.334966365267
 20
305.7949285803383
 30
0.0
 10
201.3147819196124
 20
305.7292205747588
 30
0.0
  0
SPLINE
  5
1F9
330
1F
100
AcDbEntity
  8
0
  6
Continuous
 62
     8
370
     0
100
AcDbSpline
210
0.0
220
0.0
230
1.0
 70
     8
 71
     3
 72
     9
 73
     5
 74
     0
 42
0.00000001
 43
0.00000001
 40
0.0
 40
0.0
 40
0.0
 40
0.0
 40
0.3252096907377573
 40
1.0
 40
1.0
 40
1.0
 40
1.0
 10
202.0573120954098
 20
307.8643240370795
 30
0.0
 10
202.0522692814265
 20
307.8587366165451
 30
0.0
 10
202.0367629354382
 20
307.8415556385683
 30
0.0
 10
201.9665935409093
 20
307.5652603046992
 30
0.0
 10
201.9192439134745
 20
307.3788188909099
 30
0.0
  0
ARC
  5
1FA
330
1F
100
AcDbEntity
  8
0
  6
Continuous
 62
     8
370
     0
100
AcDbCircle
 10
200.2790916849
 20
260.3904151837
 30
0.0
 40
0.1939743543996719
100
AcDbArc
 50
358.002271613
 51
87.8521674371
  0
LINE
  5
1FB
330
1F
100
AcDbEntity
  8
0
  6
Continuous
 62
     8
370
     0
100
AcDbLine
 10
199.5372269878
 20
230.0734569784
 30
0.0
 11
198.2996240139
 21
230.0734569784
 31
0.0
  0
ENDSEC
  0
SECTION
  2
OBJECTS
  0
DICTIONARY
  5
C
330
0
100
AcDbDictionary
281
     1
  3
ACAD_GROUP
350
D
  3
ACAD_LAYOUT
350
1A
  3
ACAD_MATERIAL
350
3B
  3
ACAD_MLEADERSTYLE
350
1FD
  3
ACAD_MLINESTYLE
350
17
  3
ACAD_PLOTSETTINGS
350
19
  3
ACAD_PLOTSTYLENAME
350
E
  3
ACAD_TABLESTYLE
350
1FC
  3
ACAD_VISUALSTYLE
350
2A
  0
DICTIONARY
  5
D
102
{ACAD_REACTORS
330
C
102
}
330
C
100
AcDbDictionary
281
     1
  0
DICTIONARY
  5
1A
102
{ACAD_REACTORS
330
C
102
}
330
C
100
AcDbDictionary
281
     1
  3
Layout1
350
1E
  3
Layout2
350
26
  3
Model
350
22
  0
DICTIONARY
  5
3B
102
{ACAD_REACTORS
330
C
102
}
330
C
100
AcDbDictionary
281
     1
  3
ByBlock
350
3D
  3
ByLayer
350
3C
  3
Global
350
3E
  0
DICTIONARY
  5
1FD
102
{ACAD_REACTORS
330
C
102
}
330
C
100
AcDbDictionary
281
     1
  0
DICTIONARY
  5
17
102
{ACAD_REACTORS
330
C
102
}
330
C
100
AcDbDictionary
281
     1
  3
Standard
350
18
  0
DICTIONARY
  5
19
102
{ACAD_REACTORS
330
C
102
}
330
C
100
AcDbDictionary
281
     1
  0
ACDBDICTIONARYWDFLT
  5
E
102
{ACAD_REACTORS
330
C
102
}
330
C
100
AcDbDictionary
281
     1
  3
Normal
350
F
100
AcDbDictionaryWithDefault
340
F
  0
DICTIONARY
  5
1FC
102
{ACAD_REACTORS
330
C
102
}
330
C
100
AcDbDictionary
281
     1
  0
DICTIONARY
  5
2A
102
{ACAD_REACTORS
330
C
102
}
330
C
100
AcDbDictionary
281
     1
  3
2dWireframe
350
2F
  3
3D Hidden
350
31
  3
3dWireframe
350
30
  3
Basic
350
32
  3
Brighten
350
36
  3
ColorChange
350
3A
  3
Conceptual
350
34
  3
Dim
350
35
  3
Facepattern
350
39
  3
Flat
350
2B
  3
FlatWithEdges
350
2C
  3
Gouraud
350
2D
  3
GouraudWithEdges
350
2E
  3
Linepattern
350
38
  3
Realistic
350
33
  3
Thicken
350
37
  0
LAYOUT
  5
1E
102
{ACAD_REACTORS
330
1A
102
}
330
1A
100
AcDbPlotSettings
  1

  2
none_device
  4

  6

 40
0.0
 41
0.0
 42
0.0
 43
0.0
 44
0.0
 45
0.0
 46
0.0
 47
0.0
 48
0.0
 49
0.0
140
0.0
141
0.0
142
1.0
143
1.0
 70
   688
 72
     0
 73
     0
 74
     5
  7

 75
    16
 76
     0
 77
     2
 78
   300
147
1.0
148
0.0
149
0.0
100
AcDbLayout
  1
Layout1
 70
     1
 71
     1
 10
0.0
 20
0.0
 11
420.0
 21
297.0
 12
0.0
 22
0.0
 32
0.0
 14
1.0000000000E+20
 24
1.0000000000E+20
 34
1.0000000000E+20
 15
-1.0000000000E+20
 25
-1.0000000000E+20
 35
-1.0000000000E+20
146
0.0
 13
0.0
 23
0.0
 33
0.0
 16
1.0
 26
0.0
 36
0.0
 17
0.0
 27
1.0
 37
0.0
 76
     0
330
1B
  0
LAYOUT
  5
26
102
{ACAD_REACTORS
330
1A
102
}
330
1A
100
AcDbPlotSettings
  1

  2
none_device
  4

  6

 40
0.0
 41
0.0
 42
0.0
 43
0.0
 44
0.0
 45
0.0
 46
0.0
 47
0.0
 48
0.0
 49
0.0
140
0.0
141
0.0
142
1.0
143
1.0
 70
   688
 72
     0
 73
     0
 74
     5
  7

 75
    16
 76
     0
 77
     2
 78
   300
147
1.0
148
0.0
149
0.0
100
AcDbLayout
  1
Layout2
 70
     1
 71
     2
 10
0.0
 20
0.0
 11
0.0
 21
0.0
 12
0.0
 22
0.0
 32
0.0
 14
0.0
 24
0.0
 34
0.0
 15
0.0
 25
0.0
 35
0.0
146
0.0
 13
0.0
 23
0.0
 33
0.0
 16
1.0
 26
0.0
 36
0.0
 17
0.0
 27
1.0
 37
0.0
 76
     0
330
23
  0
LAYOUT
  5
22
102
{ACAD_REACTORS
330
1A
102
}
330
1A
100
AcDbPlotSettings
  1

  2
none_device
  4

  6

 40
0.0
 41
0.0
 42
0.0
 43
0.0
 44
0.0
 45
0.0
 46
0.0
 47
0.0
 48
0.0
 49
0.0
140
0.0
141
0.0
142
1.0
143
1.0
 70
  1712
 72
     0
 73
     0
 74
     0
  7

 75
     0
 76
     0
 77
     2
 78
   300
147
1.0
148
0.0
149
0.0
100
AcDbLayout
  1
Model
 70
     1
 71
     0
 10
0.0
 20
0.0
 11
594.0
 21
841.0
 12
0.0
 22
0.0
 32
0.0
 14
0.0
 24
0.0
 34
0.0
 15
594.0
 25
841.0
 35
0.0
146
0.0
 13
0.0
 23
0.0
 33
0.0
 16
1.0
 26
0.0
 36
0.0
 17
0.0
 27
1.0
 37
0.0
 76
     0
330
1F
331
29
  0
MATERIAL
  5
3D
102
{ACAD_REACTORS
330
3B
102
}
330
3B
100
AcDbMaterial
  1
ByBlock
 72
     1
 94
      127
  0
MATERIAL
  5
3C
102
{ACAD_REACTORS
330
3B
102
}
330
3B
100
AcDbMaterial
  1
ByLayer
 72
     1
 94
      127
  0
MATERIAL
  5
3E
102
{ACAD_REACTORS
330
3B
102
}
330
3B
100
AcDbMaterial
  1
Global
 72
     1
 94
      127
  0
MLINESTYLE
  5
18
102
{ACAD_REACTORS
330
17
102
}
330
17
100
AcDbMlineStyle
  2
Standard
 70
     0
  3

 62
   256
 51
90.0
 52
90.0
 71
     2
 49
0.5
 62
   256
  6
BYLAYER
 49
-0.5
 62
   256
  6
BYLAYER
  0
ACDBPLACEHOLDER
  5
F
102
{ACAD_REACTORS
330
E
102
}
330
E
  0
VISUALSTYLE
  5
2F
102
{ACAD_REACTORS
330
2A
102
}
330
2A
100
AcDbVisualStyle
  2
2dWireframe
 70
     4
177
     2
291
     0
 71
     0
176
     1
 72
     2
176
     1
 73
     0
176
     1
 90
        0
176
     1
 40
-0.6
176
     1
 41
-30.0
176
     1
 62
     5
 63
     7
421
 16777215
176
     1
 74
     1
176
     1
 91
        4
176
     1
 64
     7
176
     1
 65
   257
176
     1
 75
     1
176
     1
175
     1
176
     1
 42
1.0
176
     1
 92
        0
176
     1
 66
   257
176
     1
 43
1.0
176
     1
 76
     1
176
     1
 77
     6
176
     1
 78
     2
176
     1
 67
     7
176
     1
 79
     5
176
     1
170
     0
176
     1
171
     0
176
     1
290
     0
176
     1
 93
        1
176
     1
 44
0.0
176
     1
173
     0
176
     1
  0
VISUALSTYLE
  5
31
102
{ACAD_REACTORS
330
2A
102
}
330
2A
100
AcDbVisualStyle
  2
3D Hidden
 70
     6
177
     2
291
     0
 71
     1
176
     1
 72
     2
176
     1
 73
     2
176
     1
 90
        0
176
     1
 40
-0.6
176
     1
 41
-30.0
176
     1
 62
     5
 63
     7
421
 16777215
176
     1
 74
     2
176
     1
 91
        2
176
     1
 64
     7
176
     1
 65
   257
176
     1
 75
     2
176
     1
175
     1
176
     1
 42
40.0
176
     1
 92
        0
176
     1
 66
   257
176
     1
 43
1.0
176
     1
 76
     1
176
     1
 77
     6
176
     1
 78
     2
176
     1
 67
     7
176
     1
 79
     3
176
     1
170
     0
176
     1
171
     0
176
     1
290
     0
176
     1
 93
        1
176
     1
 44
0.0
176
     1
173
     0
176
     1
  0
VISUALSTYLE
  5
30
102
{ACAD_REACTORS
330
2A
102
}
330
2A
100
AcDbVisualStyle
  2
3dWireframe
 70
     5
177
     2
291
     0
 71
     0
176
     1
 72
     2
176
     1
 73
     0
176
     1
 90
        0
176
     1
 40
-0.6
176
     1
 41
-30.0
176
     1
 62
     5
 63
     7
421
 16777215
176
     1
 74
     1
176
     1
 91
        4
176
     1
 64
     7
176
     1
 65
   257
176
     1
 75
     1
176
     1
175
     1
176
     1
 42
1.0
176
     1
 92
        0
176
     1
 66
   257
176
     1
 43
1.0
176
     1
 76
     1
176
     1
 77
     6
176
     1
 78
     2
176
     1
 67
     7
176
     1
 79
     5
176
     1
170
     0
176
     1
171
     0
176
     1
290
     0
176
     1
 93
        1
176
     1
 44
0.0
176
     1
173
     0
176
     1
  0
VISUALSTYLE
  5
32
102
{ACAD_REACTORS
330
2A
102
}
330
2A
100
AcDbVisualStyle
  2
Basic
 70
     7
177
     2
291
     1
 71
     1
176
     1
 72
     0
176
     1
 73
     1
176
     1
 90
        0
176
     1
 40
-0.6
176
     1
 41
-30.0
176
     1
 62
     5
 63
     7
421
 16777215
176
     1
 74
     0
176
     1
 91
        4
176
     1
 64
     7
176
     1
 65
   257
176
     1
 75
     1
176
     1
175
     1
176
     1
 42
1.0
176
     1
 92
        8
176
     1
 66
     7
176
     1
 43
1.0
176
     1
 76
     1
176
     1
 77
     6
176
     1
 78
     2
176
     1
 67
     7
176
     1
 79
     5
176
     1
170
     0
176
     1
171
     0
176
     1
290
     0
176
     1
 93
        1
176
     1
 44
0.0
176
     1
173
     0
176
     1
  0
VISUALSTYLE
  5
36
102
{ACAD_REACTORS
330
2A
102
}
330
2A
100
AcDbVisualStyle
  2
Brighten
 70
    12
177
     2
291
     1
 71
     2
176
     1
 72
     2
176
     1
 73
     0
176
     1
 90
        0
176
     1
 40
-0.6
176
     1
 41
-30.0
176
     1
 62
     5
 63
     7
421
 16777215
176
     1
 74
     1
176
     1
 91
        4
176
     1
 64
     7
176
     1
 65
   257
176
     1
 75
     1
176
     1
175
     1
176
     1
 42
1.0
176
     1
 92
        8
176
     1
 66
     7
176
     1
 43
1.0
176
     1
 76
     1
176
     1
 77
     6
176
     1
 78
     2
176
     1
 67
     7
176
     1
 79
     5
176
     1
170
     0
176
     1
171
     0
176
     1
290
     0
176
     1
 93
        1
176
     1
 44
50.0
176
     1
173
     0
176
     1
  0
VISUALSTYLE
  5
3A
102
{ACAD_REACTORS
330
2A
102
}
330
2A
100
AcDbVisualStyle
  2
ColorChange
 70
    16
177
     2
291
     1
 71
     2
176
     1
 72
     2
176
     1
 73
     3
176
     1
 90
        0
176
     1
 40
-0.6
176
     1
 41
-30.0
176
     1
 62
     5
 63
     8
421
  8421504
176
     1
 74
     1
176
     1
 91
        4
176
     1
 64
     7
176
     1
 65
   257
176
     1
 75
     1
176
     1
175
     1
176
     1
 42
1.0
176
     1
 92
        8
176
     1
 66
     8
424
  8421504
176
     1
 43
1.0
176
     1
 76
     1
176
     1
 77
     6
176
     1
 78
     2
176
     1
 67
     7
176
     1
 79
     5
176
     1
170
     0
176
     1
171
     0
176
     1
290
     0
176
     1
 93
        1
176
     1
 44
0.0
176
     1
173
     0
176
     1
  0
VISUALSTYLE
  5
34
102
{ACAD_REACTORS
330
2A
102
}
330
2A
100
AcDbVisualStyle
  2
Conceptual
 70
     9
177
     2
291
     0
 71
     3
176
     1
 72
     2
176
     1
 73
     0
176
     1
 90
        0
176
     1
 40
-0.6
176
     1
 41
-30.0
176
     1
 62
     5
 63
     7
421
 16777215
176
     1
 74
     2
176
     1
 91
        2
176
     1
 64
     7
176
     1
 65
   257
176
     1
 75
     1
176
     1
175
     1
176
     1
 42
40.0
176
     1
 92
        8
176
     1
 66
     7
176
     1
 43
1.0
176
     1
 76
     1
176
     1
 77
     6
176
     1
 78
     2
176
     1
 67
     7
176
     1
 79
     3
176
     1
170
     0
176
     1
171
     0
176
     1
290
     0
176
     1
 93
        1
176
     1
 44
0.0
176
     1
173
     0
176
     1
  0
VISUALSTYLE
  5
35
102
{ACAD_REACTORS
330
2A
102
}
330
2A
100
AcDbVisualStyle
  2
Dim
 70
    11
177
     2
291
     1
 71
     2
176
     1
 72
     2
176
     1
 73
     0
176
     1
 90
        0
176
     1
 40
-0.6
176
     1
 41
-30.0
176
     1
 62
     5
 63
     7
421
 16777215
176
     1
 74
     1
176
     1
 91
        4
176
     1
 64
     7
176
     1
 65
   257
176
     1
 75
     1
176
     1
175
     1
176
     1
 42
1.0
176
     1
 92
        8
176
     1
 66
     7
176
     1
 43
1.0
176
     1
 76
     1
176
     1
 77
     6
176
     1
 78
     2
176
     1
 67
     7
176
     1
 79
     5
176
     1
170
     0
176
     1
171
     0
176
     1
290
     0
176
     1
 93
        1
176
     1
 44
-50.0
176
     1
173
     0
176
     1
  0
VISUALSTYLE
  5
39
102
{ACAD_REACTORS
330
2A
102
}
330
2A
100
AcDbVisualStyle
  2
Facepattern
 70
    15
177
     2
291
     1
 71
     2
176
     1
 72
     2
176
     1
 73
     0
176
     1
 90
        0
176
     1
 40
-0.6
176
     1
 41
-30.0
176
     1
 62
     5
 63
     7
421
 16777215
176
     1
 74
     1
176
     1
 91
        4
176
     1
 64
     7
176
     1
 65
   257
176
     1
 75
     1
176
     1
175
     1
176
     1
 42
1.0
176
     1
 92
        8
176
     1
 66
     7
176
     1
 43
1.0
176
     1
 76
     1
176
     1
 77
     6
176
     1
 78
     2
176
     1
 67
     7
176
     1
 79
     5
176
     1
170
     0
176
     1
171
     0
176
     1
290
     0
176
     1
 93
        1
176
     1
 44
0.0
176
     1
173
     0
176
     1
  0
VISUALSTYLE
  5
2B
102
{ACAD_REACTORS
330
2A
102
}
330
2A
100
AcDbVisualStyle
  2
Flat
 70
     0
177
     2
291
     1
 71
     2
176
     1
 72
     1
176
     1
 73
     1
176
     1
 90
        2
176
     1
 40
-0.6
176
     1
 41
30.0
176
     1
 62
     5
 63
     7
421
 16777215
176
     1
 74
     0
176
     1
 91
        4
176
     1
 64
     7
176
     1
 65
   257
176
     1
 75
     1
176
     1
175
     1
176
     1
 42
1.0
176
     1
 92
        8
176
     1
 66
     7
176
     1
 43
1.0
176
     1
 76
     1
176
     1
 77
     6
176
     1
 78
     2
176
     1
 67
     7
176
     1
 79
     5
176
     1
170
     0
176
     1
171
     0
176
     1
290
     0
176
     1
 93
       13
176
     1
 44
0.0
176
     1
173
     0
176
     1
  0
VISUALSTYLE
  5
2C
102
{ACAD_REACTORS
330
2A
102
}
330
2A
100
AcDbVisualStyle
  2
FlatWithEdges
 70
     1
177
     2
291
     1
 71
     2
176
     1
 72
     1
176
     1
 73
     1
176
     1
 90
        2
176
     1
 40
-0.6
176
     1
 41
30.0
176
     1
 62
     5
 63
     7
421
 16777215
176
     1
 74
     1
176
     1
 91
        4
176
     1
 64
     7
176
     1
 65
   257
176
     1
 75
     1
176
     1
175
     1
176
     1
 42
1.0
176
     1
 92
        0
176
     1
 66
   257
176
     1
 43
1.0
176
     1
 76
     1
176
     1
 77
     6
176
     1
 78
     2
176
     1
 67
     7
176
     1
 79
     5
176
     1
170
     0
176
     1
171
     0
176
     1
290
     0
176
     1
 93
       13
176
     1
 44
0.0
176
     1
173
     0
176
     1
  0
VISUALSTYLE
  5
2D
102
{ACAD_REACTORS
330
2A
102
}
330
2A
100
AcDbVisualStyle
  2
Gouraud
 70
     2
177
     2
291
     1
 71
     2
176
     1
 72
     2
176
     1
 73
     1
176
     1
 90
        2
176
     1
 40
-0.6
176
     1
 41
30.0
176
     1
 62
     5
 63
     7
421
 16777215
176
     1
 74
     0
176
     1
 91
        4
176
     1
 64
     7
176
     1
 65
   257
176
     1
 75
     1
176
     1
175
     1
176
     1
 42
1.0
176
     1
 92
        0
176
     1
 66
     7
176
     1
 43
1.0
176
     1
 76
     1
176
     1
 77
     6
176
     1
 78
     2
176
     1
 67
     7
176
     1
 79
     5
176
     1
170
     0
176
     1
171
     0
176
     1
290
     0
176
     1
 93
       13
176
     1
 44
0.0
176
     1
173
     0
176
     1
  0
VISUALSTYLE
  5
2E
102
{ACAD_REACTORS
330
2A
102
}
330
2A
100
AcDbVisualStyle
  2
GouraudWithEdges
 70
     3
177
     2
291
     1
 71
     2
176
     1
 72
     2
176
     1
 73
     1
176
     1
 90
        2
176
     1
 40
-0.6
176
     1
 41
30.0
176
     1
 62
     5
 63
     7
421
 16777215
176
     1
 74
     1
176
     1
 91
        4
176
     1
 64
     7
176
     1
 65
   257
176
     1
 75
     1
176
     1
175
     1
176
     1
 42
1.0
176
     1
 92
        0
176
     1
 66
   257
176
     1
 43
1.0
176
     1
 76
     1
176
     1
 77
     6
176
     1
 78
     2
176
     1
 67
     7
176
     1
 79
     5
176
     1
170
     0
176
     1
171
     0
176
     1
290
     0
176
     1
 93
       13
176
     1
 44
0.0
176
     1
173
     0
176
     1
  0
VISUALSTYLE
  5
38
102
{ACAD_REACTORS
330
2A
102
}
330
2A
100
AcDbVisualStyle
  2
Linepattern
 70
    14
177
     2
291
     1
 71
     2
176
     1
 72
     2
176
     1
 73
     0
176
     1
 90
        0
176
     1
 40
-0.6
176
     1
 41
-30.0
176
     1
 62
     5
 63
     7
421
 16777215
176
     1
 74
     1
176
     1
 91
        4
176
     1
 64
     7
176
     1
 65
   257
176
     1
 75
     7
176
     1
175
     7
176
     1
 42
1.0
176
     1
 92
        8
176
     1
 66
     7
176
     1
 43
1.0
176
     1
 76
     1
176
     1
 77
     6
176
     1
 78
     2
176
     1
 67
     7
176
     1
 79
     5
176
     1
170
     0
176
     1
171
     0
176
     1
290
     0
176
     1
 93
        1
176
     1
 44
0.0
176
     1
173
     0
176
     1
  0
VISUALSTYLE
  5
33
102
{ACAD_REACTORS
330
2A
102
}
330
2A
100
AcDbVisualStyle
  2
Realistic
 70
     8
177
     2
291
     0
 71
     2
176
     1
 72
     2
176
     1
 73
     0
176
     1
 90
        0
176
     1
 40
-0.6
176
     1
 41
-30.0
176
     1
 62
     5
 63
     7
421
 16777215
176
     1
 74
     1
176
     1
 91
        0
176
     1
 64
     7
176
     1
 65
   257
176
     1
 75
     1
176
     1
175
     1
176
     1
 42
1.0
176
     1
 92
        8
176
     1
 66
     8
424
  7895160
176
     1
 43
1.0
176
     1
 76
     1
176
     1
 77
     6
176
     1
 78
     2
176
     1
 67
     7
176
     1
 79
     5
176
     1
170
     0
176
     1
171
     0
176
     1
290
     0
176
     1
 93
       13
176
     1
 44
0.0
176
     1
173
     0
176
     1
  0
VISUALSTYLE
  5
37
102
{ACAD_REACTORS
330
2A
102
}
330
2A
100
AcDbVisualStyle
  2
Thicken
 70
    13
177
     2
291
     1
 71
     2
176
     1
 72
     2
176
     1
 73
     0
176
     1
 90
        0
176
     1
 40
-0.6
176
     1
 41
-30.0
176
     1
 62
     5
 63
     7
421
 16777215
176
     1
 74
     1
176
     1
 91
        4
176
     1
 64
     7
176
     1
 65
   257
176
     1
 75
     1
176
     1
175
     1
176
     1
 42
1.0
176
     1
 92
       12
176
     1
 66
     7
176
     1
 43
1.0
176
     1
 76
     1
176
     1
 77
     6
176
     1
 78
     2
176
     1
 67
     7
176
     1
 79
     5
176
     1
170
     0
176
     1
171
     0
176
     1
290
     0
176
     1
 93
        1
176
     1
 44
0.0
176
     1
173
     0
176
     1
  0
ENDSEC
  0
EOF
