  0
SECTION
  2
HEADER
  9
$ACADVER
  1
AC1015
  9
$ACADMAINTVER
 70
     6
  9
$DWGCODEPAGE
  3
ANSI_1252
  9
$INSBASE
 10
0.0
 20
0.0
 30
0.0
  9
$EXTMIN
 10
0.0
 20
0.0
 30
0.0
  9
$EXTMAX
 10
1189.0
 20
2500.0
 30
0.0
  9
$LIMMIN
 10
0.0
 20
0.0
  9
$LIMMAX
 10
1189.0
 20
2500.0
  9
$ORTHOMODE
 70
     0
  9
$REGENMODE
 70
     1
  9
$FILLMODE
 70
     1
  9
$QTEXTMODE
 70
     0
  9
$MIRRTEXT
 70
     1
  9
$LTSCALE
 40
1.0
  9
$ATTMODE
 70
     1
  9
$TEXTSIZE
 40
10.0
  9
$TRACEWID
 40
1.0
  9
$TEXTSTYLE
  7
Standard
  9
$CLAYER
  8
0
  9
$CELTYPE
  6
ByLayer
  9
$CECOLOR
 62
   256
  9
$CELTSCALE
 40
1.0
  9
$DISPSILH
 70
     0
  9
$DIMSCALE
 40
1.0
  9
$DIMASZ
 40
2.5
  9
$DIMEXO
 40
0.0
  9
$DIMDLI
 40
3.75
  9
$DIMRND
 40
0.0
  9
$DIMDLE
 40
0.0
  9
$DIMEXE
 40
1.0
  9
$DIMTP
 40
0.0
  9
$DIMTM
 40
0.0
  9
$DIMTXT
 40
3.5
  9
$DIMCEN
 40
2.5
  9
$DIMTSZ
 40
0.0
  9
$DIMTOL
 70
     0
  9
$DIMLIM
 70
     0
  9
$DIMTIH
 70
     1
  9
$DIMTOH
 70
     1
  9
$DIMSE1
 70
     0
  9
$DIMSE2
 70
     0
  9
$DIMTAD
 70
     1
  9
$DIMZIN
 70
     0
  9
$DIMBLK
  1

  9
$DIMASO
 70
     1
  9
$DIMSHO
 70
     1
  9
$DIMPOST
  1

  9
$DIMAPOST
  1

  9
$DIMALT
 70
     0
  9
$DIMALTD
 70
     3
  9
$DIMALTF
 40
0.0393700787
  9
$DIMLFAC
 40
1.0
  9
$DIMTOFL
 70
     1
  9
$DIMTVP
 40
0.0
  9
$DIMTIX
 70
     0
  9
$DIMSOXD
 70
     0
  9
$DIMSAH
 70
     0
  9
$DIMBLK1
  1

  9
$DIMBLK2
  1

  9
$DIMSTYLE
  2
ISO-25
  9
$DIMCLRD
 70
     0
  9
$DIMCLRE
 70
     0
  9
$DIMCLRT
 70
     0
  9
$DIMTFAC
 40
1.0
  9
$DIMGAP
 40
1.5
  9
$DIMJUST
 70
     0
  9
$DIMSD1
 70
     0
  9
$DIMSD2
 70
     0
  9
$DIMTOLJ
 70
     0
  9
$DIMTZIN
 70
     0
  9
$DIMALTZ
 70
     0
  9
$DIMALTTZ
 70
     0
  9
$DIMUPT
 70
     0
  9
$DIMDEC
 70
     2
  9
$DIMTDEC
 70
     2
  9
$DIMALTU
 70
     2
  9
$DIMALTTD
 70
     3
  9
$DIMTXSTY
  7
Standard
  9
$DIMAUNIT
 70
     0
  9
$DIMADEC
 70
     2
  9
$DIMALTRND
 40
0.0
  9
$DIMAZIN
 70
     0
  9
$DIMDSEP
 70
    44
  9
$DIMATFIT
 70
     3
  9
$DIMFRAC
 70
     0
  9
$DIMLDRBLK
  1

  9
$DIMLUNIT
 70
     2
  9
$DIMLWD
 70
    -2
  9
$DIMLWE
 70
    -2
  9
$DIMTMOVE
 70
     0
  9
$LUNITS
 70
     2
  9
$LUPREC
 70
     2
  9
$SKETCHINC
 40
1.0
  9
$FILLETRAD
 40
10.0
  9
$AUNITS
 70
     0
  9
$AUPREC
 70
     2
  9
$MENU
  1
.
  9
$ELEVATION
 40
0.0
  9
$PELEVATION
 40
0.0
  9
$THICKNESS
 40
0.0
  9
$LIMCHECK
 70
     0
  9
$CHAMFERA
 40
0.0
  9
$CHAMFERB
 40
0.0
  9
$CHAMFERC
 40
0.0
  9
$CHAMFERD
 40
0.0
  9
$SKPOLY
 70
     0
  9
$TDCREATE
 40
2458915.245696736
  9
$TDUCREATE
 40
2458915.20403007
  9
$TDUPDATE
 40
2458915.245699444
  9
$TDUUPDATE
 40
2458915.204032778
  9
$TDINDWG
 40
0.0000000116
  9
$TDUSRTIMER
 40
0.0000000116
  9
$USRTIMER
 70
     1
  9
$ANGBASE
 50
0.0
  9
$ANGDIR
 70
     0
  9
$PDMODE
 70
     0
  9
$PDSIZE
 40
-1.0
  9
$PLINEWID
 40
0.0
  9
$SPLFRAME
 70
     0
  9
$SPLINETYPE
 70
     6
  9
$SPLINESEGS
 70
     8
  9
$HANDSEED
  5
2D9
  9
$SURFTAB1
 70
     6
  9
$SURFTAB2
 70
     6
  9
$SURFTYPE
 70
     6
  9
$SURFU
 70
     6
  9
$SURFV
 70
     6
  9
$UCSBASE
  2

  9
$UCSNAME
  2

  9
$UCSORG
 10
0.0
 20
0.0
 30
0.0
  9
$UCSXDIR
 10
1.0
 20
0.0
 30
0.0
  9
$UCSYDIR
 10
0.0
 20
1.0
 30
0.0
  9
$UCSORTHOREF
  2

  9
$UCSORTHOVIEW
 70
     0
  9
$UCSORGTOP
 10
0.0
 20
0.0
 30
0.0
  9
$UCSORGBOTTOM
 10
0.0
 20
0.0
 30
0.0
  9
$UCSORGLEFT
 10
0.0
 20
0.0
 30
0.0
  9
$UCSORGRIGHT
 10
0.0
 20
0.0
 30
0.0
  9
$UCSORGFRONT
 10
0.0
 20
0.0
 30
0.0
  9
$UCSORGBACK
 10
0.0
 20
0.0
 30
0.0
  9
$PUCSBASE
  2

  9
$PUCSNAME
  2

  9
$PUCSORG
 10
0.0
 20
0.0
 30
0.0
  9
$PUCSXDIR
 10
1.0
 20
0.0
 30
0.0
  9
$PUCSYDIR
 10
0.0
 20
1.0
 30
0.0
  9
$PUCSORTHOREF
  2

  9
$PUCSORTHOVIEW
 70
     0
  9
$PUCSORGTOP
 10
0.0
 20
0.0
 30
0.0
  9
$PUCSORGBOTTOM
 10
0.0
 20
0.0
 30
0.0
  9
$PUCSORGLEFT
 10
0.0
 20
0.0
 30
0.0
  9
$PUCSORGRIGHT
 10
0.0
 20
0.0
 30
0.0
  9
$PUCSORGFRONT
 10
0.0
 20
0.0
 30
0.0
  9
$PUCSORGBACK
 10
0.0
 20
0.0
 30
0.0
  9
$USERI1
 70
     0
  9
$USERI2
 70
     0
  9
$USERI3
 70
     0
  9
$USERI4
 70
     0
  9
$USERI5
 70
     0
  9
$USERR1
 40
0.0
  9
$USERR2
 40
0.0
  9
$USERR3
 40
0.0
  9
$USERR4
 40
0.0
  9
$USERR5
 40
0.0
  9
$WORLDVIEW
 70
     1
  9
$SHADEDGE
 70
     3
  9
$SHADEDIF
 70
    70
  9
$TILEMODE
 70
     1
  9
$MAXACTVP
 70
    64
  9
$PINSBASE
 10
0.0
 20
0.0
 30
0.0
  9
$PLIMCHECK
 70
     0
  9
$PEXTMIN
 10
1.0000000000E+20
 20
1.0000000000E+20
 30
1.0000000000E+20
  9
$PEXTMAX
 10
-1.0000000000E+20
 20
-1.0000000000E+20
 30
-1.0000000000E+20
  9
$PLIMMIN
 10
0.0
 20
0.0
  9
$PLIMMAX
 10
420.0
 20
297.0
  9
$UNITMODE
 70
     0
  9
$VISRETAIN
 70
     1
  9
$PLINEGEN
 70
     0
  9
$PSLTSCALE
 70
     1
  9
$TREEDEPTH
 70
  3020
  9
$CMLSTYLE
  2
Standard
  9
$CMLJUST
 70
     0
  9
$CMLSCALE
 40
20.0
  9
$PROXYGRAPHICS
 70
     1
  9
$MEASUREMENT
 70
     1
  9
$CELWEIGHT
370
    -1
  9
$ENDCAPS
280
     0
  9
$JOINSTYLE
280
     0
  9
$LWDISPLAY
290
     1
  9
$INSUNITS
 70
     4
  9
$HYPERLINKBASE
  1

  9
$STYLESHEET
  1

  9
$XEDIT
290
     1
  9
$CEPSNTYPE
380
     0
  9
$PSTYLEMODE
290
     1
  9
$FINGERPRINTGUID
  2
{1ba98daf-a3b4-4184-b913-1dde57eff312}
  9
$VERSIONGUID
  2
{FAEB1C32-E019-11D5-929B-00C0DF256EC4}
  9
$EXTNAMES
290
     1
  9
$PSVPSCALE
 40
0.0
  9
$OLESTARTUP
290
     0
  0
ENDSEC
  0
SECTION
  2
CLASSES
  0
CLASS
  1
ACDBDICTIONARYWDFLT
  2
AcDbDictionaryWithDefault
  3
ObjectDBX Classes
 90
        0
280
     0
281
     0
  0
CLASS
  1
VISUALSTYLE
  2
AcDbVisualStyle
  3
ObjectDBX Classes
 90
     4095
280
     0
281
     0
  0
CLASS
  1
MATERIAL
  2
AcDbMaterial
  3
ObjectDBX Classes
 90
     1153
280
     0
281
     0
  0
CLASS
  1
SCALE
  2
AcDbScale
  3
ObjectDBX Classes
 90
     1153
280
     0
281
     0
  0
CLASS
  1
TABLESTYLE
  2
AcDbTableStyle
  3
ObjectDBX Classes
 90
     4095
280
     0
281
     0
  0
CLASS
  1
MLEADERSTYLE
  2
AcDbMLeaderStyle
  3
ACDB_MLEADERSTYLE_CLASS
 90
     4095
280
     0
281
     0
  0
CLASS
  1
SUN
  2
AcDbSun
  3
SCENEOE
 90
     1153
280
     0
281
     0
  0
CLASS
  1
ACDBPLACEHOLDER
  2
AcDbPlaceHolder
  3
ObjectDBX Classes
 90
        0
280
     0
281
     0
  0
CLASS
  1
LAYOUT
  2
AcDbLayout
  3
ObjectDBX Classes
 90
        0
280
     0
281
     0
  0
ENDSEC
  0
SECTION
  2
TABLES
  0
TABLE
  2
VPORT
  5
8
330
0
100
AcDbSymbolTable
 70
     1
  0
VPORT
  5
29
330
8
100
AcDbSymbolTableRecord
100
AcDbViewportTableRecord
  2
*Active
 70
     0
 10
0.0
 20
0.0
 11
1.0
 21
1.0
 12
594.5
 22
1250.0
 13
0.0
 23
0.0
 14
10.0
 24
10.0
 15
10.0
 25
10.0
 16
0.0
 26
0.0
 36
1.0
 17
0.0
 27
0.0
 37
0.0
 40
2500.0
 41
0.4756
 42
50.0
 43
0.0
 44
0.0
 50
0.0
 51
0.0
 71
     0
 72
  2000
 73
     1
 74
     3
 75
     0
 76
     0
 77
     0
 78
     0
281
     0
 65
     1
110
0.0
120
0.0
130
0.0
111
1.0
121
0.0
131
0.0
112
0.0
122
1.0
132
0.0
 79
     0
146
0.0
  0
ENDTAB
  0
TABLE
  2
LTYPE
  5
5
330
0
100
AcDbSymbolTable
 70
     6
  0
LTYPE
  5
14
330
5
100
AcDbSymbolTableRecord
100
AcDbLinetypeTableRecord
  2
ByBlock
 70
     0
  3

 72
    65
 73
     0
 40
0.0
  0
LTYPE
  5
15
330
5
100
AcDbSymbolTableRecord
100
AcDbLinetypeTableRecord
  2
ByLayer
 70
     0
  3

 72
    65
 73
     0
 40
0.0
  0
LTYPE
  5
16
330
5
100
AcDbSymbolTableRecord
100
AcDbLinetypeTableRecord
  2
Continuous
 70
     0
  3
Solid line
 72
    65
 73
     0
 40
0.0
  0
LTYPE
  5
6E
330
5
100
AcDbSymbolTableRecord
100
AcDbLinetypeTableRecord
  2
HIDDEN
 70
     0
  3
Hidden __ __ __ __ __ __ __ __ __ __ __ __ __ __
 72
    65
 73
     2
 40
1.905
 49
1.27
 74
     0
 49
-0.635
 74
     0
  0
LTYPE
  5
6F
330
5
100
AcDbSymbolTableRecord
100
AcDbLinetypeTableRecord
  2
PHANTOM
 70
     0
  3
Phantom ______  __  __  ______  __  __  ______
 72
    65
 73
     6
 40
12.7
 49
6.35
 74
     0
 49
-1.27
 74
     0
 49
1.27
 74
     0
 49
-1.27
 74
     0
 49
1.27
 74
     0
 49
-1.27
 74
     0
  0
LTYPE
  5
70
330
5
100
AcDbSymbolTableRecord
100
AcDbLinetypeTableRecord
  2
CENTER
 70
     0
  3
Center ____ _ ____ _ ____ _ ____ _ ____ _ ____
 72
    65
 73
     4
 40
10.16
 49
6.35
 74
     0
 49
-1.27
 74
     0
 49
1.27
 74
     0
 49
-1.27
 74
     0
  0
LTYPE
  5
71
330
5
100
AcDbSymbolTableRecord
100
AcDbLinetypeTableRecord
  2
CENTERX2
 70
     0
  3
Center (2x) ________  __  ________  __  _____
 72
    65
 73
     4
 40
20.32
 49
12.7
 74
     0
 49
-2.54
 74
     0
 49
2.54
 74
     0
 49
-2.54
 74
     0
  0
LTYPE
  5
72
330
5
100
AcDbSymbolTableRecord
100
AcDbLinetypeTableRecord
  2
DOT2
 70
     0
  3
Dot (.5x) ........................................
 72
    65
 73
     2
 40
0.635
 49
0.0
 74
     0
 49
-0.635
 74
     0
  0
ENDTAB
  0
TABLE
  2
LAYER
  5
2
330
0
100
AcDbSymbolTable
 70
     1
  0
LAYER
  5
10
330
2
100
AcDbSymbolTableRecord
100
AcDbLayerTableRecord
  2
0
 70
     0
 62
     7
  6
Continuous
370
    -3
390
F
  0
ENDTAB
  0
TABLE
  2
STYLE
  5
3
330
0
100
AcDbSymbolTable
 70
     3
  0
STYLE
  5
11
330
3
100
AcDbSymbolTableRecord
100
AcDbTextStyleTableRecord
  2
Standard
 70
     0
 40
0.0
 41
1.0
 50
0.0
 71
     0
 42
10.0
  3
txt
  4

  0
STYLE
  5
76
330
3
100
AcDbSymbolTableRecord
100
AcDbTextStyleTableRecord
  2
SLDTEXTSTYLE0
 70
     0
 40
0.0
 41
0.96
 50
0.0
 71
     0
 42
10.0
  3
ISOCP3
  4

  0
STYLE
  5
8D
330
3
100
AcDbSymbolTableRecord
100
AcDbTextStyleTableRecord
  2
SLDTEXTSTYLE1
 70
     0
 40
0.0
 41
0.605
 50
0.0
 71
     0
 42
10.0
  3
TXT
  4

  0
ENDTAB
  0
TABLE
  2
VIEW
  5
6
330
0
100
AcDbSymbolTable
 70
     0
  0
ENDTAB
  0
TABLE
  2
UCS
  5
7
330
0
100
AcDbSymbolTable
 70
     0
  0
ENDTAB
  0
TABLE
  2
APPID
  5
9
330
0
100
AcDbSymbolTable
 70
     1
  0
APPID
  5
12
330
9
100
AcDbSymbolTableRecord
100
AcDbRegAppTableRecord
  2
ACAD
 70
     0
  0
ENDTAB
  0
TABLE
  2
DIMSTYLE
  5
A
330
0
100
AcDbSymbolTable
 70
     2
100
AcDbDimStyleTable
  0
DIMSTYLE
105
27
330
A
100
AcDbSymbolTableRecord
100
AcDbDimStyleTableRecord
  2
ISO-25
 70
     0
 41
2.5
 42
0.625
 43
3.75
 44
1.25
 73
     0
 74
     0
 77
     1
 78
     8
140
2.5
141
2.5
143
0.0393700787
147
0.625
171
     3
172
     1
178
     0
271
     2
272
     2
274
     3
278
    44
283
     0
284
     8
340
11
  0
DIMSTYLE
105
77
102
{ACAD_REACTORS
330
75
330
82
102
}
330
A
100
AcDbSymbolTableRecord
100
AcDbDimStyleTableRecord
  2
SLDDIMSTYLE0
 70
     0
 41
2.5
 44
0.0
 45
0.000000001
 73
     0
 74
     0
 77
     1
 78
    12
 79
     3
140
6.0
147
1.5
173
     1
178
     0
271
     2
272
     2
276
     2
284
    12
340
76
  0
ENDTAB
  0
TABLE
  2
BLOCK_RECORD
  5
1
330
0
100
AcDbSymbolTable
 70
     3
  0
BLOCK_RECORD
  5
1F
330
1
100
AcDbSymbolTableRecord
100
AcDbBlockTableRecord
  2
*Model_Space
340
22
  0
BLOCK_RECORD
  5
1B
330
1
100
AcDbSymbolTableRecord
100
AcDbBlockTableRecord
  2
*Paper_Space
340
1E
  0
BLOCK_RECORD
  5
23
330
1
100
AcDbSymbolTableRecord
100
AcDbBlockTableRecord
  2
*Paper_Space0
340
26
  0
BLOCK_RECORD
  5
78
330
1
100
AcDbSymbolTableRecord
100
AcDbBlockTableRecord
  2
_D
340
0
  0
BLOCK_RECORD
  5
83
330
1
100
AcDbSymbolTableRecord
100
AcDbBlockTableRecord
  2
_D_1
340
0
  0
ENDTAB
  0
ENDSEC
  0
SECTION
  2
BLOCKS
  0
BLOCK
  5
20
330
1F
100
AcDbEntity
  8
0
100
AcDbBlockBegin
  2
*Model_Space
 70
     0
 10
0.0
 20
0.0
 30
0.0
  3
*Model_Space
  1

  0
ENDBLK
  5
21
330
1F
100
AcDbEntity
  8
0
100
AcDbBlockEnd
  0
BLOCK
  5
1C
330
1B
100
AcDbEntity
 67
     1
  8
0
100
AcDbBlockBegin
  2
*Paper_Space
 70
     0
 10
0.0
 20
0.0
 30
0.0
  3
*Paper_Space
  1

  0
ENDBLK
  5
1D
330
1B
100
AcDbEntity
 67
     1
  8
0
100
AcDbBlockEnd
  0
BLOCK
  5
24
330
23
100
AcDbEntity
  8
0
100
AcDbBlockBegin
  2
*Paper_Space0
 70
     0
 10
0.0
 20
0.0
 30
0.0
  3
*Paper_Space0
  1

  0
ENDBLK
  5
25
330
23
100
AcDbEntity
  8
0
100
AcDbBlockEnd
  0
BLOCK
  5
79
330
78
100
AcDbEntity
  8
0
100
AcDbBlockBegin
  2
_D
 70
     0
 10
0.0
 20
0.0
 30
0.0
  3
_D
  1

  0
SOLID
  5
7B
330
78
100
AcDbEntity
  8
0
  6
Continuous
 62
     7
370
    18
100
AcDbTrace
 10
42.7614395004
 20
152.0299240879
 30
0.0
 11
42.4614395004
 21
149.5299240879
 31
0.0
 12
43.0614395004
 22
149.5299240879
 32
0.0
 13
43.0614395004
 23
149.5299240879
 33
0.0
  0
SOLID
  5
7C
330
78
100
AcDbEntity
  8
0
  6
Continuous
 62
     7
370
    18
100
AcDbTrace
 10
42.7614395004
 20
52.0299240879
 30
0.0
 11
43.0614395004
 21
54.5299240879
 31
0.0
 12
42.4614395004
 22
54.5299240879
 32
0.0
 13
42.4614395004
 23
54.5299240879
 33
0.0
  0
LINE
  5
7D
330
78
100
AcDbEntity
  8
0
  6
Continuous
 62
     7
370
     0
100
AcDbLine
 10
56.6850079902
 20
152.0299240879
 30
0.0
 11
41.7614395004
 21
152.0299240879
 31
0.0
  0
LINE
  5
7E
330
78
100
AcDbEntity
  8
0
  6
Continuous
 62
     7
370
     0
100
AcDbLine
 10
56.6850079902
 20
52.0299240879
 30
0.0
 11
41.7614395004
 21
52.0299240879
 31
0.0
  0
LINE
  5
7F
330
78
100
AcDbEntity
  8
0
  6
Continuous
 62
     7
370
     0
100
AcDbLine
 10
42.7614395004
 20
152.0299240879
 30
0.0
 11
42.7614395004
 21
52.0299240879
 31
0.0
  0
MTEXT
  5
80
330
78
100
AcDbEntity
  8
0
  6
Continuous
 62
     7
370
    18
100
AcDbMText
 10
35.0270332946
 20
94.3680541463
 30
0.0
 40
6.0
 41
0.0
 71
     1
 72
     1
  1
100
  7
SLDTEXTSTYLE0
 11
-7.044195017643634E-15
 21
1.0
 31
0.0
 73
     1
 44
1.0
  0
MTEXT
  5
81
330
78
100
AcDbEntity
  8
0
  6
Continuous
 62
     7
370
    18
100
AcDbMText
 10
35.0270332946
 20
105.7430548466
 30
0.0
 40
6.0
 41
0.0
 71
     1
 72
     1
  1
mm
  7
SLDTEXTSTYLE0
 11
-7.044195017643634E-15
 21
1.0
 31
0.0
 73
     1
 44
1.0
  0
ENDBLK
  5
7A
330
78
100
AcDbEntity
  8
0
100
AcDbBlockEnd
  0
BLOCK
  5
84
330
83
100
AcDbEntity
  8
0
100
AcDbBlockBegin
  2
_D_1
 70
     0
 10
0.0
 20
0.0
 30
0.0
  3
_D_1
  1

  0
SOLID
  5
86
330
83
100
AcDbEntity
  8
0
  6
Continuous
 62
     7
370
    18
100
AcDbTrace
 10
56.6850079902
 20
38.4602342313
 30
0.0
 11
59.1850079902
 21
38.1602342313
 31
0.0
 12
59.1850079902
 22
38.7602342313
 32
0.0
 13
59.1850079902
 23
38.7602342313
 33
0.0
  0
SOLID
  5
87
330
83
100
AcDbEntity
  8
0
  6
Continuous
 62
     7
370
    18
100
AcDbTrace
 10
156.6850079902
 20
38.4602342313
 30
0.0
 11
154.1850079902
 21
38.7602342313
 31
0.0
 12
154.1850079902
 22
38.1602342313
 32
0.0
 13
154.1850079902
 23
38.1602342313
 33
0.0
  0
LINE
  5
88
330
83
100
AcDbEntity
  8
0
  6
Continuous
 62
     7
370
     0
100
AcDbLine
 10
56.6850079902
 20
52.0299240879
 30
0.0
 11
56.6850079902
 21
37.4602342313
 31
0.0
  0
LINE
  5
89
330
83
100
AcDbEntity
  8
0
  6
Continuous
 62
     7
370
     0
100
AcDbLine
 10
156.6850079902
 20
52.0299240879
 30
0.0
 11
156.6850079902
 21
37.4602342313
 31
0.0
  0
LINE
  5
8A
330
83
100
AcDbEntity
  8
0
  6
Continuous
 62
     7
370
     0
100
AcDbLine
 10
56.6850079902
 20
38.4602342313
 30
0.0
 11
156.6850079902
 21
38.4602342313
 31
0.0
  0
MTEXT
  5
8B
330
83
100
AcDbEntity
  8
0
  6
Continuous
 62
     7
370
    18
100
AcDbMText
 10
93.9626484861
 20
46.1946404371
 30
0.0
 40
6.0
 41
0.0
 71
     1
 72
     1
  1
100
  7
SLDTEXTSTYLE0
 73
     1
 44
1.0
  0
MTEXT
  5
8C
330
83
100
AcDbEntity
  8
0
  6
Continuous
 62
     7
370
    18
100
AcDbMText
 10
105.3376491864
 20
46.1946404371
 30
0.0
 40
6.0
 41
0.0
 71
     1
 72
     1
  1
mm
  7
SLDTEXTSTYLE0
 73
     1
 44
1.0
  0
ENDBLK
  5
85
330
83
100
AcDbEntity
  8
0
100
AcDbBlockEnd
  0
ENDSEC
  0
SECTION
  2
ENTITIES
  0
LINE
  5
73
330
1F
100
AcDbEntity
  8
0
  6
Continuous
 62
     7
370
    18
100
AcDbLine
 10
56.6850079902
 20
152.0299240879
 30
0.0
 11
56.6850079902
 21
52.0299240879
 31
0.0
  0
LINE
  5
74
330
1F
100
AcDbEntity
  8
0
  6
Continuous
 62
     7
370
    18
100
AcDbLine
 10
56.6850079902
 20
52.0299240879
 30
0.0
 11
156.6850079902
 21
52.0299240879
 31
0.0
  0
DIMENSION
  5
75
330
1F
100
AcDbEntity
  8
0
  6
Continuous
 62
     7
370
    18
100
AcDbDimension
  2
_D
 10
42.7614395004
 20
52.0299240879
 30
0.0
 11
42.7614395004
 21
105.4472211621
 31
0.0
 70
   160
  1
<>mm
 71
     2
 42
-1.0
  3
SLDDIMSTYLE0
100
AcDbAlignedDimension
 13
56.6850079902
 23
152.0299240879
 33
0.0
 14
56.6850079902
 24
52.0299240879
 34
0.0
 50
90.0
100
AcDbRotatedDimension
  0
DIMENSION
  5
82
330
1F
100
AcDbEntity
  8
0
  6
Continuous
 62
     7
370
    18
100
AcDbDimension
  2
_D_1
 10
156.6850079902
 20
38.4602342313
 30
0.0
 11
105.0418155019
 21
38.4602342313
 31
0.0
 70
   160
  1
<>mm
 71
     2
 42
-1.0
  3
SLDDIMSTYLE0
100
AcDbAlignedDimension
 13
56.6850079902
 23
52.0299240879
 33
0.0
 14
156.6850079902
 24
52.0299240879
 34
0.0
100
AcDbRotatedDimension
  0
MTEXT
  5
8E
330
1F
100
AcDbEntity
  8
0
  6
Continuous
 62
     7
370
     0
100
AcDbMText
 10
988.9330794029
 20
51.742397355
 30
0.0
 40
10.0
 41
0.0
 71
     1
 72
     1
  1
KLUDI GmbH & Co KG
  7
SLDTEXTSTYLE1
 73
     1
 44
1.0
  0
MTEXT
  5
8F
330
1F
100
AcDbEntity
  8
0
  6
Continuous
 62
     7
370
     0
100
AcDbMText
 10
497.9908128619
 20
51.742397355
 30
0.0
 40
10.0
 41
0.0
 71
     1
 72
     1
  1
48 590 05 65
  7
SLDTEXTSTYLE1
 73
     1
 44
1.0
  0
ARC
  5
90
330
1F
100
AcDbEntity
  8
0
  6
Continuous
 62
     7
370
    25
100
AcDbCircle
 10
258.9904376648
 20
335.7717204419
 30
0.0
 40
25.00000000000004
100
AcDbArc
 50
153.9339380419
 51
173.5843407791
  0
ARC
  5
91
330
1F
100
AcDbEntity
  8
0
  6
Continuous
 62
     7
370
    25
100
AcDbCircle
 10
359.3035668131
 20
335.7717204419
 30
0.0
 40
24.99999999999997
100
AcDbArc
 50
6.4156592209
 51
26.0660619581
  0
ARC
  5
92
330
1F
100
AcDbEntity
  8
0
  6
Continuous
 62
     7
370
    25
100
AcDbCircle
 10
380.4133349923
 20
346.0977887846
 30
0.0
 40
1.500000000000028
100
AcDbArc
 50
26.0660619582
 51
87.956404312
  0
ARC
  5
93
330
1F
100
AcDbEntity
  8
0
  6
Continuous
 62
     7
370
    25
100
AcDbCircle
 10
237.8806694856
 20
346.0977887846
 30
0.0
 40
1.50000000000003
100
AcDbArc
 50
92.043595688
 51
153.9339380418
  0
ARC
  5
94
330
1F
100
AcDbEntity
  8
0
  6
Continuous
 62
     7
370
    25
100
AcDbCircle
 10
309.147002239
 20
-1651.1311314486
 30
0.0
 40
1999.999999999999
100
AcDbArc
 50
90.7448661151
 51
92.0435956881
  0
ARC
  5
95
330
1F
100
AcDbEntity
  8
0
  6
Continuous
 62
     7
370
    25
100
AcDbCircle
 10
309.147002239
 20
-1651.1311314486
 30
0.0
 40
1999.999999999999
100
AcDbArc
 50
87.9564043119
 51
89.2551338849
  0
LINE
  5
96
330
1F
100
AcDbEntity
  8
0
  6
Continuous
 62
     7
370
    25
100
AcDbLine
 10
283.1470017025
 20
1034.2073984059
 30
0.0
 11
283.1470017025
 21
348.6998689907
 31
0.0
  0
LINE
  5
97
330
1F
100
AcDbEntity
  8
0
  6
Continuous
 62
     7
370
    25
100
AcDbLine
 10
335.1470027754
 20
348.6998689907
 30
0.0
 11
335.1470027754
 21
1034.2073984059
 31
0.0
  0
LINE
  5
98
330
1F
100
AcDbEntity
  8
0
  6
Continuous
 62
     7
370
    25
100
AcDbLine
 10
283.1470017025
 20
1035.7073986517
 30
0.0
 11
283.1470017025
 21
1034.2073984059
 31
0.0
  0
LINE
  5
99
330
1F
100
AcDbEntity
  8
0
  6
Continuous
 62
     7
370
    25
100
AcDbLine
 10
335.1470027754
 20
1034.2073984059
 30
0.0
 11
335.1470027754
 21
1035.7073986517
 31
0.0
  0
LINE
  5
9A
330
1F
100
AcDbEntity
  8
0
  6
Continuous
 62
     7
370
    25
100
AcDbLine
 10
335.1470027754
 20
1035.7073986517
 30
0.0
 11
335.1470027754
 21
1066.9573986517
 31
0.0
  0
LINE
  5
9B
330
1F
100
AcDbEntity
  8
0
  6
Continuous
 62
     7
370
    25
100
AcDbLine
 10
283.1470017025
 20
1039.3526082473
 30
0.0
 11
283.1470017025
 21
1035.7073986517
 31
0.0
  0
LINE
  5
9C
330
1F
100
AcDbEntity
  8
0
  6
Continuous
 62
     7
370
    25
100
AcDbLine
 10
283.1470017025
 20
1066.9573986517
 30
0.0
 11
283.1470017025
 21
1063.2010468828
 31
0.0
  0
LINE
  5
9D
330
1F
100
AcDbEntity
  8
0
  6
Continuous
 62
     7
370
    25
100
AcDbLine
 10
333.1338298211
 20
1167.5620017188
 30
0.0
 11
333.1214413682
 21
1168.2717738288
 31
0.0
  0
LINE
  5
9E
330
1F
100
AcDbEntity
  8
0
  6
Continuous
 62
     7
370
    25
100
AcDbLine
 10
285.1725631097
 20
1168.2717738288
 30
0.0
 11
285.1560451725
 21
1167.3254979389
 31
0.0
  0
SPLINE
  5
9F
330
1F
100
AcDbEntity
  8
0
  6
Continuous
 62
     7
370
    25
100
AcDbSpline
210
0.0
220
0.0
230
1.0
 70
     8
 71
     3
 72
     9
 73
     5
 74
     0
 42
0.000000001
 43
0.00000001
 40
0.0
 40
0.0
 40
0.0
 40
0.0
 40
0.0917834003182906
 40
1.0
 40
1.0
 40
1.0
 40
1.0
 10
527.7086068579893
 20
1167.380796148074
 30
0.0
 10
527.509698485661
 20
1167.381847416315
 30
0.0
 10
525.3425487435672
 20
1167.393301211197
 30
0.0
 10
523.1745936798953
 20
1167.391226369599
 30
0.0
 10
521.2056209037046
 20
1167.389341964019
 30
0.0
  0
LWPOLYLINE
  5
A0
330
1F
100
AcDbEntity
  8
0
  6
Continuous
 62
     7
370
    25
100
AcDbPolyline
 90
        9
 70
   128
 43
0.0
 10
285.1560451725
 20
1167.3254979389
 10
285.1236649493
 20
1167.3248124855
 10
285.091284726
 20
1167.3241195815
 10
285.0589045027
 20
1167.3234266775
 10
285.0265242794
 20
1167.3227337735
 10
284.9941440562
 20
1167.3220408695
 10
284.9617638329
 20
1167.3213479655
 10
284.929381747
 20
1167.3206476109
 10
284.8970015237
 20
1167.3199547069
  0
SPLINE
  5
A1
330
1F
100
AcDbEntity
  8
0
  6
Continuous
 62
     7
370
    25
100
AcDbSpline
210
0.0
220
0.0
230
1.0
 70
     8
 71
     3
 72
    15
 73
    11
 74
     0
 42
0.000000001
 43
0.00000001
 40
0.0
 40
0.0
 40
0.0
 40
0.0
 40
0.0868650764172074
 40
0.1896073791536768
 40
0.2919792618091315
 40
0.3943588518712782
 40
0.497089791261788
 40
0.6684216578184896
 40
0.8394609777402976
 40
1.0
 40
1.0
 40
1.0
 40
1.0
 10
396.6097999999265
 20
1203.64299543072
 30
0.0
 10
393.4625456122326
 20
1203.694498496083
 30
0.0
 10
386.5927806779979
 20
1203.80691837349
 30
0.0
 10
375.9539042484619
 20
1203.809269852238
 30
0.0
 10
364.6510721172741
 20
1203.878015019455
 30
0.0
 10
353.2703669643497
 20
1203.892440277701
 30
0.0
 10
339.346790384077
 20
1203.911324201188
 30
0.0
 10
322.8857634107089
 20
1204.057439957502
 30
0.0
 10
304.2780953838718
 20
1204.063427039149
 30
0.0
 10
292.0155211036335
 20
1203.779857890864
 30
0.0
 10
286.0783972481231
 20
1203.642563297045
 30
0.0
  0
ARC
  5
A2
330
1F
100
AcDbEntity
  8
0
  6
Continuous
 62
     7
370
    25
100
AcDbCircle
 10
309.1470022389
 20
1164.3073983455
 30
0.0
 40
24.30000000000042
100
AcDbArc
 50
143.1403325283
 51
170.6106272566
  0
ARC
  5
A3
330
1F
100
AcDbEntity
  8
0
  6
Continuous
 62
     7
370
    25
100
AcDbCircle
 10
309.1470022389
 20
1164.3073983455
 30
0.0
 40
24.30000000000045
100
AcDbArc
 50
9.3893727434
 51
17.9774086675
  0
LINE
  5
A4
330
1F
100
AcDbEntity
  8
0
  6
Continuous
 62
     7
370
    25
100
AcDbLine
 10
529.6313334892
 20
1167.3826513426
 30
0.0
 11
527.7450103948
 21
1167.3820254939
 31
0.0
  0
ARC
  5
A5
330
1F
100
AcDbEntity
  8
0
  6
Continuous
 62
     7
370
    25
100
AcDbCircle
 10
209.6314158285
 20
1280.0573983433
 30
0.0
 40
1.00000000061732
100
AcDbArc
 50
90.0000001437
 51
181.8273884281
  0
ARC
  5
A6
330
1F
100
AcDbEntity
  8
0
  6
Continuous
 62
     7
370
    25
100
AcDbCircle
 10
242.6625886455
 20
1280.0573983433
 30
0.0
 40
1.00000000061732
100
AcDbArc
 50
358.1726115719
 51
89.9999998563
  0
LINE
  5
A7
330
1F
100
AcDbEntity
  8
0
  6
Continuous
 62
     7
370
    25
100
AcDbLine
 10
208.631927211
 20
1280.0255132454
 30
0.0
 11
208.9247350285
 21
1270.8478284614
 31
0.0
  0
LINE
  5
A8
330
1F
100
AcDbEntity
  8
0
  6
Continuous
 62
     7
370
    25
100
AcDbLine
 10
243.369268317
 20
1270.8478284614
 30
0.0
 11
243.662083585
 21
1280.0255132454
 31
0.0
  0
ARC
  5
A9
330
1F
100
AcDbEntity
  8
0
  6
Continuous
 62
     7
370
    25
100
AcDbCircle
 10
243.0694210231
 20
1270.8573983348
 30
0.0
 40
0.299999989662183
100
AcDbArc
 50
270.000000356
 51
358.1726138351
  0
ARC
  5
AA
330
1F
100
AcDbEntity
  8
0
  6
Continuous
 62
     7
370
    25
100
AcDbCircle
 10
209.2245834585
 20
1270.8573983348
 30
0.0
 40
0.2999999896621597
100
AcDbArc
 50
181.8273861649
 51
269.999999644
  0
ARC
  5
AB
330
1F
100
AcDbEntity
  8
0
  6
Continuous
 62
     7
370
    25
100
AcDbCircle
 10
242.9577401626
 20
1270.2573983442
 30
0.0
 40
0.2999999793528332
100
AcDbArc
 50
358.010774816
 51
90.0
  0
ARC
  5
AC
330
1F
100
AcDbEntity
  8
0
  6
Continuous
 62
     7
370
    25
100
AcDbCircle
 10
209.3362643187
 20
1270.2573983442
 30
0.0
 40
0.2999999793528332
100
AcDbArc
 50
90.0
 51
182.0290621203
  0
LINE
  5
AD
330
1F
100
AcDbEntity
  8
0
  6
Continuous
 62
     7
370
    25
100
AcDbLine
 10
209.0358455369
 20
1270.2503664034
 30
0.0
 11
211.6557602474
 21
1196.3231278198
 31
0.0
  0
LINE
  5
AE
330
1F
100
AcDbEntity
  8
0
  6
Continuous
 62
     7
370
    25
100
AcDbLine
 10
243.1575898716
 20
1267.4125892656
 30
0.0
 11
243.2581578085
 21
1270.2503664034
 31
0.0
  0
LINE
  5
AF
330
1F
100
AcDbEntity
  8
0
  6
Continuous
 62
     7
370
    25
100
AcDbLine
 10
240.638243098
 20
1196.3231278198
 30
0.0
 11
240.8109326551
 21
1201.1959565418
 31
0.0
  0
ARC
  5
B0
330
1F
100
AcDbEntity
  8
0
  6
Continuous
 62
     7
370
    25
100
AcDbCircle
 10
242.1275356585
 20
1067.207398339
 30
0.0
 40
0.9999999933879735
100
AcDbArc
 50
270.0
 51
1.1129317122
  0
ARC
  5
B1
330
1F
100
AcDbEntity
  8
0
  6
Continuous
 62
     7
370
    25
100
AcDbCircle
 10
210.1664688085
 20
1067.207398339
 30
0.0
 40
0.9999999933879735
100
AcDbArc
 50
178.9317398861
 51
270.0
  0
LINE
  5
B2
330
1F
100
AcDbEntity
  8
0
  6
Continuous
 62
     7
370
    25
100
AcDbLine
 10
243.1273554156
 20
1067.2254258381
 30
0.0
 11
240.6383176038
 21
1196.3256163137
 31
0.0
  0
LINE
  5
B3
330
1F
100
AcDbEntity
  8
0
  6
Continuous
 62
     7
370
    25
100
AcDbLine
 10
211.6556857416
 20
1196.3256163137
 30
0.0
 11
209.1666479299
 21
1067.2254258381
 31
0.0
  0
LINE
  5
B4
330
1F
100
AcDbEntity
  8
0
  6
Continuous
 62
     7
370
    25
100
AcDbLine
 10
240.5984942505
 20
1064.6302824454
 30
0.0
 11
240.6397928188
 21
1066.2073989945
 31
0.0
  0
LINE
  5
B5
330
1F
100
AcDbEntity
  8
0
  6
Continuous
 62
     7
370
    25
100
AcDbLine
 10
211.646797199
 20
1066.2073989945
 30
0.0
 11
211.646797199
 21
1036.207398268
 31
0.0
  0
LINE
  5
B6
330
1F
100
AcDbEntity
  8
0
  6
Continuous
 62
     7
370
    25
100
AcDbLine
 10
240.5992840121
 20
1062.8127002703
 30
0.0
 11
240.5992840121
 21
1064.6629010873
 31
0.0
  0
LINE
  5
B7
330
1F
100
AcDbEntity
  8
0
  6
Continuous
 62
     7
370
    25
100
AcDbLine
 10
240.5992840121
 20
1036.207398268
 30
0.0
 11
240.5992840121
 21
1040.8036367582
 31
0.0
  0
SPLINE
  5
B8
330
1F
100
AcDbEntity
  8
0
  6
Continuous
 62
     7
370
    25
100
AcDbSpline
210
0.0
220
0.0
230
1.0
 70
     8
 71
     3
 72
    11
 73
     7
 74
     0
 42
0.000000001
 43
0.00000001
 40
0.0
 40
0.0
 40
0.0
 40
0.0
 40
0.2477864587267095
 40
0.5000126577467567
 40
0.7522200292617763
 40
1.0
 40
1.0
 40
1.0
 40
1.0
 10
243.0114020297269
 20
1267.076761795771
 30
0.0
 10
243.0321412831582
 20
1267.099838850588
 30
0.0
 10
243.0739913878054
 20
1267.14640644581
 30
0.0
 10
243.1187066136753
 20
1267.229787911716
 30
0.0
 10
243.1492311591196
 20
1267.319341203132
 30
0.0
 10
243.1547852586413
 20
1267.381700576836
 30
0.0
 10
243.157537717555
 20
1267.412604166758
 30
0.0
  0
LINE
  5
B9
330
1F
100
AcDbEntity
  8
0
  6
Continuous
 62
     7
370
    25
100
AcDbLine
 10
240.3692398855
 20
1264.4345325964
 30
0.0
 11
243.0164311716
 21
1267.0817387836
 31
0.0
  0
LINE
  5
BA
330
1F
100
AcDbEntity
  8
0
  6
Continuous
 62
     7
370
    25
100
AcDbLine
 10
530.5345077703
 20
1146.3044149416
 30
0.0
 11
529.528798599
 21
1152.0081175106
 31
0.0
  0
LINE
  5
BB
330
1F
100
AcDbEntity
  8
0
  6
Continuous
 62
     7
370
    25
100
AcDbLine
 10
505.8934111783
 20
1147.8405607479
 30
0.0
 11
506.8991203496
 21
1142.1368581789
 31
0.0
  0
SPLINE
  5
BC
330
1F
100
AcDbEntity
  8
0
  6
Continuous
 62
     7
370
    25
100
AcDbSpline
210
0.0
220
0.0
230
1.0
 70
     8
 71
     3
 72
    12
 73
     8
 74
     0
 42
0.000000001
 43
0.00000001
 40
0.0
 40
0.0
 40
0.0
 40
0.0
 40
0.2116013407813647
 40
0.4225252860239289
 40
0.649575276065518
 40
0.8813980311147009
 40
1.0
 40
1.0
 40
1.0
 40
1.0
 10
283.1316125282983
 20
1063.204053192032
 30
0.0
 10
283.1161584221644
 20
1062.982424643068
 30
0.0
 10
283.0852996828466
 20
1062.539877040601
 30
0.0
 10
282.7385523433829
 20
1061.935478880471
 30
0.0
 10
282.2136571401228
 20
1061.47043553329
 30
0.0
 10
281.640545624966
 20
1061.221378800659
 30
0.0
 10
281.2746127797098
 20
1061.230136689731
 30
0.0
 10
281.150762055252
 20
1061.233100815308
 30
0.0
  0
SPLINE
  5
BD
330
1F
100
AcDbEntity
  8
0
  6
Continuous
 62
     7
370
    25
100
AcDbSpline
210
0.0
220
0.0
230
1.0
 70
     8
 71
     3
 72
    13
 73
     9
 74
     0
 42
0.000000001
 43
0.00000001
 40
0.0
 40
0.0
 40
0.0
 40
0.0
 40
0.0703610204778642
 40
0.3173233489973496
 40
0.5569021431220978
 40
0.7479364186982352
 40
0.908607971650312
 40
1.0
 40
1.0
 40
1.0
 40
1.0
 10
281.2138666102628
 20
1041.182495754776
 30
0.0
 10
281.2826182439128
 20
1041.187375077268
 30
0.0
 10
281.5926833693287
 20
1041.209380485142
 30
0.0
 10
282.1203411074763
 20
1040.993992197898
 30
0.0
 10
282.6481368805939
 20
1040.585203489438
 30
0.0
 10
282.9635093194325
 20
1040.092656635237
 30
0.0
 10
283.1108966923146
 20
1039.679861418878
 30
0.0
 10
283.1282996439509
 20
1039.433929692497
 30
0.0
 10
283.1346095243434
 20
1039.344760923278
 30
0.0
  0
LINE
  5
BE
330
1F
100
AcDbEntity
  8
0
  6
Continuous
 62
     7
370
    25
100
AcDbLine
 10
367.4835768232
 20
1129.731783046
 30
0.0
 11
368.9813148865
 21
1101.153278126
 31
0.0
  0
LINE
  5
BF
330
1F
100
AcDbEntity
  8
0
  6
Continuous
 62
     7
370
    25
100
AcDbLine
 10
388.9858443925
 20
1101.153278126
 30
0.0
 11
390.4835750053
 21
1129.731783046
 31
0.0
  0
LINE
  5
C0
330
1F
100
AcDbEntity
  8
0
  6
Continuous
 62
     7
370
    25
100
AcDbLine
 10
529.6499599406
 20
1145.5621881025
 30
0.0
 11
530.5345077703
 21
1146.3044149416
 31
0.0
  0
LINE
  5
C1
330
1F
100
AcDbEntity
  8
0
  6
Continuous
 62
     7
370
    25
100
AcDbLine
 10
506.8991203496
 20
1142.1368581789
 30
0.0
 11
507.9841782043
 21
1141.7419252532
 31
0.0
  0
SPLINE
  5
C2
330
1F
100
AcDbEntity
  8
0
  6
Continuous
 62
     7
370
    25
100
AcDbSpline
210
0.0
220
0.0
230
1.0
 70
     8
 71
     3
 72
    10
 73
     6
 74
     0
 42
0.000000001
 43
0.00000001
 40
0.0
 40
0.0
 40
0.0
 40
0.0
 40
0.4469654683868787
 40
0.9034470178664533
 40
1.0
 40
1.0
 40
1.0
 40
1.0
 10
240.6109516212682
 20
1040.688919237447
 30
0.0
 10
240.7784637636423
 20
1040.817674762339
 30
0.0
 10
241.1170544517114
 20
1041.077927070907
 30
0.0
 10
241.5923283205606
 20
1041.214359738894
 30
0.0
 10
241.8526881285405
 20
1041.196950029605
 30
0.0
 10
241.8981437275152
 20
1041.193910509911
 30
0.0
  0
SPLINE
  5
C3
330
1F
100
AcDbEntity
  8
0
  6
Continuous
 62
     7
370
    25
100
AcDbSpline
210
0.0
220
0.0
230
1.0
 70
     8
 71
     3
 72
    12
 73
     8
 74
     0
 42
0.000000001
 43
0.00000001
 40
0.0
 40
0.0
 40
0.0
 40
0.0
 40
0.0209015499191935
 40
0.272929569681254
 40
0.5384268153608542
 40
0.7969242885597356
 40
1.0
 40
1.0
 40
1.0
 40
1.0
 10
242.5488178322057
 20
1061.214858068717
 30
0.0
 10
242.5299845399061
 20
1061.212483282248
 30
0.0
 10
242.284061994311
 20
1061.181473646529
 30
0.0
 10
241.7921098062769
 20
1061.328850531151
 30
0.0
 10
241.1875500343535
 20
1061.694400198613
 30
0.0
 10
240.7669085249013
 20
1062.232675305882
 30
0.0
 10
240.6520054007117
 20
1062.637626389002
 30
0.0
 10
240.6014521310071
 20
1062.81579039861
 30
0.0
  0
SPLINE
  5
C4
330
1F
100
AcDbEntity
  8
0
  6
Continuous
 62
     7
370
    25
100
AcDbSpline
210
0.0
220
0.0
230
1.0
 70
     8
 71
     3
 72
    11
 73
     7
 74
     0
 42
0.000000001
 43
0.00000001
 40
0.0
 40
0.0
 40
0.0
 40
0.0
 40
0.2474696146912182
 40
0.4999961251959652
 40
0.752539907690701
 40
0.9999999999999999
 40
0.9999999999999999
 40
0.9999999999999999
 40
0.9999999999999999
 10
240.810955006812
 20
1201.195956541789
 30
0.0
 10
240.8102338703785
 20
1201.229139429904
 30
0.0
 10
240.8087768615132
 20
1201.296183278908
 30
0.0
 10
240.7809201570486
 20
1201.393739768944
 30
0.0
 10
240.7364166408654
 20
1201.484913069967
 30
0.0
 10
240.6926744018574
 20
1201.535743881109
 30
0.0
 10
240.6710256526212
 20
1201.560900880587
 30
0.0
  0
LINE
  5
C5
330
1F
100
AcDbEntity
  8
0
  6
Continuous
 62
     7
370
    25
100
AcDbLine
 10
389.5469997713
 20
1129.731783046
 30
0.0
 11
389.5469997713
 21
1139.6213410037
 31
0.0
  0
LINE
  5
C6
330
1F
100
AcDbEntity
  8
0
  6
Continuous
 62
     7
370
    25
100
AcDbLine
 10
368.7470015774
 20
1138.2033390539
 30
0.0
 11
368.7470015774
 21
1129.731783046
 31
0.0
  0
LINE
  5
C7
330
1F
100
AcDbEntity
  8
0
  6
Continuous
 62
     7
370
    25
100
AcDbLine
 10
240.0760222862
 20
1201.9573909776
 30
0.0
 11
240.0760222862
 21
1202.1740389602
 31
0.0
  0
LINE
  5
C8
330
1F
100
AcDbEntity
  8
0
  6
Continuous
 62
     7
370
    25
100
AcDbLine
 10
216.1647100637
 20
1036.207398268
 30
0.0
 11
216.2971813867
 21
1033.6797538759
 31
0.0
  0
LINE
  5
C9
330
1F
100
AcDbEntity
  8
0
  6
Continuous
 62
     7
370
    25
100
AcDbLine
 10
240.1470039675
 20
1202.1380675571
 30
0.0
 11
240.1470039675
 21
1204.5619351404
 31
0.0
  0
LINE
  5
CA
330
1F
100
AcDbEntity
  8
0
  6
Continuous
 62
     7
370
    25
100
AcDbLine
 10
240.1470039675
 20
1207.3988480108
 30
0.0
 11
240.1470039675
 21
1209.5376265781
 31
0.0
  0
LINE
  5
CB
330
1F
100
AcDbEntity
  8
0
  6
Continuous
 62
     7
370
    25
100
AcDbLine
 10
240.1470039675
 20
1212.410451247
 30
0.0
 11
240.1470039675
 21
1214.5376218097
 31
0.0
  0
LINE
  5
CC
330
1F
100
AcDbEntity
  8
0
  6
Continuous
 62
     7
370
    25
100
AcDbLine
 10
240.1470039675
 20
1217.4104464786
 30
0.0
 11
240.1470039675
 21
1219.5619357364
 31
0.0
  0
LINE
  5
CD
330
1F
100
AcDbEntity
  8
0
  6
Continuous
 62
     7
370
    25
100
AcDbLine
 10
240.1470039675
 20
1222.3988486068
 30
0.0
 11
240.1470039675
 21
1224.5376271742
 31
0.0
  0
LINE
  5
CE
330
1F
100
AcDbEntity
  8
0
  6
Continuous
 62
     7
370
    25
100
AcDbLine
 10
240.1470039675
 20
1227.410451843
 30
0.0
 11
240.1470039675
 21
1229.5376224058
 31
0.0
  0
LINE
  5
CF
330
1F
100
AcDbEntity
  8
0
  6
Continuous
 62
     7
370
    25
100
AcDbLine
 10
240.1470039675
 20
1232.4104470747
 30
0.0
 11
240.1470039675
 21
1234.5376325386
 31
0.0
  0
LINE
  5
D0
330
1F
100
AcDbEntity
  8
0
  6
Continuous
 62
     7
370
    25
100
AcDbLine
 10
240.1470039675
 20
1237.4104572075
 30
0.0
 11
240.1470039675
 21
1239.5376277702
 31
0.0
  0
LINE
  5
D1
330
1F
100
AcDbEntity
  8
0
  6
Continuous
 62
     7
370
    25
100
AcDbLine
 10
240.1470039675
 20
1242.4104524391
 30
0.0
 11
240.1470039675
 21
1244.5376230018
 31
0.0
  0
LINE
  5
D2
330
1F
100
AcDbEntity
  8
0
  6
Continuous
 62
     7
370
    25
100
AcDbLine
 10
240.1470039675
 20
1247.4104476707
 30
0.0
 11
240.1470039675
 21
1249.5376331346
 31
0.0
  0
LINE
  5
D3
330
1F
100
AcDbEntity
  8
0
  6
Continuous
 62
     7
370
    25
100
AcDbLine
 10
240.1470039675
 20
1252.4104429023
 30
0.0
 11
240.1470039675
 21
1254.5619321602
 31
0.0
  0
LINE
  5
D4
330
1F
100
AcDbEntity
  8
0
  6
Continuous
 62
     7
370
    25
100
AcDbLine
 10
240.1470039675
 20
1257.3988450306
 30
0.0
 11
240.1470039675
 21
1259.5376235979
 31
0.0
  0
LINE
  5
D5
330
1F
100
AcDbEntity
  8
0
  6
Continuous
 62
     7
370
    25
100
AcDbLine
 10
240.1470039675
 20
1262.4104482668
 30
0.0
 11
240.1470039675
 21
1264.51298721
 31
0.0
  0
LINE
  5
D6
330
1F
100
AcDbEntity
  8
0
  6
Continuous
 62
     7
370
    25
100
AcDbLine
 10
240.6742443034
 20
1201.5575481193
 30
0.0
 11
240.2148042509
 21
1202.0335508125
 31
0.0
  0
ARC
  5
D7
330
1F
100
AcDbEntity
  8
0
  6
Continuous
 62
     7
370
    25
100
AcDbCircle
 10
217.7951220798
 20
1033.7582580982
 30
0.0
 40
1.500000000000227
100
AcDbArc
 50
183.0
 51
270.0
  0
ARC
  5
D8
330
1F
100
AcDbEntity
  8
0
  6
Continuous
 62
     7
370
    25
100
AcDbCircle
 10
234.8037616227
 20
1033.7582580982
 30
0.0
 40
1.500000000000227
100
AcDbArc
 50
270.0
 51
357.0
  0
LINE
  5
D9
330
1F
100
AcDbEntity
  8
0
  6
Continuous
 62
     7
370
    25
100
AcDbLine
 10
281.1522037426
 20
1061.2073981749
 30
0.0
 11
242.5493915269
 21
1061.2073981749
 31
0.0
  0
LINE
  5
DA
330
1F
100
AcDbEntity
  8
0
  6
Continuous
 62
     7
370
    25
100
AcDbLine
 10
241.8994773814
 20
1041.2073983891
 30
0.0
 11
281.2087461987
 21
1041.2073983891
 31
0.0
  0
ARC
  5
DB
330
1F
100
AcDbEntity
  8
0
  6
Continuous
 62
     7
370
    25
100
AcDbCircle
 10
370.479258134
 20
1101.2317839077
 30
0.0
 40
1.500000000000227
100
AcDbArc
 50
183.0
 51
270.0
  0
ARC
  5
DC
330
1F
100
AcDbEntity
  8
0
  6
Continuous
 62
     7
370
    25
100
AcDbCircle
 10
387.4878976768
 20
1101.2317839077
 30
0.0
 40
1.500000000000227
100
AcDbArc
 50
270.0
 51
357.0
  0
ARC
  5
DD
330
1F
100
AcDbEntity
  8
0
  6
Continuous
 62
     7
370
    25
100
AcDbCircle
 10
237.0084129681
 20
1250.974039035
 30
0.0
 40
1.599999999173395
100
AcDbArc
 50
297.2872463522
 51
0.0
  0
ARC
  5
DE
330
1F
100
AcDbEntity
  8
0
  6
Continuous
 62
     7
370
    25
100
AcDbCircle
 10
237.0084129681
 20
1250.974039035
 30
0.0
 40
1.599999999173264
100
AcDbArc
 50
0.0
 51
62.5339379038
  0
ARC
  5
DF
330
1F
100
AcDbEntity
  8
0
  6
Continuous
 62
     7
370
    25
100
AcDbCircle
 10
237.0084129747
 20
1245.9740390431
 30
0.0
 40
1.599999994227889
100
AcDbArc
 50
297.2872486762
 51
0.0
  0
ARC
  5
E0
330
1F
100
AcDbEntity
  8
0
  6
Continuous
 62
     7
370
    25
100
AcDbCircle
 10
237.0084129747
 20
1245.9740390431
 30
0.0
 40
1.599999994227927
100
AcDbArc
 50
0.0
 51
62.5339355963
  0
ARC
  5
E1
330
1F
100
AcDbEntity
  8
0
  6
Continuous
 62
     7
370
    25
100
AcDbCircle
 10
237.0084129847
 20
1240.9740390431
 30
0.0
 40
1.599999991299541
100
AcDbArc
 50
297.2872506963
 51
0.0
  0
ARC
  5
E2
330
1F
100
AcDbEntity
  8
0
  6
Continuous
 62
     7
370
    25
100
AcDbCircle
 10
237.0084129847
 20
1240.9740390431
 30
0.0
 40
1.599999991299546
100
AcDbArc
 50
0.0
 51
62.5339336949
  0
ARC
  5
E3
330
1F
100
AcDbEntity
  8
0
  6
Continuous
 62
     7
370
    25
100
AcDbCircle
 10
237.0084129847
 20
1235.9740390431
 30
0.0
 40
1.599999991299541
100
AcDbArc
 50
297.2872530491
 51
0.0
  0
ARC
  5
E4
330
1F
100
AcDbEntity
  8
0
  6
Continuous
 62
     7
370
    25
100
AcDbCircle
 10
237.0084129847
 20
1235.9740390431
 30
0.0
 40
1.599999991299808
100
AcDbArc
 50
0.0
 51
62.5339313657
  0
ARC
  5
E5
330
1F
100
AcDbEntity
  8
0
  6
Continuous
 62
     7
370
    25
100
AcDbCircle
 10
237.0084130047
 20
1225.9740390431
 30
0.0
 40
1.599999991299541
100
AcDbArc
 50
297.2872572622
 51
0.0
  0
ARC
  5
E6
330
1F
100
AcDbEntity
  8
0
  6
Continuous
 62
     7
370
    25
100
AcDbCircle
 10
237.0084130047
 20
1225.9740390431
 30
0.0
 40
1.599999991299541
100
AcDbArc
 50
0.0
 51
62.5339273117
  0
ARC
  5
E7
330
1F
100
AcDbEntity
  8
0
  6
Continuous
 62
     7
370
    25
100
AcDbCircle
 10
237.0084130247
 20
1205.9740390431
 30
0.0
 40
1.599999994227858
100
AcDbArc
 50
297.2872663971
 51
0.0
  0
ARC
  5
E8
330
1F
100
AcDbEntity
  8
0
  6
Continuous
 62
     7
370
    25
100
AcDbCircle
 10
237.0084130247
 20
1205.9740390431
 30
0.0
 40
1.599999994227858
100
AcDbArc
 50
0.0
 51
62.533918484
  0
ARC
  5
E9
330
1F
100
AcDbEntity
  8
0
  6
Continuous
 62
     7
370
    25
100
AcDbCircle
 10
237.0084129547
 20
1260.9740390431
 30
0.0
 40
1.599999994227858
100
AcDbArc
 50
297.2872421083
 51
0.0
  0
ARC
  5
EA
330
1F
100
AcDbEntity
  8
0
  6
Continuous
 62
     7
370
    25
100
AcDbCircle
 10
237.0084129547
 20
1260.9740390431
 30
0.0
 40
1.599999994227858
100
AcDbArc
 50
0.0
 51
62.5339419711
  0
ARC
  5
EB
330
1F
100
AcDbEntity
  8
0
  6
Continuous
 62
     7
370
    25
100
AcDbCircle
 10
237.0084129647
 20
1255.9740390431
 30
0.0
 40
1.599999991299541
100
AcDbArc
 50
297.2872441286
 51
0.0
  0
ARC
  5
EC
330
1F
100
AcDbEntity
  8
0
  6
Continuous
 62
     7
370
    25
100
AcDbCircle
 10
237.0084129647
 20
1255.9740390431
 30
0.0
 40
1.599999991299735
100
AcDbArc
 50
0.0
 51
62.5339400653
  0
ARC
  5
ED
330
1F
100
AcDbEntity
  8
0
  6
Continuous
 62
     7
370
    25
100
AcDbCircle
 10
237.0084129947
 20
1230.9740390431
 30
0.0
 40
1.599999994227997
100
AcDbArc
 50
297.287255237
 51
0.0
  0
ARC
  5
EE
330
1F
100
AcDbEntity
  8
0
  6
Continuous
 62
     7
370
    25
100
AcDbCircle
 10
237.0084129947
 20
1230.9740390431
 30
0.0
 40
1.599999994227858
100
AcDbArc
 50
0.0
 51
62.5339292716
  0
ARC
  5
EF
330
1F
100
AcDbEntity
  8
0
  6
Continuous
 62
     7
370
    25
100
AcDbCircle
 10
237.0084130047
 20
1220.9740390431
 30
0.0
 40
1.599999994227858
100
AcDbArc
 50
297.2872598339
 51
0.0
  0
ARC
  5
F0
330
1F
100
AcDbEntity
  8
0
  6
Continuous
 62
     7
370
    25
100
AcDbCircle
 10
237.0084130047
 20
1220.9740390431
 30
0.0
 40
1.599999994227906
100
AcDbArc
 50
0.0
 51
62.5339247711
  0
ARC
  5
F1
330
1F
100
AcDbEntity
  8
0
  6
Continuous
 62
     7
370
    25
100
AcDbCircle
 10
237.0084130147
 20
1215.9740390431
 30
0.0
 40
1.599999991299541
100
AcDbArc
 50
297.2876881323
 51
0.0
  0
ARC
  5
F2
330
1F
100
AcDbEntity
  8
0
  6
Continuous
 62
     7
370
    25
100
AcDbCircle
 10
237.0084130147
 20
1215.9740390431
 30
0.0
 40
1.599999991299631
100
AcDbArc
 50
0.0
 51
62.5367911809
  0
ARC
  5
F3
330
1F
100
AcDbEntity
  8
0
  6
Continuous
 62
     7
370
    25
100
AcDbCircle
 10
237.0084130181
 20
1210.974039035
 30
0.0
 40
1.599999999173264
100
AcDbArc
 50
297.2872640747
 51
0.0
  0
ARC
  5
F4
330
1F
100
AcDbEntity
  8
0
  6
Continuous
 62
     7
370
    25
100
AcDbCircle
 10
237.0084130181
 20
1210.974039035
 30
0.0
 40
1.599999999173362
100
AcDbArc
 50
0.0
 51
62.5339207017
  0
ARC
  5
F5
330
1F
100
AcDbEntity
  8
0
  6
Continuous
 62
     7
370
    25
100
AcDbCircle
 10
518.5045039816
 20
1145.4247128412
 30
0.0
 40
9.000000000000306
100
AcDbArc
 50
201.5369590328
 51
212.8395884069
  0
SPLINE
  5
F6
330
1F
100
AcDbEntity
  8
0
  6
Continuous
 62
     7
370
    25
100
AcDbSpline
210
0.0
220
0.0
230
1.0
 70
     8
 71
     3
 72
    18
 73
    14
 74
     0
 42
0.000000001
 43
0.00000001
 40
0.0
 40
0.0
 40
0.0
 40
0.0
 40
0.121054161796491
 40
0.2366388756773001
 40
0.3483912580925726
 40
0.4588558015307308
 40
0.5149081052067734
 40
0.5724296650028212
 40
0.6323559383869055
 40
0.695655867022342
 40
0.7867486885253335
 40
0.887245860074029
 40
1.0
 40
1.0
 40
1.0
 40
1.0
 10
335.1477087179164
 20
1107.550227417243
 30
0.0
 10
335.1966257656792
 20
1109.440236200714
 30
0.0
 10
335.2922496997287
 20
1113.13485972215
 30
0.0
 10
336.3371119241374
 20
1118.495123650277
 30
0.0
 10
338.139271032358
 20
1123.470354272198
 30
0.0
 10
340.400671150544
 20
1127.218679944167
 30
0.0
 10
342.7006343258101
 20
1129.859351112914
 30
0.0
 10
344.7221078425675
 20
1131.669553538495
 30
0.0
 10
347.0483258634753
 20
1133.274693788944
 30
0.0
 10
350.0133380215905
 20
1134.834731429538
 30
0.0
 10
353.7497792602598
 20
1136.222341956991
 30
0.0
 10
358.373482746316
 20
1137.364080901771
 30
0.0
 10
361.6890938343416
 20
1137.675793266057
 30
0.0
 10
363.4421844670514
 20
1137.84060753752
 30
0.0
  0
LINE
  5
F7
330
1F
100
AcDbEntity
  8
0
  6
Continuous
 62
     7
370
    25
100
AcDbLine
 10
233.1470046828
 20
953.2073972361
 30
0.0
 11
233.1470046828
 21
1032.2582585352
 31
0.0
  0
LINE
  5
F8
330
1F
100
AcDbEntity
  8
0
  6
Continuous
 62
     7
370
    25
100
AcDbLine
 10
219.1469986627
 20
1032.2582585352
 30
0.0
 11
219.1469986627
 21
953.2073972361
 31
0.0
  0
LINE
  5
F9
330
1F
100
AcDbEntity
  8
0
  6
Continuous
 62
     7
370
    25
100
AcDbLine
 10
386.1470018217
 20
1020.6809242802
 30
0.0
 11
386.1470018217
 21
1099.7317855792
 31
0.0
  0
LINE
  5
FA
330
1F
100
AcDbEntity
  8
0
  6
Continuous
 62
     7
370
    25
100
AcDbLine
 10
372.1470032522
 20
1099.7317855792
 30
0.0
 11
372.1470032522
 21
1020.6809242802
 31
0.0
  0
ARC
  5
FB
330
1F
100
AcDbEntity
  8
0
  6
Continuous
 62
     7
370
    25
100
AcDbCircle
 10
372.647002239
 20
1174.880924155
 30
0.0
 40
0.5000000000002274
100
AcDbArc
 50
180.0
 51
270.0
  0
ARC
  5
FC
330
1F
100
AcDbEntity
  8
0
  6
Continuous
 62
     7
370
    25
100
AcDbCircle
 10
385.647002239
 20
1174.880924155
 30
0.0
 40
0.5000000000002274
100
AcDbArc
 50
270.0
 51
0.0
  0
LINE
  5
FD
330
1F
100
AcDbEntity
  8
0
  6
Continuous
 62
     7
370
    25
100
AcDbLine
 10
386.1470018217
 20
1174.880923106
 30
0.0
 11
386.1470018217
 21
1183.8809264438
 31
0.0
  0
LINE
  5
FE
330
1F
100
AcDbEntity
  8
0
  6
Continuous
 62
     7
370
    25
100
AcDbLine
 10
372.1470032522
 20
1183.8809264438
 30
0.0
 11
372.1470032522
 21
1174.880923106
 31
0.0
  0
ARC
  5
FF
330
1F
100
AcDbEntity
  8
0
  6
Continuous
 62
     7
370
    25
100
AcDbCircle
 10
372.647002239
 20
1183.880924155
 30
0.0
 40
0.5
100
AcDbArc
 50
90.0
 51
180.0
  0
ARC
  5
100
330
1F
100
AcDbEntity
  8
0
  6
Continuous
 62
     7
370
    25
100
AcDbCircle
 10
385.647002239
 20
1183.880924155
 30
0.0
 40
0.5
100
AcDbArc
 50
0.0
 51
90.0
  0
ARC
  5
101
330
1F
100
AcDbEntity
  8
0
  6
Continuous
 62
     7
370
    25
100
AcDbCircle
 10
238.6137402922
 20
1260.9740390295
 30
0.0
 40
1.599999996992424
100
AcDbArc
 50
293.7573347519
 51
0.0
  0
ARC
  5
102
330
1F
100
AcDbEntity
  8
0
  6
Continuous
 62
     7
370
    25
100
AcDbCircle
 10
238.6137402922
 20
1260.9740390295
 30
0.0
 40
1.599999996992153
100
AcDbArc
 50
0.0
 51
65.9202600296
  0
ARC
  5
103
330
1F
100
AcDbEntity
  8
0
  6
Continuous
 62
     7
370
    25
100
AcDbCircle
 10
238.6137402688
 20
1255.9740390258
 30
0.0
 40
1.599999998720688
100
AcDbArc
 50
293.7573369635
 51
0.0
  0
ARC
  5
104
330
1F
100
AcDbEntity
  8
0
  6
Continuous
 62
     7
370
    25
100
AcDbCircle
 10
238.6137402688
 20
1255.9740390258
 30
0.0
 40
1.599999998720648
100
AcDbArc
 50
0.0
 51
65.9202578684
  0
ARC
  5
105
330
1F
100
AcDbEntity
  8
0
  6
Continuous
 62
     7
370
    25
100
AcDbCircle
 10
238.6137402522
 20
1250.9740390295
 30
0.0
 40
1.599999996992153
100
AcDbArc
 50
293.7573393295
 51
0.0
  0
ARC
  5
106
330
1F
100
AcDbEntity
  8
0
  6
Continuous
 62
     7
370
    25
100
AcDbCircle
 10
238.6137402522
 20
1250.9740390295
 30
0.0
 40
1.599999996992495
100
AcDbArc
 50
0.0
 51
65.9202555183
  0
ARC
  5
107
330
1F
100
AcDbEntity
  8
0
  6
Continuous
 62
     7
370
    25
100
AcDbCircle
 10
238.6137402302
 20
1245.9740390165
 30
0.0
 40
1.600000007758126
100
AcDbArc
 50
293.757341413
 51
0.0
  0
ARC
  5
108
330
1F
100
AcDbEntity
  8
0
  6
Continuous
 62
     7
370
    25
100
AcDbCircle
 10
238.6137402302
 20
1245.9740390165
 30
0.0
 40
1.600000007758216
100
AcDbArc
 50
0.0
 51
65.920253477
  0
ARC
  5
109
330
1F
100
AcDbEntity
  8
0
  6
Continuous
 62
     7
370
    25
100
AcDbCircle
 10
238.6137401988
 20
1235.9740390258
 30
0.0
 40
1.599999998720619
100
AcDbArc
 50
293.7573457158
 51
0.0
  0
ARC
  5
10A
330
1F
100
AcDbEntity
  8
0
  6
Continuous
 62
     7
370
    25
100
AcDbCircle
 10
238.6137401988
 20
1235.9740390258
 30
0.0
 40
1.599999998721003
100
AcDbArc
 50
0.0
 51
65.9202492187
  0
ARC
  5
10B
330
1F
100
AcDbEntity
  8
0
  6
Continuous
 62
     7
370
    25
100
AcDbCircle
 10
238.6137401622
 20
1225.9740390295
 30
0.0
 40
1.599999996992125
100
AcDbArc
 50
293.7573502982
 51
0.0
  0
ARC
  5
10C
330
1F
100
AcDbEntity
  8
0
  6
Continuous
 62
     7
370
    25
100
AcDbCircle
 10
238.6137401622
 20
1225.9740390295
 30
0.0
 40
1.599999996992354
100
AcDbArc
 50
0.0
 51
65.9202446796
  0
ARC
  5
10D
330
1F
100
AcDbEntity
  8
0
  6
Continuous
 62
     7
370
    25
100
AcDbCircle
 10
238.6137401002
 20
1210.9740390165
 30
0.0
 40
1.600000007758268
100
AcDbArc
 50
293.7573440082
 51
0.0
  0
ARC
  5
10E
330
1F
100
AcDbEntity
  8
0
  6
Continuous
 62
     7
370
    25
100
AcDbCircle
 10
238.6137401002
 20
1210.9740390165
 30
0.0
 40
1.600000007758365
100
AcDbArc
 50
0.0
 51
65.9209932951
  0
SPLINE
  5
10F
330
1F
100
AcDbEntity
  8
0
  6
Continuous
 62
     7
370
    25
100
AcDbSpline
210
0.0
220
0.0
230
1.0
 70
     8
 71
     3
 72
    15
 73
    11
 74
     0
 42
0.000000001
 43
0.00000001
 40
0.0
 40
0.0
 40
0.0
 40
0.0
 40
0.1604043769596648
 40
0.2915505122953133
 40
0.4549211518072497
 40
0.5365093570481839
 40
0.6532640942889636
 40
0.8098214400298392
 40
0.9018595542397899
 40
1.0
 40
1.0
 40
1.0
 40
1.0
 10
239.1925473401288
 20
1239.482418967974
 30
0.0
 10
239.3761372470834
 20
1239.578391702035
 30
0.0
 10
239.709829708844
 20
1239.752831454317
 30
0.0
 10
240.0657013793216
 20
1240.22935313636
 30
0.0
 10
240.2142205775706
 20
1240.697435418434
 30
0.0
 10
240.2179211541544
 20
1241.16121655597
 30
0.0
 10
240.1149479143219
 20
1241.608181803992
 30
0.0
 10
239.8612827027171
 20
1242.012038172875
 30
0.0
 10
239.5270342078499
 20
1242.308850318972
 30
0.0
 10
239.3064027906772
 20
1242.412284621963
 30
0.0
 10
239.1925473401288
 20
1242.465661241305
 30
0.0
  0
SPLINE
  5
110
330
1F
100
AcDbEntity
  8
0
  6
Continuous
 62
     7
370
    25
100
AcDbSpline
210
0.0
220
0.0
230
1.0
 70
     8
 71
     3
 72
    15
 73
    11
 74
     0
 42
0.000000001
 43
0.00000001
 40
0.0
 40
0.0
 40
0.0
 40
0.0
 40
0.1604026274301974
 40
0.2915521174083081
 40
0.4549230915575821
 40
0.5365114653190538
 40
0.6532626494895721
 40
0.8098203172393995
 40
0.9018611769810687
 40
1.0
 40
1.0
 40
1.0
 40
1.0
 10
239.1925473401288
 20
1229.482428504718
 30
0.0
 10
239.3761386230146
 20
1229.578394804435
 30
0.0
 10
239.7098390624685
 20
1229.752825724494
 30
0.0
 10
240.0656960503953
 20
1230.229362432712
 30
0.0
 10
240.2142207220743
 20
1230.697444498474
 30
0.0
 10
240.2179218016167
 20
1231.161221323993
 30
0.0
 10
240.1149455338953
 20
1231.60818204769
 30
0.0
 10
239.8612753692408
 20
1232.012028553364
 30
0.0
 10
239.527042850024
 20
1232.308862551451
 30
0.0
 10
239.306404047167
 20
1232.412286037258
 30
0.0
 10
239.1925473401288
 20
1232.465655876887
 30
0.0
  0
SPLINE
  5
111
330
1F
100
AcDbEntity
  8
0
  6
Continuous
 62
     7
370
    25
100
AcDbSpline
210
0.0
220
0.0
230
1.0
 70
     8
 71
     3
 72
    15
 73
    11
 74
     0
 42
0.000000001
 43
0.00000001
 40
0.0
 40
0.0
 40
0.0
 40
0.0
 40
0.1604026280286889
 40
0.2915521174141772
 40
0.4549230936301482
 40
0.5365114670229482
 40
0.6532626506659054
 40
0.8098203190687361
 40
0.9018611774245264
 40
1.0
 40
1.0
 40
1.0
 40
1.0
 10
239.1925473401288
 20
1219.482423140299
 30
0.0
 10
239.3761386226482
 20
1219.578389439268
 30
0.0
 10
239.7098390601979
 20
1219.752820357317
 30
0.0
 10
240.0656960536565
 20
1220.229357074635
 30
0.0
 10
240.2142207211376
 20
1220.697439128804
 30
0.0
 10
240.2179218020529
 20
1221.161215959837
 30
0.0
 10
240.1149455320245
 20
1221.608176686331
 30
0.0
 10
239.8612753736367
 20
1222.012023184307
 30
0.0
 10
239.5270428478969
 20
1222.308857188685
 30
0.0
 10
239.306404046826
 20
1222.412280673223
 30
0.0
 10
239.1925473401288
 20
1222.465650512469
 30
0.0
  0
SPLINE
  5
112
330
1F
100
AcDbEntity
  8
0
  6
Continuous
 62
     7
370
    25
100
AcDbSpline
210
0.0
220
0.0
230
1.0
 70
     8
 71
     3
 72
    15
 73
    11
 74
     0
 42
0.000000001
 43
0.00000001
 40
0.0
 40
0.0
 40
0.0
 40
0.0
 40
0.1604026280382007
 40
0.2915521174314662
 40
0.4549230908522071
 40
0.536511466137455
 40
0.6532626497873355
 40
0.80982031819945
 40
0.9018611775306741
 40
0.9999999999999999
 40
0.9999999999999999
 40
0.9999999999999999
 40
0.9999999999999999
 10
239.1925473401288
 20
1214.482427908671
 30
0.0
 10
239.376138622714
 20
1214.578394208118
 30
0.0
 10
239.7098390603835
 20
1214.752825127038
 30
0.0
 10
240.0656960508161
 20
1215.229361835367
 30
0.0
 10
240.2142207224172
 20
1215.697443910202
 30
0.0
 10
240.2179218020455
 20
1216.161220721848
 30
0.0
 10
240.114945532695
 20
1216.608181456091
 30
0.0
 10
239.8612753709908
 20
1217.01202795491
 30
0.0
 10
239.527042850129
 20
1217.308861955532
 30
0.0
 10
239.3064040471613
 20
1217.412285441275
 30
0.0
 10
239.1925473401288
 20
1217.465655280841
 30
0.0
  0
SPLINE
  5
113
330
1F
100
AcDbEntity
  8
0
  6
Continuous
 62
     7
370
    25
100
AcDbSpline
210
0.0
220
0.0
230
1.0
 70
     8
 71
     3
 72
    15
 73
    11
 74
     0
 42
0.000000001
 43
0.00000001
 40
0.0
 40
0.0
 40
0.0
 40
0.0
 40
0.1604048679739051
 40
0.2915514058432298
 40
0.4549225439922739
 40
0.5365109996561436
 40
0.6532623010272078
 40
0.8098201272977138
 40
0.9018610784645207
 40
0.9999999999999999
 40
0.9999999999999999
 40
0.9999999999999999
 40
0.9999999999999999
 10
239.1925473401288
 20
1204.482422544253
 30
0.0
 10
239.3761372361727
 20
1204.578395279588
 30
0.0
 10
239.7098296793405
 20
1204.752835034834
 30
0.0
 10
240.0657014866983
 20
1205.229356701145
 30
0.0
 10
240.2142201593082
 20
1205.697439019485
 30
0.0
 10
240.2179219602508
 20
1206.161215227759
 30
0.0
 10
240.1149454640604
 20
1206.608176148725
 30
0.0
 10
239.8612753848963
 20
1207.012022578578
 30
0.0
 10
239.5270428455457
 20
1207.30885659466
 30
0.0
 10
239.3064040460257
 20
1207.412280077865
 30
0.0
 10
239.1925473401288
 20
1207.465649916423
 30
0.0
  0
LINE
  5
114
330
1F
100
AcDbEntity
  8
0
  6
Continuous
 62
     7
370
    25
100
AcDbLine
 10
236.3017071674
 20
1033.6797538759
 30
0.0
 11
236.4341710398
 21
1036.207398268
 31
0.0
  0
SPLINE
  5
115
330
1F
100
AcDbEntity
  8
0
  6
Continuous
 62
     7
370
    25
100
AcDbSpline
210
0.0
220
0.0
230
1.0
 70
     8
 71
     3
 72
    15
 73
    11
 74
     0
 42
0.000000001
 43
0.00000001
 40
0.0
 40
0.0
 40
0.0
 40
0.0
 40
0.1470534374012407
 40
0.281075000102498
 40
0.4015085745017869
 40
0.5145871526172476
 40
0.6253609614176847
 40
0.7388706902774864
 40
0.860979883107872
 40
1.0
 40
1.0
 40
1.0
 40
1.0
 10
334.1476172843913
 20
1175.053299738658
 30
0.0
 10
334.126777541556
 20
1176.664825069781
 30
0.0
 10
334.0869448737646
 20
1179.745062367293
 30
0.0
 10
334.5784834991624
 20
1184.14153428776
 30
0.0
 10
335.8636897326641
 20
1187.989633035415
 30
0.0
 10
337.7540670085751
 20
1191.282406520459
 30
0.0
 10
340.2397155031056
 20
1194.059666448665
 30
0.0
 10
343.3495640317722
 20
1196.278111156659
 30
0.0
 10
347.1456059060992
 20
1197.956610689371
 30
0.0
 10
349.9872373036988
 20
1198.379708544536
 30
0.0
 10
351.5000660607557
 20
1198.604957534564
 30
0.0
  0
ARC
  5
116
330
1F
100
AcDbEntity
  8
0
  6
Continuous
 62
     7
370
    25
100
AcDbCircle
 10
239.4422164735
 20
1230.9740390104
 30
0.0
 40
1.600000003449384
100
AcDbArc
 50
292.2737390137
 51
0.0
  0
ARC
  5
117
330
1F
100
AcDbEntity
  8
0
  6
Continuous
 62
     7
370
    25
100
AcDbCircle
 10
239.4422164735
 20
1230.9740390104
 30
0.0
 40
1.600000003449338
100
AcDbArc
 50
0.0
 51
67.6198493491
  0
ARC
  5
118
330
1F
100
AcDbEntity
  8
0
  6
Continuous
 62
     7
370
    25
100
AcDbCircle
 10
239.4422167433
 20
1260.9740390203
 30
0.0
 40
1.599999998772262
100
AcDbArc
 50
292.2737304295
 51
0.0
  0
ARC
  5
119
330
1F
100
AcDbEntity
  8
0
  6
Continuous
 62
     7
370
    25
100
AcDbCircle
 10
239.4422167433
 20
1260.9740390203
 30
0.0
 40
1.59999999877212
100
AcDbArc
 50
0.0
 51
67.6196313027
  0
ARC
  5
11A
330
1F
100
AcDbEntity
  8
0
  6
Continuous
 62
     7
370
    25
100
AcDbCircle
 10
239.4422166533
 20
1250.9740390203
 30
0.0
 40
1.599999998772315
100
AcDbArc
 50
292.2737348938
 51
0.0
  0
ARC
  5
11B
330
1F
100
AcDbEntity
  8
0
  6
Continuous
 62
     7
370
    25
100
AcDbCircle
 10
239.4422166533
 20
1250.9740390203
 30
0.0
 40
1.59999999877212
100
AcDbArc
 50
0.0
 51
67.6196268899
  0
ARC
  5
11C
330
1F
100
AcDbEntity
  8
0
  6
Continuous
 62
     7
370
    25
100
AcDbCircle
 10
239.4422166123
 20
1245.9740390091
 30
0.0
 40
1.600000004037706
100
AcDbArc
 50
292.2737368351
 51
0.0
  0
ARC
  5
11D
330
1F
100
AcDbEntity
  8
0
  6
Continuous
 62
     7
370
    25
100
AcDbCircle
 10
239.4422166123
 20
1245.9740390091
 30
0.0
 40
1.600000004037716
100
AcDbArc
 50
0.0
 51
67.6196250316
  0
ARC
  5
11E
330
1F
100
AcDbEntity
  8
0
  6
Continuous
 62
     7
370
    25
100
AcDbCircle
 10
239.4422165623
 20
1240.9740390091
 30
0.0
 40
1.600000004037776
100
AcDbArc
 50
292.2737491408
 51
0.0
  0
ARC
  5
11F
330
1F
100
AcDbEntity
  8
0
  6
Continuous
 62
     7
370
    25
100
AcDbCircle
 10
239.4422165623
 20
1240.9740390091
 30
0.0
 40
1.600000004037701
100
AcDbArc
 50
0.0
 51
67.6196226382
  0
ARC
  5
120
330
1F
100
AcDbEntity
  8
0
  6
Continuous
 62
     7
370
    25
100
AcDbCircle
 10
239.4422165223
 20
1235.9740390091
 30
0.0
 40
1.600000004037696
100
AcDbArc
 50
292.273751178
 51
0.0
  0
ARC
  5
121
330
1F
100
AcDbEntity
  8
0
  6
Continuous
 62
     7
370
    25
100
AcDbCircle
 10
239.4422165223
 20
1235.9740390091
 30
0.0
 40
1.600000004037715
100
AcDbArc
 50
0.0
 51
67.6196206415
  0
ARC
  5
122
330
1F
100
AcDbEntity
  8
0
  6
Continuous
 62
     7
370
    25
100
AcDbCircle
 10
239.4422164333
 20
1225.9740390203
 30
0.0
 40
1.599999993811348
100
AcDbArc
 50
292.2737557603
 51
0.0
  0
ARC
  5
123
330
1F
100
AcDbEntity
  8
0
  6
Continuous
 62
     7
370
    25
100
AcDbCircle
 10
239.4422164333
 20
1225.9740390203
 30
0.0
 40
1.599999993811224
100
AcDbArc
 50
0.0
 51
67.6196160395
  0
ARC
  5
124
330
1F
100
AcDbEntity
  8
0
  6
Continuous
 62
     7
370
    25
100
AcDbCircle
 10
239.4422163433
 20
1215.9740390203
 30
0.0
 40
1.599999993811224
100
AcDbArc
 50
292.2737602229
 51
0.0
  0
ARC
  5
125
330
1F
100
AcDbEntity
  8
0
  6
Continuous
 62
     7
370
    25
100
AcDbCircle
 10
239.4422163433
 20
1215.9740390203
 30
0.0
 40
1.599999993811385
100
AcDbArc
 50
0.0
 51
67.6196116433
  0
ARC
  5
126
330
1F
100
AcDbEntity
  8
0
  6
Continuous
 62
     7
370
    25
100
AcDbCircle
 10
239.4422162923
 20
1210.9740390091
 30
0.0
 40
1.600000004037999
100
AcDbArc
 50
292.2737624757
 51
0.0
  0
ARC
  5
127
330
1F
100
AcDbEntity
  8
0
  6
Continuous
 62
     7
370
    25
100
AcDbCircle
 10
239.4422162923
 20
1210.9740390091
 30
0.0
 40
1.600000004037696
100
AcDbArc
 50
0.0
 51
67.6196095044
  0
SPLINE
  5
128
330
1F
100
AcDbEntity
  8
0
  6
Continuous
 62
     7
370
    25
100
AcDbSpline
210
0.0
220
0.0
230
1.0
 70
     8
 71
     3
 72
    15
 73
    11
 74
     0
 42
0.000000001
 43
0.00000001
 40
0.0
 40
0.0
 40
0.0
 40
0.0
 40
0.1604170438257216
 40
0.2915730800954967
 40
0.454908624584719
 40
0.5364947674733287
 40
0.6532548911872247
 40
0.8098176001428634
 40
0.901856886048453
 40
1.0
 40
1.0
 40
1.0
 40
1.0
 10
240.021066803668
 20
1254.482419564021
 30
0.0
 10
240.204664910044
 20
1254.578397153262
 30
0.0
 10
240.5383717537752
 20
1254.752845457805
 30
0.0
 10
240.8941790523137
 20
1255.22925476548
 30
0.0
 10
241.0426464421075
 20
1255.697492069022
 30
0.0
 10
241.0463801359762
 20
1256.161231971878
 30
0.0
 10
240.9433956971016
 20
1256.608150889788
 30
0.0
 10
240.689747893518
 20
1257.012038857391
 30
0.0
 10
240.355520585027
 20
1257.308851969447
 30
0.0
 10
240.1349115173801
 20
1257.4122853306
 30
0.0
 10
240.021066803668
 20
1257.465661837351
 30
0.0
  0
SPLINE
  5
129
330
1F
100
AcDbEntity
  8
0
  6
Continuous
 62
     7
370
    25
100
AcDbSpline
210
0.0
220
0.0
230
1.0
 70
     8
 71
     3
 72
    15
 73
    11
 74
     0
 42
0.000000001
 43
0.00000001
 40
0.0
 40
0.0
 40
0.0
 40
0.0
 40
0.1604152162869866
 40
0.2915745429836179
 40
0.4549103444818759
 40
0.5364966157465593
 40
0.6532569231106747
 40
0.8098165709982246
 40
0.9018585574436974
 40
0.9999999999999999
 40
0.9999999999999999
 40
0.9999999999999999
 40
0.9999999999999999
 10
240.021066803668
 20
1219.482423140299
 30
0.0
 10
240.2046663042217
 20
1219.578394300114
 30
0.0
 10
240.538381158118
 20
1219.752833781044
 30
0.0
 10
240.8941735453382
 20
1220.229258049522
 30
0.0
 10
241.0426472781866
 20
1220.697495394134
 30
0.0
 10
241.0463794257862
 20
1221.161235219377
 30
0.0
 10
240.9434003497348
 20
1221.608153292601
 30
0.0
 10
240.6897359533967
 20
1222.012025343387
 30
0.0
 10
240.3555295240608
 20
1222.308858400405
 30
0.0
 10
240.1349128748837
 20
1222.412280839654
 30
0.0
 10
240.021066803668
 20
1222.465650512469
 30
0.0
  0
SPLINE
  5
12A
330
1F
100
AcDbEntity
  8
0
  6
Continuous
 62
     7
370
    25
100
AcDbSpline
210
0.0
220
0.0
230
1.0
 70
     8
 71
     3
 72
    15
 73
    11
 74
     0
 42
0.000000001
 43
0.00000001
 40
0.0
 40
0.0
 40
0.0
 40
0.0
 40
0.1604174571123674
 40
0.2915738314823108
 40
0.4549097970255435
 40
0.5364961502307305
 40
0.6532565748621046
 40
0.8098163799890549
 40
0.9018584588761431
 40
0.9999999999999999
 40
0.9999999999999999
 40
0.9999999999999999
 40
0.9999999999999999
 10
240.021066803668
 20
1204.482422544253
 30
0.0
 10
240.2046649174592
 20
1204.578400139765
 30
0.0
 10
240.5383717748965
 20
1204.752848455824
 30
0.0
 10
240.8941789800398
 20
1205.229257684928
 30
0.0
 10
241.0426467156556
 20
1205.697495279408
 30
0.0
 10
241.04637958421
 20
1206.161234487778
 30
0.0
 10
240.943400281676
 20
1206.608152754788
 30
0.0
 10
240.6897359646717
 20
1207.012024737693
 30
0.0
 10
240.3555295217064
 20
1207.308857806373
 30
0.0
 10
240.1349128740823
 20
1207.412280244293
 30
0.0
 10
240.021066803668
 20
1207.465649916423
 30
0.0
  0
LINE
  5
12B
330
1F
100
AcDbEntity
  8
0
  6
Continuous
 62
     7
370
    25
100
AcDbLine
 10
381.6470001528
 20
1167.5161061423
 30
0.0
 11
381.6470001528
 21
1174.3809295433
 31
0.0
  0
LINE
  5
12C
330
1F
100
AcDbEntity
  8
0
  6
Continuous
 62
     7
370
    25
100
AcDbLine
 10
376.6470049212
 20
1174.3809295433
 30
0.0
 11
376.6470049212
 21
1167.5209266679
 31
0.0
  0
SPLINE
  5
12D
330
1F
100
AcDbEntity
  8
0
  6
Continuous
 62
     7
370
    25
100
AcDbSpline
210
0.0
220
0.0
230
1.0
 70
     8
 71
     3
 72
    15
 73
    11
 74
     0
 42
0.000000001
 43
0.00000001
 40
0.0
 40
0.0
 40
0.0
 40
0.0
 40
0.131499065538232
 40
0.2734755241942756
 40
0.4502863128215118
 40
0.5386033433487956
 40
0.6649962214198735
 40
0.8344754130657848
 40
0.9341079747383715
 40
1.0
 40
1.0
 40
1.0
 40
1.0
 10
240.1470039674978
 20
1254.561932160151
 30
0.0
 10
240.2850828050665
 20
1254.635792938738
 30
0.0
 10
240.5722421269193
 20
1254.789399468632
 30
0.0
 10
240.8929477549481
 20
1255.230765366293
 30
0.0
 10
241.0428298528731
 20
1255.69732107227
 30
0.0
 10
241.0462940057044
 20
1256.161225256617
 30
0.0
 10
240.9436787370358
 20
1256.608545361265
 30
0.0
 10
240.6886409677478
 20
1257.010286382734
 30
0.0
 10
240.3934084003126
 20
1257.280065976919
 30
0.0
 10
240.2171635250056
 20
1257.365024673719
 30
0.0
 10
240.1470039674978
 20
1257.398845030558
 30
0.0
  0
SPLINE
  5
12E
330
1F
100
AcDbEntity
  8
0
  6
Continuous
 62
     7
370
    25
100
AcDbSpline
210
0.0
220
0.0
230
1.0
 70
     8
 71
     3
 72
    15
 73
    11
 74
     0
 42
0.000000001
 43
0.00000001
 40
0.0
 40
0.0
 40
0.0
 40
0.0
 40
0.1314991725034329
 40
0.2734757468476309
 40
0.4502866793427619
 40
0.5386037817097113
 40
0.6649967625142752
 40
0.8344725117388093
 40
0.9341079211398634
 40
1.0
 40
1.0
 40
1.0
 40
1.0
 10
240.1470039674978
 20
1204.561935140383
 30
0.0
 10
240.2850828098713
 20
1204.635795922813
 30
0.0
 10
240.572242141927
 20
1204.78940246081
 30
0.0
 10
240.8929476838212
 20
1205.230768289915
 30
0.0
 10
241.0428301183294
 20
1205.697324263064
 30
0.0
 10
241.0462934704691
 20
1206.161227812084
 30
0.0
 10
240.9436832093617
 20
1206.608546962435
 30
0.0
 10
240.6886295158774
 20
1207.010273385247
 30
0.0
 10
240.3934128414992
 20
1207.280069141648
 30
0.0
 10
240.2171639507676
 20
1207.365028110815
 30
0.0
 10
240.1470039674978
 20
1207.398848010791
 30
0.0
  0
LINE
  5
12F
330
1F
100
AcDbEntity
  8
0
  6
Continuous
 62
     7
370
    25
100
AcDbLine
 10
235.4204822967
 20
338.5652316349
 30
0.0
 11
384.1470052192
 21
338.5652316349
 31
0.0
  0
LINE
  5
130
330
1F
100
AcDbEntity
  8
0
  6
Continuous
 62
     7
370
    25
100
AcDbLine
 10
234.1469992587
 20
338.5652316349
 30
0.0
 11
235.4204822967
 21
338.5652316349
 31
0.0
  0
LINE
  5
131
330
1F
100
AcDbEntity
  8
0
  6
Continuous
 62
     7
370
    25
100
AcDbLine
 10
335.1470027754
 20
348.6998689907
 30
0.0
 11
283.1470017025
 21
348.6998689907
 31
0.0
  0
LINE
  5
132
330
1F
100
AcDbEntity
  8
0
  6
Continuous
 62
     7
370
    25
100
AcDbLine
 10
283.1470017025
 20
1166.1076930897
 30
0.0
 11
283.1470017025
 21
1153.1143424647
 31
0.0
  0
LINE
  5
133
330
1F
100
AcDbEntity
  8
0
  6
Continuous
 62
     7
370
    25
100
AcDbLine
 10
284.3205631414
 20
1167.3074004786
 30
0.0
 11
309.147002239
 21
1167.3074004786
 31
0.0
  0
ARC
  5
134
330
1F
100
AcDbEntity
  8
0
  6
Continuous
 62
     7
370
    25
100
AcDbCircle
 10
284.347002239
 20
1166.107689636
 30
0.0
 40
1.200000000000045
100
AcDbArc
 50
91.2624638198
 51
180.0
  0
LINE
  5
135
330
1F
100
AcDbEntity
  8
0
  6
Continuous
 62
     7
370
    25
100
AcDbLine
 10
283.1470017025
 20
1153.1143424647
 30
0.0
 11
283.1470017025
 21
1068.1073976295
 31
0.0
  0
LINE
  5
136
330
1F
100
AcDbEntity
  8
0
  6
Continuous
 62
     7
370
    25
100
AcDbLine
 10
283.1470017025
 20
1068.1073976295
 30
0.0
 11
283.1470017025
 21
1066.9573986517
 31
0.0
  0
SPLINE
  5
137
330
1F
100
AcDbEntity
  8
0
  6
Continuous
 62
     7
370
    25
100
AcDbSpline
210
0.0
220
0.0
230
1.0
 70
     8
 71
     3
 72
    12
 73
     8
 74
     0
 42
0.000000001
 43
0.00000001
 40
0.0
 40
0.0
 40
0.0
 40
0.0
 40
0.2500000000000006
 40
0.2500000000000006
 40
0.5000000000000011
 40
0.5000000000000011
 40
1.0
 40
1.0
 40
1.0
 40
1.0
 10
312.6735418531324
 20
1171.807398345469
 30
0.0
 10
312.0914050543074
 20
1171.807398345469
 30
0.0
 10
311.5069402654063
 20
1171.83286646804
 30
0.0
 10
310.3403074438852
 20
1171.935335035928
 30
0.0
 10
309.7630311031066
 20
1172.011801529816
 30
0.0
 10
308.0487730299054
 20
1172.31487624628
 30
0.0
 10
306.9292345487095
 20
1172.614599771239
 30
0.0
 10
305.833138986619
 20
1173.013545929751
 30
0.0
  0
LINE
  5
138
330
1F
100
AcDbEntity
  8
0
  6
Continuous
 62
     7
370
    25
100
AcDbLine
 10
335.1470027754
 20
1068.1073976295
 30
0.0
 11
335.1470027754
 21
1101.7007616894
 31
0.0
  0
LINE
  5
139
330
1F
100
AcDbEntity
  8
0
  6
Continuous
 62
     7
370
    25
100
AcDbLine
 10
335.1470027754
 20
1066.9573986517
 30
0.0
 11
335.1470027754
 21
1068.1073976295
 31
0.0
  0
SPLINE
  5
13A
330
1F
100
AcDbEntity
  8
0
  6
Continuous
 62
     7
370
    25
100
AcDbSpline
210
0.0
220
0.0
230
1.0
 70
     8
 71
     3
 72
    36
 73
    32
 74
     0
 42
0.000000001
 43
0.00000001
 40
0.0
 40
0.0
 40
0.0
 40
0.0
 40
0.1250000000000001
 40
0.1250000000000001
 40
0.1875
 40
0.1875
 40
0.25
 40
0.25
 40
0.3749999999999999
 40
0.3749999999999999
 40
0.4062499999999999
 40
0.4062499999999999
 40
0.4374999999999999
 40
0.4374999999999999
 40
0.5
 40
0.5
 40
0.625
 40
0.625
 40
0.6562500000000001
 40
0.6562500000000001
 40
0.6875000000000001
 40
0.6875000000000001
 40
0.75
 40
0.75
 40
0.8124999999999999
 40
0.8124999999999999
 40
0.8437499999999999
 40
0.8437499999999999
 40
0.8749999999999999
 40
0.8749999999999999
 40
1.0
 40
1.0
 40
1.0
 40
1.0
 10
309.1470022389631
 20
1167.3255763978
 30
0.0
 10
310.7309729888486
 20
1167.325577952449
 30
0.0
 10
312.2884961613071
 20
1167.3259890196
 30
0.0
 10
314.5867295221188
 20
1167.327673055894
 30
0.0
 10
315.3464172323108
 20
1167.328687896512
 30
0.0
 10
316.8527174134446
 20
1167.332652076159
 30
0.0
 10
317.6013892560531
 20
1167.335556221199
 30
0.0
 10
319.7792044996175
 20
1167.34686026934
 30
0.0
 10
321.1564190368181
 20
1167.358055569913
 30
0.0
 10
322.7854726064623
 20
1167.375771550661
 30
0.0
 10
323.1066187855151
 20
1167.379480850575
 30
0.0
 10
323.7394345174698
 20
1167.387159754026
 30
0.0
 10
324.0519023920129
 20
1167.391137630019
 30
0.0
 10
324.9685383391245
 20
1167.403331087155
 30
0.0
 10
325.5501667127222
 20
1167.411784132912
 30
0.0
 10
327.2094379590258
 20
1167.437668399018
 30
0.0
 10
328.2022761016595
 20
1167.455656517684
 30
0.0
 10
329.2983232276335
 20
1167.477126718907
 30
0.0
 10
329.5107621365917
 20
1167.481380161036
 30
0.0
 10
329.9170336015222
 20
1167.489660125802
 30
0.0
 10
330.1110611572996
 20
1167.493689895319
 30
0.0
 10
330.666324774585
 20
1167.50539430334
 30
0.0
 10
331.0008050976288
 20
1167.5126826405
 30
0.0
 10
331.5994623535315
 20
1167.525981789694
 30
0.0
 10
331.8636389414132
 20
1167.531993454704
 30
0.0
 10
332.2064643380796
 20
1167.539893415261
 30
0.0
 10
332.3118171230439
 20
1167.542340680588
 30
0.0
 10
332.5043600632293
 20
1167.546838437764
 30
0.0
 10
332.5916565682431
 20
1167.548891473848
 30
0.0
 10
332.9785242133914
 20
1167.558033474874
 30
0.0
 10
333.1338339363742
 20
1167.561809893802
 30
0.0
 10
333.1338306018912
 20
1167.562000926925
 30
0.0
  0
LINE
  5
13B
330
1F
100
AcDbEntity
  8
0
  6
Continuous
 62
     7
370
    25
100
AcDbLine
 10
309.147002239
 20
1167.3254979389
 30
0.0
 11
285.1560451725
 21
1167.3254979389
 31
0.0
  0
LINE
  5
13C
330
1F
100
AcDbEntity
  8
0
  6
Continuous
 62
     7
370
    25
100
AcDbLine
 10
333.1214413682
 20
1168.2717738288
 30
0.0
 11
285.1725631097
 21
1168.2717738288
 31
0.0
  0
LINE
  5
13D
330
1F
100
AcDbEntity
  8
0
  6
Continuous
 62
     7
370
    25
100
AcDbLine
 10
284.1470018664
 20
1181.0466957824
 30
0.0
 11
284.1470018664
 21
1202.1433872717
 31
0.0
  0
ARC
  5
13E
330
1F
100
AcDbEntity
  8
0
  6
Continuous
 62
     7
370
    25
100
AcDbCircle
 10
285.647002239
 20
1202.143390148
 30
0.0
 40
1.500000000000102
100
AcDbArc
 50
91.9102075604
 51
180.0
  0
SPLINE
  5
13F
330
1F
100
AcDbEntity
  8
0
  6
Continuous
 62
     7
370
    25
100
AcDbSpline
210
0.0
220
0.0
230
1.0
 70
     8
 71
     3
 72
     9
 73
     5
 74
     0
 42
0.000000001
 43
0.00000001
 40
0.0
 40
0.0
 40
0.0
 40
0.0
 40
0.5090236883587426
 40
1.0
 40
1.0
 40
1.0
 40
1.0
 10
527.7450103947858
 20
1167.381787075293
 30
0.0
 10
527.733044282808
 20
1167.38220278528
 30
0.0
 10
527.7095363159852
 20
1167.383019466304
 30
0.0
 10
527.7089229213743
 20
1167.38307738926
 30
0.0
 10
527.7086217591504
 20
1167.383105828059
 30
0.0
  0
SPLINE
  5
140
330
1F
100
AcDbEntity
  8
0
  6
Continuous
 62
     7
370
    25
100
AcDbSpline
210
0.0
220
0.0
230
1.0
 70
     8
 71
     3
 72
    21
 73
    17
 74
     0
 42
0.000000001
 43
0.00000001
 40
0.102282063210366
 40
0.102282063210366
 40
0.102282063210366
 40
0.102282063210366
 40
0.1032077346961804
 40
0.109375
 40
0.125
 40
0.1283704440081592
 40
0.140625
 40
0.153776241816202
 40
0.15625
 40
0.1737375891042305
 40
0.1756139121142205
 40
0.1875
 40
0.220272624309741
 40
0.25
 40
0.266807659515252
 40
0.296713759603805
 40
0.296713759603805
 40
0.296713759603805
 40
0.296713759603805
 10
333.1338306018912
 20
1167.562000926925
 30
0.0
 10
333.1919205554893
 20
1167.561916799059
 30
0.0
 10
333.6371872716384
 20
1167.561272379442
 30
0.0
 10
335.0678657144324
 20
1167.559214869716
 30
0.0
 10
336.685215031603
 20
1167.556989535653
 30
0.0
 10
338.776616442681
 20
1167.554370198971
 30
0.0
 10
340.7628811957136
 20
1167.55206355514
 30
0.0
 10
342.769324751696
 20
1167.549971897625
 30
0.0
 10
345.2020564049878
 20
1167.547574263014
 30
0.0
 10
346.8466616769131
 20
1167.546063179306
 30
0.0
 10
349.2399744091757
 20
1167.54397033273
 30
0.0
 10
352.8442789877142
 20
1167.54092426073
 30
0.0
 10
358.7555374331745
 20
1167.536316545554
 30
0.0
 10
365.0361108808309
 20
1167.531366559699
 30
0.0
 10
370.9143647529161
 20
1167.526290366492
 30
0.0
 10
374.4210536173898
 20
1167.523039390407
 30
0.0
 10
376.6470022389625
 20
1167.520925033863
 30
0.0
  0
SPLINE
  5
141
330
1F
100
AcDbEntity
  8
0
  6
Continuous
 62
     7
370
    25
100
AcDbSpline
210
0.0
220
0.0
230
1.0
 70
     8
 71
     3
 72
    38
 73
    34
 74
     0
 42
0.000000001
 43
0.00000001
 40
0.0
 40
0.0
 40
0.0
 40
0.0
 40
0.0625
 40
0.0625
 40
0.125
 40
0.125
 40
0.1875
 40
0.1875
 40
0.25
 40
0.25
 40
0.3125
 40
0.3125
 40
0.375
 40
0.375
 40
0.4375
 40
0.4375
 40
0.5
 40
0.5
 40
0.5625
 40
0.5625
 40
0.625
 40
0.625
 40
0.6875
 40
0.6875
 40
0.75
 40
0.75
 40
0.8125
 40
0.8125
 40
0.875
 40
0.875
 40
0.9375
 40
0.9375
 40
1.0
 40
1.0
 40
1.0
 40
1.0
 10
381.6470022389631
 20
1167.516107167862
 30
0.0
 10
381.6470022389128
 20
1167.516104356484
 30
0.0
 10
381.6307989245045
 20
1167.516081961882
 30
0.0
 10
381.567311043691
 20
1167.516002814855
 30
0.0
 10
381.519256665622
 20
1167.515945188633
 30
0.0
 10
381.3937950058923
 20
1167.515808467984
 30
0.0
 10
381.3170195921473
 20
1167.515730031353
 30
0.0
 10
381.1356319599542
 20
1167.515569577076
 30
0.0
 10
381.0300529531312
 20
1167.515487187436
 30
0.0
 10
380.7994228267143
 20
1167.515345712984
 30
0.0
 10
380.6735826159474
 20
1167.515285676583
 30
0.0
 10
380.4003505833883
 20
1167.515208078686
 30
0.0
 10
380.2548500799869
 20
1167.515191666924
 30
0.0
 10
379.9540684428542
 20
1167.51522050873
 30
0.0
 10
379.7965759623902
 20
1167.515265923988
 30
0.0
 10
379.4739036484897
 20
1167.515430931621
 30
0.0
 10
379.311712681055
 20
1167.515548586041
 30
0.0
 10
378.985666885719
 20
1167.515856881125
 30
0.0
 10
378.8200829725794
 20
1167.516050302565
 30
0.0
 10
378.4994636796087
 20
1167.516494334634
 30
0.0
 10
378.3436310012705
 20
1167.516744887783
 30
0.0
 10
378.0409685005768
 20
1167.517292009641
 30
0.0
 10
377.8945333458408
 20
1167.517588618681
 30
0.0
 10
377.6235655139405
 20
1167.518185301181
 30
0.0
 10
377.4972736875805
 20
1167.518488478689
 30
0.0
 10
377.2637888121884
 20
1167.519083770478
 30
0.0
 10
377.1600706907099
 20
1167.5193668832
 30
0.0
 10
376.9789063411999
 20
1167.519881503979
 30
0.0
 10
376.9006136196529
 20
1167.520115629199
 30
0.0
 10
376.7749647470929
 20
1167.520501573581
 30
0.0
 10
376.7276313267622
 20
1167.520653026781
 30
0.0
 10
376.6635585975924
 20
1167.520862576782
 30
0.0
 10
376.6470022390134
 20
1167.52092013131
 30
0.0
 10
376.6470022389631
 20
1167.520925033863
 30
0.0
  0
LWPOLYLINE
  5
142
330
1F
100
AcDbEntity
  8
0
  6
Continuous
 62
     7
370
    25
100
AcDbPolyline
 90
        5
 70
   128
 43
0.0
 10
521.5843935201
 20
1167.3891258972
 10
486.7622275541
 20
1167.4205300944
 10
445.7917232702
 20
1167.4575222271
 10
413.595879514
 20
1167.4867583053
 10
381.6470001528
 20
1167.5161061423
  0
LWPOLYLINE
  5
143
330
1F
100
AcDbEntity
  8
0
  6
Continuous
 62
     7
370
    25
100
AcDbPolyline
 90
        9
 70
   128
 43
0.0
 10
284.8970015237
 20
1167.3199547069
 10
284.8249469588
 20
1167.3183975356
 10
284.7528923938
 20
1167.3168403642
 10
284.6808378288
 20
1167.3152831929
 10
284.6087814013
 20
1167.3137111204
 10
284.5367268363
 20
1167.3121390479
 10
284.4646722713
 20
1167.3105669754
 10
284.3926177064
 20
1167.3089874523
 10
284.3205631414
 20
1167.3074004786
  0
LWPOLYLINE
  5
144
330
1F
100
AcDbEntity
  8
0
  6
Continuous
 62
     7
370
    25
100
AcDbPolyline
 90
       13
 70
   128
 43
0.0
 10
305.8331390547
 20
1173.0135393875
 10
302.9140388297
 20
1174.0760070818
 10
300.0835469628
 20
1175.1062286632
 10
297.3823492119
 20
1176.0893774765
 10
294.8492710182
 20
1177.0113421219
 10
292.5207224378
 20
1177.8588754671
 10
290.430175204
 20
1178.6197734611
 10
288.6076756457
 20
1179.2830986517
 10
287.0794237295
 20
1179.8393440979
 10
285.8673837671
 20
1180.280492975
 10
284.9889789412
 20
1180.6001973884
 10
284.4568342606
 20
1180.7938826816
 10
284.2785977462
 20
1180.8587623375
  0
ARC
  5
145
330
1F
100
AcDbEntity
  8
0
  6
Continuous
 62
     7
370
    25
100
AcDbCircle
 10
284.347002239
 20
1181.0466957098
 30
0.0
 40
0.2000000000000893
100
AcDbArc
 50
180.0
 51
250.0
  0
LINE
  5
146
330
1F
100
AcDbEntity
  8
0
  6
Continuous
 62
     7
370
    25
100
AcDbLine
 10
326.0110021273
 20
1171.807394697
 30
0.0
 11
312.6735417807
 21
1171.807394697
 31
0.0
  0
LINE
  5
147
330
1F
100
AcDbEntity
  8
0
  6
Continuous
 62
     7
370
    25
100
AcDbLine
 10
535.6470067689
 20
1166.0902289288
 30
0.0
 11
535.6470067689
 21
1155.1606071727
 31
0.0
  0
SPLINE
  5
148
330
1F
100
AcDbEntity
  8
0
  6
Continuous
 62
     7
370
    25
100
AcDbSpline
210
0.0
220
0.0
230
1.0
 70
     8
 71
     3
 72
    30
 73
    26
 74
     0
 42
0.000000001
 43
0.00000001
 40
0.0
 40
0.0
 40
0.0
 40
0.0
 40
0.1250000000000021
 40
0.1250000000000021
 40
0.1875000000000019
 40
0.1875000000000019
 40
0.2500000000000018
 40
0.2500000000000018
 40
0.3749999999999994
 40
0.3749999999999994
 40
0.4374999999999993
 40
0.4374999999999993
 40
0.4999999999999992
 40
0.4999999999999992
 40
0.6250000000000016
 40
0.6250000000000016
 40
0.6875000000000029
 40
0.6875000000000029
 40
0.7500000000000041
 40
0.7500000000000041
 40
0.8750000000000036
 40
0.8750000000000036
 40
0.9375000000000019
 40
0.9375000000000019
 40
1.0
 40
1.0
 40
1.0
 40
1.0
 10
387.6439582540172
 20
1140.480924155021
 30
0.0
 10
387.2263127233573
 20
1140.608661992805
 30
0.0
 10
386.7704919479643
 20
1140.741321284286
 30
0.0
 10
386.0304916100303
 20
1140.936413861072
 30
0.0
 10
385.7743771955021
 20
1141.000783719204
 30
0.0
 10
385.2425723155719
 20
1141.126071832217
 30
0.0
 10
384.965611447344
 20
1141.18724570362
 30
0.0
 10
384.1126925664403
 20
1141.360127276032
 30
0.0
 10
383.5207889665066
 20
1141.460157330772
 30
0.0
 10
382.5970315596928
 20
1141.575238562026
 30
0.0
 10
382.2830925720333
 20
1141.607765556034
 30
0.0
 10
381.6425559629415
 20
1141.658987510621
 30
0.0
 10
381.313880832406
 20
1141.677703768808
 30
0.0
 10
380.3285137044558
 20
1141.709214518848
 30
0.0
 10
379.6702293991571
 20
1141.697907187171
 30
0.0
 10
378.6809452414115
 20
1141.630216450365
 30
0.0
 10
378.3508696764926
 20
1141.599217145846
 30
0.0
 10
377.6900683160744
 20
1141.520200250002
 30
0.0
 10
377.3617979941313
 20
1141.472400974652
 30
0.0
 10
376.397000658167
 20
1141.308280571762
 30
0.0
 10
375.7744756684186
 20
1141.17055304692
 30
0.0
 10
374.8690061610043
 20
1140.93126949399
 30
0.0
 10
374.5714877269142
 20
1140.845887082007
 30
0.0
 10
373.9931698181221
 20
1140.668329505402
 30
0.0
 10
373.711412198525
 20
1140.575923722292
 30
0.0
 10
373.4367399262827
 20
1140.480924155025
 30
0.0
  0
SPLINE
  5
149
330
1F
100
AcDbEntity
  8
0
  6
Continuous
 62
     7
370
    25
100
AcDbSpline
210
0.0
220
0.0
230
1.0
 70
     8
 71
     3
 72
    22
 73
    18
 74
     0
 42
0.000000001
 43
0.00000001
 40
0.0
 40
0.0
 40
0.0
 40
0.0
 40
0.2500000000000002
 40
0.2500000000000002
 40
0.3750000000000002
 40
0.3750000000000002
 40
0.5000000000000003
 40
0.5000000000000003
 40
0.6250000000000004
 40
0.6250000000000004
 40
0.6875000000000004
 40
0.6875000000000004
 40
0.7500000000000004
 40
0.7500000000000004
 40
0.8750000000000002
 40
0.8750000000000002
 40
1.0
 40
1.0
 40
1.0
 40
1.0
 10
374.4216359688839
 20
1140.480924155024
 30
0.0
 10
373.5736266161289
 20
1140.230231768021
 30
0.0
 10
372.8096407803492
 20
1139.955860924583
 30
0.0
 10
371.7744166402592
 20
1139.549495297087
 30
0.0
 10
371.4462126920866
 20
1139.41395752323
 30
0.0
 10
370.8446980804987
 20
1139.157775784966
 30
0.0
 10
370.5697293908216
 20
1139.036551088083
 30
0.0
 10
370.0709249290787
 20
1138.81287709978
 30
0.0
 10
369.8470772316358
 20
1138.710409179658
 30
0.0
 10
369.552045401379
 20
1138.574493496987
 30
0.0
 10
369.4607559319085
 20
1138.532262030489
 30
0.0
 10
369.295263665593
 20
1138.45561945709
 30
0.0
 10
369.2206064962826
 20
1138.420998714482
 30
0.0
 10
369.0206946948205
 20
1138.328399824388
 30
0.0
 10
368.9193793595068
 20
1138.281681890059
 30
0.0
 10
368.7824468144639
 20
1138.219110405451
 30
0.0
 10
368.7470022389968
 20
1138.203337131644
 30
0.0
 10
368.747002238963
 20
1138.203337131642
 30
0.0
  0
LINE
  5
14A
330
1F
100
AcDbEntity
  8
0
  6
Continuous
 62
     7
370
    25
100
AcDbLine
 10
363.1065432617
 20
1137.8188071387
 30
0.0
 11
368.7470015774
 21
1138.2033390539
 31
0.0
  0
LINE
  5
14B
330
1F
100
AcDbEntity
  8
0
  6
Continuous
 62
     7
370
    25
100
AcDbLine
 10
389.5469997713
 20
1139.6213410037
 30
0.0
 11
491.2349899003
 21
1146.5537337201
 31
0.0
  0
SPLINE
  5
14C
330
1F
100
AcDbEntity
  8
0
  6
Continuous
 62
     7
370
    25
100
AcDbSpline
210
0.0
220
0.0
230
1.0
 70
     8
 71
     3
 72
    16
 73
    12
 74
     0
 42
0.000000001
 43
0.00000001
 40
0.0
 40
0.0
 40
0.0
 40
0.0
 40
0.2499999999999992
 40
0.2499999999999992
 40
0.3749999999999993
 40
0.3749999999999993
 40
0.4999999999999994
 40
0.4999999999999994
 40
0.7499999999999997
 40
0.7499999999999997
 40
1.0
 40
1.0
 40
1.0
 40
1.0
 10
389.5470022389631
 20
1139.621338874125
 30
0.0
 10
389.5470022389169
 20
1139.621338874121
 30
0.0
 10
389.4823711950498
 20
1139.640509390413
 30
0.0
 10
389.2930058728967
 20
1139.699105410134
 30
0.0
 10
389.2143705626478
 20
1139.723606059173
 30
0.0
 10
389.0255235088607
 20
1139.782633668602
 30
0.0
 10
388.9148770660998
 20
1139.817297379291
 30
0.0
 10
388.5428467922301
 20
1139.933353992364
 30
0.0
 10
388.2400204754957
 20
1140.027433518118
 30
0.0
 10
387.5268240813526
 20
1140.240156353552
 30
0.0
 10
387.1145659615702
 20
1140.35928072538
 30
0.0
 10
386.6572719136579
 20
1140.480924155021
 30
0.0
  0
SPLINE
  5
14D
330
1F
100
AcDbEntity
  8
0
  6
Continuous
 62
     7
370
    25
100
AcDbSpline
210
0.0
220
0.0
230
1.0
 70
     8
 71
     3
 72
     8
 73
     4
 74
     0
 42
0.000000001
 43
0.00000001
 40
0.0
 40
0.0
 40
0.0
 40
0.0
 40
1.0
 40
1.0
 40
1.0
 40
1.0
 10
503.0901807583269
 20
1147.361969316787
 30
0.0
 10
499.1384086187321
 20
1147.094900787137
 30
0.0
 10
495.1867539599056
 20
1146.821601828165
 30
0.0
 10
491.2349941680552
 20
1146.553878453066
 30
0.0
  0
SPLINE
  5
14E
330
1F
100
AcDbEntity
  8
0
  6
Continuous
 62
     7
370
    25
100
AcDbSpline
210
0.0
220
0.0
230
1.0
 70
     8
 71
     3
 72
     8
 73
     4
 74
     0
 42
0.000000001
 43
0.00000001
 40
0.1542055173442705
 40
0.1542055173442705
 40
0.1542055173442705
 40
0.1542055173442705
 40
1.0
 40
1.0
 40
1.0
 40
1.0
 10
535.1281064066957
 20
1153.854745744159
 30
0.0
 10
534.1487941783898
 20
1153.118635042223
 30
0.0
 10
533.0070768312079
 20
1152.621429761643
 30
0.0
 10
531.7944217875711
 20
1152.407605959157
 30
0.0
  0
LINE
  5
14F
330
1F
100
AcDbEntity
  8
0
  6
Continuous
 62
     7
370
    25
100
AcDbLine
 10
529.5582283923
 20
1167.3814741509
 30
0.0
 11
530.4735918233
 21
1167.3809004562
 31
0.0
  0
SPLINE
  5
150
330
1F
100
AcDbEntity
  8
0
  6
Continuous
 62
     7
370
    25
100
AcDbSpline
210
0.0
220
0.0
230
1.0
 70
     8
 71
     3
 72
     9
 73
     5
 74
     0
 42
0.000000001
 43
0.00000001
 40
0.0
 40
0.0
 40
0.0
 40
0.0
 40
0.4998314976249944
 40
1.0
 40
1.0
 40
1.0
 40
1.0
 10
530.473586357544
 20
1167.380901038824
 30
0.0
 10
531.1416535147565
 20
1167.377665054211
 30
0.0
 10
532.4782382645907
 20
1167.371190903164
 30
0.0
 10
533.8144092691765
 20
1167.337311130279
 30
0.0
 10
534.4827199194573
 20
1167.320365535014
 30
0.0
  0
ARC
  5
151
330
1F
100
AcDbEntity
  8
0
  6
Continuous
 62
     7
370
    25
100
AcDbCircle
 10
534.347002239
 20
1154.8939167018
 30
0.0
 40
1.299999999999955
100
AcDbArc
 50
306.93075281
 51
0.0
  0
SPLINE
  5
152
330
1F
100
AcDbEntity
  8
0
  6
Continuous
 62
     7
370
    25
100
AcDbSpline
210
0.0
220
0.0
230
1.0
 70
    24
 71
     3
 72
    16
 73
    12
 74
     0
 42
0.000000001
 43
0.00000001
 40
0.0
 40
0.0
 40
0.0
 40
0.0
 40
0.0624999999999998
 40
0.0624999999999998
 40
0.1249999999999996
 40
0.1249999999999996
 40
0.2499999999999998
 40
0.2499999999999998
 40
0.4999999999999998
 40
0.4999999999999998
 40
1.0
 40
1.0
 40
1.0
 40
1.0
 10
535.6470022389631
 20
1155.16060582361
 30
0.0
 10
535.6470022389631
 20
1155.137434181477
 30
0.0
 10
535.6470022389632
 20
1155.132175545247
 30
0.0
 10
535.6470022389632
 20
1155.121068196701
 30
0.0
 10
535.6470022389631
 20
1155.115536031175
 30
0.0
 10
535.6470022389631
 20
1155.098259848494
 30
0.0
 10
535.647002238963
 20
1155.086156220081
 30
0.0
 10
535.647002238963
 20
1155.0484449045
 30
0.0
 10
535.6470022389631
 20
1155.021226949197
 30
0.0
 10
535.6470022389631
 20
1154.942014965829
 30
0.0
 10
535.6470022389631
 20
1154.893916701774
 30
0.0
 10
535.6470022389631
 20
1154.893916701774
 30
0.0
  0
SPLINE
  5
153
330
1F
100
AcDbEntity
  8
0
  6
Continuous
 62
     7
370
    25
100
AcDbSpline
210
0.0
220
0.0
230
1.0
 70
    24
 71
     3
 72
    14
 73
    10
 74
     0
 42
0.000000001
 43
0.00000001
 40
0.0
 40
0.0
 40
0.0
 40
0.0
 40
0.00277554271217
 40
0.00277554271217
 40
0.00277554271217
 40
0.0109679136508772
 40
0.0109679136508772
 40
0.0109679136508772
 40
0.0191602876377872
 40
0.0191602876377872
 40
0.0191602876377872
 40
0.0191602876377872
 10
535.6470022389631
 20
1166.120895415244
 30
0.0
 10
535.6470022389631
 20
1166.119290184436
 30
0.0
 10
535.6470022389631
 20
1166.117638443385
 30
0.0
 10
535.6470022389631
 20
1166.116007268887
 30
0.0
 10
535.6470022389631
 20
1166.111192647864
 30
0.0
 10
535.6470022389631
 20
1166.106801580572
 30
0.0
 10
535.6470022389631
 20
1166.10317806262
 30
0.0
 10
535.6470022389631
 20
1166.099554543333
 30
0.0
 10
535.6470022389631
 20
1166.096979574794
 30
0.0
 10
535.6470022389631
 20
1166.090229976776
 30
0.0
  0
SPLINE
  5
154
330
1F
100
AcDbEntity
  8
0
  6
Continuous
 62
     7
370
    25
100
AcDbSpline
210
0.0
220
0.0
230
1.0
 70
     8
 71
     3
 72
    14
 73
    10
 74
     0
 42
0.000000001
 43
0.00000001
 40
0.0
 40
0.0
 40
0.0
 40
0.0
 40
0.25
 40
0.25
 40
0.5
 40
0.5
 40
0.75
 40
0.75
 40
1.0
 40
1.0
 40
1.0
 40
1.0
 10
535.6470022389631
 20
1166.12089541525
 30
0.0
 10
535.647002238963
 20
1166.27499848271
 30
0.0
 10
535.616955839788
 20
1166.429045293951
 30
0.0
 10
535.5011328672197
 20
1166.714660247576
 30
0.0
 10
535.4153985218178
 20
1166.846124264571
 30
0.0
 10
535.2007320879544
 20
1167.06727813319
 30
0.0
 10
535.071878261997
 20
1167.156887361124
 30
0.0
 10
534.789837847159
 20
1167.281160157745
 30
0.0
 10
534.6367540820177
 20
1167.315778423267
 30
0.0
 10
534.4827199194496
 20
1167.320365535014
 30
0.0
  0
LINE
  5
155
330
1F
100
AcDbEntity
  8
0
  6
Continuous
 62
     7
370
    25
100
AcDbLine
 10
334.1470026115
 20
1175.3003162878
 30
0.0
 11
334.1470026115
 21
1172.0073980825
 31
0.0
  0
ARC
  5
156
330
1F
100
AcDbEntity
  8
0
  6
Continuous
 62
     7
370
    25
100
AcDbCircle
 10
333.947002239
 20
1172.0073983455
 30
0.0
 40
0.2000000000000455
100
AcDbArc
 50
270.0
 51
0.0
  0
LINE
  5
157
330
1F
100
AcDbEntity
  8
0
  6
Continuous
 62
     7
370
    25
100
AcDbLine
 10
333.9470029512
 20
1171.807394697
 30
0.0
 11
326.0110021273
 21
1171.807394697
 31
0.0
  0
LINE
  5
158
330
1F
100
AcDbEntity
  8
0
  6
Continuous
 62
     7
370
    25
100
AcDbLine
 10
242.6625881979
 20
1281.0574037569
 30
0.0
 11
209.6314151475
 21
1281.0574037569
 31
0.0
  0
SPLINE
  5
159
330
1F
100
AcDbEntity
  8
0
  6
Continuous
 62
     7
370
    25
100
AcDbSpline
210
0.0
220
0.0
230
1.0
 70
    24
 71
     3
 72
    10
 73
     6
 74
     0
 42
0.000000001
 43
0.00000001
 40
0.0
 40
0.0
 40
0.0
 40
0.0
 40
0.5
 40
0.5
 40
1.0
 40
1.0
 40
1.0
 40
1.0
 10
358.23173502097
 20
1198.757743056378
 30
0.0
 10
356.4505279429819
 20
1198.74530768308
 30
0.0
 10
354.6693124478383
 20
1198.732872251019
 30
0.0
 10
351.1100741966594
 20
1198.708023676783
 30
0.0
 10
349.3321017616568
 20
1198.695610885921
 30
0.0
 10
347.5570739740754
 20
1198.68321865291
 30
0.0
  0
LINE
  5
15A
330
1F
100
AcDbEntity
  8
0
  6
Continuous
 62
     7
370
    25
100
AcDbLine
 10
226.147005398
 20
1270.5574048298
 30
0.0
 11
243.0694197008
 21
1270.5574048298
 31
0.0
  0
LINE
  5
15B
330
1F
100
AcDbEntity
  8
0
  6
Continuous
 62
     7
370
    25
100
AcDbLine
 10
209.2245836446
 20
1270.5574048298
 30
0.0
 11
226.147005398
 21
1270.5574048298
 31
0.0
  0
SPLINE
  5
15C
330
1F
100
AcDbEntity
  8
0
  6
Continuous
 62
     7
370
    25
100
AcDbSpline
210
0.0
220
0.0
230
1.0
 70
    24
 71
     3
 72
    22
 73
    18
 74
     0
 42
0.000000001
 43
0.00000001
 40
0.0
 40
0.0
 40
0.0
 40
0.0
 40
0.1249999999999999
 40
0.1249999999999999
 40
0.2499999999999998
 40
0.2499999999999998
 40
0.3749999999999998
 40
0.3749999999999998
 40
0.4999999999999999
 40
0.4999999999999999
 40
0.6249999999999999
 40
0.6249999999999999
 40
0.7499999999999999
 40
0.7499999999999999
 40
0.875
 40
0.875
 40
1.0
 40
1.0
 40
1.0
 40
1.0
 10
211.6557141979598
 20
1196.324372079016
 30
0.0
 10
211.6557141979598
 20
1196.324372079019
 30
0.0
 10
212.032883637265
 20
1196.324372079022
 30
0.0
 10
213.4847119988657
 20
1196.324372079028
 30
0.0
 10
214.5587996886966
 20
1196.324372079031
 30
0.0
 10
217.2414287047009
 20
1196.324372079035
 30
0.0
 10
218.84891453091
 20
1196.324372079037
 30
0.0
 10
222.3539382517235
 20
1196.32437207904
 30
0.0
 10
224.2500970691653
 20
1196.32437207904
 30
0.0
 10
228.043907406413
 20
1196.32437207904
 30
0.0
 10
229.9400662238544
 20
1196.32437207904
 30
0.0
 10
233.4450899446661
 20
1196.324372079037
 30
0.0
 10
235.0525757708738
 20
1196.324372079035
 30
0.0
 10
237.7352047868747
 20
1196.324372079031
 30
0.0
 10
238.8092924767037
 20
1196.324372079028
 30
0.0
 10
240.2611208382999
 20
1196.324372079022
 30
0.0
 10
240.6382902776027
 20
1196.324372079019
 30
0.0
 10
240.6382902776004
 20
1196.324372079016
 30
0.0
  0
SPLINE
  5
15D
330
1F
100
AcDbEntity
  8
0
  6
Continuous
 62
     7
370
    25
100
AcDbSpline
210
0.0
220
0.0
230
1.0
 70
    24
 71
     3
 72
    22
 73
    18
 74
     0
 42
0.000000001
 43
0.00000001
 40
0.0
 40
0.0
 40
0.0
 40
0.0
 40
0.125
 40
0.125
 40
0.25
 40
0.25
 40
0.375
 40
0.375
 40
0.5
 40
0.5
 40
0.625
 40
0.625
 40
0.75
 40
0.75
 40
0.875
 40
0.875
 40
1.0
 40
1.0
 40
1.0
 40
1.0
 10
210.1664688070187
 20
1066.207398345624
 30
0.0
 10
210.1664688070186
 20
1066.207398345627
 30
0.0
 10
210.5823993175225
 20
1066.207398345631
 30
0.0
 10
212.183429646801
 20
1066.207398345637
 30
0.0
 10
213.367899528508
 20
1066.20739834564
 30
0.0
 10
216.3262178328081
 20
1066.207398345645
 30
0.0
 10
218.0989022834745
 20
1066.207398345647
 30
0.0
 10
221.9641314181884
 20
1066.20739834565
 30
0.0
 10
224.0551552996245
 20
1066.207398345651
 30
0.0
 10
228.238849167381
 20
1066.207398345651
 30
0.0
 10
230.3298730488166
 20
1066.20739834565
 30
0.0
 10
234.1951021835286
 20
1066.207398345647
 30
0.0
 10
235.9677866341936
 20
1066.207398345645
 30
0.0
 10
238.9261049384902
 20
1066.20739834564
 30
0.0
 10
240.1105748201952
 20
1066.207398345637
 30
0.0
 10
241.7116051494689
 20
1066.207398345631
 30
0.0
 10
242.1275356599704
 20
1066.207398345627
 30
0.0
 10
242.1275356599679
 20
1066.207398345624
 30
0.0
  0
LINE
  5
15E
330
1F
100
AcDbEntity
  8
0
  6
Continuous
 62
     7
370
    25
100
AcDbLine
 10
396.3642810175
 20
1199.0239632862
 30
0.0
 11
358.2317364106
 21
1198.7577391403
 31
0.0
  0
ARC
  5
15F
330
1F
100
AcDbEntity
  8
0
  6
Continuous
 62
     7
370
    25
100
AcDbCircle
 10
397.647002239
 20
1200.5329545572
 30
0.0
 40
1.499999999999943
100
AcDbArc
 50
270.4
 51
0.0
  0
SPLINE
  5
160
330
1F
100
AcDbEntity
  8
0
  6
Continuous
 62
     7
370
    25
100
AcDbSpline
210
0.0
220
0.0
230
1.0
 70
    24
 71
     3
 72
    24
 73
    20
 74
     0
 42
0.000000001
 43
0.00000001
 40
0.0
 40
0.0
 40
0.0
 40
0.0
 40
0.250000000000046
 40
0.250000000000046
 40
0.3750000000000691
 40
0.3750000000000691
 40
0.4375000000000817
 40
0.4375000000000817
 40
0.4687500000000835
 40
0.4687500000000835
 40
0.5000000000000855
 40
0.5000000000000855
 40
0.5625000000000772
 40
0.5625000000000772
 40
0.6250000000000687
 40
0.6250000000000687
 40
0.7500000000000518
 40
0.7500000000000518
 40
1.0
 40
1.0
 40
1.0
 40
1.0
 10
397.6574741294101
 20
1199.032991111134
 30
0.0
 10
397.6574741294101
 20
1199.032991111134
 30
0.0
 10
397.6583371058206
 20
1199.032997135944
 30
0.0
 10
397.6305256786387
 20
1199.0328029724
 30
0.0
 10
397.6165059840173
 20
1199.032705094877
 30
0.0
 10
397.5812512682758
 20
1199.032458966532
 30
0.0
 10
397.5671340666307
 20
1199.032360408271
 30
0.0
 10
397.5399423289917
 20
1199.032170571046
 30
0.0
 10
397.5298432207147
 20
1199.032100064824
 30
0.0
 10
397.5063115400172
 20
1199.031935780032
 30
0.0
 10
397.4927869583594
 20
1199.031841359106
 30
0.0
 10
397.4382469566891
 20
1199.031460591879
 30
0.0
 10
397.3928815943555
 20
1199.031143876758
 30
0.0
 10
397.3040338932031
 20
1199.030523592714
 30
0.0
 10
397.2581302836093
 20
1199.030203119857
 30
0.0
 10
397.1189889138162
 20
1199.029231714063
 30
0.0
 10
397.0254047214009
 20
1199.028578362535
 30
0.0
 10
396.7434432235211
 20
1199.026609867953
 30
0.0
 10
396.5537853408767
 20
1199.02528578464
 30
0.0
 10
396.3642808823909
 20
1199.023962772447
 30
0.0
  0
LINE
  5
161
330
1F
100
AcDbEntity
  8
0
  6
Continuous
 62
     7
370
    25
100
AcDbLine
 10
399.1470058152
 20
1202.1433872717
 30
0.0
 11
399.1470058152
 21
1200.5329591768
 31
0.0
  0
ARC
  5
162
330
1F
100
AcDbEntity
  8
0
  6
Continuous
 62
     7
370
    25
100
AcDbCircle
 10
397.647002239
 20
1202.143390148
 30
0.0
 40
1.499999999999943
100
AcDbArc
 50
0.0
 51
88.0897868283
  0
SPLINE
  5
163
330
1F
100
AcDbEntity
  8
0
  6
Continuous
 62
     7
370
    25
100
AcDbSpline
210
0.0
220
0.0
230
1.0
 70
    24
 71
     3
 72
    28
 73
    24
 74
     0
 42
0.000000001
 43
0.00000001
 40
0.0
 40
0.0
 40
0.0
 40
0.0
 40
0.1249999999999947
 40
0.1249999999999947
 40
0.1874999999999941
 40
0.1874999999999941
 40
0.2499999999999934
 40
0.2499999999999934
 40
0.3749999999999952
 40
0.3749999999999952
 40
0.499999999999997
 40
0.499999999999997
 40
0.5624999999999978
 40
0.5624999999999978
 40
0.6249999999999986
 40
0.6249999999999986
 40
0.7499999999999983
 40
0.7499999999999983
 40
0.8124999999999989
 40
0.8124999999999989
 40
0.8749999999999994
 40
0.8749999999999994
 40
1.0
 40
1.0
 40
1.0
 40
1.0
 10
517.514709368894
 20
1149.889707382987
 30
0.0
 10
516.602540259657
 20
1149.728867358059
 30
0.0
 10
515.698085550438
 20
1149.569387589995
 30
0.0
 10
514.3582334844447
 20
1149.333135520603
 30
0.0
 10
513.9126478715198
 20
1149.254566754828
 30
0.0
 10
513.0388312682379
 20
1149.100489311479
 30
0.0
 10
512.6099667005417
 20
1149.024868917124
 30
0.0
 10
511.3487368242905
 20
1148.802480061065
 30
0.0
 10
510.5410610294533
 20
1148.66006502677
 30
0.0
 10
508.995506976757
 20
1148.387542147137
 30
0.0
 10
508.2804471706672
 20
1148.261457810503
 30
0.0
 10
507.2979371009356
 20
1148.088214776392
 30
0.0
 10
506.9852386700521
 20
1148.033077606202
 30
0.0
 10
506.389869452458
 20
1147.928097949657
 30
0.0
 10
506.1068614236867
 20
1147.878195998427
 30
0.0
 10
505.3216965085157
 20
1147.739750239577
 30
0.0
 10
504.8765898757175
 20
1147.661265930922
 30
0.0
 10
504.3295488489676
 20
1147.564807838351
 30
0.0
 10
504.1665946038971
 20
1147.536074608325
 30
0.0
 10
503.8863547814943
 20
1147.486660766566
 30
0.0
 10
503.7688370479939
 20
1147.465939219438
 30
0.0
 10
503.4827853134268
 20
1147.415500580756
 30
0.0
 10
503.3801834315916
 20
1147.397409100717
 30
0.0
 10
503.3769784450306
 20
1147.396843975113
 30
0.0
  0
ARC
  5
164
330
1F
100
AcDbEntity
  8
0
  6
Continuous
 62
     7
370
    25
100
AcDbCircle
 10
502.9081740476
 20
1150.0559097642
 30
0.0
 40
2.700078000859456
100
AcDbArc
 50
273.8649977245
 51
279.998705213
  0
SPLINE
  5
165
330
1F
100
AcDbEntity
  8
0
  6
Continuous
 62
     7
370
    25
100
AcDbSpline
210
0.0
220
0.0
230
1.0
 70
    24
 71
     3
 72
    28
 73
    24
 74
     0
 42
0.000000001
 43
0.00000001
 40
0.0
 40
0.0
 40
0.0
 40
0.0
 40
0.1249999999999984
 40
0.1249999999999984
 40
0.1874999999999976
 40
0.1874999999999976
 40
0.2499999999999968
 40
0.2499999999999968
 40
0.3749999999999971
 40
0.3749999999999971
 40
0.4374999999999974
 40
0.4374999999999974
 40
0.4999999999999977
 40
0.4999999999999977
 40
0.562499999999998
 40
0.562499999999998
 40
0.6249999999999982
 40
0.6249999999999982
 40
0.7499999999999988
 40
0.7499999999999988
 40
0.8749999999999994
 40
0.8749999999999994
 40
1.0
 40
1.0
 40
1.0
 40
1.0
 10
531.646345301757
 20
1152.3814960795
 30
0.0
 10
531.5243448024286
 20
1152.359984099808
 30
0.0
 10
531.3297123251876
 20
1152.325665142748
 30
0.0
 10
530.9344240542067
 20
1152.255965155417
 30
0.0
 10
530.7853332605254
 20
1152.229676425916
 30
0.0
 10
530.4521788497751
 20
1152.170932314558
 30
0.0
 10
530.2672212244235
 20
1152.138319294921
 30
0.0
 10
529.6647693780769
 20
1152.032090779833
 30
0.0
 10
529.2039185542126
 20
1151.950830345504
 30
0.0
 10
528.4269939976407
 20
1151.813837584205
 30
0.0
 10
528.1536592289392
 20
1151.765641289717
 30
0.0
 10
527.5777234307003
 20
1151.664088269332
 30
0.0
 10
527.2739875021817
 20
1151.610531430124
 30
0.0
 10
526.6352213797642
 20
1151.497899728379
 30
0.0
 10
526.2985749217485
 20
1151.438539874871
 30
0.0
 10
525.6030093365645
 20
1151.31589289535
 30
0.0
 10
525.2432579807037
 20
1151.252459024966
 30
0.0
 10
524.1328153917382
 20
1151.056658036003
 30
0.0
 10
523.3579508433871
 20
1150.920028509735
 30
0.0
 10
521.7503414509865
 20
1150.636563599414
 30
0.0
 10
520.9362634633075
 20
1150.493019685785
 30
0.0
 10
519.2905891564088
 20
1150.202842904021
 30
0.0
 10
518.4590449175528
 20
1150.056219219057
 30
0.0
 10
517.6195376205351
 20
1149.908191432091
 30
0.0
  0
LINE
  5
166
330
1F
100
AcDbEntity
  8
0
  6
Continuous
 62
     7
370
    25
100
AcDbLine
 10
517.6133234689
 20
1149.9070984857
 30
0.0
 11
517.5147075841
 21
1149.8897088306
 31
0.0
  0
SPLINE
  5
167
330
1F
100
AcDbEntity
  8
0
  6
Continuous
 62
     7
370
    25
100
AcDbSpline
210
0.0
220
0.0
230
1.0
 70
     8
 71
     3
 72
    21
 73
    17
 74
     0
 42
0.000000001
 43
0.00000001
 40
0.0
 40
0.0
 40
0.0
 40
0.0
 40
0.0038848508588345
 40
0.0731953925923911
 40
0.1602994053413856
 40
0.2195974170349205
 40
0.2805638257785041
 40
0.3418630755564213
 40
0.4046091603023144
 40
0.4921169880126465
 40
0.580253420036547
 40
0.6796187742415332
 40
0.7817602819977654
 40
0.8833996453509343
 40
0.9647787562903848
 40
1.0
 40
1.0
 40
1.0
 40
1.0
 10
240.5939270446042
 20
1062.812700270307
 30
0.0
 10
240.5956364307154
 20
1062.815733617703
 30
0.0
 10
240.6278433781741
 20
1062.872885632436
 30
0.0
 10
240.4070798317246
 20
1062.460012953311
 30
0.0
 10
239.826021017581
 20
1061.372503564874
 30
0.0
 10
239.0770698359409
 20
1059.897785840482
 30
0.0
 10
238.3717820537606
 20
1058.402863025177
 30
0.0
 10
237.662382747336
 20
1056.698517886969
 30
0.0
 10
236.9528673214953
 20
1054.568258050458
 30
0.0
 10
236.4531825012141
 20
1051.912423544288
 30
0.0
 10
236.7241348833072
 20
1048.737424995127
 30
0.0
 10
237.7699870853964
 20
1045.801329328764
 30
0.0
 10
239.0698717461672
 20
1043.262157468558
 30
0.0
 10
240.0817855017378
 20
1041.542572750414
 30
0.0
 10
240.5994107376121
 20
1040.698939639594
 30
0.0
 10
240.5490560928616
 20
1040.779347969466
 30
0.0
 10
240.5338455626706
 20
1040.80363675822
 30
0.0
  0
LINE
  5
168
330
1F
100
AcDbEntity
  8
0
  6
Continuous
 62
     7
370
    25
100
AcDbLine
 10
226.1230368802
 20
1036.207398268
 30
0.0
 11
211.646797199
 21
1036.207398268
 31
0.0
  0
LINE
  5
169
330
1F
100
AcDbEntity
  8
0
  6
Continuous
 62
     7
370
    25
100
AcDbLine
 10
240.5992840121
 20
1036.207398268
 30
0.0
 11
226.1230368802
 21
1036.207398268
 31
0.0
  0
SPLINE
  5
16A
330
1F
100
AcDbEntity
  8
0
  6
Continuous
 62
     7
370
    25
100
AcDbSpline
210
0.0
220
0.0
230
1.0
 70
    24
 71
     3
 72
     8
 73
     4
 74
     0
 42
0.000000001
 43
0.00000001
 40
0.0
 40
0.0
 40
0.0
 40
0.0
 40
1.0
 40
1.0
 40
1.0
 40
1.0
 10
236.1470022385359
 20
1201.914954005493
 30
0.0
 10
236.147002238536
 20
1223.435326205494
 30
0.0
 10
236.147002238536
 20
1244.958696815496
 30
0.0
 10
236.1470022385359
 20
1266.483311465498
 30
0.0
  0
SPLINE
  5
16B
330
1F
100
AcDbEntity
  8
0
  6
Continuous
 62
     7
370
    25
100
AcDbSpline
210
0.0
220
0.0
230
1.0
 70
    24
 71
     3
 72
    11
 73
     7
 74
     0
 42
0.000000001
 43
0.00000001
 40
0.0
 40
0.0
 40
0.0
 40
0.0
 40
0.2500782630419455
 40
0.500156399288078
 40
0.7502348189554966
 40
1.0
 40
1.0
 40
1.0
 40
1.0
 10
236.6293613502721
 20
1264.5073992746
 30
0.0
 10
237.2004422785845
 20
1264.5073992746
 30
0.0
 10
238.3426038456574
 20
1264.5073992746
 30
0.0
 10
239.5228224074075
 20
1264.5073992746
 30
0.0
 10
240.2984760874677
 20
1264.5073992746
 30
0.0
 10
240.3940361166712
 20
1264.5073992746
 30
0.0
 10
240.4417861888151
 20
1264.5073992746
 30
0.0
  0
SPLINE
  5
16C
330
1F
100
AcDbEntity
  8
0
  6
Continuous
 62
     7
370
    25
100
AcDbSpline
210
0.0
220
0.0
230
1.0
 70
     8
 71
     3
 72
    11
 73
     7
 74
     0
 42
0.000000001
 43
0.00000001
 40
0.0
 40
0.0
 40
0.0
 40
0.0
 40
0.2111165670196264
 40
0.5000360542041892
 40
0.8105007609174215
 40
1.0
 40
1.0
 40
1.0
 40
1.0
 10
236.6293591943281
 20
1264.507398228595
 30
0.0
 10
236.6138601892618
 20
1264.506946814538
 30
0.0
 10
236.5771503211221
 20
1264.505877626518
 30
0.0
 10
236.511994763255
 20
1264.497130704659
 30
0.0
 10
236.4485949767213
 20
1264.483413485716
 30
0.0
 10
236.4069743692264
 20
1264.47172816509
 30
0.0
 10
236.3911990847949
 20
1264.467299126986
 30
0.0
  0
LWPOLYLINE
  5
16D
330
1F
100
AcDbEntity
  8
0
  6
Continuous
 62
     7
370
    25
100
AcDbPolyline
 90
        8
 70
   128
 43
0.0
 10
530.5345077703
 20
1146.3044149416
 10
530.487524409
 20
1146.2961298959
 10
530.1138479898
 20
1146.2302444117
 10
529.3783862779
 20
1146.1005596058
 10
528.3044595906
 20
1145.9111956494
 10
526.9261617849
 20
1145.6681651609
 10
525.2872724721
 20
1145.3791869419
 10
523.4397818038
 20
1145.0534252064
  0
LINE
  5
16E
330
1F
100
AcDbEntity
  8
0
  6
Continuous
 62
     7
370
    25
100
AcDbLine
 10
523.4397818038
 20
1145.0534252064
 30
0.0
 11
522.8454489896
 21
1148.4240753191
 31
0.0
  0
LINE
  5
16F
330
1F
100
AcDbEntity
  8
0
  6
Continuous
 62
     7
370
    25
100
AcDbLine
 10
513.3994986007
 20
1146.7585054772
 30
0.0
 11
513.9938463161
 21
1143.387847914
 31
0.0
  0
LWPOLYLINE
  5
170
330
1F
100
AcDbEntity
  8
0
  6
Continuous
 62
     7
370
    25
100
AcDbPolyline
 90
        8
 70
   128
 43
0.0
 10
513.9938463161
 20
1143.387847914
 10
512.1463556478
 20
1143.0620861786
 10
510.507466335
 20
1142.7731079595
 10
509.1291685292
 20
1142.530077471
 10
508.055241842
 20
1142.3407135146
 10
507.3197801301
 20
1142.2110361593
 10
506.9461037109
 20
1142.1451432245
 10
506.8991203496
 20
1142.1368581789
  0
LWPOLYLINE
  5
171
330
1F
100
AcDbEntity
  8
0
  6
Continuous
 62
     7
370
    25
100
AcDbPolyline
 90
        9
 70
   128
 43
0.0
 10
513.3994986007
 20
1146.7585054772
 10
514.535920758
 20
1146.9588813918
 10
515.7102067659
 20
1147.1659404771
 10
516.9099439571
 20
1147.377484812
 10
518.1224812457
 20
1147.5912866728
 10
519.3350185344
 20
1147.8050959842
 10
520.5347557256
 20
1148.0166403191
 10
521.7090268323
 20
1148.2236994045
 10
522.8454489896
 20
1148.4240753191
  0
SPLINE
  5
172
330
1F
100
AcDbEntity
  8
0
  6
Continuous
 62
     7
370
    25
100
AcDbSpline
210
0.0
220
0.0
230
1.0
 70
     8
 71
     3
 72
     8
 73
     4
 74
     0
 42
0.000000001
 43
0.00000001
 40
0.0
 40
0.0
 40
0.0
 40
0.0
 40
1.0
 40
1.0
 40
1.0
 40
1.0
 10
387.5681192075785
 20
1101.153279973355
 30
0.0
 10
387.8870750233835
 20
1103.672262299316
 30
0.0
 10
388.1538445114988
 20
1106.200273686437
 30
0.0
 10
388.4003913759392
 20
1108.731783907719
 30
0.0
  0
ELLIPSE
  5
173
330
1F
100
AcDbEntity
  8
0
  6
Continuous
 62
     7
370
    25
100
AcDbEllipse
 10
379.3241849727
 20
1099.7521319971
 30
0.0
 11
9.023250068335301
 21
9.034075991183045
 31
0.0
210
0.0
220
0.0
230
1.0
 40
0.4565013292
 41
6.270158494688302
 42
7.15180104918186
  0
SPLINE
  5
174
330
1F
100
AcDbEntity
  8
0
  6
Continuous
 62
     7
370
    25
100
AcDbSpline
210
0.0
220
0.0
230
1.0
 70
     8
 71
     3
 72
     8
 73
     4
 74
     0
 42
0.000000001
 43
0.00000001
 40
0.0
 40
0.0
 40
0.0
 40
0.0
 40
1.0
 40
1.0
 40
1.0
 40
1.0
 10
382.0036973446204
 20
1108.731783907728
 30
0.0
 10
382.2502407560346
 20
1106.200309141655
 30
0.0
 10
382.517007688378
 20
1103.672309754357
 30
0.0
 10
382.8359695129822
 20
1101.153279973362
 30
0.0
  0
LINE
  5
175
330
1F
100
AcDbEntity
  8
0
  6
Continuous
 62
     7
370
    25
100
AcDbLine
 10
367.4835768232
 20
1129.731783046
 30
0.0
 11
390.4835750053
 21
1129.731783046
 31
0.0
  0
LINE
  5
176
330
1F
100
AcDbEntity
  8
0
  6
Continuous
 62
     7
370
    25
100
AcDbLine
 10
387.6439575741
 20
1140.4809219377
 30
0.0
 11
373.4367434571
 21
1140.4809219377
 31
0.0
  0
SPLINE
  5
177
330
1F
100
AcDbEntity
  8
0
  6
Continuous
 62
     7
370
    25
100
AcDbSpline
210
0.0
220
0.0
230
1.0
 70
     8
 71
     3
 72
    10
 73
     6
 74
     0
 42
0.000000001
 43
0.00000001
 40
0.0
 40
0.0
 40
0.0
 40
0.0
 40
0.5
 40
0.5
 40
1.0
 40
1.0
 40
1.0
 40
1.0
 10
518.8170707013956
 20
1143.652058885735
 30
0.0
 10
519.612179714519
 20
1143.792258057353
 30
0.0
 10
520.4074092367449
 20
1143.986259159952
 30
0.0
 10
521.9499841800509
 20
1144.460377742608
 30
0.0
 10
522.7021898993381
 20
1144.7404402519
 30
0.0
 10
523.4397869455736
 20
1145.053425311458
 30
0.0
  0
LWPOLYLINE
  5
178
330
1F
100
AcDbEntity
  8
0
  6
Continuous
 62
     7
370
    25
100
AcDbPolyline
 90
       10
 70
   128
 43
0.0
 10
529.6499599406
 20
1145.5621881025
 10
529.6037514398
 20
1145.5540371673
 10
529.2364229152
 20
1145.4892692702
 10
528.5142679403
 20
1145.3619388478
 10
527.4619032333
 20
1145.1763746874
 10
526.1151362846
 20
1144.9389023321
 10
524.5198477695
 20
1144.6576131122
 10
522.7303673217
 20
1144.3420810239
 10
520.8076108882
 20
1144.0030423539
 10
518.8170690725
 20
1143.6520604031
  0
SPLINE
  5
179
330
1F
100
AcDbEntity
  8
0
  6
Continuous
 62
     7
370
    25
100
AcDbSpline
210
0.0
220
0.0
230
1.0
 70
     8
 71
     3
 72
     8
 73
     4
 74
     0
 42
0.000000001
 43
0.00000001
 40
0.0
 40
0.0
 40
0.0
 40
0.0
 40
1.0
 40
1.0
 40
1.0
 40
1.0
 10
513.9938428129766
 20
1143.387850502616
 30
0.0
 10
515.6139517141404
 20
1143.303142604326
 30
0.0
 10
517.2231405616565
 20
1143.371005996735
 30
0.0
 10
518.8170707013956
 20
1143.652058885735
 30
0.0
  0
LWPOLYLINE
  5
17A
330
1F
100
AcDbEntity
  8
0
  6
Continuous
 62
     7
370
    25
100
AcDbPolyline
 90
       10
 70
   128
 43
0.0
 10
518.8170690725
 20
1143.6520604031
 10
516.8265272567
 20
1143.3010710018
 10
514.9037857244
 20
1142.9620397823
 10
513.1142903754
 20
1142.646507694
 10
511.5190018604
 20
1142.3652110236
 10
510.1722349117
 20
1142.1277386682
 10
509.1198702047
 20
1141.9421819584
 10
508.3977301309
 20
1141.8148440855
 10
508.0304016063
 20
1141.7500761883
 10
507.9841782043
 20
1141.7419252532
  0
SPLINE
  5
17B
330
1F
100
AcDbEntity
  8
0
  6
Continuous
 62
     7
370
    25
100
AcDbSpline
210
0.0
220
0.0
230
1.0
 70
     8
 71
     3
 72
    14
 73
    10
 74
     0
 42
0.000000001
 43
0.00000001
 40
0.0
 40
0.0
 40
0.0
 40
0.0
 40
0.1017603521312064
 40
0.2018425807106042
 40
0.3013048025283194
 40
0.4012248540130832
 40
0.5026659988762497
 40
0.7476757811004863
 40
1.0
 40
1.0
 40
1.0
 40
1.0
 10
236.147002238536
 20
1202.322479996308
 30
0.0
 10
236.1474952633887
 20
1202.305562653532
 30
0.0
 10
236.1484731826526
 20
1202.272006950812
 30
0.0
 10
236.1566097610691
 20
1202.224844880914
 30
0.0
 10
236.1696775111502
 20
1202.181277576048
 30
0.0
 10
236.1881060612682
 20
1202.141647661195
 30
0.0
 10
236.222805275595
 20
1202.089810568496
 30
0.0
 10
236.2836684183544
 20
1202.03519146775
 30
0.0
 10
236.351409127887
 20
1202.01137820091
 30
0.0
 10
236.3857776238713
 20
1201.999296453148
 30
0.0
  0
SPLINE
  5
17C
330
1F
100
AcDbEntity
  8
0
  6
Continuous
 62
     7
370
    25
100
AcDbSpline
210
0.0
220
0.0
230
1.0
 70
     8
 71
     3
 72
     9
 73
     5
 74
     0
 42
0.000000001
 43
0.00000001
 40
0.0
 40
0.0
 40
0.0
 40
0.0
 40
0.3412398189818793
 40
1.0
 40
1.0
 40
1.0
 40
1.0
 10
236.1570243427495
 20
1202.249319626582
 30
0.0
 10
236.1820741049503
 20
1202.231851328965
 30
0.0
 10
236.2554821916018
 20
1202.180660651194
 30
0.0
 10
236.3357131049558
 20
1202.176668699229
 30
0.0
 10
236.3885660359601
 20
1202.174038960231
 30
0.0
  0
SPLINE
  5
17D
330
1F
100
AcDbEntity
  8
0
  6
Continuous
 62
     7
370
    25
100
AcDbSpline
210
0.0
220
0.0
230
1.0
 70
     8
 71
     3
 72
     8
 73
     4
 74
     0
 42
0.000000001
 43
0.00000001
 40
0.0
 40
0.0
 40
0.0
 40
0.0
 40
1.0
 40
1.0
 40
1.0
 40
1.0
 10
229.3287878536939
 20
1036.207398345476
 30
0.0
 10
229.4290836556106
 20
1035.363990773224
 30
0.0
 10
229.5339521915353
 20
1034.521334817308
 30
0.0
 10
229.6453627247346
 20
1033.679754163829
 30
0.0
  0
SPLINE
  5
17E
330
1F
100
AcDbEntity
  8
0
  6
Continuous
 62
     7
370
    25
100
AcDbSpline
210
0.0
220
0.0
230
1.0
 70
    24
 71
     3
 72
    11
 73
     7
 74
     0
 42
0.000000001
 43
0.00000001
 40
0.0
 40
0.0
 40
0.0
 40
0.0
 40
0.2300846971821496
 40
0.4867230500336408
 40
0.7433615776976561
 40
1.0
 40
1.0
 40
1.0
 40
1.0
 10
236.3422606775503
 20
1264.474035574687
 30
0.0
 10
236.8736816276305
 20
1264.474035574687
 30
0.0
 10
237.9978538513489
 20
1264.474035574687
 30
0.0
 10
239.1827891846139
 20
1264.474035574687
 30
0.0
 10
239.9970250472217
 20
1264.474035574687
 30
0.0
 10
240.0970110009139
 20
1264.474035574687
 30
0.0
 10
240.1470039674978
 20
1264.474035574687
 30
0.0
  0
SPLINE
  5
17F
330
1F
100
AcDbEntity
  8
0
  6
Continuous
 62
     7
370
    25
100
AcDbSpline
210
0.0
220
0.0
230
1.0
 70
    24
 71
     3
 72
    22
 73
    18
 74
     0
 42
0.000000001
 43
0.00000001
 40
0.0
 40
0.0
 40
0.0
 40
0.0
 40
0.0357701980374595
 40
0.0714822064133669
 40
0.1071609962264574
 40
0.1428316083326471
 40
0.178519100802021
 40
0.2142484961886035
 40
0.2500447291726427
 40
0.3749994859454624
 40
0.500007507935146
 40
0.6249622647080596
 40
0.7499702866976575
 40
0.8125248368161957
 40
0.8749585321242426
 40
0.9374055544711508
 40
1.0
 40
1.0
 40
1.0
 40
1.0
 10
240.1470022397871
 20
1202.174039015475
 30
0.0
 10
240.1460701155227
 20
1202.174039015475
 30
0.0
 10
240.1442073833398
 20
1202.174039015476
 30
0.0
 10
240.1290377165861
 20
1202.174039015476
 30
0.0
 10
240.1048019970117
 20
1202.174039015477
 30
0.0
 10
240.0706156952459
 20
1202.174039015478
 30
0.0
 10
240.0267170251617
 20
1202.174039015478
 30
0.0
 10
239.9730370704613
 20
1202.174039015479
 30
0.0
 10
239.8570238835406
 20
1202.17403901548
 30
0.0
 10
239.6307888384426
 20
1202.174039015482
 30
0.0
 10
239.2179750839699
 20
1202.174039015484
 30
0.0
 10
238.6940750822288
 20
1202.174039015486
 30
0.0
 10
238.167232938367
 20
1202.174039015487
 30
0.0
 10
237.6955790573642
 20
1202.174039015488
 30
0.0
 10
237.3167686144948
 20
1202.174039015489
 30
0.0
 10
236.9154788908688
 20
1202.17403901549
 30
0.0
 10
236.6285333852371
 20
1202.174039015491
 30
0.0
 10
236.4848914788588
 20
1202.174039015491
 30
0.0
  0
SPLINE
  5
180
330
1F
100
AcDbEntity
  8
0
  6
Continuous
 62
     7
370
    25
100
AcDbSpline
210
0.0
220
0.0
230
1.0
 70
     8
 71
     3
 72
    15
 73
    11
 74
     0
 42
0.000000001
 43
0.00000001
 40
0.0
 40
0.0
 40
0.0
 40
0.0
 40
0.1373796194215254
 40
0.2660309339551183
 40
0.3863777801870468
 40
0.4991538551878735
 40
0.6268217668160524
 40
0.7493850723179337
 40
0.8753275663207569
 40
1.0
 40
1.0
 40
1.0
 40
1.0
 10
237.0085106321816
 20
1219.7134688485
 30
0.0
 10
237.0295118857211
 20
1219.694252721219
 30
0.0
 10
237.0701800948546
 20
1219.657041348024
 30
0.0
 10
237.1315529920831
 20
1219.611938429164
 30
0.0
 10
237.1898199190378
 20
1219.5755172564
 30
0.0
 10
237.2487626838006
 20
1219.545394774964
 30
0.0
 10
237.3087140691563
 20
1219.521471318664
 30
0.0
 10
237.3711450159062
 20
1219.503869237302
 30
0.0
 10
237.4328969238032
 20
1219.492785222568
 30
0.0
 10
237.4741988433144
 20
1219.491459170933
 30
0.0
 10
237.4947451486312
 20
1219.490799505182
 30
0.0
  0
LINE
  5
181
330
1F
100
AcDbEntity
  8
0
  6
Continuous
 62
     7
370
    25
100
AcDbLine
 10
237.4947462866
 20
1222.4572760599
 30
0.0
 11
237.7372254321
 21
1222.37797208
 31
0.0
  0
SPLINE
  5
182
330
1F
100
AcDbEntity
  8
0
  6
Continuous
 62
     7
370
    25
100
AcDbSpline
210
0.0
220
0.0
230
1.0
 70
     8
 71
     3
 72
     9
 73
     5
 74
     0
 42
0.000000001
 43
0.00000001
 40
0.0
 40
0.0
 40
0.0
 40
0.0
 40
0.250850229131202
 40
1.0
 40
1.0
 40
1.0
 40
1.0
 10
237.7394904086332
 20
1219.558866097224
 30
0.0
 10
237.7204092007832
 20
1219.546534298022
 30
0.0
 10
237.644343063965
 20
1219.497374290298
 30
0.0
 10
237.5588176390691
 20
1219.493614350745
 30
0.0
 10
237.4947462866048
 20
1219.49079759289
 30
0.0
  0
SPLINE
  5
183
330
1F
100
AcDbEntity
  8
0
  6
Continuous
 62
     7
370
    25
100
AcDbSpline
210
0.0
220
0.0
230
1.0
 70
     8
 71
     3
 72
    13
 73
     9
 74
     0
 42
0.000000001
 43
0.00000001
 40
0.0
 40
0.0
 40
0.0
 40
0.0
 40
0.1272671432116498
 40
0.2559574303528158
 40
0.3810916898843376
 40
0.5118028035259629
 40
0.740079381671907
 40
1.0
 40
1.0
 40
1.0
 40
1.0
 10
237.4947451209845
 20
1222.457278578806
 30
0.0
 10
237.4737682322545
 20
1222.456591251375
 30
0.0
 10
237.431579884181
 20
1222.455208910585
 30
0.0
 10
237.3685176450957
 20
1222.443638578829
 30
0.0
 10
237.3046961135927
 20
1222.425290700009
 30
0.0
 10
237.2248404597089
 20
1222.392549964495
 30
0.0
 10
237.1239512907983
 20
1222.335735329199
 30
0.0
 10
237.0485557212397
 20
1222.269636447495
 30
0.0
 10
237.0084144357092
 20
1222.234444802956
 30
0.0
  0
SPLINE
  5
184
330
1F
100
AcDbEntity
  8
0
  6
Continuous
 62
     7
370
    25
100
AcDbSpline
210
0.0
220
0.0
230
1.0
 70
     8
 71
     3
 72
    20
 73
    16
 74
     0
 42
0.000000001
 43
0.00000001
 40
0.0
 40
0.0
 40
0.0
 40
0.0
 40
0.0443058087159177
 40
0.087387344383813
 40
0.1294366084629151
 40
0.1706600293348242
 40
0.2112766297249193
 40
0.2515153431339838
 40
0.3768201829068298
 40
0.4963703532685499
 40
0.6147497410819754
 40
0.7386675324709627
 40
0.8224586848681376
 40
0.9089207398607834
 40
1.0
 40
1.0
 40
1.0
 40
1.0
 10
237.0084132472881
 20
1219.713576475343
 30
0.0
 10
236.9836716092834
 20
1219.738232443207
 30
0.0
 10
236.934872002559
 20
1219.786863076919
 30
0.0
 10
236.8656061963848
 20
1219.867975977847
 30
0.0
 10
236.8009001802462
 20
1219.953743843745
 30
0.0
 10
236.7410693320268
 20
1220.044773122095
 30
0.0
 10
236.6861950404761
 20
1220.140952432244
 30
0.0
 10
236.6013891556085
 20
1220.313420403237
 30
0.0
 10
236.5081765970983
 20
1220.581237921869
 30
0.0
 10
236.4652353117686
 20
1220.960961791453
 30
0.0
 10
236.5025493158421
 20
1221.340488561705
 30
0.0
 10
236.6047748758975
 20
1221.650043334389
 30
0.0
 10
236.7298363758477
 20
1221.892186449219
 30
0.0
 10
236.8594230078871
 20
1222.080515982741
 30
0.0
 10
236.9578648803563
 20
1222.182250615632
 30
0.0
 10
237.0083658744745
 20
1222.234440806335
 30
0.0
  0
SPLINE
  5
185
330
1F
100
AcDbEntity
  8
0
  6
Continuous
 62
     7
370
    25
100
AcDbSpline
210
0.0
220
0.0
230
1.0
 70
     8
 71
     3
 72
    15
 73
    11
 74
     0
 42
0.000000001
 43
0.00000001
 40
0.0
 40
0.0
 40
0.0
 40
0.0
 40
0.1373796238406973
 40
0.2660309408242786
 40
0.3863777873627994
 40
0.4991538603160877
 40
0.6268217720047028
 40
0.7493850750918373
 40
0.8753275681198877
 40
1.0
 40
1.0
 40
1.0
 40
1.0
 10
237.0085105724664
 20
1204.713469103415
 30
0.0
 10
237.0295118332343
 20
1204.694252958745
 30
0.0
 10
237.0701800561073
 20
1204.657041552114
 30
0.0
 10
237.1315529764875
 20
1204.611938592606
 30
0.0
 10
237.1898199255301
 20
1204.57551738738
 30
0.0
 10
237.2487627131554
 20
1204.54539487896
 30
0.0
 10
237.3087141220142
 20
1204.521471401117
 30
0.0
 10
237.3711450937226
 20
1204.503869303469
 30
0.0
 10
237.4328970260337
 20
1204.492785278107
 30
0.0
 10
237.474198961831
 20
1204.491459224627
 30
0.0
 10
237.4947452751804
 20
1204.490799557961
 30
0.0
  0
LINE
  5
186
330
1F
100
AcDbEntity
  8
0
  6
Continuous
 62
     7
370
    25
100
AcDbLine
 10
237.4947462866
 20
1207.4572754638
 30
0.0
 11
237.7372254321
 21
1207.377971484
 31
0.0
  0
SPLINE
  5
187
330
1F
100
AcDbEntity
  8
0
  6
Continuous
 62
     7
370
    25
100
AcDbSpline
210
0.0
220
0.0
230
1.0
 70
     8
 71
     3
 72
     9
 73
     5
 74
     0
 42
0.000000001
 43
0.00000001
 40
0.0
 40
0.0
 40
0.0
 40
0.0
 40
0.2508514928734791
 40
1.0
 40
1.0
 40
1.0
 40
1.0
 10
237.7394904086332
 20
1204.558865501177
 30
0.0
 10
237.7204092193786
 20
1204.546533700372
 30
0.0
 10
237.6443435398962
 20
1204.497373933916
 30
0.0
 10
237.5588177811159
 20
1204.493613854629
 30
0.0
 10
237.4947462866048
 20
1204.490796996844
 30
0.0
  0
SPLINE
  5
188
330
1F
100
AcDbEntity
  8
0
  6
Continuous
 62
     7
370
    25
100
AcDbSpline
210
0.0
220
0.0
230
1.0
 70
     8
 71
     3
 72
    13
 73
     9
 74
     0
 42
0.000000001
 43
0.00000001
 40
0.0
 40
0.0
 40
0.0
 40
0.0
 40
0.1272671582956014
 40
0.2559574600278721
 40
0.3810917064248635
 40
0.5118028063701615
 40
0.7400793790012286
 40
1.0
 40
1.0
 40
1.0
 40
1.0
 10
237.4947452522808
 20
1207.457278526028
 30
0.0
 10
237.4737683530574
 20
1207.456591197376
 30
0.0
 10
237.4315799839888
 20
1207.455208854135
 30
0.0
 10
237.368517716072
 20
1207.44363850969
 30
0.0
 10
237.3046961598045
 20
1207.4252906135
 30
0.0
 10
237.2248404784947
 20
1207.392549850015
 30
0.0
 10
237.1239512730196
 20
1207.33573516498
 30
0.0
 10
237.0485556791106
 20
1207.269636225961
 30
0.0
 10
237.0084143799695
 20
1207.23444455034
 30
0.0
  0
SPLINE
  5
189
330
1F
100
AcDbEntity
  8
0
  6
Continuous
 62
     7
370
    25
100
AcDbSpline
210
0.0
220
0.0
230
1.0
 70
     8
 71
     3
 72
    20
 73
    16
 74
     0
 42
0.000000001
 43
0.00000001
 40
0.0
 40
0.0
 40
0.0
 40
0.0
 40
0.0443057966818961
 40
0.0873873211397927
 40
0.129436574643233
 40
0.1706599853645711
 40
0.2112765758037698
 40
0.251515279225174
 40
0.3768201197409829
 40
0.4963702958519665
 40
0.6147497058225625
 40
0.7386675180837339
 40
0.8224586760823334
 40
0.9089207360493179
 40
1.0
 40
1.0
 40
1.0
 40
1.0
 10
237.0084131000721
 20
1204.713576836942
 30
0.0
 10
236.9836714814371
 20
1204.738232802688
 30
0.0
 10
236.9348719126425
 20
1204.786863432493
 30
0.0
 10
236.8656061619481
 20
1204.867976317576
 30
0.0
 10
236.8009001981644
 20
1204.953744160872
 30
0.0
 10
236.7410693989597
 20
1205.044773409193
 30
0.0
 10
236.6861951528876
 20
1205.140952682006
 30
0.0
 10
236.6013893257093
 20
1205.313420604204
 30
0.0
 10
236.5081768293414
 20
1205.58123805225
 30
0.0
 10
236.4652355734694
 20
1205.96096182844
 30
0.0
 10
236.502549566099
 20
1206.340488524849
 30
0.0
 10
236.6047750917098
 20
1206.650043251371
 30
0.0
 10
236.7298365469464
 20
1206.892186329933
 30
0.0
 10
236.8594231268256
 20
1207.080515835466
 30
0.0
 10
236.9578649618071
 20
1207.182250462307
 30
0.0
 10
237.0083659363083
 20
1207.234440649506
 30
0.0
  0
SPLINE
  5
18A
330
1F
100
AcDbEntity
  8
0
  6
Continuous
 62
     7
370
    25
100
AcDbSpline
210
0.0
220
0.0
230
1.0
 70
     8
 71
     3
 72
    15
 73
    11
 74
     0
 42
0.000000001
 43
0.00000001
 40
0.0
 40
0.0
 40
0.0
 40
0.0
 40
0.1373796229454806
 40
0.2660309396574843
 40
0.3863777865938911
 40
0.4991538606671485
 40
0.6268217721689551
 40
0.7493850757809946
 40
0.8753275683705638
 40
1.0
 40
1.0
 40
1.0
 40
1.0
 10
237.0085105923725
 20
1209.713469009848
 30
0.0
 10
237.0295118507485
 20
1209.694252870648
 30
0.0
 10
237.0701800690766
 20
1209.657041474529
 30
0.0
 10
237.1315529818813
 20
1209.611938527784
 30
0.0
 10
237.1898199237156
 20
1209.575517332729
 30
0.0
 10
237.248762703767
 20
1209.545394832792
 30
0.0
 10
237.3087141047134
 20
1209.521471361721
 30
0.0
 10
237.3711450678438
 20
1209.503869269166
 30
0.0
 10
237.4328969916747
 20
1209.492785247037
 30
0.0
 10
237.4741989217829
 20
1209.491459193939
 30
0.0
 10
237.4947452323173
 20
1209.490799527462
 30
0.0
  0
LINE
  5
18B
330
1F
100
AcDbEntity
  8
0
  6
Continuous
 62
     7
370
    25
100
AcDbLine
 10
237.4947462866
 20
1212.4572855966
 30
0.0
 11
237.7372254321
 21
1212.3779667156
 31
0.0
  0
SPLINE
  5
18C
330
1F
100
AcDbEntity
  8
0
  6
Continuous
 62
     7
370
    25
100
AcDbSpline
210
0.0
220
0.0
230
1.0
 70
     8
 71
     3
 72
     9
 73
     5
 74
     0
 42
0.000000001
 43
0.00000001
 40
0.0
 40
0.0
 40
0.0
 40
0.0
 40
0.2508514928734791
 40
1.0
 40
1.0
 40
1.0
 40
1.0
 10
237.7394904086332
 20
1209.558860732806
 30
0.0
 10
237.7204092193786
 20
1209.546528932001
 30
0.0
 10
237.6443435398962
 20
1209.497369165544
 30
0.0
 10
237.5588177811159
 20
1209.493609086257
 30
0.0
 10
237.4947462866048
 20
1209.490792228472
 30
0.0
  0
SPLINE
  5
18D
330
1F
100
AcDbEntity
  8
0
  6
Continuous
 62
     7
370
    25
100
AcDbSpline
210
0.0
220
0.0
230
1.0
 70
     8
 71
     3
 72
    13
 73
     9
 74
     0
 42
0.000000001
 43
0.00000001
 40
0.0
 40
0.0
 40
0.0
 40
0.0
 40
0.1272671449099551
 40
0.2559574346942414
 40
0.3810917015707444
 40
0.5118028258522083
 40
0.7400793903566019
 40
1.0
 40
1.0
 40
1.0
 40
1.0
 10
237.4947452076676
 20
1212.457278541189
 30
0.0
 10
237.4737683128548
 20
1212.456591213297
 30
0.0
 10
237.4315799523952
 20
1212.455208871578
 30
0.0
 10
237.3685176942398
 20
1212.443638532135
 30
0.0
 10
237.3046961421482
 20
1212.425290640705
 30
0.0
 10
237.2248404662567
 20
1212.392549884181
 30
0.0
 10
237.1239512739211
 20
1212.335735214729
 30
0.0
 10
237.0485556923155
 20
1212.269636297667
 30
0.0
 10
237.0084143998765
 20
1212.23444463387
 30
0.0
  0
SPLINE
  5
18E
330
1F
100
AcDbEntity
  8
0
  6
Continuous
 62
     7
370
    25
100
AcDbSpline
210
0.0
220
0.0
230
1.0
 70
     8
 71
     3
 72
    20
 73
    16
 74
     0
 42
0.000000001
 43
0.00000001
 40
0.0
 40
0.0
 40
0.0
 40
0.0
 40
0.044305800954643
 40
0.0873873294092795
 40
0.1294365867057196
 40
0.1706600010955694
 40
0.2112765951636403
 40
0.2515153022627364
 40
0.3768201436860129
 40
0.4963703187992534
 40
0.6147497224449704
 40
0.7386675279310986
 40
0.8224586828501049
 40
0.9089207395204528
 40
1.0
 40
1.0
 40
1.0
 40
1.0
 10
237.0084131501932
 20
1209.713576719149
 30
0.0
 10
236.9836715249964
 20
1209.738232685617
 30
0.0
 10
236.9348719433478
 20
1209.786863316757
 30
0.0
 10
236.8656061739196
 20
1209.867976207408
 30
0.0
 10
236.8009001925095
 20
1209.953744058698
 30
0.0
 10
236.7410693768666
 20
1210.044773317681
 30
0.0
 10
236.686195115604
 20
1210.140952603772
 30
0.0
 10
236.6013892693034
 20
1210.313420544018
 30
0.0
 10
236.5081767526445
 20
1210.581238017966
 30
0.0
 10
236.4652354883592
 20
1210.960961827937
 30
0.0
 10
236.5025494861274
 20
1211.340488550007
 30
0.0
 10
236.6047750243962
 20
1211.650043290146
 30
0.0
 10
236.7298364940711
 20
1211.892186376612
 30
0.0
 10
236.8594230884969
 20
1212.080515887129
 30
0.0
 10
236.9578649334792
 20
1212.182250513819
 30
0.0
 10
237.0083659131112
 20
1212.234440700942
 30
0.0
  0
SPLINE
  5
18F
330
1F
100
AcDbEntity
  8
0
  6
Continuous
 62
     7
370
    25
100
AcDbSpline
210
0.0
220
0.0
230
1.0
 70
     8
 71
     3
 72
    15
 73
    11
 74
     0
 42
0.000000001
 43
0.00000001
 40
0.0
 40
0.0
 40
0.0
 40
0.0
 40
0.1373796214247107
 40
0.2660309370362982
 40
0.3863777833578743
 40
0.4991538573863647
 40
0.6268217696060605
 40
0.7493850745853382
 40
0.8753275676420992
 40
1.0
 40
1.0
 40
1.0
 40
1.0
 10
237.008510612277
 20
1214.71346893669
 30
0.0
 10
237.0295118679578
 20
1214.694252803357
 30
0.0
 10
237.070180081116
 20
1214.657041418554
 30
0.0
 10
237.1315529853516
 20
1214.611938485598
 30
0.0
 10
237.1898199189844
 20
1214.575517301628
 30
0.0
 10
237.2487626908733
 20
1214.545394810824
 30
0.0
 10
237.3087140837837
 20
1214.521471347026
 30
0.0
 10
237.3711450387094
 20
1214.503869260044
 30
0.0
 10
237.432896954576
 20
1214.492785241699
 30
0.0
 10
237.474198879511
 20
1214.491459189456
 30
0.0
 10
237.494745187494
 20
1214.490799523403
 30
0.0
  0
LINE
  5
190
330
1F
100
AcDbEntity
  8
0
  6
Continuous
 62
     7
370
    25
100
AcDbLine
 10
237.4947462866
 20
1217.4572808282
 30
0.0
 11
237.7372254321
 21
1217.37812586
 31
0.0
  0
SPLINE
  5
191
330
1F
100
AcDbEntity
  8
0
  6
Continuous
 62
     7
370
    25
100
AcDbSpline
210
0.0
220
0.0
230
1.0
 70
     8
 71
     3
 72
     9
 73
     5
 74
     0
 42
0.000000001
 43
0.00000001
 40
0.0
 40
0.0
 40
0.0
 40
0.0
 40
0.2649100842204815
 40
1.0
 40
1.0
 40
1.0
 40
1.0
 10
237.7394904086332
 20
1214.558900667918
 30
0.0
 10
237.7192856666816
 20
1214.546061803042
 30
0.0
 10
237.6430154785874
 20
1214.497596811936
 30
0.0
 10
237.557562159636
 20
1214.493680904978
 30
0.0
 10
237.4947462866048
 20
1214.490802361262
 30
0.0
  0
SPLINE
  5
192
330
1F
100
AcDbEntity
  8
0
  6
Continuous
 62
     7
370
    25
100
AcDbSpline
210
0.0
220
0.0
230
1.0
 70
     8
 71
     3
 72
    13
 73
     9
 74
     0
 42
0.000000001
 43
0.00000001
 40
0.0
 40
0.0
 40
0.0
 40
0.0
 40
0.1272671515485743
 40
0.2559574468194862
 40
0.3810917053839528
 40
0.5118028184109324
 40
0.7400793903487356
 40
1.0
 40
1.0
 40
1.0
 40
1.0
 10
237.4947451674122
 20
1217.457278559179
 30
0.0
 10
237.4737682741661
 20
1217.456591231509
 30
0.0
 10
237.4315799170595
 20
1217.455208890242
 30
0.0
 10
237.368517665732
 20
1217.443638553877
 30
0.0
 10
237.3046961234502
 20
1217.425290668288
 30
0.0
 10
237.2248404595741
 20
1217.392549921973
 30
0.0
 10
237.1239512792011
 20
1217.335735269403
 30
0.0
 10
237.0485557041439
 20
1217.269636369087
 30
0.0
 10
237.008414415802
 20
1217.23444471474
 30
0.0
  0
SPLINE
  5
193
330
1F
100
AcDbEntity
  8
0
  6
Continuous
 62
     7
370
    25
100
AcDbSpline
210
0.0
220
0.0
230
1.0
 70
     8
 71
     3
 72
    20
 73
    16
 74
     0
 42
0.000000001
 43
0.00000001
 40
0.0
 40
0.0
 40
0.0
 40
0.0
 40
0.0443058055121376
 40
0.0873873381993418
 40
0.1294365994704998
 40
0.1706600176515424
 40
0.2112766154078673
 40
0.2515153261772393
 40
0.3768201674515696
 40
0.4963703410594423
 40
0.6147497360259754
 40
0.7386675334648383
 40
0.8224586856448854
 40
0.9089207403978152
 40
1.0
 40
1.0
 40
1.0
 40
1.0
 10
237.0084131995012
 20
1214.713576599233
 30
0.0
 10
236.9836715675452
 20
1214.738232566635
 30
0.0
 10
236.9348719726761
 20
1214.786863199509
 30
0.0
 10
236.8656061839535
 20
1214.867976096182
 30
0.0
 10
236.8009001844022
 20
1214.953743955768
 30
0.0
 10
236.7410693518461
 20
1215.04477322555
 30
0.0
 10
236.6861950749762
 20
1215.140952524914
 30
0.0
 10
236.6013892092435
 20
1215.313420482029
 30
0.0
 10
236.5081766723631
 20
1215.581237980924
 30
0.0
 10
236.4652354021767
 20
1215.960961822148
 30
0.0
 10
236.5025494073657
 20
1216.3404885652
 30
0.0
 10
236.6047749566831
 20
1216.650043316519
 30
0.0
 10
236.7298364407915
 20
1216.892186412353
 30
0.0
 10
236.8594230531298
 20
1217.080515929785
 30
0.0
 10
236.9578649110519
 20
1217.182250557195
 30
0.0
 10
237.0083658976306
 20
1217.234440745007
 30
0.0
  0
SPLINE
  5
194
330
1F
100
AcDbEntity
  8
0
  6
Continuous
 62
     7
370
    25
100
AcDbSpline
210
0.0
220
0.0
230
1.0
 70
     8
 71
     3
 72
    15
 73
    11
 74
     0
 42
0.000000001
 43
0.00000001
 40
0.0
 40
0.0
 40
0.0
 40
0.0
 40
0.1373796201864949
 40
0.2660309355757669
 40
0.3863777828045504
 40
0.4991538590293061
 40
0.6268217699193228
 40
0.7493850753761815
 40
0.8753275677656731
 40
1.0
 40
1.0
 40
1.0
 40
1.0
 10
237.0085106520872
 20
1224.713468763865
 30
0.0
 10
237.0295119036382
 20
1224.69425264198
 30
0.0
 10
237.0701801089423
 20
1224.657041279216
 30
0.0
 10
237.1315529992734
 20
1224.611938373185
 30
0.0
 10
237.1898199192953
 20
1224.575517210842
 30
0.0
 10
237.2487626763949
 20
1224.545394738311
 30
0.0
 10
237.3087140535436
 20
1224.521471289297
 30
0.0
 10
237.3711449911691
 20
1224.503869213582
 30
0.0
 10
237.4328968898902
 20
1224.49278520257
 30
0.0
 10
237.4741988032003
 20
1224.491459151568
 30
0.0
 10
237.4947451054448
 20
1224.490799486131
 30
0.0
  0
LINE
  5
195
330
1F
100
AcDbEntity
  8
0
  6
Continuous
 62
     7
370
    25
100
AcDbLine
 10
237.4947462866
 20
1227.4572712915
 30
0.0
 11
237.7372254321
 21
1227.3779673116
 31
0.0
  0
SPLINE
  5
196
330
1F
100
AcDbEntity
  8
0
  6
Continuous
 62
     7
370
    25
100
AcDbSpline
210
0.0
220
0.0
230
1.0
 70
     8
 71
     3
 72
     9
 73
     5
 74
     0
 42
0.000000001
 43
0.00000001
 40
0.0
 40
0.0
 40
0.0
 40
0.0
 40
0.250850229131202
 40
1.0
 40
1.0
 40
1.0
 40
1.0
 10
237.7394904086332
 20
1224.558861328852
 30
0.0
 10
237.7204092007832
 20
1224.546529529651
 30
0.0
 10
237.644343063965
 20
1224.497369521926
 30
0.0
 10
237.5588176390691
 20
1224.493609582373
 30
0.0
 10
237.4947462866048
 20
1224.490792824519
 30
0.0
  0
SPLINE
  5
197
330
1F
100
AcDbEntity
  8
0
  6
Continuous
 62
     7
370
    25
100
AcDbSpline
210
0.0
220
0.0
230
1.0
 70
     8
 71
     3
 72
    13
 73
     9
 74
     0
 42
0.000000001
 43
0.00000001
 40
0.0
 40
0.0
 40
0.0
 40
0.0
 40
0.1272671436573515
 40
0.2559574307616924
 40
0.3810916886666886
 40
0.5118027994623422
 40
0.7400793810280926
 40
1.0
 40
1.0
 40
1.0
 40
1.0
 10
237.494745085363
 20
1227.457278596451
 30
0.0
 10
237.4737681992922
 20
1227.456591269486
 30
0.0
 10
237.4315798566472
 20
1227.455208929638
 30
0.0
 10
237.3685176257757
 20
1227.443638601988
 30
0.0
 10
237.3046961029376
 20
1227.425290729385
 30
0.0
 10
237.2248404588912
 20
1227.392550004195
 30
0.0
 10
237.123951301065
 20
1227.335735385993
 30
0.0
 10
237.048555737644
 20
1227.269636522339
 30
0.0
 10
237.0084144556158
 20
1227.234444887617
 30
0.0
  0
SPLINE
  5
198
330
1F
100
AcDbEntity
  8
0
  6
Continuous
 62
     7
370
    25
100
AcDbSpline
210
0.0
220
0.0
230
1.0
 70
     8
 71
     3
 72
    20
 73
    16
 74
     0
 42
0.000000001
 43
0.00000001
 40
0.0
 40
0.0
 40
0.0
 40
0.0
 40
0.0443058133379626
 40
0.0873873533208837
 40
0.1294366214815291
 40
0.1706600462824471
 40
0.2112766505360334
 40
0.2515153678341218
 40
0.376820209104565
 40
0.4963703792661965
 40
0.6147497603501781
 40
0.7386675451216173
 40
0.8224586935230709
 40
0.9089207442921703
 40
1.0
 40
1.0
 40
1.0
 40
1.0
 10
237.008413296332
 20
1224.713576354736
 30
0.0
 10
236.9836716515177
 20
1224.738232323512
 30
0.0
 10
236.9348720314626
 20
1224.786862958922
 30
0.0
 10
236.8656062058743
 20
1224.867975866012
 30
0.0
 10
236.8009001714971
 20
1224.953743740505
 30
0.0
 10
236.7410693062963
 20
1225.044773030126
 30
0.0
 10
236.6861949990916
 20
1225.140952354181
 30
0.0
 10
236.6013890944271
 20
1225.313420344213
 30
0.0
 10
236.5081765152762
 20
1225.581237891142
 30
0.0
 10
236.4652352240912
 20
1225.960961797058
 30
0.0
 10
236.5025492370489
 20
1226.34048859319
 30
0.0
 10
236.6047748117162
 20
1226.650043377073
 30
0.0
 10
236.7298363268656
 20
1226.892186497108
 30
0.0
 10
236.8594229733228
 20
1227.080516031985
 30
0.0
 10
236.957864855416
 20
1227.182250662377
 30
0.0
 10
237.0083658544761
 20
1227.234440851802
 30
0.0
  0
SPLINE
  5
199
330
1F
100
AcDbEntity
  8
0
  6
Continuous
 62
     7
370
    25
100
AcDbSpline
210
0.0
220
0.0
230
1.0
 70
     8
 71
     3
 72
    15
 73
    11
 74
     0
 42
0.000000001
 43
0.00000001
 40
0.0
 40
0.0
 40
0.0
 40
0.0
 40
0.1373796188409021
 40
0.2660309339859823
 40
0.3863777821366111
 40
0.4991538605119226
 40
0.626821769935444
 40
0.7493850749761658
 40
0.8753275674621951
 40
1.0
 40
1.0
 40
1.0
 40
1.0
 10
237.0085106719924
 20
1229.713468679469
 30
0.0
 10
237.0295119209553
 20
1229.694252563324
 30
0.0
 10
237.0701801214033
 20
1229.657041211533
 30
0.0
 10
237.1315530041297
 20
1229.611938318855
 30
0.0
 10
237.189819917286
 20
1229.575517167088
 30
0.0
 10
237.2487626670015
 20
1229.545394703577
 30
0.0
 10
237.3087140360961
 20
1229.521471261856
 30
0.0
 10
237.371144964808
 20
1229.503869191568
 30
0.0
 10
237.4328968549051
 20
1229.49278518388
 30
0.0
 10
237.4741987624441
 20
1229.491459133192
 30
0.0
 10
237.4947450618349
 20
1229.490799467911
 30
0.0
  0
LINE
  5
19A
330
1F
100
AcDbEntity
  8
0
  6
Continuous
 62
     7
370
    25
100
AcDbLine
 10
237.4947462866
 20
1232.4572814243
 30
0.0
 11
237.7372254321
 21
1232.3779774444
 31
0.0
  0
SPLINE
  5
19B
330
1F
100
AcDbEntity
  8
0
  6
Continuous
 62
     7
370
    25
100
AcDbSpline
210
0.0
220
0.0
230
1.0
 70
     8
 71
     3
 72
     9
 73
     5
 74
     0
 42
0.000000001
 43
0.00000001
 40
0.0
 40
0.0
 40
0.0
 40
0.0
 40
0.2508511222924178
 40
0.9999999999999999
 40
0.9999999999999999
 40
0.9999999999999999
 40
0.9999999999999999
 10
237.7394904086332
 20
1229.558856560481
 30
0.0
 10
237.7204092139256
 20
1229.546524551537
 30
0.0
 10
237.644343400334
 20
1229.497363882726
 30
0.0
 10
237.5588177394621
 20
1229.493612958204
 30
0.0
 10
237.4947462866048
 20
1229.490802957308
 30
0.0
  0
SPLINE
  5
19C
330
1F
100
AcDbEntity
  8
0
  6
Continuous
 62
     7
370
    25
100
AcDbSpline
210
0.0
220
0.0
230
1.0
 70
     8
 71
     3
 72
    13
 73
     9
 74
     0
 42
0.000000001
 43
0.00000001
 40
0.0
 40
0.0
 40
0.0
 40
0.0
 40
0.1272671649018339
 40
0.2559574717950446
 40
0.3810917184147642
 40
0.5118028134455004
 40
0.7400793911007839
 40
1.0
 40
1.0
 40
1.0
 40
1.0
 10
237.4947450389353
 20
1232.457278616078
 30
0.0
 10
237.4737681531132
 20
1232.456591288648
 30
0.0
 10
237.4315798112474
 20
1232.455208947873
 30
0.0
 10
237.3685175843388
 20
1232.44363862085
 30
0.0
 10
237.3046960709546
 20
1232.425290752407
 30
0.0
 10
237.2248404421409
 20
1232.392550038015
 30
0.0
 10
237.1239513024039
 20
1232.335735438583
 30
0.0
 10
237.0485557508351
 20
1232.26963659547
 30
0.0
 10
237.0084144755231
 20
1232.234444972038
 30
0.0
  0
SPLINE
  5
19D
330
1F
100
AcDbEntity
  8
0
  6
Continuous
 62
     7
370
    25
100
AcDbSpline
210
0.0
220
0.0
230
1.0
 70
     8
 71
     3
 72
    20
 73
    16
 74
     0
 42
0.000000001
 43
0.00000001
 40
0.0
 40
0.0
 40
0.0
 40
0.0
 40
0.0443058174000587
 40
0.0873873611375185
 40
0.1294366328091436
 40
0.1706600609484801
 40
0.2112766684449227
 40
0.2515153889715466
 40
0.3768202289526608
 40
0.4963703965892844
 40
0.6147497685041753
 40
0.738667544330462
 40
0.8224586926657459
 40
0.9089207435659638
 40
1.0
 40
1.0
 40
1.0
 40
1.0
 10
237.0084133483716
 20
1229.713576241956
 30
0.0
 10
236.9836716970032
 20
1229.738232211305
 30
0.0
 10
236.93487206413
 20
1229.786862847735
 30
0.0
 10
236.865606219787
 20
1229.867975759704
 30
0.0
 10
236.8009001677397
 20
1229.953743641319
 30
0.0
 10
236.741069286024
 20
1230.04477294053
 30
0.0
 10
236.6861949635294
 20
1230.140952276608
 30
0.0
 10
236.6013890397697
 20
1230.313420281569
 30
0.0
 10
236.5081764401689
 20
1230.581237850298
 30
0.0
 10
236.4652351392345
 20
1230.960961783819
 30
0.0
 10
236.5025491543823
 20
1231.340488600165
 30
0.0
 10
236.6047747380123
 20
1231.650043398992
 30
0.0
 10
236.7298362678055
 20
1231.892186533912
 30
0.0
 10
236.8594229346369
 20
1232.08051608219
 30
0.0
 10
236.9578648318771
 20
1232.182250715512
 30
0.0
 10
237.0083658388665
 20
1232.234440906604
 30
0.0
  0
SPLINE
  5
19E
330
1F
100
AcDbEntity
  8
0
  6
Continuous
 62
     7
370
    25
100
AcDbSpline
210
0.0
220
0.0
230
1.0
 70
     8
 71
     3
 72
    15
 73
    11
 74
     0
 42
0.000000001
 43
0.00000001
 40
0.0
 40
0.0
 40
0.0
 40
0.0
 40
0.1373796181861851
 40
0.2660309329590714
 40
0.3863777810464812
 40
0.4991538597220413
 40
0.6268217730200522
 40
0.7493850819627867
 40
0.8753275709810637
 40
1.0
 40
1.0
 40
1.0
 40
1.0
 10
237.008510687916
 20
1234.713468593417
 30
0.0
 10
237.0295119353355
 20
1234.694252483243
 30
0.0
 10
237.0701801328315
 20
1234.657041142982
 30
0.0
 10
237.1315530091797
 20
1234.611938264291
 30
0.0
 10
237.1898199155224
 20
1234.575517123737
 30
0.0
 10
237.2487626582591
 20
1234.545394669176
 30
0.0
 10
237.3087140203224
 20
1234.52147123445
 30
0.0
 10
237.3711449407246
 20
1234.503869169865
 30
0.0
 10
237.4328968212805
 20
1234.492785166314
 30
0.0
 10
237.4741987218219
 20
1234.491459116515
 30
0.0
 10
237.4947450177246
 20
1234.490799451677
 30
0.0
  0
LINE
  5
19F
330
1F
100
AcDbEntity
  8
0
  6
Continuous
 62
     7
370
    25
100
AcDbLine
 10
237.4947462866
 20
1237.4572766559
 30
0.0
 11
237.7372254321
 21
1237.3779726761
 31
0.0
  0
SPLINE
  5
1A0
330
1F
100
AcDbEntity
  8
0
  6
Continuous
 62
     7
370
    25
100
AcDbSpline
210
0.0
220
0.0
230
1.0
 70
     8
 71
     3
 72
     9
 73
     5
 74
     0
 42
0.000000001
 43
0.00000001
 40
0.0
 40
0.0
 40
0.0
 40
0.0
 40
0.250850229131202
 40
1.0
 40
1.0
 40
1.0
 40
1.0
 10
237.7394904086332
 20
1234.55886669327
 30
0.0
 10
237.7204092007832
 20
1234.546534894069
 30
0.0
 10
237.644343063965
 20
1234.497374886344
 30
0.0
 10
237.5588176390691
 20
1234.493614946791
 30
0.0
 10
237.4947462866048
 20
1234.490798188937
 30
0.0
  0
SPLINE
  5
1A1
330
1F
100
AcDbEntity
  8
0
  6
Continuous
 62
     7
370
    25
100
AcDbSpline
210
0.0
220
0.0
230
1.0
 70
     8
 71
     3
 72
    13
 73
     9
 74
     0
 42
0.000000001
 43
0.00000001
 40
0.0
 40
0.0
 40
0.0
 40
0.0
 40
0.1272671431148186
 40
0.2559574285035157
 40
0.3810916789854033
 40
0.511802778710243
 40
0.7400793723723278
 40
1.0
 40
1.0
 40
1.0
 40
1.0
 10
237.4947449976428
 20
1237.457278630906
 30
0.0
 10
237.4737681176588
 20
1237.456591304571
 30
0.0
 10
237.431579787448
 20
1237.455208965997
 30
0.0
 10
237.3685175758894
 20
1237.443638646575
 30
0.0
 10
237.3046960741774
 20
1237.425290787241
 30
0.0
 10
237.2248404532636
 20
1237.392550084194
 30
0.0
 10
237.1239513206947
 20
1237.33573550167
 30
0.0
 10
237.0485557702044
 20
1237.269636675132
 30
0.0
 10
237.0084144954303
 20
1237.234445060493
 30
0.0
  0
SPLINE
  5
1A2
330
1F
100
AcDbEntity
  8
0
  6
Continuous
 62
     7
370
    25
100
AcDbSpline
210
0.0
220
0.0
230
1.0
 70
     8
 71
     3
 72
    20
 73
    16
 74
     0
 42
0.000000001
 43
0.00000001
 40
0.0
 40
0.0
 40
0.0
 40
0.0
 40
0.0443058216301403
 40
0.0873873693727297
 40
0.1294366448873039
 40
0.1706600767759041
 40
0.2112766880008094
 40
0.2515154123107199
 40
0.3768202525713802
 40
0.4963704187167595
 40
0.6147497853963855
 40
0.7386675543232794
 40
0.8224586989361415
 40
0.9089207465070112
 40
0.9999999999999999
 40
0.9999999999999999
 40
0.9999999999999999
 40
0.9999999999999999
 10
237.0084133907115
 20
1234.713576114235
 30
0.0
 10
236.9836717328566
 20
1234.738232084924
 30
0.0
 10
236.9348720872502
 20
1234.786862723936
 30
0.0
 10
236.8656062243286
 20
1234.867975643118
 30
0.0
 10
236.8009001547226
 20
1234.953743534225
 30
0.0
 10
236.7410692565439
 20
1235.044772845428
 30
0.0
 10
236.6861949187525
 20
1235.14095219597
 30
0.0
 10
236.6013889758376
 20
1235.313420219842
 30
0.0
 10
236.508176356071
 20
1235.581237815335
 30
0.0
 10
236.4652350484384
 20
1235.96096178507
 30
0.0
 10
236.5025490701483
 20
1236.340488629209
 30
0.0
 10
236.6047746680091
 20
1236.650043443008
 30
0.0
 10
236.7298362140539
 20
1236.892186584723
 30
0.0
 10
236.8594228970123
 20
1237.080516137178
 30
0.0
 10
236.9578648052843
 20
1237.182250770484
 30
0.0
 10
237.008365818086
 20
1237.234440961727
 30
0.0
  0
SPLINE
  5
1A3
330
1F
100
AcDbEntity
  8
0
  6
Continuous
 62
     7
370
    25
100
AcDbSpline
210
0.0
220
0.0
230
1.0
 70
     8
 71
     3
 72
    15
 73
    11
 74
     0
 42
0.000000001
 43
0.00000001
 40
0.0
 40
0.0
 40
0.0
 40
0.0
 40
0.1373796181502566
 40
0.2660309335194698
 40
0.3863777828841359
 40
0.4991538635746285
 40
0.6268217748477447
 40
0.7493850827170715
 40
0.8753275712876947
 40
1.0
 40
1.0
 40
1.0
 40
1.0
 10
237.0085107078214
 20
1239.713468511326
 30
0.0
 10
237.029511952952
 20
1239.694252406677
 30
0.0
 10
237.0701801461119
 20
1239.657041077024
 30
0.0
 10
237.131553015291
 20
1239.611938211239
 30
0.0
 10
237.1898199148696
 20
1239.575517080976
 30
0.0
 10
237.2487626500464
 20
1239.545394635248
 30
0.0
 10
237.3087140037711
 20
1239.521471207679
 30
0.0
 10
237.3711449149319
 20
1239.50386914833
 30
0.0
 10
237.4328967865658
 20
1239.492785147857
 30
0.0
 10
237.4741986811821
 20
1239.491459098147
 30
0.0
 10
237.4947449741485
 20
1239.490799433353
 30
0.0
  0
LINE
  5
1A4
330
1F
100
AcDbEntity
  8
0
  6
Continuous
 62
     7
370
    25
100
AcDbLine
 10
237.4947462866
 20
1242.4572718876
 30
0.0
 11
237.7372254321
 21
1242.3779679077
 31
0.0
  0
SPLINE
  5
1A5
330
1F
100
AcDbEntity
  8
0
  6
Continuous
 62
     7
370
    25
100
AcDbSpline
210
0.0
220
0.0
230
1.0
 70
     8
 71
     3
 72
     9
 73
     5
 74
     0
 42
0.000000001
 43
0.00000001
 40
0.0
 40
0.0
 40
0.0
 40
0.0
 40
0.250850229131202
 40
1.0
 40
1.0
 40
1.0
 40
1.0
 10
237.7394904086332
 20
1239.558861924899
 30
0.0
 10
237.7204092007832
 20
1239.546530125697
 30
0.0
 10
237.644343063965
 20
1239.497370117972
 30
0.0
 10
237.5588176390691
 20
1239.49361017842
 30
0.0
 10
237.4947462866048
 20
1239.490793420565
 30
0.0
  0
SPLINE
  5
1A6
330
1F
100
AcDbEntity
  8
0
  6
Continuous
 62
     7
370
    25
100
AcDbSpline
210
0.0
220
0.0
230
1.0
 70
     8
 71
     3
 72
    13
 73
     9
 74
     0
 42
0.000000001
 43
0.00000001
 40
0.0
 40
0.0
 40
0.0
 40
0.0
 40
0.12726716252422
 40
0.2559574663179441
 40
0.3810917100631832
 40
0.5118027998734282
 40
0.7400793876163347
 40
1.0
 40
1.0
 40
1.0
 40
1.0
 10
237.4947449546789
 20
1242.457278650636
 30
0.0
 10
237.4737680751703
 20
1242.456591323823
 30
0.0
 10
237.4315797461168
 20
1242.455208984295
 30
0.0
 10
237.3685175384301
 20
1242.443638665235
 30
0.0
 10
237.3046960448189
 20
1242.425290809214
 30
0.0
 10
237.224840437936
 20
1242.392550115399
 30
0.0
 10
237.12395132258
 20
1242.335735550801
 30
0.0
 10
237.0485557834491
 20
1242.269636745436
 30
0.0
 10
237.0084145153369
 20
1242.234445142608
 30
0.0
  0
SPLINE
  5
1A7
330
1F
100
AcDbEntity
  8
0
  6
Continuous
 62
     7
370
    25
100
AcDbSpline
210
0.0
220
0.0
230
1.0
 70
     8
 71
     3
 72
    20
 73
    16
 74
     0
 42
0.000000001
 43
0.00000001
 40
0.0
 40
0.0
 40
0.0
 40
0.0
 40
0.0443058257922924
 40
0.0873873773967392
 40
0.1294366565382926
 40
0.1706600918913674
 40
0.2112767064965044
 40
0.251515434184709
 40
0.3768202749126299
 40
0.4963704393987287
 40
0.6147497962238453
 40
0.7386675573857736
 40
0.8224587009124009
 40
0.9089207473723359
 40
1.0
 40
1.0
 40
1.0
 40
1.0
 10
237.0084134421305
 20
1239.713575999834
 30
0.0
 10
236.9836717776786
 20
1239.738231971148
 30
0.0
 10
236.9348721191635
 20
1239.78686261129
 30
0.0
 10
236.8656062373624
 20
1239.867975535564
 30
0.0
 10
236.8009001499624
 20
1239.95374343405
 30
0.0
 10
236.7410692351488
 20
1240.044772755147
 30
0.0
 10
236.6861948819454
 20
1240.140952118052
 30
0.0
 10
236.6013889192418
 20
1240.313420158618
 30
0.0
 10
236.5081762781344
 20
1240.581237778342
 30
0.0
 10
236.4652349607557
 20
1240.960961777891
 30
0.0
 10
236.5025489875455
 20
1241.340488643058
 30
0.0
 10
236.6047745961494
 20
1241.650043469515
 30
0.0
 10
236.7298361565385
 20
1241.892186624671
 30
0.0
 10
236.8594228576572
 20
1242.080516187949
 30
0.0
 10
236.9578647791286
 20
1242.182250823365
 30
0.0
 10
237.0083657987839
 20
1242.234441015775
 30
0.0
  0
SPLINE
  5
1A8
330
1F
100
AcDbEntity
  8
0
  6
Continuous
 62
     7
370
    25
100
AcDbSpline
210
0.0
220
0.0
230
1.0
 70
     8
 71
     3
 72
    15
 73
    11
 74
     0
 42
0.000000001
 43
0.00000001
 40
0.0
 40
0.0
 40
0.0
 40
0.0
 40
0.1373796155260399
 40
0.2660309289246723
 40
0.3863777770500165
 40
0.4991538573275259
 40
0.626821769448451
 40
0.7493850790440211
 40
0.875327569222805
 40
1.0
 40
1.0
 40
1.0
 40
1.0
 10
237.0085107277266
 20
1244.713468426929
 30
0.0
 10
237.0295119703943
 20
1244.694252327869
 30
0.0
 10
237.0701801588594
 20
1244.657041008971
 30
0.0
 10
237.1315530202816
 20
1244.611938156294
 30
0.0
 10
237.1898199125415
 20
1244.575517036541
 30
0.0
 10
237.2487626406036
 20
1244.545394599428
 30
0.0
 10
237.3087139875023
 20
1244.521471178723
 30
0.0
 10
237.3711448919447
 20
1244.5038691247
 30
0.0
 10
237.4328967572231
 20
1244.492785127979
 30
0.0
 10
237.4741986477463
 20
1244.491459079377
 30
0.0
 10
237.4947449387157
 20
1244.490799415133
 30
0.0
  0
LINE
  5
1A9
330
1F
100
AcDbEntity
  8
0
  6
Continuous
 62
     7
370
    25
100
AcDbLine
 10
237.4947462866
 20
1247.4572820203
 30
0.0
 11
237.7372254321
 21
1247.3779780405
 31
0.0
  0
SPLINE
  5
1AA
330
1F
100
AcDbEntity
  8
0
  6
Continuous
 62
     7
370
    25
100
AcDbSpline
210
0.0
220
0.0
230
1.0
 70
     8
 71
     3
 72
     9
 73
     5
 74
     0
 42
0.000000001
 43
0.00000001
 40
0.0
 40
0.0
 40
0.0
 40
0.0
 40
0.2508528222687574
 40
0.9999999999999999
 40
0.9999999999999999
 40
0.9999999999999999
 40
0.9999999999999999
 10
237.7394904086332
 20
1244.558857156527
 30
0.0
 10
237.7204092389402
 20
1244.546525145424
 30
0.0
 10
237.6443440405487
 20
1244.497364801155
 30
0.0
 10
237.5588179305401
 20
1244.493613688679
 30
0.0
 10
237.4947462866048
 20
1244.490803553355
 30
0.0
  0
SPLINE
  5
1AB
330
1F
100
AcDbEntity
  8
0
  6
Continuous
 62
     7
370
    25
100
AcDbSpline
210
0.0
220
0.0
230
1.0
 70
     8
 71
     3
 72
    13
 73
     9
 74
     0
 42
0.000000001
 43
0.00000001
 40
0.0
 40
0.0
 40
0.0
 40
0.0
 40
0.1272671352936026
 40
0.2559574125478205
 40
0.3810916606406125
 40
0.511802756084722
 40
0.7400793617467374
 40
1.0
 40
1.0
 40
1.0
 40
1.0
 10
237.494744911069
 20
1247.457278668856
 30
0.0
 10
237.473768038224
 20
1247.456591342904
 30
0.0
 10
237.4315797224081
 20
1247.4552090051
 30
0.0
 10
237.3685175315706
 20
1247.44363869356
 30
0.0
 10
237.3046960500642
 20
1247.425290846574
 30
0.0
 10
237.2248404495932
 20
1247.392550163893
 30
0.0
 10
237.1239513401494
 20
1247.335735614505
 30
0.0
 10
237.0485558028017
 20
1247.269636822885
 30
0.0
 10
237.0084145352441
 20
1247.234445227029
 30
0.0
  0
SPLINE
  5
1AC
330
1F
100
AcDbEntity
  8
0
  6
Continuous
 62
     7
370
    25
100
AcDbSpline
210
0.0
220
0.0
230
1.0
 70
     8
 71
     3
 72
    20
 73
    16
 74
     0
 42
0.000000001
 43
0.00000001
 40
0.0
 40
0.0
 40
0.0
 40
0.0
 40
0.0443058294027411
 40
0.0873873843636702
 40
0.1294366666634816
 40
0.1706601050382469
 40
0.2112767225950884
 40
0.2515154532350197
 40
0.3768202940220663
 40
0.4963704571873948
 40
0.6147498084858258
 40
0.7386675638132248
 40
0.8224587045533982
 40
0.9089207488158252
 40
1.0
 40
1.0
 40
1.0
 40
1.0
 10
237.0084134908061
 20
1244.713575878265
 30
0.0
 10
236.9836718201856
 20
1244.738231849902
 30
0.0
 10
236.9348721495903
 20
1244.786862490595
 30
0.0
 10
236.8656062500247
 20
1244.867975418807
 30
0.0
 10
236.800900145777
 20
1244.953743323359
 30
0.0
 10
236.7410692150932
 20
1245.044772652856
 30
0.0
 10
236.6861948470608
 20
1245.140952026462
 30
0.0
 10
236.6013888648152
 20
1245.313420081337
 30
0.0
 10
236.5081762018736
 20
1245.581237723135
 30
0.0
 10
236.4652348729507
 20
1245.960961754821
 30
0.0
 10
236.5025489013342
 20
1246.340488647383
 30
0.0
 10
236.604774519568
 20
1246.650043491719
 30
0.0
 10
236.729836093246
 20
1246.892186659131
 30
0.0
 10
236.8594228098728
 20
1247.080516230997
 30
0.0
 10
236.9578647427377
 20
1247.182250868753
 30
0.0
 10
237.0083657684732
 20
1247.234441062606
 30
0.0
  0
SPLINE
  5
1AD
330
1F
100
AcDbEntity
  8
0
  6
Continuous
 62
     7
370
    25
100
AcDbSpline
210
0.0
220
0.0
230
1.0
 70
     8
 71
     3
 72
    15
 73
    11
 74
     0
 42
0.000000001
 43
0.00000001
 40
0.0
 40
0.0
 40
0.0
 40
0.0
 40
0.1373796126527431
 40
0.2660309243781496
 40
0.3863777720528986
 40
0.4991538531068211
 40
0.626821764497071
 40
0.7493850743712275
 40
0.8753275668238257
 40
1.0
 40
1.0
 40
1.0
 40
1.0
 10
237.008510747632
 20
1249.713468329571
 30
0.0
 10
237.029511987856
 20
1249.694252236614
 30
0.0
 10
237.0701801717441
 20
1249.657040929394
 30
0.0
 10
237.1315530255191
 20
1249.611938090769
 30
0.0
 10
237.1898199106185
 20
1249.575516982047
 30
0.0
 10
237.2487626311182
 20
1249.545394553992
 30
0.0
 10
237.3087139699644
 20
1249.521471140359
 30
0.0
 10
237.3711448658432
 20
1249.503869091299
 30
0.0
 10
237.4328967228248
 20
1249.492785097418
 30
0.0
 10
237.474198607687
 20
1249.491459048858
 30
0.0
 10
237.4947448958525
 20
1249.490799384634
 30
0.0
  0
LINE
  5
1AE
330
1F
100
AcDbEntity
  8
0
  6
Continuous
 62
     7
370
    25
100
AcDbLine
 10
237.4947462866
 20
1252.457277252
 30
0.0
 11
237.7372254321
 21
1252.3779732721
 31
0.0
  0
SPLINE
  5
1AF
330
1F
100
AcDbEntity
  8
0
  6
Continuous
 62
     7
370
    25
100
AcDbSpline
210
0.0
220
0.0
230
1.0
 70
     8
 71
     3
 72
     9
 73
     5
 74
     0
 42
0.000000001
 43
0.00000001
 40
0.0
 40
0.0
 40
0.0
 40
0.0
 40
0.2508519290993689
 40
0.9999999999999999
 40
0.9999999999999999
 40
0.9999999999999999
 40
0.9999999999999999
 10
237.7394904086332
 20
1249.558867289317
 30
0.0
 10
237.7204092257975
 20
1249.546535487958
 30
0.0
 10
237.64434370418
 20
1249.497375804784
 30
0.0
 10
237.558817830148
 20
1249.493615677262
 30
0.0
 10
237.4947462866048
 20
1249.490798784983
 30
0.0
  0
SPLINE
  5
1B0
330
1F
100
AcDbEntity
  8
0
  6
Continuous
 62
     7
370
    25
100
AcDbSpline
210
0.0
220
0.0
230
1.0
 70
     8
 71
     3
 72
    13
 73
     9
 74
     0
 42
0.000000001
 43
0.00000001
 40
0.0
 40
0.0
 40
0.0
 40
0.0
 40
0.1272671418718059
 40
0.2559574257069399
 40
0.3810916815537981
 40
0.5118027848139968
 40
0.7400793818204459
 40
1.0
 40
1.0
 40
1.0
 40
1.0
 10
237.4947448746328
 20
1252.457278684017
 30
0.0
 10
237.4737680034453
 20
1252.45659135847
 30
0.0
 10
237.4315796909744
 20
1252.45520902148
 30
0.0
 10
237.3685175046766
 20
1252.443638712896
 30
0.0
 10
237.3046960272293
 20
1252.425290870074
 30
0.0
 10
237.2248404348645
 20
1252.392550195657
 30
0.0
 10
237.1239513386296
 20
1252.335735664093
 30
0.0
 10
237.0485558121846
 20
1252.269636895126
 30
0.0
 10
237.0084145511698
 20
1252.234445311979
 30
0.0
  0
SPLINE
  5
1B1
330
1F
100
AcDbEntity
  8
0
  6
Continuous
 62
     7
370
    25
100
AcDbSpline
210
0.0
220
0.0
230
1.0
 70
     8
 71
     3
 72
    20
 73
    16
 74
     0
 42
0.000000001
 43
0.00000001
 40
0.0
 40
0.0
 40
0.0
 40
0.0
 40
0.0443058340428941
 40
0.0873873933117241
 40
0.1294366796599716
 40
0.1706601219042475
 40
0.2112767432386976
 40
0.2515154776558498
 40
0.3768203185222488
 40
0.496370480028908
 40
0.6147498237799128
 40
0.7386675724262406
 40
0.8224587107490169
 40
0.9089207521187161
 40
1.0
 40
1.0
 40
1.0
 40
1.0
 10
237.0084135389043
 20
1249.713575755188
 30
0.0
 10
236.9836718615109
 20
1249.738231727964
 30
0.0
 10
236.9348721776709
 20
1249.78686237079
 30
0.0
 10
236.8656062588652
 20
1249.86797530574
 30
0.0
 10
236.8009001366105
 20
1249.953743219371
 30
0.0
 10
236.7410691892384
 20
1250.044772560527
 30
0.0
 10
236.686194805902
 20
1250.140951948327
 30
0.0
 10
236.6013888050137
 20
1250.31342002174
 30
0.0
 10
236.5081761229369
 20
1250.581237689469
 30
0.0
 10
236.4652347867487
 20
1250.960961753322
 30
0.0
 10
236.502548822024
 20
1251.34048867025
 30
0.0
 10
236.6047744543463
 20
1251.650043527386
 30
0.0
 10
236.7298360434974
 20
1251.892186703862
 30
0.0
 10
236.8594227758374
 20
1252.080516281607
 30
0.0
 10
236.95786471943
 20
1252.182250919215
 30
0.0
 10
237.0083657505998
 20
1252.234441112921
 30
0.0
  0
SPLINE
  5
1B2
330
1F
100
AcDbEntity
  8
0
  6
Continuous
 62
     7
370
    25
100
AcDbSpline
210
0.0
220
0.0
230
1.0
 70
     8
 71
     3
 72
    15
 73
    11
 74
     0
 42
0.000000001
 43
0.00000001
 40
0.0
 40
0.0
 40
0.0
 40
0.0
 40
0.1373796130539718
 40
0.2660309253117932
 40
0.3863777737264908
 40
0.4991538558433799
 40
0.6268217672549443
 40
0.7493850777885381
 40
0.8753275684013724
 40
0.9999999999999999
 40
0.9999999999999999
 40
0.9999999999999999
 40
0.9999999999999999
 10
237.0085107675366
 20
1254.713468256412
 30
0.0
 10
237.0295120054867
 20
1254.694252169115
 30
0.0
 10
237.0701801849956
 20
1254.657040872833
 30
0.0
 10
237.1315530311525
 20
1254.611938047641
 30
0.0
 10
237.1898199087574
 20
1254.575516949818
 30
0.0
 10
237.2487626213347
 20
1254.545394531005
 30
0.0
 10
237.3087139519828
 20
1254.521471124913
 30
0.0
 10
237.3711448389031
 20
1254.503869081815
 30
0.0
 10
237.4328966869213
 20
1254.49278509203
 30
0.0
 10
237.4741985658135
 20
1254.491459044358
 30
0.0
 10
237.4947448510292
 20
1254.490799380575
 30
0.0
  0
LINE
  5
1B3
330
1F
100
AcDbEntity
  8
0
  6
Continuous
 62
     7
370
    25
100
AcDbLine
 10
237.4947462866
 20
1257.4572724836
 30
0.0
 11
237.7372179816
 21
1257.3779685037
 31
0.0
  0
SPLINE
  5
1B4
330
1F
100
AcDbEntity
  8
0
  6
Continuous
 62
     7
370
    25
100
AcDbSpline
210
0.0
220
0.0
230
1.0
 70
     8
 71
     3
 72
     9
 73
     5
 74
     0
 42
0.000000001
 43
0.00000001
 40
0.0
 40
0.0
 40
0.0
 40
0.0
 40
0.2508514928734791
 40
1.0
 40
1.0
 40
1.0
 40
1.0
 10
237.7394904086332
 20
1254.558862520945
 30
0.0
 10
237.7204092193786
 20
1254.54653072014
 30
0.0
 10
237.6443435398962
 20
1254.497370953683
 30
0.0
 10
237.5588177811159
 20
1254.493610874396
 30
0.0
 10
237.4947462866048
 20
1254.490794016612
 30
0.0
  0
SPLINE
  5
1B5
330
1F
100
AcDbEntity
  8
0
  6
Continuous
 62
     7
370
    25
100
AcDbSpline
210
0.0
220
0.0
230
1.0
 70
     8
 71
     3
 72
    13
 73
     9
 74
     0
 42
0.000000001
 43
0.00000001
 40
0.0
 40
0.0
 40
0.0
 40
0.0
 40
0.1272671367148249
 40
0.2559574154353765
 40
0.3810916725634182
 40
0.5118027768084843
 40
0.7400793766384594
 40
1.0
 40
1.0
 40
1.0
 40
1.0
 10
237.4947448281297
 20
1257.457278703414
 30
0.0
 10
237.4737679607999
 20
1257.456591378065
 30
0.0
 10
237.4315796560714
 20
1257.455209041474
 30
0.0
 10
237.3685174805681
 20
1257.443638736823
 30
0.0
 10
237.3046960130014
 20
1257.425290899886
 30
0.0
 10
237.2248404309324
 20
1257.392550235301
 30
0.0
 10
237.123951347464
 20
1257.335735719874
 30
0.0
 10
237.0485558283373
 20
1257.269636968911
 30
0.0
 10
237.0084145710767
 20
1257.234445395224
 30
0.0
  0
SPLINE
  5
1B6
330
1F
100
AcDbEntity
  8
0
  6
Continuous
 62
     7
370
    25
100
AcDbSpline
210
0.0
220
0.0
230
1.0
 70
     8
 71
     3
 72
    20
 73
    16
 74
     0
 42
0.000000001
 43
0.00000001
 40
0.0
 40
0.0
 40
0.0
 40
0.0
 40
0.0443058382864317
 40
0.0873874014957677
 40
0.1294366915444878
 40
0.1706601373189916
 40
0.2112767620890264
 40
0.2515154999268627
 40
0.3768203393055299
 40
0.4963704986639579
 40
0.61474983549483
 40
0.7386675754985664
 40
0.8224587122226897
 40
0.908920752498552
 40
1.0
 40
1.0
 40
1.0
 40
1.0
 10
237.0084135877846
 20
1254.713575634154
 30
0.0
 10
236.9836719037295
 20
1254.738231607828
 30
0.0
 10
236.9348722068537
 20
1254.786862252324
 30
0.0
 10
236.8656062689913
 20
1254.867975193116
 30
0.0
 10
236.800900128779
 20
1254.953743114817
 30
0.0
 10
236.74106916462
 20
1255.044772466495
 30
0.0
 10
236.6861947657452
 20
1255.14095186724
 30
0.0
 10
236.6013887456573
 20
1255.313419956414
 30
0.0
 10
236.5081760432206
 20
1255.581237647462
 30
0.0
 10
236.4652346982085
 20
1255.96096174252
 30
0.0
 10
236.5025487355211
 20
1256.340488683758
 30
0.0
 10
236.6047743778887
 20
1256.650043557489
 30
0.0
 10
236.7298359819976
 20
1256.89218674617
 30
0.0
 10
236.8594227329775
 20
1257.080516335076
 30
0.0
 10
236.9578646901782
 20
1257.182250975848
 30
0.0
 10
237.0083657285375
 20
1257.234441171392
 30
0.0
  0
SPLINE
  5
1B7
330
1F
100
AcDbEntity
  8
0
  6
Continuous
 62
     7
370
    25
100
AcDbSpline
210
0.0
220
0.0
230
1.0
 70
     8
 71
     3
 72
    15
 73
    11
 74
     0
 42
0.000000001
 43
0.00000001
 40
0.0
 40
0.0
 40
0.0
 40
0.0
 40
0.1373796115880024
 40
0.2660309236349503
 40
0.3863777731332593
 40
0.4991538576531622
 40
0.6268217669866629
 40
0.7493850765869488
 40
0.8753275677086582
 40
1.0
 40
1.0
 40
1.0
 40
1.0
 10
237.0085107874418
 20
1259.713468172015
 30
0.0
 10
237.029512022786
 20
1259.694252090471
 30
0.0
 10
237.0701801974263
 20
1259.657040805166
 30
0.0
 10
237.1315530359615
 20
1259.611937993289
 30
0.0
 10
237.1898199066846
 20
1259.575516905952
 30
0.0
 10
237.2487626116434
 20
1259.545394496087
 30
0.0
 10
237.3087139337658
 20
1259.521471097192
 30
0.0
 10
237.3711448111356
 20
1259.503869059273
 30
0.0
 10
237.4328966498941
 20
1259.492785072435
 30
0.0
 10
237.4741985224982
 20
1259.491459024742
 30
0.0
 10
237.4947448046015
 20
1259.490799360948
 30
0.0
  0
LINE
  5
1B8
330
1F
100
AcDbEntity
  8
0
  6
Continuous
 62
     7
370
    25
100
AcDbLine
 10
237.4947462866
 20
1262.4572826164
 30
0.0
 11
237.7372179816
 21
1262.3779786365
 31
0.0
  0
SPLINE
  5
1B9
330
1F
100
AcDbEntity
  8
0
  6
Continuous
 62
     7
370
    25
100
AcDbSpline
210
0.0
220
0.0
230
1.0
 70
     8
 71
     3
 72
     9
 73
     5
 74
     0
 42
0.000000001
 43
0.00000001
 40
0.0
 40
0.0
 40
0.0
 40
0.0
 40
0.2508523860376879
 40
1.0
 40
1.0
 40
1.0
 40
1.0
 10
237.7394904086332
 20
1259.558857752574
 30
0.0
 10
237.7204092325212
 20
1259.546525742024
 30
0.0
 10
237.6443438762638
 20
1259.497365314475
 30
0.0
 10
237.5588178815079
 20
1259.49361425023
 30
0.0
 10
237.4947462866048
 20
1259.490804149401
 30
0.0
  0
SPLINE
  5
1BA
330
1F
100
AcDbEntity
  8
0
  6
Continuous
 62
     7
370
    25
100
AcDbSpline
210
0.0
220
0.0
230
1.0
 70
     8
 71
     3
 72
    13
 73
     9
 74
     0
 42
0.000000001
 43
0.00000001
 40
0.0
 40
0.0
 40
0.0
 40
0.0
 40
0.1272671437237884
 40
0.2559574280254059
 40
0.38109167345343
 40
0.5118027621940292
 40
0.7400793702565661
 40
1.0
 40
1.0
 40
1.0
 40
1.0
 10
237.4947447879497
 20
1262.457278721634
 30
0.0
 10
237.4737679222483
 20
1262.45659139652
 30
0.0
 10
237.431579621043
 20
1262.455209060407
 30
0.0
 10
237.3685174531682
 20
1262.443638759141
 30
0.0
 10
237.3046959971037
 20
1262.425290928782
 30
0.0
 10
237.2248404288921
 20
1262.392550275694
 30
0.0
 10
237.1239513589561
 20
1262.335735777819
 30
0.0
 10
237.0485558451799
 20
1262.26963704401
 30
0.0
 10
237.0084145909839
 20
1262.234445479645
 30
0.0
  0
SPLINE
  5
1BB
330
1F
100
AcDbEntity
  8
0
  6
Continuous
 62
     7
370
    25
100
AcDbSpline
210
0.0
220
0.0
230
1.0
 70
     8
 71
     3
 72
    20
 73
    16
 74
     0
 42
0.000000001
 43
0.00000001
 40
0.0
 40
0.0
 40
0.0
 40
0.0
 40
0.0443058427211211
 40
0.0873874100863639
 40
0.1294367040828398
 40
0.170660153674517
 40
0.2112767822142286
 40
0.2515155238609652
 40
0.3768203646307438
 40
0.4963705226964895
 40
0.6147498500693891
 40
0.7386675840819548
 40
0.8224587180039601
 40
0.9089207553785518
 40
1.0
 40
1.0
 40
1.0
 40
1.0
 10
237.0084136392037
 20
1259.713575519753
 30
0.0
 10
236.9836719484024
 20
1259.738231494215
 30
0.0
 10
236.9348722383081
 20
1259.786862140177
 30
0.0
 10
236.8656062811444
 20
1259.867975086749
 30
0.0
 10
236.8009001227318
 20
1259.953743016666
 30
0.0
 10
236.7410691415529
 20
1260.044772379239
 30
0.0
 10
236.6861947269023
 20
1260.14095179351
 30
0.0
 10
236.6013886866373
 20
1260.313419901233
 30
0.0
 10
236.5081759627746
 20
1260.581237618555
 30
0.0
 10
236.4652346093017
 20
1260.960961745829
 30
0.0
 10
236.5025486554731
 20
1261.340488710149
 30
0.0
 10
236.6047743114169
 20
1261.650043594876
 30
0.0
 10
236.729835930197
 20
1261.892186794076
 30
0.0
 10
236.8594226969728
 20
1262.080516388987
 30
0.0
 10
236.9578646651814
 20
1262.182251029817
 30
0.0
 10
237.0083657092354
 20
1262.23444122544
 30
0.0
  0
SPLINE
  5
1BC
330
1F
100
AcDbEntity
  8
0
  6
Continuous
 62
     7
370
    25
100
AcDbSpline
210
0.0
220
0.0
230
1.0
 70
     8
 71
     3
 72
    10
 73
     6
 74
     0
 42
0.000000001
 43
0.00000001
 40
0.0
 40
0.0
 40
0.0
 40
0.0
 40
0.4606678612197457
 40
0.9232494448829366
 40
1.0
 40
1.0
 40
1.0
 40
1.0
 10
240.0375251362066
 20
1259.490804149401
 30
0.0
 10
240.011999797374
 20
1259.51345766146
 30
0.0
 10
239.9608430814588
 20
1259.558858793583
 30
0.0
 10
239.8885413681205
 20
1259.763118917169
 30
0.0
 10
239.8616642735064
 20
1259.944653805782
 30
0.0
 10
239.8578394839506
 20
1259.970487429393
 30
0.0
  0
SPLINE
  5
1BD
330
1F
100
AcDbEntity
  8
0
  6
Continuous
 62
     7
370
    25
100
AcDbSpline
210
0.0
220
0.0
230
1.0
 70
     8
 71
     3
 72
    12
 73
     8
 74
     0
 42
0.000000001
 43
0.00000001
 40
0.0
 40
0.0
 40
0.0
 40
0.0
 40
0.0200291248455485
 40
0.2556886565784046
 40
0.4922651796895801
 40
0.7458673758706363
 40
1.0
 40
1.0
 40
1.0
 40
1.0
 10
239.8492266127805
 20
1261.944935991061
 30
0.0
 10
239.8501777679793
 20
1261.952326536653
 30
0.0
 10
239.8623200656018
 20
1262.046673078926
 30
0.0
 10
239.897418728524
 20
1262.172615811086
 30
0.0
 10
239.9448733975853
 20
1262.333890172094
 30
0.0
 10
239.9944540974199
 20
1262.437547641916
 30
0.0
 10
240.0231581276269
 20
1262.450699711598
 30
0.0
 10
240.0375251362066
 20
1262.457282616389
 30
0.0
  0
SPLINE
  5
1BE
330
1F
100
AcDbEntity
  8
0
  6
Continuous
 62
     7
370
    25
100
AcDbSpline
210
0.0
220
0.0
230
1.0
 70
     8
 71
     3
 72
    10
 73
     6
 74
     0
 42
0.000000001
 43
0.00000001
 40
0.0
 40
0.0
 40
0.0
 40
0.0
 40
0.4603705626782477
 40
0.9226484238418775
 40
1.0
 40
1.0
 40
1.0
 40
1.0
 10
240.0375251362066
 20
1254.490794016612
 30
0.0
 10
240.0119482280481
 20
1254.51318614098
 30
0.0
 10
239.9606884475315
 20
1254.558063159473
 30
0.0
 10
239.8889016153954
 20
1254.764975910033
 30
0.0
 10
239.861460084208
 20
1254.944491805004
 30
0.0
 10
239.8575265595655
 20
1254.970223976863
 30
0.0
  0
SPLINE
  5
1BF
330
1F
100
AcDbEntity
  8
0
  6
Continuous
 62
     7
370
    25
100
AcDbSpline
210
0.0
220
0.0
230
1.0
 70
     8
 71
     3
 72
    12
 73
     8
 74
     0
 42
0.000000001
 43
0.00000001
 40
0.0
 40
0.0
 40
0.0
 40
0.0
 40
0.0201086860726903
 40
0.2557561237224279
 40
0.4923048533115109
 40
0.7458866521426647
 40
1.0
 40
1.0
 40
1.0
 40
1.0
 10
239.8491595575551
 20
1256.9450301664
 30
0.0
 10
239.8501337977951
 20
1256.952388710951
 30
0.0
 10
239.862524856387
 20
1257.045979750363
 30
0.0
 10
239.8973245030353
 20
1257.172909694454
 30
0.0
 10
239.9449013663184
 20
1257.333812581242
 30
0.0
 10
239.9944471624775
 20
1257.437577865232
 30
0.0
 10
240.0231557924652
 20
1257.450703030195
 30
0.0
 10
240.0375251362066
 20
1257.457272483599
 30
0.0
  0
SPLINE
  5
1C0
330
1F
100
AcDbEntity
  8
0
  6
Continuous
 62
     7
370
    25
100
AcDbSpline
210
0.0
220
0.0
230
1.0
 70
     8
 71
     3
 72
    10
 73
     6
 74
     0
 42
0.000000001
 43
0.00000001
 40
0.0
 40
0.0
 40
0.0
 40
0.0
 40
0.4606678612197457
 40
0.9232494448829366
 40
1.0
 40
1.0
 40
1.0
 40
1.0
 10
240.0375251362066
 20
1249.490798784983
 30
0.0
 10
240.011999797374
 20
1249.513452297041
 30
0.0
 10
239.9608430814588
 20
1249.558853429165
 30
0.0
 10
239.8885413681205
 20
1249.763113552751
 30
0.0
 10
239.8616642735064
 20
1249.944648441364
 30
0.0
 10
239.8578394839506
 20
1249.970482064974
 30
0.0
  0
SPLINE
  5
1C1
330
1F
100
AcDbEntity
  8
0
  6
Continuous
 62
     7
370
    25
100
AcDbSpline
210
0.0
220
0.0
230
1.0
 70
     8
 71
     3
 72
    12
 73
     8
 74
     0
 42
0.000000001
 43
0.00000001
 40
0.0
 40
0.0
 40
0.0
 40
0.0
 40
0.0200290814644028
 40
0.2556881027815234
 40
0.4922697397688489
 40
0.7458679262973017
 40
1.0
 40
1.0
 40
1.0
 40
1.0
 10
239.8492266127805
 20
1251.944930626643
 30
0.0
 10
239.8501777674459
 20
1251.952321178492
 30
0.0
 10
239.8623200582583
 20
1252.046667800642
 30
0.0
 10
239.8974196113495
 20
1252.172606236442
 30
0.0
 10
239.9448721245766
 20
1252.333907134576
 30
0.0
 10
239.9944546476772
 20
1252.437536704397
 30
0.0
 10
240.0231582459197
 20
1252.450692458278
 30
0.0
 10
240.0375251362066
 20
1252.457277251971
 30
0.0
  0
SPLINE
  5
1C2
330
1F
100
AcDbEntity
  8
0
  6
Continuous
 62
     7
370
    25
100
AcDbSpline
210
0.0
220
0.0
230
1.0
 70
     8
 71
     3
 72
    10
 73
     6
 74
     0
 42
0.000000001
 43
0.00000001
 40
0.0
 40
0.0
 40
0.0
 40
0.0
 40
0.4606678612197457
 40
0.9232494448829366
 40
1.0
 40
1.0
 40
1.0
 40
1.0
 10
240.0375251362066
 20
1244.490803553355
 30
0.0
 10
240.011999797374
 20
1244.513457065413
 30
0.0
 10
239.9608430814588
 20
1244.558858197536
 30
0.0
 10
239.8885413681205
 20
1244.763118321122
 30
0.0
 10
239.8616642735064
 20
1244.944653209736
 30
0.0
 10
239.8578394839506
 20
1244.970486833346
 30
0.0
  0
SPLINE
  5
1C3
330
1F
100
AcDbEntity
  8
0
  6
Continuous
 62
     7
370
    25
100
AcDbSpline
210
0.0
220
0.0
230
1.0
 70
     8
 71
     3
 72
    12
 73
     8
 74
     0
 42
0.000000001
 43
0.00000001
 40
0.0
 40
0.0
 40
0.0
 40
0.0
 40
0.0200291230617999
 40
0.2556886338073497
 40
0.4922651358495539
 40
0.7458673094453708
 40
1.0
 40
1.0
 40
1.0
 40
1.0
 10
239.8492266127805
 20
1246.944935395014
 30
0.0
 10
239.8501777679791
 20
1246.952325940607
 30
0.0
 10
239.8623200655977
 20
1247.046672482879
 30
0.0
 10
239.8974187287908
 20
1247.172615215073
 30
0.0
 10
239.9448733966079
 20
1247.333889575923
 30
0.0
 10
239.9944541072802
 20
1247.437547058773
 30
0.0
 10
240.02315812924
 20
1247.450699119088
 30
0.0
 10
240.0375251362066
 20
1247.457282020343
 30
0.0
  0
SPLINE
  5
1C4
330
1F
100
AcDbEntity
  8
0
  6
Continuous
 62
     7
370
    25
100
AcDbSpline
210
0.0
220
0.0
230
1.0
 70
     8
 71
     3
 72
    10
 73
     6
 74
     0
 42
0.000000001
 43
0.00000001
 40
0.0
 40
0.0
 40
0.0
 40
0.0
 40
0.4495892668980576
 40
0.9010463234428636
 40
1.0
 40
1.0
 40
1.0
 40
1.0
 10
240.0375251362066
 20
1239.490793420565
 30
0.0
 10
240.0119638803857
 20
1239.513236010275
 30
0.0
 10
239.9607351761531
 20
1239.558214425986
 30
0.0
 10
239.8870522698233
 20
1239.769859429467
 30
0.0
 10
239.8591019005391
 20
1239.960606844177
 30
0.0
 10
239.8540769407491
 20
1239.994899703753
 30
0.0
  0
SPLINE
  5
1C5
330
1F
100
AcDbEntity
  8
0
  6
Continuous
 62
     7
370
    25
100
AcDbSpline
210
0.0
220
0.0
230
1.0
 70
     8
 71
     3
 72
    12
 73
     8
 74
     0
 42
0.000000001
 43
0.00000001
 40
0.0
 40
0.0
 40
0.0
 40
0.0
 40
0.0062037627625808
 40
0.2451885995083753
 40
0.4851035019214682
 40
0.7422722274153277
 40
1.0
 40
1.0
 40
1.0
 40
1.0
 10
239.8512308189611
 20
1241.96021385361
 30
0.0
 10
239.8515251379368
 20
1241.962459893831
 30
0.0
 10
239.8631573779552
 20
1242.051229158135
 30
0.0
 10
239.8974894650492
 20
1242.172166455827
 30
0.0
 10
239.9448514044102
 20
1242.334025993883
 30
0.0
 10
239.9944618280333
 20
1242.437501742236
 30
0.0
 10
240.0231603137216
 20
1242.450677070758
 30
0.0
 10
240.0375251362066
 20
1242.457271887553
 30
0.0
  0
SPLINE
  5
1C6
330
1F
100
AcDbEntity
  8
0
  6
Continuous
 62
     7
370
    25
100
AcDbSpline
210
0.0
220
0.0
230
1.0
 70
     8
 71
     3
 72
    10
 73
     6
 74
     0
 42
0.000000001
 43
0.00000001
 40
0.0
 40
0.0
 40
0.0
 40
0.0
 40
0.4606678612197457
 40
0.9232494448829366
 40
1.0
 40
1.0
 40
1.0
 40
1.0
 10
240.0375251362066
 20
1234.490798188937
 30
0.0
 10
240.011999797374
 20
1234.513451700995
 30
0.0
 10
239.9608430814588
 20
1234.558852833118
 30
0.0
 10
239.8885413681205
 20
1234.763112956704
 30
0.0
 10
239.8616642735064
 20
1234.944647845318
 30
0.0
 10
239.8578394839506
 20
1234.970481468928
 30
0.0
  0
SPLINE
  5
1C7
330
1F
100
AcDbEntity
  8
0
  6
Continuous
 62
     7
370
    25
100
AcDbSpline
210
0.0
220
0.0
230
1.0
 70
     8
 71
     3
 72
    12
 73
     8
 74
     0
 42
0.000000001
 43
0.00000001
 40
0.0
 40
0.0
 40
0.0
 40
0.0
 40
0.0200290713395797
 40
0.2556879735296241
 40
0.4922696449963679
 40
0.745859059949009
 40
0.9999999999999999
 40
0.9999999999999999
 40
0.9999999999999999
 40
0.9999999999999999
 10
239.8492266127805
 20
1236.944930030596
 30
0.0
 10
239.8501777672346
 20
1236.952320582122
 30
0.0
 10
239.8623200553493
 20
1237.046667200136
 30
0.0
 10
239.8974198131429
 20
1237.172605972319
 30
0.0
 10
239.9448708801585
 20
1237.333903611874
 30
0.0
 10
239.9944567323236
 20
1237.437539119335
 30
0.0
 10
240.0231586090512
 20
1237.450692714338
 30
0.0
 10
240.0375251362066
 20
1237.457276655924
 30
0.0
  0
SPLINE
  5
1C8
330
1F
100
AcDbEntity
  8
0
  6
Continuous
 62
     7
370
    25
100
AcDbSpline
210
0.0
220
0.0
230
1.0
 70
     8
 71
     3
 72
    10
 73
     6
 74
     0
 42
0.000000001
 43
0.00000001
 40
0.0
 40
0.0
 40
0.0
 40
0.0
 40
0.4492850842108452
 40
0.9004402841368376
 40
1.0
 40
1.0
 40
1.0
 40
1.0
 10
240.0375251362066
 20
1229.490802957308
 30
0.0
 10
240.0119145141507
 20
1229.512986634679
 30
0.0
 10
239.9605866677312
 20
1229.557446327326
 30
0.0
 10
239.8874045668043
 20
1229.771725020154
 30
0.0
 10
239.8588514240894
 20
1229.960309749164
 30
0.0
 10
239.8536895105581
 20
1229.994402601016
 30
0.0
  0
SPLINE
  5
1C9
330
1F
100
AcDbEntity
  8
0
  6
Continuous
 62
     7
370
    25
100
AcDbSpline
210
0.0
220
0.0
230
1.0
 70
     8
 71
     3
 72
    12
 73
     8
 74
     0
 42
0.000000001
 43
0.00000001
 40
0.0
 40
0.0
 40
0.0
 40
0.0
 40
0.0062157403424108
 40
0.2452033616262901
 40
0.4851110685254113
 40
0.7422834086154427
 40
1.0
 40
1.0
 40
1.0
 40
1.0
 10
239.8512159177999
 20
1231.960253192675
 30
0.0
 10
239.8515152633954
 20
1231.962484075235
 30
0.0
 10
239.8633240813741
 20
1232.050489666353
 30
0.0
 10
239.8974115864135
 20
1232.17248386665
 30
0.0
 10
239.9448751252649
 20
1232.333949637831
 30
0.0
 10
239.9944543159585
 20
1232.437531690828
 30
0.0
 10
240.0231580825756
 20
1232.450693542331
 30
0.0
 10
240.0375251362066
 20
1232.457281424296
 30
0.0
  0
SPLINE
  5
1CA
330
1F
100
AcDbEntity
  8
0
  6
Continuous
 62
     7
370
    25
100
AcDbSpline
210
0.0
220
0.0
230
1.0
 70
     8
 71
     3
 72
    10
 73
     6
 74
     0
 42
0.000000001
 43
0.00000001
 40
0.0
 40
0.0
 40
0.0
 40
0.0
 40
0.4606633595342106
 40
0.9232404228108078
 40
1.0
 40
1.0
 40
1.0
 40
1.0
 10
240.0375251362066
 20
1224.490792824519
 30
0.0
 10
240.0120001401964
 20
1224.513447499383
 30
0.0
 10
239.9608441113501
 20
1224.558850961949
 30
0.0
 10
239.8885379612276
 20
1224.763100429149
 30
0.0
 10
239.8616642146803
 20
1224.944652163441
 30
0.0
 10
239.8578394839506
 20
1224.970491005671
 30
0.0
  0
SPLINE
  5
1CB
330
1F
100
AcDbEntity
  8
0
  6
Continuous
 62
     7
370
    25
100
AcDbSpline
210
0.0
220
0.0
230
1.0
 70
     8
 71
     3
 72
    12
 73
     8
 74
     0
 42
0.000000001
 43
0.00000001
 40
0.0
 40
0.0
 40
0.0
 40
0.0
 40
0.0200291888990141
 40
0.255689474274868
 40
0.4922667539615947
 40
0.745857657342116
 40
1.0
 40
1.0
 40
1.0
 40
1.0
 10
239.8492266127805
 20
1226.94493956734
 30
0.0
 10
239.8501777677135
 20
1226.952330114042
 30
0.0
 10
239.8623200619427
 20
1227.046676670481
 30
0.0
 10
239.8974189685268
 20
1227.172618385384
 30
0.0
 10
239.9448717270418
 20
1227.33389472961
 30
0.0
 10
239.9944566036451
 20
1227.437534856611
 30
0.0
 10
240.0231585678031
 20
1227.450687718185
 30
0.0
 10
240.0375251362066
 20
1227.457271291506
 30
0.0
  0
SPLINE
  5
1CC
330
1F
100
AcDbEntity
  8
0
  6
Continuous
 62
     7
370
    25
100
AcDbSpline
210
0.0
220
0.0
230
1.0
 70
     8
 71
     3
 72
    10
 73
     6
 74
     0
 42
0.000000001
 43
0.00000001
 40
0.0
 40
0.0
 40
0.0
 40
0.0
 40
0.449593604178153
 40
0.9010549257361704
 40
0.9999999999999999
 40
0.9999999999999999
 40
0.9999999999999999
 40
0.9999999999999999
 10
240.0375251362066
 20
1214.490802361262
 30
0.0
 10
240.0119636380819
 20
1214.513244124367
 30
0.0
 10
239.9607344533683
 20
1214.558220878929
 30
0.0
 10
239.8870549609663
 20
1214.769873040151
 30
0.0
 10
239.8591019738934
 20
1214.960606163744
 30
0.0
 10
239.8540769407491
 20
1214.994893743289
 30
0.0
  0
SPLINE
  5
1CD
330
1F
100
AcDbEntity
  8
0
  6
Continuous
 62
     7
370
    25
100
AcDbSpline
210
0.0
220
0.0
230
1.0
 70
     8
 71
     3
 72
    12
 73
     8
 74
     0
 42
0.000000001
 43
0.00000001
 40
0.0
 40
0.0
 40
0.0
 40
0.0
 40
0.0061931422393356
 40
0.2451797874079333
 40
0.4850962140675772
 40
0.7422704221450498
 40
1.0
 40
1.0
 40
1.0
 40
1.0
 10
239.8512382695417
 20
1216.960222794306
 30
0.0
 10
239.851530080457
 20
1216.96246383118
 30
0.0
 10
239.8630825582478
 20
1217.051184051537
 30
0.0
 10
239.89752381648
 20
1217.172180681745
 30
0.0
 10
239.9448419563826
 20
1217.3340108187
 30
0.0
 10
239.9944639323766
 20
1217.437516502695
 30
0.0
 10
240.0231610841151
 20
1217.450687984191
 30
0.0
 10
240.0375251362066
 20
1217.45728082825
 30
0.0
  0
SPLINE
  5
1CE
330
1F
100
AcDbEntity
  8
0
  6
Continuous
 62
     7
370
    25
100
AcDbSpline
210
0.0
220
0.0
230
1.0
 70
     8
 71
     3
 72
    10
 73
     6
 74
     0
 42
0.000000001
 43
0.00000001
 40
0.0
 40
0.0
 40
0.0
 40
0.0
 40
0.4606649869833903
 40
0.923249829518156
 40
1.0
 40
1.0
 40
1.0
 40
1.0
 10
240.0375251362066
 20
1209.490792228472
 30
0.0
 10
240.0119996405497
 20
1209.513444348991
 30
0.0
 10
239.9608422698367
 20
1209.558842994423
 30
0.0
 10
239.8885416993577
 20
1209.763120566056
 30
0.0
 10
239.8616642801472
 20
1209.944656854017
 30
0.0
 10
239.8578394839506
 20
1209.970490409625
 30
0.0
  0
SPLINE
  5
1CF
330
1F
100
AcDbEntity
  8
0
  6
Continuous
 62
     7
370
    25
100
AcDbSpline
210
0.0
220
0.0
230
1.0
 70
     8
 71
     3
 72
    12
 73
     8
 74
     0
 42
0.000000001
 43
0.00000001
 40
0.0
 40
0.0
 40
0.0
 40
0.0
 40
0.0200292559898249
 40
0.2556891126126689
 40
0.4922660949611023
 40
0.745856679620035
 40
1.0
 40
1.0
 40
1.0
 40
1.0
 10
239.8492266127805
 20
1211.944938971293
 30
0.0
 10
239.8501777673551
 20
1211.952329517158
 30
0.0
 10
239.8623199991614
 20
1212.046675613431
 30
0.0
 10
239.8974190139184
 20
1212.172617770895
 30
0.0
 10
239.9448717033307
 20
1212.33389506115
 30
0.0
 10
239.994456749701
 20
1212.437530471587
 30
0.0
 10
240.0231585921169
 20
1212.450695777549
 30
0.0
 10
240.0375251362066
 20
1212.457285596621
 30
0.0
  0
SPLINE
  5
1D0
330
1F
100
AcDbEntity
  8
0
  6
Continuous
 62
     7
370
    25
100
AcDbSpline
210
0.0
220
0.0
230
1.0
 70
     8
 71
     3
 72
    10
 73
     6
 74
     0
 42
0.000000001
 43
0.00000001
 40
0.0
 40
0.0
 40
0.0
 40
0.0
 40
0.4492850351576014
 40
0.9004401858261696
 40
1.0
 40
1.0
 40
1.0
 40
1.0
 10
240.0375251362066
 20
1204.490796996844
 30
0.0
 10
240.0119145169875
 20
1204.512980654569
 30
0.0
 10
239.9605866762535
 20
1204.557440307842
 30
0.0
 10
239.8874045356872
 20
1204.771719243248
 30
0.0
 10
239.8588514232526
 20
1204.960303790864
 30
0.0
 10
239.8536895105581
 20
1204.994396640551
 30
0.0
  0
SPLINE
  5
1D1
330
1F
100
AcDbEntity
  8
0
  6
Continuous
 62
     7
370
    25
100
AcDbSpline
210
0.0
220
0.0
230
1.0
 70
     8
 71
     3
 72
    12
 73
     8
 74
     0
 42
0.000000001
 43
0.00000001
 40
0.0
 40
0.0
 40
0.0
 40
0.0
 40
0.0062158079832847
 40
0.245210144408966
 40
0.4851107546448819
 40
0.7422857916446268
 40
0.9999999999999999
 40
0.9999999999999999
 40
0.9999999999999999
 40
0.9999999999999999
 10
239.8512159177999
 20
1206.960247232211
 30
0.0
 10
239.8515152636175
 20
1206.962478112278
 30
0.0
 10
239.8633242885021
 20
1207.050485081766
 30
0.0
 10
239.8974095468886
 20
1207.172499826234
 30
0.0
 10
239.9448766738942
 20
1207.333934230325
 30
0.0
 10
239.9944535384309
 20
1207.437550262433
 30
0.0
 10
240.0231579175901
 20
1207.450695808203
 30
0.0
 10
240.0375251362066
 20
1207.457275463832
 30
0.0
  0
SPLINE
  5
1D2
330
1F
100
AcDbEntity
  8
0
  6
Continuous
 62
     7
370
    25
100
AcDbSpline
210
0.0
220
0.0
230
1.0
 70
     8
 71
     3
 72
    10
 73
     6
 74
     0
 42
0.000000001
 43
0.00000001
 40
0.0
 40
0.0
 40
0.0
 40
0.0
 40
0.4492852034493056
 40
0.9004401883546685
 40
1.0
 40
1.0
 40
1.0
 40
1.0
 10
240.0375251362066
 20
1219.49079759289
 30
0.0
 10
240.0119145247
 20
1219.512981224167
 30
0.0
 10
239.9605867185052
 20
1219.557440807906
 30
0.0
 10
239.8874045253209
 20
1219.771719896811
 30
0.0
 10
239.8588514228904
 20
1219.960304387627
 30
0.0
 10
239.8536895105581
 20
1219.994397236598
 30
0.0
  0
SPLINE
  5
1D3
330
1F
100
AcDbEntity
  8
0
  6
Continuous
 62
     7
370
    25
100
AcDbSpline
210
0.0
220
0.0
230
1.0
 70
     8
 71
     3
 72
    12
 73
     8
 74
     0
 42
0.000000001
 43
0.00000001
 40
0.0
 40
0.0
 40
0.0
 40
0.0
 40
0.0062158085446538
 40
0.2452101665546608
 40
0.4851107984567509
 40
0.7422858586827774
 40
1.0
 40
1.0
 40
1.0
 40
1.0
 10
239.8512159177999
 20
1221.960247828257
 30
0.0
 10
239.8515152636175
 20
1221.962478708325
 30
0.0
 10
239.8633242885029
 20
1222.050485677814
 30
0.0
 10
239.8974095466198
 20
1222.172500422246
 30
0.0
 10
239.9448766748721
 20
1222.333934826496
 30
0.0
 10
239.9944535285707
 20
1222.437550845581
 30
0.0
 10
240.023157915977
 20
1222.450696400714
 30
0.0
 10
240.0375251362066
 20
1222.457276059878
 30
0.0
  0
SPLINE
  5
1D4
330
1F
100
AcDbEntity
  8
0
  6
Continuous
 62
     7
370
    25
100
AcDbSpline
210
0.0
220
0.0
230
1.0
 70
     8
 71
     3
 72
    17
 73
    13
 74
     0
 42
0.000000001
 43
0.00000001
 40
0.0
 40
0.0
 40
0.0
 40
0.0
 40
0.0658854045314135
 40
0.1315397266104368
 40
0.1973292258066438
 40
0.2636179205260545
 40
0.3707579949707063
 40
0.4779441820636126
 40
0.6050898401134914
 40
0.7325045343348219
 40
0.8661906768677406
 40
1.0
 40
1.0
 40
1.0
 40
1.0
 10
238.6137069346033
 20
1261.635100814609
 30
0.0
 10
238.6215805526826
 20
1261.667411521705
 30
0.0
 10
238.6373001733928
 20
1261.731919611292
 30
0.0
 10
238.664680794749
 20
1261.823451752808
 30
0.0
 10
238.694638451866
 20
1261.910645519747
 30
0.0
 10
238.7339209033509
 20
1262.00971615034
 30
0.0
 10
238.7839822885668
 20
1262.115766856502
 30
0.0
 10
238.8497674831149
 20
1262.227073175864
 30
0.0
 10
238.9234741386101
 20
1262.323542313682
 30
0.0
 10
239.0051643650712
 20
1262.398757057241
 30
0.0
 10
239.0890558932872
 20
1262.448111060051
 30
0.0
 10
239.1443117973353
 20
1262.454221887315
 30
0.0
 10
239.1719524719214
 20
1262.457278707953
 30
0.0
  0
LINE
  5
1D5
330
1F
100
AcDbEntity
  8
0
  6
Continuous
 62
     7
370
    25
100
AcDbLine
 10
238.6137415359
 20
1260.3128267067
 30
0.0
 11
238.5603506753
 21
1260.6243205803
 31
0.0
  0
SPLINE
  5
1D6
330
1F
100
AcDbEntity
  8
0
  6
Continuous
 62
     7
370
    25
100
AcDbSpline
210
0.0
220
0.0
230
1.0
 70
     8
 71
     3
 72
     9
 73
     5
 74
     0
 42
0.000000001
 43
0.00000001
 40
0.0
 40
0.0
 40
0.0
 40
0.0
 40
0.1724352285332473
 40
1.0
 40
1.0
 40
1.0
 40
1.0
 10
238.5543306061963
 20
1261.240394188655
 30
0.0
 10
238.5554257663035
 20
1261.264312502663
 30
0.0
 10
238.5617769053164
 20
1261.40302147885
 30
0.0
 10
238.5901862552267
 20
1261.530007220275
 30
0.0
 10
238.6136968323926
 20
1261.635096146357
 30
0.0
  0
SPLINE
  5
1D7
330
1F
100
AcDbEntity
  8
0
  6
Continuous
 62
     7
370
    25
100
AcDbSpline
210
0.0
220
0.0
230
1.0
 70
     8
 71
     3
 72
    17
 73
    13
 74
     0
 42
0.000000001
 43
0.00000001
 40
0.0
 40
0.0
 40
0.0
 40
0.0
 40
0.0624664750212282
 40
0.1246211496880875
 40
0.1867465133637346
 40
0.2491254536289069
 40
0.3733025818580407
 40
0.4972320986530023
 40
0.6090497433292374
 40
0.7209796241737815
 40
0.8608007994668955
 40
1.0
 40
1.0
 40
1.0
 40
1.0
 10
239.1719524915459
 20
1259.490799348431
 30
0.0
 10
239.1591408446455
 20
1259.491462873378
 30
0.0
 10
239.1335814999636
 20
1259.4927866113
 30
0.0
 10
239.0945474513975
 20
1259.503588447051
 30
0.0
 10
239.0552392677737
 20
1259.520867102447
 30
0.0
 10
239.0026777833331
 20
1259.553185614433
 30
0.0
 10
238.9371346385577
 20
1259.610112761774
 30
0.0
 10
238.8632622227746
 20
1259.701368448334
 30
0.0
 10
238.7953602884349
 20
1259.810741859084
 30
0.0
 10
238.729720483912
 20
1259.945300108656
 30
0.0
 10
238.6659081227187
 20
1260.110115412189
 30
0.0
 10
238.6311037602771
 20
1260.24536112256
 30
0.0
 10
238.6137403709097
 20
1260.312833237108
 30
0.0
  0
LINE
  5
1D8
330
1F
100
AcDbEntity
  8
0
  6
Continuous
 62
     7
370
    25
100
AcDbLine
 10
239.1719539354
 20
1262.4572826164
 30
0.0
 11
239.2537613103
 21
1262.4134881036
 31
0.0
  0
LINE
  5
1D9
330
1F
100
AcDbEntity
  8
0
  6
Continuous
 62
     7
370
    25
100
AcDbLine
 10
239.2557059118
 20
1259.5153910654
 30
0.0
 11
239.1719539354
 21
1259.4908041494
 31
0.0
  0
SPLINE
  5
1DA
330
1F
100
AcDbEntity
  8
0
  6
Continuous
 62
     7
370
    25
100
AcDbSpline
210
0.0
220
0.0
230
1.0
 70
     8
 71
     3
 72
    17
 73
    13
 74
     0
 42
0.000000001
 43
0.00000001
 40
0.0
 40
0.0
 40
0.0
 40
0.0
 40
0.0658854054611125
 40
0.1315397283379713
 40
0.1973292283410191
 40
0.26361792401608
 40
0.3707580013573258
 40
0.4779441922550421
 40
0.6050898540438974
 40
0.7325045519619073
 40
0.8661906911844262
 40
0.9999999999999999
 40
0.9999999999999999
 40
0.9999999999999999
 40
0.9999999999999999
 10
238.6137069266094
 20
1256.635100581969
 30
0.0
 10
238.6215805434445
 20
1256.667411296866
 30
0.0
 10
238.6373001616554
 20
1256.731919401966
 30
0.0
 10
238.664680781065
 20
1256.823451566413
 30
0.0
 10
238.6946384374987
 20
1256.910645355681
 30
0.0
 10
238.733920889951
 20
1257.0097160128
 30
0.0
 10
238.7839822788151
 20
1257.115766748631
 30
0.0
 10
238.8497674806499
 20
1257.227073099647
 30
0.0
 10
238.9234741460921
 20
1257.323542265078
 30
0.0
 10
239.0051643832866
 20
1257.398757026233
 30
0.0
 10
239.0890559188461
 20
1257.44811103982
 30
0.0
 10
239.1443118261395
 20
1257.454221865876
 30
0.0
 10
239.1719525012132
 20
1257.457278685783
 30
0.0
  0
LINE
  5
1DB
330
1F
100
AcDbEntity
  8
0
  6
Continuous
 62
     7
370
    25
100
AcDbLine
 10
238.6137415359
 20
1255.312831475
 30
0.0
 11
238.5603506753
 21
1255.6243104475
 31
0.0
  0
SPLINE
  5
1DC
330
1F
100
AcDbEntity
  8
0
  6
Continuous
 62
     7
370
    25
100
AcDbSpline
210
0.0
220
0.0
230
1.0
 70
     8
 71
     3
 72
     9
 73
     5
 74
     0
 42
0.000000001
 43
0.00000001
 40
0.0
 40
0.0
 40
0.0
 40
0.0
 40
0.1724351316826736
 40
1.0
 40
1.0
 40
1.0
 40
1.0
 10
238.5543306061963
 20
1256.240398957026
 30
0.0
 10
238.5554257666516
 20
1256.264317272283
 30
0.0
 10
238.5617769112502
 20
1256.403026333619
 30
0.0
 10
238.5901862564081
 20
1256.53001202104
 30
0.0
 10
238.6136968323926
 20
1256.635100914729
 30
0.0
  0
SPLINE
  5
1DD
330
1F
100
AcDbEntity
  8
0
  6
Continuous
 62
     7
370
    25
100
AcDbSpline
210
0.0
220
0.0
230
1.0
 70
     8
 71
     3
 72
    17
 73
    13
 74
     0
 42
0.000000001
 43
0.00000001
 40
0.0
 40
0.0
 40
0.0
 40
0.0
 40
0.0624664737888327
 40
0.1246211484380217
 40
0.1867465134289192
 40
0.2491254564424852
 40
0.3733025882600115
 40
0.4972321082971793
 40
0.6090497508963151
 40
0.7209796296731097
 40
0.8608008019098429
 40
1.0
 40
1.0
 40
1.0
 40
1.0
 10
239.1719525208377
 20
1254.490799362892
 30
0.0
 10
239.1591408725836
 20
1254.491462887873
 30
0.0
 10
239.1335815249533
 20
1254.492786625874
 30
0.0
 10
239.094547471415
 20
1254.5035884651
 30
0.0
 10
239.0552392819829
 20
1254.520867126429
 30
0.0
 10
239.0026777893672
 20
1254.55318564925
 30
0.0
 10
238.9371346346488
 20
1254.610112815089
 30
0.0
 10
238.8632622102791
 20
1254.701368529945
 30
0.0
 10
238.7953602708863
 20
1254.810741971763
 30
0.0
 10
238.7297204650279
 20
1254.945300255442
 30
0.0
 10
238.6659081056792
 20
1255.110115598694
 30
0.0
 10
238.6311037490185
 20
1255.245361337888
 30
0.0
 10
238.6137403624975
 20
1255.312833466962
 30
0.0
  0
LINE
  5
1DE
330
1F
100
AcDbEntity
  8
0
  6
Continuous
 62
     7
370
    25
100
AcDbLine
 10
239.1719539354
 20
1257.4572724836
 30
0.0
 11
239.2537613103
 21
1257.413492872
 31
0.0
  0
LINE
  5
1DF
330
1F
100
AcDbEntity
  8
0
  6
Continuous
 62
     7
370
    25
100
AcDbLine
 10
239.2557059118
 20
1254.5153809326
 30
0.0
 11
239.1719539354
 21
1254.4907940166
 31
0.0
  0
SPLINE
  5
1E0
330
1F
100
AcDbEntity
  8
0
  6
Continuous
 62
     7
370
    25
100
AcDbSpline
210
0.0
220
0.0
230
1.0
 70
     8
 71
     3
 72
    17
 73
    13
 74
     0
 42
0.000000001
 43
0.00000001
 40
0.0
 40
0.0
 40
0.0
 40
0.0
 40
0.0658854022964807
 40
0.1315397217547238
 40
0.1973292181280679
 40
0.2636179100083688
 40
0.3707579807426944
 40
0.4779441643729892
 40
0.605089822153264
 40
0.7325045162587893
 40
0.8661906732741044
 40
0.9999999999999999
 40
0.9999999999999999
 40
0.9999999999999999
 40
0.9999999999999999
 10
238.6137069279503
 20
1251.635100338875
 30
0.0
 10
238.6215805430172
 20
1251.667411059752
 30
0.0
 10
238.6373001576665
 20
1251.731919176658
 30
0.0
 10
238.6646807728735
 20
1251.82345135927
 30
0.0
 10
238.6946384258994
 20
1251.910645166648
 30
0.0
 10
238.733920875223
 20
1252.009715845325
 30
0.0
 10
238.7839822618105
 20
1252.115766605775
 30
0.0
 10
238.8497674639407
 20
1252.22707298633
 30
0.0
 10
238.9234741328098
 20
1252.323542181211
 30
0.0
 10
239.0051643811977
 20
1252.398756973913
 30
0.0
 10
239.0890559342378
 20
1252.448111013596
 30
0.0
 10
239.1443118559057
 20
1252.454221844505
 30
0.0
 10
239.1719525381803
 20
1252.457278666843
 30
0.0
  0
LINE
  5
1E1
330
1F
100
AcDbEntity
  8
0
  6
Continuous
 62
     7
370
    25
100
AcDbLine
 10
238.6137415359
 20
1250.3128362434
 30
0.0
 11
238.5603506753
 21
1250.6243152158
 31
0.0
  0
SPLINE
  5
1E2
330
1F
100
AcDbEntity
  8
0
  6
Continuous
 62
     7
370
    25
100
AcDbSpline
210
0.0
220
0.0
230
1.0
 70
     8
 71
     3
 72
     9
 73
     5
 74
     0
 42
0.000000001
 43
0.00000001
 40
0.0
 40
0.0
 40
0.0
 40
0.0
 40
0.1724644931845449
 40
1.0
 40
1.0
 40
1.0
 40
1.0
 10
238.5543306061963
 20
1251.240388824237
 30
0.0
 10
238.5554256611215
 20
1251.264312156236
 30
0.0
 10
238.5617751125649
 20
1251.403026691368
 30
0.0
 10
238.5901858983658
 20
1251.53001683239
 30
0.0
 10
238.6136968323926
 20
1251.6351056831
 30
0.0
  0
SPLINE
  5
1E3
330
1F
100
AcDbEntity
  8
0
  6
Continuous
 62
     7
370
    25
100
AcDbSpline
210
0.0
220
0.0
230
1.0
 70
     8
 71
     3
 72
    17
 73
    13
 74
     0
 42
0.000000001
 43
0.00000001
 40
0.0
 40
0.0
 40
0.0
 40
0.0
 40
0.0624664763032454
 40
0.1246211525835135
 40
0.1867465184112663
 40
0.2491254615674885
 40
0.3733025932004178
 40
0.497232113084432
 40
0.6090497583316644
 40
0.7209796380399948
 40
0.8608008061878788
 40
0.9999999999999999
 40
0.9999999999999999
 40
0.9999999999999999
 40
0.9999999999999999
 10
239.1719525578048
 20
1249.490799389542
 30
0.0
 10
239.1591409074803
 20
1249.491462914945
 30
0.0
 10
239.1335815558982
 20
1249.49278665378
 30
0.0
 10
239.0945474964716
 20
1249.503588496788
 30
0.0
 10
239.0552393016174
 20
1249.520867163774
 30
0.0
 10
239.0026778024559
 20
1249.553185696904
 30
0.0
 10
238.9371346402216
 20
1249.610112880339
 30
0.0
 10
238.8632622081697
 20
1249.701368623029
 30
0.0
 10
238.7953602630682
 20
1249.810742096978
 30
0.0
 10
238.729720454881
 20
1249.945300417227
 30
0.0
 10
238.6659080978394
 20
1250.110115800875
 30
0.0
 10
238.6311037480341
 20
1250.245361568228
 30
0.0
 10
238.6137403649462
 20
1250.312833711299
 30
0.0
  0
LINE
  5
1E4
330
1F
100
AcDbEntity
  8
0
  6
Continuous
 62
     7
370
    25
100
AcDbLine
 10
239.1719539354
 20
1252.457277252
 30
0.0
 11
239.2537613103
 21
1252.4134976404
 31
0.0
  0
LINE
  5
1E5
330
1F
100
AcDbEntity
  8
0
  6
Continuous
 62
     7
370
    25
100
AcDbLine
 10
239.2557059118
 20
1249.515385701
 30
0.0
 11
239.1719539354
 21
1249.490798785
 31
0.0
  0
SPLINE
  5
1E6
330
1F
100
AcDbEntity
  8
0
  6
Continuous
 62
     7
370
    25
100
AcDbSpline
210
0.0
220
0.0
230
1.0
 70
     8
 71
     3
 72
    17
 73
    13
 74
     0
 42
0.000000001
 43
0.00000001
 40
0.0
 40
0.0
 40
0.0
 40
0.0
 40
0.0658854048417055
 40
0.1315397265406627
 40
0.1973292249745791
 40
0.2636179188619878
 40
0.3707579892508937
 40
0.4779441716019753
 40
0.6050898327671873
 40
0.7325045303922444
 40
0.8661906803499628
 40
1.0
 40
1.0
 40
1.0
 40
1.0
 10
238.6137069191863
 20
1246.635100107097
 30
0.0
 10
238.621580533423
 20
1246.667410836383
 30
0.0
 10
238.6373001463792
 20
1246.731918969933
 30
0.0
 10
238.6646807607074
 20
1246.823451176997
 30
0.0
 10
238.6946384139779
 20
1246.910645007953
 30
0.0
 10
238.7339208644364
 20
1247.009715712356
 30
0.0
 10
238.7839822534944
 20
1247.115766499683
 30
0.0
 10
238.8497674613476
 20
1247.227072909289
 30
0.0
 10
238.9234741392181
 20
1247.3235421302
 30
0.0
 10
239.0051643974635
 20
1247.398756941122
 30
0.0
 10
239.0890559588502
 20
1247.448110990807
 30
0.0
 10
239.1443118845341
 20
1247.454221822385
 30
0.0
 10
239.1719525688166
 20
1247.457278645055
 30
0.0
  0
LINE
  5
1E7
330
1F
100
AcDbEntity
  8
0
  6
Continuous
 62
     7
370
    25
100
AcDbLine
 10
238.6137415359
 20
1245.3128410118
 30
0.0
 11
238.5603506753
 21
1245.6243199842
 31
0.0
  0
SPLINE
  5
1E8
330
1F
100
AcDbEntity
  8
0
  6
Continuous
 62
     7
370
    25
100
AcDbSpline
210
0.0
220
0.0
230
1.0
 70
     8
 71
     3
 72
     9
 73
     5
 74
     0
 42
0.000000001
 43
0.00000001
 40
0.0
 40
0.0
 40
0.0
 40
0.0
 40
0.1724351316826736
 40
1.0
 40
1.0
 40
1.0
 40
1.0
 10
238.5543306061963
 20
1246.240393592608
 30
0.0
 10
238.5554257666516
 20
1246.264311907865
 30
0.0
 10
238.5617769112502
 20
1246.403020969201
 30
0.0
 10
238.5901862564081
 20
1246.530006656622
 30
0.0
 10
238.6136968323926
 20
1246.635095550311
 30
0.0
  0
SPLINE
  5
1E9
330
1F
100
AcDbEntity
  8
0
  6
Continuous
 62
     7
370
    25
100
AcDbSpline
210
0.0
220
0.0
230
1.0
 70
     8
 71
     3
 72
    17
 73
    13
 74
     0
 42
0.000000001
 43
0.00000001
 40
0.0
 40
0.0
 40
0.0
 40
0.0
 40
0.0624664746210088
 40
0.1246211494985874
 40
0.1867465142788309
 40
0.2491254568136787
 40
0.3733025872703589
 40
0.4972321058320944
 40
0.6090497519028893
 40
0.720979632519918
 40
0.8608008032181182
 40
1.0
 40
1.0
 40
1.0
 40
1.0
 10
239.171952588441
 20
1244.49079938763
 30
0.0
 10
239.1591409367125
 20
1244.491462913245
 30
0.0
 10
239.1335815822736
 20
1244.492786652506
 30
0.0
 10
239.0945475183096
 20
1244.503588498632
 30
0.0
 10
239.0552393186794
 20
1244.520867170559
 30
0.0
 10
239.0026778129412
 20
1244.55318571277
 30
0.0
 10
238.9371346426622
 20
1244.610112911931
 30
0.0
 10
238.8632622022249
 20
1244.701368680137
 30
0.0
 10
238.795360250549
 20
1244.810742184839
 30
0.0
 10
238.7297204377179
 20
1244.945300543691
 30
0.0
 10
238.6659080790436
 20
1245.11011597422
 30
0.0
 10
238.6311037333044
 20
1245.245361777525
 30
0.0
 10
238.6137403522181
 20
1245.312833938638
 30
0.0
  0
LINE
  5
1EA
330
1F
100
AcDbEntity
  8
0
  6
Continuous
 62
     7
370
    25
100
AcDbLine
 10
239.1719539354
 20
1247.4572820203
 30
0.0
 11
239.2537613103
 21
1247.4134875076
 31
0.0
  0
LINE
  5
1EB
330
1F
100
AcDbEntity
  8
0
  6
Continuous
 62
     7
370
    25
100
AcDbLine
 10
239.2557059118
 20
1244.5153904693
 30
0.0
 11
239.1719539354
 21
1244.4908035534
 31
0.0
  0
SPLINE
  5
1EC
330
1F
100
AcDbEntity
  8
0
  6
Continuous
 62
     7
370
    25
100
AcDbSpline
210
0.0
220
0.0
230
1.0
 70
     8
 71
     3
 72
    17
 73
    13
 74
     0
 42
0.000000001
 43
0.00000001
 40
0.0
 40
0.0
 40
0.0
 40
0.0
 40
0.0653949943613398
 40
0.1305832908632234
 40
0.1959237369653786
 40
0.2617726921982171
 40
0.3698313880019273
 40
0.4779410344551682
 40
0.6050897774767097
 40
0.7325030204391051
 40
0.8661935139706269
 40
0.9999999999999999
 40
0.9999999999999999
 40
0.9999999999999999
 40
0.9999999999999999
 10
238.6137127428632
 20
1241.635093344693
 30
0.0
 10
238.6215247679775
 20
1241.66716676145
 30
0.0
 10
238.6371241262724
 20
1241.731212218602
 30
0.0
 10
238.6642793601631
 20
1241.822137873556
 30
0.0
 10
238.6939868684919
 20
1241.908818053441
 30
0.0
 10
238.7332022975407
 20
1242.008063727472
 30
0.0
 10
238.783454337607
 20
1242.114836141151
 30
0.0
 10
238.8495801553244
 20
1242.2268278181
 30
0.0
 10
238.9234739692186
 20
1242.323545569565
 30
0.0
 10
239.0051655240308
 20
1242.398759316019
 30
0.0
 10
239.089056744935
 20
1242.448110911002
 30
0.0
 10
239.1443126633881
 20
1242.45422188381
 30
0.0
 10
239.1719526026976
 20
1242.457278695139
 30
0.0
  0
LINE
  5
1ED
330
1F
100
AcDbEntity
  8
0
  6
Continuous
 62
     7
370
    25
100
AcDbLine
 10
238.6137415359
 20
1240.312830879
 30
0.0
 11
238.5603506753
 21
1240.6243098514
 31
0.0
  0
SPLINE
  5
1EE
330
1F
100
AcDbEntity
  8
0
  6
Continuous
 62
     7
370
    25
100
AcDbSpline
210
0.0
220
0.0
230
1.0
 70
     8
 71
     3
 72
     9
 73
     5
 74
     0
 42
0.000000001
 43
0.00000001
 40
0.0
 40
0.0
 40
0.0
 40
0.0
 40
0.1724351316826736
 40
1.0
 40
1.0
 40
1.0
 40
1.0
 10
238.5543306061963
 20
1241.24039836098
 30
0.0
 10
238.5554257666516
 20
1241.264316676237
 30
0.0
 10
238.5617769112502
 20
1241.403025737573
 30
0.0
 10
238.5901862564081
 20
1241.530011424994
 30
0.0
 10
238.6136968323926
 20
1241.635100318682
 30
0.0
  0
SPLINE
  5
1EF
330
1F
100
AcDbEntity
  8
0
  6
Continuous
 62
     7
370
    25
100
AcDbSpline
210
0.0
220
0.0
230
1.0
 70
     8
 71
     3
 72
    17
 73
    13
 74
     0
 42
0.000000001
 43
0.00000001
 40
0.0
 40
0.0
 40
0.0
 40
0.0
 40
0.0625098326851951
 40
0.1246793714468247
 40
0.1867906109417079
 40
0.2491263370385579
 40
0.373293369748618
 40
0.4972402063607273
 40
0.6100174526658471
 40
0.7228735531865317
 40
0.8617818182984862
 40
1.0
 40
1.0
 40
1.0
 40
1.0
 10
239.1719526214556
 20
1239.490799339715
 30
0.0
 10
239.1591317713903
 20
1239.491461462803
 30
0.0
 10
239.1335598659974
 20
1239.492782104483
 30
0.0
 10
239.0945144836237
 20
1239.503566198175
 30
0.0
 10
239.0552122874027
 20
1239.520818543707
 30
0.0
 10
239.0026610223432
 20
1239.553102781395
 30
0.0
 10
238.9371223592291
 20
1239.610022225818
 30
0.0
 10
238.8630582887443
 20
1239.701566300176
 30
0.0
 10
238.7948052760209
 20
1239.811659072817
 30
0.0
 10
238.7290679237814
 20
1239.946848721549
 30
0.0
 10
238.6655289472825
 20
1240.11148476567
 30
0.0
 10
238.6309745702464
 20
1240.245829259785
 30
0.0
 10
238.6137404043316
 20
1240.312834238601
 30
0.0
  0
SPLINE
  5
1F0
330
1F
100
AcDbEntity
  8
0
  6
Continuous
 62
     7
370
    25
100
AcDbSpline
210
0.0
220
0.0
230
1.0
 70
     8
 71
     3
 72
    17
 73
    13
 74
     0
 42
0.000000001
 43
0.00000001
 40
0.0
 40
0.0
 40
0.0
 40
0.0
 40
0.0658854023172335
 40
0.1315397212977468
 40
0.197329217043193
 40
0.2636179084941317
 40
0.3707579807868029
 40
0.4779441674038106
 40
0.6050898258023757
 40
0.7325045207571848
 40
0.8661906724487314
 40
0.9999999999999999
 40
0.9999999999999999
 40
0.9999999999999999
 40
0.9999999999999999
 10
238.6137069133036
 20
1236.635099630501
 30
0.0
 10
238.6215805243076
 20
1236.667410373684
 30
0.0
 10
238.6373001307855
 20
1236.731918534879
 30
0.0
 10
238.6646807386558
 20
1236.823450783472
 30
0.0
 10
238.6946383877869
 20
1236.910644655398
 30
0.0
 10
238.7339208371141
 20
1237.00971541058
 30
0.0
 10
238.7839822303158
 20
1237.115766256797
 30
0.0
 10
238.8497674482185
 20
1237.227072729869
 30
0.0
 10
238.9234741401561
 20
1237.323542007064
 30
0.0
 10
239.0051644165556
 20
1237.398756863635
 30
0.0
 10
239.0890560006704
 20
1237.448110945017
 30
0.0
 10
239.14431194222
 20
1237.454221782504
 30
0.0
 10
239.1719526350755
 20
1237.457278608202
 30
0.0
  0
LINE
  5
1F1
330
1F
100
AcDbEntity
  8
0
  6
Continuous
 62
     7
370
    25
100
AcDbLine
 10
238.6137415359
 20
1235.3128356474
 30
0.0
 11
238.5603506753
 21
1235.6243146198
 31
0.0
  0
SPLINE
  5
1F2
330
1F
100
AcDbEntity
  8
0
  6
Continuous
 62
     7
370
    25
100
AcDbSpline
210
0.0
220
0.0
230
1.0
 70
     8
 71
     3
 72
     9
 73
     5
 74
     0
 42
0.000000001
 43
0.00000001
 40
0.0
 40
0.0
 40
0.0
 40
0.0
 40
0.1724644931845449
 40
1.0
 40
1.0
 40
1.0
 40
1.0
 10
238.5543306061963
 20
1236.24038822819
 30
0.0
 10
238.5554256611215
 20
1236.264311560189
 30
0.0
 10
238.5617751125649
 20
1236.403026095322
 30
0.0
 10
238.5901858983658
 20
1236.530016236343
 30
0.0
 10
238.6136968323926
 20
1236.635105087054
 30
0.0
  0
SPLINE
  5
1F3
330
1F
100
AcDbEntity
  8
0
  6
Continuous
 62
     7
370
    25
100
AcDbSpline
210
0.0
220
0.0
230
1.0
 70
     8
 71
     3
 72
    17
 73
    13
 74
     0
 42
0.000000001
 43
0.00000001
 40
0.0
 40
0.0
 40
0.0
 40
0.0
 40
0.0624664746937276
 40
0.1246211493211292
 40
0.1867465136884136
 40
0.2491254558100051
 40
0.373302585922471
 40
0.4972321039997026
 40
0.6090497508230985
 40
0.7209796317034928
 40
0.8608008024260699
 40
1.0
 40
1.0
 40
1.0
 40
1.0
 10
239.1719526546999
 20
1234.49079944188
 30
0.0
 10
239.1591409998827
 20
1234.491462968047
 30
0.0
 10
239.133581639348
 20
1234.492786708403
 30
0.0
 10
239.0945475659814
 20
1234.503588560978
 30
0.0
 10
239.055239357018
 20
1234.520867242897
 30
0.0
 10
239.0026778389443
 20
1234.553185803527
 30
0.0
 10
238.9371346538528
 20
1234.610113034558
 30
0.0
 10
238.8632621987265
 20
1234.701368853163
 30
0.0
 10
238.7953602365375
 20
1234.810742416763
 30
0.0
 10
238.7297204181906
 20
1234.94530084618
 30
0.0
 10
238.6659080604815
 20
1235.110116360333
 30
0.0
 10
238.6311037251131
 20
1235.245362225989
 30
0.0
 10
238.6137403491526
 20
1235.312834418394
 30
0.0
  0
LINE
  5
1F4
330
1F
100
AcDbEntity
  8
0
  6
Continuous
 62
     7
370
    25
100
AcDbLine
 10
239.1719539354
 20
1237.4572766559
 30
0.0
 11
239.2537613103
 21
1237.4134970443
 31
0.0
  0
LINE
  5
1F5
330
1F
100
AcDbEntity
  8
0
  6
Continuous
 62
     7
370
    25
100
AcDbLine
 10
239.2557059118
 20
1234.5153851049
 30
0.0
 11
239.1719539354
 21
1234.4907981889
 31
0.0
  0
SPLINE
  5
1F6
330
1F
100
AcDbEntity
  8
0
  6
Continuous
 62
     7
370
    25
100
AcDbSpline
210
0.0
220
0.0
230
1.0
 70
     8
 71
     3
 72
    17
 73
    13
 74
     0
 42
0.000000001
 43
0.00000001
 40
0.0
 40
0.0
 40
0.0
 40
0.0
 40
0.0653949874178785
 40
0.1305832770750812
 40
0.1959237166267214
 40
0.2617726657922256
 40
0.3698313636971186
 40
0.4779410160770233
 40
0.6050897580152317
 40
0.7325030002256325
 40
0.8661935041009992
 40
1.0
 40
1.0
 40
1.0
 40
1.0
 10
238.6137127246674
 20
1231.635092884208
 30
0.0
 10
238.6215247460803
 20
1231.667166313474
 30
0.0
 10
238.6371240969932
 20
1231.731211795642
 30
0.0
 10
238.6642793230004
 20
1231.822137488678
 30
0.0
 10
238.6939868257795
 20
1231.908817706753
 30
0.0
 10
238.7332022529739
 20
1232.008063431844
 30
0.0
 10
238.7834542977205
 20
1232.114835907711
 30
0.0
 10
238.8495801274728
 20
1232.226827653866
 30
0.0
 10
238.9234739580157
 20
1232.323545467653
 30
0.0
 10
239.0051655353407
 20
1232.398759265892
 30
0.0
 10
239.0890567835182
 20
1232.448110898285
 30
0.0
 10
239.1443127212832
 20
1232.454221875473
 30
0.0
 10
239.1719526702029
 20
1232.457278688988
 30
0.0
  0
LINE
  5
1F7
330
1F
100
AcDbEntity
  8
0
  6
Continuous
 62
     7
370
    25
100
AcDbLine
 10
238.6137415359
 20
1230.3128404157
 30
0.0
 11
238.5603506753
 21
1230.6243193882
 31
0.0
  0
SPLINE
  5
1F8
330
1F
100
AcDbEntity
  8
0
  6
Continuous
 62
     7
370
    25
100
AcDbSpline
210
0.0
220
0.0
230
1.0
 70
     8
 71
     3
 72
     9
 73
     5
 74
     0
 42
0.000000001
 43
0.00000001
 40
0.0
 40
0.0
 40
0.0
 40
0.0
 40
0.1724351316826736
 40
1.0
 40
1.0
 40
1.0
 40
1.0
 10
238.5543306061963
 20
1231.240392996562
 30
0.0
 10
238.5554257666516
 20
1231.264311311819
 30
0.0
 10
238.5617769112502
 20
1231.403020373155
 30
0.0
 10
238.5901862564081
 20
1231.530006060576
 30
0.0
 10
238.6136968323926
 20
1231.635094954264
 30
0.0
  0
SPLINE
  5
1F9
330
1F
100
AcDbEntity
  8
0
  6
Continuous
 62
     7
370
    25
100
AcDbSpline
210
0.0
220
0.0
230
1.0
 70
     8
 71
     3
 72
    17
 73
    13
 74
     0
 42
0.000000001
 43
0.00000001
 40
0.0
 40
0.0
 40
0.0
 40
0.0
 40
0.0625098325483291
 40
0.1246793709545313
 40
0.1867906100355735
 40
0.2491263358214576
 40
0.3732933680446598
 40
0.4972402034190746
 40
0.6100174494952398
 40
0.7228735501744488
 40
0.8617818165508385
 40
0.9999999999999999
 40
0.9999999999999999
 40
0.9999999999999999
 40
0.9999999999999999
 10
239.1719526889609
 20
1229.490799349101
 30
0.0
 10
239.1591318354594
 20
1229.491461472691
 30
0.0
 10
239.1335599232578
 20
1229.492782115369
 30
0.0
 10
239.0945145303307
 20
1229.503566215649
 30
0.0
 10
239.0552123235332
 20
1229.520818571523
 30
0.0
 10
239.0026610444449
 20
1229.553102828327
 30
0.0
 10
238.9371223644922
 20
1229.610022305881
 30
0.0
 10
238.8630582772055
 20
1229.701566433254
 30
0.0
 10
238.7948052521254
 20
1229.811659268484
 30
0.0
 10
238.7290678922675
 20
1229.946848992569
 30
0.0
 10
238.6655289142064
 20
1230.111485125906
 30
0.0
 10
238.6309745457244
 20
1230.245829686818
 30
0.0
 10
238.6137403840454
 20
1230.312834699069
 30
0.0
  0
SPLINE
  5
1FA
330
1F
100
AcDbEntity
  8
0
  6
Continuous
 62
     7
370
    25
100
AcDbSpline
210
0.0
220
0.0
230
1.0
 70
     8
 71
     3
 72
    17
 73
    13
 74
     0
 42
0.000000001
 43
0.00000001
 40
0.0
 40
0.0
 40
0.0
 40
0.0
 40
0.0658853982059426
 40
0.1315397128214883
 40
0.1973292041362327
 40
0.2636178912784686
 40
0.3707579613626049
 40
0.4779441474127204
 40
0.6050898044806109
 40
0.7325044982017314
 40
0.8661906605080759
 40
1.0
 40
1.0
 40
1.0
 40
1.0
 10
238.613706910347
 20
1226.635099152947
 30
0.0
 10
238.6215805179222
 20
1226.667409909218
 30
0.0
 10
238.6373001175224
 20
1226.731918096413
 30
0.0
 10
238.6646807180736
 20
1226.823450384349
 30
0.0
 10
238.6946383620158
 20
1226.910644295244
 30
0.0
 10
238.7339208085624
 20
1227.009715098649
 30
0.0
 10
238.7839822034423
 20
1227.115766000906
 30
0.0
 10
238.8497674293787
 20
1227.227072536972
 30
0.0
 10
238.9234741346019
 20
1227.323541872289
 30
0.0
 10
239.0051644314247
 20
1227.398756778917
 30
0.0
 10
239.0890560411974
 20
1227.448110896651
 30
0.0
 10
239.1443120012296
 20
1227.454221739997
 30
0.0
 10
239.1719527034664
 20
1227.45727856864
 30
0.0
  0
LINE
  5
1FB
330
1F
100
AcDbEntity
  8
0
  6
Continuous
 62
     7
370
    25
100
AcDbLine
 10
238.6137415359
 20
1225.3128302829
 30
0.0
 11
238.5603506753
 21
1225.6243092554
 31
0.0
  0
SPLINE
  5
1FC
330
1F
100
AcDbEntity
  8
0
  6
Continuous
 62
     7
370
    25
100
AcDbSpline
210
0.0
220
0.0
230
1.0
 70
     8
 71
     3
 72
     9
 73
     5
 74
     0
 42
0.000000001
 43
0.00000001
 40
0.0
 40
0.0
 40
0.0
 40
0.0
 40
0.1724351316826736
 40
1.0
 40
1.0
 40
1.0
 40
1.0
 10
238.5543306061963
 20
1226.240397764933
 30
0.0
 10
238.5554257666516
 20
1226.26431608019
 30
0.0
 10
238.5617769112502
 20
1226.403025141527
 30
0.0
 10
238.5901862564081
 20
1226.530010828947
 30
0.0
 10
238.6136968323926
 20
1226.635099722636
 30
0.0
  0
SPLINE
  5
1FD
330
1F
100
AcDbEntity
  8
0
  6
Continuous
 62
     7
370
    25
100
AcDbSpline
210
0.0
220
0.0
230
1.0
 70
     8
 71
     3
 72
    17
 73
    13
 74
     0
 42
0.000000001
 43
0.00000001
 40
0.0
 40
0.0
 40
0.0
 40
0.0
 40
0.0624664753874218
 40
0.1246211502298294
 40
0.1867465144961147
 40
0.2491254563679063
 40
0.3733025861635537
 40
0.4972321037226375
 40
0.6090497528559331
 40
0.720979634741134
 40
0.8608008037241759
 40
1.0
 40
1.0
 40
1.0
 40
1.0
 10
239.1719527230909
 20
1224.490799487744
 30
0.0
 10
239.1591410649963
 20
1224.491463014585
 30
0.0
 10
239.1335816980208
 20
1224.492786756282
 30
0.0
 10
239.0945476147682
 20
1224.50358861576
 30
0.0
 10
239.0552393960816
 20
1224.520867308189
 30
0.0
 10
239.0026778653219
 20
1224.553185888016
 30
0.0
 10
238.9371346651053
 20
1224.610113151998
 30
0.0
 10
238.8632621947422
 20
1224.701369022876
 30
0.0
 10
238.7953602214114
 20
1224.810742647514
 30
0.0
 10
238.7297203973575
 20
1224.945301149324
 30
0.0
 10
238.6659080412328
 20
1225.110116747771
 30
0.0
 10
238.6311037170117
 20
1225.24536267532
 30
0.0
 10
238.6137403465853
 20
1225.312834898707
 30
0.0
  0
LINE
  5
1FE
330
1F
100
AcDbEntity
  8
0
  6
Continuous
 62
     7
370
    25
100
AcDbLine
 10
239.1719539354
 20
1227.4572712915
 30
0.0
 11
239.2537613103
 21
1227.4134916799
 31
0.0
  0
LINE
  5
1FF
330
1F
100
AcDbEntity
  8
0
  6
Continuous
 62
     7
370
    25
100
AcDbLine
 10
239.2557059118
 20
1224.5153797405
 30
0.0
 11
239.1719539354
 21
1224.4907928245
 31
0.0
  0
SPLINE
  5
200
330
1F
100
AcDbEntity
  8
0
  6
Continuous
 62
     7
370
    25
100
AcDbSpline
210
0.0
220
0.0
230
1.0
 70
     8
 71
     3
 72
    17
 73
    13
 74
     0
 42
0.000000001
 43
0.00000001
 40
0.0
 40
0.0
 40
0.0
 40
0.0
 40
0.0653949785019271
 40
0.1305832595295121
 40
0.1959236909448183
 40
0.2617726326644245
 40
0.3698313354922229
 40
0.4779409984178486
 40
0.6050897395739127
 40
0.73250298119984
 40
0.8661934921479224
 40
1.0
 40
1.0
 40
1.0
 40
1.0
 10
238.6137127028767
 20
1221.63509241543
 30
0.0
 10
238.6215247202313
 20
1221.667165856535
 30
0.0
 10
238.6371240630713
 20
1221.73121136247
 30
0.0
 10
238.664279280282
 20
1221.82213709189
 30
0.0
 10
238.6939867767283
 20
1221.908817346745
 30
0.0
 10
238.7332022020752
 20
1222.008063123574
 30
0.0
 10
238.7834542528788
 20
1222.114835664297
 30
0.0
 10
238.8495800965759
 20
1222.226827482263
 30
0.0
 10
238.9234739451562
 20
1222.323545359803
 30
0.0
 10
239.0051655448617
 20
1222.398759208944
 30
0.0
 10
239.0890568204383
 20
1222.448110877714
 30
0.0
 10
239.1443127774242
 20
1222.454221862479
 30
0.0
 10
239.1719527364618
 20
1222.457278679839
 30
0.0
  0
LINE
  5
201
330
1F
100
AcDbEntity
  8
0
  6
Continuous
 62
     7
370
    25
100
AcDbLine
 10
238.6137415359
 20
1220.3128350513
 30
0.0
 11
238.5603506753
 21
1220.6243140237
 31
0.0
  0
SPLINE
  5
202
330
1F
100
AcDbEntity
  8
0
  6
Continuous
 62
     7
370
    25
100
AcDbSpline
210
0.0
220
0.0
230
1.0
 70
     8
 71
     3
 72
     9
 73
     5
 74
     0
 42
0.000000001
 43
0.00000001
 40
0.0
 40
0.0
 40
0.0
 40
0.0
 40
0.17246439636666
 40
1.0
 40
1.0
 40
1.0
 40
1.0
 10
238.5543306061963
 20
1221.240387632144
 30
0.0
 10
238.5554256614696
 20
1221.264310965391
 30
0.0
 10
238.5617751184953
 20
1221.403025585635
 30
0.0
 10
238.5901858995461
 20
1221.530015672674
 30
0.0
 10
238.6136968323926
 20
1221.635104491007
 30
0.0
  0
SPLINE
  5
203
330
1F
100
AcDbEntity
  8
0
  6
Continuous
 62
     7
370
    25
100
AcDbSpline
210
0.0
220
0.0
230
1.0
 70
     8
 71
     3
 72
    17
 73
    13
 74
     0
 42
0.000000001
 43
0.00000001
 40
0.0
 40
0.0
 40
0.0
 40
0.0
 40
0.0625098341475031
 40
0.124679373824374
 40
0.1867906140340603
 40
0.2491263409955408
 40
0.3732933748263486
 40
0.4972402120172393
 40
0.6100174610631168
 40
0.7228735628231445
 40
0.8617818230121592
 40
0.9999999999999999
 40
0.9999999999999999
 40
0.9999999999999999
 40
0.9999999999999999
 10
239.1719527552197
 20
1219.49079935825
 30
0.0
 10
239.1591318979539
 20
1219.491461482417
 30
0.0
 10
239.1335599783097
 20
1219.492782126242
 30
0.0
 10
239.0945145738822
 20
1219.503566233813
 30
0.0
 10
239.0552123556201
 20
1219.520818601081
 30
0.0
 10
239.0026610615862
 20
1219.55310287883
 30
0.0
 10
238.9371223637005
 20
1219.610022392481
 30
0.0
 10
238.8630582583672
 20
1219.701566576741
 30
0.0
 10
238.7948052198981
 20
1219.811659477765
 30
0.0
 10
238.7290678536109
 20
1219.946849277164
 30
0.0
 10
238.6655288775029
 20
1220.11148549516
 30
0.0
 10
238.6309745208003
 20
1220.245830116373
 30
0.0
 10
238.6137403650154
 20
1220.312835158625
 30
0.0
  0
SPLINE
  5
204
330
1F
100
AcDbEntity
  8
0
  6
Continuous
 62
     7
370
    25
100
AcDbSpline
210
0.0
220
0.0
230
1.0
 70
     8
 71
     3
 72
    17
 73
    13
 74
     0
 42
0.000000001
 43
0.00000001
 40
0.0
 40
0.0
 40
0.0
 40
0.0
 40
0.0653949838935938
 40
0.1305832697547192
 40
0.1959237055436442
 40
0.2617726512821453
 40
0.369831349106884
 40
0.4779410030147607
 40
0.6050897419202786
 40
0.7325029810560196
 40
0.8661934915833099
 40
1.0
 40
1.0
 40
1.0
 40
1.0
 10
238.6137126930355
 20
1216.635092184861
 30
0.0
 10
238.62152471009
 20
1216.667165635876
 30
0.0
 10
238.6371240522661
 20
1216.731211161336
 30
0.0
 10
238.6642792699884
 20
1216.822136919345
 30
0.0
 10
238.6939867679062
 20
1216.908817201566
 30
0.0
 10
238.7332021944242
 20
1217.008063005274
 30
0.0
 10
238.7834542456801
 20
1217.114835571391
 30
0.0
 10
238.849580091597
 20
1217.226827415868
 30
0.0
 10
238.9234739454868
 20
1217.323545317636
 30
0.0
 10
239.0051655543922
 20
1217.398759188543
 30
0.0
 10
239.0890568408892
 20
1217.448110872001
 30
0.0
 10
239.1443128053529
 20
1217.454221858505
 30
0.0
 10
239.1719527682327
 20
1217.457278676748
 30
0.0
  0
LINE
  5
205
330
1F
100
AcDbEntity
  8
0
  6
Continuous
 62
     7
370
    25
100
AcDbLine
 10
238.6137415359
 20
1215.3128398197
 30
0.0
 11
238.5603506753
 21
1215.6243187921
 31
0.0
  0
SPLINE
  5
206
330
1F
100
AcDbEntity
  8
0
  6
Continuous
 62
     7
370
    25
100
AcDbSpline
210
0.0
220
0.0
230
1.0
 70
     8
 71
     3
 72
     9
 73
     5
 74
     0
 42
0.000000001
 43
0.00000001
 40
0.0
 40
0.0
 40
0.0
 40
0.0
 40
0.1724350348379954
 40
1.0
 40
1.0
 40
1.0
 40
1.0
 10
238.5543306061963
 20
1216.240392400515
 30
0.0
 10
238.5554257669996
 20
1216.264310717021
 30
0.0
 10
238.5617769171835
 20
1216.403019863501
 30
0.0
 10
238.5901862575894
 20
1216.530005496921
 30
0.0
 10
238.6136968323926
 20
1216.635094358218
 30
0.0
  0
SPLINE
  5
207
330
1F
100
AcDbEntity
  8
0
  6
Continuous
 62
     7
370
    25
100
AcDbSpline
210
0.0
220
0.0
230
1.0
 70
     8
 71
     3
 72
    17
 73
    13
 74
     0
 42
0.000000001
 43
0.00000001
 40
0.0
 40
0.0
 40
0.0
 40
0.0
 40
0.0625098335172982
 40
0.1246793721111008
 40
0.186790610833533
 40
0.2491263359579282
 40
0.3732933666314272
 40
0.4972402004465616
 40
0.6100174549868734
 40
0.7228735608709269
 40
0.8617818222971905
 40
1.0
 40
1.0
 40
1.0
 40
1.0
 10
239.1719527891227
 20
1214.490799362138
 30
0.0
 10
239.1591319303311
 20
1214.491461486763
 30
0.0
 10
239.1335600077372
 20
1214.492782131498
 30
0.0
 10
239.0945145988616
 20
1214.503566242288
 30
0.0
 10
239.0552123763793
 20
1214.520818614145
 30
0.0
 10
239.0026610769107
 20
1214.553102900098
 30
0.0
 10
238.9371223725476
 20
1214.610022427669
 30
0.0
 10
238.8630582590714
 20
1214.701566635917
 30
0.0
 10
238.7948052129622
 20
1214.811659567565
 30
0.0
 10
238.7290678408634
 20
1214.946849406151
 30
0.0
 10
238.6655288632708
 20
1215.111485669117
 30
0.0
 10
238.6309745112305
 20
1215.245830323481
 30
0.0
 10
238.6137403578032
 20
1215.312835382142
 30
0.0
  0
SPLINE
  5
208
330
1F
100
AcDbEntity
  8
0
  6
Continuous
 62
     7
370
    25
100
AcDbSpline
210
0.0
220
0.0
230
1.0
 70
     8
 71
     3
 72
    17
 73
    13
 74
     0
 42
0.000000001
 43
0.00000001
 40
0.0
 40
0.0
 40
0.0
 40
0.0
 40
0.0653949896027605
 40
0.1305832806861555
 40
0.1959237213442162
 40
0.2617726717375088
 40
0.3698313697272843
 40
0.4779410210053506
 40
0.6050897590639405
 40
0.732502997076333
 40
0.8661934977241567
 40
1.0
 40
1.0
 40
1.0
 40
1.0
 10
238.6137126823104
 20
1211.635091955281
 30
0.0
 10
238.6215246990782
 20
1211.667165416429
 30
0.0
 10
238.6371240406257
 20
1211.73121096189
 30
0.0
 10
238.6642792591507
 20
1211.82213674899
 30
0.0
 10
238.6939867590054
 20
1211.908817058967
 30
0.0
 10
238.7332021881357
 20
1212.008062891487
 30
0.0
 10
238.7834542426595
 20
1212.114835486156
 30
0.0
 10
238.849580093982
 20
1212.226827358964
 30
0.0
 10
238.9234739555225
 20
1212.323545284456
 30
0.0
 10
239.0051655725034
 20
1212.398759172352
 30
0.0
 10
239.0890568667851
 20
1212.448110864952
 30
0.0
 10
239.1443128353624
 20
1212.454221852777
 30
0.0
 10
239.1719528006868
 20
1212.457278671722
 30
0.0
  0
LINE
  5
209
330
1F
100
AcDbEntity
  8
0
  6
Continuous
 62
     7
370
    25
100
AcDbLine
 10
238.6137415359
 20
1210.3128296869
 30
0.0
 11
238.5603506753
 21
1210.6243235605
 31
0.0
  0
SPLINE
  5
20A
330
1F
100
AcDbEntity
  8
0
  6
Continuous
 62
     7
370
    25
100
AcDbSpline
210
0.0
220
0.0
230
1.0
 70
     8
 71
     3
 72
     9
 73
     5
 74
     0
 42
0.000000001
 43
0.00000001
 40
0.0
 40
0.0
 40
0.0
 40
0.0
 40
0.1724350348379954
 40
1.0
 40
1.0
 40
1.0
 40
1.0
 10
238.5543306061963
 20
1211.240397168887
 30
0.0
 10
238.5554257669996
 20
1211.264315485392
 30
0.0
 10
238.5617769171835
 20
1211.403024631873
 30
0.0
 10
238.5901862575894
 20
1211.530010265292
 30
0.0
 10
238.6136968323926
 20
1211.635099126589
 30
0.0
  0
SPLINE
  5
20B
330
1F
100
AcDbEntity
  8
0
  6
Continuous
 62
     7
370
    25
100
AcDbSpline
210
0.0
220
0.0
230
1.0
 70
     8
 71
     3
 72
    17
 73
    13
 74
     0
 42
0.000000001
 43
0.00000001
 40
0.0
 40
0.0
 40
0.0
 40
0.0
 40
0.0625098342143832
 40
0.1246793736410423
 40
0.1867906134459812
 40
0.2491263400132802
 40
0.3732933739035845
 40
0.4972402108534387
 40
0.6100174573008053
 40
0.7228735576719154
 40
0.8617818200147114
 40
1.0
 40
1.0
 40
1.0
 40
1.0
 10
239.1719528205465
 20
1209.490799366778
 30
0.0
 10
239.1591319598899
 20
1209.491461491461
 30
0.0
 10
239.1335600335476
 20
1209.492782136312
 30
0.0
 10
239.0945146187734
 20
1209.503566250467
 30
0.0
 10
239.0552123902119
 20
1209.520818628036
 30
0.0
 10
239.0026610824488
 20
1209.55310292493
 30
0.0
 10
238.9371223679563
 20
1209.61002247188
 30
0.0
 10
238.8630582465221
 20
1209.701566708097
 30
0.0
 10
238.7948051967408
 20
1209.811659669696
 30
0.0
 10
238.7290678238374
 20
1209.946849542018
 30
0.0
 10
238.6655288463377
 20
1210.111485847587
 30
0.0
 10
238.6309744977641
 20
1210.245830535012
 30
0.0
 10
238.6137403459801
 20
1210.312835610494
 30
0.0
  0
LINE
  5
20C
330
1F
100
AcDbEntity
  8
0
  6
Continuous
 62
     7
370
    25
100
AcDbLine
 10
239.1719539354
 20
1212.4572855966
 30
0.0
 11
239.2537613103
 21
1212.4135357874
 31
0.0
  0
LINE
  5
20D
330
1F
100
AcDbEntity
  8
0
  6
Continuous
 62
     7
370
    25
100
AcDbLine
 10
239.2557059118
 20
1209.5153791444
 30
0.0
 11
239.1719539354
 21
1209.4907922285
 31
0.0
  0
SPLINE
  5
20E
330
1F
100
AcDbEntity
  8
0
  6
Continuous
 62
     7
370
    25
100
AcDbSpline
210
0.0
220
0.0
230
1.0
 70
     8
 71
     3
 72
    17
 73
    13
 74
     0
 42
0.000000001
 43
0.00000001
 40
0.0
 40
0.0
 40
0.0
 40
0.0
 40
0.0653949892469454
 40
0.1305832795426931
 40
0.1959237190352428
 40
0.2617726679448366
 40
0.3698313573492661
 40
0.4779409972524741
 40
0.6050897390522713
 40
0.7325029816002319
 40
0.8661934976637291
 40
1.0
 40
1.0
 40
1.0
 40
1.0
 10
238.6137126712939
 20
1206.635091726028
 30
0.0
 10
238.6215246869738
 20
1206.667165194564
 30
0.0
 10
238.6371240262972
 20
1206.731210754567
 30
0.0
 10
238.6642792426948
 20
1206.822136563448
 30
0.0
 10
238.6939867412134
 20
1206.908816894626
 30
0.0
 10
238.7332021687983
 20
1207.008062749617
 30
0.0
 10
238.7834542215216
 20
1207.114835367421
 30
0.0
 10
238.849580074943
 20
1207.2268272696
 30
0.0
 10
238.9234739440589
 20
1207.32354522554
 30
0.0
 10
239.0051655767012
 20
1207.398759142464
 30
0.0
 10
239.0890568867278
 20
1207.448110858141
 30
0.0
 10
239.1443128661629
 20
1207.454221847066
 30
0.0
 10
239.1719528353318
 20
1207.457278666385
 30
0.0
  0
LINE
  5
20F
330
1F
100
AcDbEntity
  8
0
  6
Continuous
 62
     7
370
    25
100
AcDbLine
 10
238.6137415359
 20
1205.3128344553
 30
0.0
 11
238.5603506753
 21
1205.6243134277
 31
0.0
  0
SPLINE
  5
210
330
1F
100
AcDbEntity
  8
0
  6
Continuous
 62
     7
370
    25
100
AcDbSpline
210
0.0
220
0.0
230
1.0
 70
     8
 71
     3
 72
     9
 73
     5
 74
     0
 42
0.000000001
 43
0.00000001
 40
0.0
 40
0.0
 40
0.0
 40
0.0
 40
0.1723992138692591
 40
1.0
 40
1.0
 40
1.0
 40
1.0
 10
238.5543306061963
 20
1206.240401937258
 30
0.0
 10
238.5554258957078
 20
1206.264315231069
 30
0.0
 10
238.5617791120994
 20
1206.40302406433
 30
0.0
 10
238.5901866947002
 20
1206.53001012846
 30
0.0
 10
238.6136968323926
 20
1206.635103894961
 30
0.0
  0
SPLINE
  5
211
330
1F
100
AcDbEntity
  8
0
  6
Continuous
 62
     7
370
    25
100
AcDbSpline
210
0.0
220
0.0
230
1.0
 70
     8
 71
     3
 72
    17
 73
    13
 74
     0
 42
0.000000001
 43
0.00000001
 40
0.0
 40
0.0
 40
0.0
 40
0.0
 40
0.0625098334426728
 40
0.1246793715564713
 40
0.1867906095307226
 40
0.2491263337799519
 40
0.3732933647001294
 40
0.4972401980570142
 40
0.610017450569591
 40
0.7228735554985053
 40
0.8617818191884367
 40
0.9999999999999999
 40
0.9999999999999999
 40
0.9999999999999999
 40
0.9999999999999999
 10
239.1719528553816
 20
1204.490799371287
 30
0.0
 10
239.1591319931537
 20
1204.491461496717
 30
0.0
 10
239.1335600637893
 20
1204.492782143052
 30
0.0
 10
239.0945146445003
 20
1204.503566260903
 30
0.0
 10
239.055212411714
 20
1204.520818643259
 30
0.0
 10
239.0026610983213
 20
1204.553102948356
 30
0.0
 10
238.9371223769888
 20
1204.610022509039
 30
0.0
 10
238.8630582466961
 20
1204.701566769378
 30
0.0
 10
238.7948051885335
 20
1204.811659762146
 30
0.0
 10
238.7290678090805
 20
1204.946849674753
 30
0.0
 10
238.6655288295475
 20
1205.111486026705
 30
0.0
 10
238.6309744855243
 20
1205.245830748472
 30
0.0
 10
238.613740336042
 20
1205.312835840958
 30
0.0
  0
SPLINE
  5
212
330
1F
100
AcDbEntity
  8
0
  6
Continuous
 62
     7
370
    25
100
AcDbSpline
210
0.0
220
0.0
230
1.0
 70
     8
 71
     3
 72
    30
 73
    26
 74
     0
 42
0.000000001
 43
0.00000001
 40
0.0
 40
0.0
 40
0.0
 40
0.0
 40
0.0312500000000015
 40
0.0312500000000015
 40
0.0625000000000031
 40
0.0625000000000031
 40
0.1250000000000032
 40
0.1250000000000032
 40
0.2500000000000028
 40
0.2500000000000028
 40
0.3750000000000023
 40
0.3750000000000023
 40
0.5000000000000019
 40
0.5000000000000019
 40
0.6250000000000014
 40
0.6250000000000014
 40
0.7500000000000009
 40
0.7500000000000009
 40
0.8125000000000007
 40
0.8125000000000007
 40
0.8750000000000004
 40
0.8750000000000004
 40
0.9375000000000002
 40
0.9375000000000002
 40
1.0
 40
1.0
 40
1.0
 40
1.0
 10
229.6453627247346
 20
1033.679754163829
 30
0.0
 10
229.654891151363
 20
1033.60777767042
 30
0.0
 10
229.6777357152763
 20
1033.538403160589
 30
0.0
 10
229.7388960715962
 20
1033.414693659378
 30
0.0
 10
229.7775967400031
 20
1033.358679936468
 30
0.0
 10
229.9036583826395
 20
1033.209879109751
 30
0.0
 10
230.0033170276392
 20
1033.131698221337
 30
0.0
 10
230.310761566054
 20
1032.937689669823
 30
0.0
 10
230.534549375655
 20
1032.856130300752
 30
0.0
 10
230.9793615274267
 20
1032.735996287637
 30
0.0
 10
231.203997263555
 20
1032.698058938012
 30
0.0
 10
231.6558889347576
 20
1032.6481900412
 30
0.0
 10
231.8831828278778
 20
1032.636635232369
 30
0.0
 10
232.3400474868734
 20
1032.636123861737
 30
0.0
 10
232.5705558379456
 20
1032.647287143234
 30
0.0
 10
233.0273484877505
 20
1032.696923905533
 30
0.0
 10
233.2560980309607
 20
1032.735343884426
 30
0.0
 10
233.5919889614386
 20
1032.825929379519
 30
0.0
 10
233.7027480107084
 20
1032.861674137641
 30
0.0
 10
233.9207319453735
 20
1032.949445627556
 30
0.0
 10
234.0288663370719
 20
1033.001744602186
 30
0.0
 10
234.2349839179998
 20
1033.13171173014
 30
0.0
 10
234.3323486336608
 20
1033.207701631034
 30
0.0
 10
234.5023268025503
 20
1033.407524276983
 30
0.0
 10
234.5734320887204
 20
1033.533169056559
 30
0.0
 10
234.5928373886068
 20
1033.679754163823
 30
0.0
  0
LINE
  5
213
330
1F
100
AcDbEntity
  8
0
  6
Continuous
 62
     7
370
    25
100
AcDbLine
 10
219.5776571223
 20
1032.2582585352
 30
0.0
 11
234.8037604878
 21
1032.2582585352
 31
0.0
  0
LINE
  5
214
330
1F
100
AcDbEntity
  8
0
  6
Continuous
 62
     7
370
    25
100
AcDbLine
 10
217.7951206157
 20
1032.2582585352
 30
0.0
 11
219.5776571223
 21
1032.2582585352
 31
0.0
  0
SPLINE
  5
215
330
1F
100
AcDbEntity
  8
0
  6
Continuous
 62
     7
370
    25
100
AcDbSpline
210
0.0
220
0.0
230
1.0
 70
     8
 71
     3
 72
     8
 73
     4
 74
     0
 42
0.000000001
 43
0.00000001
 40
0.0
 40
0.0
 40
0.0
 40
0.0
 40
1.0
 40
1.0
 40
1.0
 40
1.0
 10
234.5928373886068
 20
1033.679754163823
 30
0.0
 10
234.7042470704066
 20
1034.521328385941
 30
0.0
 10
234.8091157767443
 20
1035.363985046665
 30
0.0
 10
234.9094122596484
 20
1036.207398345476
 30
0.0
  0
LINE
  5
216
330
1F
100
AcDbEntity
  8
0
  6
Continuous
 62
     7
370
    25
100
AcDbLine
 10
236.4848945925
 20
1202.1740389602
 30
0.0
 11
236.388566036
 21
1202.1740389602
 31
0.0
  0
SPLINE
  5
217
330
1F
100
AcDbEntity
  8
0
  6
Continuous
 62
     7
370
    25
100
AcDbSpline
210
0.0
220
0.0
230
1.0
 70
     8
 71
     3
 72
    30
 73
    26
 74
     0
 42
0.000000001
 43
0.00000001
 40
0.0
 40
0.0
 40
0.0
 40
0.0
 40
0.0312499999999983
 40
0.0312499999999983
 40
0.0624999999999967
 40
0.0624999999999967
 40
0.1249999999999967
 40
0.1249999999999967
 40
0.2499999999999984
 40
0.2499999999999984
 40
0.3750000000000002
 40
0.3750000000000002
 40
0.5000000000000019
 40
0.5000000000000019
 40
0.6250000000000036
 40
0.6250000000000036
 40
0.7500000000000053
 40
0.7500000000000053
 40
0.812500000000004
 40
0.812500000000004
 40
0.8750000000000027
 40
0.8750000000000027
 40
0.9375000000000014
 40
0.9375000000000014
 40
1.0
 40
1.0
 40
1.0
 40
1.0
 10
382.8359695129822
 20
1101.153279973362
 30
0.0
 10
382.8450832415455
 20
1101.081303479953
 30
0.0
 10
382.8669335598371
 20
1101.011928970122
 30
0.0
 10
382.9254320830522
 20
1100.88821946891
 30
0.0
 10
382.9624484133267
 20
1100.832205746001
 30
0.0
 10
383.0830235762593
 20
1100.683404919284
 30
0.0
 10
383.1783448580323
 20
1100.60522403087
 30
0.0
 10
383.4724087345365
 20
1100.411215479356
 30
0.0
 10
383.6864568068978
 20
1100.329656110285
 30
0.0
 10
384.111909756365
 20
1100.20952209717
 30
0.0
 10
384.3267688516278
 20
1100.171584747545
 30
0.0
 10
384.7589932042833
 20
1100.121715850733
 30
0.0
 10
384.9763947677045
 20
1100.110161041902
 30
0.0
 10
385.4133756727963
 20
1100.109649671269
 30
0.0
 10
385.6338517938958
 20
1100.120812952767
 30
0.0
 10
386.0707638237951
 20
1100.170449715065
 30
0.0
 10
386.2895576842157
 20
1100.208869693958
 30
0.0
 10
386.6108299032904
 20
1100.299455189051
 30
0.0
 10
386.7167684753468
 20
1100.335199947173
 30
0.0
 10
386.9252652701632
 20
1100.422971437088
 30
0.0
 10
387.0286934155133
 20
1100.475270411718
 30
0.0
 10
387.225840306383
 20
1100.605237539673
 30
0.0
 10
387.3189674956628
 20
1100.681227440566
 30
0.0
 10
387.4815478411211
 20
1100.881050086515
 30
0.0
 10
387.5495584689857
 20
1101.006694866092
 30
0.0
 10
387.5681192075786
 20
1101.153279973355
 30
0.0
  0
LINE
  5
218
330
1F
100
AcDbEntity
  8
0
  6
Continuous
 62
     7
370
    25
100
AcDbLine
 10
370.4792578408
 20
1099.7317855792
 30
0.0
 11
387.4878977129
 21
1099.7317855792
 31
0.0
  0
LINE
  5
219
330
1F
100
AcDbEntity
  8
0
  6
Continuous
 62
     7
370
    25
100
AcDbLine
 10
388.4003926704
 20
1108.7317851918
 30
0.0
 11
382.0036966989
 21
1108.7317851918
 31
0.0
  0
LWPOLYLINE
  5
21A
330
1F
100
AcDbEntity
  8
0
  6
Continuous
 62
     7
370
    25
100
AcDbPolyline
 90
        9
 70
   128
 43
0.0
 10
510.942773957
 20
1140.5441103118
 10
511.1244340131
 20
1140.610226764
 10
511.6613973567
 20
1140.8056703942
 10
512.5300009439
 20
1141.1218208807
 10
513.6919934938
 20
1141.5447456377
 10
515.0961597154
 20
1142.0558182137
 10
516.6806448886
 20
1142.6325229542
 10
518.3756221721
 20
1143.2494459288
 10
520.1064069459
 20
1143.8794074195
  0
LINE
  5
21B
330
1F
100
AcDbEntity
  8
0
  6
Continuous
 62
     7
370
    25
100
AcDbLine
 10
233.1470046828
 20
953.2073972361
 30
0.0
 11
219.1469986627
 21
953.2073972361
 31
0.0
  0
LINE
  5
21C
330
1F
100
AcDbEntity
  8
0
  6
Continuous
 62
     7
370
    25
100
AcDbLine
 10
373.8550265023
 20
1020.6809242802
 30
0.0
 11
372.1470032522
 21
1020.6809242802
 31
0.0
  0
LINE
  5
21D
330
1F
100
AcDbEntity
  8
0
  6
Continuous
 62
     7
370
    25
100
AcDbLine
 10
386.1470018217
 20
1020.6809242802
 30
0.0
 11
373.8550265023
 21
1020.6809242802
 31
0.0
  0
LINE
  5
21E
330
1F
100
AcDbEntity
  8
0
  6
Continuous
 62
     7
370
    25
100
AcDbLine
 10
385.6470008085
 20
1174.3809295433
 30
0.0
 11
372.6470042655
 21
1174.3809295433
 31
0.0
  0
LINE
  5
21F
330
1F
100
AcDbEntity
  8
0
  6
Continuous
 62
     7
370
    25
100
AcDbLine
 10
372.6470042655
 20
1184.3809200065
 30
0.0
 11
385.6470008085
 21
1184.3809200065
 31
0.0
  0
LINE
  5
220
330
1F
100
AcDbEntity
  8
0
  6
Continuous
 62
     7
370
    25
100
AcDbLine
 10
335.1470027754
 20
1101.7007616894
 30
0.0
 11
335.1470027754
 21
1107.8882826107
 31
0.0
  0
LINE
  5
221
330
1F
100
AcDbEntity
  8
0
  6
Continuous
 62
     8
370
    18
100
AcDbLine
 10
381.7607705185
 20
346.7568767803
 30
0.0
 11
236.5332339594
 21
346.7568767803
 31
0.0
  0
LINE
  5
222
330
1F
100
AcDbEntity
  8
0
  6
Continuous
 62
     8
370
    18
100
AcDbLine
 10
237.8271762917
 20
347.5968254345
 30
0.0
 11
380.4668281862
 21
347.5968254345
 31
0.0
  0
SPLINE
  5
223
330
1F
100
AcDbEntity
  8
0
  6
Continuous
 62
     8
370
    18
100
AcDbSpline
210
0.0
220
0.0
230
1.0
 70
     8
 71
     3
 72
    12
 73
     8
 74
     0
 42
0.000000001
 43
0.00000001
 40
0.0
 40
0.0
 40
0.0
 40
0.0
 40
0.2500000000000001
 40
0.2500000000000001
 40
0.5000000000000001
 40
0.5000000000000001
 40
1.0
 40
1.0
 40
1.0
 40
1.0
 10
309.1470022389631
 20
1167.307424804337
 30
0.0
 10
309.5373183960933
 20
1167.307425042412
 30
0.0
 10
309.9302389554093
 20
1167.307465703861
 30
0.0
 10
310.7108647164997
 20
1167.307576772331
 30
0.0
 10
311.1003111080814
 20
1167.307652455188
 30
0.0
 10
312.2660613384732
 20
1167.307874500209
 30
0.0
 10
313.0397876193074
 20
1167.307907250159
 30
0.0
 10
313.8099998947642
 20
1167.308230994471
 30
0.0
  0
LINE
  5
224
330
1F
100
AcDbEntity
  8
0
  6
Continuous
 62
     8
370
    18
100
AcDbLine
 10
314.0307451302
 20
1152.7337221043
 30
0.0
 11
314.0307451302
 21
1153.1143424647
 31
0.0
  0
SPLINE
  5
225
330
1F
100
AcDbEntity
  8
0
  6
Continuous
 62
     8
370
    18
100
AcDbSpline
210
0.0
220
0.0
230
1.0
 70
     8
 71
     3
 72
    13
 73
     9
 74
     0
 42
0.000000001
 43
0.00000001
 40
0.0
 40
0.0
 40
0.0
 40
0.0
 40
0.1667381034090483
 40
0.3333976192108141
 40
0.5000160438640804
 40
0.6666309015959223
 40
0.8332797190622215
 40
1.0
 40
1.0
 40
1.0
 40
1.0
 10
314.2212136190697
 20
1148.424020734524
 30
0.0
 10
314.201081401083
 20
1148.662997723988
 30
0.0
 10
314.1608264538994
 20
1149.140839067414
 30
0.0
 10
314.1138099067417
 20
1149.858553544771
 30
0.0
 10
314.076557722618
 20
1150.576668826691
 30
0.0
 10
314.0502908884503
 20
1151.295272877828
 30
0.0
 10
314.0337976783036
 20
1152.014342034007
 30
0.0
 10
314.0317627590513
 20
1152.493896859958
 30
0.0
 10
314.0307450813149
 20
1152.733725673397
 30
0.0
  0
LINE
  5
226
330
1F
100
AcDbEntity
  8
0
  6
Continuous
 62
     8
370
    18
100
AcDbLine
 10
335.1470027754
 20
1034.2073984059
 30
0.0
 11
283.1470017025
 21
1034.2073984059
 31
0.0
  0
LINE
  5
227
330
1F
100
AcDbEntity
  8
0
  6
Continuous
 62
     8
370
    18
100
AcDbLine
 10
283.1470017025
 20
1066.9573986517
 30
0.0
 11
314.2212136352
 21
1066.9573986517
 31
0.0
  0
LINE
  5
228
330
1F
100
AcDbEntity
  8
0
  6
Continuous
 62
     8
370
    18
100
AcDbLine
 10
314.2212136352
 20
1066.9573986517
 30
0.0
 11
335.1470027754
 21
1066.9573986517
 31
0.0
  0
SPLINE
  5
229
330
1F
100
AcDbEntity
  8
0
  6
Continuous
 62
     8
370
    18
100
AcDbSpline
210
0.0
220
0.0
230
1.0
 70
     8
 71
     3
 72
    22
 73
    18
 74
     0
 42
0.000000001
 43
0.00000001
 40
0.0
 40
0.0
 40
0.0
 40
0.0
 40
0.0019299693291998
 40
0.0974354643596967
 40
0.1940136719857201
 40
0.2994303680074294
 40
0.3555519222669758
 40
0.4133164339835571
 40
0.4452237670320566
 40
0.5464029987088187
 40
0.6467825383365841
 40
0.7486726115190867
 40
0.8021797115383723
 40
0.8572637504520264
 40
0.9095924076492011
 40
0.9638653974250144
 40
1.0
 40
1.0
 40
1.0
 40
1.0
 10
283.1495162734727
 20
1063.201046882761
 30
0.0
 10
283.148689447851
 20
1063.203136179388
 30
0.0
 10
283.1069467438713
 20
1063.308615361881
 30
0.0
 10
283.3423623562628
 20
1062.724125696212
 30
0.0
 10
283.9796391645741
 20
1061.005662964698
 30
0.0
 10
284.6914230254581
 20
1058.66443538367
 30
0.0
 10
285.1974312023565
 20
1056.342125666056
 30
0.0
 10
285.4531844205745
 20
1054.662677035902
 30
0.0
 10
285.6688341341173
 20
1052.384975002087
 30
0.0
 10
285.6860317940374
 20
1049.475640450999
 30
0.0
 10
285.2071590000946
 20
1045.884027392422
 30
0.0
 10
284.5486389071922
 20
1043.267428005547
 30
0.0
 10
284.0028147416758
 20
1041.528734302963
 30
0.0
 10
283.621796576329
 20
1040.443780444395
 30
0.0
 10
283.3379010637157
 20
1039.69036346607
 30
0.0
 10
283.1464793632717
 20
1039.205579912005
 30
0.0
 10
283.1878745475177
 20
1039.310623749821
 30
0.0
 10
283.2044196018915
 20
1039.352608247292
 30
0.0
  0
SPLINE
  5
22A
330
1F
100
AcDbEntity
  8
0
  6
Continuous
 62
     8
370
    18
100
AcDbSpline
210
0.0
220
0.0
230
1.0
 70
     8
 71
     3
 72
    22
 73
    18
 74
     0
 42
0.000000001
 43
0.00000001
 40
0.0
 40
0.0
 40
0.0
 40
0.0
 40
0.0125172994616345
 40
0.0312611074685568
 40
0.0500862864686386
 40
0.0625220145287285
 40
0.0877708218676277
 40
0.1250429612461515
 40
0.183901998075358
 40
0.250037468977824
 40
0.3139408045292015
 40
0.5000194433251166
 40
0.5735001749587039
 40
0.6428293864347902
 40
0.7142681797642781
 40
0.7857063345516049
 40
0.9999999999999999
 40
0.9999999999999999
 40
0.9999999999999999
 40
0.9999999999999999
 10
314.0308803186849
 20
1153.114342505009
 30
0.0
 10
314.1536122823389
 20
1153.116277296696
 30
0.0
 10
314.4601270475542
 20
1153.12110930787
 30
0.0
 10
314.9501718708579
 20
1153.12086849241
 30
0.0
 10
315.4395921905191
 20
1153.120897023733
 30
0.0
 10
315.9930072622854
 20
1153.121345285949
 30
0.0
 10
316.727758437427
 20
1153.125727087698
 30
0.0
 10
317.9194633581102
 20
1153.135124680872
 30
0.0
 10
319.5160977069713
 20
1153.14639786128
 30
0.0
 10
321.379152547205
 20
1153.153794609068
 30
0.0
 10
324.5033739079901
 20
1153.175822286142
 30
0.0
 10
327.7131846005633
 20
1153.194937387853
 30
0.0
 10
330.9875212106988
 20
1153.218084993996
 30
0.0
 10
333.1236501433655
 20
1153.232011516184
 30
0.0
 10
335.2416042898653
 20
1153.250595648684
 30
0.0
 10
338.8088531285618
 20
1153.281057232745
 30
0.0
 10
341.6639922589631
 20
1153.305299641383
 30
0.0
 10
343.8052946491347
 20
1153.3234810067
 30
0.0
  0
LINE
  5
22B
330
1F
100
AcDbEntity
  8
0
  6
Continuous
 62
     8
370
    18
100
AcDbLine
 10
343.8052964101
 20
1153.3234802621
 30
0.0
 11
349.6403638909
 21
1153.3737791317
 31
0.0
  0
SPLINE
  5
22C
330
1F
100
AcDbEntity
  8
0
  6
Continuous
 62
     8
370
    18
100
AcDbSpline
210
0.0
220
0.0
230
1.0
 70
     8
 71
     3
 72
    40
 73
    36
 74
     0
 42
0.000000001
 43
0.00000001
 40
0.0
 40
0.0
 40
0.0
 40
0.0
 40
0.0087561712622178
 40
0.017536755765356
 40
0.0263441316881175
 40
0.0351806555780874
 40
0.0440486607459201
 40
0.0529504557470077
 40
0.0618883229541497
 40
0.0708645172240228
 40
0.0798812646595363
 40
0.0889407614694561
 40
0.0980451729260135
 40
0.1071966324205587
 40
0.1163972406167294
 40
0.1256490647000188
 40
0.1562025168235696
 40
0.1871973376364095
 40
0.2186997307165179
 40
0.2507727568475298
 40
0.3126119016699071
 40
0.3760898960857459
 40
0.4379616173229494
 40
0.5008096209973666
 40
0.5631682838834674
 40
0.625848279858356
 40
0.688023367672989
 40
0.7500348090698223
 40
0.8127974906090775
 40
0.8751932350785986
 40
0.9002550685028434
 40
0.9252491299645175
 40
0.9501929018309181
 40
0.9751039725400793
 40
1.0
 40
1.0
 40
1.0
 40
1.0
 10
334.1912163242364
 20
1108.901792842778
 30
0.0
 10
334.1517588411502
 20
1108.944167799767
 30
0.0
 10
334.0727338628492
 20
1109.029035860135
 30
0.0
 10
333.9460223780879
 20
1109.165608053305
 30
0.0
 10
333.8132461974222
 20
1109.309163634605
 30
0.0
 10
333.6739011423181
 20
1109.46036243581
 30
0.0
 10
333.5282294813586
 20
1109.619026718568
 30
0.0
 10
333.3762740339691
 20
1109.785204241601
 30
0.0
 10
333.2181327918801
 20
1109.958882028102
 30
0.0
 10
333.0538902775911
 20
1110.140063459741
 30
0.0
 10
332.8836359590722
 20
1110.328747523142
 30
0.0
 10
332.7074592950498
 20
1110.524934332351
 30
0.0
 10
332.5254507432261
 20
1110.728623912325
 30
0.0
 10
332.3377024294466
 20
1110.939815504888
 30
0.0
 10
332.1443041381925
 20
1111.158511603464
 30
0.0
 10
331.7930655764441
 20
1111.557851510071
 30
0.0
 10
331.261987120764
 20
1112.168678238171
 30
0.0
 10
330.5243334841591
 20
1113.035395768554
 30
0.0
 10
329.7414880312986
 20
1113.977567413189
 30
0.0
 10
328.6688168106254
 20
1115.302882159687
 30
0.0
 10
327.2750642925175
 20
1117.095918626717
 30
0.0
 10
325.5940037204529
 20
1119.405626452443
 30
0.0
 10
323.9206677227662
 20
1121.879686684008
 30
0.0
 10
322.3104371761641
 20
1124.472235283454
 30
0.0
 10
320.7752701104143
 20
1127.192462169173
 30
0.0
 10
319.3550339601559
 20
1130.007101970761
 30
0.0
 10
318.0672489829153
 20
1132.907364706343
 30
0.0
 10
316.9294618783755
 20
1135.88952060673
 30
0.0
 10
315.9574833615203
 20
1138.944773886642
 30
0.0
 10
315.3250920690263
 20
1141.444490049655
 30
0.0
 10
314.9337631030373
 20
1143.334741368627
 30
0.0
 10
314.7045685165957
 20
1144.602115109321
 30
0.0
 10
314.5089319090817
 20
1145.872753245827
 30
0.0
 10
314.3439877905484
 20
1147.146390451319
 30
0.0
 10
314.2621301017305
 20
1147.99822973386
 30
0.0
 10
314.2212136190697
 20
1148.424020734524
 30
0.0
  0
LINE
  5
22D
330
1F
100
AcDbEntity
  8
0
  6
Continuous
 62
     8
370
    18
100
AcDbLine
 10
334.1912162194
 20
1108.9017925398
 30
0.0
 11
334.1912162194
 21
1108.6855543392
 31
0.0
  0
SPLINE
  5
22E
330
1F
100
AcDbEntity
  8
0
  6
Continuous
 62
     8
370
    18
100
AcDbSpline
210
0.0
220
0.0
230
1.0
 70
     8
 71
     3
 72
    28
 73
    24
 74
     0
 42
0.000000001
 43
0.00000001
 40
0.0
 40
0.0
 40
0.0
 40
0.0
 40
0.1250000000000011
 40
0.1250000000000011
 40
0.1875000000000016
 40
0.1875000000000016
 40
0.2500000000000022
 40
0.2500000000000022
 40
0.3750000000000015
 40
0.3750000000000015
 40
0.4375000000000019
 40
0.4375000000000019
 40
0.5000000000000023
 40
0.5000000000000023
 40
0.6250000000000017
 40
0.6250000000000017
 40
0.750000000000001
 40
0.750000000000001
 40
0.8125000000000008
 40
0.8125000000000008
 40
0.8750000000000006
 40
0.8750000000000006
 40
1.0
 40
1.0
 40
1.0
 40
1.0
 10
334.1912163242361
 20
1108.685553696401
 30
0.0
 10
334.1912163242361
 20
1108.222054983828
 30
0.0
 10
334.2040807031051
 20
1107.766745060832
 30
0.0
 10
334.2406500253466
 20
1107.095452472269
 30
0.0
 10
334.2557190628256
 20
1106.873647487608
 30
0.0
 10
334.2912674266812
 20
1106.43401746555
 30
0.0
 10
334.3117949800245
 20
1106.216102573328
 30
0.0
 10
334.3791904116943
 20
1105.58283262841
 30
0.0
 10
334.4322288590056
 20
1105.182691285279
 30
0.0
 10
334.5192208506697
 20
1104.614703308635
 30
0.0
 10
334.549628262546
 20
1104.429851510906
 30
0.0
 10
334.6111923499659
 20
1104.076587412416
 30
0.0
 10
334.6422997478315
 20
1103.908290110666
 30
0.0
 10
334.7352753597871
 20
1103.427616081677
 30
0.0
 10
334.7968106987945
 20
1103.139209093886
 30
0.0
 10
334.9121060473873
 20
1102.628339924156
 30
0.0
 10
334.9643236952951
 20
1102.412590723649
 30
0.0
 10
335.0296741137307
 20
1102.150478843377
 30
0.0
 10
335.0493552267667
 20
1102.073184987468
 30
0.0
 10
335.0838776323022
 20
1101.939218779745
 30
0.0
 10
335.0987670875742
 20
1101.882366962026
 30
0.0
 10
335.1346213686723
 20
1101.746437800373
 30
0.0
 10
335.1470022389631
 20
1101.700760152494
 30
0.0
 10
335.1470022389631
 20
1101.700760152494
 30
0.0
  0
LINE
  5
22F
330
1F
100
AcDbEntity
  8
0
  6
Continuous
 62
     8
370
    18
100
AcDbLine
 10
326.1470031628
 20
1172.0073980825
 30
0.0
 11
326.1470031628
 21
1183.5078609722
 31
0.0
  0
SPLINE
  5
230
330
1F
100
AcDbEntity
  8
0
  6
Continuous
 62
     8
370
    18
100
AcDbSpline
210
0.0
220
0.0
230
1.0
 70
     8
 71
     3
 72
    16
 73
    12
 74
     0
 42
0.000000001
 43
0.00000001
 40
0.0
 40
0.0
 40
0.0
 40
0.0
 40
0.1159310754340026
 40
0.2340737896772365
 40
0.3310497138084129
 40
0.4348069091228265
 40
0.5457805079723127
 40
0.6658001503106366
 40
0.7921012679623739
 40
0.9194981938476069
 40
1.0
 40
1.0
 40
1.0
 40
1.0
 10
531.6876192280988
 20
1167.290599419367
 30
0.0
 10
531.3486662348033
 20
1167.296024625481
 30
0.0
 10
530.6642939785634
 20
1167.30697853538
 30
0.0
 10
529.9424694188648
 20
1167.322063525546
 30
0.0
 10
529.3638671679864
 20
1167.335294079235
 30
0.0
 10
528.9048121749471
 20
1167.346935766706
 30
0.0
 10
528.5117931586088
 20
1167.357788366434
 30
0.0
 10
528.1885084764901
 20
1167.367345339315
 30
0.0
 10
527.9485361390437
 20
1167.374907984346
 30
0.0
 10
527.7997863758591
 20
1167.379820500646
 30
0.0
 10
527.7603001214896
 20
1167.381238141466
 30
0.0
 10
527.7450103947858
 20
1167.381787075293
 30
0.0
  0
SPLINE
  5
231
330
1F
100
AcDbEntity
  8
0
  6
Continuous
 62
     8
370
    18
100
AcDbSpline
210
0.0
220
0.0
230
1.0
 70
    24
 71
     3
 72
     8
 73
     4
 74
     0
 42
0.000000001
 43
0.00000001
 40
0.9333627637222991
 40
0.9333627637222991
 40
0.9333627637222991
 40
0.9333627637222991
 40
0.9553475104157602
 40
0.9553475104157602
 40
0.9553475104157602
 40
0.9553475104157602
 10
309.1470022389631
 20
1167.320012928604
 30
0.0
 10
309.1470022389631
 20
1167.315867634376
 30
0.0
 10
309.1470022389631
 20
1167.311671816178
 30
0.0
 10
309.1470022389631
 20
1167.307425393732
 30
0.0
  0
LINE
  5
232
330
1F
100
AcDbEntity
  8
0
  6
Continuous
 62
     8
370
    18
100
AcDbLine
 10
309.147002239
 20
1167.3199547069
 30
0.0
 11
309.147002239
 21
1167.3254979389
 31
0.0
  0
LINE
  5
233
330
1F
100
AcDbEntity
  8
0
  6
Continuous
 62
     8
370
    18
100
AcDbLine
 10
527.6964475105
 20
1167.3836124675
 30
0.0
 11
521.5843935201
 21
1167.3891258972
 31
0.0
  0
ARC
  5
234
330
1F
100
AcDbEntity
  8
0
  6
Continuous
 62
     8
370
    18
100
AcDbCircle
 10
325.9714635586
 20
1171.9805222875
 30
0.0
 40
0.1775850810189221
100
AcDbArc
 50
282.8644799879
 51
8.7046119846
  0
SPLINE
  5
235
330
1F
100
AcDbEntity
  8
0
  6
Continuous
 62
     8
370
    18
100
AcDbSpline
210
0.0
220
0.0
230
1.0
 70
     8
 71
     3
 72
    28
 73
    24
 74
     0
 42
0.000000001
 43
0.00000001
 40
0.0
 40
0.0
 40
0.0
 40
0.0
 40
0.2499999999999705
 40
0.2499999999999705
 40
0.3749999999999546
 40
0.3749999999999546
 40
0.4374999999999457
 40
0.4374999999999457
 40
0.4687499999999422
 40
0.4687499999999422
 40
0.4999999999999387
 40
0.4999999999999387
 40
0.5156249999999376
 40
0.5156249999999376
 40
0.5312499999999366
 40
0.5312499999999366
 40
0.5624999999999335
 40
0.5624999999999335
 40
0.6249999999999427
 40
0.6249999999999427
 40
0.7499999999999618
 40
0.7499999999999618
 40
1.0
 40
1.0
 40
1.0
 40
1.0
 10
397.6969949780719
 20
1203.642556825208
 30
0.0
 10
397.6969947892713
 20
1203.642556831504
 30
0.0
 10
397.6978210507791
 20
1203.6425568378
 30
0.0
 10
397.6714620583007
 20
1203.642556847244
 30
0.0
 10
397.6582091769064
 20
1203.642556850391
 30
0.0
 10
397.6240794555333
 20
1203.642556855114
 30
0.0
 10
397.6103976716497
 20
1203.642556856687
 30
0.0
 10
397.5839286001089
 20
1203.642556859048
 30
0.0
 10
397.574127722335
 20
1203.642556859835
 30
0.0
 10
397.550814592652
 20
1203.642556861409
 30
0.0
 10
397.5385716012806
 20
1203.642556862196
 30
0.0
 10
397.5080362288529
 20
1203.642556863377
 30
0.0
 10
397.4946688652557
 20
1203.64255686377
 30
0.0
 10
397.470634360677
 20
1203.642556864557
 30
0.0
 10
397.4589208223183
 20
1203.642556864951
 30
0.0
 10
397.4235752906887
 20
1203.642556866131
 30
0.0
 10
397.3998056020948
 20
1203.642556866918
 30
0.0
 10
397.3282073846066
 20
1203.642556869279
 30
0.0
 10
397.2797945337731
 20
1203.642556870853
 30
0.0
 10
397.1340704491884
 20
1203.642556875575
 30
0.0
 10
397.0361726312191
 20
1203.642556878723
 30
0.0
 10
396.7420410924356
 20
1203.642556888166
 30
0.0
 10
396.5473921425223
 20
1203.642556894462
 30
0.0
 10
396.3540707402551
 20
1203.642556900758
 30
0.0
  0
SPLINE
  5
236
330
1F
100
AcDbEntity
  8
0
  6
Continuous
 62
     8
370
    18
100
AcDbSpline
210
0.0
220
0.0
230
1.0
 70
     8
 71
     3
 72
     8
 73
     4
 74
     0
 42
0.000000001
 43
0.00000001
 40
0.0000005409493061
 40
0.0000005409493061
 40
0.0000005409493061
 40
0.0000005409493061
 40
1.0
 40
1.0
 40
1.0
 40
1.0
 10
347.557055419495
 20
1198.683218523369
 30
0.0
 10
336.1237172403393
 20
1198.603393082525
 30
0.0
 10
326.1470022389631
 20
1194.479978223265
 30
0.0
 10
326.1470022389631
 20
1183.507863336731
 30
0.0
  0
SPLINE
  5
237
330
1F
100
AcDbEntity
  8
0
  6
Continuous
 62
     8
370
    18
100
AcDbSpline
210
0.0
220
0.0
230
1.0
 70
     8
 71
     3
 72
    10
 73
     6
 74
     0
 42
0.000000001
 43
0.00000001
 40
0.0
 40
0.0
 40
0.0
 40
0.0
 40
0.5
 40
0.5
 40
1.0
 40
1.0
 40
1.0
 40
1.0
 10
349.6403632360685
 20
1153.373775828834
 30
0.0
 10
373.1579729149729
 20
1153.577096243136
 30
0.0
 10
396.6755240934686
 20
1153.787229613798
 30
0.0
 10
443.7104497241187
 20
1154.226194075641
 30
0.0
 10
467.2278320866524
 20
1154.454604343126
 30
0.0
 10
490.7450569519821
 20
1154.69849699218
 30
0.0
  0
SPLINE
  5
238
330
1F
100
AcDbEntity
  8
0
  6
Continuous
 62
     8
370
    18
100
AcDbSpline
210
0.0
220
0.0
230
1.0
 70
     8
 71
     3
 72
    16
 73
    12
 74
     0
 42
0.000000001
 43
0.00000001
 40
0.0
 40
0.0
 40
0.0
 40
0.0
 40
0.5000000000000028
 40
0.5000000000000028
 40
0.7500000000000071
 40
0.7500000000000071
 40
0.8750000000000064
 40
0.8750000000000064
 40
0.9375000000000032
 40
0.9375000000000032
 40
1.0
 40
1.0
 40
1.0
 40
1.0
 10
517.5008074850606
 20
1154.909164922802
 30
0.0
 10
519.9930522777612
 20
1154.942348863097
 30
0.0
 10
522.4850933513917
 20
1154.988002482857
 30
0.0
 10
526.2229913514109
 20
1155.064800933195
 30
0.0
 10
527.4689299805293
 20
1155.091659199563
 30
0.0
 10
529.3378328406604
 20
1155.132180390642
 30
0.0
 10
529.9607995665739
 20
1155.145728575241
 30
0.0
 10
530.8952520187298
 20
1155.165942165002
 30
0.0
 10
531.2067365559067
 20
1155.172662255102
 30
0.0
 10
531.8297069252195
 20
1155.186042880329
 30
0.0
 10
532.1412089746354
 20
1155.191957585255
 30
0.0
 10
532.4525872897341
 20
1155.203562812369
 30
0.0
  0
SPLINE
  5
239
330
1F
100
AcDbEntity
  8
0
  6
Continuous
 62
     8
370
    18
100
AcDbSpline
210
0.0
220
0.0
230
1.0
 70
     8
 71
     3
 72
    12
 73
     8
 74
     0
 42
0.000000001
 43
0.00000001
 40
0.0
 40
0.0
 40
0.0
 40
0.0
 40
0.4999999999999984
 40
0.4999999999999984
 40
0.7499999999999992
 40
0.7499999999999992
 40
1.0
 40
1.0
 40
1.0
 40
1.0
 10
490.7458022987091
 20
1154.698336879116
 30
0.0
 10
495.2048824973488
 20
1154.741609700056
 30
0.0
 10
499.66414361925
 20
1154.761127591142
 30
0.0
 10
506.3530138753689
 20
1154.789718993431
 30
0.0
 10
508.5826449899087
 20
1154.801242877559
 30
0.0
 10
513.0417057252821
 20
1154.845794644662
 30
0.0
 10
515.2711018006826
 20
1154.879063769198
 30
0.0
 10
517.5005351247286
 20
1154.909283698972
 30
0.0
  0
SPLINE
  5
23A
330
1F
100
AcDbEntity
  8
0
  6
Continuous
 62
     8
370
    18
100
AcDbSpline
210
0.0
220
0.0
230
1.0
 70
     8
 71
     3
 72
    22
 73
    18
 74
     0
 42
0.000000001
 43
0.00000001
 40
0.0
 40
0.0
 40
0.0
 40
0.0
 40
0.125
 40
0.125
 40
0.25
 40
0.25
 40
0.375
 40
0.375
 40
0.5
 40
0.5
 40
0.625
 40
0.625
 40
0.75
 40
0.75
 40
0.875
 40
0.875
 40
1.0
 40
1.0
 40
1.0
 40
1.0
 10
532.4525872897341
 20
1155.203562812369
 30
0.0
 10
532.6733535799953
 20
1155.211790897872
 30
0.0
 10
532.8956468171206
 20
1155.221570687634
 30
0.0
 10
533.3362471822473
 20
1155.239850274416
 30
0.0
 10
533.5554284475816
 20
1155.248683199276
 30
0.0
 10
533.9901122240412
 20
1155.264023502566
 30
0.0
 10
534.2023327706717
 20
1155.27025598137
 30
0.0
 10
534.6033395115405
 20
1155.277549954727
 30
0.0
 10
534.7870310804469
 20
1155.27856368387
 30
0.0
 10
535.1033298358724
 20
1155.276704190899
 30
0.0
 10
535.2290002220659
 20
1155.273713831519
 30
0.0
 10
535.4252735259699
 20
1155.261365160531
 30
0.0
 10
535.4934204567
 20
1155.252327442672
 30
0.0
 10
535.5901500045875
 20
1155.230135695447
 30
0.0
 10
535.6176633856046
 20
1155.217029365646
 30
0.0
 10
535.6462505609586
 20
1155.188947391273
 30
0.0
 10
535.6470023279879
 20
1155.173418079282
 30
0.0
 10
535.6470022389631
 20
1155.16060582361
 30
0.0
  0
SPLINE
  5
23B
330
1F
100
AcDbEntity
  8
0
  6
Continuous
 62
     8
370
    18
100
AcDbSpline
210
0.0
220
0.0
230
1.0
 70
     8
 71
     3
 72
    22
 73
    18
 74
     0
 42
0.000000001
 43
0.00000001
 40
0.0
 40
0.0
 40
0.0
 40
0.0
 40
0.2499999999999974
 40
0.2499999999999974
 40
0.3749999999999959
 40
0.3749999999999959
 40
0.4374999999999957
 40
0.4374999999999957
 40
0.4999999999999954
 40
0.4999999999999954
 40
0.5624999999999951
 40
0.5624999999999951
 40
0.6249999999999949
 40
0.6249999999999949
 40
0.7499999999999944
 40
0.7499999999999944
 40
1.0
 40
1.0
 40
1.0
 40
1.0
 10
532.452581834235
 20
1167.289635923764
 30
0.0
 10
532.7400630353046
 20
1167.289142009434
 30
0.0
 10
533.0282246385125
 20
1167.288543221677
 30
0.0
 10
533.4524117911253
 20
1167.287761084998
 30
0.0
 10
533.5936061462505
 20
1167.287512033742
 30
0.0
 10
533.7984111158551
 20
1167.287196996291
 30
0.0
 10
533.8646444951013
 20
1167.287103058875
 30
0.0
 10
533.990677379324
 20
1167.286959723293
 30
0.0
 10
534.0510619227356
 20
1167.286911629471
 30
0.0
 10
534.1521909767354
 20
1167.286914041539
 30
0.0
 10
534.1943097221723
 20
1167.286963827356
 30
0.0
 10
534.2643456640747
 20
1167.287116129751
 30
0.0
 10
534.292301726329
 20
1167.287215793889
 30
0.0
 10
534.3633825671764
 20
1167.287553475818
 30
0.0
 10
534.3937560802522
 20
1167.287833169105
 30
0.0
 10
534.4546703669162
 20
1167.288749956753
 30
0.0
 10
534.4548922382785
 20
1167.289491406583
 30
0.0
 10
534.4554466809795
 20
1167.290196599104
 30
0.0
  0
ARC
  5
23C
330
1F
100
AcDbEntity
  8
0
  6
Continuous
 62
     8
370
    18
100
AcDbCircle
 10
534.4470086764
 20
1166.0902286881
 30
0.0
 40
1.199998092537387
100
AcDbArc
 50
0.000011494
 51
89.5969374705
  0
SPLINE
  5
23D
330
1F
100
AcDbEntity
  8
0
  6
Continuous
 62
     8
370
    18
100
AcDbSpline
210
0.0
220
0.0
230
1.0
 70
     8
 71
     3
 72
     8
 73
     4
 74
     0
 42
0.000000001
 43
0.00000001
 40
0.0
 40
0.0
 40
0.0
 40
0.0
 40
0.0007650450329841
 40
0.0007650450329841
 40
0.0007650450329841
 40
0.0007650450329841
 10
531.6875417105831
 20
1167.290666633877
 30
0.0
 10
531.9425552649146
 20
1167.290418385306
 30
0.0
 10
532.1975686765236
 20
1167.290074055553
 30
0.0
 10
532.452581834235
 20
1167.289635923764
 30
0.0
  0
SPLINE
  5
23E
330
1F
100
AcDbEntity
  8
0
  6
Continuous
 62
     8
370
    18
100
AcDbSpline
210
0.0
220
0.0
230
1.0
 70
     8
 71
     3
 72
    14
 73
    10
 74
     0
 42
0.000000001
 43
0.00000001
 40
0.0
 40
0.0
 40
0.0
 40
0.0
 40
0.0081937565894238
 40
0.0081937565894238
 40
0.0081937565894238
 40
0.0163856104998833
 40
0.0163856104998833
 40
0.0163856104998833
 40
0.0191632688602017
 40
0.0191632688602017
 40
0.0191632688602017
 40
0.0191632688602017
 10
534.4554466809795
 20
1167.290196599104
 30
0.0
 10
534.460725090848
 20
1167.296910178617
 30
0.0
 10
534.4644926245641
 20
1167.299429685218
 30
0.0
 10
534.4676962578995
 20
1167.30299855875
 30
0.0
 10
534.4708991474794
 20
1167.306566603731
 30
0.0
 10
534.4740536526864
 20
1167.310893580124
 30
0.0
 10
534.4782756953981
 20
1167.3155978231
 30
0.0
 10
534.4797072874318
 20
1167.31719291752
 30
0.0
 10
534.4812281147748
 20
1167.318803575359
 30
0.0
 10
534.4827199194496
 20
1167.320365535014
 30
0.0
  0
LINE
  5
23F
330
1F
100
AcDbEntity
  8
0
  6
Continuous
 62
     8
370
    18
100
AcDbLine
 10
333.9108080307
 20
1178.7287456529
 30
0.0
 11
333.9108080307
 21
1178.7605149286
 31
0.0
  0
SPLINE
  5
240
330
1F
100
AcDbEntity
  8
0
  6
Continuous
 62
     8
370
    18
100
AcDbSpline
210
0.0
220
0.0
230
1.0
 70
     8
 71
     3
 72
    14
 73
    10
 74
     0
 42
0.000000001
 43
0.00000001
 40
0.0
 40
0.0
 40
0.0
 40
0.0
 40
0.25
 40
0.25
 40
0.5
 40
0.5
 40
0.75
 40
0.75
 40
1.0
 40
1.0
 40
1.0
 40
1.0
 10
236.1470022390157
 20
1266.483310847676
 30
0.0
 10
236.1470039340599
 20
1266.554653831284
 30
0.0
 10
236.1514687898601
 20
1266.624972636047
 30
0.0
 10
236.1727832399015
 20
1266.75677629592
 30
0.0
 10
236.1898426067429
 20
1266.818457566553
 30
0.0
 10
236.2392577399275
 20
1266.918122084882
 30
0.0
 10
236.2721521798561
 20
1266.95502389078
 30
0.0
 10
236.3465176120003
 20
1266.991735308682
 30
0.0
 10
236.3877239937893
 20
1266.99092630161
 30
0.0
 10
236.428161938536
 20
1266.976564825497
 30
0.0
  0
SPLINE
  5
241
330
1F
100
AcDbEntity
  8
0
  6
Continuous
 62
     8
370
    18
100
AcDbSpline
210
0.0
220
0.0
230
1.0
 70
     8
 71
     3
 72
    11
 73
     7
 74
     0
 42
0.000000001
 43
0.00000001
 40
0.0
 40
0.0
 40
0.0
 40
0.0
 40
0.2570911514656993
 40
0.5001217343754288
 40
0.7513767653095811
 40
1.0
 40
1.0
 40
1.0
 40
1.0
 10
236.428180772994
 20
1266.976551486743
 30
0.0
 10
237.4228373832026
 20
1266.991685156962
 30
0.0
 10
239.3577518529132
 20
1267.021124822056
 30
0.0
 10
241.4087605569196
 20
1267.052493445331
 30
0.0
 10
242.7591154144938
 20
1267.072916106751
 30
0.0
 10
242.9275673480261
 20
1267.075464503546
 30
0.0
 10
243.0113498756627
 20
1267.076731993449
 30
0.0
  0
SPLINE
  5
242
330
1F
100
AcDbEntity
  8
0
  6
Continuous
 62
     8
370
    18
100
AcDbSpline
210
0.0
220
0.0
230
1.0
 70
     8
 71
     3
 72
    12
 73
     8
 74
     0
 42
0.000000001
 43
0.00000001
 40
0.0
 40
0.0
 40
0.0
 40
0.0
 40
0.2500000000000376
 40
0.2500000000000376
 40
0.5000000000000752
 40
0.5000000000000752
 40
1.0
 40
1.0
 40
1.0
 40
1.0
 10
236.393205178536
 20
1201.560899255493
 30
0.0
 10
236.3602787647712
 20
1201.545015306883
 30
0.0
 10
236.3269714078775
 20
1201.537934982953
 30
0.0
 10
236.2645827541681
 20
1201.550744813172
 30
0.0
 10
236.2356373787632
 20
1201.5714293197
 30
0.0
 10
236.1665425165944
 20
1201.673028495788
 30
0.0
 10
236.1470022385359
 20
1201.791764787154
 30
0.0
 10
236.1470022385359
 20
1201.914955365493
 30
0.0
  0
SPLINE
  5
243
330
1F
100
AcDbEntity
  8
0
  6
Continuous
 62
     8
370
    18
100
AcDbSpline
210
0.0
220
0.0
230
1.0
 70
    24
 71
     3
 72
    12
 73
     8
 74
     0
 42
0.000000001
 43
0.00000001
 40
0.0
 40
0.0
 40
0.0
 40
0.0
 40
0.4999999999999999
 40
0.4999999999999999
 40
0.7499999999999998
 40
0.7499999999999998
 40
1.0
 40
1.0
 40
1.0
 40
1.0
 10
240.6710256441615
 20
1201.560899405475
 30
0.0
 10
240.6706258374394
 20
1201.560899405478
 30
0.0
 10
240.2902024589468
 20
1201.560899405481
 30
0.0
 10
239.1925487132422
 20
1201.560899405486
 30
0.0
 10
238.7399850715851
 20
1201.560899405487
 30
0.0
 10
237.6776541472426
 20
1201.56089940549
 30
0.0
 10
237.0683776334862
 20
1201.560899405491
 30
0.0
 10
236.393205018536
 20
1201.560899405493
 30
0.0
  0
SPLINE
  5
244
330
1F
100
AcDbEntity
  8
0
  6
Continuous
 62
     8
370
    18
100
AcDbSpline
210
0.0
220
0.0
230
1.0
 70
     8
 71
     3
 72
    24
 73
    20
 74
     0
 42
0.000000001
 43
0.00000001
 40
0.0
 40
0.0
 40
0.0
 40
0.0
 40
0.0582231555948792
 40
0.1164398600430624
 40
0.1746665658131657
 40
0.2329197168997734
 40
0.2912157349185902
 40
0.3495710052960919
 40
0.4080018636113883
 40
0.4665245821465321
 40
0.5251553566994529
 40
0.5839102937112273
 40
0.6428053977563875
 40
0.7018565594416062
 40
0.7610795437543535
 40
0.82048997889914
 40
0.8801033456546694
 40
0.9399349672808317
 40
1.0
 40
1.0
 40
1.0
 40
1.0
 10
335.1470022389631
 20
1107.888277677254
 30
0.0
 10
335.146357648386
 20
1107.88895396757
 30
0.0
 10
335.1450685386526
 20
1107.89030647327
 30
0.0
 10
335.1346462084249
 20
1107.901229127253
 30
0.0
 10
335.1180219741993
 20
1107.918663202388
 30
0.0
 10
335.0945982157339
 20
1107.943246971003
 30
0.0
 10
335.064552318768
 20
1107.974809322089
 30
0.0
 10
335.0278560650546
 20
1108.013396113979
 30
0.0
 10
334.9845385204321
 20
1108.058995012132
 30
0.0
 10
334.934615532354
 20
1108.111609269954
 30
0.0
 10
334.8781085596577
 20
1108.171238015795
 30
0.0
 10
334.8150398883536
 20
1108.237881229956
 30
0.0
 10
334.745432841637
 20
1108.311539588695
 30
0.0
 10
334.6693156847244
 20
1108.392210086062
 30
0.0
 10
334.5867056641569
 20
1108.479903776159
 30
0.0
 10
334.4976691270955
 20
1108.574578905826
 30
0.0
 10
334.4020959160851
 20
1108.676391774862
 30
0.0
 10
334.3005457005691
 20
1108.784755601243
 30
0.0
 10
334.2277108978575
 20
1108.862675364624
 30
0.0
 10
334.1912226002328
 20
1108.901711092205
 30
0.0
  0
SPLINE
  5
245
330
1F
100
AcDbEntity
  8
0
  6
Continuous
 62
     8
370
    18
100
AcDbSpline
210
0.0
220
0.0
230
1.0
 70
     8
 71
     3
 72
    10
 73
     6
 74
     0
 42
0.000000001
 43
0.00000001
 40
0.0
 40
0.0
 40
0.0
 40
0.0
 40
0.5
 40
0.5
 40
1.0
 40
1.0
 40
1.0
 40
1.0
 10
238.6137402285345
 20
1206.635091734321
 30
0.0
 10
238.6137402370703
 20
1206.416428732128
 30
0.0
 10
238.6137402410212
 20
1206.18568762788
 30
0.0
 10
238.6137402392357
 20
1205.762244723083
 30
0.0
 10
238.6137402340271
 20
1205.531492705777
 30
0.0
 10
238.6137402235023
 20
1205.31283584925
 30
0.0
  0
SPLINE
  5
246
330
1F
100
AcDbEntity
  8
0
  6
Continuous
 62
     8
370
    18
100
AcDbSpline
210
0.0
220
0.0
230
1.0
 70
     8
 71
     3
 72
    10
 73
     6
 74
     0
 42
0.000000001
 43
0.00000001
 40
0.0
 40
0.0
 40
0.0
 40
0.0
 40
0.5
 40
0.5
 40
1.0
 40
1.0
 40
1.0
 40
1.0
 10
238.613740760607
 20
1261.635094270155
 30
0.0
 10
238.6137407900024
 20
1261.42820599248
 30
0.0
 10
238.6137408050047
 20
1261.201141735297
 30
0.0
 10
238.6137408035771
 20
1260.746771101971
 30
0.0
 10
238.6137407871479
 20
1260.519711915626
 30
0.0
 10
238.6137407564564
 20
1260.312833331759
 30
0.0
  0
SPLINE
  5
247
330
1F
100
AcDbEntity
  8
0
  6
Continuous
 62
     8
370
    18
100
AcDbSpline
210
0.0
220
0.0
230
1.0
 70
     8
 71
     3
 72
    10
 73
     6
 74
     0
 42
0.000000001
 43
0.00000001
 40
0.0
 40
0.0
 40
0.0
 40
0.0
 40
0.5
 40
0.5
 40
1.0
 40
1.0
 40
1.0
 40
1.0
 10
238.6137407161345
 20
1256.635094045139
 30
0.0
 10
238.6137407439971
 20
1256.42820582797
 30
0.0
 10
238.6137407580793
 20
1256.201141652818
 30
0.0
 10
238.6137407562657
 20
1255.746771183795
 30
0.0
 10
238.6137407403717
 20
1255.519712079273
 30
0.0
 10
238.6137407109294
 20
1255.312833555513
 30
0.0
  0
SPLINE
  5
248
330
1F
100
AcDbEntity
  8
0
  6
Continuous
 62
     8
370
    18
100
AcDbSpline
210
0.0
220
0.0
230
1.0
 70
     8
 71
     3
 72
    10
 73
     6
 74
     0
 42
0.000000001
 43
0.00000001
 40
0.0
 40
0.0
 40
0.0
 40
0.0
 40
0.5
 40
0.5
 40
1.0
 40
1.0
 40
1.0
 40
1.0
 10
238.6137406661343
 20
1251.63509380967
 30
0.0
 10
238.6137406918445
 20
1251.428205655827
 30
0.0
 10
238.6137407048008
 20
1251.201141566745
 30
0.0
 10
238.6137407029875
 20
1250.746771270528
 30
0.0
 10
238.6137406882198
 20
1250.519712252277
 30
0.0
 10
238.6137406609303
 20
1250.312833792227
 30
0.0
  0
SPLINE
  5
249
330
1F
100
AcDbEntity
  8
0
  6
Continuous
 62
     8
370
    18
100
AcDbSpline
210
0.0
220
0.0
230
1.0
 70
     8
 71
     3
 72
    10
 73
     6
 74
     0
 42
0.000000001
 43
0.00000001
 40
0.0
 40
0.0
 40
0.0
 40
0.0
 40
0.5
 40
0.5
 40
1.0
 40
1.0
 40
1.0
 40
1.0
 10
238.6137406162554
 20
1246.635093585516
 30
0.0
 10
238.6137406403498
 20
1246.428205491852
 30
0.0
 10
238.6137406525794
 20
1246.201141484248
 30
0.0
 10
238.6137406511529
 20
1245.746771350707
 30
0.0
 10
238.6137406374975
 20
1245.519712413205
 30
0.0
 10
238.613740612108
 20
1245.312834011942
 30
0.0
  0
SPLINE
  5
24A
330
1F
100
AcDbEntity
  8
0
  6
Continuous
 62
     8
370
    18
100
AcDbSpline
210
0.0
220
0.0
230
1.0
 70
     8
 71
     3
 72
    10
 73
     6
 74
     0
 42
0.000000001
 43
0.00000001
 40
0.0
 40
0.0
 40
0.0
 40
0.0
 40
0.5
 40
0.5
 40
1.0
 40
1.0
 40
1.0
 40
1.0
 10
238.6137405662575
 20
1241.635093352986
 30
0.0
 10
238.6137405896174
 20
1241.41642988002
 30
0.0
 10
238.6137406001056
 20
1241.185688155124
 30
0.0
 10
238.6137405983173
 20
1240.762244211585
 30
0.0
 10
238.6137405868413
 20
1240.531491574799
 30
0.0
 10
238.6137405621089
 20
1240.312834246893
 30
0.0
  0
SPLINE
  5
24B
330
1F
100
AcDbEntity
  8
0
  6
Continuous
 62
     8
370
    18
100
AcDbSpline
210
0.0
220
0.0
230
1.0
 70
     8
 71
     3
 72
    10
 73
     6
 74
     0
 42
0.000000001
 43
0.00000001
 40
0.0
 40
0.0
 40
0.0
 40
0.0
 40
0.5
 40
0.5
 40
1.0
 40
1.0
 40
1.0
 40
1.0
 10
238.6137405185313
 20
1236.635093124169
 30
0.0
 10
238.6137405380644
 20
1236.428205154663
 30
0.0
 10
238.6137405477164
 20
1236.201141315714
 30
0.0
 10
238.6137405456649
 20
1235.746771520909
 30
0.0
 10
238.6137405339638
 20
1235.519712752576
 30
0.0
 10
238.6137405126767
 20
1235.31283447645
 30
0.0
  0
SPLINE
  5
24C
330
1F
100
AcDbEntity
  8
0
  6
Continuous
 62
     8
370
    18
100
AcDbSpline
210
0.0
220
0.0
230
1.0
 70
     8
 71
     3
 72
    10
 73
     6
 74
     0
 42
0.000000001
 43
0.00000001
 40
0.0
 40
0.0
 40
0.0
 40
0.0
 40
0.5
 40
0.5
 40
1.0
 40
1.0
 40
1.0
 40
1.0
 10
238.6137404713363
 20
1231.635092892501
 30
0.0
 10
238.6137404899394
 20
1231.416429552851
 30
0.0
 10
238.6137404976758
 20
1231.185688004045
 30
0.0
 10
238.6137404956918
 20
1230.762244354632
 30
0.0
 10
238.6137404861132
 20
1230.531491893337
 30
0.0
 10
238.6137404658235
 20
1230.312834699069
 30
0.0
  0
SPLINE
  5
24D
330
1F
100
AcDbEntity
  8
0
  6
Continuous
 62
     8
370
    18
100
AcDbSpline
210
0.0
220
0.0
230
1.0
 70
     8
 71
     3
 72
    10
 73
     6
 74
     0
 42
0.000000001
 43
0.00000001
 40
0.0
 40
0.0
 40
0.0
 40
0.0
 40
0.5
 40
0.5
 40
1.0
 40
1.0
 40
1.0
 40
1.0
 10
238.6137404206054
 20
1226.635092652046
 30
0.0
 10
238.6137404364719
 20
1226.428204806741
 30
0.0
 10
238.613740444398
 20
1226.201141136947
 30
0.0
 10
238.6137404429729
 20
1225.746771682126
 30
0.0
 10
238.6137404336227
 20
1225.519713083702
 30
0.0
 10
238.6137404164625
 20
1225.312834933223
 30
0.0
  0
SPLINE
  5
24E
330
1F
100
AcDbEntity
  8
0
  6
Continuous
 62
     8
370
    18
100
AcDbSpline
210
0.0
220
0.0
230
1.0
 70
     8
 71
     3
 72
    10
 73
     6
 74
     0
 42
0.000000001
 43
0.00000001
 40
0.0
 40
0.0
 40
0.0
 40
0.0
 40
0.5
 40
0.5
 40
1.0
 40
1.0
 40
1.0
 40
1.0
 10
238.6137403761339
 20
1221.635092423723
 30
0.0
 10
238.6137403906632
 20
1221.416429219663
 30
0.0
 10
238.6137403953395
 20
1221.185687850018
 30
0.0
 10
238.6137403944737
 20
1220.762244499742
 30
0.0
 10
238.6137403870787
 20
1220.531492216944
 30
0.0
 10
238.6137403709355
 20
1220.312835158625
 30
0.0
  0
SPLINE
  5
24F
330
1F
100
AcDbEntity
  8
0
  6
Continuous
 62
     8
370
    18
100
AcDbSpline
210
0.0
220
0.0
230
1.0
 70
     8
 71
     3
 72
    10
 73
     6
 74
     0
 42
0.000000001
 43
0.00000001
 40
0.0
 40
0.0
 40
0.0
 40
0.0
 40
0.5
 40
0.5
 40
1.0
 40
1.0
 40
1.0
 40
1.0
 10
238.6137403256055
 20
1216.635092193154
 30
0.0
 10
238.6137403382996
 20
1216.416429056746
 30
0.0
 10
238.6137403426129
 20
1216.185687775971
 30
0.0
 10
238.6137403419439
 20
1215.762244574996
 30
0.0
 10
238.6137403355283
 20
1215.531492381159
 30
0.0
 10
238.6137403214642
 20
1215.312835390434
 30
0.0
  0
SPLINE
  5
250
330
1F
100
AcDbEntity
  8
0
  6
Continuous
 62
     8
370
    18
100
AcDbSpline
210
0.0
220
0.0
230
1.0
 70
     8
 71
     3
 72
    10
 73
     6
 74
     0
 42
0.000000001
 43
0.00000001
 40
0.0
 40
0.0
 40
0.0
 40
0.0
 40
0.5
 40
0.5
 40
1.0
 40
1.0
 40
1.0
 40
1.0
 10
238.6137402762538
 20
1211.635091967407
 30
0.0
 10
238.6137402868195
 20
1211.428204306113
 30
0.0
 10
238.6137402919729
 20
1211.201140885898
 30
0.0
 10
238.6137402905489
 20
1210.746771930862
 30
0.0
 10
238.6137402839724
 20
1210.519713581282
 30
0.0
 10
238.6137402721142
 20
1210.312835613407
 30
0.0
  0
ARC
  5
251
330
1F
100
AcDbEntity
  8
0
  6
Continuous
 62
     7
370
    25
100
AcDbCircle
 10
704.9833154079
 20
1280.0573983433
 30
0.0
 40
1.000000000617092
100
AcDbArc
 50
90.0000001438
 51
181.8273884282
  0
ARC
  5
252
330
1F
100
AcDbEntity
  8
0
  6
Continuous
 62
     7
370
    25
100
AcDbCircle
 10
738.0144882249
 20
1280.0573983434
 30
0.0
 40
1.00000000061732
100
AcDbArc
 50
358.1726115719
 51
89.9999998564
  0
LINE
  5
253
330
1F
100
AcDbEntity
  8
0
  6
Continuous
 62
     7
370
    25
100
AcDbLine
 10
703.9838236298
 20
1280.0255132454
 30
0.0
 11
704.2766351725
 21
1270.8478284614
 31
0.0
  0
LINE
  5
254
330
1F
100
AcDbEntity
  8
0
  6
Continuous
 62
     7
370
    25
100
AcDbLine
 10
738.721168461
 20
1270.8478284614
 30
0.0
 11
739.0139800038
 21
1280.0255132454
 31
0.0
  0
ARC
  5
255
330
1F
100
AcDbEntity
  8
0
  6
Continuous
 62
     7
370
    25
100
AcDbCircle
 10
738.4213205987
 20
1270.8573983349
 30
0.0
 40
0.299999989662183
100
AcDbArc
 50
270.0000003561
 51
358.1726138352
  0
ARC
  5
256
330
1F
100
AcDbEntity
  8
0
  6
Continuous
 62
     7
370
    25
100
AcDbCircle
 10
704.5764830342
 20
1270.8573983348
 30
0.0
 40
0.299999989662089
100
AcDbArc
 50
181.8273861649
 51
269.9999996441
  0
ARC
  5
257
330
1F
100
AcDbEntity
  8
0
  6
Continuous
 62
     7
370
    25
100
AcDbCircle
 10
738.3096397384
 20
1270.2573983442
 30
0.0
 40
0.2999999793527287
100
AcDbArc
 50
358.0107749171
 51
90.0000000001
  0
ARC
  5
258
330
1F
100
AcDbEntity
  8
0
  6
Continuous
 62
     7
370
    25
100
AcDbCircle
 10
704.6881638945
 20
1270.2573983442
 30
0.0
 40
0.2999999793529073
100
AcDbArc
 50
90.0000000001
 51
182.0084896475
  0
LINE
  5
259
330
1F
100
AcDbEntity
  8
0
  6
Continuous
 62
     7
370
    25
100
AcDbLine
 10
704.3877438183
 20
1270.2503664034
 30
0.0
 11
707.0076585289
 21
1196.3231278198
 31
0.0
  0
LINE
  5
25A
330
1F
100
AcDbEntity
  8
0
  6
Continuous
 62
     7
370
    25
100
AcDbLine
 10
735.9901451047
 20
1196.3231278198
 30
0.0
 11
738.6100598152
 21
1270.2503664034
 31
0.0
  0
ARC
  5
25B
330
1F
100
AcDbEntity
  8
0
  6
Continuous
 62
     7
370
    25
100
AcDbCircle
 10
737.4794352417
 20
1067.207398339
 30
0.0
 40
0.9999999933879735
100
AcDbArc
 50
270.0000000001
 51
1.1129316248
  0
ARC
  5
25C
330
1F
100
AcDbEntity
  8
0
  6
Continuous
 62
     7
370
    25
100
AcDbCircle
 10
705.5183683918
 20
1067.207398339
 30
0.0
 40
0.999999993387908
100
AcDbArc
 50
178.9200169128
 51
270.0000000001
  0
LINE
  5
25D
330
1F
100
AcDbEntity
  8
0
  6
Continuous
 62
     7
370
    25
100
AcDbLine
 10
738.479253697
 20
1067.2254258381
 30
0.0
 11
735.9902158852
 21
1196.3256163137
 31
0.0
  0
LINE
  5
25E
330
1F
100
AcDbEntity
  8
0
  6
Continuous
 62
     7
370
    25
100
AcDbLine
 10
707.0075877483
 20
1196.3256163137
 30
0.0
 11
704.5185499366
 21
1067.2254258381
 31
0.0
  0
LINE
  5
25F
330
1F
100
AcDbEntity
  8
0
  6
Continuous
 62
     7
370
    25
100
AcDbLine
 10
707.0288591559
 20
1065.339683889
 30
0.0
 11
707.0288591559
 21
1036.207398268
 31
0.0
  0
LINE
  5
260
330
1F
100
AcDbEntity
  8
0
  6
Continuous
 62
     7
370
    25
100
AcDbLine
 10
735.9813413124
 20
1036.207398268
 30
0.0
 11
735.9813413124
 21
1065.8121568697
 31
0.0
  0
LINE
  5
261
330
1F
100
AcDbEntity
  8
0
  6
Continuous
 62
     7
370
    25
100
AcDbLine
 10
707.0061125334
 20
1066.2073989945
 30
0.0
 11
707.0288833703
 21
1065.3378398703
 31
0.0
  0
LINE
  5
262
330
1F
100
AcDbEntity
  8
0
  6
Continuous
 62
     7
370
    25
100
AcDbLine
 10
735.9812668066
 20
1065.8093349623
 30
0.0
 11
735.9916911002
 21
1066.2073989945
 31
0.0
  0
LINE
  5
263
330
1F
100
AcDbEntity
  8
0
  6
Continuous
 62
     7
370
    25
100
AcDbLine
 10
731.7077730324
 20
1033.6797538759
 30
0.0
 11
731.8402415614
 21
1036.207398268
 31
0.0
  0
ARC
  5
264
330
1F
100
AcDbEntity
  8
0
  6
Continuous
 62
     7
370
    25
100
AcDbCircle
 10
713.2011892435
 20
1033.7582580982
 30
0.0
 40
1.500000000000093
100
AcDbArc
 50
183.0000000001
 51
270.0000000001
  0
ARC
  5
265
330
1F
100
AcDbEntity
  8
0
  6
Continuous
 62
     7
370
    25
100
AcDbCircle
 10
730.2098287864
 20
1033.7582580982
 30
0.0
 40
1.5
100
AcDbArc
 50
270.0000000001
 51
357.0000000001
  0
LINE
  5
266
330
1F
100
AcDbEntity
  8
0
  6
Continuous
 62
     7
370
    25
100
AcDbLine
 10
728.4989020328
 20
953.2073972361
 30
0.0
 11
728.4989020328
 21
1032.2582585352
 31
0.0
  0
LINE
  5
267
330
1F
100
AcDbEntity
  8
0
  6
Continuous
 62
     7
370
    25
100
AcDbLine
 10
714.4989016007
 20
1032.2582585352
 30
0.0
 11
714.4989016007
 21
953.2073972361
 31
0.0
  0
LINE
  5
268
330
1F
100
AcDbEntity
  8
0
  6
Continuous
 62
     7
370
    25
100
AcDbLine
 10
711.57077686
 20
1036.207398268
 30
0.0
 11
711.703245389
 21
1033.6797538759
 31
0.0
  0
ARC
  5
269
330
1F
100
AcDbEntity
  8
0
  6
Continuous
 62
     7
370
    25
100
AcDbCircle
 10
671.3423372438
 20
335.7717204418
 30
0.0
 40
24.99999999999998
100
AcDbArc
 50
153.933938042
 51
173.5843407792
  0
ARC
  5
26A
330
1F
100
AcDbEntity
  8
0
  6
Continuous
 62
     7
370
    25
100
AcDbCircle
 10
771.6554663921
 20
335.771720442
 30
0.0
 40
25.00000000000002
100
AcDbArc
 50
6.415659221
 51
26.0660619582
  0
ARC
  5
26B
330
1F
100
AcDbEntity
  8
0
  6
Continuous
 62
     7
370
    25
100
AcDbCircle
 10
792.7652345713
 20
346.0977887848
 30
0.0
 40
1.500000000000038
100
AcDbArc
 50
26.0660619583
 51
87.956404312
  0
ARC
  5
26C
330
1F
100
AcDbEntity
  8
0
  6
Continuous
 62
     7
370
    25
100
AcDbCircle
 10
650.2325690646
 20
346.0977887845
 30
0.0
 40
1.500000000000032
100
AcDbArc
 50
92.0435956881
 51
153.9339380419
  0
ARC
  5
26D
330
1F
100
AcDbEntity
  8
0
  6
Continuous
 62
     7
370
    25
100
AcDbCircle
 10
721.4989018213
 20
-1651.1311314486
 30
0.0
 40
1999.999999999999
100
AcDbArc
 50
90.7448661152
 51
92.0435956881
  0
ARC
  5
26E
330
1F
100
AcDbEntity
  8
0
  6
Continuous
 62
     7
370
    25
100
AcDbCircle
 10
721.4989018213
 20
-1651.1311314486
 30
0.0
 40
1999.999999999999
100
AcDbArc
 50
87.956404312
 51
89.255133885
  0
LINE
  5
26F
330
1F
100
AcDbEntity
  8
0
  6
Continuous
 62
     7
370
    25
100
AcDbLine
 10
695.4989012803
 20
1153.1143424647
 30
0.0
 11
695.4989012803
 21
1068.1073976295
 31
0.0
  0
LINE
  5
270
330
1F
100
AcDbEntity
  8
0
  6
Continuous
 62
     7
370
    25
100
AcDbLine
 10
695.4989012803
 20
1166.1076930897
 30
0.0
 11
695.4989012803
 21
1153.1143424647
 31
0.0
  0
LINE
  5
271
330
1F
100
AcDbEntity
  8
0
  6
Continuous
 62
     7
370
    25
100
AcDbLine
 10
747.4989023532
 20
1068.1073976295
 30
0.0
 11
747.4989023532
 21
1153.1143424647
 31
0.0
  0
LINE
  5
272
330
1F
100
AcDbEntity
  8
0
  6
Continuous
 62
     7
370
    25
100
AcDbLine
 10
747.4989023532
 20
1153.1143424647
 30
0.0
 11
747.4989023532
 21
1166.1077154415
 31
0.0
  0
LINE
  5
273
330
1F
100
AcDbEntity
  8
0
  6
Continuous
 62
     7
370
    25
100
AcDbLine
 10
695.4989012803
 20
1035.7073986517
 30
0.0
 11
695.4989012803
 21
1034.2073984059
 31
0.0
  0
LINE
  5
274
330
1F
100
AcDbEntity
  8
0
  6
Continuous
 62
     7
370
    25
100
AcDbLine
 10
747.4989023532
 20
1034.2073984059
 30
0.0
 11
747.4989023532
 21
1035.7073986517
 31
0.0
  0
LINE
  5
275
330
1F
100
AcDbEntity
  8
0
  6
Continuous
 62
     7
370
    25
100
AcDbLine
 10
747.4989023532
 20
1035.7073986517
 30
0.0
 11
747.4989023532
 21
1066.9573986517
 31
0.0
  0
LINE
  5
276
330
1F
100
AcDbEntity
  8
0
  6
Continuous
 62
     7
370
    25
100
AcDbLine
 10
695.4989012803
 20
1066.9573986517
 30
0.0
 11
695.4989012803
 21
1035.7073986517
 31
0.0
  0
LINE
  5
277
330
1F
100
AcDbEntity
  8
0
  6
Continuous
 62
     7
370
    25
100
AcDbLine
 10
695.4989012803
 20
1068.1073976295
 30
0.0
 11
695.4989012803
 21
1066.9573986517
 31
0.0
  0
LINE
  5
278
330
1F
100
AcDbEntity
  8
0
  6
Continuous
 62
     7
370
    25
100
AcDbLine
 10
695.4989012803
 20
1034.2073984059
 30
0.0
 11
695.4989012803
 21
348.6998689907
 31
0.0
  0
LINE
  5
279
330
1F
100
AcDbEntity
  8
0
  6
Continuous
 62
     7
370
    25
100
AcDbLine
 10
747.4989023532
 20
348.6998689907
 30
0.0
 11
747.4989023532
 21
1034.2073984059
 31
0.0
  0
LINE
  5
27A
330
1F
100
AcDbEntity
  8
0
  6
Continuous
 62
     7
370
    25
100
AcDbLine
 10
747.4989023532
 20
1066.9573986517
 30
0.0
 11
747.4989023532
 21
1068.1073976295
 31
0.0
  0
ARC
  5
27B
330
1F
100
AcDbEntity
  8
0
  6
Continuous
 62
     7
370
    25
100
AcDbCircle
 10
697.9989018168
 20
1202.143390148
 30
0.0
 40
1.5
100
AcDbArc
 50
90.0
 51
180.0
  0
ARC
  5
27C
330
1F
100
AcDbEntity
  8
0
  6
Continuous
 62
     7
370
    25
100
AcDbCircle
 10
744.9989018168
 20
1202.143390148
 30
0.0
 40
1.500000000000114
100
AcDbArc
 50
0.0
 51
90.0
  0
LINE
  5
27D
330
1F
100
AcDbEntity
  8
0
  6
Continuous
 62
     7
370
    25
100
AcDbLine
 10
696.4989014442
 20
1202.1433872717
 30
0.0
 11
696.4989014442
 21
1172.3663819568
 31
0.0
  0
LINE
  5
27E
330
1F
100
AcDbEntity
  8
0
  6
Continuous
 62
     7
370
    25
100
AcDbLine
 10
746.4989021893
 20
1172.3612559574
 30
0.0
 11
746.4989021893
 21
1202.1433872717
 31
0.0
  0
SPLINE
  5
27F
330
1F
100
AcDbEntity
  8
0
  6
Continuous
 62
     7
370
    25
100
AcDbSpline
210
0.0
220
0.0
230
1.0
 70
     8
 71
     3
 72
     9
 73
     5
 74
     0
 42
0.000000001
 43
0.00000001
 40
0.0
 40
0.0
 40
0.0
 40
0.0
 40
0.5783579291239921
 40
1.0
 40
1.0
 40
1.0
 40
1.0
 10
744.8906533892656
 20
1203.644023610842
 30
0.0
 10
743.2319025073863
 20
1203.694741913039
 30
0.0
 10
740.3638673368617
 20
1203.782435536041
 30
0.0
 10
737.4753640798086
 20
1203.841041956794
 30
0.0
 10
736.2574495847726
 20
1203.865752889407
 30
0.0
  0
SPLINE
  5
280
330
1F
100
AcDbEntity
  8
0
  6
Continuous
 62
     7
370
    25
100
AcDbSpline
210
0.0
220
0.0
230
1.0
 70
     8
 71
     3
 72
     9
 73
     5
 74
     0
 42
0.000000001
 43
0.00000001
 40
0.0
 40
0.0
 40
0.0
 40
0.0
 40
0.350616152959887
 40
1.0
 40
1.0
 40
1.0
 40
1.0
 10
706.74036522465
 20
1203.865439965022
 30
0.0
 10
705.7266921649026
 20
1203.845166782297
 30
0.0
 10
702.8355730558998
 20
1203.787345194347
 30
0.0
 10
699.9688899790825
 20
1203.700496352001
 30
0.0
 10
698.1073122944141
 20
1203.644098116648
 30
0.0
  0
LINE
  5
281
330
1F
100
AcDbEntity
  8
0
  6
Continuous
 62
     7
370
    25
100
AcDbLine
 10
745.4898570205
 20
1167.3255798953
 30
0.0
 11
745.473340946
 21
1168.2717738288
 31
0.0
  0
LINE
  5
282
330
1F
100
AcDbEntity
  8
0
  6
Continuous
 62
     7
370
    25
100
AcDbLine
 10
697.5244626875
 20
1168.2717738288
 30
0.0
 11
697.5079447504
 21
1167.3254979389
 31
0.0
  0
ARC
  5
283
330
1F
100
AcDbEntity
  8
0
  6
Continuous
 62
     7
370
    25
100
AcDbCircle
 10
721.4989018166
 20
1164.3073983455
 30
0.0
 40
24.30000000000051
100
AcDbArc
 50
161.1527946738
 51
170.6106272567
  0
ARC
  5
284
330
1F
100
AcDbEntity
  8
0
  6
Continuous
 62
     7
370
    25
100
AcDbCircle
 10
721.4989018166
 20
1164.3073983455
 30
0.0
 40
24.30000000000044
100
AcDbArc
 50
9.3893727435
 51
18.8438268493
  0
LINE
  5
285
330
1F
100
AcDbEntity
  8
0
  6
Continuous
 62
     7
370
    25
100
AcDbLine
 10
738.014488342
 20
1281.0574037569
 30
0.0
 11
704.9833152916
 21
1281.0574037569
 31
0.0
  0
LINE
  5
286
330
1F
100
AcDbEntity
  8
0
  6
Continuous
 62
     7
370
    25
100
AcDbLine
 10
704.5764837887
 20
1270.5574048298
 30
0.0
 11
738.4213198449
 21
1270.5574048298
 31
0.0
  0
SPLINE
  5
287
330
1F
100
AcDbEntity
  8
0
  6
Continuous
 62
     7
370
    25
100
AcDbSpline
210
0.0
220
0.0
230
1.0
 70
    24
 71
     3
 72
    14
 73
    10
 74
     0
 42
0.000000001
 43
0.00000001
 40
0.0
 40
0.0
 40
0.0
 40
0.0
 40
0.2500000000000001
 40
0.2500000000000001
 40
0.5000000000000001
 40
0.5000000000000001
 40
0.7500000000000001
 40
0.7500000000000001
 40
1.0
 40
1.0
 40
1.0
 40
1.0
 10
721.4989018165569
 20
1196.324372079016
 30
0.0
 10
723.3958072485324
 20
1196.324372079019
 30
0.0
 10
725.2919663288092
 20
1196.324372079022
 30
0.0
 10
728.7969904570796
 20
1196.324372079028
 30
0.0
 10
730.4044764269872
 20
1196.324372079031
 30
0.0
 10
733.0871055229152
 20
1196.324372079035
 30
0.0
 10
734.1611931483558
 20
1196.324372079037
 30
0.0
 10
735.6130211382404
 20
1196.32437207904
 30
0.0
 10
735.9901902700502
 20
1196.32437207904
 30
0.0
 10
735.990189856377
 20
1196.32437207904
 30
0.0
  0
LINE
  5
288
330
1F
100
AcDbEntity
  8
0
  6
Continuous
 62
     7
370
    25
100
AcDbLine
 10
707.0076138254
 20
1196.3243795173
 30
0.0
 11
721.4989018166
 21
1196.3243795173
 31
0.0
  0
SPLINE
  5
289
330
1F
100
AcDbEntity
  8
0
  6
Continuous
 62
     7
370
    25
100
AcDbSpline
210
0.0
220
0.0
230
1.0
 70
    24
 71
     3
 72
    14
 73
    10
 74
     0
 42
0.000000001
 43
0.00000001
 40
0.0
 40
0.0
 40
0.0
 40
0.0
 40
0.2499999999999999
 40
0.2499999999999999
 40
0.4999999999999999
 40
0.4999999999999999
 40
0.7499999999999999
 40
0.7499999999999999
 40
1.0
 40
1.0
 40
1.0
 40
1.0
 10
721.4989018167752
 20
1066.207398345624
 30
0.0
 10
723.5907490143624
 20
1066.207398345627
 30
0.0
 10
725.6817731589898
 20
1066.207398345631
 30
0.0
 10
729.5470027017134
 20
1066.207398345637
 30
0.0
 10
731.3196872962733
 20
1066.20739834564
 30
0.0
 10
734.2780056806054
 20
1066.207398345645
 30
0.0
 10
735.4624754978345
 20
1066.207398345647
 30
0.0
 10
737.0635054548926
 20
1066.20739834565
 30
0.0
 10
737.4794356574839
 20
1066.207398345651
 30
0.0
 10
737.4794352432498
 20
1066.207398345651
 30
0.0
  0
LINE
  5
28A
330
1F
100
AcDbEntity
  8
0
  6
Continuous
 62
     7
370
    25
100
AcDbLine
 10
705.5183675613
 20
1066.2073989945
 30
0.0
 11
721.4989018168
 21
1066.2073989945
 31
0.0
  0
SPLINE
  5
28B
330
1F
100
AcDbEntity
  8
0
  6
Continuous
 62
     7
370
    25
100
AcDbSpline
210
0.0
220
0.0
230
1.0
 70
     8
 71
     3
 72
    13
 73
     9
 74
     0
 42
0.000000001
 43
0.00000001
 40
0.0
 40
0.0
 40
0.0
 40
0.0
 40
0.1608190448168823
 40
0.3258457152282019
 40
0.4948233712975802
 40
0.6686908419354034
 40
0.8378577919719593
 40
1.0
 40
1.0
 40
1.0
 40
1.0
 10
713.4989014367962
 20
1066.207398994458
 30
0.0
 10
712.881295339118
 20
1066.168763212179
 30
0.0
 10
711.6299242663918
 20
1066.090480791557
 30
0.0
 10
710.0424931870044
 20
1065.953873872016
 30
0.0
 10
708.7089587135066
 20
1065.804472113444
 30
0.0
 10
707.7400980408513
 20
1065.647135849215
 30
0.0
 10
707.1336160091599
 20
1065.489502442652
 30
0.0
 10
707.072374757438
 20
1065.388912471138
 30
0.0
 10
707.0424033801461
 20
1065.339683889043
 30
0.0
  0
SPLINE
  5
28C
330
1F
100
AcDbEntity
  8
0
  6
Continuous
 62
     7
370
    25
100
AcDbSpline
210
0.0
220
0.0
230
1.0
 70
     8
 71
     3
 72
    10
 73
     6
 74
     0
 42
0.000000001
 43
0.00000001
 40
0.0
 40
0.0
 40
0.0
 40
0.0
 40
0.1524887941654594
 40
0.5111748716423188
 40
1.0
 40
1.0
 40
1.0
 40
1.0
 10
735.9319122980738
 20
1065.812156869662
 30
0.0
 10
735.9427585467287
 20
1065.834539903899
 30
0.0
 10
735.9791174791623
 20
1065.909572595423
 30
0.0
 10
735.5760732110857
 20
1066.048233459646
 30
0.0
 10
734.8018878994
 20
1066.149177040154
 30
0.0
 10
734.3553554739261
 20
1066.207398994458
 30
0.0
  0
LINE
  5
28D
330
1F
100
AcDbEntity
  8
0
  6
Continuous
 62
     7
370
    25
100
AcDbLine
 10
735.9813413124
 20
1036.207398268
 30
0.0
 11
707.0288591559
 21
1036.207398268
 31
0.0
  0
SPLINE
  5
28E
330
1F
100
AcDbEntity
  8
0
  6
Continuous
 62
     7
370
    25
100
AcDbSpline
210
0.0
220
0.0
230
1.0
 70
     8
 71
     3
 72
     8
 73
     4
 74
     0
 42
0.000000001
 43
0.00000001
 40
0.0
 40
0.0
 40
0.0
 40
0.0
 40
1.0
 40
1.0
 40
1.0
 40
1.0
 10
716.1140085850632
 20
1033.679754163804
 30
0.0
 10
716.2003564886412
 20
1034.521328385928
 30
0.0
 10
716.2816348191858
 20
1035.363985046659
 30
0.0
 10
716.3593694549471
 20
1036.207398345476
 30
0.0
  0
SPLINE
  5
28F
330
1F
100
AcDbEntity
  8
0
  6
Continuous
 62
     7
370
    25
100
AcDbSpline
210
0.0
220
0.0
230
1.0
 70
     8
 71
     3
 72
    30
 73
    26
 74
     0
 42
0.000000001
 43
0.00000001
 40
0.0
 40
0.0
 40
0.0
 40
0.0
 40
0.0312499999999974
 40
0.0312499999999974
 40
0.0624999999999948
 40
0.0624999999999948
 40
0.124999999999993
 40
0.124999999999993
 40
0.2499999999999939
 40
0.2499999999999939
 40
0.3749999999999949
 40
0.3749999999999949
 40
0.4999999999999959
 40
0.4999999999999959
 40
0.6249999999999969
 40
0.6249999999999969
 40
0.7499999999999978
 40
0.7499999999999978
 40
0.8124999999999983
 40
0.8124999999999983
 40
0.8749999999999989
 40
0.8749999999999989
 40
0.9374999999999994
 40
0.9374999999999994
 40
1.0
 40
1.0
 40
1.0
 40
1.0
 10
712.279475909505
 20
1033.679754163798
 30
0.0
 10
712.2868609019985
 20
1033.607777670388
 30
0.0
 10
712.3045665463394
 20
1033.538403160558
 30
0.0
 10
712.3519687870162
 20
1033.414693659346
 30
0.0
 10
712.3819636809075
 20
1033.358679936437
 30
0.0
 10
712.479667564336
 20
1033.20987910972
 30
0.0
 10
712.5569078448057
 20
1033.131698221306
 30
0.0
 10
712.7951922643467
 20
1032.937689669793
 30
0.0
 10
712.9686386640976
 20
1032.856130300723
 30
0.0
 10
713.3133896423917
 20
1032.735996287609
 30
0.0
 10
713.4874932263014
 20
1032.698058937985
 30
0.0
 10
713.8377311753085
 20
1032.648190041174
 30
0.0
 10
714.0138949597315
 20
1032.636635232343
 30
0.0
 10
714.3679872153258
 20
1032.636123861712
 30
0.0
 10
714.5466423604707
 20
1032.64728714321
 30
0.0
 10
714.9006788054518
 20
1032.69692390551
 30
0.0
 10
715.0779707892518
 20
1032.735343884404
 30
0.0
 10
715.338302541478
 20
1032.825929379497
 30
0.0
 10
715.4241461733089
 20
1032.86167413762
 30
0.0
 10
715.5930942886623
 20
1032.949445627535
 30
0.0
 10
715.6769036836546
 20
1033.001744602166
 30
0.0
 10
715.8366547996825
 20
1033.131711730121
 30
0.0
 10
715.9121171737245
 20
1033.207701631015
 30
0.0
 10
716.0438584936944
 20
1033.407524276964
 30
0.0
 10
716.0989685370492
 20
1033.533169056541
 30
0.0
 10
716.1140085850632
 20
1033.679754163804
 30
0.0
  0
LINE
  5
290
330
1F
100
AcDbEntity
  8
0
  6
Continuous
 62
     7
370
    25
100
AcDbLine
 10
726.915217797
 20
1032.2582585352
 30
0.0
 11
730.2098291467
 21
1032.2582585352
 31
0.0
  0
LINE
  5
291
330
1F
100
AcDbEntity
  8
0
  6
Continuous
 62
     7
370
    25
100
AcDbLine
 10
713.2011892747
 20
1032.2582585352
 30
0.0
 11
726.915217797
 21
1032.2582585352
 31
0.0
  0
SPLINE
  5
292
330
1F
100
AcDbEntity
  8
0
  6
Continuous
 62
     7
370
    25
100
AcDbSpline
210
0.0
220
0.0
230
1.0
 70
     8
 71
     3
 72
     8
 73
     4
 74
     0
 42
0.000000001
 43
0.00000001
 40
0.0
 40
0.0
 40
0.0
 40
0.0
 40
1.0
 40
1.0
 40
1.0
 40
1.0
 10
712.0341150396118
 20
1036.207398345476
 30
0.0
 10
712.1118491475781
 20
1035.363990773213
 30
0.0
 10
712.1931273460477
 20
1034.521334817287
 30
0.0
 10
712.279475909505
 20
1033.679754163798
 30
0.0
  0
LINE
  5
293
330
1F
100
AcDbEntity
  8
0
  6
Continuous
 62
     7
370
    25
100
AcDbLine
 10
728.4989020328
 20
953.2073972361
 30
0.0
 11
714.4989016007
 21
953.2073972361
 31
0.0
  0
LINE
  5
294
330
1F
100
AcDbEntity
  8
0
  6
Continuous
 62
     7
370
    25
100
AcDbLine
 10
735.26115981
 20
338.5652316349
 30
0.0
 11
796.498904797
 21
338.5652316349
 31
0.0
  0
LINE
  5
295
330
1F
100
AcDbEntity
  8
0
  6
Continuous
 62
     7
370
    25
100
AcDbLine
 10
646.4988988365
 20
338.5652316349
 30
0.0
 11
735.26115981
 21
338.5652316349
 31
0.0
  0
LINE
  5
296
330
1F
100
AcDbEntity
  8
0
  6
Continuous
 62
     7
370
    25
100
AcDbLine
 10
747.4989023532
 20
348.6998689907
 30
0.0
 11
695.4989012803
 21
348.6998689907
 31
0.0
  0
LINE
  5
297
330
1F
100
AcDbEntity
  8
0
  6
Continuous
 62
     7
370
    25
100
AcDbLine
 10
696.6724627193
 20
1167.3074004786
 30
0.0
 11
706.448119926
 21
1167.3074004786
 31
0.0
  0
SPLINE
  5
298
330
1F
100
AcDbEntity
  8
0
  6
Continuous
 62
     7
370
    25
100
AcDbSpline
210
0.0
220
0.0
230
1.0
 70
     8
 71
     3
 72
    14
 73
    10
 74
     0
 42
0.000000001
 43
0.00000001
 40
0.0
 40
0.0
 40
0.0
 40
0.0
 40
0.25
 40
0.25
 40
0.5
 40
0.5
 40
0.75
 40
0.75
 40
1.0
 40
1.0
 40
1.0
 40
1.0
 10
696.6724629758443
 20
1167.307398345475
 30
0.0
 10
696.5176243531728
 20
1167.30398605574
 30
0.0
 10
696.3635120505365
 20
1167.270230107294
 30
0.0
 10
696.0793360004651
 20
1167.146980183424
 30
0.0
 10
695.9493779429165
 20
1167.057532046733
 30
0.0
 10
695.7327761873172
 20
1166.836104291835
 30
0.0
 10
695.6462130471285
 20
1166.704207026359
 30
0.0
 10
695.5292541123533
 20
1166.41738447016
 30
0.0
 10
695.4989018167759
 20
1166.262565853604
 30
0.0
 10
695.4989018167759
 20
1166.107689635958
 30
0.0
  0
LINE
  5
299
330
1F
100
AcDbEntity
  8
0
  6
Continuous
 62
     7
370
    25
100
AcDbLine
 10
736.5496837075
 20
1167.3074004786
 30
0.0
 11
746.3253409143
 21
1167.3074004786
 31
0.0
  0
SPLINE
  5
29A
330
1F
100
AcDbEntity
  8
0
  6
Continuous
 62
     7
370
    25
100
AcDbSpline
210
0.0
220
0.0
230
1.0
 70
     8
 71
     3
 72
    14
 73
    10
 74
     0
 42
0.000000001
 43
0.00000001
 40
0.0
 40
0.0
 40
0.0
 40
0.0
 40
0.25
 40
0.25
 40
0.5
 40
0.5
 40
0.75
 40
0.75
 40
1.0
 40
1.0
 40
1.0
 40
1.0
 10
746.3253946480542
 20
1167.307424804337
 30
0.0
 10
746.4802286178126
 20
1167.304005645772
 30
0.0
 10
746.6343349497344
 20
1167.270244645602
 30
0.0
 10
746.9184985824127
 20
1167.146988711835
 30
0.0
 10
747.0484502101406
 20
1167.057539613898
 30
0.0
 10
747.2650406895142
 20
1166.836113419444
 30
0.0
 10
747.3515989968207
 20
1166.704218665541
 30
0.0
 10
747.4685513062054
 20
1166.417403127825
 30
0.0
 10
747.498901816776
 20
1166.262589003214
 30
0.0
 10
747.498901816776
 20
1166.107717285859
 30
0.0
  0
ARC
  5
29B
330
1F
100
AcDbEntity
  8
0
  6
Continuous
 62
     7
370
    25
100
AcDbCircle
 10
733.0786326834
 20
1161.7379857431
 30
0.0
 40
15.65758285457694
100
AcDbArc
 50
46.0655230672
 51
77.8957194321
  0
ARC
  5
29C
330
1F
100
AcDbEntity
  8
0
  6
Continuous
 62
     7
370
    25
100
AcDbCircle
 10
709.5929667302
 20
1162.3509863901
 30
0.0
 40
14.99101772608051
100
AcDbArc
 50
101.3765094713
 51
134.6622480294
  0
SPLINE
  5
29D
330
1F
100
AcDbEntity
  8
0
  6
Continuous
 62
     7
370
    25
100
AcDbSpline
210
0.0
220
0.0
230
1.0
 70
     8
 71
     3
 72
     8
 73
     4
 74
     0
 42
0.000000001
 43
0.00000001
 40
0.9333627637222991
 40
0.9333627637222991
 40
0.9333627637222991
 40
0.9333627637222991
 40
0.9553475104157602
 40
0.9553475104157602
 40
0.9553475104157602
 40
0.9553475104157602
 10
745.7489030847753
 20
1167.320012928604
 30
0.0
 10
745.9409191411735
 20
1167.315867634376
 30
0.0
 10
746.1330717796521
 20
1167.311671816178
 30
0.0
 10
746.3253679577483
 20
1167.307425393732
 30
0.0
  0
SPLINE
  5
29E
330
1F
100
AcDbEntity
  8
0
  6
Continuous
 62
     7
370
    25
100
AcDbSpline
210
0.0
220
0.0
230
1.0
 70
     8
 71
     3
 72
     8
 73
     4
 74
     0
 42
0.000000001
 43
0.00000001
 40
0.0
 40
0.0
 40
0.0
 40
0.0
 40
1.0
 40
1.0
 40
1.0
 40
1.0
 10
697.2489018149416
 20
1167.319954192988
 30
0.0
 10
697.0567455717704
 20
1167.31581787828
 30
0.0
 10
696.8645903868943
 20
1167.311632399528
 30
0.0
 10
696.6724362854703
 20
1167.307397757281
 30
0.0
  0
LINE
  5
29F
330
1F
100
AcDbEntity
  8
0
  6
Continuous
 62
     7
370
    25
100
AcDbLine
 10
697.2489011015
 20
1167.3199547069
 30
0.0
 11
697.5079484756
 21
1167.3254979389
 31
0.0
  0
LINE
  5
2A0
330
1F
100
AcDbEntity
  8
0
  6
Continuous
 62
     7
370
    25
100
AcDbLine
 10
745.4898588832
 20
1167.3254979389
 30
0.0
 11
736.5493344616
 21
1167.3254979389
 31
0.0
  0
LINE
  5
2A1
330
1F
100
AcDbEntity
  8
0
  6
Continuous
 62
     7
370
    25
100
AcDbLine
 10
706.448469172
 20
1167.3254979389
 30
0.0
 11
697.5079447504
 21
1167.3254979389
 31
0.0
  0
LINE
  5
2A2
330
1F
100
AcDbEntity
  8
0
  6
Continuous
 62
     7
370
    25
100
AcDbLine
 10
745.748902532
 20
1167.3199547069
 30
0.0
 11
745.4898551579
 21
1167.3254979389
 31
0.0
  0
LINE
  5
2A3
330
1F
100
AcDbEntity
  8
0
  6
Continuous
 62
     7
370
    25
100
AcDbLine
 10
745.473340946
 20
1168.2717738288
 30
0.0
 11
736.5310907836
 21
1168.2717738288
 31
0.0
  0
LINE
  5
2A4
330
1F
100
AcDbEntity
  8
0
  6
Continuous
 62
     7
370
    25
100
AcDbLine
 10
706.4667128499
 20
1168.2717738288
 30
0.0
 11
697.5244626875
 21
1168.2717738288
 31
0.0
  0
SPLINE
  5
2A5
330
1F
100
AcDbEntity
  8
0
  6
Continuous
 62
     7
370
    25
100
AcDbSpline
210
0.0
220
0.0
230
1.0
 70
     8
 71
     3
 72
     9
 73
     5
 74
     0
 42
0.000000001
 43
0.00000001
 40
0.0
 40
0.0
 40
0.0
 40
0.0
 40
0.6200569182868364
 40
1.0
 40
1.0
 40
1.0
 40
1.0
 10
699.0553874995018
 20
1173.013539387477
 30
0.0
 10
698.8821899893675
 20
1172.785886997972
 30
0.0
 10
698.6028648096519
 20
1172.418739430078
 30
0.0
 10
698.5466096195007
 20
1172.224469400099
 30
0.0
 10
698.5252358491922
 20
1172.150657846224
 30
0.0
  0
SPLINE
  5
2A6
330
1F
100
AcDbEntity
  8
0
  6
Continuous
 62
     7
370
    25
100
AcDbSpline
210
0.0
220
0.0
230
1.0
 70
     8
 71
     3
 72
     9
 73
     5
 74
     0
 42
0.000000001
 43
0.00000001
 40
0.0
 40
0.0
 40
0.0
 40
0.0
 40
0.2347035213925948
 40
1.0
 40
1.0
 40
1.0
 40
1.0
 10
744.4738753612543
 20
1172.149361445201
 30
0.0
 10
744.466932532439
 20
1172.189813628733
 30
0.0
 10
744.437351259972
 20
1172.362168024153
 30
0.0
 10
744.1569818535183
 20
1172.73115497406
 30
0.0
 10
743.94241613405
 20
1173.013539387477
 30
0.0
  0
SPLINE
  5
2A7
330
1F
100
AcDbEntity
  8
0
  6
Continuous
 62
     7
370
    25
100
AcDbSpline
210
0.0
220
0.0
230
1.0
 70
     8
 71
     3
 72
    12
 73
     8
 74
     0
 42
0.000000001
 43
0.00000001
 40
0.0
 40
0.0
 40
0.0
 40
0.0
 40
0.25
 40
0.25
 40
0.5
 40
0.5
 40
1.0
 40
1.0
 40
1.0
 40
1.0
 10
696.9121778701367
 20
1173.013545929751
 30
0.0
 10
696.8405242279782
 20
1172.813976759233
 30
0.0
 10
696.7858600482741
 20
1172.637881289825
 30
0.0
 10
696.713895263754
 20
1172.33512322306
 30
0.0
 10
696.6968224097784
 20
1172.20958835432
 30
0.0
 10
696.7036651928315
 20
1171.908327837845
 30
0.0
 10
696.785315298551
 20
1171.807398345469
 30
0.0
 10
696.950917819093
 20
1171.807398345469
 30
0.0
  0
SPLINE
  5
2A8
330
1F
100
AcDbEntity
  8
0
  6
Continuous
 62
     7
370
    25
100
AcDbSpline
210
0.0
220
0.0
230
1.0
 70
     8
 71
     3
 72
    12
 73
     8
 74
     0
 42
0.000000001
 43
0.00000001
 40
0.0
 40
0.0
 40
0.0
 40
0.0
 40
0.2500000000000006
 40
0.2500000000000006
 40
0.5000000000000011
 40
0.5000000000000011
 40
1.0
 40
1.0
 40
1.0
 40
1.0
 10
746.0468858144261
 20
1171.807398345469
 30
0.0
 10
746.1296787312415
 20
1171.807398345469
 30
0.0
 10
746.1920331630259
 20
1171.83286646804
 30
0.0
 10
746.2758070813773
 20
1171.935335035928
 30
0.0
 10
746.2969627847896
 20
1172.011801529816
 30
0.0
 10
746.3023982908828
 20
1172.31487624628
 30
0.0
 10
746.2288640461705
 20
1172.614599771239
 30
0.0
 10
746.0856257633825
 20
1173.013545929751
 30
0.0
  0
LINE
  5
2A9
330
1F
100
AcDbEntity
  8
0
  6
Continuous
 62
     7
370
    25
100
AcDbLine
 10
698.3852692421
 20
1171.807394697
 30
0.0
 11
696.9509169932
 21
1171.807394697
 31
0.0
  0
LINE
  5
2AA
330
1F
100
AcDbEntity
  8
0
  6
Continuous
 62
     7
370
    25
100
AcDbLine
 10
746.0468866404
 20
1171.807394697
 30
0.0
 11
744.6125343915
 21
1171.807394697
 31
0.0
  0
LINE
  5
2AB
330
1F
100
AcDbEntity
  8
0
  6
Continuous
 62
     8
370
    18
100
AcDbLine
 10
716.1140086602
 20
1033.6797538759
 30
0.0
 11
731.7077730324
 21
1033.6797538759
 31
0.0
  0
LINE
  5
2AC
330
1F
100
AcDbEntity
  8
0
  6
Continuous
 62
     8
370
    18
100
AcDbLine
 10
711.703245389
 20
1033.6797538759
 30
0.0
 11
712.2794760864
 21
1033.6797538759
 31
0.0
  0
LINE
  5
2AD
330
1F
100
AcDbEntity
  8
0
  6
Continuous
 62
     8
370
    18
100
AcDbLine
 10
706.1744787272
 20
1153.1143424647
 30
0.0
 11
695.4989012803
 21
1153.1143424647
 31
0.0
  0
LINE
  5
2AE
330
1F
100
AcDbEntity
  8
0
  6
Continuous
 62
     8
370
    18
100
AcDbLine
 10
695.4989012803
 20
1068.1073976295
 30
0.0
 11
704.5355540242
 21
1068.1073976295
 31
0.0
  0
LINE
  5
2AF
330
1F
100
AcDbEntity
  8
0
  6
Continuous
 62
     8
370
    18
100
AcDbLine
 10
736.8233249064
 20
1153.1143424647
 30
0.0
 11
747.4989023532
 21
1153.1143424647
 31
0.0
  0
LINE
  5
2B0
330
1F
100
AcDbEntity
  8
0
  6
Continuous
 62
     8
370
    18
100
AcDbLine
 10
738.4622496094
 20
1068.1073976295
 30
0.0
 11
747.4989023532
 21
1068.1073976295
 31
0.0
  0
LINE
  5
2B1
330
1F
100
AcDbEntity
  8
0
  6
Continuous
 62
     8
370
    18
100
AcDbLine
 10
747.4989023532
 20
1034.2073984059
 30
0.0
 11
731.7354258622
 21
1034.2073984059
 31
0.0
  0
LINE
  5
2B2
330
1F
100
AcDbEntity
  8
0
  6
Continuous
 62
     8
370
    18
100
AcDbLine
 10
711.6755925591
 20
1034.2073984059
 30
0.0
 11
695.4989012803
 21
1034.2073984059
 31
0.0
  0
ELLIPSE
  5
2B3
330
1F
100
AcDbEntity
  8
0
  6
Continuous
 62
     8
370
    18
100
AcDbEllipse
 10
721.4989018168
 20
1171.8322953758
 30
0.0
 11
24.79999999999995
 21
0.0
 31
0.0
210
0.0
220
0.0
230
1.0
 40
0.3639702343
 41
2.211479108000485
 42
3.010350926853079
  0
ELLIPSE
  5
2B4
330
1F
100
AcDbEntity
  8
0
  6
Continuous
 62
     8
370
    18
100
AcDbEllipse
 10
721.4989018168
 20
1171.8322953758
 30
0.0
 11
24.79999999999995
 21
0.0
 31
0.0
210
0.0
220
0.0
230
1.0
 40
0.3639702343
 41
0.1312417267367143
 42
0.9301135456067762
  0
CIRCLE
  5
2B5
330
1F
100
AcDbEntity
  8
0
  6
Continuous
 62
     7
370
    25
100
AcDbCircle
 10
226.147002237
 20
196.7052345603
 30
0.0
 40
17.5155864091181
  0
SPLINE
  5
2B6
330
1F
100
AcDbEntity
  8
0
  6
Continuous
 62
     7
370
    25
100
AcDbSpline
210
0.0
220
0.0
230
1.0
 70
     8
 71
     3
 72
    11
 73
     7
 74
     0
 42
0.000000001
 43
0.00000001
 40
0.0
 40
0.0
 40
0.0
 40
0.0
 40
0.1138519574447694
 40
0.4395820269751736
 40
0.7404060342498767
 40
0.9999999999999999
 40
0.9999999999999999
 40
0.9999999999999999
 40
0.9999999999999999
 10
285.4712680617313
 20
207.5452714662271
 30
0.0
 10
285.4292493537216
 20
207.4869076982721
 30
0.0
 10
285.2670152626059
 20
207.2615653853654
 30
0.0
 10
284.8903917679575
 20
206.9699813934381
 30
0.0
 10
284.3692997720498
 20
206.7354031616568
 30
0.0
 10
284.0122778234332
 20
206.72927341997
 30
0.0
 10
283.8468999305705
 20
206.7264340321736
 30
0.0
  0
SPLINE
  5
2B7
330
1F
100
AcDbEntity
  8
0
  6
Continuous
 62
     7
370
    25
100
AcDbSpline
210
0.0
220
0.0
230
1.0
 70
     8
 71
     3
 72
    12
 73
     8
 74
     0
 42
0.000000001
 43
0.00000001
 40
0.0
 40
0.0
 40
0.0
 40
0.0
 40
0.2970092244407904
 40
0.5632521804309004
 40
0.7878031634315933
 40
0.9714011241379331
 40
0.9999999999999999
 40
0.9999999999999999
 40
0.9999999999999999
 40
0.9999999999999999
 10
283.7702744344215
 20
186.6993898029642
 30
0.0
 10
283.9529138691821
 20
186.6943985337319
 30
0.0
 10
284.2992736836131
 20
186.6849330254349
 30
0.0
 10
284.7560728795209
 20
186.5069052775313
 30
0.0
 10
285.0994489632178
 20
186.2779567475157
 30
0.0
 10
285.2990159795231
 20
186.0964472032476
 30
0.0
 10
285.3768885450855
 20
185.9927156340176
 30
0.0
 10
285.3873838374357
 20
185.9787351886945
 30
0.0
  0
LINE
  5
2B8
330
1F
100
AcDbEntity
  8
0
  6
Continuous
 62
     7
370
    25
100
AcDbLine
 10
283.8487812022
 20
206.7052343364
 30
0.0
 11
240.5274008105
 21
206.7052343364
 31
0.0
  0
LINE
  5
2B9
330
1F
100
AcDbEntity
  8
0
  6
Continuous
 62
     7
370
    25
100
AcDbLine
 10
240.5274008105
 20
186.7052347834
 30
0.0
 11
283.7812826673
 21
186.7052347834
 31
0.0
  0
LINE
  5
2BA
330
1F
100
AcDbEntity
  8
0
  6
Continuous
 62
     7
370
    25
100
AcDbLine
 10
317.9901391903
 20
173.3224907394
 30
0.0
 11
318.22763576
 21
173.414598542
 31
0.0
  0
SPLINE
  5
2BB
330
1F
100
AcDbEntity
  8
0
  6
Continuous
 62
     7
370
    25
100
AcDbSpline
210
0.0
220
0.0
230
1.0
 70
     8
 71
     3
 72
    26
 73
    22
 74
     0
 42
0.000000001
 43
0.00000001
 40
0.0
 40
0.0
 40
0.0
 40
0.0
 40
0.1250000000000001
 40
0.1250000000000001
 40
0.2500000000000001
 40
0.2500000000000001
 40
0.3750000000000002
 40
0.3750000000000002
 40
0.5000000000000002
 40
0.5000000000000002
 40
0.6250000000000002
 40
0.6250000000000002
 40
0.7500000000000003
 40
0.7500000000000003
 40
0.8125000000000002
 40
0.8125000000000002
 40
0.8750000000000001
 40
0.8750000000000001
 40
0.9375000000000001
 40
0.9375000000000001
 40
1.0
 40
1.0
 40
1.0
 40
1.0
 10
346.5424087923299
 20
180.1636193549474
 30
0.0
 10
345.3369011973102
 20
180.0765727317151
 30
0.0
 10
344.103364133647
 20
179.9644846240834
 30
0.0
 10
341.5573609794897
 20
179.6733773818168
 30
0.0
 10
340.2446322647968
 20
179.4943526247546
 30
0.0
 10
337.5280813099137
 20
179.051922813749
 30
0.0
 10
336.1215619348033
 20
178.7871187868557
 30
0.0
 10
333.2394847799575
 20
178.1638380939107
 30
0.0
 10
331.765513293876
 20
177.8058234147121
 30
0.0
 10
328.8641205782419
 20
177.032370504324
 30
0.0
 10
327.4387493266745
 20
176.6176379674082
 30
0.0
 10
324.7776085448227
 20
175.7897478789106
 30
0.0
 10
323.5438889925236
 20
175.3772960216024
 30
0.0
 10
321.9165766251387
 20
174.804866782964
 30
0.0
 10
321.4108849885801
 20
174.6217074941893
 30
0.0
 10
320.4778132097771
 20
174.2764398762944
 30
0.0
 10
320.0504971293449
 20
174.1143536001204
 30
0.0
 10
319.271173635138
 20
173.8151095933975
 30
0.0
 10
318.9192302831754
 20
173.6779739157946
 30
0.0
 10
318.2777767567682
 20
173.4299305391021
 30
0.0
 10
317.9883306441355
 20
173.3190448929586
 30
0.0
 10
317.7177661177695
 20
173.220303081784
 30
0.0
  0
SPLINE
  5
2BC
330
1F
100
AcDbEntity
  8
0
  6
Continuous
 62
     7
370
    25
100
AcDbSpline
210
0.0
220
0.0
230
1.0
 70
     8
 71
     3
 72
    26
 73
    22
 74
     0
 42
0.000000001
 43
0.00000001
 40
0.0
 40
0.0
 40
0.0
 40
0.0
 40
0.0624999999999999
 40
0.0624999999999999
 40
0.1249999999999999
 40
0.1249999999999999
 40
0.1874999999999998
 40
0.1874999999999998
 40
0.2499999999999997
 40
0.2499999999999997
 40
0.3749999999999997
 40
0.3749999999999997
 40
0.4999999999999996
 40
0.4999999999999996
 40
0.6249999999999996
 40
0.6249999999999996
 40
0.7499999999999994
 40
0.7499999999999994
 40
0.8749999999999998
 40
0.8749999999999998
 40
1.0
 40
1.0
 40
1.0
 40
1.0
 10
317.7177661177695
 20
220.1901660380988
 30
0.0
 10
317.9883306441355
 20
220.0914242269242
 30
0.0
 10
318.2777767567682
 20
219.9805385807807
 30
0.0
 10
318.9192302831754
 20
219.7324952040882
 30
0.0
 10
319.271173635138
 20
219.5953595264853
 30
0.0
 10
320.0504971293449
 20
219.2961155197624
 30
0.0
 10
320.4778132097771
 20
219.1340292435884
 30
0.0
 10
321.4108849885801
 20
218.7887616256936
 30
0.0
 10
321.9165766251387
 20
218.6056023369188
 30
0.0
 10
323.5438889925236
 20
218.0331730982804
 30
0.0
 10
324.7776085448227
 20
217.6207212409723
 30
0.0
 10
327.4387493266745
 20
216.7928311524747
 30
0.0
 10
328.8641205782419
 20
216.3780986155589
 30
0.0
 10
331.765513293876
 20
215.6046457051708
 30
0.0
 10
333.2394847799575
 20
215.2466310259721
 30
0.0
 10
336.1215619348033
 20
214.6233503330272
 30
0.0
 10
337.5280813099137
 20
214.3585463061338
 30
0.0
 10
340.2446322647968
 20
213.9161164951283
 30
0.0
 10
341.5573609794897
 20
213.7370917380661
 30
0.0
 10
344.1033641336469
 20
213.4459844957994
 30
0.0
 10
345.3369011973102
 20
213.3338963881677
 30
0.0
 10
346.5424087923299
 20
213.2468497649354
 30
0.0
  0
SPLINE
  5
2BD
330
1F
100
AcDbEntity
  8
0
  6
Continuous
 62
     7
370
    25
100
AcDbSpline
210
0.0
220
0.0
230
1.0
 70
     8
 71
     3
 72
    22
 73
    18
 74
     0
 42
0.000000001
 43
0.00000001
 40
0.0
 40
0.0
 40
0.0
 40
0.0
 40
0.125
 40
0.125
 40
0.25
 40
0.25
 40
0.375
 40
0.375
 40
0.5
 40
0.5
 40
0.625
 40
0.625
 40
0.75
 40
0.75
 40
0.875
 40
0.875
 40
1.0
 40
1.0
 40
1.0
 40
1.0
 10
396.3616629376911
 20
212.7198186956968
 30
0.0
 10
396.5570320178175
 20
212.718795736237
 30
0.0
 10
396.7534687959406
 20
212.7172082542603
 30
0.0
 10
397.1498041107502
 20
212.6886757917214
 30
0.0
 10
397.349246005219
 20
212.6618506635513
 30
0.0
 10
397.7345994388552
 20
212.5702453572072
 30
0.0
 10
397.9200543358048
 20
212.5055850314253
 30
0.0
 10
398.2567357350738
 20
212.3335074040246
 30
0.0
 10
398.4075055951755
 20
212.2262099547979
 30
0.0
 10
398.66411222249
 20
211.9682562084976
 30
0.0
 10
398.7706187753755
 20
211.8169266095486
 30
0.0
 10
398.9409311923494
 20
211.4793488331916
 30
0.0
 10
399.0046195966508
 20
211.2935579192847
 30
0.0
 10
399.0942059506511
 20
210.9077301259072
 30
0.0
 10
399.1199864405631
 20
210.7081505099378
 30
0.0
 10
399.1464433146126
 20
210.3116712330527
 30
0.0
 10
399.1470022389631
 20
210.1152288356381
 30
0.0
 10
399.1470022389631
 20
209.919857077404
 30
0.0
  0
SPLINE
  5
2BE
330
1F
100
AcDbEntity
  8
0
  6
Continuous
 62
     7
370
    25
100
AcDbSpline
210
0.0
220
0.0
230
1.0
 70
     8
 71
     3
 72
    22
 73
    18
 74
     0
 42
0.000000001
 43
0.00000001
 40
0.0
 40
0.0
 40
0.0
 40
0.0
 40
0.125
 40
0.125
 40
0.25
 40
0.25
 40
0.375
 40
0.375
 40
0.5
 40
0.5
 40
0.625
 40
0.625
 40
0.75
 40
0.75
 40
0.875
 40
0.875
 40
1.0
 40
1.0
 40
1.0
 40
1.0
 10
399.1470022389631
 20
183.4906120424788
 30
0.0
 10
399.1470022389631
 20
183.2952402842446
 30
0.0
 10
399.1464433146126
 20
183.0987978868301
 30
0.0
 10
399.1199864405631
 20
182.702318609945
 30
0.0
 10
399.0942059506511
 20
182.5027389939756
 30
0.0
 10
399.0046195966508
 20
182.1169112005981
 30
0.0
 10
398.9409311923494
 20
181.9311202866912
 30
0.0
 10
398.7706187753755
 20
181.5935425103342
 30
0.0
 10
398.66411222249
 20
181.4422129113852
 30
0.0
 10
398.4075055951755
 20
181.1842591650849
 30
0.0
 10
398.2567357350738
 20
181.0769617158582
 30
0.0
 10
397.9200543358048
 20
180.9048840884575
 30
0.0
 10
397.7345994388552
 20
180.8402237626756
 30
0.0
 10
397.349246005219
 20
180.7486184563315
 30
0.0
 10
397.1498041107502
 20
180.7217933281614
 30
0.0
 10
396.7534687959406
 20
180.6932608656225
 30
0.0
 10
396.5570320178175
 20
180.6916733836458
 30
0.0
 10
396.3616629376911
 20
180.690650424186
 30
0.0
  0
SPLINE
  5
2BF
330
1F
100
AcDbEntity
  8
0
  6
Continuous
 62
     7
370
    25
100
AcDbSpline
210
0.0
220
0.0
230
1.0
 70
     8
 71
     3
 72
    12
 73
     8
 74
     0
 42
0.000000001
 43
0.00000001
 40
0.0
 40
0.0
 40
0.0
 40
0.0
 40
0.5000000000000009
 40
0.5000000000000009
 40
0.7500000000000004
 40
0.7500000000000004
 40
1.0
 40
1.0
 40
1.0
 40
1.0
 10
346.5424087923299
 20
213.2468497649354
 30
0.0
 10
348.5708793036681
 20
213.1003790922762
 30
0.0
 10
350.5214067395649
 20
213.0246004802731
 30
0.0
 10
353.4203353152961
 20
212.9605707653069
 30
0.0
 10
354.3820455646916
 20
212.9475551850261
 30
0.0
 10
356.305326361551
 20
212.9295308388997
 30
0.0
 10
357.2670076168863
 20
212.924519702949
 30
0.0
 10
358.2291170762701
 20
212.9194820635631
 30
0.0
  0
SPLINE
  5
2C0
330
1F
100
AcDbEntity
  8
0
  6
Continuous
 62
     7
370
    25
100
AcDbSpline
210
0.0
220
0.0
230
1.0
 70
     8
 71
     3
 72
    12
 73
     8
 74
     0
 42
0.000000001
 43
0.00000001
 40
0.0
 40
0.0
 40
0.0
 40
0.0
 40
0.25
 40
0.25
 40
0.5
 40
0.5
 40
1.0
 40
1.0
 40
1.0
 40
1.0
 10
358.2291170762701
 20
180.4909870563198
 30
0.0
 10
357.2670076168863
 20
180.4859494169339
 30
0.0
 10
356.305326361551
 20
180.4809382809831
 30
0.0
 10
354.3820455646916
 20
180.4629139348567
 30
0.0
 10
353.4203353152961
 20
180.4498983545759
 30
0.0
 10
350.5214067395649
 20
180.3858686396097
 30
0.0
 10
348.5708793036681
 20
180.3100900276066
 30
0.0
 10
346.5424087923299
 20
180.1636193549474
 30
0.0
  0
LINE
  5
2C1
330
1F
100
AcDbEntity
  8
0
  6
Continuous
 62
     7
370
    25
100
AcDbLine
 10
396.3616658637
 20
180.6906511511
 30
0.0
 11
358.2291175315
 21
180.490986767
 31
0.0
  0
LINE
  5
2C2
330
1F
100
AcDbEntity
  8
0
  6
Continuous
 62
     7
370
    25
100
AcDbLine
 10
358.2291175315
 20
212.9194823529
 30
0.0
 11
396.3616658637
 21
212.7198179688
 31
0.0
  0
LINE
  5
2C3
330
1F
100
AcDbEntity
  8
0
  6
Continuous
 62
     7
370
    25
100
AcDbLine
 10
399.1470058152
 20
196.7052345599
 30
0.0
 11
399.1470058152
 21
183.4906119357
 31
0.0
  0
LINE
  5
2C4
330
1F
100
AcDbEntity
  8
0
  6
Continuous
 62
     7
370
    25
100
AcDbLine
 10
399.1470058152
 20
209.9198571841
 30
0.0
 11
399.1470058152
 21
196.7052345599
 31
0.0
  0
ARC
  5
2C5
330
1F
100
AcDbEntity
  8
0
  6
Continuous
 62
     7
370
    25
100
AcDbCircle
 10
309.147002239
 20
196.7052345599
 30
0.0
 40
25.00000000000004
100
AcDbArc
 50
69.9505790809
 51
180.0
  0
ARC
  5
2C6
330
1F
100
AcDbEntity
  8
0
  6
Continuous
 62
     7
370
    25
100
AcDbCircle
 10
309.147002239
 20
196.7052345599
 30
0.0
 40
25.00000000000001
100
AcDbArc
 50
180.0
 51
290.0494209191
  0
SPLINE
  5
2C7
330
1F
100
AcDbEntity
  8
0
  6
Continuous
 62
     7
370
    25
100
AcDbSpline
210
0.0
220
0.0
230
1.0
 70
     8
 71
     3
 72
     8
 73
     4
 74
     0
 42
0.000000001
 43
0.00000001
 40
0.0
 40
0.0
 40
0.0
 40
0.0
 40
1.0
 40
1.0
 40
1.0
 40
1.0
 10
309.1470022389469
 20
222.7052345599251
 30
0.0
 10
310.7895348138946
 20
222.7052345599261
 30
0.0
 10
312.4174491118347
 20
222.550970961608
 30
0.0
 10
314.0307450812888
 20
222.2424438015402
 30
0.0
  0
SPLINE
  5
2C8
330
1F
100
AcDbEntity
  8
0
  6
Continuous
 62
     7
370
    25
100
AcDbSpline
210
0.0
220
0.0
230
1.0
 70
     8
 71
     3
 72
     8
 73
     4
 74
     0
 42
0.000000001
 43
0.00000001
 40
0.0
 40
0.0
 40
0.0
 40
0.0
 40
1.0
 40
1.0
 40
1.0
 40
1.0
 10
314.0307450812888
 20
171.16802531831
 30
0.0
 10
312.4174493672821
 20
170.8594982070939
 30
0.0
 10
310.7895353270882
 20
170.7052346087749
 30
0.0
 10
309.1470030122173
 20
170.7052345599251
 30
0.0
  0
SPLINE
  5
2C9
330
1F
100
AcDbEntity
  8
0
  6
Continuous
 62
     7
370
    25
100
AcDbSpline
210
0.0
220
0.0
230
1.0
 70
     8
 71
     3
 72
    20
 73
    16
 74
     0
 42
0.000000001
 43
0.00000001
 40
0.0
 40
0.0
 40
0.0
 40
0.0
 40
0.03125
 40
0.03125
 40
0.0625
 40
0.0625
 40
0.1249999999999999
 40
0.1249999999999999
 40
0.2499999999999998
 40
0.2499999999999998
 40
0.4999999999999999
 40
0.4999999999999999
 40
0.7499999999999999
 40
0.7499999999999999
 40
1.0
 40
1.0
 40
1.0
 40
1.0
 10
314.0307450812891
 20
222.2424438015402
 30
0.0
 10
314.3373862194508
 20
222.1838013001041
 30
0.0
 10
314.643225599225
 20
222.1201888864181
 30
0.0
 10
315.2550416895593
 20
221.994152634795
 30
0.0
 10
315.5609902177251
 20
221.9313648802479
 30
0.0
 10
316.4795204209537
 20
221.7468977557959
 30
0.0
 10
317.0927428952972
 20
221.6288651508945
 30
0.0
 10
318.9349997281843
 20
221.289503620676
 30
0.0
 10
320.1664397431256
 20
221.0818652069039
 30
0.0
 10
323.8690480180241
 20
220.5061194398972
 30
0.0
 10
326.3479968040642
 20
220.1840618135507
 30
0.0
 10
331.319730295469
 20
219.7085223259449
 30
0.0
 10
333.8159641316856
 20
219.5569597664125
 30
0.0
 10
338.8090560120754
 20
219.4033755828241
 30
0.0
 10
341.3071762935083
 20
219.3991044099535
 30
0.0
 10
343.805294649134
 20
219.3947443669361
 30
0.0
  0
SPLINE
  5
2CA
330
1F
100
AcDbEntity
  8
0
  6
Continuous
 62
     7
370
    25
100
AcDbSpline
210
0.0
220
0.0
230
1.0
 70
     8
 71
     3
 72
    20
 73
    16
 74
     0
 42
0.000000001
 43
0.00000001
 40
0.0
 40
0.0
 40
0.0
 40
0.0
 40
0.2499999999999999
 40
0.2499999999999999
 40
0.4999999999999999
 40
0.4999999999999999
 40
0.7499999999999998
 40
0.7499999999999998
 40
0.8749999999999999
 40
0.8749999999999999
 40
0.9375
 40
0.9375
 40
0.96875
 40
0.96875
 40
1.0
 40
1.0
 40
1.0
 40
1.0
 10
343.805294649134
 20
174.015724752914
 30
0.0
 10
341.3071762935855
 20
174.0113647098968
 30
0.0
 10
338.8090560122297
 20
174.0070935370265
 30
0.0
 10
333.8159641319942
 20
173.8535093534514
 30
0.0
 10
331.3197302958542
 20
173.7019467939316
 30
0.0
 10
326.3479968046011
 20
173.2264073063612
 30
0.0
 10
323.8690480186366
 20
172.9043496800359
 30
0.0
 10
320.1664397438494
 20
172.328603913065
 30
0.0
 10
318.934999728945
 20
172.1209654993058
 30
0.0
 10
317.0927428961127
 20
171.7816039691102
 30
0.0
 10
316.4795204217874
 20
171.6635713642172
 30
0.0
 10
315.560990218586
 20
171.4791042397773
 30
0.0
 10
315.2550416904292
 20
171.4163164852343
 30
0.0
 10
314.6432256001139
 20
171.2902802336153
 30
0.0
 10
314.3373909543047
 20
171.2266687252465
 30
0.0
 10
314.0307450812891
 20
171.16802531831
 30
0.0
  0
SPLINE
  5
2CB
330
1F
100
AcDbEntity
  8
0
  6
Continuous
 62
     7
370
    25
100
AcDbSpline
210
0.0
220
0.0
230
1.0
 70
     8
 71
     3
 72
    24
 73
    20
 74
     0
 42
0.000000001
 43
0.00000001
 40
0.0
 40
0.0
 40
0.0
 40
0.0
 40
0.1250000000000075
 40
0.1250000000000075
 40
0.2500000000000149
 40
0.2500000000000149
 40
0.3750000000000224
 40
0.3750000000000224
 40
0.5000000000000299
 40
0.5000000000000299
 40
0.5625000000000288
 40
0.5625000000000288
 40
0.6250000000000275
 40
0.6250000000000275
 40
0.7500000000000183
 40
0.7500000000000183
 40
0.8750000000000092
 40
0.8750000000000092
 40
1.0
 40
1.0
 40
1.0
 40
1.0
 10
532.4525872897341
 20
219.0654923944613
 30
0.0
 10
532.6748892133485
 20
219.0651044040173
 30
0.0
 10
532.8975428357506
 20
219.0639223122658
 30
0.0
 10
533.3390041843959
 20
219.0344564736854
 30
0.0
 10
533.557958652896
 20
219.0068416972599
 30
0.0
 10
533.9900998441219
 20
218.9097821900396
 30
0.0
 10
534.2049270514145
 20
218.8395635537906
 30
0.0
 10
534.6029051393072
 20
218.6442066340392
 30
0.0
 10
534.7907961396797
 20
218.5148945141896
 30
0.0
 10
535.0242005889266
 20
218.280774556831
 30
0.0
 10
535.0947521136206
 20
218.1960221332357
 30
0.0
 10
535.2220360435922
 20
218.0137227334161
 30
0.0
 10
535.2786727149863
 20
217.9159809531267
 30
0.0
 10
535.4244441275042
 20
217.6173638752772
 30
0.0
 10
535.4928568242212
 20
217.4074231513841
 30
0.0
 10
535.5901108244168
 20
216.9725998835728
 30
0.0
 10
535.6175610697458
 20
216.7516066717189
 30
0.0
 10
535.6462415473239
 20
216.309576930084
 30
0.0
 10
535.6470022389631
 20
216.087564975522
 30
0.0
 10
535.6470022389631
 20
215.8654972683388
 30
0.0
  0
SPLINE
  5
2CC
330
1F
100
AcDbEntity
  8
0
  6
Continuous
 62
     7
370
    25
100
AcDbSpline
210
0.0
220
0.0
230
1.0
 70
     8
 71
     3
 72
    24
 73
    20
 74
     0
 42
0.000000001
 43
0.00000001
 40
0.0
 40
0.0
 40
0.0
 40
0.0
 40
0.1249999999999884
 40
0.1249999999999884
 40
0.2499999999999767
 40
0.2499999999999767
 40
0.3749999999999651
 40
0.3749999999999651
 40
0.4374999999999636
 40
0.4374999999999636
 40
0.4999999999999621
 40
0.4999999999999621
 40
0.6249999999999716
 40
0.6249999999999716
 40
0.749999999999981
 40
0.749999999999981
 40
0.8749999999999906
 40
0.8749999999999906
 40
1.0
 40
1.0
 40
1.0
 40
1.0
 10
535.6470022389631
 20
177.5449718515113
 30
0.0
 10
535.6470022389631
 20
177.3229041443281
 30
0.0
 10
535.6462415473238
 20
177.1008921897662
 30
0.0
 10
535.6175610697458
 20
176.6588624481313
 30
0.0
 10
535.5901108244167
 20
176.4378692362774
 30
0.0
 10
535.4928568242213
 20
176.003045968466
 30
0.0
 10
535.4244441275043
 20
175.793105244573
 30
0.0
 10
535.2786727149862
 20
175.4944881667235
 30
0.0
 10
535.222036043592
 20
175.396746386434
 30
0.0
 10
535.0947521136204
 20
175.2144469866144
 30
0.0
 10
535.0242005889266
 20
175.1296945630191
 30
0.0
 10
534.7907961396797
 20
174.8955746056606
 30
0.0
 10
534.602905139307
 20
174.766262485811
 30
0.0
 10
534.2049270514145
 20
174.5709055660596
 30
0.0
 10
533.9900998441218
 20
174.5006869298106
 30
0.0
 10
533.557958652896
 20
174.4036274225902
 30
0.0
 10
533.3390041843959
 20
174.3760126461647
 30
0.0
 10
532.8975428357505
 20
174.3465468075843
 30
0.0
 10
532.6748892133485
 20
174.3453647158328
 30
0.0
 10
532.4525872897341
 20
174.3449767253888
 30
0.0
  0
SPLINE
  5
2CD
330
1F
100
AcDbEntity
  8
0
  6
Continuous
 62
     7
370
    25
100
AcDbSpline
210
0.0
220
0.0
230
1.0
 70
    24
 71
     3
 72
    14
 73
    10
 74
     0
 42
0.000000001
 43
0.00000001
 40
0.0
 40
0.0
 40
0.0
 40
0.0
 40
0.0081923737985228
 40
0.0081923737985228
 40
0.0081923737985228
 40
0.016384744548843
 40
0.016384744548843
 40
0.016384744548843
 40
0.0191602871971882
 40
0.0191602871971882
 40
0.0191602871971882
 40
0.0191602871971882
 10
535.6470022389631
 20
215.8654972683388
 30
0.0
 10
535.6470022389631
 20
213.1347143435459
 30
0.0
 10
535.6470022389631
 20
210.4039225642059
 30
0.0
 10
535.6470022389631
 20
207.6731337020781
 30
0.0
 10
535.6470022389631
 20
204.9423458462557
 30
0.0
 10
535.6470022389631
 20
202.2115589832794
 30
0.0
 10
535.6470022389631
 20
199.4807729677129
 30
0.0
 10
535.6470022389631
 20
198.5555935016087
 30
0.0
 10
535.6470022389631
 20
197.6304140714066
 30
0.0
 10
535.6470022389631
 20
196.7052345599251
 30
0.0
  0
SPLINE
  5
2CE
330
1F
100
AcDbEntity
  8
0
  6
Continuous
 62
     7
370
    25
100
AcDbSpline
210
0.0
220
0.0
230
1.0
 70
    24
 71
     3
 72
    14
 73
    10
 74
     0
 42
0.000000001
 43
0.00000001
 40
0.0
 40
0.0
 40
0.0
 40
0.0
 40
0.00277554271217
 40
0.00277554271217
 40
0.00277554271217
 40
0.0109679136508772
 40
0.0109679136508772
 40
0.0109679136508772
 40
0.0191602876377872
 40
0.0191602876377872
 40
0.0191602876377872
 40
0.0191602876377872
 10
535.6470022389631
 20
196.7052345599251
 30
0.0
 10
535.6470022389631
 20
195.7800550484436
 30
0.0
 10
535.6470022389631
 20
194.8548756182415
 30
0.0
 10
535.6470022389631
 20
193.9296961521373
 30
0.0
 10
535.6470022389631
 20
191.1989101365708
 30
0.0
 10
535.6470022389631
 20
188.4681232735944
 30
0.0
 10
535.6470022389631
 20
185.7373354177721
 30
0.0
 10
535.6470022389631
 20
183.0065465556442
 30
0.0
 10
535.6470022389631
 20
180.2757547763042
 30
0.0
 10
535.6470022389631
 20
177.5449718515113
 30
0.0
  0
SPLINE
  5
2CF
330
1F
100
AcDbEntity
  8
0
  6
Continuous
 62
     7
370
    25
100
AcDbSpline
210
0.0
220
0.0
230
1.0
 70
    24
 71
     3
 72
     8
 73
     4
 74
     0
 42
0.000000001
 43
0.00000001
 40
0.0
 40
0.0
 40
0.0
 40
0.0
 40
0.0007638974461399
 40
0.0007638974461399
 40
0.0007638974461399
 40
0.0007638974461399
 10
531.6886917121756
 20
219.0668256451121
 30
0.0
 10
531.9433236828226
 20
219.0663812280339
 30
0.0
 10
532.197955576186
 20
219.0659368110907
 30
0.0
 10
532.4525872897341
 20
219.0654923944613
 30
0.0
  0
LWPOLYLINE
  5
2D0
330
1F
100
AcDbEntity
  8
0
  6
Continuous
 62
     7
370
    25
100
AcDbPolyline
 90
        6
 70
   128
 43
0.0
 10
349.6403638909
 20
219.3845597531
 10
440.9902860114
 20
219.2251247789
 10
486.665250797
 20
219.1454072918
 10
509.5027406404
 20
219.1055466856
 10
520.9214706609
 20
219.0856182452
 10
531.6886921117
 20
219.0668260182
  0
SPLINE
  5
2D1
330
1F
100
AcDbEntity
  8
0
  6
Continuous
 62
     7
370
    25
100
AcDbSpline
210
0.0
220
0.0
230
1.0
 70
    24
 71
     3
 72
     8
 73
     4
 74
     0
 42
0.000000001
 43
0.00000001
 40
0.0000000000000002
 40
0.0000000000000002
 40
0.0000000000000002
 40
0.0000000000000002
 40
0.00076389744614
 40
0.00076389744614
 40
0.00076389744614
 40
0.00076389744614
 10
532.4525872897341
 20
174.3449767253888
 30
0.0
 10
532.197955576186
 20
174.3445323087594
 30
0.0
 10
531.9433236828226
 20
174.3440878918162
 30
0.0
 10
531.6886917121756
 20
174.3436434747381
 30
0.0
  0
SPLINE
  5
2D2
330
1F
100
AcDbEntity
  8
0
  6
Continuous
 62
     7
370
    25
100
AcDbSpline
210
0.0
220
0.0
230
1.0
 70
    24
 71
     3
 72
    20
 73
    16
 74
     0
 42
0.000000001
 43
0.00000001
 40
0.0
 40
0.0
 40
0.0
 40
0.0
 40
0.0107672338103709
 40
0.0107672338103709
 40
0.0107672338103709
 40
0.0221859919719183
 40
0.0221859919719183
 40
0.0221859919719183
 40
0.0450235082937131
 40
0.0450235082937131
 40
0.0450235082937131
 40
0.0906985409373021
 40
0.0906985409373021
 40
0.0906985409373021
 40
0.1820486062246995
 40
0.1820486062246995
 40
0.1820486062246995
 40
0.1820486062246995
 10
531.6886916498325
 20
174.3436434746293
 30
0.0
 10
528.0996206564712
 20
174.3373793576766
 30
0.0
 10
524.5105468114156
 20
174.3311152357466
 30
0.0
 10
520.9214743551021
 20
174.3248511162406
 30
0.0
 10
517.1152274403264
 20
174.3182079554145
 30
0.0
 10
513.3089805350426
 20
174.311564794605
 30
0.0
 10
509.5027336209481
 20
174.3049216337801
 30
0.0
 10
501.8902397929763
 20
174.2916353121307
 30
0.0
 10
494.2777459658021
 20
174.2783489904827
 30
0.0
 10
486.6652521384871
 20
174.2650626688344
 30
0.0
 10
471.4402644838573
 20
174.2384900255379
 30
0.0
 10
456.2152768298182
 20
174.2119173822424
 30
0.0
 10
440.9902891757561
 20
174.1853447389469
 30
0.0
 10
410.5403138676101
 20
174.1321994523558
 30
0.0
 10
380.0903385525767
 20
174.0790541657526
 30
0.0
 10
349.6403632360684
 20
174.025908879147
 30
0.0
  0
ARC
  5
2D3
330
1F
100
AcDbEntity
  8
0
  6
Continuous
 62
     7
370
    25
100
AcDbCircle
 10
309.147002239
 20
196.7052345599
 30
0.0
 40
26.0
100
AcDbArc
 50
90.0
 51
180.0
  0
ARC
  5
2D4
330
1F
100
AcDbEntity
  8
0
  6
Continuous
 62
     7
370
    25
100
AcDbCircle
 10
309.147002239
 20
196.7052345599
 30
0.0
 40
26.00000000000001
100
AcDbArc
 50
180.0
 51
270.000001704
  0
LINE
  5
2D5
330
1F
100
AcDbEntity
  8
0
  6
Continuous
 62
     7
370
    25
100
AcDbLine
 10
343.8052964101
 20
219.3947446968
 30
0.0
 11
349.6403638909
 21
219.3845597531
 31
0.0
  0
LINE
  5
2D6
330
1F
100
AcDbEntity
  8
0
  6
Continuous
 62
     7
370
    25
100
AcDbLine
 10
349.6403638909
 20
174.0259093668
 30
0.0
 11
343.8052964101
 21
174.0157244231
 31
0.0
  0
ARC
  5
2D7
330
1F
100
AcDbEntity
  8
0
  6
Continuous
 62
     7
370
    25
100
AcDbCircle
 10
309.147002239
 20
196.7052345587
 30
0.0
 40
75.00000000000003
100
AcDbArc
 50
191.3339641875
 51
342.402714637
  0
ARC
  5
2D8
330
1F
100
AcDbEntity
  8
0
  6
Continuous
 62
     7
370
    25
100
AcDbCircle
 10
309.147002239
 20
196.7052345587
 30
0.0
 40
75.00000000000001
100
AcDbArc
 50
17.5734759643
 51
168.6660358104
  0
ENDSEC
  0
SECTION
  2
OBJECTS
  0
DICTIONARY
  5
C
330
0
100
AcDbDictionary
281
     1
  3
ACAD_GROUP
350
D
  3
ACAD_LAYOUT
350
1A
  3
ACAD_MLINESTYLE
350
17
  3
ACAD_PLOTSETTINGS
350
19
  3
ACAD_PLOTSTYLENAME
350
E
  3
ACAD_SCALELIST
350
47
  0
DICTIONARY
  5
D
102
{ACAD_REACTORS
330
C
102
}
330
C
100
AcDbDictionary
281
     1
  0
DICTIONARY
  5
1A
102
{ACAD_REACTORS
330
C
102
}
330
C
100
AcDbDictionary
281
     1
  3
Layout1
350
1E
  3
Layout2
350
26
  3
Model
350
22
  0
DICTIONARY
  5
17
102
{ACAD_REACTORS
330
C
102
}
330
C
100
AcDbDictionary
281
     1
  3
Standard
350
18
  0
DICTIONARY
  5
19
102
{ACAD_REACTORS
330
C
102
}
330
C
100
AcDbDictionary
281
     1
  0
ACDBDICTIONARYWDFLT
  5
E
102
{ACAD_REACTORS
330
C
102
}
330
C
100
AcDbDictionary
281
     1
  3
Normal
350
F
100
AcDbDictionaryWithDefault
340
F
  0
DICTIONARY
  5
47
102
{ACAD_REACTORS
330
C
102
}
330
C
100
AcDbDictionary
281
     1
  3
A0
350
48
  3
A1
350
49
  3
A2
350
4A
  3
A3
350
4B
  3
A4
350
4C
  3
A5
350
4D
  3
A6
350
4E
  3
A7
350
4F
  3
A8
350
50
  3
A9
350
51
  3
B0
350
52
  3
B1
350
53
  3
B2
350
54
  3
B3
350
55
  3
B4
350
56
  3
B5
350
57
  3
B6
350
58
  3
B7
350
59
  3
B8
350
5A
  3
B9
350
5B
  3
C0
350
5C
  3
C1
350
5D
  3
C2
350
5E
  3
C3
350
5F
  3
C4
350
60
  3
C5
350
61
  3
C6
350
62
  3
C7
350
63
  3
C8
350
64
  3
C9
350
65
  3
D0
350
66
  3
D1
350
67
  3
D2
350
68
  0
LAYOUT
  5
1E
102
{ACAD_REACTORS
330
1A
102
}
330
1A
100
AcDbPlotSettings
  1

  2
none_device
  4

  6

 40
0.0
 41
0.0
 42
0.0
 43
0.0
 44
0.0
 45
0.0
 46
0.0
 47
0.0
 48
0.0
 49
0.0
140
0.0
141
0.0
142
1.0
143
1.0
 70
   688
 72
     1
 73
     0
 74
     5
  7

 75
    16
147
1.0
148
0.0
149
0.0
100
AcDbLayout
  1
Layout1
 70
     1
 71
     1
 10
0.0
 20
0.0
 11
420.0
 21
297.0
 12
0.0
 22
0.0
 32
0.0
 14
1.0000000000E+20
 24
1.0000000000E+20
 34
1.0000000000E+20
 15
-1.0000000000E+20
 25
-1.0000000000E+20
 35
-1.0000000000E+20
146
0.0
 13
0.0
 23
0.0
 33
0.0
 16
1.0
 26
0.0
 36
0.0
 17
0.0
 27
1.0
 37
0.0
 76
     0
330
1B
  0
LAYOUT
  5
26
102
{ACAD_REACTORS
330
1A
102
}
330
1A
100
AcDbPlotSettings
  1

  2
none_device
  4

  6

 40
0.0
 41
0.0
 42
0.0
 43
0.0
 44
0.0
 45
0.0
 46
0.0
 47
0.0
 48
0.0
 49
0.0
140
0.0
141
0.0
142
1.0
143
1.0
 70
   688
 72
     1
 73
     0
 74
     5
  7

 75
    16
147
1.0
148
0.0
149
0.0
100
AcDbLayout
  1
Layout2
 70
     1
 71
     2
 10
0.0
 20
0.0
 11
0.0
 21
0.0
 12
0.0
 22
0.0
 32
0.0
 14
0.0
 24
0.0
 34
0.0
 15
0.0
 25
0.0
 35
0.0
146
0.0
 13
0.0
 23
0.0
 33
0.0
 16
1.0
 26
0.0
 36
0.0
 17
0.0
 27
1.0
 37
0.0
 76
     0
330
23
  0
LAYOUT
  5
22
102
{ACAD_REACTORS
330
1A
102
}
330
1A
100
AcDbPlotSettings
  1

  2
none_device
  4
Letter_(8.50_x_11.00_Inches)
  6

 40
6.35
 41
6.35
 42
6.35000508
 43
6.35000508
 44
215.9
 45
279.4
 46
0.0
 47
0.0
 48
0.0
 49
0.0
140
0.0
141
0.0
142
1.0
143
1.0
 70
  1712
 72
     1
 73
     0
 74
     0
  7

 75
     0
147
1.0
148
0.0
149
0.0
100
AcDbLayout
  1
Model
 70
     1
 71
     0
 10
0.0
 20
0.0
 11
1189.0
 21
2500.0
 12
0.0
 22
0.0
 32
0.0
 14
0.0
 24
0.0
 34
0.0
 15
1189.0
 25
2500.0
 35
0.0
146
0.0
 13
0.0
 23
0.0
 33
0.0
 16
1.0
 26
0.0
 36
0.0
 17
0.0
 27
1.0
 37
0.0
 76
     0
330
1F
331
29
  0
MLINESTYLE
  5
18
102
{ACAD_REACTORS
330
17
102
}
330
17
100
AcDbMlineStyle
  2
Standard
 70
     0
  3

 62
   256
 51
90.0
 52
90.0
 71
     2
 49
0.5
 62
   256
  6
BYLAYER
 49
-0.5
 62
   256
  6
BYLAYER
  0
ACDBPLACEHOLDER
  5
F
102
{ACAD_REACTORS
330
E
102
}
330
E
  0
SCALE
  5
48
102
{ACAD_REACTORS
330
47
102
}
330
47
100
AcDbScale
 70
     0
300
1:1
140
1.0
141
1.0
290
     1
  0
SCALE
  5
49
102
{ACAD_REACTORS
330
47
102
}
330
47
100
AcDbScale
 70
     0
300
1:2
140
1.0
141
2.0
290
     0
  0
SCALE
  5
4A
102
{ACAD_REACTORS
330
47
102
}
330
47
100
AcDbScale
 70
     0
300
1:4
140
1.0
141
4.0
290
     0
  0
SCALE
  5
4B
102
{ACAD_REACTORS
330
47
102
}
330
47
100
AcDbScale
 70
     0
300
1:5
140
1.0
141
5.0
290
     0
  0
SCALE
  5
4C
102
{ACAD_REACTORS
330
47
102
}
330
47
100
AcDbScale
 70
     0
300
1:8
140
1.0
141
8.0
290
     0
  0
SCALE
  5
4D
102
{ACAD_REACTORS
330
47
102
}
330
47
100
AcDbScale
 70
     0
300
1:10
140
1.0
141
10.0
290
     0
  0
SCALE
  5
4E
102
{ACAD_REACTORS
330
47
102
}
330
47
100
AcDbScale
 70
     0
300
1:16
140
1.0
141
16.0
290
     0
  0
SCALE
  5
4F
102
{ACAD_REACTORS
330
47
102
}
330
47
100
AcDbScale
 70
     0
300
1:20
140
1.0
141
20.0
290
     0
  0
SCALE
  5
50
102
{ACAD_REACTORS
330
47
102
}
330
47
100
AcDbScale
 70
     0
300
1:30
140
1.0
141
30.0
290
     0
  0
SCALE
  5
51
102
{ACAD_REACTORS
330
47
102
}
330
47
100
AcDbScale
 70
     0
300
1:40
140
1.0
141
40.0
290
     0
  0
SCALE
  5
52
102
{ACAD_REACTORS
330
47
102
}
330
47
100
AcDbScale
 70
     0
300
1:50
140
1.0
141
50.0
290
     0
  0
SCALE
  5
53
102
{ACAD_REACTORS
330
47
102
}
330
47
100
AcDbScale
 70
     0
300
1:100
140
1.0
141
100.0
290
     0
  0
SCALE
  5
54
102
{ACAD_REACTORS
330
47
102
}
330
47
100
AcDbScale
 70
     0
300
2:1
140
2.0
141
1.0
290
     0
  0
SCALE
  5
55
102
{ACAD_REACTORS
330
47
102
}
330
47
100
AcDbScale
 70
     0
300
4:1
140
4.0
141
1.0
290
     0
  0
SCALE
  5
56
102
{ACAD_REACTORS
330
47
102
}
330
47
100
AcDbScale
 70
     0
300
8:1
140
8.0
141
1.0
290
     0
  0
SCALE
  5
57
102
{ACAD_REACTORS
330
47
102
}
330
47
100
AcDbScale
 70
     0
300
10:1
140
10.0
141
1.0
290
     0
  0
SCALE
  5
58
102
{ACAD_REACTORS
330
47
102
}
330
47
100
AcDbScale
 70
     0
300
100:1
140
100.0
141
1.0
290
     0
  0
SCALE
  5
59
102
{ACAD_REACTORS
330
47
102
}
330
47
100
AcDbScale
 70
     0
300
1/128" = 1'-0"
140
0.0078125
141
12.0
290
     0
  0
SCALE
  5
5A
102
{ACAD_REACTORS
330
47
102
}
330
47
100
AcDbScale
 70
     0
300
1/64" = 1'-0"
140
0.015625
141
12.0
290
     0
  0
SCALE
  5
5B
102
{ACAD_REACTORS
330
47
102
}
330
47
100
AcDbScale
 70
     0
300
1/32" = 1'-0"
140
0.03125
141
12.0
290
     0
  0
SCALE
  5
5C
102
{ACAD_REACTORS
330
47
102
}
330
47
100
AcDbScale
 70
     0
300
1/16" = 1'-0"
140
0.0625
141
12.0
290
     0
  0
SCALE
  5
5D
102
{ACAD_REACTORS
330
47
102
}
330
47
100
AcDbScale
 70
     0
300
3/32" = 1'-0"
140
0.09375
141
12.0
290
     0
  0
SCALE
  5
5E
102
{ACAD_REACTORS
330
47
102
}
330
47
100
AcDbScale
 70
     0
300
1/8" = 1'-0"
140
0.125
141
12.0
290
     0
  0
SCALE
  5
5F
102
{ACAD_REACTORS
330
47
102
}
330
47
100
AcDbScale
 70
     0
300
3/16" = 1'-0"
140
0.1875
141
12.0
290
     0
  0
SCALE
  5
60
102
{ACAD_REACTORS
330
47
102
}
330
47
100
AcDbScale
 70
     0
300
1/4" = 1'-0"
140
0.25
141
12.0
290
     0
  0
SCALE
  5
61
102
{ACAD_REACTORS
330
47
102
}
330
47
100
AcDbScale
 70
     0
300
3/8" = 1'-0"
140
0.375
141
12.0
290
     0
  0
SCALE
  5
62
102
{ACAD_REACTORS
330
47
102
}
330
47
100
AcDbScale
 70
     0
300
1/2" = 1'-0"
140
0.5
141
12.0
290
     0
  0
SCALE
  5
63
102
{ACAD_REACTORS
330
47
102
}
330
47
100
AcDbScale
 70
     0
300
3/4" = 1'-0"
140
0.75
141
12.0
290
     0
  0
SCALE
  5
64
102
{ACAD_REACTORS
330
47
102
}
330
47
100
AcDbScale
 70
     0
300
1" = 1'-0"
140
1.0
141
12.0
290
     0
  0
SCALE
  5
65
102
{ACAD_REACTORS
330
47
102
}
330
47
100
AcDbScale
 70
     0
300
1-1/2" = 1'-0"
140
1.5
141
12.0
290
     0
  0
SCALE
  5
66
102
{ACAD_REACTORS
330
47
102
}
330
47
100
AcDbScale
 70
     0
300
3" = 1'-0"
140
3.0
141
12.0
290
     0
  0
SCALE
  5
67
102
{ACAD_REACTORS
330
47
102
}
330
47
100
AcDbScale
 70
     0
300
6" = 1'-0"
140
6.0
141
12.0
290
     0
  0
SCALE
  5
68
102
{ACAD_REACTORS
330
47
102
}
330
47
100
AcDbScale
 70
     0
300
1'-0" = 1'-0"
140
12.0
141
12.0
290
     0
  0
ENDSEC
  0
EOF
