  0
SECTION
  2
HEADER
  9
$ACADVER
  1
AC1015
  9
$ACADMAINTVER
 70
     6
  9
$DWGCODEPAGE
  3
ANSI_1252
  9
$INSBASE
 10
0.0
 20
0.0
 30
0.0
  9
$EXTMIN
 10
0.0
 20
0.0
 30
0.0
  9
$EXTMAX
 10
594.0
 20
841.0
 30
0.0
  9
$LIMMIN
 10
0.0
 20
0.0
  9
$LIMMAX
 10
594.0
 20
841.0
  9
$ORTHOMODE
 70
     0
  9
$REGENMODE
 70
     1
  9
$FILLMODE
 70
     1
  9
$QTEXTMODE
 70
     0
  9
$MIRRTEXT
 70
     1
  9
$LTSCALE
 40
1.0
  9
$ATTMODE
 70
     1
  9
$TEXTSIZE
 40
10.0
  9
$TRACEWID
 40
1.0
  9
$TEXTSTYLE
  7
Standard
  9
$CLAYER
  8
0
  9
$CELTYPE
  6
ByLayer
  9
$CECOLOR
 62
   256
  9
$CELTSCALE
 40
1.0
  9
$DISPSILH
 70
     0
  9
$DIMSCALE
 40
1.0
  9
$DIMASZ
 40
2.5
  9
$DIMEXO
 40
0.0
  9
$DIMDLI
 40
3.75
  9
$DIMRND
 40
0.0
  9
$DIMDLE
 40
0.0
  9
$DIMEXE
 40
1.0
  9
$DIMTP
 40
0.0
  9
$DIMTM
 40
0.0
  9
$DIMTXT
 40
3.5
  9
$DIMCEN
 40
2.5
  9
$DIMTSZ
 40
0.0
  9
$DIMTOL
 70
     0
  9
$DIMLIM
 70
     0
  9
$DIMTIH
 70
     1
  9
$DIMTOH
 70
     1
  9
$DIMSE1
 70
     0
  9
$DIMSE2
 70
     0
  9
$DIMTAD
 70
     1
  9
$DIMZIN
 70
     0
  9
$DIMBLK
  1

  9
$DIMASO
 70
     1
  9
$DIMSHO
 70
     1
  9
$DIMPOST
  1

  9
$DIMAPOST
  1

  9
$DIMALT
 70
     0
  9
$DIMALTD
 70
     3
  9
$DIMALTF
 40
0.0393700787
  9
$DIMLFAC
 40
1.0
  9
$DIMTOFL
 70
     1
  9
$DIMTVP
 40
0.0
  9
$DIMTIX
 70
     0
  9
$DIMSOXD
 70
     0
  9
$DIMSAH
 70
     0
  9
$DIMBLK1
  1

  9
$DIMBLK2
  1

  9
$DIMSTYLE
  2
ISO-25
  9
$DIMCLRD
 70
     0
  9
$DIMCLRE
 70
     0
  9
$DIMCLRT
 70
     0
  9
$DIMTFAC
 40
1.0
  9
$DIMGAP
 40
1.5
  9
$DIMJUST
 70
     0
  9
$DIMSD1
 70
     0
  9
$DIMSD2
 70
     0
  9
$DIMTOLJ
 70
     0
  9
$DIMTZIN
 70
     0
  9
$DIMALTZ
 70
     0
  9
$DIMALTTZ
 70
     0
  9
$DIMUPT
 70
     0
  9
$DIMDEC
 70
     2
  9
$DIMTDEC
 70
     2
  9
$DIMALTU
 70
     2
  9
$DIMALTTD
 70
     3
  9
$DIMTXSTY
  7
Standard
  9
$DIMAUNIT
 70
     0
  9
$DIMADEC
 70
     2
  9
$DIMALTRND
 40
0.0
  9
$DIMAZIN
 70
     0
  9
$DIMDSEP
 70
    44
  9
$DIMATFIT
 70
     3
  9
$DIMFRAC
 70
     0
  9
$DIMLDRBLK
  1

  9
$DIMLUNIT
 70
     2
  9
$DIMLWD
 70
    -2
  9
$DIMLWE
 70
    -2
  9
$DIMTMOVE
 70
     0
  9
$LUNITS
 70
     2
  9
$LUPREC
 70
     2
  9
$SKETCHINC
 40
1.0
  9
$FILLETRAD
 40
10.0
  9
$AUNITS
 70
     0
  9
$AUPREC
 70
     2
  9
$MENU
  1
.
  9
$ELEVATION
 40
0.0
  9
$PELEVATION
 40
0.0
  9
$THICKNESS
 40
0.0
  9
$LIMCHECK
 70
     0
  9
$CHAMFERA
 40
0.0
  9
$CHAMFERB
 40
0.0
  9
$CHAMFERC
 40
0.0
  9
$CHAMFERD
 40
0.0
  9
$SKPOLY
 70
     0
  9
$TDCREATE
 40
2459074.569730266
  9
$TDUCREATE
 40
2459074.486396933
  9
$TDUPDATE
 40
2459074.569732257
  9
$TDUUPDATE
 40
2459074.486398924
  9
$TDINDWG
 40
0.0000000116
  9
$TDUSRTIMER
 40
0.0000000116
  9
$USRTIMER
 70
     1
  9
$ANGBASE
 50
0.0
  9
$ANGDIR
 70
     0
  9
$PDMODE
 70
     0
  9
$PDSIZE
 40
-1.0
  9
$PLINEWID
 40
0.0
  9
$SPLFRAME
 70
     0
  9
$SPLINETYPE
 70
     6
  9
$SPLINESEGS
 70
     8
  9
$HANDSEED
  5
23C
  9
$SURFTAB1
 70
     6
  9
$SURFTAB2
 70
     6
  9
$SURFTYPE
 70
     6
  9
$SURFU
 70
     6
  9
$SURFV
 70
     6
  9
$UCSBASE
  2

  9
$UCSNAME
  2

  9
$UCSORG
 10
0.0
 20
0.0
 30
0.0
  9
$UCSXDIR
 10
1.0
 20
0.0
 30
0.0
  9
$UCSYDIR
 10
0.0
 20
1.0
 30
0.0
  9
$UCSORTHOREF
  2

  9
$UCSORTHOVIEW
 70
     0
  9
$UCSORGTOP
 10
0.0
 20
0.0
 30
0.0
  9
$UCSORGBOTTOM
 10
0.0
 20
0.0
 30
0.0
  9
$UCSORGLEFT
 10
0.0
 20
0.0
 30
0.0
  9
$UCSORGRIGHT
 10
0.0
 20
0.0
 30
0.0
  9
$UCSORGFRONT
 10
0.0
 20
0.0
 30
0.0
  9
$UCSORGBACK
 10
0.0
 20
0.0
 30
0.0
  9
$PUCSBASE
  2

  9
$PUCSNAME
  2

  9
$PUCSORG
 10
0.0
 20
0.0
 30
0.0
  9
$PUCSXDIR
 10
1.0
 20
0.0
 30
0.0
  9
$PUCSYDIR
 10
0.0
 20
1.0
 30
0.0
  9
$PUCSORTHOREF
  2

  9
$PUCSORTHOVIEW
 70
     0
  9
$PUCSORGTOP
 10
0.0
 20
0.0
 30
0.0
  9
$PUCSORGBOTTOM
 10
0.0
 20
0.0
 30
0.0
  9
$PUCSORGLEFT
 10
0.0
 20
0.0
 30
0.0
  9
$PUCSORGRIGHT
 10
0.0
 20
0.0
 30
0.0
  9
$PUCSORGFRONT
 10
0.0
 20
0.0
 30
0.0
  9
$PUCSORGBACK
 10
0.0
 20
0.0
 30
0.0
  9
$USERI1
 70
     0
  9
$USERI2
 70
     0
  9
$USERI3
 70
     0
  9
$USERI4
 70
     0
  9
$USERI5
 70
     0
  9
$USERR1
 40
0.0
  9
$USERR2
 40
0.0
  9
$USERR3
 40
0.0
  9
$USERR4
 40
0.0
  9
$USERR5
 40
0.0
  9
$WORLDVIEW
 70
     1
  9
$SHADEDGE
 70
     3
  9
$SHADEDIF
 70
    70
  9
$TILEMODE
 70
     1
  9
$MAXACTVP
 70
    64
  9
$PINSBASE
 10
0.0
 20
0.0
 30
0.0
  9
$PLIMCHECK
 70
     0
  9
$PEXTMIN
 10
1.0000000000E+20
 20
1.0000000000E+20
 30
1.0000000000E+20
  9
$PEXTMAX
 10
-1.0000000000E+20
 20
-1.0000000000E+20
 30
-1.0000000000E+20
  9
$PLIMMIN
 10
0.0
 20
0.0
  9
$PLIMMAX
 10
420.0
 20
297.0
  9
$UNITMODE
 70
     0
  9
$VISRETAIN
 70
     1
  9
$PLINEGEN
 70
     0
  9
$PSLTSCALE
 70
     1
  9
$TREEDEPTH
 70
  3020
  9
$CMLSTYLE
  2
Standard
  9
$CMLJUST
 70
     0
  9
$CMLSCALE
 40
20.0
  9
$PROXYGRAPHICS
 70
     1
  9
$MEASUREMENT
 70
     1
  9
$CELWEIGHT
370
    -1
  9
$ENDCAPS
280
     0
  9
$JOINSTYLE
280
     0
  9
$LWDISPLAY
290
     1
  9
$INSUNITS
 70
     4
  9
$HYPERLINKBASE
  1

  9
$STYLESHEET
  1

  9
$XEDIT
290
     1
  9
$CEPSNTYPE
380
     0
  9
$PSTYLEMODE
290
     1
  9
$FINGERPRINTGUID
  2
{dd60ed47-acf4-4f00-acd8-f062ea278a53}
  9
$VERSIONGUID
  2
{FAEB1C32-E019-11D5-929B-00C0DF256EC4}
  9
$EXTNAMES
290
     1
  9
$PSVPSCALE
 40
0.0
  9
$OLESTARTUP
290
     0
  0
ENDSEC
  0
SECTION
  2
CLASSES
  0
CLASS
  1
ACDBDICTIONARYWDFLT
  2
AcDbDictionaryWithDefault
  3
ObjectDBX Classes
 90
        0
280
     0
281
     0
  0
CLASS
  1
VISUALSTYLE
  2
AcDbVisualStyle
  3
ObjectDBX Classes
 90
     4095
280
     0
281
     0
  0
CLASS
  1
MATERIAL
  2
AcDbMaterial
  3
ObjectDBX Classes
 90
     1153
280
     0
281
     0
  0
CLASS
  1
SCALE
  2
AcDbScale
  3
ObjectDBX Classes
 90
     1153
280
     0
281
     0
  0
CLASS
  1
TABLESTYLE
  2
AcDbTableStyle
  3
ObjectDBX Classes
 90
     4095
280
     0
281
     0
  0
CLASS
  1
MLEADERSTYLE
  2
AcDbMLeaderStyle
  3
ACDB_MLEADERSTYLE_CLASS
 90
     4095
280
     0
281
     0
  0
CLASS
  1
SUN
  2
AcDbSun
  3
SCENEOE
 90
     1153
280
     0
281
     0
  0
CLASS
  1
ACDBPLACEHOLDER
  2
AcDbPlaceHolder
  3
ObjectDBX Classes
 90
        0
280
     0
281
     0
  0
CLASS
  1
LAYOUT
  2
AcDbLayout
  3
ObjectDBX Classes
 90
        0
280
     0
281
     0
  0
ENDSEC
  0
SECTION
  2
TABLES
  0
TABLE
  2
VPORT
  5
8
330
0
100
AcDbSymbolTable
 70
     1
  0
VPORT
  5
29
330
8
100
AcDbSymbolTableRecord
100
AcDbViewportTableRecord
  2
*Active
 70
     0
 10
0.0
 20
0.0
 11
1.0
 21
1.0
 12
297.0
 22
420.5
 13
0.0
 23
0.0
 14
10.0
 24
10.0
 15
10.0
 25
10.0
 16
0.0
 26
0.0
 36
1.0
 17
0.0
 27
0.0
 37
0.0
 40
841.0
 41
0.7063020214
 42
50.0
 43
0.0
 44
0.0
 50
0.0
 51
0.0
 71
     0
 72
  2000
 73
     1
 74
     3
 75
     0
 76
     0
 77
     0
 78
     0
281
     0
 65
     1
110
0.0
120
0.0
130
0.0
111
1.0
121
0.0
131
0.0
112
0.0
122
1.0
132
0.0
 79
     0
146
0.0
  0
ENDTAB
  0
TABLE
  2
LTYPE
  5
5
330
0
100
AcDbSymbolTable
 70
     6
  0
LTYPE
  5
14
330
5
100
AcDbSymbolTableRecord
100
AcDbLinetypeTableRecord
  2
ByBlock
 70
     0
  3

 72
    65
 73
     0
 40
0.0
  0
LTYPE
  5
15
330
5
100
AcDbSymbolTableRecord
100
AcDbLinetypeTableRecord
  2
ByLayer
 70
     0
  3

 72
    65
 73
     0
 40
0.0
  0
LTYPE
  5
16
330
5
100
AcDbSymbolTableRecord
100
AcDbLinetypeTableRecord
  2
Continuous
 70
     0
  3
Solid line
 72
    65
 73
     0
 40
0.0
  0
LTYPE
  5
6E
330
5
100
AcDbSymbolTableRecord
100
AcDbLinetypeTableRecord
  2
HIDDEN
 70
     0
  3
Hidden __ __ __ __ __ __ __ __ __ __ __ __ __ __
 72
    65
 73
     2
 40
1.905
 49
1.27
 74
     0
 49
-0.635
 74
     0
  0
LTYPE
  5
6F
330
5
100
AcDbSymbolTableRecord
100
AcDbLinetypeTableRecord
  2
PHANTOM
 70
     0
  3
Phantom ______  __  __  ______  __  __  ______
 72
    65
 73
     6
 40
12.7
 49
6.35
 74
     0
 49
-1.27
 74
     0
 49
1.27
 74
     0
 49
-1.27
 74
     0
 49
1.27
 74
     0
 49
-1.27
 74
     0
  0
LTYPE
  5
70
330
5
100
AcDbSymbolTableRecord
100
AcDbLinetypeTableRecord
  2
CENTER
 70
     0
  3
Center ____ _ ____ _ ____ _ ____ _ ____ _ ____
 72
    65
 73
     4
 40
10.16
 49
6.35
 74
     0
 49
-1.27
 74
     0
 49
1.27
 74
     0
 49
-1.27
 74
     0
  0
LTYPE
  5
71
330
5
100
AcDbSymbolTableRecord
100
AcDbLinetypeTableRecord
  2
CENTERX2
 70
     0
  3
Center (2x) ________  __  ________  __  _____
 72
    65
 73
     4
 40
20.32
 49
12.7
 74
     0
 49
-2.54
 74
     0
 49
2.54
 74
     0
 49
-2.54
 74
     0
  0
LTYPE
  5
72
330
5
100
AcDbSymbolTableRecord
100
AcDbLinetypeTableRecord
  2
DOT2
 70
     0
  3
Dot (.5x) ........................................
 72
    65
 73
     2
 40
0.635
 49
0.0
 74
     0
 49
-0.635
 74
     0
  0
ENDTAB
  0
TABLE
  2
LAYER
  5
2
330
0
100
AcDbSymbolTable
 70
     1
  0
LAYER
  5
10
330
2
100
AcDbSymbolTableRecord
100
AcDbLayerTableRecord
  2
0
 70
     0
 62
     7
  6
Continuous
370
    -3
390
F
  0
ENDTAB
  0
TABLE
  2
STYLE
  5
3
330
0
100
AcDbSymbolTable
 70
     3
  0
STYLE
  5
11
330
3
100
AcDbSymbolTableRecord
100
AcDbTextStyleTableRecord
  2
Standard
 70
     0
 40
0.0
 41
1.0
 50
0.0
 71
     0
 42
10.0
  3
txt
  4

  0
STYLE
  5
76
330
3
100
AcDbSymbolTableRecord
100
AcDbTextStyleTableRecord
  2
SLDTEXTSTYLE0
 70
     0
 40
0.0
 41
0.96
 50
0.0
 71
     0
 42
10.0
  3
ISOCP3
  4

  0
STYLE
  5
8D
330
3
100
AcDbSymbolTableRecord
100
AcDbTextStyleTableRecord
  2
SLDTEXTSTYLE1
 70
     0
 40
0.0
 41
0.605
 50
0.0
 71
     0
 42
10.0
  3
TXT
  4

  0
ENDTAB
  0
TABLE
  2
VIEW
  5
6
330
0
100
AcDbSymbolTable
 70
     0
  0
ENDTAB
  0
TABLE
  2
UCS
  5
7
330
0
100
AcDbSymbolTable
 70
     0
  0
ENDTAB
  0
TABLE
  2
APPID
  5
9
330
0
100
AcDbSymbolTable
 70
     1
  0
APPID
  5
12
330
9
100
AcDbSymbolTableRecord
100
AcDbRegAppTableRecord
  2
ACAD
 70
     0
  0
ENDTAB
  0
TABLE
  2
DIMSTYLE
  5
A
330
0
100
AcDbSymbolTable
 70
     2
100
AcDbDimStyleTable
  0
DIMSTYLE
105
27
330
A
100
AcDbSymbolTableRecord
100
AcDbDimStyleTableRecord
  2
ISO-25
 70
     0
 41
2.5
 42
0.625
 43
3.75
 44
1.25
 73
     0
 74
     0
 77
     1
 78
     8
140
2.5
141
2.5
143
0.0393700787
147
0.625
171
     3
172
     1
178
     0
271
     2
272
     2
274
     3
278
    44
283
     0
284
     8
340
11
  0
DIMSTYLE
105
77
102
{ACAD_REACTORS
330
75
330
82
102
}
330
A
100
AcDbSymbolTableRecord
100
AcDbDimStyleTableRecord
  2
SLDDIMSTYLE0
 70
     0
 41
2.5
 44
0.0
 45
0.000000001
 73
     0
 74
     0
 77
     1
 78
    12
 79
     3
140
6.0
147
1.5
173
     1
178
     0
271
     2
272
     2
276
     2
284
    12
340
76
  0
ENDTAB
  0
TABLE
  2
BLOCK_RECORD
  5
1
330
0
100
AcDbSymbolTable
 70
     3
  0
BLOCK_RECORD
  5
1F
330
1
100
AcDbSymbolTableRecord
100
AcDbBlockTableRecord
  2
*Model_Space
340
22
  0
BLOCK_RECORD
  5
1B
330
1
100
AcDbSymbolTableRecord
100
AcDbBlockTableRecord
  2
*Paper_Space
340
1E
  0
BLOCK_RECORD
  5
23
330
1
100
AcDbSymbolTableRecord
100
AcDbBlockTableRecord
  2
*Paper_Space0
340
26
  0
BLOCK_RECORD
  5
78
330
1
100
AcDbSymbolTableRecord
100
AcDbBlockTableRecord
  2
_D
340
0
  0
BLOCK_RECORD
  5
83
330
1
100
AcDbSymbolTableRecord
100
AcDbBlockTableRecord
  2
_D_1
340
0
  0
ENDTAB
  0
ENDSEC
  0
SECTION
  2
BLOCKS
  0
BLOCK
  5
20
330
1F
100
AcDbEntity
  8
0
100
AcDbBlockBegin
  2
*Model_Space
 70
     0
 10
0.0
 20
0.0
 30
0.0
  3
*Model_Space
  1

  0
ENDBLK
  5
21
330
1F
100
AcDbEntity
  8
0
100
AcDbBlockEnd
  0
BLOCK
  5
1C
330
1B
100
AcDbEntity
 67
     1
  8
0
100
AcDbBlockBegin
  2
*Paper_Space
 70
     0
 10
0.0
 20
0.0
 30
0.0
  3
*Paper_Space
  1

  0
ENDBLK
  5
1D
330
1B
100
AcDbEntity
 67
     1
  8
0
100
AcDbBlockEnd
  0
BLOCK
  5
24
330
23
100
AcDbEntity
  8
0
100
AcDbBlockBegin
  2
*Paper_Space0
 70
     0
 10
0.0
 20
0.0
 30
0.0
  3
*Paper_Space0
  1

  0
ENDBLK
  5
25
330
23
100
AcDbEntity
  8
0
100
AcDbBlockEnd
  0
BLOCK
  5
79
330
78
100
AcDbEntity
  8
0
100
AcDbBlockBegin
  2
_D
 70
     0
 10
0.0
 20
0.0
 30
0.0
  3
_D
  1

  0
SOLID
  5
7B
330
78
100
AcDbEntity
  8
0
  6
Continuous
 62
     7
370
    18
100
AcDbTrace
 10
42.7614395004
 20
152.0299240879
 30
0.0
 11
42.4614395004
 21
149.5299240879
 31
0.0
 12
43.0614395004
 22
149.5299240879
 32
0.0
 13
43.0614395004
 23
149.5299240879
 33
0.0
  0
SOLID
  5
7C
330
78
100
AcDbEntity
  8
0
  6
Continuous
 62
     7
370
    18
100
AcDbTrace
 10
42.7614395004
 20
52.0299240879
 30
0.0
 11
43.0614395004
 21
54.5299240879
 31
0.0
 12
42.4614395004
 22
54.5299240879
 32
0.0
 13
42.4614395004
 23
54.5299240879
 33
0.0
  0
LINE
  5
7D
330
78
100
AcDbEntity
  8
0
  6
Continuous
 62
     7
370
     0
100
AcDbLine
 10
56.6850079902
 20
152.0299240879
 30
0.0
 11
41.7614395004
 21
152.0299240879
 31
0.0
  0
LINE
  5
7E
330
78
100
AcDbEntity
  8
0
  6
Continuous
 62
     7
370
     0
100
AcDbLine
 10
56.6850079902
 20
52.0299240879
 30
0.0
 11
41.7614395004
 21
52.0299240879
 31
0.0
  0
LINE
  5
7F
330
78
100
AcDbEntity
  8
0
  6
Continuous
 62
     7
370
     0
100
AcDbLine
 10
42.7614395004
 20
152.0299240879
 30
0.0
 11
42.7614395004
 21
52.0299240879
 31
0.0
  0
MTEXT
  5
80
330
78
100
AcDbEntity
  8
0
  6
Continuous
 62
     7
370
    18
100
AcDbMText
 10
35.0270332946
 20
94.3680541463
 30
0.0
 40
6.0
 41
0.0
 71
     1
 72
     1
  1
100
  7
SLDTEXTSTYLE0
 11
-7.044195017643634E-15
 21
1.0
 31
0.0
 73
     1
 44
1.0
  0
MTEXT
  5
81
330
78
100
AcDbEntity
  8
0
  6
Continuous
 62
     7
370
    18
100
AcDbMText
 10
35.0270332946
 20
105.7430548466
 30
0.0
 40
6.0
 41
0.0
 71
     1
 72
     1
  1
mm
  7
SLDTEXTSTYLE0
 11
-7.044195017643634E-15
 21
1.0
 31
0.0
 73
     1
 44
1.0
  0
ENDBLK
  5
7A
330
78
100
AcDbEntity
  8
0
100
AcDbBlockEnd
  0
BLOCK
  5
84
330
83
100
AcDbEntity
  8
0
100
AcDbBlockBegin
  2
_D_1
 70
     0
 10
0.0
 20
0.0
 30
0.0
  3
_D_1
  1

  0
SOLID
  5
86
330
83
100
AcDbEntity
  8
0
  6
Continuous
 62
     7
370
    18
100
AcDbTrace
 10
56.6850079902
 20
38.4602342313
 30
0.0
 11
59.1850079902
 21
38.1602342313
 31
0.0
 12
59.1850079902
 22
38.7602342313
 32
0.0
 13
59.1850079902
 23
38.7602342313
 33
0.0
  0
SOLID
  5
87
330
83
100
AcDbEntity
  8
0
  6
Continuous
 62
     7
370
    18
100
AcDbTrace
 10
156.6850079902
 20
38.4602342313
 30
0.0
 11
154.1850079902
 21
38.7602342313
 31
0.0
 12
154.1850079902
 22
38.1602342313
 32
0.0
 13
154.1850079902
 23
38.1602342313
 33
0.0
  0
LINE
  5
88
330
83
100
AcDbEntity
  8
0
  6
Continuous
 62
     7
370
     0
100
AcDbLine
 10
56.6850079902
 20
52.0299240879
 30
0.0
 11
56.6850079902
 21
37.4602342313
 31
0.0
  0
LINE
  5
89
330
83
100
AcDbEntity
  8
0
  6
Continuous
 62
     7
370
     0
100
AcDbLine
 10
156.6850079902
 20
52.0299240879
 30
0.0
 11
156.6850079902
 21
37.4602342313
 31
0.0
  0
LINE
  5
8A
330
83
100
AcDbEntity
  8
0
  6
Continuous
 62
     7
370
     0
100
AcDbLine
 10
56.6850079902
 20
38.4602342313
 30
0.0
 11
156.6850079902
 21
38.4602342313
 31
0.0
  0
MTEXT
  5
8B
330
83
100
AcDbEntity
  8
0
  6
Continuous
 62
     7
370
    18
100
AcDbMText
 10
93.9626484861
 20
46.1946404371
 30
0.0
 40
6.0
 41
0.0
 71
     1
 72
     1
  1
100
  7
SLDTEXTSTYLE0
 73
     1
 44
1.0
  0
MTEXT
  5
8C
330
83
100
AcDbEntity
  8
0
  6
Continuous
 62
     7
370
    18
100
AcDbMText
 10
105.3376491864
 20
46.1946404371
 30
0.0
 40
6.0
 41
0.0
 71
     1
 72
     1
  1
mm
  7
SLDTEXTSTYLE0
 73
     1
 44
1.0
  0
ENDBLK
  5
85
330
83
100
AcDbEntity
  8
0
100
AcDbBlockEnd
  0
ENDSEC
  0
SECTION
  2
ENTITIES
  0
LINE
  5
73
330
1F
100
AcDbEntity
  8
0
  6
Continuous
 62
     7
370
    18
100
AcDbLine
 10
56.6850079902
 20
152.0299240879
 30
0.0
 11
56.6850079902
 21
52.0299240879
 31
0.0
  0
LINE
  5
74
330
1F
100
AcDbEntity
  8
0
  6
Continuous
 62
     7
370
    18
100
AcDbLine
 10
56.6850079902
 20
52.0299240879
 30
0.0
 11
156.6850079902
 21
52.0299240879
 31
0.0
  0
DIMENSION
  5
75
330
1F
100
AcDbEntity
  8
0
  6
Continuous
 62
     7
370
    18
100
AcDbDimension
  2
_D
 10
42.7614395004
 20
52.0299240879
 30
0.0
 11
42.7614395004
 21
105.4472211621
 31
0.0
 70
   160
  1
<>mm
 71
     2
 42
-1.0
  3
SLDDIMSTYLE0
100
AcDbAlignedDimension
 13
56.6850079902
 23
152.0299240879
 33
0.0
 14
56.6850079902
 24
52.0299240879
 34
0.0
 50
90.0
100
AcDbRotatedDimension
  0
DIMENSION
  5
82
330
1F
100
AcDbEntity
  8
0
  6
Continuous
 62
     7
370
    18
100
AcDbDimension
  2
_D_1
 10
156.6850079902
 20
38.4602342313
 30
0.0
 11
105.0418155019
 21
38.4602342313
 31
0.0
 70
   160
  1
<>mm
 71
     2
 42
-1.0
  3
SLDDIMSTYLE0
100
AcDbAlignedDimension
 13
56.6850079902
 23
52.0299240879
 33
0.0
 14
156.6850079902
 24
52.0299240879
 34
0.0
100
AcDbRotatedDimension
  0
MTEXT
  5
8E
330
1F
100
AcDbEntity
  8
0
  6
Continuous
 62
     7
370
     0
100
AcDbMText
 10
412.8252631579
 20
48.4342449499
 30
0.0
 40
10.0
 41
0.0
 71
     1
 72
     1
  1
KLUDI GmbH & Co KG
  7
SLDTEXTSTYLE1
 73
     1
 44
1.0
  0
MTEXT
  5
8F
330
1F
100
AcDbEntity
  8
0
  6
Continuous
 62
     7
370
     0
100
AcDbMText
 10
210.0873490389
 20
48.4342449499
 30
0.0
 40
10.0
 41
0.0
 71
     1
 72
     1
  1
38 901 05 38
  7
SLDTEXTSTYLE1
 73
     1
 44
1.0
  0
CIRCLE
  5
90
330
1F
100
AcDbEntity
  8
0
  6
Continuous
 62
     7
370
    25
100
AcDbCircle
 10
214.9393548387
 20
340.8248387097
 30
0.0
 40
20.45127607873354
  0
SPLINE
  5
91
330
1F
100
AcDbEntity
  8
0
  6
Continuous
 62
     7
370
    25
100
AcDbSpline
210
0.0
220
0.0
230
1.0
 70
     8
 71
     3
 72
    10
 73
     6
 74
     0
 42
0.000000001
 43
0.00000001
 40
0.0
 40
0.0
 40
0.0
 40
0.0
 40
0.4959732990773359
 40
0.9217695459987945
 40
1.0
 40
1.0
 40
1.0
 40
1.0
 10
225.4960843491361
 20
358.338115718807
 30
0.0
 10
225.4736391033134
 20
358.410243867434
 30
0.0
 10
225.4319244705088
 20
358.5442944926134
 30
0.0
 10
225.3530246354952
 20
358.6775667492658
 30
0.0
 10
225.3011954750672
 20
358.733914159431
 30
0.0
 10
225.2931510227725
 20
358.7426598934783
 30
0.0
  0
SPLINE
  5
92
330
1F
100
AcDbEntity
  8
0
  6
Continuous
 62
     7
370
    25
100
AcDbSpline
210
0.0
220
0.0
230
1.0
 70
     8
 71
     3
 72
    10
 73
     6
 74
     0
 42
0.000000001
 43
0.00000001
 40
0.0
 40
0.0
 40
0.0
 40
0.0
 40
0.0601451722514344
 40
0.6937997388106423
 40
1.0
 40
1.0
 40
1.0
 40
1.0
 10
204.5861761215136
 20
358.7422426609648
 30
0.0
 10
204.5795577188682
 20
358.7356597274302
 30
0.0
 10
204.5032116738772
 20
358.6597228334787
 30
0.0
 10
204.4234237600518
 20
358.5154612004669
 30
0.0
 10
204.4001188485905
 20
358.3707163388319
 30
0.0
 10
204.3925262185738
 20
358.3235591469658
 30
0.0
  0
SPLINE
  5
93
330
1F
100
AcDbEntity
  8
0
  6
Continuous
 62
     7
370
    25
100
AcDbSpline
210
0.0
220
0.0
230
1.0
 70
     8
 71
     3
 72
    13
 73
     9
 74
     0
 42
0.000000001
 43
0.00000001
 40
0.0
 40
0.0
 40
0.0
 40
0.0
 40
0.3107863041745695
 40
0.5906137201205717
 40
0.7081080306236177
 40
0.8179432255187976
 40
0.9281450831716935
 40
1.0
 40
1.0
 40
1.0
 40
1.0
 10
225.3288691061542
 20
358.7021753011597
 30
0.0
 10
224.9302664627867
 20
359.1659049101459
 30
0.0
 10
224.1727678636304
 20
360.0471698366065
 30
0.0
 10
223.1641892762433
 20
360.9161897236978
 30
0.0
 10
222.2710441450017
 20
361.50669249064
 30
0.0
 10
221.6481375125207
 20
361.8275081122172
 30
0.0
 10
221.0746493673842
 20
362.0511152476208
 30
0.0
 10
220.7081254284663
 20
362.1383809821211
 30
0.0
 10
220.5634642521844
 20
362.1728233812702
 30
0.0
  0
SPLINE
  5
94
330
1F
100
AcDbEntity
  8
0
  6
Continuous
 62
     7
370
    25
100
AcDbSpline
210
0.0
220
0.0
230
1.0
 70
     8
 71
     3
 72
    13
 73
     9
 74
     0
 42
0.000000001
 43
0.00000001
 40
0.0
 40
0.0
 40
0.0
 40
0.0
 40
0.0713511215408962
 40
0.1816259320740811
 40
0.2915220940698166
 40
0.4090721956249945
 40
0.6890477342986798
 40
0.9999999999999999
 40
0.9999999999999999
 40
0.9999999999999999
 40
0.9999999999999999
 10
209.3120789284811
 20
362.1720205812109
 30
0.0
 10
209.1685110107463
 20
362.1378152410076
 30
0.0
 10
208.8030555517236
 20
362.0507447554685
 30
0.0
 10
208.2306077204975
 20
361.8274880850552
 30
0.0
 10
207.6077064019007
 20
361.5067127660973
 30
0.0
 10
206.7145100301775
 20
360.9161632021721
 30
0.0
 10
205.7059611608521
 20
360.0471682968368
 30
0.0
 10
204.9484510728476
 20
359.1659026102078
 30
0.0
 10
204.5498415025876
 20
358.7021715758694
 30
0.0
  0
LINE
  5
95
330
1F
100
AcDbEntity
  8
0
  6
Continuous
 62
     7
370
    25
100
AcDbLine
 10
209.5967022832
 20
365.2131222008
 30
0.0
 11
209.5493571031
 21
362.2202090739
 31
0.0
  0
LINE
  5
96
330
1F
100
AcDbEntity
  8
0
  6
Continuous
 62
     7
370
    25
100
AcDbLine
 10
220.3280734028
 20
362.2200432984
 30
0.0
 11
220.280874906
 21
365.2146346687
 31
0.0
  0
LINE
  5
97
330
1F
100
AcDbEntity
  8
0
  6
Continuous
 62
     7
370
    25
100
AcDbLine
 10
214.9393548387
 20
366.2643227546
 30
0.0
 11
211.0473540741
 21
366.1896008818
 31
0.0
  0
LINE
  5
98
330
1F
100
AcDbEntity
  8
0
  6
Continuous
 62
     7
370
    25
100
AcDbLine
 10
218.831340935
 20
366.1896008818
 30
0.0
 11
214.9393548387
 21
366.2643227546
 31
0.0
  0
SPLINE
  5
99
330
1F
100
AcDbEntity
  8
0
  6
Continuous
 62
     7
370
    25
100
AcDbSpline
210
0.0
220
0.0
230
1.0
 70
     8
 71
     3
 72
    14
 73
    10
 74
     0
 42
0.000000001
 43
0.00000001
 40
0.0
 40
0.0
 40
0.0
 40
0.0
 40
0.110786060333856
 40
0.2288685656075161
 40
0.3535859591677123
 40
0.4827053510737871
 40
0.7431721221873526
 40
0.8724679557913378
 40
1.0
 40
1.0
 40
1.0
 40
1.0
 10
220.2793815302656
 20
365.1541527180327
 30
0.0
 10
220.2700641470126
 20
365.2283959057715
 30
0.0
 10
220.2508157313374
 20
365.3817719878592
 30
0.0
 10
220.1514124650839
 20
365.5898907640358
 30
0.0
 10
220.0051498555876
 20
365.7716407498532
 30
0.0
 10
219.7505970013378
 20
365.9695295083373
 30
0.0
 10
219.4290570077046
 20
366.0958603474378
 30
0.0
 10
219.0837353416844
 20
366.1665437378455
 30
0.0
 10
218.9150875775688
 20
366.1819504361144
 30
0.0
 10
218.8313427976326
 20
366.1896008817804
 30
0.0
  0
SPLINE
  5
9A
330
1F
100
AcDbEntity
  8
0
  6
Continuous
 62
     7
370
    25
100
AcDbSpline
210
0.0
220
0.0
230
1.0
 70
     8
 71
     3
 72
    13
 73
     9
 74
     0
 42
0.000000001
 43
0.00000001
 40
0.0
 40
0.0
 40
0.0
 40
0.0
 40
0.1996607369577408
 40
0.4266539486245664
 40
0.5578024544368649
 40
0.69991424961059
 40
0.8492637537422526
 40
1.0
 40
1.0
 40
1.0
 40
1.0
 10
211.0473519786254
 20
366.1896008817804
 30
0.0
 10
210.9142724432385
 20
366.1788992459901
 30
0.0
 10
210.6298955040411
 20
366.1560309783663
 30
0.0
 10
210.271072619821
 20
366.0395669512855
 30
0.0
 10
209.9927841866819
 20
365.8677450402016
 30
0.0
 10
209.7989098985887
 20
365.6777250088909
 30
0.0
 10
209.6501261979125
 20
365.4363797143899
 30
0.0
 10
209.6164613886543
 20
365.2485648775195
 30
0.0
 10
209.5995511989102
 20
365.1542234985483
 30
0.0
  0
SPLINE
  5
9B
330
1F
100
AcDbEntity
  8
0
  6
Continuous
 62
     7
370
    25
100
AcDbSpline
210
0.0
220
0.0
230
1.0
 70
     8
 71
     3
 72
    12
 73
     8
 74
     0
 42
0.000000001
 43
0.00000001
 40
0.0
 40
0.0
 40
0.0
 40
0.0
 40
0.2499999999999968
 40
0.2499999999999968
 40
0.4999999999999937
 40
0.4999999999999937
 40
1.0
 40
1.0
 40
1.0
 40
1.0
 10
212.4429388162931
 20
321.9784412343726
 30
0.0
 10
212.4459914103745
 20
321.9719857936365
 30
0.0
 10
212.4528714426783
 20
321.9691067685623
 30
0.0
 10
212.4637065876916
 20
321.960992632991
 30
0.0
 10
212.469199551288
 20
321.9570990347801
 30
0.0
 10
212.4854438512938
 20
321.9458706522192
 30
0.0
 10
212.4960635606558
 20
321.9389317657019
 30
0.0
 10
212.5063883082121
 20
321.932420103282
 30
0.0
  0
SPLINE
  5
9C
330
1F
100
AcDbEntity
  8
0
  6
Continuous
 62
     7
370
    25
100
AcDbSpline
210
0.0
220
0.0
230
1.0
 70
     8
 71
     3
 72
    12
 73
     8
 74
     0
 42
0.000000001
 43
0.00000001
 40
0.0
 40
0.0
 40
0.0
 40
0.0
 40
0.5000000000000063
 40
0.5000000000000063
 40
0.7500000000000031
 40
0.7500000000000031
 40
1.0
 40
1.0
 40
1.0
 40
1.0
 10
217.3723213692206
 20
321.9324201032807
 30
0.0
 10
217.3826075882396
 20
321.9389074663333
 30
0.0
 10
217.3932227646567
 20
321.9458410761482
 30
0.0
 10
217.4095211429344
 20
321.957106555391
 30
0.0
 10
217.4150140478187
 20
321.9610005981164
 30
0.0
 10
217.4258435663111
 20
321.9691110023869
 30
0.0
 10
217.4327669963376
 20
321.9720898152284
 30
0.0
 10
217.4357709271416
 20
321.9784411682729
 30
0.0
  0
SPLINE
  5
9D
330
1F
100
AcDbEntity
  8
0
  6
Continuous
 62
     7
370
    25
100
AcDbSpline
210
0.0
220
0.0
230
1.0
 70
     8
 71
     3
 72
    26
 73
    22
 74
     0
 42
0.000000001
 43
0.00000001
 40
0.0
 40
0.0
 40
0.0
 40
0.0
 40
0.0625000000000004
 40
0.0625000000000004
 40
0.1250000000000009
 40
0.1250000000000009
 40
0.2500000000000006
 40
0.2500000000000006
 40
0.3750000000000002
 40
0.3750000000000002
 40
0.4999999999999999
 40
0.4999999999999999
 40
0.6249999999999997
 40
0.6249999999999997
 40
0.7499999999999994
 40
0.7499999999999994
 40
0.8749999999999992
 40
0.8749999999999992
 40
0.9374999999999997
 40
0.9374999999999997
 40
1.0
 40
1.0
 40
1.0
 40
1.0
 10
217.372321369218
 20
321.9324201032829
 30
0.0
 10
217.290860799366
 20
322.0181628068718
 30
0.0
 10
217.2116340658342
 20
322.1060219660196
 30
0.0
 10
217.0455493984728
 20
322.274510078527
 30
0.0
 10
216.9597056407501
 20
322.3555696365278
 30
0.0
 10
216.6907108180559
 20
322.5855604875152
 30
0.0
 10
216.4954545416755
 20
322.7213558993678
 30
0.0
 10
216.0838118657656
 20
322.9417971019124
 30
0.0
 10
215.8638764895889
 20
323.0287927001365
 30
0.0
 10
215.407069761128
 20
323.1459977677288
 30
0.0
 10
215.175675136745
 20
323.1754321481547
 30
0.0
 10
214.7068820178816
 20
323.1757564177647
 30
0.0
 10
214.4696828440485
 20
323.1455040976744
 30
0.0
 10
214.0165972013964
 20
323.029236832597
 30
0.0
 10
213.7945334471081
 20
322.9417570478426
 30
0.0
 10
213.3804830022909
 20
322.7197151298381
 30
0.0
 10
213.188125185169
 20
322.5857037535171
 30
0.0
 10
212.9184681291443
 20
322.3550937599661
 30
0.0
 10
212.8325605398181
 20
322.2739205270098
 30
0.0
 10
212.6668589487992
 20
322.1057832080895
 30
0.0
 10
212.5877098675958
 20
322.018016489045
 30
0.0
 10
212.5063883082126
 20
321.9324201032813
 30
0.0
  0
ARC
  5
9E
330
1F
100
AcDbEntity
  8
0
  6
Continuous
 62
     7
370
    25
100
AcDbCircle
 10
217.4328447877
 20
322.0005312798
 30
0.0
 40
0.0911164998950802
100
AcDbArc
 50
228.37578967
 51
277.5455398385
  0
ARC
  5
9F
330
1F
100
AcDbEntity
  8
0
  6
Continuous
 62
     7
370
    25
100
AcDbCircle
 10
212.4458648898
 20
322.0005312798
 30
0.0
 40
0.0911164998951036
100
AcDbArc
 50
262.4544601615
 51
311.6242103284
  0
ARC
  5
A0
330
1F
100
AcDbEntity
  8
0
  6
Continuous
 62
     7
370
    25
100
AcDbCircle
 10
214.9393548387
 20
340.8248387097
 30
0.0
 40
19.07985111645617
100
AcDbArc
 50
277.5455398385
 51
262.4544601615
  0
CIRCLE
  5
A1
330
1F
100
AcDbEntity
  8
0
  6
Continuous
 62
     7
370
    25
100
AcDbCircle
 10
214.9393548387
 20
340.8248387097
 30
0.0
 40
19.30000000000001
  0
LWPOLYLINE
  5
A2
330
1F
100
AcDbEntity
  8
0
  6
Continuous
 62
     7
370
    25
100
AcDbPolyline
 90
        5
 70
   128
 43
0.0
 10
225.2930578905
 20
358.7425760744
 10
225.2991953063
 20
358.7386030523
 10
225.1244279685
 20
358.8217906474
 10
225.124420518
 20
358.8217943726
 10
225.124420518
 20
358.8217943726
  0
SPLINE
  5
A3
330
1F
100
AcDbEntity
  8
0
  6
Continuous
 62
     7
370
    25
100
AcDbSpline
210
0.0
220
0.0
230
1.0
 70
     8
 71
     3
 72
     9
 73
     5
 74
     0
 42
0.000000001
 43
0.00000001
 40
0.0
 40
0.0
 40
0.0
 40
0.0
 40
0.6044479713820676
 40
1.0
 40
1.0
 40
1.0
 40
1.0
 10
204.5852503868744
 20
358.7413262395514
 30
0.0
 10
204.5818010991943
 20
358.7395227487959
 30
0.0
 10
204.576094590374
 20
358.7365390498825
 30
0.0
 10
204.5830236667275
 20
358.7409156728635
 30
0.0
 10
204.5857644769356
 20
358.7426468549622
 30
0.0
  0
SPLINE
  5
A4
330
1F
100
AcDbEntity
  8
0
  6
Continuous
 62
     7
370
    25
100
AcDbSpline
210
0.0
220
0.0
230
1.0
 70
     8
 71
     3
 72
    18
 73
    14
 74
     0
 42
0.000000001
 43
0.00000001
 40
0.0
 40
0.0
 40
0.0
 40
0.0
 40
0.125
 40
0.125
 40
0.25
 40
0.25
 40
0.5
 40
0.5
 40
0.75
 40
0.75
 40
0.875
 40
0.875
 40
1.0
 40
1.0
 40
1.0
 40
1.0
 10
210.6148117464637
 20
362.3235673137214
 30
0.0
 10
210.9747454221687
 20
362.3454940887769
 30
0.0
 10
211.334961807592
 20
362.361261712495
 30
0.0
 10
212.0554927264586
 20
362.3906586941811
 30
0.0
 10
212.415868860157
 20
362.4029800477277
 30
0.0
 10
213.49715960063
 20
362.4322361041171
 30
0.0
 10
214.2182798269961
 20
362.4422084705907
 30
0.0
 10
215.6605752102917
 20
362.4422071540309
 30
0.0
 10
216.3816042271309
 20
362.4322332876179
 30
0.0
 10
217.4629292569976
 20
362.4029747336486
 30
0.0
 10
217.823271136905
 20
362.3906542501618
 30
0.0
 10
218.5437521941123
 20
362.3612601223614
 30
0.0
 10
218.903990240495
 20
362.3465030096493
 30
0.0
 10
219.2638979309688
 20
362.3237540700407
 30
0.0
  0
SPLINE
  5
A5
330
1F
100
AcDbEntity
  8
0
  6
Continuous
 62
     7
370
    25
100
AcDbSpline
210
0.0
220
0.0
230
1.0
 70
     8
 71
     3
 72
    11
 73
     7
 74
     0
 42
0.000000001
 43
0.00000001
 40
0.0
 40
0.0
 40
0.0
 40
0.0
 40
0.2848981087448549
 40
0.5697579382053516
 40
0.8554291687272596
 40
1.0
 40
1.0
 40
1.0
 40
1.0
 10
219.2638981285498
 20
362.3237535177124
 30
0.0
 10
219.4248824500072
 20
362.3122945173973
 30
0.0
 10
219.746829462857
 20
362.2893780564135
 30
0.0
 10
220.1676509967669
 20
362.2461245116391
 30
0.0
 10
220.4576804109364
 20
362.2042417657708
 30
0.0
 10
220.5382081833394
 20
362.1860316197866
 30
0.0
 10
220.5652672926888
 20
362.1799126087082
 30
0.0
  0
SPLINE
  5
A6
330
1F
100
AcDbEntity
  8
0
  6
Continuous
 62
     7
370
    25
100
AcDbSpline
210
0.0
220
0.0
230
1.0
 70
     8
 71
     3
 72
     8
 73
     4
 74
     0
 42
0.000000001
 43
0.00000001
 40
0.0
 40
0.0
 40
0.0
 40
0.0
 40
1.0
 40
1.0
 40
1.0
 40
1.0
 10
220.6551063496347
 20
362.1611724565206
 30
0.0
 10
220.6830727817378
 20
362.1528895916362
 30
0.0
 10
220.6935690886651
 20
362.1458331961675
 30
0.0
 10
220.6865304587981
 20
362.1406671073777
 30
0.0
  0
SPLINE
  5
A7
330
1F
100
AcDbEntity
  8
0
  6
Continuous
 62
     7
370
    25
100
AcDbSpline
210
0.0
220
0.0
230
1.0
 70
     8
 71
     3
 72
    20
 73
    16
 74
     0
 42
0.000000001
 43
0.00000001
 40
0.0
 40
0.0
 40
0.0
 40
0.0
 40
0.1250000000000009
 40
0.1250000000000009
 40
0.2500000000000018
 40
0.2500000000000018
 40
0.3750000000000027
 40
0.3750000000000027
 40
0.5000000000000036
 40
0.5000000000000036
 40
0.7500000000000053
 40
0.7500000000000053
 40
0.8750000000000027
 40
0.8750000000000027
 40
1.0
 40
1.0
 40
1.0
 40
1.0
 10
209.1921792186191
 20
362.140667107374
 30
0.0
 10
209.1868899601326
 20
362.1445491719027
 30
0.0
 10
209.1915997127853
 20
362.1495089984678
 30
0.0
 10
209.2201560007361
 20
362.1608705254782
 30
0.0
 10
209.2444719613575
 20
362.1672948683933
 30
0.0
 10
209.3111221339472
 20
362.1818656801981
 30
0.0
 10
209.3531938837288
 20
362.189973818783
 30
0.0
 10
209.4547929091543
 20
362.2077452343125
 30
0.0
 10
209.5144930947519
 20
362.2172829700831
 30
0.0
 10
209.7122810172379
 20
362.244984311934
 30
0.0
 10
209.8743243550061
 20
362.2628347222411
 30
0.0
 10
210.1386906639195
 20
362.2877776945602
 30
0.0
 10
210.2319894513842
 20
362.2960451766662
 30
0.0
 10
210.4212850329228
 20
362.3110566331762
 30
0.0
 10
210.5173387738152
 20
362.3176293643451
 30
0.0
 10
210.6148117464637
 20
362.3235673137216
 30
0.0
  0
SPLINE
  5
A8
330
1F
100
AcDbEntity
  8
0
  6
Continuous
 62
     7
370
    25
100
AcDbSpline
210
0.0
220
0.0
230
1.0
 70
     8
 71
     3
 72
     9
 73
     5
 74
     0
 42
0.000000001
 43
0.00000001
 40
0.0
 40
0.0
 40
0.0
 40
0.0
 40
0.1322733728765789
 40
1.0
 40
1.0
 40
1.0
 40
1.0
 10
209.5994473564432
 20
365.1485815463913
 30
0.0
 10
209.5961699939477
 20
365.1460146260387
 30
0.0
 10
209.5713928039193
 20
365.12660845005
 30
0.0
 10
209.5851339898213
 20
365.1067034690545
 30
0.0
 10
209.5970575827167
 20
365.0894313870323
 30
0.0
  0
LINE
  5
A9
330
1F
100
AcDbEntity
  8
0
  6
Continuous
 62
     7
370
    25
100
AcDbLine
 10
210.9784804414
 20
362.340260279
 30
0.0
 11
211.0849250237
 21
365.3633873729
 31
0.0
  0
SPLINE
  5
AA
330
1F
100
AcDbEntity
  8
0
  6
Continuous
 62
     7
370
    25
100
AcDbSpline
210
0.0
220
0.0
230
1.0
 70
     8
 71
     3
 72
     9
 73
     5
 74
     0
 42
0.000000001
 43
0.00000001
 40
0.0
 40
0.0
 40
0.0
 40
0.0
 40
0.8463932658572333
 40
1.0
 40
1.0
 40
1.0
 40
1.0
 10
220.2816404531703
 20
365.0894332496775
 30
0.0
 10
220.2934205673685
 20
365.1066994086726
 30
0.0
 10
220.3073385824016
 20
365.1270990971998
 30
0.0
 10
220.2815899917029
 20
365.1469837225399
 30
0.0
 10
220.2776348347769
 20
365.150038134898
 30
0.0
  0
LWPOLYLINE
  5
AB
330
1F
100
AcDbEntity
  8
0
  6
Continuous
 62
     7
370
    25
100
AcDbPolyline
 90
        3
 70
   128
 43
0.0
 10
211.0473552383
 20
366.1895710795
 10
211.0468648969
 20
366.193300095
 10
211.0459894537
 20
366.1830518214
  0
LINE
  5
AC
330
1F
100
AcDbEntity
  8
0
  6
Continuous
 62
     7
370
    25
100
AcDbLine
 10
214.9393548387
 20
366.2578016339
 30
0.0
 11
214.9393548387
 21
366.2680331437
 31
0.0
  0
LWPOLYLINE
  5
AD
330
1F
100
AcDbEntity
  8
0
  6
Continuous
 62
     7
370
    25
100
AcDbPolyline
 90
        3
 70
   128
 43
0.0
 10
209.5970552544
 20
365.0894351123
 10
209.6178856808
 20
365.275055152
 10
209.6701882909
 20
365.4468878923
  0
SPLINE
  5
AE
330
1F
100
AcDbEntity
  8
0
  6
Continuous
 62
     7
370
    25
100
AcDbSpline
210
0.0
220
0.0
230
1.0
 70
     8
 71
     3
 72
    22
 73
    18
 74
     0
 42
0.000000001
 43
0.00000001
 40
0.0
 40
0.0
 40
0.0
 40
0.0
 40
0.125
 40
0.125
 40
0.25
 40
0.25
 40
0.375
 40
0.375
 40
0.5
 40
0.5
 40
0.625
 40
0.625
 40
0.75
 40
0.75
 40
0.875
 40
0.875
 40
1.0
 40
1.0
 40
1.0
 40
1.0
 10
226.9872077961327
 20
386.2307247884586
 30
0.0
 10
226.9826800003831
 20
386.5357940352122
 30
0.0
 10
226.9486623723623
 20
386.8372379449166
 30
0.0
 10
226.8221972771282
 20
387.4329426830911
 30
0.0
 10
226.7305072921532
 20
387.7222347763876
 30
0.0
 10
226.4951527718007
 20
388.2758234937417
 30
0.0
 10
226.3499056404544
 20
388.543405656405
 30
0.0
 10
226.0097271083104
 20
389.0467953581179
 30
0.0
 10
225.8178936622405
 20
389.278840352635
 30
0.0
 10
225.3918883950752
 20
389.7046698514151
 30
0.0
 10
225.1548335059596
 20
389.9000761472817
 30
0.0
 10
224.6538124047872
 20
390.2376686088364
 30
0.0
 10
224.3895082931367
 20
390.3811546658204
 30
0.0
 10
223.8332158133598
 20
390.6173281977926
 30
0.0
 10
223.5402595899879
 20
390.7094990345572
 30
0.0
 10
222.9502549702882
 20
390.8341706668073
 30
0.0
 10
222.6503147100638
 20
390.8681638039001
 30
0.0
 10
222.3452409174729
 20
390.8726916671184
 30
0.0
  0
SPLINE
  5
AF
330
1F
100
AcDbEntity
  8
0
  6
Continuous
 62
     7
370
    25
100
AcDbSpline
210
0.0
220
0.0
230
1.0
 70
     8
 71
     3
 72
    22
 73
    18
 74
     0
 42
0.000000001
 43
0.00000001
 40
0.0
 40
0.0
 40
0.0
 40
0.0
 40
0.125
 40
0.125
 40
0.25
 40
0.25
 40
0.375
 40
0.375
 40
0.5
 40
0.5
 40
0.625
 40
0.625
 40
0.75
 40
0.75
 40
0.875
 40
0.875
 40
1.0
 40
1.0
 40
1.0
 40
1.0
 10
207.5334687599108
 20
390.8726916671184
 30
0.0
 10
207.2283995131574
 20
390.8681638713688
 30
0.0
 10
206.9269556034529
 20
390.8341462433481
 30
0.0
 10
206.3312508652784
 20
390.7076811481139
 30
0.0
 10
206.0419587719819
 20
390.6159911631389
 30
0.0
 10
205.4883700546278
 20
390.3806366427864
 30
0.0
 10
205.2207878919645
 20
390.2353895114401
 30
0.0
 10
204.7173981902515
 20
389.8952109792962
 30
0.0
 10
204.4853531957345
 20
389.7033775332262
 30
0.0
 10
204.0595236969544
 20
389.277372266061
 30
0.0
 10
203.8641174010878
 20
389.0403173769454
 30
0.0
 10
203.5265249395331
 20
388.5392962757729
 30
0.0
 10
203.3830388825491
 20
388.2749921641224
 30
0.0
 10
203.1468653505769
 20
387.7186996843455
 30
0.0
 10
203.0546945138124
 20
387.4257434609736
 30
0.0
 10
202.9300228815623
 20
386.835738841274
 30
0.0
 10
202.8960297444694
 20
386.5357985810496
 30
0.0
 10
202.8915018812512
 20
386.2307247884586
 30
0.0
  0
SPLINE
  5
B0
330
1F
100
AcDbEntity
  8
0
  6
Continuous
 62
     7
370
    25
100
AcDbSpline
210
0.0
220
0.0
230
1.0
 70
     8
 71
     3
 72
    22
 73
    18
 74
     0
 42
0.000000001
 43
0.00000001
 40
0.0
 40
0.0
 40
0.0
 40
0.0
 40
0.125
 40
0.125
 40
0.25
 40
0.25
 40
0.375
 40
0.375
 40
0.5
 40
0.5
 40
0.625
 40
0.625
 40
0.75
 40
0.75
 40
0.875
 40
0.875
 40
1.0
 40
1.0
 40
1.0
 40
1.0
 10
202.8915018812511
 20
371.4189526308966
 30
0.0
 10
202.8960296770006
 20
371.1138833841431
 30
0.0
 10
202.9300473050213
 20
370.8124394744386
 30
0.0
 10
203.0565124002555
 20
370.2167347362641
 30
0.0
 10
203.1482023852305
 20
369.9274426429677
 30
0.0
 10
203.383556905583
 20
369.3738539256136
 30
0.0
 10
203.5288040369293
 20
369.1062717629503
 30
0.0
 10
203.8689825690732
 20
368.6028820612374
 30
0.0
 10
204.0608160151432
 20
368.3708370667204
 30
0.0
 10
204.4868212823084
 20
367.9450075679403
 30
0.0
 10
204.723876171424
 20
367.7496012720737
 30
0.0
 10
205.2248972725963
 20
367.412008810519
 30
0.0
 10
205.4892013842468
 20
367.2685227535349
 30
0.0
 10
206.0454938640237
 20
367.0323492215626
 30
0.0
 10
206.3384500873956
 20
366.9401783847981
 30
0.0
 10
206.9284547070952
 20
366.8155067525481
 30
0.0
 10
207.2283949673199
 20
366.7815136154551
 30
0.0
 10
207.5334687599108
 20
366.7769857522369
 30
0.0
  0
SPLINE
  5
B1
330
1F
100
AcDbEntity
  8
0
  6
Continuous
 62
     7
370
    25
100
AcDbSpline
210
0.0
220
0.0
230
1.0
 70
     8
 71
     3
 72
    22
 73
    18
 74
     0
 42
0.000000001
 43
0.00000001
 40
0.0
 40
0.0
 40
0.0
 40
0.0
 40
0.125
 40
0.125
 40
0.25
 40
0.25
 40
0.375
 40
0.375
 40
0.5
 40
0.5
 40
0.625
 40
0.625
 40
0.75
 40
0.75
 40
0.875
 40
0.875
 40
1.0
 40
1.0
 40
1.0
 40
1.0
 10
222.3452409174729
 20
366.7769857522368
 30
0.0
 10
222.6503101642264
 20
366.7815135479863
 30
0.0
 10
222.9517540739308
 20
366.8155311760071
 30
0.0
 10
223.5474588121053
 20
366.9419962712412
 30
0.0
 10
223.8367509054017
 20
367.0336862562163
 30
0.0
 10
224.3903396227558
 20
367.2690407765688
 30
0.0
 10
224.6579217854192
 20
367.414287907915
 30
0.0
 10
225.1613114871321
 20
367.7544664400589
 30
0.0
 10
225.3933564816491
 20
367.9462998861289
 30
0.0
 10
225.8191859804292
 20
368.3723051532941
 30
0.0
 10
226.0145922762958
 20
368.6093600424097
 30
0.0
 10
226.3521847378505
 20
369.1103811435821
 30
0.0
 10
226.4956707948345
 20
369.3746852552326
 30
0.0
 10
226.7318443268068
 20
369.9309777350095
 30
0.0
 10
226.8240151635713
 20
370.2239339583813
 30
0.0
 10
226.9486867958214
 20
370.8139385780809
 30
0.0
 10
226.9826799329144
 20
371.1138788383057
 30
0.0
 10
226.9872077961326
 20
371.4189526308966
 30
0.0
  0
SPLINE
  5
B2
330
1F
100
AcDbEntity
  8
0
  6
Continuous
 62
     7
370
    25
100
AcDbSpline
210
0.0
220
0.0
230
1.0
 70
     8
 71
     3
 72
    17
 73
    13
 74
     0
 42
0.000000001
 43
0.00000001
 40
0.0
 40
0.0
 40
0.0
 40
0.0
 40
0.2499999999999905
 40
0.2499999999999905
 40
0.3749999999999858
 40
0.3749999999999858
 40
0.4374999999999841
 40
0.4687499999999839
 40
0.4687499999999839
 40
0.4999999999999838
 40
0.4999999999999838
 40
1.0
 40
1.0
 40
1.0
 40
1.0
 10
226.9872077961359
 20
371.4189526308957
 30
0.0
 10
227.0058130425056
 20
372.6725181205235
 30
0.0
 10
227.0164487250304
 20
373.9261433436161
 30
0.0
 10
227.0266437571607
 20
375.8066243392943
 30
0.0
 10
227.0290073961884
 20
376.4334590931734
 30
0.0
 10
227.0312952822491
 20
377.3737206497477
 30
0.0
 10
227.0321211982166
 20
377.8438538117109
 30
0.0
 10
227.03249506443
 20
378.3139903618768
 30
0.0
 10
227.032644702565
 20
378.6274154752209
 30
0.0
 10
227.0326688824007
 20
378.7853650929783
 30
0.0
 10
227.0322775033234
 20
381.3685656761805
 30
0.0
 10
227.0232843050487
 20
383.7999982253877
 30
0.0
 10
226.9872077961325
 20
386.2307247884586
 30
0.0
  0
SPLINE
  5
B3
330
1F
100
AcDbEntity
  8
0
  6
Continuous
 62
     7
370
    25
100
AcDbSpline
210
0.0
220
0.0
230
1.0
 70
     8
 71
     3
 72
    17
 73
    13
 74
     0
 42
0.000000001
 43
0.00000001
 40
0.0
 40
0.0
 40
0.0
 40
0.0
 40
0.2500000000000001
 40
0.2500000000000001
 40
0.3750000000000001
 40
0.3750000000000001
 40
0.4375000000000001
 40
0.4687500000000001
 40
0.4687500000000001
 40
0.5000000000000001
 40
0.5000000000000001
 40
1.0
 40
1.0
 40
1.0
 40
1.0
 10
222.3452409174729
 20
390.8726916671217
 30
0.0
 10
221.0916754275456
 20
390.8912969134958
 30
0.0
 10
219.8380502041543
 20
390.9019325960214
 30
0.0
 10
217.9575692080287
 20
390.9121276281512
 30
0.0
 10
217.3307344540006
 20
390.9144912671783
 30
0.0
 10
216.3904728972029
 20
390.9167791532377
 30
0.0
 10
215.920339735128
 20
390.9176050692043
 30
0.0
 10
215.4502031848505
 20
390.9179789354169
 30
0.0
 10
215.136778071432
 20
390.9181285735513
 30
0.0
 10
214.9788284536722
 20
390.9181527533867
 30
0.0
 10
212.3956278710664
 20
390.9177613743035
 30
0.0
 10
209.9641953224206
 20
390.9087681760262
 30
0.0
 10
207.5334687599108
 20
390.8726916671184
 30
0.0
  0
SPLINE
  5
B4
330
1F
100
AcDbEntity
  8
0
  6
Continuous
 62
     7
370
    25
100
AcDbSpline
210
0.0
220
0.0
230
1.0
 70
     8
 71
     3
 72
    17
 73
    13
 74
     0
 42
0.000000001
 43
0.00000001
 40
0.0
 40
0.0
 40
0.0
 40
0.0
 40
0.2500000000000002
 40
0.2500000000000002
 40
0.3750000000000002
 40
0.3750000000000002
 40
0.4375000000000002
 40
0.4687500000000002
 40
0.4687500000000002
 40
0.5000000000000002
 40
0.5000000000000002
 40
1.0
 40
1.0
 40
1.0
 40
1.0
 10
207.5334687599099
 20
366.7769857522335
 30
0.0
 10
208.7870342475935
 20
366.7583805058928
 30
0.0
 10
210.0406594687469
 20
366.7477448233731
 30
0.0
 10
211.9211404615199
 20
366.7375497912391
 30
0.0
 10
212.5479752144313
 20
366.7351861522078
 30
0.0
 10
213.4882367695548
 20
366.7328982661388
 30
0.0
 10
213.9583699307927
 20
366.7320723501664
 30
0.0
 10
214.4285064802337
 20
366.7316984839469
 30
0.0
 10
214.7419315930946
 20
366.7315488458075
 30
0.0
 10
214.8998812108361
 20
366.7315246659692
 30
0.0
 10
217.483081797909
 20
366.7319160450091
 30
0.0
 10
219.9145143507598
 20
366.7409092432666
 30
0.0
 10
222.3452409174729
 20
366.7769857522369
 30
0.0
  0
SPLINE
  5
B5
330
1F
100
AcDbEntity
  8
0
  6
Continuous
 62
     7
370
    25
100
AcDbSpline
210
0.0
220
0.0
230
1.0
 70
     8
 71
     3
 72
    17
 73
    13
 74
     0
 42
0.000000001
 43
0.00000001
 40
0.0
 40
0.0
 40
0.0
 40
0.0
 40
0.2500000000000001
 40
0.2500000000000001
 40
0.3750000000000008
 40
0.3750000000000008
 40
0.4375000000000018
 40
0.4687500000000016
 40
0.4687500000000016
 40
0.5000000000000014
 40
0.5000000000000014
 40
1.0
 40
1.0
 40
1.0
 40
1.0
 10
202.8915018812478
 20
386.2307247884587
 30
0.0
 10
202.8728966349012
 20
384.9771593003789
 30
0.0
 10
202.8622609523804
 20
383.7235340788303
 30
0.0
 10
202.8520659202472
 20
381.8430530854651
 30
0.0
 10
202.8497022812167
 20
381.2162183323565
 30
0.0
 10
202.8474143951494
 20
380.2759567769373
 30
0.0
 10
202.8465884791779
 20
379.8058236155515
 30
0.0
 10
202.8462146129596
 20
379.3356870659627
 30
0.0
 10
202.8460649748212
 20
379.0222619530033
 30
0.0
 10
202.8460407949835
 20
378.8643123352586
 30
0.0
 10
202.846432174031
 20
376.281111748975
 30
0.0
 10
202.855425372292
 20
373.849679196867
 30
0.0
 10
202.8915018812512
 20
371.4189526308966
 30
0.0
  0
ELLIPSE
  5
B6
330
1F
100
AcDbEntity
  8
0
  6
Continuous
 62
     7
370
    25
100
AcDbEllipse
 10
162.947239066
 20
392.8169544824
 30
0.0
 11
-16.27460403869716
 21
16.27460403869719
 31
5.684341886080801E-14
210
1.746384081776973E-15
220
-1.746384081776976E-15
230
1.0
 40
0.999315002
 41
5.498129760120321
 42
7.068240854238868
  0
ELLIPSE
  5
B7
330
1F
100
AcDbEntity
  8
0
  6
Continuous
 62
     7
370
    25
100
AcDbEllipse
 10
266.9314706114
 20
392.8169544824
 30
0.0
 11
16.27460403869719
 21
16.27460403869713
 31
5.684341886080801E-14
210
-1.746384081776979E-15
220
-1.746384081776973E-15
230
1.0
 40
0.999315002
 41
5.498129760120323
 42
7.068240854238867
  0
ELLIPSE
  5
B8
330
1F
100
AcDbEntity
  8
0
  6
Continuous
 62
     7
370
    25
100
AcDbEllipse
 10
266.9314706114
 20
288.832722937
 30
0.0
 11
16.27460403869719
 21
-16.27460403869719
 31
-5.684341886080800E-14
210
1.746384081776973E-15
220
-1.746384081776973E-15
230
1.0
 40
0.999315002
 41
5.498129760120323
 42
7.068240854238864
  0
ELLIPSE
  5
B9
330
1F
100
AcDbEntity
  8
0
  6
Continuous
 62
     7
370
    25
100
AcDbEllipse
 10
162.947239066
 20
288.832722937
 30
0.0
 11
-16.27460403869716
 21
-16.27460403869713
 31
-5.684341886080801E-14
210
-1.746384081776979E-15
220
-1.746384081776976E-15
230
1.0
 40
0.999315002
 41
5.498129760120322
 42
7.068240854238864
  0
LINE
  5
BA
330
1F
100
AcDbEntity
  8
0
  6
Continuous
 62
     7
370
    25
100
AcDbLine
 10
162.9314747768
 20
415.8248416899
 30
0.0
 11
266.9472349006
 21
415.8248416899
 31
0.0
  0
LINE
  5
BB
330
1F
100
AcDbEntity
  8
0
  6
Continuous
 62
     7
370
    25
100
AcDbLine
 10
289.9393578189
 20
392.8327187715
 30
0.0
 11
289.9393578189
 21
288.8169586478
 31
0.0
  0
LINE
  5
BC
330
1F
100
AcDbEntity
  8
0
  6
Continuous
 62
     7
370
    25
100
AcDbLine
 10
139.9393518585
 20
288.8169586478
 30
0.0
 11
139.9393518585
 21
392.8327187715
 31
0.0
  0
LINE
  5
BD
330
1F
100
AcDbEntity
  8
0
  6
Continuous
 62
     7
370
    25
100
AcDbLine
 10
266.9472349006
 20
265.8248357294
 30
0.0
 11
225.0098501462
 21
265.8248357294
 31
0.0
  0
LINE
  5
BE
330
1F
100
AcDbEntity
  8
0
  6
Continuous
 62
     7
370
    25
100
AcDbLine
 10
224.8793550896
 20
265.8900432108
 30
0.0
 11
225.0098501462
 21
265.8248357294
 31
0.0
  0
LINE
  5
BF
330
1F
100
AcDbEntity
  8
0
  6
Continuous
 62
     7
370
    25
100
AcDbLine
 10
204.9993545878
 20
265.8900432108
 30
0.0
 11
224.8793550896
 21
265.8900432108
 31
0.0
  0
LINE
  5
C0
330
1F
100
AcDbEntity
  8
0
  6
Continuous
 62
     7
370
    25
100
AcDbLine
 10
204.8688595313
 20
265.8248357294
 30
0.0
 11
204.9993545878
 21
265.8900432108
 31
0.0
  0
LINE
  5
C1
330
1F
100
AcDbEntity
  8
0
  6
Continuous
 62
     7
370
    25
100
AcDbLine
 10
204.8688595313
 20
265.8248357294
 30
0.0
 11
162.9314747768
 21
265.8248357294
 31
0.0
  0
SPLINE
  5
C2
330
1F
100
AcDbEntity
  8
0
  6
Continuous
 62
     8
370
    18
100
AcDbSpline
210
0.0
220
0.0
230
1.0
 70
     8
 71
     3
 72
    22
 73
    18
 74
     0
 42
0.000000001
 43
0.00000001
 40
0.0
 40
0.0
 40
0.0
 40
0.0
 40
0.1249999999999999
 40
0.1249999999999999
 40
0.2499999999999998
 40
0.2499999999999998
 40
0.3749999999999998
 40
0.3749999999999998
 40
0.4999999999999998
 40
0.4999999999999998
 40
0.6249999999999999
 40
0.6249999999999999
 40
0.7499999999999999
 40
0.7499999999999999
 40
0.875
 40
0.875
 40
1.0
 40
1.0
 40
1.0
 40
1.0
 10
212.442614759135
 20
321.9791263312075
 30
0.0
 10
212.5758127019006
 20
322.1899355989343
 30
0.0
 10
212.7342571551343
 20
322.3816289033476
 30
0.0
 10
213.0927561463096
 20
322.7195802395511
 30
0.0
 10
213.296796564621
 20
322.868433190661
 30
0.0
 10
213.729310896383
 20
323.1069741840236
 30
0.0
 10
213.9609846657083
 20
323.1993230055085
 30
0.0
 10
214.4440170048665
 20
323.3237735989737
 30
0.0
 10
214.6892653896124
 20
323.3548510518398
 30
0.0
 10
215.1871869005895
 20
323.3550413436847
 30
0.0
 10
215.4359437442467
 20
323.3233674193089
 30
0.0
 10
215.9145981511834
 20
323.2002121437703
 30
0.0
 10
216.1497044843201
 20
323.1068336896143
 30
0.0
 10
216.5821232484894
 20
322.8682891552022
 30
0.0
 10
216.783949724491
 20
322.7214117652036
 30
0.0
 10
217.1457343638778
 20
322.3804778482428
 30
0.0
 10
217.3028960536148
 20
322.1899370580305
 30
0.0
 10
217.4360949182972
 20
321.9791263312075
 30
0.0
  0
ARC
  5
C3
330
1F
100
AcDbEntity
  8
0
  6
Continuous
 62
     8
370
    18
100
AcDbCircle
 10
214.9393548387
 20
340.8248387097
 30
0.0
 40
19.01038100818095
100
AcDbArc
 50
277.5467792049
 51
262.4532207951
  0
SPLINE
  5
C4
330
1F
100
AcDbEntity
  8
0
  6
Continuous
 62
     8
370
    18
100
AcDbSpline
210
0.0
220
0.0
230
1.0
 70
     8
 71
     3
 72
     8
 73
     4
 74
     0
 42
0.000000001
 43
0.00000001
 40
0.0
 40
0.0
 40
0.0
 40
0.0
 40
1.0
 40
1.0
 40
1.0
 40
1.0
 10
212.4429388162931
 20
321.9784412343726
 30
0.0
 10
212.4428307931443
 20
321.9786695616699
 30
0.0
 10
212.4427227740917
 20
321.9788979272818
 30
0.0
 10
212.442614759135
 20
321.9791263312075
 30
0.0
  0
SPLINE
  5
C5
330
1F
100
AcDbEntity
  8
0
  6
Continuous
 62
     8
370
    18
100
AcDbSpline
210
0.0
220
0.0
230
1.0
 70
     8
 71
     3
 72
     8
 73
     4
 74
     0
 42
0.000000001
 43
0.00000001
 40
0.0
 40
0.0
 40
0.0
 40
0.0
 40
1.0
 40
1.0
 40
1.0
 40
1.0
 10
217.4357708611353
 20
321.9784412344062
 30
0.0
 10
217.4358788842862
 20
321.9786695616849
 30
0.0
 10
217.4359869033405
 20
321.9788979272817
 30
0.0
 10
217.4360949182972
 20
321.9791263312075
 30
0.0
  0
LWPOLYLINE
  5
C6
330
1F
100
AcDbEntity
  8
0
  6
Continuous
 62
     8
370
    18
100
AcDbPolyline
 90
        9
 70
   128
 43
0.0
 10
217.4357708207
 20
321.9784404902
 10
217.4369463827
 20
321.9695668487
 10
217.4381135627
 20
321.9607546745
 10
217.4392700325
 20
321.9520244567
 10
217.4404134638
 20
321.9433929591
 10
217.4415412954
 20
321.9348769455
 10
217.4426516647
 20
321.9264969049
 10
217.4437417778
 20
321.918265876
 10
217.444809772
 20
321.9102043478
  0
LWPOLYLINE
  5
C7
330
1F
100
AcDbEntity
  8
0
  6
Continuous
 62
     8
370
    18
100
AcDbPolyline
 90
        9
 70
   128
 43
0.0
 10
212.4338999054
 20
321.9102043478
 10
212.4349678996
 20
321.918265876
 10
212.4360580127
 20
321.9264969049
 10
212.437168382
 20
321.9348769455
 10
212.4382962137
 20
321.9433929591
 10
212.4394396449
 20
321.9520244567
 10
212.4405961148
 20
321.9607546745
 10
212.4417632948
 20
321.9695668487
 10
212.4429388567
 20
321.9784404902
  0
CIRCLE
  5
C8
330
1F
100
AcDbEntity
  8
0
  6
Continuous
 62
     8
370
    18
100
AcDbCircle
 10
214.9393548387
 20
340.8248387097
 30
0.0
 40
19.55783217965632
  0
ARC
  5
C9
330
1F
100
AcDbEntity
  8
0
  6
Continuous
 62
     8
370
    18
100
AcDbCircle
 10
219.7692198868
 20
360.7877313285
 30
0.0
 40
0.4561591724855242
100
AcDbArc
 50
173.3084486283
 51
178.0936850306
  0
SPLINE
  5
CA
330
1F
100
AcDbEntity
  8
0
  6
Continuous
 62
     8
370
    18
100
AcDbSpline
210
0.0
220
0.0
230
1.0
 70
     8
 71
     3
 72
    13
 73
     9
 74
     0
 42
0.000000001
 43
0.00000001
 40
0.0
 40
0.0
 40
0.0
 40
0.0
 40
0.187573826743704
 40
0.3788985413162205
 40
0.5453208251421964
 40
0.6668069301910585
 40
0.8067378003763508
 40
1.0
 40
1.0
 40
1.0
 40
1.0
 10
219.32345387889
 20
361.1459694622411
 30
0.0
 10
219.8819778742633
 20
361.0126292556898
 30
0.0
 10
221.0101945919729
 20
360.7432824569487
 30
0.0
 10
222.5454351277006
 20
360.1856069840642
 30
0.0
 10
223.7568810331426
 20
359.626143712442
 30
0.0
 10
224.6066023011421
 20
359.1641802104917
 30
0.0
 10
225.1846374267454
 20
358.8215003688988
 30
0.0
 10
225.2532566414272
 20
358.7715492534329
 30
0.0
 10
225.2930578905151
 20
358.7425760744465
 30
0.0
  0
ARC
  5
CB
330
1F
100
AcDbEntity
  8
0
  6
Continuous
 62
     8
370
    18
100
AcDbCircle
 10
217.9616521551
 20
361.0258614572
 30
0.0
 40
1.367088098055548
100
AcDbArc
 50
352.2236309194
 51
5.0403231191
  0
ARC
  5
CC
330
1F
100
AcDbEntity
  8
0
  6
Continuous
 62
     8
370
    18
100
AcDbCircle
 10
210.1088256363
 20
360.7876813679
 30
0.0
 40
0.4568250874690305
100
AcDbArc
 50
1.9098047187
 51
6.6880616223
  0
LINE
  5
CD
330
1F
100
AcDbEntity
  8
0
  6
Continuous
 62
     8
370
    18
100
AcDbLine
 10
214.9393548137
 20
361.3113201974
 30
0.0
 11
214.9393548124
 21
361.2761143415
 31
0.0
  0
SPLINE
  5
CE
330
1F
100
AcDbEntity
  8
0
  6
Continuous
 62
     8
370
    18
100
AcDbSpline
210
0.0
220
0.0
230
1.0
 70
     8
 71
     3
 72
    13
 73
     9
 74
     0
 42
0.000000001
 43
0.00000001
 40
0.0
 40
0.0
 40
0.0
 40
0.0
 40
0.1932289868320386
 40
0.3331985423601579
 40
0.4547198148751912
 40
0.6595804411161398
 40
0.8281119879869706
 40
1.0
 40
1.0
 40
1.0
 40
1.0
 10
204.5857644769356
 20
358.7426468549622
 30
0.0
 10
204.6255595959914
 20
358.7716224079072
 30
0.0
 10
204.6941811619367
 20
358.8215870232772
 30
0.0
 10
205.2720954841652
 20
359.1641051321635
 30
0.0
 10
206.1981682204845
 20
359.6679135467973
 30
0.0
 10
207.4837944877058
 20
360.2488759899344
 30
0.0
 10
209.0290588073428
 20
360.7851809710517
 30
0.0
 10
210.0431907361765
 20
361.0249187106405
 30
0.0
 10
210.5552562641904
 20
361.145969462241
 30
0.0
  0
ARC
  5
CF
330
1F
100
AcDbEntity
  8
0
  6
Continuous
 62
     8
370
    18
100
AcDbCircle
 10
211.9170169536
 20
361.0258604772
 30
0.0
 40
1.367047308454418
100
AcDbArc
 50
174.959484869
 51
187.7765610926
  0
SPLINE
  5
D0
330
1F
100
AcDbEntity
  8
0
  6
Continuous
 62
     8
370
    18
100
AcDbSpline
210
0.0
220
0.0
230
1.0
 70
     8
 71
     3
 72
    10
 73
     6
 74
     0
 42
0.000000001
 43
0.00000001
 40
0.0
 40
0.0
 40
0.0
 40
0.0
 40
0.5000000000000001
 40
0.5000000000000001
 40
1.0
 40
1.0
 40
1.0
 40
1.0
 10
214.9393589116395
 20
361.6006211701518
 30
0.0
 10
215.6766647921849
 20
361.6006209317342
 30
0.0
 10
216.4146408792224
 20
361.5645951900995
 30
0.0
 10
217.8805144077129
 20
361.4155636773075
 30
0.0
 10
218.607308788449
 20
361.3041192318681
 30
0.0
 10
219.323453962679
 20
361.1459695695673
 30
0.0
  0
LWPOLYLINE
  5
D1
330
1F
100
AcDbEntity
  8
0
  6
Continuous
 62
     8
370
    18
100
AcDbPolyline
 90
        9
 70
   128
 43
0.0
 10
214.9393546648
 20
361.6006206541
 10
214.9393546813
 20
361.5793175815
 10
214.9393546987
 20
361.5534677921
 10
214.9393547167
 20
361.5231942205
 10
214.9393547353
 20
361.4886458783
 10
214.9393547543
 20
361.4499866782
 10
214.9393547738
 20
361.4074066101
 10
214.9393547937
 20
361.3611105649
 10
214.9393548137
 20
361.3113201974
  0
SPLINE
  5
D2
330
1F
100
AcDbEntity
  8
0
  6
Continuous
 62
     8
370
    18
100
AcDbSpline
210
0.0
220
0.0
230
1.0
 70
     8
 71
     3
 72
    10
 73
     6
 74
     0
 42
0.000000001
 43
0.00000001
 40
0.0
 40
0.0
 40
0.0
 40
0.0
 40
0.5
 40
0.5
 40
1.0
 40
1.0
 40
1.0
 40
1.0
 10
210.5552562561197
 20
361.1459697080713
 30
0.0
 10
211.2713979229404
 20
361.304118212989
 30
0.0
 10
211.9982593755951
 20
361.4148080374507
 30
0.0
 10
213.4641177252719
 20
361.5637368110879
 30
0.0
 10
214.2008875342643
 20
361.6006207913875
 30
0.0
 10
214.9393589116395
 20
361.6006211701517
 30
0.0
  0
SPLINE
  5
D3
330
1F
100
AcDbEntity
  8
0
  6
Continuous
 62
     8
370
    18
100
AcDbSpline
210
0.0
220
0.0
230
1.0
 70
     8
 71
     3
 72
    14
 73
    10
 74
     0
 42
0.000000001
 43
0.00000001
 40
0.0
 40
0.0
 40
0.0
 40
0.0
 40
0.1459030899957521
 40
0.2919004861831665
 40
0.437898032393843
 40
0.5839731251685638
 40
0.7300736083838216
 40
0.8761596082689921
 40
1.0
 40
1.0
 40
1.0
 40
1.0
 10
211.0849247909144
 20
365.3633855102909
 30
0.0
 10
210.9788832014519
 20
365.3623634364976
 30
0.0
 10
210.7667314812885
 20
365.3603186282816
 30
0.0
 10
210.4625204689881
 20
365.3435745271202
 30
0.0
 10
210.1863788028609
 20
365.3174449236067
 30
0.0
 10
209.9500532787977
 20
365.2822246507042
 30
0.0
 10
209.7666014888717
 20
365.239740761751
 30
0.0
 10
209.6418561791824
 20
365.1945012656441
 30
0.0
 10
209.6127850107172
 20
365.1630233842022
 30
0.0
 10
209.5994473564432
 20
365.1485815463914
 30
0.0
  0
LINE
  5
D4
330
1F
100
AcDbEntity
  8
0
  6
Continuous
 62
     8
370
    18
100
AcDbLine
 10
218.8407105057
 20
362.341247481
 30
0.0
 11
218.7937699853
 21
365.3633892356
 31
0.0
  0
SPLINE
  5
D5
330
1F
100
AcDbEntity
  8
0
  6
Continuous
 62
     8
370
    18
100
AcDbSpline
210
0.0
220
0.0
230
1.0
 70
     8
 71
     3
 72
    14
 73
    10
 74
     0
 42
0.000000001
 43
0.00000001
 40
0.0
 40
0.0
 40
0.0
 40
0.0
 40
0.120078094799611
 40
0.2668156822746613
 40
0.4134807197176249
 40
0.5600910764579667
 40
0.7067433793483368
 40
0.8534199622289166
 40
1.0
 40
1.0
 40
1.0
 40
1.0
 10
220.2776348347769
 20
365.150038134898
 30
0.0
 10
220.2646471410758
 20
365.1639789467531
 30
0.0
 10
220.2357882525181
 20
365.1949556809592
 30
0.0
 10
220.11191368501
 20
365.2397069579041
 30
0.0
 10
219.9290248515791
 20
365.2822394649132
 30
0.0
 10
219.6923166041219
 20
365.3173802568552
 30
0.0
 10
219.4164095004862
 20
365.3435630517363
 30
0.0
 10
219.1121371851221
 20
365.3603663605853
 30
0.0
 10
218.8998692464081
 20
365.3623793479591
 30
0.0
 10
218.7937702181742
 20
365.3633855102909
 30
0.0
  0
SPLINE
  5
D6
330
1F
100
AcDbEntity
  8
0
  6
Continuous
 62
     8
370
    18
100
AcDbSpline
210
0.0
220
0.0
230
1.0
 70
     8
 71
     3
 72
    11
 73
     7
 74
     0
 42
0.000000001
 43
0.00000001
 40
0.0
 40
0.0
 40
0.0
 40
0.0
 40
0.2500136271666651
 40
0.5000020073485225
 40
0.7499893837832665
 40
1.0
 40
1.0
 40
1.0
 40
1.0
 10
214.9393548387096
 20
365.4382604155711
 30
0.0
 10
214.6180513800916
 20
365.4373662461118
 30
0.0
 10
213.9754769088612
 20
365.4355779974887
 30
0.0
 10
213.0117329601495
 20
365.4208697666904
 30
0.0
 10
212.0481532143923
 20
365.3981424502242
 30
0.0
 10
211.4060113461352
 20
365.3749746907242
 30
0.0
 10
211.0849254887096
 20
365.3633902725583
 30
0.0
  0
SPLINE
  5
D7
330
1F
100
AcDbEntity
  8
0
  6
Continuous
 62
     8
370
    18
100
AcDbSpline
210
0.0
220
0.0
230
1.0
 70
     8
 71
     3
 72
    11
 73
     7
 74
     0
 42
0.000000001
 43
0.00000001
 40
0.0
 40
0.0
 40
0.0
 40
0.0
 40
0.2500105803703002
 40
0.4999979449714972
 40
0.7499863371615304
 40
1.0
 40
1.0
 40
1.0
 40
1.0
 10
218.7937695187096
 20
365.3633908413756
 30
0.0
 10
218.4726849284473
 20
365.37497517167
 30
0.0
 10
217.8305455635636
 20
365.3981427565477
 30
0.0
 10
216.8669695309239
 20
365.4208698996127
 30
0.0
 10
215.9032292052714
 20
365.4355780182181
 30
0.0
 10
215.2606571196613
 20
365.4373662529937
 30
0.0
 10
214.9393548387096
 20
365.4382604155711
 30
0.0
  0
ARC
  5
D8
330
1F
100
AcDbEntity
  8
0
  6
Continuous
 62
     8
370
    18
100
AcDbCircle
 10
179.396283784
 20
364.3363389657
 30
0.0
 40
31.70528021437246
100
AcDbArc
 50
1.856338387
 51
3.3509540089
  0
LINE
  5
D9
330
1F
100
AcDbEntity
  8
0
  6
Continuous
 62
     8
370
    18
100
AcDbLine
 10
214.9393548387
 20
365.43826012
 30
0.0
 11
214.9393548387
 21
366.2642929523
 31
0.0
  0
LWPOLYLINE
  5
DA
330
1F
100
AcDbEntity
  8
0
  6
Continuous
 62
     8
370
    18
100
AcDbPolyline
 90
        9
 70
   128
 43
0.0
 10
218.7937695197
 20
365.3633910982
 10
218.801274117
 20
365.5500542192
 10
218.808497222
 20
365.7234050153
 10
218.8151680528
 20
365.8769465803
 10
218.821036782
 20
366.0049233405
 10
218.8258833847
 20
366.1025333969
 10
218.8295257873
 20
366.166120377
 10
218.8318277839
 20
366.193300095
 10
218.8327029943
 20
366.1830536841
  0
SPLINE
  5
DB
330
1F
100
AcDbEntity
  8
0
  6
Continuous
 62
     8
370
    18
100
AcDbSpline
210
0.0
220
0.0
230
1.0
 70
     8
 71
     3
 72
    22
 73
    18
 74
     0
 42
0.000000001
 43
0.00000001
 40
0.0
 40
0.0
 40
0.0
 40
0.0
 40
0.125
 40
0.125
 40
0.25
 40
0.25
 40
0.375
 40
0.375
 40
0.5
 40
0.5
 40
0.625
 40
0.625
 40
0.75
 40
0.75
 40
0.875
 40
0.875
 40
1.0
 40
1.0
 40
1.0
 40
1.0
 10
207.5294749989054
 20
390.4916611620585
 30
0.0
 10
207.248409722246
 20
390.4917582219494
 30
0.0
 10
206.9704028585218
 20
390.4642787594897
 30
0.0
 10
206.4204619192324
 20
390.3545638383519
 30
0.0
 10
206.1527239158039
 20
390.2728263261315
 30
0.0
 10
205.6408251052601
 20
390.0603740213319
 30
0.0
 10
205.393215320171
 20
389.9280718037007
 30
0.0
 10
204.9282174657157
 20
389.6167851942877
 30
0.0
 10
204.7140721380395
 20
389.4405433383403
 30
0.0
 10
204.3216330934047
 20
389.0478227650291
 30
0.0
 10
204.1419948579898
 20
388.8287371851296
 30
0.0
 10
203.8334091383086
 20
388.3660558158416
 30
0.0
 10
203.702817908281
 20
388.1215998035632
 30
0.0
 10
203.4894611304992
 20
387.6062233749181
 30
0.0
 10
203.4077699531846
 20
387.3359852833391
 30
0.0
 10
203.2999119934946
 20
386.7921737120324
 30
0.0
 10
203.2724353265553
 20
386.5157834345505
 30
0.0
 10
203.2725323863109
 20
386.234718549464
 30
0.0
  0
LWPOLYLINE
  5
DC
330
1F
100
AcDbEntity
  8
0
  6
Continuous
 62
     8
370
    18
100
AcDbPolyline
 90
        9
 70
   128
 43
0.0
 10
222.3492347765
 20
390.4916606663
 10
220.4969231169
 20
390.4911018728
 10
218.6444759498
 20
390.4907032667
 10
216.7919380953
 20
390.4904611228
 10
214.9393548387
 20
390.4903828917
 10
213.0867715822
 20
390.4904611228
 10
211.2342337276
 20
390.4907032667
 10
209.3817865605
 20
390.4911018728
 10
207.5294749009
 20
390.4916606663
  0
SPLINE
  5
DD
330
1F
100
AcDbEntity
  8
0
  6
Continuous
 62
     8
370
    18
100
AcDbSpline
210
0.0
220
0.0
230
1.0
 70
     8
 71
     3
 72
    22
 73
    18
 74
     0
 42
0.000000001
 43
0.00000001
 40
0.0
 40
0.0
 40
0.0
 40
0.0
 40
0.125
 40
0.125
 40
0.25
 40
0.25
 40
0.375
 40
0.375
 40
0.5
 40
0.5
 40
0.625
 40
0.625
 40
0.75
 40
0.75
 40
0.875
 40
0.875
 40
1.0
 40
1.0
 40
1.0
 40
1.0
 10
226.6061772910728
 20
386.234718549464
 30
0.0
 10
226.6062743509637
 20
386.5157838261234
 30
0.0
 10
226.578794888504
 20
386.7937906898476
 30
0.0
 10
226.4690799673662
 20
387.343731629137
 30
0.0
 10
226.3873424551458
 20
387.6114696325656
 30
0.0
 10
226.1748901503462
 20
388.1233684431094
 30
0.0
 10
226.0425879327151
 20
388.3709782281985
 30
0.0
 10
225.731301323302
 20
388.8359760826538
 30
0.0
 10
225.5550594673546
 20
389.05012141033
 30
0.0
 10
225.1623388940434
 20
389.4425604549648
 30
0.0
 10
224.9432533141438
 20
389.6221986903797
 30
0.0
 10
224.4805719448559
 20
389.9307844100609
 30
0.0
 10
224.2361159325775
 20
390.0613756400885
 30
0.0
 10
223.7207395039324
 20
390.2747324178704
 30
0.0
 10
223.4505014123533
 20
390.356423595185
 30
0.0
 10
222.9066898410466
 20
390.464281554875
 30
0.0
 10
222.6302995635647
 20
390.4917582218142
 30
0.0
 10
222.3492346784782
 20
390.4916611620586
 30
0.0
  0
LWPOLYLINE
  5
DE
330
1F
100
AcDbEntity
  8
0
  6
Continuous
 62
     8
370
    18
100
AcDbPolyline
 90
        9
 70
   128
 43
0.0
 10
226.6061770859
 20
371.4149594127
 10
226.605617361
 20
373.2672706066
 10
226.6052178237
 20
375.119715911
 10
226.6049775424
 20
376.9722543476
 10
226.60489838
 20
378.8248374878
 10
226.6049775424
 20
380.6774206279
 10
226.6052178237
 20
382.5299590646
 10
226.605617361
 20
384.3824080943
 10
226.6061770859
 20
386.2347192882
  0
SPLINE
  5
DF
330
1F
100
AcDbEntity
  8
0
  6
Continuous
 62
     8
370
    18
100
AcDbSpline
210
0.0
220
0.0
230
1.0
 70
     8
 71
     3
 72
    22
 73
    18
 74
     0
 42
0.000000001
 43
0.00000001
 40
0.0
 40
0.0
 40
0.0
 40
0.0
 40
0.125
 40
0.125
 40
0.25
 40
0.25
 40
0.375
 40
0.375
 40
0.5
 40
0.5
 40
0.625
 40
0.625
 40
0.75
 40
0.75
 40
0.875
 40
0.875
 40
1.0
 40
1.0
 40
1.0
 40
1.0
 10
222.3492346784782
 20
367.1580162572967
 30
0.0
 10
222.6302999551377
 20
367.1579191974058
 30
0.0
 10
222.9083068188619
 20
367.1853986598654
 30
0.0
 10
223.4582477581513
 20
367.2951135810033
 30
0.0
 10
223.7259857615798
 20
367.3768510932237
 30
0.0
 10
224.2378845721236
 20
367.5893033980233
 30
0.0
 10
224.4854943572127
 20
367.7216056156544
 30
0.0
 10
224.950492211668
 20
368.0328922250675
 30
0.0
 10
225.1646375393443
 20
368.209134081015
 30
0.0
 10
225.557076583979
 20
368.6018546543261
 30
0.0
 10
225.7367148193939
 20
368.8209402342257
 30
0.0
 10
226.0453005390752
 20
369.2836216035136
 30
0.0
 10
226.1758917691028
 20
369.528077615792
 30
0.0
 10
226.3892485468846
 20
370.0434540444371
 30
0.0
 10
226.4709397241992
 20
370.3136921360162
 30
0.0
 10
226.5787976838892
 20
370.857503707323
 30
0.0
 10
226.6062743508284
 20
371.1338939848048
 30
0.0
 10
226.6061772910728
 20
371.4149588698912
 30
0.0
  0
LWPOLYLINE
  5
E0
330
1F
100
AcDbEntity
  8
0
  6
Continuous
 62
     8
370
    18
100
AcDbPolyline
 90
        9
 70
   128
 43
0.0
 10
207.5294749009
 20
367.1580161719
 10
209.3817865605
 20
367.1585768281
 10
211.2342337276
 20
367.1589754341
 10
213.0867715822
 20
367.1592157154
 10
214.9393548387
 20
367.1592958091
 10
216.7919380953
 20
367.1592157154
 10
218.6444759498
 20
367.1589754341
 10
220.4969231169
 20
367.1585768281
 10
222.3492347765
 20
367.1580161719
  0
SPLINE
  5
E1
330
1F
100
AcDbEntity
  8
0
  6
Continuous
 62
     8
370
    18
100
AcDbSpline
210
0.0
220
0.0
230
1.0
 70
     8
 71
     3
 72
    22
 73
    18
 74
     0
 42
0.000000001
 43
0.00000001
 40
0.0
 40
0.0
 40
0.0
 40
0.0
 40
0.125
 40
0.125
 40
0.25
 40
0.25
 40
0.375
 40
0.375
 40
0.5
 40
0.5
 40
0.625
 40
0.625
 40
0.75
 40
0.75
 40
0.875
 40
0.875
 40
1.0
 40
1.0
 40
1.0
 40
1.0
 10
203.2725323863109
 20
371.4149588698912
 30
0.0
 10
203.27243532642
 20
371.1338935932318
 30
0.0
 10
203.2999147888797
 20
370.8558867295076
 30
0.0
 10
203.4096297100176
 20
370.3059457902181
 30
0.0
 10
203.491367222238
 20
370.0382077867897
 30
0.0
 10
203.7038195270375
 20
369.5263089762458
 30
0.0
 10
203.8361217446687
 20
369.2786991911568
 30
0.0
 10
204.1474083540818
 20
368.8137013367015
 30
0.0
 10
204.3236502100292
 20
368.5995560090252
 30
0.0
 10
204.7163707833404
 20
368.2071169643905
 30
0.0
 10
204.9354563632399
 20
368.0274787289755
 30
0.0
 10
205.3981377325279
 20
367.7188930092943
 30
0.0
 10
205.6425937448062
 20
367.5883017792667
 30
0.0
 10
206.1579701734514
 20
367.3749450014849
 30
0.0
 10
206.4282082650304
 20
367.2932538241702
 30
0.0
 10
206.9720198363372
 20
367.1853958644803
 30
0.0
 10
207.248410113819
 20
367.157919197541
 30
0.0
 10
207.5294749989055
 20
367.1580162572966
 30
0.0
  0
LWPOLYLINE
  5
E2
330
1F
100
AcDbEntity
  8
0
  6
Continuous
 62
     8
370
    18
100
AcDbPolyline
 90
        9
 70
   128
 43
0.0
 10
203.2725325915
 20
386.2347192882
 10
203.2730923164
 20
384.3824080943
 10
203.2734918538
 20
382.5299590646
 10
203.273732135
 20
380.6774206279
 10
203.2738112974
 20
378.8248374878
 10
203.273732135
 20
376.9722543476
 10
203.2734918538
 20
375.119715911
 10
203.2730923164
 20
373.2672706066
 10
203.2725325915
 20
371.4149594127
  0
ARC
  5
E3
330
1F
100
AcDbEntity
  8
0
  6
Continuous
 62
     8
370
    18
100
AcDbCircle
 10
205.7160407619
 20
390.5078467049
 30
0.0
 40
16.63320189005657
100
AcDbArc
 50
359.9442445388
 51
1.2568658811
  0
ARC
  5
E4
330
1F
100
AcDbEntity
  8
0
  6
Continuous
 62
     8
370
    18
100
AcDbCircle
 10
226.6221080153
 20
369.5751605296
 30
0.0
 40
16.65956637571892
100
AcDbArc
 50
88.7442426929
 51
90.0547898507
  0
ARC
  5
E5
330
1F
100
AcDbEntity
  8
0
  6
Continuous
 62
     8
370
    18
100
AcDbCircle
 10
203.2566016622
 20
369.5751605296
 30
0.0
 40
16.65956637571892
100
AcDbArc
 50
89.9452101493
 51
91.2557573071
  0
ARC
  5
E6
330
1F
100
AcDbEntity
  8
0
  6
Continuous
 62
     8
370
    18
100
AcDbCircle
 10
224.1626689155
 20
390.5078467049
 30
0.0
 40
16.6332018900566
100
AcDbArc
 50
178.7431341189
 51
180.0557554612
  0
ARC
  5
E7
330
1F
100
AcDbEntity
  8
0
  6
Continuous
 62
     8
370
    18
100
AcDbCircle
 10
224.1628761478
 20
367.1418323056
 30
0.0
 40
16.63340912014551
100
AcDbArc
 50
179.9442527159
 51
181.256857704
  0
ARC
  5
E8
330
1F
100
AcDbEntity
  8
0
  6
Continuous
 62
     8
370
    18
100
AcDbCircle
 10
203.256261953
 20
388.0421056567
 30
0.0
 40
16.62715420494704
100
AcDbArc
 50
268.7429652784
 51
270.0560672652
  0
ARC
  5
E9
330
1F
100
AcDbEntity
  8
0
  6
Continuous
 62
     8
370
    18
100
AcDbCircle
 10
226.6224477244
 20
388.0421056567
 30
0.0
 40
16.62715420494704
100
AcDbArc
 50
269.9439327348
 51
271.2570347216
  0
ARC
  5
EA
330
1F
100
AcDbEntity
  8
0
  6
Continuous
 62
     8
370
    18
100
AcDbCircle
 10
205.7158335296
 20
367.1418323056
 30
0.0
 40
16.63340912014548
100
AcDbArc
 50
358.743142296
 51
0.0557472841
  0
ELLIPSE
  5
EB
330
1F
100
AcDbEntity
  8
0
  6
Continuous
 62
     8
370
    18
100
AcDbEllipse
 10
266.3056270859
 20
392.1911109569
 30
0.0
 11
15.21321681878208
 21
15.21321681878214
 31
5.329070518200751E-14
210
1.200569539282548E-18
220
-3.504122128917517E-15
230
1.0
 40
0.999315002
 41
5.49812976012032
 42
7.068240854238865
  0
LINE
  5
EC
330
1F
100
AcDbEntity
  8
0
  6
Continuous
 62
     8
370
    18
100
AcDbLine
 10
287.8129993695
 20
289.4438281475
 30
0.0
 11
287.8129993695
 21
392.2058492719
 31
0.0
  0
ELLIPSE
  5
ED
330
1F
100
AcDbEntity
  8
0
  6
Continuous
 62
     8
370
    18
100
AcDbEllipse
 10
266.3056270859
 20
289.4585664625
 30
0.0
 11
15.21321681878209
 21
-15.21321681878209
 31
-5.151434834260727E-14
210
-1.160550554626905E-18
220
-3.387318057953599E-15
230
1.0
 40
0.999315002
 41
5.498129760120322
 42
7.068240854238867
  0
LINE
  5
EE
330
1F
100
AcDbEntity
  8
0
  6
Continuous
 62
     8
370
    18
100
AcDbLine
 10
163.5583442765
 20
267.9511941789
 30
0.0
 11
266.3203654009
 21
267.9511941789
 31
0.0
  0
ELLIPSE
  5
EF
330
1F
100
AcDbEntity
  8
0
  6
Continuous
 62
     8
370
    18
100
AcDbEllipse
 10
163.5730825915
 20
289.4585664625
 30
0.0
 11
-15.21321681878212
 21
-15.21321681878209
 31
-5.151434834260726E-14
210
1.160550554639921E-18
220
-3.387318057953612E-15
230
1.0
 40
0.999315002
 41
5.498129760120322
 42
7.068240854238867
  0
LINE
  5
F0
330
1F
100
AcDbEntity
  8
0
  6
Continuous
 62
     8
370
    18
100
AcDbLine
 10
142.0657103079
 20
392.2058492719
 30
0.0
 11
142.0657103079
 21
289.4438281475
 31
0.0
  0
ELLIPSE
  5
F1
330
1F
100
AcDbEntity
  8
0
  6
Continuous
 62
     8
370
    18
100
AcDbEllipse
 10
163.5730825915
 20
392.1911109569
 30
0.0
 11
-15.21321681878212
 21
15.21321681878215
 31
5.329070518200751E-14
210
5.722147543499774E-17
220
-3.445700083943236E-15
230
1.0
 40
0.999315002
 41
5.49812976012032
 42
7.068240854238867
  0
LINE
  5
F2
330
1F
100
AcDbEntity
  8
0
  6
Continuous
 62
     8
370
    18
100
AcDbLine
 10
266.3203654009
 20
413.6984832405
 30
0.0
 11
163.5583442765
 21
413.6984832405
 31
0.0
  0
LINE
  5
F3
330
1F
100
AcDbEntity
  8
0
  6
Continuous
 62
     8
370
    18
100
AcDbLine
 10
163.5583442765
 20
413.6984832405
 30
0.0
 11
163.5583442765
 21
415.1979647396
 31
0.0
  0
LINE
  5
F4
330
1F
100
AcDbEntity
  8
0
  6
Continuous
 62
     8
370
    18
100
AcDbLine
 10
163.5583442765
 20
415.1979647396
 30
0.0
 11
266.3203654009
 21
415.1979647396
 31
0.0
  0
LINE
  5
F5
330
1F
100
AcDbEntity
  8
0
  6
Continuous
 62
     8
370
    18
100
AcDbLine
 10
266.3203654009
 20
413.6984832405
 30
0.0
 11
266.3203654009
 21
415.1979647396
 31
0.0
  0
ELLIPSE
  5
F6
330
1F
100
AcDbEntity
  8
0
  6
Continuous
 62
     8
370
    18
100
AcDbEllipse
 10
266.3056270859
 20
392.1911109569
 30
0.0
 11
16.27315044045241
 21
16.27315044045411
 31
0.0
210
0.0
220
0.0
230
1.0
 40
0.9994042657
 41
5.498129760120268
 42
7.068240854238817
  0
LINE
  5
F7
330
1F
100
AcDbEntity
  8
0
  6
Continuous
 62
     8
370
    18
100
AcDbLine
 10
287.8129993695
 20
392.2058492719
 30
0.0
 11
289.3124808687
 21
392.2058492719
 31
0.0
  0
LINE
  5
F8
330
1F
100
AcDbEntity
  8
0
  6
Continuous
 62
     8
370
    18
100
AcDbLine
 10
140.5662288087
 20
392.2058492719
 30
0.0
 11
142.0657103079
 21
392.2058492719
 31
0.0
  0
ELLIPSE
  5
F9
330
1F
100
AcDbEntity
  8
0
  6
Continuous
 62
     8
370
    18
100
AcDbEllipse
 10
163.5730825915
 20
392.1911109569
 30
0.0
 11
16.27315044045332
 21
-16.27315044045326
 31
0.0
210
0.0
220
0.0
230
1.0
 40
0.9994042657
 41
2.356537106530509
 42
3.926648200649086
  0
LINE
  5
FA
330
1F
100
AcDbEntity
  8
0
  6
Continuous
 62
     8
370
    18
100
AcDbLine
 10
140.5662288087
 20
289.4438281475
 30
0.0
 11
140.5662288087
 21
392.2058492719
 31
0.0
  0
LINE
  5
FB
330
1F
100
AcDbEntity
  8
0
  6
Continuous
 62
     8
370
    18
100
AcDbLine
 10
140.5662288087
 20
289.4438281475
 30
0.0
 11
142.0657103079
 21
289.4438281475
 31
0.0
  0
LINE
  5
FC
330
1F
100
AcDbEntity
  8
0
  6
Continuous
 62
     8
370
    18
100
AcDbLine
 10
289.3124808687
 20
392.2058492719
 30
0.0
 11
289.3124808687
 21
289.4438281475
 31
0.0
  0
LINE
  5
FD
330
1F
100
AcDbEntity
  8
0
  6
Continuous
 62
     8
370
    18
100
AcDbLine
 10
287.8129993695
 20
289.4438281475
 30
0.0
 11
289.3124808687
 21
289.4438281475
 31
0.0
  0
ELLIPSE
  5
FE
330
1F
100
AcDbEntity
  8
0
  6
Continuous
 62
     8
370
    18
100
AcDbEllipse
 10
163.5730825915
 20
289.4585664625
 30
0.0
 11
16.27315044045332
 21
16.27315044045332
 31
0.0
210
0.0
220
0.0
230
1.0
 40
0.9994042657
 41
2.35653710653051
 42
3.926648200649089
  0
LINE
  5
FF
330
1F
100
AcDbEntity
  8
0
  6
Continuous
 62
     8
370
    18
100
AcDbLine
 10
163.5583442765
 20
266.4517126797
 30
0.0
 11
163.5583442765
 21
267.9511941789
 31
0.0
  0
ELLIPSE
  5
100
330
1F
100
AcDbEntity
  8
0
  6
Continuous
 62
     8
370
    18
100
AcDbEllipse
 10
266.3056270859
 20
289.4585664625
 30
0.0
 11
16.27315044045241
 21
-16.27315044045406
 31
0.0
210
0.0
220
0.0
230
1.0
 40
0.9994042657
 41
5.498129760120372
 42
7.068240854238918
  0
LINE
  5
101
330
1F
100
AcDbEntity
  8
0
  6
Continuous
 62
     8
370
    18
100
AcDbLine
 10
266.3203654009
 20
266.4517126797
 30
0.0
 11
266.3203654009
 21
267.9511941789
 31
0.0
  0
LINE
  5
102
330
1F
100
AcDbEntity
  8
0
  6
Continuous
 62
     8
370
    18
100
AcDbLine
 10
266.3203654009
 20
266.4517126797
 30
0.0
 11
163.5583442765
 21
266.4517126797
 31
0.0
  0
LINE
  5
103
330
1F
100
AcDbEntity
  8
0
  6
Continuous
 62
     8
370
    18
100
AcDbLine
 10
162.9314747768
 20
415.8248416899
 30
0.0
 11
163.5583442765
 21
415.1979647396
 31
0.0
  0
LINE
  5
104
330
1F
100
AcDbEntity
  8
0
  6
Continuous
 62
     8
370
    18
100
AcDbLine
 10
140.5662288087
 20
392.2058492719
 30
0.0
 11
139.9393518585
 21
392.8327187715
 31
0.0
  0
LINE
  5
105
330
1F
100
AcDbEntity
  8
0
  6
Continuous
 62
     8
370
    18
100
AcDbLine
 10
289.9393578189
 20
392.8327187715
 30
0.0
 11
289.3124808687
 21
392.2058492719
 31
0.0
  0
LINE
  5
106
330
1F
100
AcDbEntity
  8
0
  6
Continuous
 62
     8
370
    18
100
AcDbLine
 10
266.3203654009
 20
415.1979647396
 30
0.0
 11
266.9472349006
 21
415.8248416899
 31
0.0
  0
LINE
  5
107
330
1F
100
AcDbEntity
  8
0
  6
Continuous
 62
     8
370
    18
100
AcDbLine
 10
266.9472349006
 20
265.8248357294
 30
0.0
 11
266.3203654009
 21
266.4517126797
 31
0.0
  0
LINE
  5
108
330
1F
100
AcDbEntity
  8
0
  6
Continuous
 62
     8
370
    18
100
AcDbLine
 10
289.3124808687
 20
289.4438281475
 30
0.0
 11
289.9393578189
 21
288.8169586478
 31
0.0
  0
LINE
  5
109
330
1F
100
AcDbEntity
  8
0
  6
Continuous
 62
     8
370
    18
100
AcDbLine
 10
139.9393518585
 20
288.8169586478
 30
0.0
 11
140.5662288087
 21
289.4438281475
 31
0.0
  0
LINE
  5
10A
330
1F
100
AcDbEntity
  8
0
  6
Continuous
 62
     8
370
    18
100
AcDbLine
 10
163.5583442765
 20
266.4517126797
 30
0.0
 11
162.9314747768
 21
265.8248357294
 31
0.0
  0
ARC
  5
10B
330
1F
100
AcDbEntity
  8
0
  6
Continuous
 62
     7
370
    25
100
AcDbCircle
 10
214.9393548387
 20
543.7479032258
 30
0.0
 40
374.9999999999999
100
AcDbArc
 50
268.217348702
 51
270.0
  0
ARC
  5
10C
330
1F
100
AcDbEntity
  8
0
  6
Continuous
 62
     7
370
    25
100
AcDbCircle
 10
214.9393548387
 20
543.7479032258
 30
0.0
 40
374.9999999999999
100
AcDbArc
 50
270.0
 51
271.782651298
  0
ARC
  5
10D
330
1F
100
AcDbEntity
  8
0
  6
Continuous
 62
     7
370
    25
100
AcDbCircle
 10
203.2893657405
 20
169.4291516864
 30
0.0
 40
0.5000000000000095
100
AcDbArc
 50
207.5203936001
 51
268.217348702
  0
ARC
  5
10E
330
1F
100
AcDbEntity
  8
0
  6
Continuous
 62
     7
370
    25
100
AcDbCircle
 10
226.5893439369
 20
169.4291516864
 30
0.0
 40
0.5000000000000306
100
AcDbArc
 50
271.782651298
 51
332.4762257883
  0
LINE
  5
10F
330
1F
100
AcDbEntity
  8
0
  6
Continuous
 62
     7
370
    25
100
AcDbLine
 10
220.2882211785
 20
127.4884145955
 30
0.0
 11
220.2630568425
 21
127.8289284805
 31
0.0
  0
LINE
  5
110
330
1F
100
AcDbEntity
  8
0
  6
Continuous
 62
     7
370
    25
100
AcDbLine
 10
209.6156411934
 20
127.8289508323
 30
0.0
 11
209.5906361136
 21
127.4883549909
 31
0.0
  0
LINE
  5
111
330
1F
100
AcDbEntity
  8
0
  6
Continuous
 62
     7
370
    25
100
AcDbLine
 10
235.3905932176
 20
115.0911476711
 30
0.0
 11
234.9436794537
 21
166.3022663693
 31
0.0
  0
LINE
  5
112
330
1F
100
AcDbEntity
  8
0
  6
Continuous
 62
     7
370
    25
100
AcDbLine
 10
194.9350302237
 20
166.3022663693
 30
0.0
 11
194.4881164598
 21
115.0911476711
 31
0.0
  0
ARC
  5
113
330
1F
100
AcDbEntity
  8
0
  6
Continuous
 62
     7
370
    25
100
AcDbCircle
 10
234.3906309174
 20
115.0824231773
 30
0.0
 40
0.999999999999994
100
AcDbArc
 50
276.1168276045
 51
0.5
  0
ARC
  5
114
330
1F
100
AcDbEntity
  8
0
  6
Continuous
 62
     7
370
    25
100
AcDbCircle
 10
195.48807876
 20
115.0824231773
 30
0.0
 40
1.000000000000007
100
AcDbArc
 50
179.5
 51
263.8831723955
  0
ARC
  5
115
330
1F
100
AcDbEntity
  8
0
  6
Continuous
 62
     7
370
    25
100
AcDbCircle
 10
234.4436992334
 20
166.2979032258
 30
0.0
 40
0.5000000000000027
100
AcDbArc
 50
0.5
 51
90.0
  0
ARC
  5
116
330
1F
100
AcDbEntity
  8
0
  6
Continuous
 62
     7
370
    25
100
AcDbCircle
 10
195.435010444
 20
166.2979032258
 30
0.0
 40
0.5000000000000027
100
AcDbArc
 50
90.0
 51
179.5
  0
LINE
  5
117
330
1F
100
AcDbEntity
  8
0
  6
Continuous
 62
     7
370
    25
100
AcDbLine
 10
234.9393543917
 20
168.2979025195
 30
0.0
 11
234.9393543917
 21
169.1979028533
 31
0.0
  0
LINE
  5
118
330
1F
100
AcDbEntity
  8
0
  6
Continuous
 62
     7
370
    25
100
AcDbLine
 10
194.9393552857
 20
169.1979028533
 30
0.0
 11
194.9393552857
 21
168.2979025195
 31
0.0
  0
ARC
  5
119
330
1F
100
AcDbEntity
  8
0
  6
Continuous
 62
     7
370
    25
100
AcDbCircle
 10
195.4393548387
 20
168.2979032258
 30
0.0
 40
0.5
100
AcDbArc
 50
180.0
 51
270.0
  0
ARC
  5
11A
330
1F
100
AcDbEntity
  8
0
  6
Continuous
 62
     7
370
    25
100
AcDbCircle
 10
234.4393548387
 20
168.2979032258
 30
0.0
 40
0.5
100
AcDbArc
 50
270.0
 51
0.0
  0
LINE
  5
11B
330
1F
100
AcDbEntity
  8
0
  6
Continuous
 62
     7
370
    25
100
AcDbLine
 10
195.3815230298
 20
114.0881132583
 30
0.0
 11
195.6393540966
 21
114.0604865054
 31
0.0
  0
LINE
  5
11C
330
1F
100
AcDbEntity
  8
0
  6
Continuous
 62
     7
370
    25
100
AcDbLine
 10
234.2393555808
 20
114.0604865054
 30
0.0
 11
234.4971866476
 21
114.0881132583
 31
0.0
  0
ARC
  5
11D
330
1F
100
AcDbEntity
  8
0
  6
Continuous
 62
     7
370
    25
100
AcDbCircle
 10
195.9506202222
 20
114.2385242958
 30
0.0
 40
0.2000000000000129
100
AcDbArc
 50
242.8975804661
 51
263.7865942845
  0
ARC
  5
11E
330
1F
100
AcDbEntity
  8
0
  6
Continuous
 62
     7
370
    25
100
AcDbCircle
 10
233.9280894553
 20
114.2385242958
 30
0.0
 40
0.1999999999999999
100
AcDbArc
 50
276.2134057155
 51
297.1024195339
  0
ARC
  5
11F
330
1F
100
AcDbEntity
  8
0
  6
Continuous
 62
     7
370
    25
100
AcDbCircle
 10
214.9393548387
 20
288.6527066834
 30
0.0
 40
175.6448034575514
100
AcDbArc
 50
263.7865942846
 51
270.0
  0
ARC
  5
120
330
1F
100
AcDbEntity
  8
0
  6
Continuous
 62
     7
370
    25
100
AcDbCircle
 10
214.9393548387
 20
288.6527066834
 30
0.0
 40
175.6448034575514
100
AcDbArc
 50
270.0
 51
276.2134057155
  0
LINE
  5
121
330
1F
100
AcDbEntity
  8
0
  6
Continuous
 62
     7
370
    25
100
AcDbLine
 10
232.4393549132
 20
166.7979032049
 30
0.0
 11
232.4393549132
 21
167.7979033689
 31
0.0
  0
LINE
  5
122
330
1F
100
AcDbEntity
  8
0
  6
Continuous
 62
     7
370
    25
100
AcDbLine
 10
197.4393547642
 20
167.7979033689
 30
0.0
 11
197.4393547642
 21
166.7979032049
 31
0.0
  0
LINE
  5
123
330
1F
100
AcDbEntity
  8
0
  6
Continuous
 62
     7
370
    25
100
AcDbLine
 10
289.9393578189
 20
194.5979032157
 30
0.0
 11
289.3124808687
 21
170.6586376081
 31
0.0
  0
LINE
  5
124
330
1F
100
AcDbEntity
  8
0
  6
Continuous
 62
     7
370
    25
100
AcDbLine
 10
266.9472349006
 20
194.5979032157
 30
0.0
 11
289.9393578189
 21
194.5979032157
 31
0.0
  0
LINE
  5
125
330
1F
100
AcDbEntity
  8
0
  6
Continuous
 62
     7
370
    25
100
AcDbLine
 10
140.5662288087
 20
170.6586376081
 30
0.0
 11
139.9393518585
 21
194.5979032157
 31
0.0
  0
LINE
  5
126
330
1F
100
AcDbEntity
  8
0
  6
Continuous
 62
     7
370
    25
100
AcDbLine
 10
139.9393518585
 20
194.5979032157
 30
0.0
 11
162.9314747768
 21
194.5979032157
 31
0.0
  0
LINE
  5
127
330
1F
100
AcDbEntity
  8
0
  6
Continuous
 62
     7
370
    25
100
AcDbLine
 10
162.9314747768
 20
194.5979032157
 30
0.0
 11
266.9472349006
 21
194.5979032157
 31
0.0
  0
LINE
  5
128
330
1F
100
AcDbEntity
  8
0
  6
Continuous
 62
     7
370
    25
100
AcDbLine
 10
163.5583442765
 20
169.1979028533
 30
0.0
 11
142.0657103079
 21
169.1979028533
 31
0.0
  0
ARC
  5
129
330
1F
100
AcDbEntity
  8
0
  6
Continuous
 62
     7
370
    25
100
AcDbCircle
 10
142.0657125529
 20
170.6979032258
 30
0.0
 40
1.500000000000008
100
AcDbArc
 50
181.5
 51
270.0
  0
LINE
  5
12A
330
1F
100
AcDbEntity
  8
0
  6
Continuous
 62
     7
370
    25
100
AcDbLine
 10
287.8129993695
 20
169.1979028533
 30
0.0
 11
266.3203654009
 21
169.1979028533
 31
0.0
  0
ARC
  5
12B
330
1F
100
AcDbEntity
  8
0
  6
Continuous
 62
     7
370
    25
100
AcDbCircle
 10
287.8129971245
 20
170.6979032258
 30
0.0
 40
1.500000000000008
100
AcDbArc
 50
270.0
 51
358.5
  0
LINE
  5
12C
330
1F
100
AcDbEntity
  8
0
  6
Continuous
 62
     7
370
    25
100
AcDbLine
 10
266.3203654009
 20
169.1979028533
 30
0.0
 11
163.5583442765
 21
169.1979028533
 31
0.0
  0
ARC
  5
12D
330
1F
100
AcDbEntity
  8
0
  6
Continuous
 62
     7
370
    25
100
AcDbCircle
 10
214.9393548387
 20
543.539671009
 30
0.0
 40
374.6102781648161
100
AcDbArc
 50
268.866602008
 51
271.133397992
  0
SPLINE
  5
12E
330
1F
100
AcDbEntity
  8
0
  6
Continuous
 62
     7
370
    25
100
AcDbSpline
210
0.0
220
0.0
230
1.0
 70
     8
 71
     3
 72
     9
 73
     5
 74
     0
 42
0.000000001
 43
0.00000001
 40
0.0
 40
0.0
 40
0.0
 40
0.0
 40
0.988429373847033
 40
1.0
 40
1.0
 40
1.0
 40
1.0
 10
220.2816404531703
 20
127.8060179451973
 30
0.0
 10
220.2950040486645
 20
127.7005509267778
 30
0.0
 10
220.3085240793796
 20
127.5938493037684
 30
0.0
 10
220.2880961888085
 20
127.4899741242491
 30
0.0
 10
220.2878598253236
 20
127.4887722233803
 30
0.0
  0
SPLINE
  5
12F
330
1F
100
AcDbEntity
  8
0
  6
Continuous
 62
     7
370
    25
100
AcDbSpline
210
0.0
220
0.0
230
1.0
 70
     8
 71
     3
 72
    20
 73
    16
 74
     0
 42
0.000000001
 43
0.00000001
 40
0.0
 40
0.0
 40
0.0
 40
0.0
 40
0.0768964513735299
 40
0.1537908397933002
 40
0.2306858677068645
 40
0.3075840550066443
 40
0.3844877130421488
 40
0.4613989522343193
 40
0.5383196897083202
 40
0.6152513436769094
 40
0.6921926613813433
 40
0.769141033128575
 40
0.8460936855164406
 40
0.923047696007184
 40
0.9999999999999999
 40
0.9999999999999999
 40
0.9999999999999999
 40
0.9999999999999999
 10
209.5970553669601
 20
127.8060391086874
 30
0.0
 10
209.6717476141512
 20
128.3857877349851
 30
0.0
 10
209.8211301047133
 20
129.5452694342669
 30
0.0
 10
210.0332751071409
 20
131.2858024708091
 30
0.0
 10
210.2369624870512
 20
133.0272248973682
 30
0.0
 10
210.4316584621618
 20
134.769617067933
 30
0.0
 10
210.6179034894738
 20
136.5129375002403
 30
0.0
 10
210.7959501317596
 20
138.2571774582779
 30
0.0
 10
210.9661263657156
 20
140.0023171262609
 30
0.0
 10
211.1287419730174
 20
141.7483177220053
 30
0.0
 10
211.2840876310987
 20
143.4951095754531
 30
0.0
 10
211.4324949778812
 20
145.242591916682
 30
0.0
 10
211.5741166277939
 20
146.990666562209
 30
0.0
 10
211.7097727279423
 20
148.7391919525389
 30
0.0
 10
211.7951199216014
 20
149.9052186424283
 30
0.0
 10
211.8377930452704
 20
150.488225522979
 30
0.0
  0
SPLINE
  5
130
330
1F
100
AcDbEntity
  8
0
  6
Continuous
 62
     7
370
    25
100
AcDbSpline
210
0.0
220
0.0
230
1.0
 70
     8
 71
     3
 72
    17
 73
    13
 74
     0
 42
0.000000001
 43
0.00000001
 40
0.0
 40
0.0
 40
0.0
 40
0.0
 40
0.1000450094165991
 40
0.2000945801080585
 40
0.3001413176938124
 40
0.4001782497088117
 40
0.5001989885734539
 40
0.6002000643501648
 40
0.7001806254491789
 40
0.8001404257611822
 40
0.9000797832959222
 40
1.0
 40
1.0
 40
1.0
 40
1.0
 10
218.0409643102841
 20
150.4882187958571
 30
0.0
 10
218.0966562669805
 20
149.7302705747315
 30
0.0
 10
218.2080427194936
 20
148.2143395759323
 30
0.0
 10
218.3881744064731
 20
145.9413300872359
 30
0.0
 10
218.5786943234842
 20
143.6691340624681
 30
0.0
 10
218.7811440746736
 20
141.398062072757
 30
0.0
 10
218.9959299183781
 20
139.1283311041561
 30
0.0
 10
219.2238014162095
 20
136.8601451622422
 30
0.0
 10
219.4652986302988
 20
134.5936519016286
 30
0.0
 10
219.7214809190625
 20
132.3290407265
 30
0.0
 10
219.991554618492
 20
130.0662866821229
 30
0.0
 10
220.1849526118523
 20
128.5593928187898
 30
0.0
 10
220.2816423475343
 20
127.8060180457886
 30
0.0
  0
SPLINE
  5
131
330
1F
100
AcDbEntity
  8
0
  6
Continuous
 62
     7
370
    25
100
AcDbSpline
210
0.0
220
0.0
230
1.0
 70
     8
 71
     3
 72
    17
 73
    13
 74
     0
 42
0.000000001
 43
0.00000001
 40
0.0
 40
0.0
 40
0.0
 40
0.0
 40
0.0474010265240791
 40
0.1075194020300155
 40
0.1803638719177005
 40
0.2659396000005169
 40
0.3642495265172806
 40
0.4752956069907609
 40
0.6064889966039192
 40
0.7376661080229017
 40
0.8688342682087117
 40
0.9999999999999999
 40
0.9999999999999999
 40
0.9999999999999999
 40
0.9999999999999999
 10
210.8719050021527
 20
125.2502578068572
 30
0.0
 10
210.8779728315021
 20
125.2604586149951
 30
0.0
 10
210.8917364444681
 20
125.2835970335407
 30
0.0
 10
210.9063189117336
 20
125.3227925611951
 30
0.0
 10
210.9207949462019
 20
125.3726723903666
 30
0.0
 10
210.9341170168362
 20
125.4354480968659
 30
0.0
 10
210.9471812125561
 20
125.512632014008
 30
0.0
 10
210.9590452059693
 20
125.6085129467469
 30
0.0
 10
210.9755342524157
 20
125.7217789400346
 30
0.0
 10
211.0031800386754
 20
125.8504523751875
 30
0.0
 10
211.0385995949135
 20
125.98772911648
 30
0.0
 10
211.0694833711577
 20
126.0873854474127
 30
0.0
 10
211.084925116336
 20
126.1372131516254
 30
0.0
  0
SPLINE
  5
132
330
1F
100
AcDbEntity
  8
0
  6
Continuous
 62
     7
370
    25
100
AcDbSpline
210
0.0
220
0.0
230
1.0
 70
     8
 71
     3
 72
    12
 73
     8
 74
     0
 42
0.000000001
 43
0.00000001
 40
0.0
 40
0.0
 40
0.0
 40
0.0
 40
0.5000000000000001
 40
0.5000000000000001
 40
0.7500000000000002
 40
0.7500000000000002
 40
1.0
 40
1.0
 40
1.0
 40
1.0
 10
218.8997052411157
 20
125.2512720939856
 30
0.0
 10
217.5736785986109
 20
125.2778088919759
 30
0.0
 10
216.239286926531
 20
125.291839849546
 30
0.0
 10
214.2255801226787
 20
125.2913930253604
 30
0.0
 10
213.5522617591539
 20
125.2877038311067
 30
0.0
 10
212.201570586681
 20
125.2732930293192
 30
0.0
 10
211.5327986296673
 20
125.2626646018667
 30
0.0
 10
210.8705858457749
 20
125.2490747363505
 30
0.0
  0
SPLINE
  5
133
330
1F
100
AcDbEntity
  8
0
  6
Continuous
 62
     7
370
    25
100
AcDbSpline
210
0.0
220
0.0
230
1.0
 70
     8
 71
     3
 72
     8
 73
     4
 74
     0
 42
0.000000001
 43
0.00000001
 40
0.0
 40
0.0
 40
0.0
 40
0.0
 40
1.0
 40
1.0
 40
1.0
 40
1.0
 10
209.5034966576159
 20
126.4262242767322
 30
0.0
 10
209.4822168645702
 20
126.5343797706623
 30
0.0
 10
209.4729969724006
 20
126.6430206934953
 30
0.0
 10
209.4754704102449
 20
126.7521322902104
 30
0.0
  0
SPLINE
  5
134
330
1F
100
AcDbEntity
  8
0
  6
Continuous
 62
     7
370
    25
100
AcDbSpline
210
0.0
220
0.0
230
1.0
 70
     8
 71
     3
 72
     8
 73
     4
 74
     0
 42
0.000000001
 43
0.00000001
 40
0.0
 40
0.0
 40
0.0
 40
0.0
 40
1.0
 40
1.0
 40
1.0
 40
1.0
 10
209.4754704102461
 20
126.7521322902614
 30
0.0
 10
209.4767334056332
 20
126.8070621693816
 30
0.0
 10
209.4809747734669
 20
126.8620752122661
 30
0.0
 10
209.4882678467705
 20
126.9171735348812
 30
0.0
  0
SPLINE
  5
135
330
1F
100
AcDbEntity
  8
0
  6
Continuous
 62
     7
370
    25
100
AcDbSpline
210
0.0
220
0.0
230
1.0
 70
     8
 71
     3
 72
    13
 73
     9
 74
     0
 42
0.000000001
 43
0.00000001
 40
0.0
 40
0.0
 40
0.0
 40
0.0
 40
0.1239288065851871
 40
0.2490847812769602
 40
0.3742254979995154
 40
0.4993968954126862
 40
0.7496812464908909
 40
0.9999999999999999
 40
0.9999999999999999
 40
0.9999999999999999
 40
0.9999999999999999
 10
209.4882605692167
 20
126.917174402389
 30
0.0
 10
209.4915643030797
 20
126.9446340252296
 30
0.0
 10
209.4982044850467
 20
126.9998251816498
 30
0.0
 10
209.5087145532119
 20
127.0869249188291
 30
0.0
 10
209.5205830181069
 20
127.1844617167884
 30
0.0
 10
209.5379226845744
 20
127.3262588777685
 30
0.0
 10
209.5622153827232
 20
127.5238158578852
 30
0.0
 10
209.5854414874606
 20
127.7119602130159
 30
0.0
 10
209.5970553379011
 20
127.8060388554065
 30
0.0
  0
SPLINE
  5
136
330
1F
100
AcDbEntity
  8
0
  6
Continuous
 62
     7
370
    25
100
AcDbSpline
210
0.0
220
0.0
230
1.0
 70
     8
 71
     3
 72
    12
 73
     8
 74
     0
 42
0.000000001
 43
0.00000001
 40
0.0
 40
0.0
 40
0.0
 40
0.0
 40
0.5000000000000075
 40
0.5000000000000075
 40
0.7500000000000038
 40
0.7500000000000038
 40
1.0
 40
1.0
 40
1.0
 40
1.0
 10
210.8719216725297
 20
125.2502821552507
 30
0.0
 10
210.5508241089431
 20
125.2658828792128
 30
0.0
 10
210.2379554822608
 20
125.3858097757444
 30
0.0
 10
209.8657130012849
 20
125.7014053435561
 30
0.0
 10
209.7610956920346
 20
125.8252356781787
 30
0.0
 10
209.5939888011639
 20
126.1096785618362
 30
0.0
 10
209.5357824832832
 20
126.2630207561536
 30
0.0
 10
209.5034966576119
 20
126.4262242767522
 30
0.0
  0
SPLINE
  5
137
330
1F
100
AcDbEntity
  8
0
  6
Continuous
 62
     7
370
    25
100
AcDbSpline
210
0.0
220
0.0
230
1.0
 70
     8
 71
     3
 72
     8
 73
     4
 74
     0
 42
0.000000001
 43
0.00000001
 40
0.0
 40
0.0
 40
0.0
 40
0.0
 40
1.0
 40
1.0
 40
1.0
 40
1.0
 10
220.4029575659472
 20
126.7488483991557
 30
0.0
 10
220.4049028169087
 20
126.6439569868062
 30
0.0
 10
220.3960353139861
 20
126.5394643765405
 30
0.0
 10
220.3760025793139
 20
126.435383568646
 30
0.0
  0
SPLINE
  5
138
330
1F
100
AcDbEntity
  8
0
  6
Continuous
 62
     7
370
    25
100
AcDbSpline
210
0.0
220
0.0
230
1.0
 70
     8
 71
     3
 72
    12
 73
     8
 74
     0
 42
0.000000001
 43
0.00000001
 40
0.0
 40
0.0
 40
0.0
 40
0.0
 40
0.2499999999999994
 40
0.2499999999999994
 40
0.4999999999999989
 40
0.4999999999999989
 40
1.0
 40
1.0
 40
1.0
 40
1.0
 10
220.3760025793193
 20
126.435383568674
 30
0.0
 10
220.3425706849044
 20
126.2625610033615
 30
0.0
 10
220.2796498652451
 20
126.0998452150643
 30
0.0
 10
220.099172199162
 20
125.8029740876725
 30
0.0
 10
219.9838408924212
 20
125.6732130063335
 30
0.0
 10
219.5811661618907
 20
125.354846025356
 30
0.0
 10
219.2430537633577
 20
125.2436899775132
 30
0.0
 10
218.8995171692545
 20
125.2508272863601
 30
0.0
  0
SPLINE
  5
139
330
1F
100
AcDbEntity
  8
0
  6
Continuous
 62
     7
370
    25
100
AcDbSpline
210
0.0
220
0.0
230
1.0
 70
     8
 71
     3
 72
    11
 73
     7
 74
     0
 42
0.000000001
 43
0.00000001
 40
0.0
 40
0.0
 40
0.0
 40
0.0
 40
0.2499999999999998
 40
0.2499999999999998
 40
0.4999999999999996
 40
1.0
 40
1.0
 40
1.0
 40
1.0
 10
220.390039507078
 20
126.9200518161105
 30
0.0
 10
220.383638498379
 20
126.9734845946595
 30
0.0
 10
220.3771667878225
 20
127.0274523346121
 30
0.0
 10
220.362161597325
 20
127.1511831014215
 30
0.0
 10
220.3373330657303
 20
127.3546084075616
 30
0.0
 10
220.305671072266
 20
127.6113369701165
 30
0.0
 10
220.2816404497335
 20
127.8060159378471
 30
0.0
  0
SPLINE
  5
13A
330
1F
100
AcDbEntity
  8
0
  6
Continuous
 62
     7
370
    25
100
AcDbSpline
210
0.0
220
0.0
230
1.0
 70
     8
 71
     3
 72
     8
 73
     4
 74
     0
 42
0.000000001
 43
0.00000001
 40
0.0
 40
0.0
 40
0.0
 40
0.0
 40
1.0
 40
1.0
 40
1.0
 40
1.0
 10
220.390039274572
 20
126.920053572862
 30
0.0
 10
220.3976026964218
 20
126.8629040889473
 30
0.0
 10
220.4018830729797
 20
126.805836364866
 30
0.0
 10
220.4029575659472
 20
126.7488483991551
 30
0.0
  0
SPLINE
  5
13B
330
1F
100
AcDbEntity
  8
0
  6
Continuous
 62
     7
370
    25
100
AcDbSpline
210
0.0
220
0.0
230
1.0
 70
     8
 71
     3
 72
    23
 73
    19
 74
     0
 42
0.000000001
 43
0.00000001
 40
0.0
 40
0.0
 40
0.0
 40
0.0
 40
0.0527836491918485
 40
0.1040762268835805
 40
0.1538777585846885
 40
0.2021882798893063
 40
0.2490078375264903
 40
0.2943364905830943
 40
0.3381743119344092
 40
0.3805213899264097
 40
0.4213778303645209
 40
0.4607437588785419
 40
0.4986193237522243
 40
0.6011776034110466
 40
0.7025905967316795
 40
0.8028624440746163
 40
0.9019974321062155
 40
0.9999999999999999
 40
0.9999999999999999
 40
0.9999999999999999
 40
0.9999999999999999
 10
211.8377930612432
 20
150.4882256515135
 30
0.0
 10
211.8415344122597
 20
150.5275590750572
 30
0.0
 10
211.8489114258464
 20
150.605114802551
 30
0.0
 10
211.8711336125217
 20
150.7182623931153
 30
0.0
 10
211.9003390386291
 20
150.826258223862
 30
0.0
 10
211.9364454478539
 20
150.9286401257064
 30
0.0
 10
211.9783736327909
 20
151.0251277615771
 30
0.0
 10
212.0253248313203
 20
151.115523063737
 30
0.0
 10
212.0764645330477
 20
151.199723889029
 30
0.0
 10
212.131012998666
 20
151.2777088273953
 30
0.0
 10
212.1882266456214
 20
151.3495278141247
 30
0.0
 10
212.2474167404839
 20
151.4152968718522
 30
0.0
 10
212.3431508213803
 20
151.5100430791483
 30
0.0
 10
212.4851892852733
 20
151.6236953216149
 30
0.0
 10
212.6834921424098
 20
151.7378914537651
 30
0.0
 10
212.8943522814257
 20
151.8193617791741
 30
0.0
 10
213.1125621091176
 20
151.8703207293288
 30
0.0
 10
213.260406917876
 20
151.8766154719212
 30
0.0
 10
213.3339046887096
 20
151.8797447637266
 30
0.0
  0
SPLINE
  5
13C
330
1F
100
AcDbEntity
  8
0
  6
Continuous
 62
     7
370
    25
100
AcDbSpline
210
0.0
220
0.0
230
1.0
 70
     8
 71
     3
 72
    21
 73
    17
 74
     0
 42
0.000000001
 43
0.00000001
 40
0.0
 40
0.0
 40
0.0
 40
0.0
 40
0.054325202464409
 40
0.1089978616032515
 40
0.1640187636379089
 40
0.2193886798614768
 40
0.2751083669797675
 40
0.3311785674436651
 40
0.387600009773095
 40
0.4443734088727809
 40
0.501499466340023
 40
0.5868213842094679
 40
0.6793336106281037
 40
0.7790352011839088
 40
0.8859246543786716
 40
1.0
 40
1.0
 40
1.0
 40
1.0
 10
216.5448521887096
 20
151.8797447541611
 30
0.0
 10
216.5855663305702
 20
151.8787852188395
 30
0.0
 10
216.6672550164564
 20
151.8768600111377
 30
0.0
 10
216.7893639995297
 20
151.8612710282069
 30
0.0
 10
216.9105947884946
 20
151.8362724046672
 30
0.0
 10
217.0300842117159
 20
151.8009283070977
 30
0.0
 10
217.1469543658882
 20
151.7555432135486
 30
0.0
 10
217.2603196891772
 20
151.700183508871
 30
0.0
 10
217.36929301743
 20
151.6350821137655
 30
0.0
 10
217.4729953848528
 20
151.5605246889482
 30
0.0
 10
217.5864035182653
 20
151.4633219146934
 30
0.0
 10
217.7073357926129
 20
151.3348848157844
 30
0.0
 10
217.8289292351878
 20
151.1655248478687
 30
0.0
 10
217.9317606080295
 20
150.9659825712887
 30
0.0
 10
218.0105699557039
 20
150.7376452568328
 30
0.0
 10
218.0306155601543
 20
150.5731441638505
 30
0.0
 10
218.0409643092226
 20
150.4882187859731
 30
0.0
  0
SPLINE
  5
13D
330
1F
100
AcDbEntity
  8
0
  6
Continuous
 62
     7
370
    25
100
AcDbSpline
210
0.0
220
0.0
230
1.0
 70
     8
 71
     3
 72
     9
 73
     5
 74
     0
 42
0.000000001
 43
0.00000001
 40
0.0
 40
0.0
 40
0.0
 40
0.0
 40
0.5000159095895284
 40
1.0
 40
1.0
 40
1.0
 40
1.0
 10
213.3339046887096
 20
151.8797447616941
 30
0.0
 10
213.6014747835801
 20
151.8797782112316
 30
0.0
 10
214.1365979461414
 20
151.879845108178
 30
0.0
 10
214.6717748841505
 20
151.8798547075504
 30
0.0
 10
214.9393548387096
 20
151.8798595070839
 30
0.0
  0
SPLINE
  5
13E
330
1F
100
AcDbEntity
  8
0
  6
Continuous
 62
     7
370
    25
100
AcDbSpline
210
0.0
220
0.0
230
1.0
 70
     8
 71
     3
 72
     9
 73
     5
 74
     0
 42
0.000000001
 43
0.00000001
 40
0.0
 40
0.0
 40
0.0
 40
0.0
 40
0.4999996830999151
 40
1.0
 40
1.0
 40
1.0
 40
1.0
 10
214.9393548387096
 20
151.8798595070839
 30
0.0
 10
215.2069510068866
 20
151.8798547078612
 30
0.0
 10
215.742143682446
 20
151.8798451094096
 30
0.0
 10
216.2772825735647
 20
151.8797782064089
 30
0.0
 10
216.5448521887096
 20
151.8797447548874
 30
0.0
  0
SPLINE
  5
13F
330
1F
100
AcDbEntity
  8
0
  6
Continuous
 62
     7
370
    25
100
AcDbSpline
210
0.0
220
0.0
230
1.0
 70
    24
 71
     3
 72
    18
 73
    14
 74
     0
 42
0.000000001
 43
0.00000001
 40
0.0
 40
0.0
 40
0.0
 40
0.0
 40
0.125
 40
0.125
 40
0.25
 40
0.25
 40
0.5
 40
0.5
 40
0.75
 40
0.75
 40
0.875
 40
0.875
 40
1.0
 40
1.0
 40
1.0
 40
1.0
 10
210.6148117464637
 20
125.1233658702586
 30
0.0
 10
210.9747454221687
 20
125.1233658702595
 30
0.0
 10
211.334961807592
 20
125.1233658702603
 30
0.0
 10
212.0554927264586
 20
125.123365870262
 30
0.0
 10
212.415868860157
 20
125.1233658702628
 30
0.0
 10
213.49715960063
 20
125.1233658702654
 30
0.0
 10
214.2182798269961
 20
125.1233658702671
 30
0.0
 10
215.6605752102917
 20
125.1233658702705
 30
0.0
 10
216.3816042271309
 20
125.1233658702722
 30
0.0
 10
217.4629292569976
 20
125.1233658702747
 30
0.0
 10
217.823271136905
 20
125.1233658702756
 30
0.0
 10
218.5437521941123
 20
125.1233658702773
 30
0.0
 10
218.903990240495
 20
125.1233658702781
 30
0.0
 10
219.2638979309688
 20
125.1233658702789
 30
0.0
  0
SPLINE
  5
140
330
1F
100
AcDbEntity
  8
0
  6
Continuous
 62
     7
370
    25
100
AcDbSpline
210
0.0
220
0.0
230
1.0
 70
     8
 71
     3
 72
    20
 73
    16
 74
     0
 42
0.000000001
 43
0.00000001
 40
0.0
 40
0.0
 40
0.0
 40
0.0
 40
0.1250000000000021
 40
0.1250000000000021
 40
0.2500000000000042
 40
0.2500000000000042
 40
0.3750000000000063
 40
0.3750000000000063
 40
0.5000000000000084
 40
0.5000000000000084
 40
0.7500000000000127
 40
0.7500000000000127
 40
0.8750000000000063
 40
0.8750000000000063
 40
1.0
 40
1.0
 40
1.0
 40
1.0
 10
219.2638979309688
 20
125.1233658702789
 30
0.0
 10
219.3613610136968
 20
125.1233658702799
 30
0.0
 10
219.4571076863857
 20
125.133264502715
 30
0.0
 10
219.6452285146655
 20
125.1719910226877
 30
0.0
 10
219.7386360250787
 20
125.2013325787533
 30
0.0
 10
219.9157237418532
 20
125.2775565138789
 30
0.0
 10
219.9995295692101
 20
125.324173021405
 30
0.0
 10
220.1576454411278
 20
125.4343832750129
 30
0.0
 10
220.2317605545207
 20
125.4981969726732
 30
0.0
 10
220.4296745511021
 20
125.7069140212222
 30
0.0
 10
220.5340631146672
 20
125.8747311620635
 30
0.0
 10
220.6337881026913
 20
126.1450173670506
 30
0.0
 10
220.6582452078089
 20
126.2398475209572
 30
0.0
 10
220.6871269050893
 20
126.431307766745
 30
0.0
 10
220.6918197094463
 20
126.527874299804
 30
0.0
 10
220.6865304587981
 20
126.6253153935966
 30
0.0
  0
SPLINE
  5
141
330
1F
100
AcDbEntity
  8
0
  6
Continuous
 62
     7
370
    25
100
AcDbSpline
210
0.0
220
0.0
230
1.0
 70
     8
 71
     3
 72
    20
 73
    16
 74
     0
 42
0.000000001
 43
0.00000001
 40
0.0
 40
0.0
 40
0.0
 40
0.0
 40
0.1250000000000009
 40
0.1250000000000009
 40
0.2500000000000018
 40
0.2500000000000018
 40
0.3750000000000027
 40
0.3750000000000027
 40
0.5000000000000036
 40
0.5000000000000036
 40
0.7500000000000053
 40
0.7500000000000053
 40
0.8750000000000027
 40
0.8750000000000027
 40
1.0
 40
1.0
 40
1.0
 40
1.0
 10
209.1921792186191
 20
126.6253153935974
 30
0.0
 10
209.1868899601326
 20
126.5278741554047
 30
0.0
 10
209.1915997127853
 20
126.4316409146741
 30
0.0
 10
209.2201560007361
 20
126.241451464121
 30
0.0
 10
209.2444719613575
 20
126.1464442373356
 30
0.0
 10
209.3111221339472
 20
125.9653869469493
 30
0.0
 10
209.3531938837288
 20
125.8791693701321
 30
0.0
 10
209.4547929091543
 20
125.7153296259934
 30
0.0
 10
209.5144930947519
 20
125.6379623520214
 30
0.0
 10
209.7122810172379
 20
125.4291413722768
 30
0.0
 10
209.8743243550061
 20
125.3158730838414
 30
0.0
 10
210.1386906639195
 20
125.2018515212261
 30
0.0
 10
210.2319894513842
 20
125.1723623605026
 30
0.0
 10
210.4212850329228
 20
125.1332661082235
 30
0.0
 10
210.5173387738152
 20
125.1233658702646
 30
0.0
 10
210.6148117464637
 20
125.1233658702637
 30
0.0
  0
SPLINE
  5
142
330
1F
100
AcDbEntity
  8
0
  6
Continuous
 62
     7
370
    25
100
AcDbSpline
210
0.0
220
0.0
230
1.0
 70
     8
 71
     3
 72
     8
 73
     4
 74
     0
 42
0.000000001
 43
0.00000001
 40
0.0
 40
0.0
 40
0.0
 40
0.0
 40
0.0001029845837661
 40
0.0001029845837661
 40
0.0001029845837661
 40
0.0001029845837661
 10
211.6201819236664
 20
150.9515805284029
 30
0.0
 10
211.6152702923479
 20
150.9176087302154
 30
0.0
 10
211.6115851697611
 20
150.8834394212898
 30
0.0
 10
211.6091404588007
 20
150.8492094525979
 30
0.0
  0
SPLINE
  5
143
330
1F
100
AcDbEntity
  8
0
  6
Continuous
 62
     7
370
    25
100
AcDbSpline
210
0.0
220
0.0
230
1.0
 70
     8
 71
     3
 72
    14
 73
    10
 74
     0
 42
0.000000001
 43
0.00000001
 40
0.0
 40
0.0
 40
0.0
 40
0.0
 40
0.2499999999999998
 40
0.2499999999999998
 40
0.4999999999999996
 40
0.4999999999999996
 40
0.7499999999999993
 40
0.7499999999999993
 40
1.0
 40
1.0
 40
1.0
 40
1.0
 10
211.6091404587957
 20
150.8492094525983
 30
0.0
 10
211.4651822988668
 20
148.8335587735102
 30
0.0
 10
211.307022532266
 20
146.8190217640836
 30
0.0
 10
210.9624286928354
 20
142.7934676177649
 30
0.0
 10
210.7759819051019
 20
140.7822478518291
 30
0.0
 10
210.3747336867945
 20
136.7622591793461
 30
0.0
 10
210.1599590798063
 20
134.753771452703
 30
0.0
 10
209.702090523715
 20
130.7396706171515
 30
0.0
 10
209.4589956164493
 20
128.7340380150514
 30
0.0
 10
209.2016799744805
 20
126.7294907611879
 30
0.0
  0
SPLINE
  5
144
330
1F
100
AcDbEntity
  8
0
  6
Continuous
 62
     7
370
    25
100
AcDbSpline
210
0.0
220
0.0
230
1.0
 70
     8
 71
     3
 72
     8
 73
     4
 74
     0
 42
0.000000001
 43
0.00000001
 40
0.0
 40
0.0
 40
0.0
 40
0.0
 40
0.0001046666746584
 40
0.0001046666746584
 40
0.0001046666746584
 40
0.0001046666746584
 10
209.2016799744704
 20
126.7294907611892
 30
0.0
 10
209.1972389341318
 20
126.6948940489686
 30
0.0
 10
209.1940680199108
 20
126.6601160624063
 30
0.0
 10
209.1921787056538
 20
126.6253059429279
 30
0.0
  0
SPLINE
  5
145
330
1F
100
AcDbEntity
  8
0
  6
Continuous
 62
     7
370
    25
100
AcDbSpline
210
0.0
220
0.0
230
1.0
 70
     8
 71
     3
 72
     8
 73
     4
 74
     0
 42
0.000000001
 43
0.00000001
 40
0.0
 40
0.0
 40
0.0
 40
0.0
 40
0.0001029837963743
 40
0.0001029837963743
 40
0.0001029837963743
 40
0.0001029837963743
 10
218.2585277537713
 20
150.9515805284047
 30
0.0
 10
218.2634393742732
 20
150.9176088050311
 30
0.0
 10
218.2671245024428
 20
150.8834394945756
 30
0.0
 10
218.2695692186371
 20
150.8492094525982
 30
0.0
  0
SPLINE
  5
146
330
1F
100
AcDbEntity
  8
0
  6
Continuous
 62
     7
370
    25
100
AcDbSpline
210
0.0
220
0.0
230
1.0
 70
     8
 71
     3
 72
    11
 73
     7
 74
     0
 42
0.000000001
 43
0.00000001
 40
-0.0980497121962824
 40
-0.0980497121962824
 40
-0.0980497121962824
 40
-0.0980497121962824
 40
0.0
 40
0.0
 40
0.0
 40
0.8094990168875407
 40
0.8094990168875407
 40
0.8094990168875407
 40
0.8094990168875407
 10
218.2585277537714
 20
150.9515805284048
 30
0.0
 10
218.3216060078756
 20
150.9730085544365
 30
0.0
 10
218.3846842619798
 20
150.9944365804681
 30
0.0
 10
218.447762516084
 20
151.0158646064997
 30
0.0
 10
218.9685369634594
 20
151.1927745190117
 30
0.0
 10
219.5003275491729
 20
151.3702900428181
 30
0.0
 10
220.0431342732245
 20
151.548411177919
 30
0.0
  0
SPLINE
  5
147
330
1F
100
AcDbEntity
  8
0
  6
Continuous
 62
     7
370
    25
100
AcDbSpline
210
0.0
220
0.0
230
1.0
 70
     8
 71
     3
 72
    14
 73
    10
 74
     0
 42
0.000000001
 43
0.00000001
 40
0.0
 40
0.0
 40
0.0
 40
0.0
 40
0.2500000000000002
 40
0.2500000000000002
 40
0.5000000000000004
 40
0.5000000000000004
 40
0.7500000000000007
 40
0.7500000000000007
 40
1.0
 40
1.0
 40
1.0
 40
1.0
 10
218.2695692186334
 20
150.8492094525979
 30
0.0
 10
218.4135290722739
 20
148.8335350587637
 30
0.0
 10
218.5716902494909
 20
146.8189833184853
 30
0.0
 10
218.9162846348551
 20
142.7934271561209
 30
0.0
 10
219.1027309490472
 20
140.7822146122627
 30
0.0
 10
219.5039787489767
 20
136.7622329572788
 30
0.0
 10
219.7187512799825
 20
134.7537654293491
 30
0.0
 10
220.1766186964225
 20
130.7396746673479
 30
0.0
 10
220.4197136887861
 20
128.7340409145242
 30
0.0
 10
220.6770297029486
 20
126.7294907611873
 30
0.0
  0
SPLINE
  5
148
330
1F
100
AcDbEntity
  8
0
  6
Continuous
 62
     7
370
    25
100
AcDbSpline
210
0.0
220
0.0
230
1.0
 70
     8
 71
     3
 72
     8
 73
     4
 74
     0
 42
0.000000001
 43
0.00000001
 40
0.0
 40
0.0
 40
0.0
 40
0.0
 40
0.0001046666735618
 40
0.0001046666735618
 40
0.0001046666735618
 40
0.0001046666735618
 10
220.6770297029469
 20
126.7294907611871
 30
0.0
 10
220.681470743329
 20
126.6948940486277
 30
0.0
 10
220.6846416575458
 20
126.6601160616791
 30
0.0
 10
220.6865309717633
 20
126.6253059429272
 30
0.0
  0
SPLINE
  5
149
330
1F
100
AcDbEntity
  8
0
  6
Continuous
 62
     7
370
    25
100
AcDbSpline
210
0.0
220
0.0
230
1.0
 70
    24
 71
     3
 72
    10
 73
     6
 74
     0
 42
0.000000001
 43
0.00000001
 40
0.0
 40
0.0
 40
0.0
 40
0.0
 40
0.5
 40
0.5
 40
1.0
 40
1.0
 40
1.0
 40
1.0
 10
216.8484621633662
 20
152.1724405806504
 30
0.0
 10
216.212290486578
 20
152.1724405806492
 30
0.0
 10
215.5758726778326
 20
152.1724405806479
 30
0.0
 10
214.3028908826145
 20
152.1724405806455
 30
0.0
 10
213.6664268803877
 20
152.1724405806443
 30
0.0
 10
213.0302475141232
 20
152.172440580643
 30
0.0
  0
SPLINE
  5
14A
330
1F
100
AcDbEntity
  8
0
  6
Continuous
 62
     7
370
    25
100
AcDbSpline
210
0.0
220
0.0
230
1.0
 70
     8
 71
     3
 72
    12
 73
     8
 74
     0
 42
0.000000001
 43
0.00000001
 40
0.0
 40
0.0
 40
0.0
 40
0.0
 40
0.2499999999999982
 40
0.2499999999999982
 40
0.4999999999999964
 40
0.4999999999999964
 40
1.0
 40
1.0
 40
1.0
 40
1.0
 10
218.2585277537713
 20
150.9515805284048
 30
0.0
 10
218.2340658030945
 20
151.1207741013311
 30
0.0
 10
218.1803091486089
 20
151.2816482549445
 30
0.0
 10
218.0167589185787
 20
151.5807714414101
 30
0.0
 10
217.90964184196
 20
151.7134543949475
 30
0.0
 10
217.5240275971544
 20
152.047367860193
 30
0.0
 10
217.1903438975944
 20
152.1724405806407
 30
0.0
 10
216.8484621633662
 20
152.1724405806486
 30
0.0
  0
SPLINE
  5
14B
330
1F
100
AcDbEntity
  8
0
  6
Continuous
 62
     7
370
    25
100
AcDbSpline
210
0.0
220
0.0
230
1.0
 70
     8
 71
     3
 72
    14
 73
    10
 74
     0
 42
0.000000001
 43
0.00000001
 40
0.0
 40
0.0
 40
0.0
 40
0.0
 40
0.25
 40
0.25
 40
0.5
 40
0.5
 40
0.75
 40
0.75
 40
1.0
 40
1.0
 40
1.0
 40
1.0
 10
213.0302475141232
 20
152.172440580643
 30
0.0
 10
212.859307194068
 20
152.1724405806459
 30
0.0
 10
212.6924652535842
 20
152.1422719688176
 30
0.0
 10
212.373078481544
 20
152.023260045782
 30
0.0
 10
212.2264465650368
 20
151.9362696099168
 30
0.0
 10
211.9692987799894
 20
151.7137100222405
 30
0.0
 10
211.8617680490796
 20
151.5803387545374
 30
0.0
 10
211.6989638632867
 20
151.2827768505222
 30
0.0
 10
211.6446440456787
 20
151.1207752863893
 30
0.0
 10
211.6201819236664
 20
150.951580528403
 30
0.0
  0
LINE
  5
14C
330
1F
100
AcDbEntity
  8
0
  6
Continuous
 62
     7
370
    25
100
AcDbLine
 10
195.4350107479
 20
166.7979032049
 30
0.0
 11
234.4436989295
 21
166.7979032049
 31
0.0
  0
LINE
  5
14D
330
1F
100
AcDbEntity
  8
0
  6
Continuous
 62
     7
370
    25
100
AcDbLine
 10
234.439355241
 20
167.7979033689
 30
0.0
 11
195.4393544364
 21
167.7979033689
 31
0.0
  0
SPLINE
  5
14E
330
1F
100
AcDbEntity
  8
0
  6
Continuous
 62
     7
370
    25
100
AcDbSpline
210
0.0
220
0.0
230
1.0
 70
     8
 71
     3
 72
    16
 73
    12
 74
     0
 42
0.000000001
 43
0.00000001
 40
0.0
 40
0.0
 40
0.0
 40
0.0
 40
0.2499999999999996
 40
0.2499999999999996
 40
0.4999999999999991
 40
0.4999999999999991
 40
0.6249999999999983
 40
0.6249999999999983
 40
0.7499999999999976
 40
0.7499999999999976
 40
1.0
 40
1.0
 40
1.0
 40
1.0
 10
211.6239004489995
 20
150.8481552912536
 30
0.0
 10
211.6364222850399
 20
151.0241418352329
 30
0.0
 10
211.6829625026373
 20
151.1994942254186
 30
0.0
 10
211.8350568339844
 20
151.5168622212208
 30
0.0
 10
211.941767878362
 20
151.6618836488597
 30
0.0
 10
212.1347502358161
 20
151.8414401209063
 30
0.0
 10
212.2056423152573
 20
151.8959459873458
 30
0.0
 10
212.3540770840818
 20
151.9893951251367
 30
0.0
 10
212.4321448302514
 20
152.0289676740797
 30
0.0
 10
212.6781210877424
 20
152.1259319524798
 30
0.0
 10
212.8526616465198
 20
152.1594261264644
 30
0.0
 10
213.030247514123
 20
152.1595858462429
 30
0.0
  0
SPLINE
  5
14F
330
1F
100
AcDbEntity
  8
0
  6
Continuous
 62
     7
370
    25
100
AcDbSpline
210
0.0
220
0.0
230
1.0
 70
     8
 71
     3
 72
    16
 73
    12
 74
     0
 42
0.000000001
 43
0.00000001
 40
0.0
 40
0.0
 40
0.0
 40
0.0
 40
0.250000000000004
 40
0.250000000000004
 40
0.500000000000008
 40
0.500000000000008
 40
0.62500000000001
 40
0.62500000000001
 40
0.750000000000012
 40
0.750000000000012
 40
1.0
 40
1.0
 40
1.0
 40
1.0
 10
210.614811746465
 20
125.1440405434732
 30
0.0
 10
210.4193642852458
 20
125.1444588413368
 30
0.0
 10
210.2233926205341
 20
125.186589542454
 30
0.0
 10
209.8676023801274
 20
125.3455079078554
 30
0.0
 10
209.7043507658947
 20
125.4638927609101
 30
0.0
 10
209.5066676605105
 20
125.6844955054686
 30
0.0
 10
209.447363491116
 20
125.7666958748935
 30
0.0
 10
209.3488627107296
 20
125.9396558198786
 30
0.0
 10
209.3088527178222
 20
126.0310322473171
 30
0.0
 10
209.217927567652
 20
126.3206786616013
 30
0.0
 10
209.1997261279963
 20
126.5256241159158
 30
0.0
 10
209.2253975890787
 20
126.7264462267104
 30
0.0
  0
SPLINE
  5
150
330
1F
100
AcDbEntity
  8
0
  6
Continuous
 62
     7
370
    25
100
AcDbSpline
210
0.0
220
0.0
230
1.0
 70
     8
 71
     3
 72
    18
 73
    14
 74
     0
 42
0.000000001
 43
0.00000001
 40
0.0
 40
0.0
 40
0.0
 40
0.0
 40
0.2500000000000015
 40
0.2500000000000015
 40
0.3750000000000021
 40
0.3750000000000021
 40
0.5000000000000027
 40
0.5000000000000027
 40
0.6250000000000032
 40
0.6250000000000032
 40
0.7500000000000037
 40
0.7500000000000037
 40
1.0
 40
1.0
 40
1.0
 40
1.0
 10
220.6533120883537
 20
126.7264462267101
 30
0.0
 10
220.6787491706826
 20
126.5274576085962
 30
0.0
 10
220.6605600306611
 20
126.3208581132114
 30
0.0
 10
220.5707978841487
 20
126.0335922684463
 30
0.0
 10
220.530033343153
 20
125.9400438211181
 30
0.0
 10
220.4315786057424
 20
125.7670435053875
 30
0.0
 10
220.3733720610201
 20
125.6860984612621
 30
0.0
 10
220.2404032730625
 20
125.5374770012977
 30
0.0
 10
220.1674035135477
 20
125.4716262658078
 30
0.0
 10
220.0089041632499
 20
125.3559670972897
 30
0.0
 10
219.9226003831065
 20
125.306000185809
 30
0.0
 10
219.6553352586792
 20
125.186547700661
 30
0.0
 10
219.4597328270358
 20
125.1444596705274
 30
0.0
 10
219.2638979309686
 20
125.1440405434732
 30
0.0
  0
ELLIPSE
  5
151
330
1F
100
AcDbEntity
  8
0
  6
Continuous
 62
     7
370
    25
100
AcDbEllipse
 10
214.9393548387
 20
125.297927362
 30
0.0
 11
18.1562230417592
 21
0.0
 31
0.0
210
0.0
220
0.0
230
1.0
 40
0.0087268679
 41
4.471892166639948
 42
4.952885794160066
  0
LINE
  5
152
330
1F
100
AcDbEntity
  8
0
  6
Continuous
 62
     7
370
    25
100
AcDbLine
 10
234.2393555808
 20
114.0604865054
 30
0.0
 11
195.6393540966
 21
114.0604865054
 31
0.0
  0
ELLIPSE
  5
153
330
1F
100
AcDbEntity
  8
0
  6
Continuous
 62
     8
370
    18
100
AcDbEllipse
 10
266.3056270859
 20
170.6979032258
 30
0.0
 11
23.00685604886376
 21
-0.03926378423113874
 31
0.0
210
0.0
220
0.0
230
1.0
 40
0.0017055857
 41
4.713032463366675
 42
6.28314355749388
  0
LINE
  5
154
330
1F
100
AcDbEntity
  8
0
  6
Continuous
 62
     8
370
    18
100
AcDbLine
 10
266.3203654009
 20
170.6586376081
 30
0.0
 11
266.9472349006
 21
194.5979032157
 31
0.0
  0
LINE
  5
155
330
1F
100
AcDbEntity
  8
0
  6
Continuous
 62
     8
370
    18
100
AcDbLine
 10
162.9314747768
 20
194.5979032157
 30
0.0
 11
163.5583442765
 21
170.6586376081
 31
0.0
  0
ELLIPSE
  5
156
330
1F
100
AcDbEntity
  8
0
  6
Continuous
 62
     8
370
    18
100
AcDbEllipse
 10
163.5730825915
 20
170.6979032258
 30
0.0
 11
23.0068560488638
 21
0.03926378423113874
 31
0.0
210
0.0
220
0.0
230
1.0
 40
0.0017055857
 41
3.141634403291947
 42
4.711745497402703
  0
LINE
  5
157
330
1F
100
AcDbEntity
  8
0
  6
Continuous
 62
     8
370
    18
100
AcDbLine
 10
163.5583442765
 20
170.6586376081
 30
0.0
 11
266.3203654009
 21
170.6586376081
 31
0.0
  0
LINE
  5
158
330
1F
100
AcDbEntity
  8
0
  6
Continuous
 62
     8
370
    18
100
AcDbLine
 10
163.5583442765
 20
169.1979028533
 30
0.0
 11
163.5583442765
 21
170.6586376081
 31
0.0
  0
LINE
  5
159
330
1F
100
AcDbEntity
  8
0
  6
Continuous
 62
     8
370
    18
100
AcDbLine
 10
266.3203654009
 20
169.1979028533
 30
0.0
 11
266.3203654009
 21
170.6586376081
 31
0.0
  0
SPLINE
  5
15A
330
1F
100
AcDbEntity
  8
0
  6
Continuous
 62
     8
370
    18
100
AcDbSpline
210
0.0
220
0.0
230
1.0
 70
     8
 71
     3
 72
    22
 73
    18
 74
     0
 42
0.000000001
 43
0.00000001
 40
0.0
 40
0.0
 40
0.0
 40
0.0
 40
0.125
 40
0.125
 40
0.25
 40
0.25
 40
0.375
 40
0.375
 40
0.5
 40
0.5
 40
0.625
 40
0.625
 40
0.75
 40
0.75
 40
0.875
 40
0.875
 40
1.0
 40
1.0
 40
1.0
 40
1.0
 10
226.6061772910728
 20
169.0026845309915
 30
0.0
 10
226.6062743509637
 20
169.008245088415
 30
0.0
 10
226.578794888504
 20
169.0131998999516
 30
0.0
 10
226.4690799673662
 20
169.0219066110321
 30
0.0
 10
226.3873424551458
 20
169.0255853697421
 30
0.0
 10
226.1748901503462
 20
169.0315079427606
 30
0.0
 10
226.0425879327151
 20
169.0337885756468
 30
0.0
 10
225.731301323302
 20
169.0368287931538
 30
0.0
 10
225.5550594673546
 20
169.0375784836239
 30
0.0
 10
225.1623388940434
 20
169.0375729153027
 30
0.0
 10
224.9432533141438
 20
169.0367926888205
 30
0.0
 10
224.4805719448559
 20
169.0337448685935
 30
0.0
 10
224.2361159325775
 20
169.0314927719943
 30
0.0
 10
223.7207395039324
 20
169.0255193069281
 30
0.0
 10
223.4505014123533
 20
169.0217901862869
 30
0.0
 10
222.9066898410466
 20
169.0131679758026
 30
0.0
 10
222.6302995635647
 20
169.008245080668
 30
0.0
 10
222.3492346784782
 20
169.0026845309915
 30
0.0
  0
ARC
  5
15B
330
1F
100
AcDbEntity
  8
0
  6
Continuous
 62
     8
370
    18
100
AcDbCircle
 10
330.7241443634
 20
171.317580569
 30
0.0
 40
108.3996299408539
100
AcDbArc
 50
181.1204496561
 51
181.2236559493
  0
ARC
  5
15C
330
1F
100
AcDbEntity
  8
0
  6
Continuous
 62
     8
370
    18
100
AcDbCircle
 10
226.59063714
 20
169.5024771396
 30
0.0
 40
0.5000340683045185
100
AcDbArc
 50
271.7809120606
 51
322.4750337046
  0
SPLINE
  5
15D
330
1F
100
AcDbEntity
  8
0
  6
Continuous
 62
     8
370
    18
100
AcDbSpline
210
0.0
220
0.0
230
1.0
 70
     8
 71
     3
 72
    22
 73
    18
 74
     0
 42
0.000000001
 43
0.00000001
 40
0.0
 40
0.0
 40
0.0
 40
0.0
 40
0.125
 40
0.125
 40
0.25
 40
0.25
 40
0.375
 40
0.375
 40
0.5
 40
0.5
 40
0.625
 40
0.625
 40
0.75
 40
0.75
 40
0.875
 40
0.875
 40
1.0
 40
1.0
 40
1.0
 40
1.0
 10
207.5294749989054
 20
169.0026845309915
 30
0.0
 10
207.248409722246
 20
169.008245088415
 30
0.0
 10
206.9704028585218
 20
169.0131998999516
 30
0.0
 10
206.4204619192324
 20
169.0219066110321
 30
0.0
 10
206.1527239158039
 20
169.0255853697421
 30
0.0
 10
205.6408251052601
 20
169.0315079427606
 30
0.0
 10
205.393215320171
 20
169.0337885756468
 30
0.0
 10
204.9282174657157
 20
169.0368287931538
 30
0.0
 10
204.7140721380395
 20
169.0375784836239
 30
0.0
 10
204.3216330934047
 20
169.0375729153026
 30
0.0
 10
204.1419948579898
 20
169.0367926888205
 30
0.0
 10
203.8334091383086
 20
169.0337448685934
 30
0.0
 10
203.702817908281
 20
169.0314927719943
 30
0.0
 10
203.4894611304992
 20
169.0255193069281
 30
0.0
 10
203.4077699531846
 20
169.0217901862869
 30
0.0
 10
203.2999119934946
 20
169.0131679758026
 30
0.0
 10
203.2724353265553
 20
169.0082450806681
 30
0.0
 10
203.2725323863109
 20
169.0026845309915
 30
0.0
  0
ARC
  5
15E
330
1F
100
AcDbEntity
  8
0
  6
Continuous
 62
     8
370
    18
100
AcDbCircle
 10
203.2880725374
 20
169.5024771396
 30
0.0
 40
0.5000340683045236
100
AcDbArc
 50
217.5249662954
 51
268.2190879394
  0
ARC
  5
15F
330
1F
100
AcDbEntity
  8
0
  6
Continuous
 62
     8
370
    18
100
AcDbCircle
 10
99.154565314
 20
171.317580569
 30
0.0
 40
108.3996299408538
100
AcDbArc
 50
358.7763440507
 51
358.8795503439
  0
LWPOLYLINE
  5
160
330
1F
100
AcDbEntity
  8
0
  6
Continuous
 62
     8
370
    18
100
AcDbPolyline
 90
        5
 70
   128
 43
0.0
 10
226.60489838
 20
168.9293932418
 10
226.6049775424
 20
168.9339753489
 10
226.6052178237
 20
168.9477160821
 10
226.605617361
 20
168.9706210295
 10
226.6061770859
 20
169.0026846031
  0
LWPOLYLINE
  5
161
330
1F
100
AcDbEntity
  8
0
  6
Continuous
 62
     8
370
    18
100
AcDbPolyline
 90
        5
 70
   128
 43
0.0
 10
203.2725325915
 20
169.0026846031
 10
203.2730923164
 20
168.9706210295
 10
203.2734918538
 20
168.9477160821
 10
203.273732135
 20
168.9339753489
 10
203.2738112974
 20
168.9293932418
  0
SPLINE
  5
162
330
1F
100
AcDbEntity
  8
0
  6
Continuous
 62
     8
370
    18
100
AcDbSpline
210
0.0
220
0.0
230
1.0
 70
     8
 71
     3
 72
    11
 73
     7
 74
     0
 42
0.000000001
 43
0.00000001
 40
0.0
 40
0.0
 40
0.0
 40
0.0
 40
0.2500136271666651
 40
0.5000020073485225
 40
0.7499893837832665
 40
1.0
 40
1.0
 40
1.0
 40
1.0
 10
214.9393548387096
 20
126.1500346725919
 30
0.0
 10
214.6180513800916
 20
126.1498810607075
 30
0.0
 10
213.9754769088612
 20
126.1495738524509
 30
0.0
 10
213.0117329601495
 20
126.1470494773313
 30
0.0
 10
212.0481532143923
 20
126.1431522709189
 30
0.0
 10
211.4060113461352
 20
126.1391913632817
 30
0.0
 10
211.0849254887096
 20
126.1372108174121
 30
0.0
  0
ARC
  5
163
330
1F
100
AcDbEntity
  8
0
  6
Continuous
 62
     8
370
    18
100
AcDbCircle
 10
221.7567054419
 20
127.0714447418
 30
0.0
 40
10.71259484488951
100
AcDbArc
 50
178.9268919093
 51
185.0030389542
  0
SPLINE
  5
164
330
1F
100
AcDbEntity
  8
0
  6
Continuous
 62
     8
370
    18
100
AcDbSpline
210
0.0
220
0.0
230
1.0
 70
     8
 71
     3
 72
     8
 73
     4
 74
     0
 42
0.000000001
 43
0.00000001
 40
0.0
 40
0.0
 40
0.0
 40
0.0
 40
1.0
 40
1.0
 40
1.0
 40
1.0
 10
214.9393548387096
 20
127.2848574197811
 30
0.0
 10
213.6412440887096
 20
127.2848574197811
 30
0.0
 10
212.3431180087096
 20
127.2805718360421
 30
0.0
 10
211.0459918587096
 20
127.2720696051276
 30
0.0
  0
LINE
  5
165
330
1F
100
AcDbEntity
  8
0
  6
Continuous
 62
     8
370
    18
100
AcDbLine
 10
214.9393548387
 20
126.1500370006
 30
0.0
 11
214.9393548387
 21
127.284857283
 31
0.0
  0
SPLINE
  5
166
330
1F
100
AcDbEntity
  8
0
  6
Continuous
 62
     8
370
    18
100
AcDbSpline
210
0.0
220
0.0
230
1.0
 70
     8
 71
     3
 72
    11
 73
     7
 74
     0
 42
0.000000001
 43
0.00000001
 40
0.0
 40
0.0
 40
0.0
 40
0.0
 40
0.2500105803703002
 40
0.4999979449714972
 40
0.7499863371615304
 40
1.0
 40
1.0
 40
1.0
 40
1.0
 10
218.7937695187096
 20
126.1372109145812
 30
0.0
 10
218.4726849284473
 20
126.1391914454955
 30
0.0
 10
217.8305455635636
 20
126.1431523234138
 30
0.0
 10
216.8669695309239
 20
126.1470495001374
 30
0.0
 10
215.9032292052714
 20
126.1495738560132
 30
0.0
 10
215.2606571196613
 20
126.1498810618901
 30
0.0
 10
214.9393548387096
 20
126.1500346725919
 30
0.0
  0
SPLINE
  5
167
330
1F
100
AcDbEntity
  8
0
  6
Continuous
 62
     8
370
    18
100
AcDbSpline
210
0.0
220
0.0
230
1.0
 70
     8
 71
     3
 72
     8
 73
     4
 74
     0
 42
0.000000001
 43
0.00000001
 40
0.0
 40
0.0
 40
0.0
 40
0.0
 40
1.0
 40
1.0
 40
1.0
 40
1.0
 10
218.8327030087096
 20
127.2720697000982
 30
0.0
 10
217.5355817787096
 20
127.280571867699
 30
0.0
 10
216.2374606487096
 20
127.2848574197811
 30
0.0
 10
214.9393548387096
 20
127.2848574197811
 30
0.0
  0
ARC
  5
168
330
1F
100
AcDbEntity
  8
0
  6
Continuous
 62
     8
370
    18
100
AcDbCircle
 10
208.1218343635
 20
127.0714324628
 30
0.0
 40
10.71274769069742
100
AcDbArc
 50
354.9970985329
 51
1.073158462
  0
SPLINE
  5
169
330
1F
100
AcDbEntity
  8
0
  6
Continuous
 62
     8
370
    18
100
AcDbSpline
210
0.0
220
0.0
230
1.0
 70
     8
 71
     3
 72
    14
 73
    10
 74
     0
 42
0.000000001
 43
0.00000001
 40
0.0
 40
0.0
 40
0.0
 40
0.0
 40
0.1414556203295516
 40
0.2846282476599452
 40
0.427730087546675
 40
0.5707785751874442
 40
0.7138679899049718
 40
0.8569810947352354
 40
1.0
 40
1.0
 40
1.0
 40
1.0
 10
220.2878598253236
 20
127.4887722233803
 30
0.0
 10
220.2725820685286
 20
127.386107970091
 30
0.0
 10
220.241841111509
 20
127.1795333112476
 30
0.0
 10
220.112292363646
 20
126.8904093107291
 30
0.0
 10
219.9289234517554
 20
126.6319407055939
 30
0.0
 10
219.6923437690529
 20
126.4183575545393
 30
0.0
 10
219.4164022541312
 20
126.2591445324444
 30
0.0
 10
219.1121389954447
 20
126.1566096142638
 30
0.0
 10
218.8998698497165
 20
126.1436781532393
 30
0.0
 10
218.7937702181742
 20
126.1372145513565
 30
0.0
  0
SPLINE
  5
16A
330
1F
100
AcDbEntity
  8
0
  6
Continuous
 62
     8
370
    18
100
AcDbSpline
210
0.0
220
0.0
230
1.0
 70
     8
 71
     3
 72
    10
 73
     6
 74
     0
 42
0.000000001
 43
0.00000001
 40
0.0
 40
0.0
 40
0.0
 40
0.0
 40
0.5
 40
0.5
 40
1.0
 40
1.0
 40
1.0
 40
1.0
 10
219.3339493587096
 20
127.8260696624063
 30
0.0
 10
219.3522327021049
 20
127.6871635132059
 30
0.0
 10
219.3066605960925
 20
127.5415978973949
 30
0.0
 10
219.117719828494
 20
127.33283897922
 30
0.0
 10
218.9755492179123
 20
127.2711359568041
 30
0.0
 10
218.8327053587096
 20
127.2720724458048
 30
0.0
  0
ARC
  5
16B
330
1F
100
AcDbEntity
  8
0
  6
Continuous
 62
     8
370
    18
100
AcDbCircle
 10
219.7726777088
 20
126.1561379272
 30
0.0
 40
1.726599881008626
100
AcDbArc
 50
72.8558060246
 51
104.7202370999
  0
SPLINE
  5
16C
330
1F
100
AcDbEntity
  8
0
  6
Continuous
 62
     8
370
    18
100
AcDbSpline
210
0.0
220
0.0
230
1.0
 70
     8
 71
     3
 72
    26
 73
    22
 74
     0
 42
0.000000001
 43
0.00000001
 40
0.0
 40
0.0
 40
0.0
 40
0.0
 40
0.047354398868703
 40
0.0962990040174444
 40
0.1467380282327364
 40
0.1985479790575074
 40
0.2515775064579945
 40
0.305648442864828
 40
0.3605581572682114
 40
0.4160832425019442
 40
0.4719844315452769
 40
0.5280124761860965
 40
0.5839142896173553
 40
0.6394403673300095
 40
0.6943512399053938
 40
0.7484232844581322
 40
0.8014536658492794
 40
0.8532640468988105
 40
0.903702961308359
 40
0.9526468669058624
 40
1.0
 40
1.0
 40
1.0
 40
1.0
 10
211.0849247083153
 20
126.13721273912
 30
0.0
 10
211.0447075202356
 20
126.1381403996627
 30
0.0
 10
210.9629226122024
 20
126.1400268724817
 30
0.0
 10
210.839116662959
 20
126.155575648749
 30
0.0
 10
210.7133142403474
 20
126.1814068224724
 30
0.0
 10
210.5869359140464
 20
126.2190988317594
 30
0.0
 10
210.4615770067579
 20
126.2688100418988
 30
0.0
 10
210.3389601207432
 20
126.3307530108222
 30
0.0
 10
210.2208727192332
 20
126.4047324643914
 30
0.0
 10
210.1090926197204
 20
126.4902430512066
 30
0.0
 10
210.0053072092833
 20
126.5864376559992
 30
0.0
 10
209.9110332885668
 20
126.6921580245558
 30
0.0
 10
209.8275457156116
 20
126.8059843825287
 30
0.0
 10
209.7558179628533
 20
126.9262802595646
 30
0.0
 10
209.6964891607917
 20
127.0512831451714
 30
0.0
 10
209.6498421602794
 20
127.1791862654957
 30
0.0
 10
209.6158462683864
 20
127.3082138039348
 30
0.0
 10
209.5940684778442
 20
127.4367061676702
 30
0.0
 10
209.5841465273312
 20
127.5631223288603
 30
0.0
 10
209.5843118161851
 20
127.6862734488693
 30
0.0
 10
209.5928559683156
 20
127.7665589584099
 30
0.0
 10
209.5970574721054
 20
127.8060385776222
 30
0.0
  0
ARC
  5
16D
330
1F
100
AcDbEntity
  8
0
  6
Continuous
 62
     8
370
    18
100
AcDbCircle
 10
210.1059914675
 20
126.1561222509
 30
0.0
 40
1.726628398870069
100
AcDbArc
 50
75.2791811231
 51
107.1429807095
  0
SPLINE
  5
16E
330
1F
100
AcDbEntity
  8
0
  6
Continuous
 62
     8
370
    18
100
AcDbSpline
210
0.0
220
0.0
230
1.0
 70
     8
 71
     3
 72
    10
 73
     6
 74
     0
 42
0.000000001
 43
0.00000001
 40
0.0
 40
0.0
 40
0.0
 40
0.0
 40
0.5
 40
0.5
 40
1.0
 40
1.0
 40
1.0
 40
1.0
 10
211.0459894987096
 20
127.2720723508342
 30
0.0
 10
210.90309848441
 20
127.2711355588958
 30
0.0
 10
210.7611330318825
 20
127.3327803811974
 30
0.0
 10
210.5720201950707
 20
127.5416441963545
 30
0.0
 10
210.5264549821666
 20
127.6871246885593
 30
0.0
 10
210.5447463587096
 20
127.8260764582718
 30
0.0
  0
SPLINE
  5
16F
330
1F
100
AcDbEntity
  8
0
  6
Continuous
 62
     8
370
    18
100
AcDbSpline
210
0.0
220
0.0
230
1.0
 70
     8
 71
     3
 72
     8
 73
     4
 74
     0
 42
0.000000001
 43
0.00000001
 40
0.0
 40
0.0
 40
0.0
 40
0.0
 40
1.0
 40
1.0
 40
1.0
 40
1.0
 10
210.5447441587096
 20
127.826076367577
 30
0.0
 10
211.5395494487096
 20
135.3831822349266
 30
0.0
 10
212.2597349787096
 20
142.9698589860298
 30
0.0
 10
212.8139467287096
 20
150.5654889466376
 30
0.0
  0
SPLINE
  5
170
330
1F
100
AcDbEntity
  8
0
  6
Continuous
 62
     8
370
    18
100
AcDbSpline
210
0.0
220
0.0
230
1.0
 70
     8
 71
     3
 72
    10
 73
     6
 74
     0
 42
0.000000001
 43
0.00000001
 40
0.0
 40
0.0
 40
0.0
 40
0.0
 40
0.4999999999999997
 40
0.4999999999999997
 40
1.0
 40
1.0
 40
1.0
 40
1.0
 10
212.8139467287096
 20
150.5654889466376
 30
0.0
 10
212.8229641145828
 20
150.6890747591842
 30
0.0
 10
212.8805156411143
 20
150.8090392913256
 30
0.0
 10
213.0648623264375
 20
150.97955179068
 30
0.0
 10
213.1911641491581
 20
151.0289932622418
 30
0.0
 10
213.3176880187096
 20
151.0290142386678
 30
0.0
  0
SPLINE
  5
171
330
1F
100
AcDbEntity
  8
0
  6
Continuous
 62
     8
370
    18
100
AcDbSpline
210
0.0
220
0.0
230
1.0
 70
     8
 71
     3
 72
     9
 73
     5
 74
     0
 42
0.000000001
 43
0.00000001
 40
0.0
 40
0.0
 40
0.0
 40
0.0
 40
0.499962516314324
 40
1.0
 40
1.0
 40
1.0
 40
1.0
 10
214.9393548387096
 20
151.0291486089141
 30
0.0
 10
214.6690837065004
 20
151.0291430409265
 30
0.0
 10
214.1285009160112
 20
151.0291319041163
 30
0.0
 10
213.5879724917705
 20
151.0290534627939
 30
0.0
 10
213.3176880186526
 20
151.0290142391924
 30
0.0
  0
LINE
  5
172
330
1F
100
AcDbEntity
  8
0
  6
Continuous
 62
     8
370
    18
100
AcDbLine
 10
214.9393548387
 20
127.284857283
 30
0.0
 11
214.9393548387
 21
151.0291498403
 31
0.0
  0
SPLINE
  5
173
330
1F
100
AcDbEntity
  8
0
  6
Continuous
 62
     8
370
    18
100
AcDbSpline
210
0.0
220
0.0
230
1.0
 70
     8
 71
     3
 72
     9
 73
     5
 74
     0
 42
0.000000001
 43
0.00000001
 40
0.0
 40
0.0
 40
0.0
 40
0.0
 40
0.5000374843371997
 40
1.0
 40
1.0
 40
1.0
 40
1.0
 10
216.5610693287518
 20
151.0290142322497
 30
0.0
 10
216.2907769108876
 20
151.0290534578784
 30
0.0
 10
215.7502325990498
 20
151.0291319032549
 30
0.0
 10
215.2096339161674
 20
151.0291430406394
 30
0.0
 10
214.9393548387096
 20
151.0291486089141
 30
0.0
  0
SPLINE
  5
174
330
1F
100
AcDbEntity
  8
0
  6
Continuous
 62
     8
370
    18
100
AcDbSpline
210
0.0
220
0.0
230
1.0
 70
     8
 71
     3
 72
    16
 73
    12
 74
     0
 42
0.000000001
 43
0.00000001
 40
0.0
 40
0.0
 40
0.0
 40
0.0
 40
0.0837776881712082
 40
0.1663524683196989
 40
0.248993322163522
 40
0.3735038823454801
 40
0.4985053876449038
 40
0.6237520303031746
 40
0.748933158060647
 40
0.8744729492801322
 40
1.0
 40
1.0
 40
1.0
 40
1.0
 10
217.0648107887139
 20
150.5654866506464
 30
0.0
 10
217.062492800873
 20
150.5862521923337
 30
0.0
 10
217.0578901076346
 20
150.6274851171266
 30
0.0
 10
217.0414275928435
 20
150.6876061133991
 30
0.0
 10
217.0141941863815
 20
150.7547456071257
 30
0.0
 10
216.9710933906561
 20
150.8263900483276
 30
0.0
 10
216.9078553820281
 20
150.8965104735337
 30
0.0
 10
216.8326837106463
 20
150.954376959432
 30
0.0
 10
216.7475782134847
 20
150.9965757792326
 30
0.0
 10
216.6560514951353
 20
151.0239930876049
 30
0.0
 10
216.5927289797699
 20
151.0273405739913
 30
0.0
 10
216.5610693287518
 20
151.0290142322497
 30
0.0
  0
SPLINE
  5
175
330
1F
100
AcDbEntity
  8
0
  6
Continuous
 62
     8
370
    18
100
AcDbSpline
210
0.0
220
0.0
230
1.0
 70
     8
 71
     3
 72
     8
 73
     4
 74
     0
 42
0.000000001
 43
0.00000001
 40
0.0
 40
0.0
 40
0.0
 40
0.0
 40
1.0
 40
1.0
 40
1.0
 40
1.0
 10
217.0648107887096
 20
150.5654866506162
 30
0.0
 10
217.6189872787096
 20
142.9698547168029
 30
0.0
 10
218.3392553287096
 20
135.3831881691463
 30
0.0
 10
219.3339515387096
 20
127.8260696615343
 30
0.0
  0
ARC
  5
176
330
1F
100
AcDbEntity
  8
0
  6
Continuous
 62
     8
370
    18
100
AcDbCircle
 10
212.4583328835
 20
148.8532889316
 30
0.0
 40
1.748739674904775
100
AcDbArc
 50
78.2668154373
 51
110.7842324227
  0
ARC
  5
177
330
1F
100
AcDbEntity
  8
0
  6
Continuous
 62
     8
370
    18
100
AcDbCircle
 10
217.4204212456
 20
148.8533215412
 30
0.0
 40
1.748703385120089
100
AcDbArc
 50
69.2152013853
 51
101.7333140123
  0
SPLINE
  5
178
330
1F
100
AcDbEntity
  8
0
  6
Continuous
 62
     8
370
    18
100
AcDbSpline
210
0.0
220
0.0
230
1.0
 70
     8
 71
     3
 72
    13
 73
     9
 74
     0
 42
0.000000001
 43
0.00000001
 40
0.0
 40
0.0
 40
0.0
 40
0.0
 40
0.1183625589492353
 40
0.2367260425181366
 40
0.3550904908234392
 40
0.4734559439808916
 40
0.7367251695724947
 40
0.9999999999999999
 40
0.9999999999999999
 40
0.9999999999999999
 40
0.9999999999999999
 10
218.8997052322285
 20
125.2512721560123
 30
0.0
 10
218.8961476071171
 20
125.2761776541599
 30
0.0
 10
218.8890323291031
 20
125.3259888450106
 30
0.0
 10
218.8777574585653
 20
125.4104544873526
 30
0.0
 10
218.8660457396887
 20
125.5019856723063
 30
0.0
 10
218.8488571562897
 20
125.6421405781833
 30
0.0
 10
218.8254400093473
 20
125.843051332431
 30
0.0
 10
218.8043268019453
 20
126.039156750405
 30
0.0
 10
218.7937700858737
 20
126.1372105031211
 30
0.0
  0
ARC
  5
179
330
1F
100
AcDbEntity
  8
0
  6
Continuous
 62
     8
370
    18
100
AcDbCircle
 10
225.2949711002
 20
151.2262234975
 30
0.0
 40
11.97890650923397
100
AcDbArc
 50
176.872615647
 51
180.9432983911
  0
ARC
  5
17A
330
1F
100
AcDbEntity
  8
0
  6
Continuous
 62
     8
370
    18
100
AcDbCircle
 10
204.5842534576
 20
151.2262258577
 30
0.0
 40
11.97843934499445
100
AcDbArc
 50
359.0566535255
 51
3.1274951373
  0
LINE
  5
17B
330
1F
100
AcDbEntity
  8
0
  6
Continuous
 62
     8
370
    18
100
AcDbLine
 10
214.9393548387
 20
151.8798608581
 30
0.0
 11
214.9393548387
 21
151.0291498403
 31
0.0
  0
SPLINE
  5
17C
330
1F
100
AcDbEntity
  8
0
  6
Continuous
 62
     8
370
    18
100
AcDbSpline
210
0.0
220
0.0
230
1.0
 70
     8
 71
     3
 72
    20
 73
    16
 74
     0
 42
0.000000001
 43
0.00000001
 40
0.0358876567521813
 40
0.0358876567521813
 40
0.0358876567521813
 40
0.0358876567521813
 40
0.0488040726267421
 40
0.0854251663767421
 40
0.1440189163767421
 40
0.2416751663767421
 40
0.4760501663767421
 40
0.616675166376742
 40
0.733862666376742
 40
0.804175166376742
 40
0.862768916376742
 40
0.897925166376742
 40
0.936377314814242
 40
0.951758174189242
 40
0.9557875096245607
 40
0.9557875096245607
 40
0.9557875096245607
 40
0.9557875096245607
 10
225.1243485474965
 20
126.7893896424865
 30
0.0
 10
225.1038594800419
 20
126.7889740989665
 30
0.0
 10
225.0252639016866
 20
126.7873614092562
 30
0.0
 10
224.8535773830454
 20
126.7836823672725
 30
0.0
 10
224.5469093767913
 20
126.7765755125653
 30
0.0
 10
223.924364081403
 20
126.7603717867806
 30
0.0
 10
223.1673674162959
 20
126.7361110397706
 30
0.0
 10
222.3747185763133
 20
126.7053740266797
 30
0.0
 10
221.8442824893678
 20
126.6823738737616
 30
0.0
 10
221.4453626008982
 20
126.6637553288399
 30
0.0
 10
221.1789151104311
 20
126.6507157422897
 30
0.0
 10
220.9639172774642
 20
126.6398408850739
 30
0.0
 10
220.8190404973662
 20
126.6323262903383
 30
0.0
 10
220.724765545222
 20
126.6273480321535
 30
0.0
 10
220.6931315013915
 20
126.6256666967096
 30
0.0
 10
220.6865642518993
 20
126.6253171920471
 30
0.0
  0
SPLINE
  5
17D
330
1F
100
AcDbEntity
  8
0
  6
Continuous
 62
     8
370
    18
100
AcDbSpline
210
0.0
220
0.0
230
1.0
 70
     8
 71
     3
 72
    34
 73
    30
 74
     0
 42
0.000000001
 43
0.00000001
 40
0.0
 40
0.0
 40
0.0
 40
0.0
 40
0.0625
 40
0.0625
 40
0.1250000000000001
 40
0.1250000000000001
 40
0.2500000000000001
 40
0.2500000000000001
 40
0.3750000000000001
 40
0.3750000000000001
 40
0.4375000000000008
 40
0.4375000000000008
 40
0.5000000000000016
 40
0.5000000000000016
 40
0.5625000000000022
 40
0.5625000000000022
 40
0.625000000000003
 40
0.625000000000003
 40
0.6875000000000037
 40
0.6875000000000037
 40
0.7500000000000044
 40
0.7500000000000044
 40
0.8750000000000021
 40
0.8750000000000021
 40
0.9375000000000011
 40
0.9375000000000011
 40
0.9687500000000006
 40
0.9687500000000006
 40
1.0
 40
1.0
 40
1.0
 40
1.0
 10
219.3234539626678
 20
119.4182354891091
 30
0.0
 10
219.5552512349491
 20
119.4463060747204
 30
0.0
 10
219.7859191465879
 20
119.4788784142048
 30
0.0
 10
220.2428421248435
 20
119.5491143413642
 30
0.0
 10
220.4692173464823
 20
119.5874361216008
 30
0.0
 10
221.1412411375021
 20
119.7170793403402
 30
0.0
 10
221.5801022738442
 20
119.8231746821566
 30
0.0
 10
222.43340180182
 20
120.1060683415442
 30
0.0
 10
222.8507105830713
 20
120.282712203736
 30
0.0
 10
223.425262187172
 20
120.6210782012456
 30
0.0
 10
223.6090592305206
 20
120.7461621302191
 30
0.0
 10
223.95813366798
 20
121.0295013422285
 30
0.0
 10
224.1203551520552
 20
121.1857419470796
 30
0.0
 10
224.4149592210903
 20
121.5279903820485
 30
0.0
 10
224.5489291886836
 20
121.7164835176296
 30
0.0
 10
224.7783597330647
 20
122.1163618849444
 30
0.0
 10
224.8750318911002
 20
122.3268652784316
 30
0.0
 10
225.0367791803411
 20
122.7669136025372
 30
0.0
 10
225.1018631687766
 20
122.9975175350785
 30
0.0
 10
225.2016468204548
 20
123.4604426903281
 30
0.0
 10
225.2371764081191
 20
123.6945582905522
 30
0.0
 10
225.30866921395
 20
124.4034290433551
 30
0.0
 10
225.3086225820564
 20
124.8871398649358
 30
0.0
 10
225.2636282624542
 20
125.6029599785302
 30
0.0
 10
225.2413276670853
 20
125.8408040350974
 30
0.0
 10
225.2012360226948
 20
126.1969118470416
 30
0.0
 10
225.1867427302806
 20
126.3154998576979
 30
0.0
 10
225.1563658527859
 20
126.5525295865319
 30
0.0
 10
225.1402912928115
 20
126.6722198084152
 30
0.0
 10
225.1244202808861
 20
126.7893910973081
 30
0.0
  0
SPLINE
  5
17E
330
1F
100
AcDbEntity
  8
0
  6
Continuous
 62
     8
370
    18
100
AcDbSpline
210
0.0
220
0.0
230
1.0
 70
     8
 71
     3
 72
    10
 73
     6
 74
     0
 42
0.000000001
 43
0.00000001
 40
0.0
 40
0.0
 40
0.0
 40
0.0
 40
0.5000000000000001
 40
0.5000000000000001
 40
1.0
 40
1.0
 40
1.0
 40
1.0
 10
214.9393589116395
 20
119.1696951777296
 30
0.0
 10
215.6766647921849
 20
119.1696951904989
 30
0.0
 10
216.4146408792224
 20
119.1897761323092
 30
0.0
 10
217.8805144077129
 20
119.2698733743613
 30
0.0
 10
218.607308788449
 20
119.3315105064502
 30
0.0
 10
219.323453962679
 20
119.4182354891157
 30
0.0
  0
SPLINE
  5
17F
330
1F
100
AcDbEntity
  8
0
  6
Continuous
 62
     8
370
    18
100
AcDbSpline
210
0.0
220
0.0
230
1.0
 70
     8
 71
     3
 72
    10
 73
     6
 74
     0
 42
0.000000001
 43
0.00000001
 40
0.0
 40
0.0
 40
0.0
 40
0.0
 40
0.5
 40
0.5
 40
1.0
 40
1.0
 40
1.0
 40
1.0
 10
210.5552562561197
 20
119.418235427547
 30
0.0
 10
211.2713979229404
 20
119.3315110704924
 30
0.0
 10
211.9982593755951
 20
119.269263713678
 30
0.0
 10
213.4641177252719
 20
119.189003131076
 30
0.0
 10
214.2008875342643
 20
119.1696947618554
 30
0.0
 10
214.9393589116395
 20
119.1696951777292
 30
0.0
  0
SPLINE
  5
180
330
1F
100
AcDbEntity
  8
0
  6
Continuous
 62
     8
370
    18
100
AcDbSpline
210
0.0
220
0.0
230
1.0
 70
     8
 71
     3
 72
    32
 73
    28
 74
     0
 42
0.000000001
 43
0.00000001
 40
0.0
 40
0.0
 40
0.0
 40
0.0
 40
0.1250000000000026
 40
0.1250000000000026
 40
0.2500000000000052
 40
0.2500000000000052
 40
0.3125000000000047
 40
0.3125000000000047
 40
0.3750000000000043
 40
0.3750000000000043
 40
0.4375000000000038
 40
0.4375000000000038
 40
0.5000000000000033
 40
0.5000000000000033
 40
0.5625000000000029
 40
0.5625000000000029
 40
0.6250000000000023
 40
0.6250000000000023
 40
0.6875000000000019
 40
0.6875000000000019
 40
0.7500000000000014
 40
0.7500000000000014
 40
0.8750000000000007
 40
0.8750000000000007
 40
0.9375000000000003
 40
0.9375000000000003
 40
1.0
 40
1.0
 40
1.0
 40
1.0
 10
204.7466965922578
 20
126.7332625636391
 30
0.0
 10
204.6830065575802
 20
126.2618476106189
 30
0.0
 10
204.6248891525388
 20
125.7898577769122
 30
0.0
 10
204.5692669518088
 20
124.8397628602057
 30
0.0
 10
204.5718460930875
 20
124.3586703884407
 30
0.0
 10
204.6471553619518
 20
123.654200420663
 30
0.0
 10
204.6839561026608
 20
123.4215499130168
 30
0.0
 10
204.7863620714532
 20
122.961570093702
 30
0.0
 10
204.8527646808712
 20
122.732710525939
 30
0.0
 10
205.0167695880043
 20
122.2967661361523
 30
0.0
 10
205.1145010199814
 20
122.0882532430269
 30
0.0
 10
205.3459314325394
 20
121.692290824408
 30
0.0
 10
205.4805242388834
 20
121.5062169629153
 30
0.0
 10
205.7758303289968
 20
121.168029235885
 30
0.0
 10
205.938484280405
 20
121.0134475040752
 30
0.0
 10
206.2868556438537
 20
120.7338906747791
 30
0.0
 10
206.4697527269828
 20
120.6106419840625
 30
0.0
 10
206.8499997355991
 20
120.388450433893
 30
0.0
 10
207.0474258525787
 20
120.2896883129789
 30
0.0
 10
207.4548818470149
 20
120.1120355063637
 30
0.0
 10
207.6657068360838
 20
120.032791477931
 30
0.0
 10
208.3055872252977
 20
119.8212912041437
 30
0.0
 10
208.7437155434574
 20
119.7157159726384
 30
0.0
 10
209.4139008530126
 20
119.5866670701798
 30
0.0
 10
209.639538119649
 20
119.5485218584089
 30
0.0
 10
210.0947735683264
 20
119.4786027403589
 30
0.0
 10
210.3244926451528
 20
119.4461807723395
 30
0.0
 10
210.5552562561317
 20
119.4182354275506
 30
0.0
  0
SPLINE
  5
181
330
1F
100
AcDbEntity
  8
0
  6
Continuous
 62
     8
370
    18
100
AcDbSpline
210
0.0
220
0.0
230
1.0
 70
     8
 71
     3
 72
    11
 73
     7
 74
     0
 42
0.000000001
 43
0.00000001
 40
-0.00000006
 40
-0.00000006
 40
-0.00000006
 40
-0.00000006
 40
0.0
 40
0.0
 40
0.0
 40
0.0000567126826241
 40
0.0000567126826241
 40
0.0000567126826241
 40
0.0000567126826241
 10
204.7543003366672
 20
126.7893908754346
 30
0.0
 10
204.7542976508586
 20
126.7893711038965
 30
0.0
 10
204.7542949650552
 20
126.7893513323585
 30
0.0
 10
204.7542922792606
 20
126.7893315608181
 30
0.0
 10
204.7517536356829
 20
126.7706432758565
 30
0.0
 10
204.7492218187702
 20
126.7519535495034
 30
0.0
 10
204.746696592259
 20
126.7332625636485
 30
0.0
  0
SPLINE
  5
182
330
1F
100
AcDbEntity
  8
0
  6
Continuous
 62
     8
370
    18
100
AcDbSpline
210
0.0
220
0.0
230
1.0
 70
     8
 71
     3
 72
    11
 73
     7
 74
     0
 42
0.000000001
 43
0.00000001
 40
0.0442197346866862
 40
0.0442197346866862
 40
0.0442197346866862
 40
0.0442197346866862
 40
0.47938232421875
 40
0.712042236328125
 40
0.9447021484375
 40
0.9641244587562942
 40
0.9641244587562942
 40
0.9641244587562942
 40
0.9641244587562942
 10
204.7543972567902
 20
126.7893868742818
 30
0.0
 10
205.4446946459283
 20
126.775377970418
 30
0.0
 10
206.5109312595842
 20
126.7452749072633
 30
0.0
 10
207.9628693782011
 20
126.6868533845238
 30
0.0
 10
208.7498129977257
 20
126.648710958988
 30
0.0
 10
209.1605572202632
 20
126.626988479982
 30
0.0
 10
209.1922125699923
 20
126.6253041410556
 30
0.0
  0
SPLINE
  5
183
330
1F
100
AcDbEntity
  8
0
  6
Continuous
 62
     8
370
    18
100
AcDbSpline
210
0.0
220
0.0
230
1.0
 70
     8
 71
     3
 72
    16
 73
    12
 74
     0
 42
0.000000001
 43
0.00000001
 40
0.0
 40
0.0
 40
0.0
 40
0.0
 40
0.1249999999999999
 40
0.1249999999999999
 40
0.2499999999999998
 40
0.2499999999999998
 40
0.4999999999999996
 40
0.4999999999999996
 40
0.7499999999999993
 40
0.7499999999999993
 40
1.0
 40
1.0
 40
1.0
 40
1.0
 10
209.8355489702323
 20
151.5484198521823
 30
0.0
 10
209.5339197812943
 20
150.5377363654034
 30
0.0
 10
209.254846477161
 20
149.5199538530125
 30
0.0
 10
208.7183949963822
 20
147.4796036880403
 30
0.0
 10
208.4616750787648
 20
146.4568939221552
 30
0.0
 10
207.7193489536855
 20
143.3832616785682
 30
0.0
 10
207.264060343413
 20
141.3258549519994
 30
0.0
 10
206.431907022028
 20
137.1940989426625
 30
0.0
 10
206.0528391690879
 20
135.1208301906639
 30
0.0
 10
205.3545310923626
 20
130.9633853925917
 30
0.0
 10
205.0350335410713
 20
128.8796563100217
 30
0.0
 10
204.7544635403154
 20
126.7893855291061
 30
0.0
  0
SPLINE
  5
184
330
1F
100
AcDbEntity
  8
0
  6
Continuous
 62
     8
370
    18
100
AcDbSpline
210
0.0
220
0.0
230
1.0
 70
     8
 71
     3
 72
    11
 73
     7
 74
     0
 42
0.000000001
 43
0.00000001
 40
-0.0980497121990386
 40
-0.0980497121990386
 40
-0.0980497121990386
 40
-0.0980497121990386
 40
0.0
 40
0.0
 40
0.0
 40
0.8094990553115559
 40
0.8094990553115559
 40
0.8094990553115559
 40
0.8094990553115559
 10
211.6201819236663
 20
150.951580528403
 30
0.0
 10
211.5571036695603
 20
150.9730085544353
 30
0.0
 10
211.4940254154543
 20
150.9944365804675
 30
0.0
 10
211.4309471613484
 20
151.0158646064997
 30
0.0
 10
210.9101726892537
 20
151.1927745274089
 30
0.0
 10
210.3783820777751
 20
151.3702900596701
 30
0.0
 10
209.8355753269126
 20
151.5484112032833
 30
0.0
  0
SPLINE
  5
185
330
1F
100
AcDbEntity
  8
0
  6
Continuous
 62
     8
370
    18
100
AcDbSpline
210
0.0
220
0.0
230
1.0
 70
     8
 71
     3
 72
    16
 73
    12
 74
     0
 42
0.000000001
 43
0.00000001
 40
0.0
 40
0.0
 40
0.0
 40
0.0
 40
0.2500000000000007
 40
0.2500000000000007
 40
0.5000000000000004
 40
0.5000000000000004
 40
0.7500000000000003
 40
0.7500000000000003
 40
0.8750000000000002
 40
0.8750000000000002
 40
1.0
 40
1.0
 40
1.0
 40
1.0
 10
225.1242461571967
 20
126.7893855295136
 30
0.0
 10
224.8437136883509
 20
128.87936365918
 30
0.0
 10
224.5241988727522
 20
130.9632042320042
 30
0.0
 10
223.8259548353885
 20
135.1202900425334
 30
0.0
 10
223.4468001469745
 20
137.1940632921172
 30
0.0
 10
222.6146491325443
 20
141.3259624616569
 30
0.0
 10
222.1593165257513
 20
143.3837734296863
 30
0.0
 10
221.4169316583482
 20
146.4577222636022
 30
0.0
 10
221.1602253924565
 20
147.4803467117934
 30
0.0
 10
220.6238965551156
 20
149.5200903684861
 30
0.0
 10
220.3447893763855
 20
150.5378906527476
 30
0.0
 10
220.0431604482548
 20
151.5484197672099
 30
0.0
  0
SPLINE
  5
186
330
1F
100
AcDbEntity
  8
0
  6
Continuous
 62
     8
370
    18
100
AcDbSpline
210
0.0
220
0.0
230
1.0
 70
     8
 71
     3
 72
     8
 73
     4
 74
     0
 42
0.000000001
 43
0.00000001
 40
0.0
 40
0.0
 40
0.0
 40
0.0
 40
1.0
 40
1.0
 40
1.0
 40
1.0
 10
225.1243877667983
 20
126.7894023343972
 30
0.0
 10
225.2207028171512
 20
126.7942658177295
 30
0.0
 10
225.288352273911
 20
126.7967474426006
 30
0.0
 10
225.320488368052
 20
126.7949215501677
 30
0.0
  0
SPLINE
  5
187
330
1F
100
AcDbEntity
  8
0
  6
Continuous
 62
     8
370
    18
100
AcDbSpline
210
0.0
220
0.0
230
1.0
 70
     8
 71
     3
 72
    30
 73
    26
 74
     0
 42
0.000000001
 43
0.00000001
 40
0.0
 40
0.0
 40
0.0
 40
0.0
 40
0.1249999999999988
 40
0.1249999999999988
 40
0.2499999999999975
 40
0.2499999999999975
 40
0.3749999999999962
 40
0.3749999999999962
 40
0.4374999999999963
 40
0.4374999999999963
 40
0.4999999999999963
 40
0.4999999999999963
 40
0.5624999999999963
 40
0.5624999999999963
 40
0.6249999999999964
 40
0.6249999999999964
 40
0.6874999999999964
 40
0.6874999999999964
 40
0.7499999999999964
 40
0.7499999999999964
 40
0.8124999999999966
 40
0.8124999999999966
 40
0.8749999999999966
 40
0.8749999999999966
 40
1.0
 40
1.0
 40
1.0
 40
1.0
 10
219.3161679418856
 20
118.9795109010868
 30
0.0
 10
219.8010846592876
 20
119.0429817064235
 30
0.0
 10
220.2817592833105
 20
119.1176111273893
 30
0.0
 10
221.2202424424207
 20
119.3125493577216
 30
0.0
 10
221.6761082710732
 20
119.4319509260141
 30
0.0
 10
222.5537863403561
 20
119.7411537852349
 30
0.0
 10
222.9758321951155
 20
119.9300172249639
 30
0.0
 10
223.573796689204
 20
120.301442898437
 30
0.0
 10
223.7644672298126
 20
120.4388650243071
 30
0.0
 10
224.1199400414492
 20
120.7420474289661
 30
0.0
 10
224.2856849216237
 20
120.9083888123811
 30
0.0
 10
224.5898547950618
 20
121.2764271409008
 30
0.0
 10
224.7256978974546
 20
121.4757439807529
 30
0.0
 10
224.9602126354685
 20
121.8949228212479
 30
0.0
 10
225.060066508151
 20
122.1160971242687
 30
0.0
 10
225.228196084526
 20
122.5800407347075
 30
0.0
 10
225.2954777408867
 20
122.8206852297242
 30
0.0
 10
225.3993427300142
 20
123.304977336964
 30
0.0
 10
225.4365821118763
 20
123.5504910200192
 30
0.0
 10
225.4866391428577
 20
124.0471736590037
 30
0.0
 10
225.4993913009821
 20
124.2994893324984
 30
0.0
 10
225.5042435231369
 20
124.8022475399568
 30
0.0
 10
225.4964564296324
 20
125.0526968425086
 30
0.0
 10
225.4500955883439
 20
125.8019572539899
 30
0.0
 10
225.3870867510576
 20
126.2985620438246
 30
0.0
 10
225.3205049844389
 20
126.794871322134
 30
0.0
  0
ARC
  5
188
330
1F
100
AcDbEntity
  8
0
  6
Continuous
 62
     8
370
    18
100
AcDbCircle
 10
216.7591166299
 20
119.2413967718
 30
0.0
 40
2.570427538953397
100
AcDbArc
 50
354.1522739394
 51
3.9449338103
  0
SPLINE
  5
189
330
1F
100
AcDbEntity
  8
0
  6
Continuous
 62
     8
370
    18
100
AcDbSpline
210
0.0
220
0.0
230
1.0
 70
     8
 71
     3
 72
    10
 73
     6
 74
     0
 42
0.000000001
 43
0.00000001
 40
0.0
 40
0.0
 40
0.0
 40
0.0
 40
0.5
 40
0.5
 40
1.0
 40
1.0
 40
1.0
 40
1.0
 10
214.9393548136967
 20
118.7028790529142
 30
0.0
 10
215.6778812585234
 20
118.7028790533996
 30
0.0
 10
216.4165671868149
 20
118.7251603577836
 30
0.0
 10
217.8774389019503
 20
118.8167229199643
 30
0.0
 10
218.6006306633797
 20
118.8858541437833
 30
0.0
 10
219.3161679418856
 20
118.9795109010868
 30
0.0
  0
LWPOLYLINE
  5
18A
330
1F
100
AcDbEntity
  8
0
  6
Continuous
 62
     8
370
    18
100
AcDbPolyline
 90
        9
 70
   128
 43
0.0
 10
214.9393546648
 20
119.1696923474
 10
214.9393546813
 20
119.10350884
 10
214.9393546987
 20
119.0389644603
 10
214.9393547167
 20
118.9763721327
 10
214.9393547353
 20
118.916037331
 10
214.9393547543
 20
118.8582506279
 10
214.9393547738
 20
118.8032802443
 10
214.9393547937
 20
118.7514093021
 10
214.9393548137
 20
118.7028762201
  0
SPLINE
  5
18B
330
1F
100
AcDbEntity
  8
0
  6
Continuous
 62
     8
370
    18
100
AcDbSpline
210
0.0
220
0.0
230
1.0
 70
     8
 71
     3
 72
    10
 73
     6
 74
     0
 42
0.000000001
 43
0.00000001
 40
0.0
 40
0.0
 40
0.0
 40
0.0
 40
0.5
 40
0.5
 40
1.0
 40
1.0
 40
1.0
 40
1.0
 10
210.5625418177863
 20
118.9795108902183
 30
0.0
 10
211.278031509695
 20
118.8858603666414
 30
0.0
 10
212.0054975449452
 20
118.8163673065995
 30
0.0
 10
213.4663752212315
 20
118.7249839190836
 30
0.0
 10
214.2008589327715
 20
118.7028790524134
 30
0.0
 10
214.9393548136967
 20
118.7028790529141
 30
0.0
  0
ARC
  5
18C
330
1F
100
AcDbEntity
  8
0
  6
Continuous
 62
     8
370
    18
100
AcDbCircle
 10
213.1195416511
 20
119.2413959106
 30
0.0
 40
2.570375859026793
100
AcDbArc
 50
176.0549675038
 51
185.8478247465
  0
SPLINE
  5
18D
330
1F
100
AcDbEntity
  8
0
  6
Continuous
 62
     8
370
    18
100
AcDbSpline
210
0.0
220
0.0
230
1.0
 70
     8
 71
     3
 72
    28
 73
    24
 74
     0
 42
0.000000001
 43
0.00000001
 40
0.0
 40
0.0
 40
0.0
 40
0.0
 40
0.125
 40
0.125
 40
0.2499999999999999
 40
0.2499999999999999
 40
0.3125
 40
0.3125
 40
0.375
 40
0.375
 40
0.4375000000000001
 40
0.4375000000000001
 40
0.5000000000000001
 40
0.5000000000000001
 40
0.5625000000000001
 40
0.5625000000000001
 40
0.6250000000000001
 40
0.6250000000000001
 40
0.75
 40
0.75
 40
0.875
 40
0.875
 40
1.0
 40
1.0
 40
1.0
 40
1.0
 10
204.5570409754985
 20
126.7861967279426
 30
0.0
 10
204.4906279383089
 20
126.2911372871569
 30
0.0
 10
204.4278440308775
 20
125.7935209155367
 30
0.0
 10
204.3668191455262
 20
124.7991946114277
 30
0.0
 10
204.3670784349644
 20
124.3040569116539
 30
0.0
 10
204.440121984791
 20
123.5661231355401
 30
0.0
 10
204.4765587716149
 20
123.3209379545917
 30
0.0
 10
204.5801061671341
 20
122.8325559951879
 30
0.0
 10
204.6467941735875
 20
122.592570119323
 30
0.0
 10
204.8121263018952
 20
122.1319523558133
 30
0.0
 10
204.9110563818431
 20
121.9099168516543
 30
0.0
 10
205.1470752919546
 20
121.4847555464919
 30
0.0
 10
205.2823189031346
 20
121.2857207594326
 30
0.0
 10
205.5814936374231
 20
120.9210381630741
 30
0.0
 10
205.7461459906668
 20
120.7539607256892
 30
0.0
 10
206.1035060594234
 20
120.4469486956601
 30
0.0
 10
206.2934744422734
 20
120.3094494258002
 30
0.0
 10
206.8840742617223
 20
119.9399865886276
 30
0.0
 10
207.3105546263327
 20
119.746684441797
 30
0.0
 10
208.2025873847005
 20
119.4314948705719
 30
0.0
 10
208.6613043252069
 20
119.3118871259899
 30
0.0
 10
209.5982207815492
 20
119.1174205326605
 30
0.0
 10
210.0768414992692
 20
119.0430842577239
 30
0.0
 10
210.5625418177862
 20
118.9795108902188
 30
0.0
  0
ARC
  5
18E
330
1F
100
AcDbEntity
  8
0
  6
Continuous
 62
     8
370
    18
100
AcDbCircle
 10
204.9515112432
 20
127.8332651112
 30
0.0
 40
1.118909251704345
100
AcDbArc
 50
249.3566818889
 51
259.4526457321
  0
SPLINE
  5
18F
330
1F
100
AcDbEntity
  8
0
  6
Continuous
 62
     8
370
    18
100
AcDbSpline
210
0.0
220
0.0
230
1.0
 70
     8
 71
     3
 72
     8
 73
     4
 74
     0
 42
0.000000001
 43
0.00000001
 40
0.0
 40
0.0
 40
0.0
 40
0.0
 40
1.0
 40
1.0
 40
1.0
 40
1.0
 10
219.3199922562189
 20
118.8267188705696
 30
0.0
 10
217.8888948224418
 20
118.6383849091047
 30
0.0
 10
216.4169027896766
 20
118.5531470401173
 30
0.0
 10
214.9393548089845
 20
118.5531470882101
 30
0.0
  0
LINE
  5
190
330
1F
100
AcDbEntity
  8
0
  6
Continuous
 62
     8
370
    18
100
AcDbLine
 10
214.9393548137
 20
118.7028762201
 30
0.0
 11
214.939354809
 21
118.5531493525
 31
0.0
  0
ARC
  5
191
330
1F
100
AcDbEntity
  8
0
  6
Continuous
 62
     8
370
    18
100
AcDbCircle
 10
219.9601748639
 20
118.9191846707
 30
0.0
 40
0.6468258353395002
100
AcDbArc
 50
174.64871459
 51
188.2186888255
  0
SPLINE
  5
192
330
1F
100
AcDbEntity
  8
0
  6
Continuous
 62
     8
370
    18
100
AcDbSpline
210
0.0
220
0.0
230
1.0
 70
     8
 71
     3
 72
     8
 73
     4
 74
     0
 42
0.000000001
 43
0.00000001
 40
0.0
 40
0.0
 40
0.0
 40
0.0
 40
1.0
 40
1.0
 40
1.0
 40
1.0
 10
214.939354808984
 20
118.5531470882194
 30
0.0
 10
213.4618217835538
 20
118.553147136288
 30
0.0
 10
211.9897963149038
 20
118.6383875078319
 30
0.0
 10
210.5587175195074
 20
118.8267188543991
 30
0.0
  0
ARC
  5
193
330
1F
100
AcDbEntity
  8
0
  6
Continuous
 62
     8
370
    18
100
AcDbCircle
 10
209.9184918276
 20
118.9191877094
 30
0.0
 40
0.6468688141474838
100
AcDbArc
 50
351.7815890639
 51
5.350658494
  0
SPLINE
  5
194
330
1F
100
AcDbEntity
  8
0
  6
Continuous
 62
     8
370
    18
100
AcDbSpline
210
0.0
220
0.0
230
1.0
 70
     8
 71
     3
 72
    28
 73
    24
 74
     0
 42
0.000000001
 43
0.00000001
 40
0.0
 40
0.0
 40
0.0
 40
0.0
 40
0.1250000000000001
 40
0.1250000000000001
 40
0.2500000000000003
 40
0.2500000000000003
 40
0.3125000000000003
 40
0.3125000000000003
 40
0.3750000000000004
 40
0.3750000000000004
 40
0.4375000000000005
 40
0.4375000000000005
 40
0.5000000000000006
 40
0.5000000000000006
 40
0.5625000000000007
 40
0.5625000000000007
 40
0.6250000000000007
 40
0.6250000000000007
 40
0.7500000000000004
 40
0.7500000000000004
 40
0.8750000000000003
 40
0.8750000000000003
 40
1.0
 40
1.0
 40
1.0
 40
1.0
 10
225.4120030321593
 20
126.8163678083374
 30
0.0
 10
225.4790927898079
 20
126.3120552623816
 30
0.0
 10
225.5423579626805
 20
125.8073976201459
 30
0.0
 10
225.603397743491
 20
124.7918028107025
 30
0.0
 10
225.6021730722696
 20
124.2764235783997
 30
0.0
 10
225.5256653572746
 20
123.5209463648977
 30
0.0
 10
225.487927468165
 20
123.2717074161919
 30
0.0
 10
225.3829830145635
 20
122.77938426778
 30
0.0
 10
225.3150013668965
 20
122.5342298861308
 30
0.0
 10
225.14655595541
 20
122.0633992544515
 30
0.0
 10
225.0465125680438
 20
121.8379934117025
 30
0.0
 10
224.8110822080586
 20
121.408954596547
 30
0.0
 10
224.6740488622528
 20
121.2034929005639
 30
0.0
 10
224.3708685638787
 20
120.8272972650974
 30
0.0
 10
224.2050435774891
 20
120.6559918688674
 30
0.0
 10
223.8476620989046
 20
120.3421920726123
 30
0.0
 10
223.6546500817485
 20
120.1988873545797
 30
0.0
 10
223.0549786720444
 20
119.8149913457958
 30
0.0
 10
222.6265363477083
 20
119.6166548994272
 30
0.0
 10
221.7266874345286
 20
119.2919693741019
 30
0.0
 10
221.2558230217622
 20
119.1669628169258
 30
0.0
 10
220.3012399247098
 20
118.9667233265461
 30
0.0
 10
219.8141793358817
 20
118.8917544217646
 30
0.0
 10
219.3199922562189
 20
118.8267188705695
 30
0.0
  0
SPLINE
  5
195
330
1F
100
AcDbEntity
  8
0
  6
Continuous
 62
     8
370
    18
100
AcDbSpline
210
0.0
220
0.0
230
1.0
 70
     8
 71
     3
 72
     8
 73
     4
 74
     0
 42
0.000000001
 43
0.00000001
 40
0.0
 40
0.0
 40
0.0
 40
0.0
 40
1.0
 40
1.0
 40
1.0
 40
1.0
 10
225.3204951118222
 20
126.7948712437046
 30
0.0
 10
225.3311756546146
 20
126.8001058413077
 30
0.0
 10
225.365202751918
 20
126.8080989538278
 30
0.0
 10
225.4119879883175
 20
126.8163651522133
 30
0.0
  0
SPLINE
  5
196
330
1F
100
AcDbEntity
  8
0
  6
Continuous
 62
     8
370
    18
100
AcDbSpline
210
0.0
220
0.0
230
1.0
 70
     8
 71
     3
 72
    26
 73
    22
 74
     0
 42
0.000000001
 43
0.00000001
 40
0.0
 40
0.0
 40
0.0
 40
0.0
 40
0.2500000000000018
 40
0.2500000000000018
 40
0.3750000000000026
 40
0.3750000000000026
 40
0.4375000000000031
 40
0.4375000000000031
 40
0.5000000000000034
 40
0.5000000000000034
 40
0.5625000000000039
 40
0.5625000000000039
 40
0.6250000000000043
 40
0.6250000000000043
 40
0.6875000000000048
 40
0.6875000000000048
 40
0.7500000000000052
 40
0.7500000000000052
 40
0.8750000000000027
 40
0.8750000000000027
 40
1.0
 40
1.0
 40
1.0
 40
1.0
 10
210.5587175195076
 20
118.8267188543991
 30
0.0
 10
209.5702895215045
 20
118.9567969300751
 30
0.0
 10
208.6121295688571
 20
119.1264420977182
 30
0.0
 10
207.2525283967345
 20
119.6162839878806
 30
0.0
 10
206.8222839674583
 20
119.8159207917975
 30
0.0
 10
206.2248111309257
 20
120.1984061091361
 30
0.0
 10
206.0322288444993
 20
120.3411590352966
 30
0.0
 10
205.6725462549863
 20
120.6569735991438
 30
0.0
 10
205.5067432091705
 20
120.8286199165197
 30
0.0
 10
205.2052121024503
 20
121.2028517880298
 30
0.0
 10
205.0684784015337
 20
121.4073589555535
 30
0.0
 10
204.8309664246513
 20
121.8402850657801
 30
0.0
 10
204.7310179552837
 20
122.066286746794
 30
0.0
 10
204.5634874178457
 20
122.5351419450782
 30
0.0
 10
204.4955640675885
 20
122.7797167373504
 30
0.0
 10
204.3900084097018
 20
123.2757791891416
 30
0.0
 10
204.3525337521307
 20
123.525110956822
 30
0.0
 10
204.2767342034189
 20
124.2762605713718
 30
0.0
 10
204.2751202737959
 20
124.7812454509394
 30
0.0
 10
204.3352756975519
 20
125.7967012919506
 30
0.0
 10
204.3984525955488
 20
126.3032865717192
 30
0.0
 10
204.4655525819839
 20
126.8076925912895
 30
0.0
  0
ARC
  5
197
330
1F
100
AcDbEntity
  8
0
  6
Continuous
 62
     8
370
    18
100
AcDbCircle
 10
204.396284942
 20
126.307423626
 30
0.0
 40
0.505041277455911
100
AcDbArc
 50
71.439727689
 51
82.1169460006
  0
LINE
  5
198
330
1F
100
AcDbEntity
  8
0
  6
Continuous
 62
     8
370
    18
100
AcDbLine
 10
234.9436794537
 20
166.3022663693
 30
0.0
 11
194.9350302237
 21
166.3022663693
 31
0.0
  0
SPLINE
  5
199
330
1F
100
AcDbEntity
  8
0
  6
Continuous
 62
     8
370
    18
100
AcDbSpline
210
0.0
220
0.0
230
1.0
 70
     8
 71
     3
 72
    14
 73
    10
 74
     0
 42
0.000000001
 43
0.00000001
 40
0.0
 40
0.0
 40
0.0
 40
0.0
 40
0.25
 40
0.25
 40
0.5
 40
0.5
 40
0.75
 40
0.75
 40
1.0
 40
1.0
 40
1.0
 40
1.0
 10
220.5125753285845
 20
151.7024367226313
 30
0.0
 10
221.0848279367277
 20
149.664621353391
 30
0.0
 10
221.5917638401175
 20
147.609743588441
 30
0.0
 10
222.5294585810337
 20
143.4854803874172
 30
0.0
 10
222.9586145198593
 20
141.4145081507807
 30
0.0
 10
223.7593327871747
 20
137.2611729227192
 30
0.0
 10
224.1307692484119
 20
135.179603070349
 30
0.0
 10
224.8174524223773
 20
131.0061843033169
 30
0.0
 10
225.1331128551193
 20
128.914270335639
 30
0.0
 10
225.4119835746932
 20
126.8163983547782
 30
0.0
  0
SPLINE
  5
19A
330
1F
100
AcDbEntity
  8
0
  6
Continuous
 62
     8
370
    18
100
AcDbSpline
210
0.0
220
0.0
230
1.0
 70
     8
 71
     3
 72
    18
 73
    14
 74
     0
 42
0.000000001
 43
0.00000001
 40
0.0
 40
0.0
 40
0.0
 40
0.0
 40
0.250000000000002
 40
0.250000000000002
 40
0.3750000000000024
 40
0.3750000000000024
 40
0.5000000000000026
 40
0.5000000000000026
 40
0.6250000000000028
 40
0.6250000000000028
 40
0.750000000000003
 40
0.750000000000003
 40
1.0
 40
1.0
 40
1.0
 40
1.0
 10
217.1391640284283
 20
154.6381459770344
 30
0.0
 10
217.5433577713079
 20
154.5828492586432
 30
0.0
 10
217.9431169994006
 20
154.5156136114989
 30
0.0
 10
218.5221361614969
 20
154.3323917984698
 30
0.0
 10
218.7120854621402
 20
154.2567956098447
 30
0.0
 10
219.0680852043382
 20
154.0697835972994
 30
0.0
 10
219.2365810490936
 20
153.9569851290169
 30
0.0
 10
219.5435837926007
 20
153.6897428692614
 30
0.0
 10
219.6778640003228
 20
153.539496764385
 30
0.0
 10
219.9152019831384
 20
153.2117131744413
 30
0.0
 10
220.0186088199657
 20
153.033154302087
 30
0.0
 10
220.2838121995394
 20
152.4849493684216
 30
0.0
 10
220.4021256635905
 20
152.095332832807
 30
0.0
 10
220.5125638049649
 20
151.7024777368383
 30
0.0
  0
SPLINE
  5
19B
330
1F
100
AcDbEntity
  8
0
  6
Continuous
 62
     8
370
    18
100
AcDbSpline
210
0.0
220
0.0
230
1.0
 70
     8
 71
     3
 72
     8
 73
     4
 74
     0
 42
0.000000001
 43
0.00000001
 40
0.0
 40
0.0
 40
0.0
 40
0.0
 40
1.0
 40
1.0
 40
1.0
 40
1.0
 10
214.9393546914528
 20
154.7848159508698
 30
0.0
 10
215.6780452367164
 20
154.7848160840802
 30
0.0
 10
216.4114128926249
 20
154.7377077597678
 30
0.0
 10
217.139164028427
 20
154.6381459770338
 30
0.0
  0
SPLINE
  5
19C
330
1F
100
AcDbEntity
  8
0
  6
Continuous
 62
     8
370
    18
100
AcDbSpline
210
0.0
220
0.0
230
1.0
 70
     8
 71
     3
 72
     8
 73
     4
 74
     0
 42
0.000000001
 43
0.00000001
 40
0.0
 40
0.0
 40
0.0
 40
0.0
 40
1.0
 40
1.0
 40
1.0
 40
1.0
 10
212.7395464505304
 20
154.6381459725519
 30
0.0
 10
213.467297271701
 20
154.7377069999044
 30
0.0
 10
214.2006645300562
 20
154.7848158176602
 30
0.0
 10
214.9393546914503
 20
154.7848159508698
 30
0.0
  0
SPLINE
  5
19D
330
1F
100
AcDbEntity
  8
0
  6
Continuous
 62
     8
370
    18
100
AcDbSpline
210
0.0
220
0.0
230
1.0
 70
     8
 71
     3
 72
    18
 73
    14
 74
     0
 42
0.000000001
 43
0.00000001
 40
0.0
 40
0.0
 40
0.0
 40
0.0
 40
0.2499999999999973
 40
0.2499999999999973
 40
0.3749999999999977
 40
0.3749999999999977
 40
0.499999999999998
 40
0.499999999999998
 40
0.6249999999999983
 40
0.6249999999999983
 40
0.7499999999999989
 40
0.7499999999999989
 40
1.0
 40
1.0
 40
1.0
 40
1.0
 10
209.3661458332545
 20
151.7024775916066
 30
0.0
 10
209.4767420040753
 20
152.0958960002575
 30
0.0
 10
209.595208327781
 20
152.4861654157228
 30
0.0
 10
209.8615911334323
 20
153.0359492315688
 30
0.0
 10
209.9650186976723
 20
153.2141056994126
 30
0.0
 10
210.2024385385766
 20
153.5413892219895
 30
0.0
 10
210.3380247125433
 20
153.6927220385576
 30
0.0
 10
210.6456234610465
 20
153.9595623435023
 30
0.0
 10
210.8126977402206
 20
154.071079267932
 30
0.0
 10
211.1692404627951
 20
154.2579577439274
 30
0.0
 10
211.3596738289334
 20
154.3335002487549
 30
0.0
 10
211.9369271938677
 20
154.5157706011979
 30
0.0
 10
212.3359467632096
 20
154.5829309204508
 30
0.0
 10
212.7395464505296
 20
154.6381459725538
 30
0.0
  0
SPLINE
  5
19E
330
1F
100
AcDbEntity
  8
0
  6
Continuous
 62
     8
370
    18
100
AcDbSpline
210
0.0
220
0.0
230
1.0
 70
     8
 71
     3
 72
    14
 73
    10
 74
     0
 42
0.000000001
 43
0.00000001
 40
0.0
 40
0.0
 40
0.0
 40
0.0
 40
0.25
 40
0.25
 40
0.5
 40
0.5
 40
0.75
 40
0.75
 40
1.0
 40
1.0
 40
1.0
 40
1.0
 10
204.4731624184905
 20
126.8647703687752
 30
0.0
 10
204.7520232718992
 20
128.9585274847107
 30
0.0
 10
205.0675150508435
 20
131.0462450728899
 30
0.0
 10
205.7535036871385
 20
135.2113181321722
 30
0.0
 10
206.1245408600464
 20
137.2891552897179
 30
0.0
 10
206.9241524138752
 20
141.4343452595324
 30
0.0
 10
207.3525964027419
 20
143.5009134886654
 30
0.0
 10
208.2888901144693
 20
147.6175908088782
 30
0.0
 10
208.7950023579552
 20
149.6685865405946
 30
0.0
 10
209.3661349422707
 20
151.7024360706307
 30
0.0
  0
SPLINE
  5
19F
330
1F
100
AcDbEntity
  8
0
  6
Continuous
 62
     8
370
    18
100
AcDbSpline
210
0.0
220
0.0
230
1.0
 70
     8
 71
     3
 72
     8
 73
     4
 74
     0
 42
0.000000001
 43
0.00000001
 40
0.0
 40
0.0
 40
0.0
 40
0.0
 40
0.000057756153491
 40
0.000057756153491
 40
0.000057756153491
 40
0.000057756153491
 10
204.4655525819837
 20
126.8076925912882
 30
0.0
 10
204.4680852394726
 20
126.8267311597121
 30
0.0
 10
204.4706210920048
 20
126.8457692181645
 30
0.0
 10
204.4731599131293
 20
126.8648068049043
 30
0.0
  0
LINE
  5
1A0
330
1F
100
AcDbEntity
  8
0
  6
Continuous
 62
     8
370
    18
100
AcDbLine
 10
194.4881164598
 20
115.0911476711
 30
0.0
 11
235.3905932176
 21
115.0911476711
 31
0.0
  0
SPLINE
  5
1A1
330
1F
100
AcDbEntity
  8
0
  6
Continuous
 62
     8
370
    18
100
AcDbSpline
210
0.0
220
0.0
230
1.0
 70
     8
 71
     3
 72
    20
 73
    16
 74
     0
 42
0.000000001
 43
0.00000001
 40
0.0
 40
0.0
 40
0.0
 40
0.0
 40
0.1249999999999994
 40
0.1249999999999994
 40
0.2499999999999988
 40
0.2499999999999988
 40
0.3749999999999982
 40
0.3749999999999982
 40
0.4999999999999977
 40
0.4999999999999977
 40
0.6249999999999971
 40
0.6249999999999971
 40
0.7499999999999964
 40
0.7499999999999964
 40
1.0
 40
1.0
 40
1.0
 40
1.0
 10
212.8120800532531
 20
154.0012128800491
 30
0.0
 10
212.6369524277699
 20
153.9799477485041
 30
0.0
 10
212.4625947174194
 20
153.9536216302324
 30
0.0
 10
212.1161533978258
 20
153.8937213519316
 30
0.0
 10
211.9444526139433
 20
153.8581953339022
 30
0.0
 10
211.605704359572
 20
153.7664511460702
 30
0.0
 10
211.4386406464276
 20
153.7097752859219
 30
0.0
 10
211.1225240474484
 20
153.5637147320297
 30
0.0
 10
210.9704586439783
 20
153.4721143819395
 30
0.0
 10
210.6986817192501
 20
153.2527708265177
 30
0.0
 10
210.5807125685185
 20
153.1259428697548
 30
0.0
 10
210.3715672718937
 20
152.8465912246022
 30
0.0
 10
210.2803808425428
 20
152.6936895469026
 30
0.0
 10
210.044951584228
 20
152.2233326925005
 30
0.0
 10
209.9360129832854
 20
151.8863167396386
 30
0.0
 10
209.8355753269127
 20
151.5484112032833
 30
0.0
  0
SPLINE
  5
1A2
330
1F
100
AcDbEntity
  8
0
  6
Continuous
 62
     8
370
    18
100
AcDbSpline
210
0.0
220
0.0
230
1.0
 70
     8
 71
     3
 72
    10
 73
     6
 74
     0
 42
0.000000001
 43
0.00000001
 40
0.0
 40
0.0
 40
0.0
 40
0.0
 40
0.4999999999999999
 40
0.4999999999999999
 40
1.0
 40
1.0
 40
1.0
 40
1.0
 10
214.9393544078011
 20
154.1319825688895
 30
0.0
 10
214.5834959558158
 20
154.1319822591577
 30
0.0
 10
214.2275596760121
 20
154.1209742634524
 30
0.0
 10
213.5174972917435
 20
154.0772276226921
 30
0.0
 10
213.1641350759057
 20
154.0439616830839
 30
0.0
 10
212.8120800532472
 20
154.0012128800484
 30
0.0
  0
SPLINE
  5
1A3
330
1F
100
AcDbEntity
  8
0
  6
Continuous
 62
     8
370
    18
100
AcDbSpline
210
0.0
220
0.0
230
1.0
 70
     8
 71
     3
 72
    10
 73
     6
 74
     0
 42
0.000000001
 43
0.00000001
 40
0.0
 40
0.0
 40
0.0
 40
0.0
 40
0.5
 40
0.5
 40
1.0
 40
1.0
 40
1.0
 40
1.0
 10
217.0666353112311
 20
154.0012140074052
 30
0.0
 10
216.714579139196
 20
154.0439607064091
 30
0.0
 10
216.3612192418559
 20
154.0773160728947
 30
0.0
 10
215.6511534613206
 20
154.1210602422886
 30
0.0
 10
215.2951315758546
 20
154.1319826783802
 30
0.0
 10
214.9393544078011
 20
154.1319825688896
 30
0.0
  0
SPLINE
  5
1A4
330
1F
100
AcDbEntity
  8
0
  6
Continuous
 62
     8
370
    18
100
AcDbSpline
210
0.0
220
0.0
230
1.0
 70
     8
 71
     3
 72
    20
 73
    16
 74
     0
 42
0.000000001
 43
0.00000001
 40
0.0
 40
0.0
 40
0.0
 40
0.0
 40
0.2500000000000031
 40
0.2500000000000031
 40
0.3750000000000025
 40
0.3750000000000025
 40
0.500000000000002
 40
0.500000000000002
 40
0.6250000000000014
 40
0.6250000000000014
 40
0.7500000000000009
 40
0.7500000000000009
 40
0.8750000000000004
 40
0.8750000000000004
 40
1.0
 40
1.0
 40
1.0
 40
1.0
 10
220.0431342732246
 20
151.548411177919
 30
0.0
 10
219.942620176512
 20
151.8865580012943
 30
0.0
 10
219.8330506181119
 20
152.2248124763153
 30
0.0
 10
219.5983943100024
 20
152.6935040610962
 30
0.0
 10
219.5092160658782
 20
152.8435613479116
 30
0.0
 10
219.2985264915673
 20
153.1254936223819
 30
0.0
 10
219.1782768397129
 20
153.2545129996351
 30
0.0
 10
218.9056082179249
 20
153.4739180294943
 30
0.0
 10
218.7524857843008
 20
153.5658057923441
 30
0.0
 10
218.4348945296485
 20
153.7117872836544
 30
0.0
 10
218.2703717223539
 20
153.7672333024856
 30
0.0
 10
217.9342561161217
 20
153.858140899716
 30
0.0
 10
217.7623221700693
 20
153.893760632088
 30
0.0
 10
217.4156999683046
 20
153.9536801401518
 30
0.0
 10
217.2414676383862
 20
153.9799858470795
 30
0.0
 10
217.0666353112395
 20
154.0012140074059
 30
0.0
  0
ARC
  5
1A5
330
1F
100
AcDbEntity
  8
0
  6
Continuous
 62
     8
370
    18
100
AcDbCircle
 10
208.7987017792
 20
155.2511660495
 30
0.0
 40
8.361884267091627
100
AcDbArc
 50
351.4030748248
 51
354.8683655744
  0
SPLINE
  5
1A6
330
1F
100
AcDbEntity
  8
0
  6
Continuous
 62
     8
370
    18
100
AcDbSpline
210
0.0
220
0.0
230
1.0
 70
     8
 71
     3
 72
    18
 73
    14
 74
     0
 42
0.000000001
 43
0.00000001
 40
0.0
 40
0.0
 40
0.0
 40
0.0
 40
0.2499999999999999
 40
0.2499999999999999
 40
0.3749999999999998
 40
0.3749999999999998
 40
0.4999999999999998
 40
0.4999999999999998
 40
0.6249999999999998
 40
0.6249999999999998
 40
0.7499999999999997
 40
0.7499999999999997
 40
1.0
 40
1.0
 40
1.0
 40
1.0
 10
220.3949829365823
 20
151.6617439353145
 30
0.0
 10
220.2873814471255
 20
152.0434685053849
 30
0.0
 10
220.1728962542521
 20
152.4226097477642
 30
0.0
 10
219.914478554789
 20
152.9585196121503
 30
0.0
 10
219.8155271182096
 20
153.1296614200985
 30
0.0
 10
219.5857559406236
 20
153.4468770010851
 30
0.0
 10
219.4520641994561
 20
153.5953102701391
 30
0.0
 10
219.1552758555831
 20
153.8500773575573
 30
0.0
 10
218.9931540094351
 20
153.9567822830916
 30
0.0
 10
218.6455591813856
 20
154.1357619440775
 30
0.0
 10
218.4610090701286
 20
154.2074305823314
 30
0.0
 10
217.9029134497102
 20
154.3812973688435
 30
0.0
 10
217.5172453209914
 20
154.4486914458623
 30
0.0
 10
217.1270702152334
 20
154.5032441333956
 30
0.0
  0
SPLINE
  5
1A7
330
1F
100
AcDbEntity
  8
0
  6
Continuous
 62
     8
370
    18
100
AcDbSpline
210
0.0
220
0.0
230
1.0
 70
     8
 71
     3
 72
     8
 73
     4
 74
     0
 42
0.000000001
 43
0.00000001
 40
0.0
 40
0.0
 40
0.0
 40
0.0
 40
1.0
 40
1.0
 40
1.0
 40
1.0
 10
220.0431605317374
 20
151.5484194875225
 30
0.0
 10
220.1930849952874
 20
151.5932246799528
 30
0.0
 10
220.3162858326712
 20
151.6329463080947
 30
0.0
 10
220.3949833536403
 20
151.6617440879286
 30
0.0
  0
SPLINE
  5
1A8
330
1F
100
AcDbEntity
  8
0
  6
Continuous
 62
     8
370
    18
100
AcDbSpline
210
0.0
220
0.0
230
1.0
 70
     8
 71
     3
 72
     8
 73
     4
 74
     0
 42
0.000000001
 43
0.00000001
 40
0.0
 40
0.0
 40
0.0
 40
0.0
 40
1.0
 40
1.0
 40
1.0
 40
1.0
 10
209.8355488862468
 20
151.5484195707616
 30
0.0
 10
209.685624224276
 20
151.5932246421175
 30
0.0
 10
209.5624233339618
 20
151.6329463694497
 30
0.0
 10
209.4837258896429
 20
151.6617442125479
 30
0.0
  0
SPLINE
  5
1A9
330
1F
100
AcDbEntity
  8
0
  6
Continuous
 62
     8
370
    18
100
AcDbSpline
210
0.0
220
0.0
230
1.0
 70
     8
 71
     3
 72
    18
 73
    14
 74
     0
 42
0.000000001
 43
0.00000001
 40
0.0
 40
0.0
 40
0.0
 40
0.0
 40
0.2500000000000012
 40
0.2500000000000012
 40
0.3750000000000012
 40
0.3750000000000012
 40
0.5000000000000009
 40
0.5000000000000009
 40
0.6250000000000006
 40
0.6250000000000006
 40
0.7500000000000003
 40
0.7500000000000003
 40
1.0
 40
1.0
 40
1.0
 40
1.0
 10
212.7516401347897
 20
154.503244242301
 30
0.0
 10
212.3600492865247
 20
154.4484934990028
 30
0.0
 10
211.9724870607822
 20
154.3809184862467
 30
0.0
 10
211.4096054153094
 20
154.2045742990344
 30
0.0
 10
211.226473953557
 20
154.1328185680031
 30
0.0
 10
210.8808160689346
 20
153.9538307626405
 30
0.0
 10
210.7153716067861
 20
153.8442426569285
 30
0.0
 10
210.4193127464478
 20
153.5878718843988
 30
0.0
 10
210.289538406447
 20
153.4428127012652
 30
0.0
 10
210.0600273788101
 20
153.1246360939032
 30
0.0
 10
209.9606173605362
 20
152.9516594210855
 30
0.0
 10
209.7056523165145
 20
152.4209810881153
 30
0.0
 10
209.5910663138235
 20
152.0425396374025
 30
0.0
 10
209.4837267314465
 20
151.6617439045066
 30
0.0
  0
ARC
  5
1AA
330
1F
100
AcDbEntity
  8
0
  6
Continuous
 62
     8
370
    18
100
AcDbCircle
 10
221.0807627556
 20
155.2513373671
 30
0.0
 40
8.362650727115238
100
AcDbArc
 50
185.1323413231
 51
188.5973183782
  0
LINE
  5
1AB
330
1F
100
AcDbEntity
  8
0
  6
Continuous
 62
     8
370
    18
100
AcDbLine
 10
234.4971866476
 20
114.0881132583
 30
0.0
 11
195.3815230298
 21
114.0881132583
 31
0.0
  0
LWPOLYLINE
  5
1AC
330
1F
100
AcDbEntity
  8
0
  6
Continuous
 62
     8
370
    18
100
AcDbPolyline
 90
        9
 70
   128
 43
0.0
 10
214.9393547148
 20
154.6525310973
 10
214.9393545914
 20
154.5965884129
 10
214.9393544694
 20
154.5373711983
 10
214.9393543494
 20
154.475192378
 10
214.9393542319
 20
154.4103909532
 10
214.9393541177
 20
154.3433059255
 10
214.9393540073
 20
154.2742949227
 10
214.9393539014
 20
154.2037267486
 10
214.9393538005
 20
154.1319813828
  0
SPLINE
  5
1AD
330
1F
100
AcDbEntity
  8
0
  6
Continuous
 62
     8
370
    18
100
AcDbSpline
210
0.0
220
0.0
230
1.0
 70
     8
 71
     3
 72
     8
 73
     4
 74
     0
 42
0.000000001
 43
0.00000001
 40
0.0
 40
0.0
 40
0.0
 40
0.0
 40
1.0
 40
1.0
 40
1.0
 40
1.0
 10
217.1270702152336
 20
154.5032441333962
 30
0.0
 10
216.4046540876682
 20
154.6042494017747
 30
0.0
 10
215.6726888341648
 20
154.6525328881113
 30
0.0
 10
214.9393547147777
 20
154.6525329101067
 30
0.0
  0
SPLINE
  5
1AE
330
1F
100
AcDbEntity
  8
0
  6
Continuous
 62
     8
370
    18
100
AcDbSpline
210
0.0
220
0.0
230
1.0
 70
     8
 71
     3
 72
     8
 73
     4
 74
     0
 42
0.000000001
 43
0.00000001
 40
0.0
 40
0.0
 40
0.0
 40
0.0
 40
1.0
 40
1.0
 40
1.0
 40
1.0
 10
214.9393547147777
 20
154.6525329101069
 30
0.0
 10
214.2060334292634
 20
154.6525329321056
 30
0.0
 10
213.4740436837424
 20
154.6042479594252
 30
0.0
 10
212.7516401347897
 20
154.503244242301
 30
0.0
  0
ARC
  5
1AF
330
1F
100
AcDbEntity
  8
0
  6
Continuous
 62
     8
370
    18
100
AcDbCircle
 10
209.0185607773
 20
150.5077472789
 30
0.0
 40
1.244242185206596
100
AcDbArc
 50
68.046166911
 51
73.7785387134
  0
SPLINE
  5
1B0
330
1F
100
AcDbEntity
  8
0
  6
Continuous
 62
     8
370
    18
100
AcDbSpline
210
0.0
220
0.0
230
1.0
 70
     8
 71
     3
 72
    14
 73
    10
 74
     0
 42
0.000000001
 43
0.00000001
 40
0.0
 40
0.0
 40
0.0
 40
0.0
 40
0.25
 40
0.25
 40
0.5
 40
0.5
 40
0.75
 40
0.75
 40
1.0
 40
1.0
 40
1.0
 40
1.0
 10
209.4837258896431
 20
151.6617442125485
 30
0.0
 10
208.9107836462202
 20
149.6286138319741
 30
0.0
 10
208.4044019280146
 20
147.5779749768637
 30
0.0
 10
207.4641706751496
 20
143.4612221919148
 30
0.0
 10
207.0330491452343
 20
141.3963433631743
 30
0.0
 10
206.2283931701358
 20
137.2565831745033
 30
0.0
 10
205.854890344072
 20
135.1816798384088
 30
0.0
 10
205.1639084052878
 20
131.0213946222376
 30
0.0
 10
204.8459499795546
 20
128.9361430919492
 30
0.0
 10
204.5647090818116
 20
126.8432497478494
 30
0.0
  0
SPLINE
  5
1B1
330
1F
100
AcDbEntity
  8
0
  6
Continuous
 62
     8
370
    18
100
AcDbSpline
210
0.0
220
0.0
230
1.0
 70
     8
 71
     3
 72
     8
 73
     4
 74
     0
 42
0.000000001
 43
0.00000001
 40
0.0
 40
0.0
 40
0.0
 40
0.0
 40
1.0
 40
1.0
 40
1.0
 40
1.0
 10
204.564702476918
 20
126.8432353852753
 30
0.0
 10
204.554017609212
 20
126.8484813800705
 30
0.0
 10
204.5199682626816
 20
126.8564969218641
 30
0.0
 10
204.4731571429382
 20
126.8647860323594
 30
0.0
  0
SPLINE
  5
1B2
330
1F
100
AcDbEntity
  8
0
  6
Continuous
 62
     8
370
    18
100
AcDbSpline
210
0.0
220
0.0
230
1.0
 70
     8
 71
     3
 72
     8
 73
     4
 74
     0
 42
0.000000001
 43
0.00000001
 40
0.0
 40
0.0
 40
0.0
 40
0.0
 40
1.0
 40
1.0
 40
1.0
 40
1.0
 10
204.5647105558827
 20
126.8432490422462
 30
0.0
 10
204.5947054007958
 20
126.8288914192122
 30
0.0
 10
204.6602385557292
 20
126.8102890980818
 30
0.0
 10
204.7544635403155
 20
126.7893855291061
 30
0.0
  0
ARC
  5
1B3
330
1F
100
AcDbEntity
  8
0
  6
Continuous
 62
     8
370
    18
100
AcDbCircle
 10
220.8604562336
 20
150.5068619821
 30
0.0
 40
1.245158646393247
100
AcDbArc
 50
106.2236528697
 51
111.9517817405
  0
ARC
  5
1B4
330
1F
100
AcDbEntity
  8
0
  6
Continuous
 62
     8
370
    18
100
AcDbCircle
 10
218.5225955973
 20
154.4461312659
 30
0.0
 40
1.396693571251676
100
AcDbArc
 50
172.0979883716
 51
177.6564504566
  0
SPLINE
  5
1B5
330
1F
100
AcDbEntity
  8
0
  6
Continuous
 62
     8
370
    18
100
AcDbSpline
210
0.0
220
0.0
230
1.0
 70
     8
 71
     3
 72
    14
 73
    10
 74
     0
 42
0.000000001
 43
0.00000001
 40
0.0
 40
0.0
 40
0.0
 40
0.0
 40
0.25
 40
0.25
 40
0.5
 40
0.5
 40
0.75
 40
0.75
 40
1.0
 40
1.0
 40
1.0
 40
1.0
 10
225.320488365269
 20
126.7949215503258
 30
0.0
 10
225.0393254713755
 20
128.8914499455676
 30
0.0
 10
224.7210146595039
 20
130.9820212359193
 30
0.0
 10
224.0289652349753
 20
135.152648959116
 30
0.0
 10
223.6548765597644
 20
137.2320811586816
 30
0.0
 10
222.8491120273176
 20
141.3796160601326
 30
0.0
 10
222.4174669398182
 20
143.4477402106031
 30
0.0
 10
221.4764417716388
 20
147.5692809267195
 30
0.0
 10
220.9690961007275
 20
149.6244651658704
 30
0.0
 10
220.3949830899942
 20
151.6617440573625
 30
0.0
  0
LINE
  5
1B6
330
1F
100
AcDbEntity
  8
0
  6
Continuous
 62
     8
370
    18
100
AcDbLine
 10
214.9393547148
 20
154.6525310973
 30
0.0
 11
214.9393546915
 21
154.7848161558
 31
0.0
  0
ARC
  5
1B7
330
1F
100
AcDbEntity
  8
0
  6
Continuous
 62
     8
370
    18
100
AcDbCircle
 10
211.3560931342
 20
154.4461317132
 30
0.0
 40
1.396715179216462
100
AcDbArc
 50
2.3434949019
 51
7.9018700731
  0
LINE
  5
1B8
330
1F
100
AcDbEntity
  8
0
  6
Continuous
 62
     8
370
    18
100
AcDbLine
 10
194.9393552857
 20
168.2979025195
 30
0.0
 11
234.9393543917
 21
168.2979025195
 31
0.0
  0
LINE
  5
1B9
330
1F
100
AcDbEntity
  8
0
  6
Continuous
 62
     8
370
    18
100
AcDbLine
 10
233.9497366118
 20
114.0396993856
 30
0.0
 11
195.9289730656
 21
114.0396993856
 31
0.0
  0
SPLINE
  5
1BA
330
1F
100
AcDbEntity
  8
0
  6
Continuous
 62
     8
370
    18
100
AcDbSpline
210
0.0
220
0.0
230
1.0
 70
     8
 71
     3
 72
     8
 73
     4
 74
     0
 42
0.000000001
 43
0.00000001
 40
0.0
 40
0.0
 40
0.0
 40
0.0
 40
0.0000577096167922
 40
0.0000577096167922
 40
0.0000577096167922
 40
0.0000577096167922
 10
204.564705268125
 20
126.8432561395745
 30
0.0
 10
204.5621473977469
 20
126.824236845819
 30
0.0
 10
204.5595925819905
 20
126.8052170428774
 30
0.0
 10
204.5570409754985
 20
126.7861967279426
 30
0.0
  0
ARC
  5
1BB
330
1F
100
AcDbEntity
  8
0
  6
Continuous
 62
     7
370
    25
100
AcDbCircle
 10
472.1701574679
 20
360.2761147884
 30
0.0
 40
1.000000000000022
100
AcDbArc
 50
6.1168276045
 51
90.5
  0
ARC
  5
1BC
330
1F
100
AcDbEntity
  8
0
  6
Continuous
 62
     7
370
    25
100
AcDbCircle
 10
472.1701574679
 20
321.3735626309
 30
0.0
 40
1.000000000000007
100
AcDbArc
 50
269.5
 51
353.8831723955
  0
LINE
  5
1BD
330
1F
100
AcDbEntity
  8
0
  6
Continuous
 62
     7
370
    25
100
AcDbLine
 10
432.4677644893
 20
360.9296753822
 30
0.0
 11
420.9503142759
 21
360.8291633247
 31
0.0
  0
LINE
  5
1BE
330
1F
100
AcDbEntity
  8
0
  6
Continuous
 62
     7
370
    25
100
AcDbLine
 10
472.161432974
 20
361.2760770886
 30
0.0
 11
468.6994312927
 21
361.2458649842
 31
0.0
  0
LINE
  5
1BF
330
1F
100
AcDbEntity
  8
0
  6
Continuous
 62
     7
370
    25
100
AcDbLine
 10
420.9503142759
 20
320.8205140947
 30
0.0
 11
472.161432974
 21
320.3736003308
 31
0.0
  0
ARC
  5
1C0
330
1F
100
AcDbEntity
  8
0
  6
Continuous
 62
     7
370
    25
100
AcDbCircle
 10
420.9546774194
 20
360.3291831044
 30
0.0
 40
0.5000000000000315
100
AcDbArc
 50
90.5
 51
180.0
  0
ARC
  5
1C1
330
1F
100
AcDbEntity
  8
0
  6
Continuous
 62
     7
370
    25
100
AcDbCircle
 10
420.9546774194
 20
321.320494315
 30
0.0
 40
0.5000000000000311
100
AcDbArc
 50
180.0
 51
269.5
  0
LINE
  5
1C2
330
1F
100
AcDbEntity
  8
0
  6
Continuous
 62
     7
370
    25
100
AcDbLine
 10
418.9546781257
 20
360.8248382626
 30
0.0
 11
418.0546777919
 21
360.8248382626
 31
0.0
  0
LINE
  5
1C3
330
1F
100
AcDbEntity
  8
0
  6
Continuous
 62
     7
370
    25
100
AcDbLine
 10
418.0546777919
 20
320.8248391567
 30
0.0
 11
418.9546781257
 21
320.8248391567
 31
0.0
  0
ARC
  5
1C4
330
1F
100
AcDbEntity
  8
0
  6
Continuous
 62
     7
370
    25
100
AcDbCircle
 10
418.9546774194
 20
321.3248387097
 30
0.0
 40
0.5
100
AcDbArc
 50
270.0
 51
0.0
  0
ARC
  5
1C5
330
1F
100
AcDbEntity
  8
0
  6
Continuous
 62
     7
370
    25
100
AcDbCircle
 10
418.9546774194
 20
360.3248387097
 30
0.0
 40
0.5
100
AcDbArc
 50
0.0
 51
90.0
  0
LINE
  5
1C6
330
1F
100
AcDbEntity
  8
0
  6
Continuous
 62
     7
370
    25
100
AcDbLine
 10
473.1644673869
 20
321.2670069008
 30
0.0
 11
473.1920941397
 21
321.5248379676
 31
0.0
  0
LINE
  5
1C7
330
1F
100
AcDbEntity
  8
0
  6
Continuous
 62
     7
370
    25
100
AcDbLine
 10
473.1920941397
 20
360.1248394518
 30
0.0
 11
473.1644673869
 21
360.3826705186
 31
0.0
  0
ARC
  5
1C8
330
1F
100
AcDbEntity
  8
0
  6
Continuous
 62
     7
370
    25
100
AcDbCircle
 10
473.0140563494
 20
359.8135733262
 30
0.0
 40
0.2000000000000385
100
AcDbArc
 50
6.2134057154
 51
27.1024195339
  0
ARC
  5
1C9
330
1F
100
AcDbEntity
  8
0
  6
Continuous
 62
     7
370
    25
100
AcDbCircle
 10
298.5998739618
 20
340.8248387097
 30
0.0
 40
175.6448034575514
100
AcDbArc
 50
354.2856575943
 51
0.0
  0
ARC
  5
1CA
330
1F
100
AcDbEntity
  8
0
  6
Continuous
 62
     7
370
    25
100
AcDbCircle
 10
298.5998739618
 20
340.8248387097
 30
0.0
 40
175.6448034575514
100
AcDbArc
 50
0.0
 51
6.2134057154
  0
LINE
  5
1CB
330
1F
100
AcDbEntity
  8
0
  6
Continuous
 62
     7
370
    25
100
AcDbLine
 10
420.4546774402
 20
358.3248387842
 30
0.0
 11
419.4546772763
 21
358.3248387842
 31
0.0
  0
LINE
  5
1CC
330
1F
100
AcDbEntity
  8
0
  6
Continuous
 62
     7
370
    25
100
AcDbLine
 10
419.4546772763
 20
323.3248386352
 30
0.0
 11
420.4546774402
 21
323.3248386352
 31
0.0
  0
ARC
  5
1CD
330
1F
100
AcDbEntity
  8
0
  6
Continuous
 62
     7
370
    25
100
AcDbCircle
 10
43.5046774194
 20
378.8248387097
 30
0.0
 40
375.0
100
AcDbArc
 50
358.217348702
 51
0.0
  0
ARC
  5
1CE
330
1F
100
AcDbEntity
  8
0
  6
Continuous
 62
     7
370
    25
100
AcDbCircle
 10
43.5046774194
 20
378.8248387097
 30
0.0
 40
375.0000000000001
100
AcDbArc
 50
0.0
 51
1.782651298
  0
SPLINE
  5
1CF
330
1F
100
AcDbEntity
  8
0
  6
Continuous
 62
     7
370
    25
100
AcDbSpline
210
0.0
220
0.0
230
1.0
 70
     8
 71
     3
 72
     9
 73
     5
 74
     0
 42
0.000000001
 43
0.00000001
 40
0.0
 40
0.0
 40
0.0
 40
0.0
 40
0.4969185217960684
 40
1.0
 40
1.0
 40
1.0
 40
1.0
 10
468.0790959522033
 20
361.5835793136014
 30
0.0
 10
467.0945987606346
 20
361.8420651668916
 30
0.0
 10
465.1133943007758
 20
362.3622427049636
 30
0.0
 10
463.0655956898855
 20
362.4145442280519
 30
0.0
 10
462.0353861376548
 20
362.4408561555994
 30
0.0
  0
ARC
  5
1D0
330
1F
100
AcDbEntity
  8
0
  6
Continuous
 62
     7
370
    25
100
AcDbCircle
 10
417.8234289588
 20
390.4748278078
 30
0.0
 40
0.5000000000000591
100
AcDbArc
 50
1.782651298
 51
62.4762257883
  0
ARC
  5
1D1
330
1F
100
AcDbEntity
  8
0
  6
Continuous
 62
     7
370
    25
100
AcDbCircle
 10
417.8234289588
 20
367.1748496115
 30
0.0
 40
0.5000000000000315
100
AcDbArc
 50
297.5203936001
 51
358.217348702
  0
LINE
  5
1D2
330
1F
100
AcDbEntity
  8
0
  6
Continuous
 62
     7
370
    25
100
AcDbLine
 10
461.0819502398
 20
365.3580415814
 30
0.0
 11
461.0689564273
 21
365.538008493
 31
0.0
  0
SPLINE
  5
1D3
330
1F
100
AcDbEntity
  8
0
  6
Continuous
 62
     7
370
    25
100
AcDbSpline
210
0.0
220
0.0
230
1.0
 70
     8
 71
     3
 72
     9
 73
     5
 74
     0
 42
0.000000001
 43
0.00000001
 40
0.0
 40
0.0
 40
0.0
 40
0.0
 40
0.472738623340015
 40
1.0
 40
1.0
 40
1.0
 40
1.0
 10
435.0801801904941
 20
361.3897207944049
 30
0.0
 10
434.7699563217182
 20
361.3818705689545
 30
0.0
 10
434.1137292789939
 20
361.365264721531
 30
0.0
 10
433.463724178095
 20
361.2730274332191
 30
0.0
 10
433.1210015937591
 20
361.2243942736042
 30
0.0
  0
ARC
  5
1D4
330
1F
100
AcDbEntity
  8
0
  6
Continuous
 62
     7
370
    25
100
AcDbCircle
 10
473.0140563494
 20
322.0005312798
 30
0.0
 40
0.2000000000000574
100
AcDbArc
 50
332.8975804661
 51
352.7594568725
  0
SPLINE
  5
1D5
330
1F
100
AcDbEntity
  8
0
  6
Continuous
 62
     7
370
    25
100
AcDbSpline
210
0.0
220
0.0
230
1.0
 70
     8
 71
     3
 72
    10
 73
     6
 74
     0
 42
0.000000001
 43
0.00000001
 40
0.0
 40
0.0
 40
0.0
 40
0.0
 40
0.342164762349021
 40
0.8100950601828426
 40
1.0
 40
1.0
 40
1.0
 40
1.0
 10
473.3182771727348
 20
322.8802848426951
 30
0.0
 10
473.3298154376167
 20
322.9789909290829
 30
0.0
 10
473.3571329536572
 20
323.2126833538779
 30
0.0
 10
473.3714229433197
 20
323.3350377944668
 30
0.0
 10
473.3729255423661
 20
323.347861810185
 30
0.0
 10
473.3733593150878
 20
323.3515638677729
 30
0.0
  0
SPLINE
  5
1D6
330
1F
100
AcDbEntity
  8
0
  6
Continuous
 62
     7
370
    25
100
AcDbSpline
210
0.0
220
0.0
230
1.0
 70
     8
 71
     3
 72
    10
 73
     6
 74
     0
 42
0.000000001
 43
0.00000001
 40
0.0
 40
0.0
 40
0.0
 40
0.0
 40
0.1627357884993997
 40
0.8206946830461264
 40
1.0
 40
1.0
 40
1.0
 40
1.0
 10
473.224317900827
 20
322.076667082156
 30
0.0
 10
473.2307851625119
 20
322.1319708367385
 30
0.0
 10
473.2634002825639
 20
322.4108738227189
 30
0.0
 10
473.2966615611437
 20
322.6953595316041
 30
0.0
 10
473.3144645519754
 20
322.8476672099707
 30
0.0
 10
473.3182771727348
 20
322.8802848426951
 30
0.0
  0
LINE
  5
1D7
330
1F
100
AcDbEntity
  8
0
  6
Continuous
 62
     7
370
    25
100
AcDbLine
 10
392.6546774295
 20
415.8248416899
 30
0.0
 11
416.5939430371
 21
415.1979647396
 31
0.0
  0
LINE
  5
1D8
330
1F
100
AcDbEntity
  8
0
  6
Continuous
 62
     7
370
    25
100
AcDbLine
 10
392.6546774295
 20
392.8327187715
 30
0.0
 11
392.6546774295
 21
415.8248416899
 31
0.0
  0
LINE
  5
1D9
330
1F
100
AcDbEntity
  8
0
  6
Continuous
 62
     7
370
    25
100
AcDbLine
 10
392.6546774295
 20
288.8169586478
 30
0.0
 11
392.6546774295
 21
392.8327187715
 31
0.0
  0
LINE
  5
1DA
330
1F
100
AcDbEntity
  8
0
  6
Continuous
 62
     7
370
    25
100
AcDbLine
 10
416.5939430371
 20
266.4517126797
 30
0.0
 11
392.6546774295
 21
265.8248357294
 31
0.0
  0
LINE
  5
1DB
330
1F
100
AcDbEntity
  8
0
  6
Continuous
 62
     7
370
    25
100
AcDbLine
 10
392.6546774295
 20
265.8248357294
 30
0.0
 11
392.6546774295
 21
288.8169586478
 31
0.0
  0
LINE
  5
1DC
330
1F
100
AcDbEntity
  8
0
  6
Continuous
 62
     7
370
    25
100
AcDbLine
 10
418.0546777919
 20
392.2058492719
 30
0.0
 11
418.0546777919
 21
289.4438281475
 31
0.0
  0
LINE
  5
1DD
330
1F
100
AcDbEntity
  8
0
  6
Continuous
 62
     7
370
    25
100
AcDbLine
 10
418.0546777919
 20
289.4438281475
 30
0.0
 11
418.0546777919
 21
267.9511941789
 31
0.0
  0
ARC
  5
1DE
330
1F
100
AcDbEntity
  8
0
  6
Continuous
 62
     7
370
    25
100
AcDbCircle
 10
416.5546774194
 20
267.9511964239
 30
0.0
 40
1.500000000000009
100
AcDbArc
 50
271.5
 51
0.0
  0
LINE
  5
1DF
330
1F
100
AcDbEntity
  8
0
  6
Continuous
 62
     7
370
    25
100
AcDbLine
 10
418.0546777919
 20
413.6984832405
 30
0.0
 11
418.0546777919
 21
392.2058492719
 31
0.0
  0
ARC
  5
1E0
330
1F
100
AcDbEntity
  8
0
  6
Continuous
 62
     7
370
    25
100
AcDbCircle
 10
416.5546774194
 20
413.6984809954
 30
0.0
 40
1.500000000000066
100
AcDbArc
 50
0.0
 51
88.5
  0
SPLINE
  5
1E1
330
1F
100
AcDbEntity
  8
0
  6
Continuous
 62
     7
370
    25
100
AcDbSpline
210
0.0
220
0.0
230
1.0
 70
     8
 71
     3
 72
     8
 73
     4
 74
     0
 42
0.000000001
 43
0.00000001
 40
0.0
 40
0.0
 40
0.0
 40
0.0
 40
1.0
 40
1.0
 40
1.0
 40
1.0
 10
432.6144346726095
 20
360.8102525793627
 30
0.0
 10
432.5148736452569
 20
360.8894825143921
 30
0.0
 10
432.4677648275012
 20
360.9296753298153
 30
0.0
 10
432.4677646942916
 20
360.9296753340637
 30
0.0
  0
SPLINE
  5
1E2
330
1F
100
AcDbEntity
  8
0
  6
Continuous
 62
     7
370
    25
100
AcDbSpline
210
0.0
220
0.0
230
1.0
 70
     8
 71
     3
 72
    14
 73
    10
 74
     0
 42
0.000000001
 43
0.00000001
 40
0.0
 40
0.0
 40
0.0
 40
0.0
 40
0.25
 40
0.25
 40
0.5
 40
0.5
 40
0.75
 40
0.75
 40
1.0
 40
1.0
 40
1.0
 40
1.0
 10
460.3878102763862
 20
358.2753375321996
 30
0.0
 10
458.2940531604507
 20
358.4212820656543
 30
0.0
 10
456.2063355722715
 20
358.5806159429565
 30
0.0
 10
452.0412625129892
 20
358.9042663251092
 30
0.0
 10
449.9634253554435
 20
359.0690755557179
 30
0.0
 10
445.818235385629
 20
359.3948508263655
 30
0.0
 10
443.7516671564961
 20
359.5560528627439
 30
0.0
 10
439.6349898362832
 20
359.8705274812393
 30
0.0
 10
437.5839941045668
 20
360.0236903360869
 30
0.0
 10
435.5501445745307
 20
360.1697610471116
 30
0.0
  0
LINE
  5
1E3
330
1F
100
AcDbEntity
  8
0
  6
Continuous
 62
     7
370
    25
100
AcDbLine
 10
420.4546774402
 20
321.3204946189
 30
0.0
 11
420.4546774402
 21
360.3291828005
 31
0.0
  0
LINE
  5
1E4
330
1F
100
AcDbEntity
  8
0
  6
Continuous
 62
     7
370
    25
100
AcDbLine
 10
419.4546772763
 20
360.324839112
 30
0.0
 11
419.4546772763
 21
321.3248383073
 31
0.0
  0
LINE
  5
1E5
330
1F
100
AcDbEntity
  8
0
  6
Continuous
 62
     7
370
    25
100
AcDbLine
 10
473.1920941397
 20
360.1248394518
 30
0.0
 11
473.1920941397
 21
321.5248379676
 31
0.0
  0
SPLINE
  5
1E6
330
1F
100
AcDbEntity
  8
0
  6
Continuous
 62
     7
370
    25
100
AcDbSpline
210
0.0
220
0.0
230
1.0
 70
     8
 71
     3
 72
     8
 73
     4
 74
     0
 42
0.000000001
 43
0.00000001
 40
0.0
 40
0.0
 40
0.0
 40
0.0
 40
1.0
 40
1.0
 40
1.0
 40
1.0
 10
473.2128111429795
 20
321.9784412343726
 30
0.0
 10
473.2128349294584
 20
321.9786695616699
 30
0.0
 10
473.2128583760999
 20
321.9788979272818
 30
0.0
 10
473.212881482909
 20
321.9791263312075
 30
0.0
  0
ARC
  5
1E7
330
1F
100
AcDbEntity
  8
0
  6
Continuous
 62
     7
370
    25
100
AcDbCircle
 10
43.7129305612
 20
378.8248393504
 30
0.0
 40
374.6102572437947
100
AcDbArc
 50
358.8666019447
 51
1.1333980554
  0
SPLINE
  5
1E8
330
1F
100
AcDbEntity
  8
0
  6
Continuous
 62
     7
370
    25
100
AcDbSpline
210
0.0
220
0.0
230
1.0
 70
    24
 71
     3
 72
    10
 73
     6
 74
     0
 42
0.000000001
 43
0.00000001
 40
0.0
 40
0.0
 40
0.0
 40
0.0
 40
0.3375451996067415
 40
0.6750670229496883
 40
1.0
 40
1.0
 40
1.0
 40
1.0
 10
462.1292112991119
 20
362.3235672531975
 30
0.0
 10
462.1292112991119
 20
362.3477498594866
 30
0.0
 10
462.1292112991119
 20
362.3961133973291
 30
0.0
 10
462.1292112991119
 20
362.4346719867951
 30
0.0
 10
462.1292112991119
 20
362.4394033986156
 30
0.0
 10
462.1292112991119
 20
362.441724148239
 30
0.0
  0
SPLINE
  5
1E9
330
1F
100
AcDbEntity
  8
0
  6
Continuous
 62
     7
370
    25
100
AcDbSpline
210
0.0
220
0.0
230
1.0
 70
     8
 71
     3
 72
    20
 73
    16
 74
     0
 42
0.000000001
 43
0.00000001
 40
0.0
 40
0.0
 40
0.0
 40
0.0
 40
0.1250000000000009
 40
0.1250000000000009
 40
0.2500000000000018
 40
0.2500000000000018
 40
0.3750000000000027
 40
0.3750000000000027
 40
0.5000000000000036
 40
0.5000000000000036
 40
0.7500000000000053
 40
0.7500000000000053
 40
0.8750000000000027
 40
0.8750000000000027
 40
1.0
 40
1.0
 40
1.0
 40
1.0
 10
460.6272652515639
 20
362.140667107374
 30
0.0
 10
460.7247064897567
 20
362.1445491719027
 30
0.0
 10
460.8209397304873
 20
362.1495089984678
 30
0.0
 10
461.0111291810404
 20
362.1608705254782
 30
0.0
 10
461.1061364078258
 20
362.1672948683933
 30
0.0
 10
461.2871936982121
 20
362.1818656801981
 30
0.0
 10
461.3734112750293
 20
362.189973818783
 30
0.0
 10
461.537251019168
 20
362.2077452343125
 30
0.0
 10
461.61461829314
 20
362.2172829700831
 30
0.0
 10
461.8234392728846
 20
362.244984311934
 30
0.0
 10
461.93670756132
 20
362.2628347222411
 30
0.0
 10
462.0507291239353
 20
362.2877776945602
 30
0.0
 10
462.0802182846588
 20
362.2960451766662
 30
0.0
 10
462.119314536938
 20
362.3110566331762
 30
0.0
 10
462.1292147748968
 20
362.3176293643451
 30
0.0
 10
462.1292147748977
 20
362.3235673137216
 30
0.0
  0
SPLINE
  5
1EA
330
1F
100
AcDbEntity
  8
0
  6
Continuous
 62
     7
370
    25
100
AcDbSpline
210
0.0
220
0.0
230
1.0
 70
     8
 71
     3
 72
     8
 73
     4
 74
     0
 42
0.000000001
 43
0.00000001
 40
0.0
 40
0.0
 40
0.0
 40
0.0
 40
0.0001029845837661
 40
0.0001029845837661
 40
0.0001029845837661
 40
0.0001029845837661
 10
436.3010001167584
 20
361.3532265275446
 30
0.0
 10
436.334971914946
 20
361.3536931638259
 30
0.0
 10
436.3691412238716
 20
361.354374402494
 30
0.0
 10
436.4033711925634
 20
361.3552447905651
 30
0.0
  0
SPLINE
  5
1EB
330
1F
100
AcDbEntity
  8
0
  6
Continuous
 62
     7
370
    25
100
AcDbSpline
210
0.0
220
0.0
230
1.0
 70
     8
 71
     3
 72
    14
 73
    10
 74
     0
 42
0.000000001
 43
0.00000001
 40
0.0
 40
0.0
 40
0.0
 40
0.0
 40
0.2499999999999998
 40
0.2499999999999998
 40
0.4999999999999996
 40
0.4999999999999996
 40
0.7499999999999993
 40
0.7499999999999993
 40
1.0
 40
1.0
 40
1.0
 40
1.0
 10
436.4033711925631
 20
361.3552447905644
 30
0.0
 10
438.4190218716512
 20
361.4064980745641
 30
0.0
 10
440.4335588810778
 20
361.4614583377304
 30
0.0
 10
444.4591130273965
 20
361.5965257177408
 30
0.0
 10
446.4703327933324
 20
361.6727670099239
 30
0.0
 10
450.4903214658153
 20
361.8231692099116
 30
0.0
 10
452.4988091924584
 20
361.8974401251908
 30
0.0
 10
456.5129100280099
 20
362.032065973417
 30
0.0
 10
458.51854263011
 20
362.0930504482504
 30
0.0
 10
460.5230898839735
 20
362.1371543963111
 30
0.0
  0
SPLINE
  5
1EC
330
1F
100
AcDbEntity
  8
0
  6
Continuous
 62
     7
370
    25
100
AcDbSpline
210
0.0
220
0.0
230
1.0
 70
     8
 71
     3
 72
     8
 73
     4
 74
     0
 42
0.000000001
 43
0.00000001
 40
0.0
 40
0.0
 40
0.0
 40
0.0
 40
0.0001046666746584
 40
0.0001046666746584
 40
0.0001046666746584
 40
0.0001046666746584
 10
460.5230898839721
 20
362.1371543963086
 30
0.0
 10
460.5576865961928
 20
362.1379155914343
 30
0.0
 10
460.5924645827551
 20
362.1389875127341
 30
0.0
 10
460.6272747022335
 20
362.1403734518836
 30
0.0
  0
SPLINE
  5
1ED
330
1F
100
AcDbEntity
  8
0
  6
Continuous
 62
     7
370
    25
100
AcDbSpline
210
0.0
220
0.0
230
1.0
 70
     8
 71
     3
 72
    23
 73
    19
 74
     0
 42
0.000000001
 43
0.00000001
 40
0.0
 40
0.0
 40
0.0
 40
0.0
 40
0.0556380095362673
 40
0.1132118388368042
 40
0.1725980162039014
 40
0.2336365314884183
 40
0.2961307814288169
 40
0.3598492347313497
 40
0.4245289772916775
 40
0.4898811347507743
 40
0.5555979774504579
 40
0.6213611305913095
 40
0.6868504426230474
 40
0.7517540314218825
 40
0.8157765772971631
 40
0.8786468469699373
 40
0.9401236585141752
 40
1.0
 40
1.0
 40
1.0
 40
1.0
 10
461.1153679060414
 20
365.3633849796383
 30
0.0
 10
461.1143650612199
 20
365.3632438030431
 30
0.0
 10
461.11232447948
 20
365.3629565378787
 30
0.0
 10
461.0954919087692
 20
365.3602379377486
 30
0.0
 10
461.0674992347739
 20
365.3556768283046
 30
0.0
 10
461.0266346935458
 20
365.3489903687231
 30
0.0
 10
460.9727513988287
 20
365.3401539836789
 30
0.0
 10
460.9056736684601
 20
365.3291365000178
 30
0.0
 10
460.8256998603575
 20
365.3159855905388
 30
0.0
 10
460.7334933066938
 20
365.3008125504142
 30
0.0
 10
460.630110947472
 20
365.2837949529439
 30
0.0
 10
460.5169548717803
 20
365.2651857445821
 30
0.0
 10
460.3957154818627
 20
365.2452907650776
 30
0.0
 10
460.2682966806962
 20
365.224385974959
 30
0.0
 10
460.136713787817
 20
365.2027907673783
 30
0.0
 10
460.0029641026483
 20
365.1808260000751
 30
0.0
 10
459.8690605735096
 20
365.1588229969021
 30
0.0
 10
459.7794212794004
 20
365.1440908164205
 30
0.0
 10
459.7351927377381
 20
365.1368218741036
 30
0.0
  0
LINE
  5
1EE
330
1F
100
AcDbEntity
  8
0
  6
Continuous
 62
     7
370
    25
100
AcDbLine
 10
461.5850953981
 20
362.2154258011
 30
0.0
 11
461.1153735444
 21
365.3633873729
 31
0.0
  0
SPLINE
  5
1EF
330
1F
100
AcDbEntity
  8
0
  6
Continuous
 62
     7
370
    25
100
AcDbSpline
210
0.0
220
0.0
230
1.0
 70
    24
 71
     3
 72
     9
 73
     5
 74
     0
 42
0.000000001
 43
0.00000001
 40
0.0
 40
0.0
 40
0.0
 40
0.0
 40
0.4175389900174605
 40
1.0
 40
1.0
 40
1.0
 40
1.0
 10
435.0801392123008
 20
361.3906390784634
 30
0.0
 10
435.0801392123008
 20
361.3905458435738
 30
0.0
 10
435.0801392123008
 20
361.3903225473265
 30
0.0
 10
435.0801392123008
 20
361.3716496568101
 30
0.0
 10
435.0801392123008
 20
361.3607734261406
 30
0.0
  0
SPLINE
  5
1F0
330
1F
100
AcDbEntity
  8
0
  6
Continuous
 62
     7
370
    25
100
AcDbSpline
210
0.0
220
0.0
230
1.0
 70
     8
 71
     3
 72
    14
 73
    10
 74
     0
 42
0.000000001
 43
0.00000001
 40
0.0
 40
0.0
 40
0.0
 40
0.0
 40
0.25
 40
0.25
 40
0.5
 40
0.5
 40
0.75
 40
0.75
 40
1.0
 40
1.0
 40
1.0
 40
1.0
 10
435.0801400645183
 20
361.3607739788155
 30
0.0
 10
435.0801400645154
 20
361.3552201043943
 30
0.0
 10
435.1103086763438
 20
361.3497743215181
 30
0.0
 10
435.2293205993794
 20
361.3394032377591
 30
0.0
 10
435.3163110352446
 20
361.3362222908092
 30
0.0
 10
435.538870622921
 20
361.335577642989
 30
0.0
 10
435.672241890624
 20
361.3380654361844
 30
0.0
 10
435.9698037946392
 20
361.3451122344267
 30
0.0
 10
436.1318053587721
 20
361.3480520585288
 30
0.0
 10
436.3010001167584
 20
361.3532265275446
 30
0.0
  0
LINE
  5
1F1
330
1F
100
AcDbEntity
  8
0
  6
Continuous
 62
     7
370
    25
100
AcDbLine
 10
459.9677233621
 20
366.2578016339
 30
0.0
 11
436.2234308049
 21
362.673798558
 31
0.0
  0
ARC
  5
1F2
330
1F
100
AcDbEntity
  8
0
  6
Continuous
 62
     7
370
    25
100
AcDbCircle
 10
467.8097683043
 20
360.6386403932
 30
0.0
 40
1.000000000000021
100
AcDbArc
 50
42.2742669599
 51
74.1501592464
  0
ARC
  5
1F3
330
1F
100
AcDbEntity
  8
0
  6
Continuous
 62
     7
370
    25
100
AcDbCircle
 10
468.6976882498
 20
361.4458567027
 30
0.0
 40
0.1999999999999783
100
AcDbArc
 50
222.2742669599
 51
270.5
  0
ARC
  5
1F4
330
1F
100
AcDbEntity
  8
0
  6
Continuous
 62
     7
370
    25
100
AcDbCircle
 10
460.1169742474
 20
365.2690020958
 30
0.0
 40
0.9999999972189755
100
AcDbArc
 50
9.7446989907
 51
98.5835247369
  0
LINE
  5
1F5
330
1F
100
AcDbEntity
  8
0
  6
Continuous
 62
     7
370
    25
100
AcDbLine
 10
461.1089585945
 20
365.4008172272
 30
0.0
 11
461.1153735444
 21
365.3633910982
 31
0.0
  0
LINE
  5
1F6
330
1F
100
AcDbEntity
  8
0
  6
Continuous
 62
     7
370
    25
100
AcDbLine
 10
435.3728352711
 20
361.6631235747
 30
0.0
 11
435.3756851181
 21
361.3367639302
 31
0.0
  0
ARC
  5
1F7
330
1F
100
AcDbEntity
  8
0
  6
Continuous
 62
     7
370
    25
100
AcDbCircle
 10
432.4660193872
 20
361.1296677187
 30
0.0
 40
0.2000000000000061
100
AcDbArc
 50
270.5
 51
312.0780052523
  0
ARC
  5
1F8
330
1F
100
AcDbEntity
  8
0
  6
Continuous
 62
     7
370
    25
100
AcDbCircle
 10
433.2701894744
 20
360.2389879385
 30
0.0
 40
0.9999999999999919
100
AcDbArc
 50
98.6032482307
 51
132.0780052524
  0
ARC
  5
1F9
330
1F
100
AcDbEntity
  8
0
  6
Continuous
 62
     7
370
    25
100
AcDbCircle
 10
436.3726830728
 20
361.6849990159
 30
0.0
 40
1.000000010547075
100
AcDbArc
 50
98.5835249352
 51
180.5
  0
ELLIPSE
  5
1FA
330
1F
100
AcDbEntity
  8
0
  6
Continuous
 62
     8
370
    18
100
AcDbEllipse
 10
416.5546774194
 20
392.1911109569
 30
0.0
 11
0.03926378423125242
 21
23.00685604886376
 31
0.0
210
0.0
220
0.0
230
1.0
 40
0.0017055857
 41
4.713032463366675
 42
6.28314355749336
  0
LINE
  5
1FB
330
1F
100
AcDbEntity
  8
0
  6
Continuous
 62
     8
370
    18
100
AcDbLine
 10
416.5939430371
 20
392.2058492719
 30
0.0
 11
392.6546774295
 21
392.8327187715
 31
0.0
  0
LINE
  5
1FC
330
1F
100
AcDbEntity
  8
0
  6
Continuous
 62
     8
370
    18
100
AcDbLine
 10
416.5939430371
 20
289.4438281475
 30
0.0
 11
416.5939430371
 21
392.2058492719
 31
0.0
  0
LINE
  5
1FD
330
1F
100
AcDbEntity
  8
0
  6
Continuous
 62
     8
370
    18
100
AcDbLine
 10
392.6546774295
 20
288.8169586478
 30
0.0
 11
416.5939430371
 21
289.4438281475
 31
0.0
  0
ELLIPSE
  5
1FE
330
1F
100
AcDbEntity
  8
0
  6
Continuous
 62
     8
370
    18
100
AcDbEllipse
 10
416.5546774194
 20
289.4585664625
 30
0.0
 11
-0.03926378423102506
 21
23.00685604886382
 31
0.0
210
0.0
220
0.0
230
1.0
 40
0.0017055857
 41
3.14163440329403
 42
4.711745497402706
  0
LINE
  5
1FF
330
1F
100
AcDbEntity
  8
0
  6
Continuous
 62
     8
370
    18
100
AcDbLine
 10
416.5939430371
 20
392.2058492719
 30
0.0
 11
418.0546777919
 21
392.2058492719
 31
0.0
  0
LINE
  5
200
330
1F
100
AcDbEntity
  8
0
  6
Continuous
 62
     8
370
    18
100
AcDbLine
 10
416.5939430371
 20
289.4438281475
 30
0.0
 11
418.0546777919
 21
289.4438281475
 31
0.0
  0
LINE
  5
201
330
1F
100
AcDbEntity
  8
0
  6
Continuous
 62
     8
370
    18
100
AcDbLine
 10
472.161432974
 20
340.8248387097
 30
0.0
 11
472.161432974
 21
361.2760770886
 31
0.0
  0
LINE
  5
202
330
1F
100
AcDbEntity
  8
0
  6
Continuous
 62
     8
370
    18
100
AcDbLine
 10
472.161432974
 20
320.3736003308
 30
0.0
 11
472.161432974
 21
340.8248387097
 31
0.0
  0
LINE
  5
203
330
1F
100
AcDbEntity
  8
0
  6
Continuous
 62
     8
370
    18
100
AcDbLine
 10
473.1644673869
 20
360.3826705186
 30
0.0
 11
473.1644673869
 21
321.2670069008
 31
0.0
  0
LINE
  5
204
330
1F
100
AcDbEntity
  8
0
  6
Continuous
 62
     8
370
    18
100
AcDbLine
 10
420.9503142759
 20
360.8291633247
 30
0.0
 11
420.9503142759
 21
320.8205140947
 31
0.0
  0
SPLINE
  5
205
330
1F
100
AcDbEntity
  8
0
  6
Continuous
 62
     8
370
    18
100
AcDbSpline
210
0.0
220
0.0
230
1.0
 70
     8
 71
     3
 72
    18
 73
    14
 74
     0
 42
0.000000001
 43
0.00000001
 40
0.0
 40
0.0
 40
0.0
 40
0.0
 40
0.2499999999999973
 40
0.2499999999999973
 40
0.3749999999999977
 40
0.3749999999999977
 40
0.499999999999998
 40
0.499999999999998
 40
0.6249999999999983
 40
0.6249999999999983
 40
0.7499999999999989
 40
0.7499999999999989
 40
1.0
 40
1.0
 40
1.0
 40
1.0
 10
435.5501030535548
 20
360.1697638076856
 30
0.0
 10
435.1566846449039
 20
360.1980532465849
 30
0.0
 10
434.7664152294386
 20
360.2280604807586
 30
0.0
 10
434.2166314135926
 20
360.2938667442778
 30
0.0
 10
434.0384749457488
 20
360.319111455316
 30
0.0
 10
433.7111914231718
 20
360.3752197414119
 30
0.0
 10
433.5598586066038
 20
360.4064708015212
 30
0.0
 10
433.2930183016592
 20
360.473827252039
 30
0.0
 10
433.1815013772294
 20
360.5088079394188
 30
0.0
 10
432.994622901234
 20
360.5785367655671
 30
0.0
 10
432.9190803964065
 20
360.6133908121504
 30
0.0
 10
432.7368100439635
 20
360.7104259721754
 30
0.0
 10
432.6696497247106
 20
360.7663128460445
 30
0.0
 10
432.6144346726076
 20
360.8102525793626
 30
0.0
  0
SPLINE
  5
206
330
1F
100
AcDbEntity
  8
0
  6
Continuous
 62
     8
370
    18
100
AcDbSpline
210
0.0
220
0.0
230
1.0
 70
     8
 71
     3
 72
     8
 73
     4
 74
     0
 42
0.000000001
 43
0.00000001
 40
0.0
 40
0.0
 40
0.0
 40
0.0
 40
0.000057756153491
 40
0.000057756153491
 40
0.000057756153491
 40
0.000057756153491
 10
460.4448880538731
 20
358.2713521450248
 30
0.0
 10
460.4258494854493
 20
358.2726788071611
 30
0.0
 10
460.4068114269969
 20
358.2740066921146
 30
0.0
 10
460.3877738402571
 20
358.2753356587933
 30
0.0
  0
SPLINE
  5
207
330
1F
100
AcDbEntity
  8
0
  6
Continuous
 62
     8
370
    18
100
AcDbSpline
210
0.0
220
0.0
230
1.0
 70
     8
 71
     3
 72
    26
 73
    22
 74
     0
 42
0.000000001
 43
0.00000001
 40
0.0
 40
0.0
 40
0.0
 40
0.0
 40
0.2500000000000018
 40
0.2500000000000018
 40
0.3750000000000026
 40
0.3750000000000026
 40
0.4375000000000031
 40
0.4375000000000031
 40
0.5000000000000034
 40
0.5000000000000034
 40
0.5625000000000039
 40
0.5625000000000039
 40
0.6250000000000043
 40
0.6250000000000043
 40
0.6875000000000048
 40
0.6875000000000048
 40
0.7500000000000052
 40
0.7500000000000052
 40
0.8750000000000027
 40
0.8750000000000027
 40
1.0
 40
1.0
 40
1.0
 40
1.0
 10
468.4258617907622
 20
360.7680280723808
 30
0.0
 10
468.2957837150863
 20
360.5497518876213
 30
0.0
 10
468.1261385474432
 20
360.2599058189165
 30
0.0
 10
467.6362966572808
 20
359.7401117663001
 30
0.0
 10
467.4366598533639
 20
359.556482655621
 30
0.0
 10
467.0541745360253
 20
359.2784850171699
 30
0.0
 10
466.9114216098648
 20
359.1847125818578
 30
0.0
 10
466.5956070460176
 20
359.0027277710128
 30
0.0
 10
466.4239607286417
 20
358.9152492302327
 30
0.0
 10
466.0497288571316
 20
358.7510858239944
 30
0.0
 10
465.8452216896079
 20
358.6738230934513
 30
0.0
 10
465.4122955793812
 20
358.5360449482428
 30
0.0
 10
465.1862938983674
 20
358.4760871137485
 30
0.0
 10
464.7174387000832
 20
358.3733783691809
 30
0.0
 10
464.472863907811
 20
358.3303917444397
 30
0.0
 10
463.9768014560198
 20
358.2619248361327
 30
0.0
 10
463.7274696883394
 20
358.2365652864802
 30
0.0
 10
462.9763200737896
 20
358.1826403892503
 30
0.0
 10
462.471335194222
 20
358.1763966637541
 30
0.0
 10
461.4558793532108
 20
358.2028442825385
 30
0.0
 10
460.9492940734422
 20
358.2362036846662
 30
0.0
 10
460.4448880538719
 20
358.2713521450249
 30
0.0
  0
SPLINE
  5
208
330
1F
100
AcDbEntity
  8
0
  6
Continuous
 62
     8
370
    18
100
AcDbSpline
210
0.0
220
0.0
230
1.0
 70
     8
 71
     3
 72
     8
 73
     4
 74
     0
 42
0.000000001
 43
0.00000001
 40
0.0
 40
0.0
 40
0.0
 40
0.0
 40
1.0
 40
1.0
 40
1.0
 40
1.0
 10
468.699433556942
 20
361.2458643180664
 30
0.0
 10
468.6994335088734
 20
361.2458643154957
 30
0.0
 10
468.6141931373296
 20
361.0840555626791
 30
0.0
 10
468.4258617907623
 20
360.7680280723808
 30
0.0
  0
LINE
  5
209
330
1F
100
AcDbEntity
  8
0
  6
Continuous
 62
     8
370
    18
100
AcDbLine
 10
418.9546781257
 20
320.8248391567
 30
0.0
 11
418.9546781257
 21
360.8248382626
 31
0.0
  0
LINE
  5
20A
330
1F
100
AcDbEntity
  8
0
  6
Continuous
 62
     8
370
    18
100
AcDbLine
 10
473.2128812596
 20
359.8352204828
 30
0.0
 11
473.2128812596
 21
321.9791259436
 31
0.0
  0
ARC
  5
20B
330
1F
100
AcDbEntity
  8
0
  6
Continuous
 62
     8
370
    18
100
AcDbCircle
 10
473.0169971066
 20
322.0006368918
 30
0.0
 40
0.197071093869247
100
AcDbArc
 50
332.6849570749
 51
353.5329709437
  0
SPLINE
  5
20C
330
1F
100
AcDbEntity
  8
0
  6
Continuous
 62
     8
370
    18
100
AcDbSpline
210
0.0
220
0.0
230
1.0
 70
     8
 71
     3
 72
    11
 73
     7
 74
     0
 42
0.000000001
 43
0.00000001
 40
0.0
 40
0.0
 40
0.0
 40
0.0
 40
0.0489818227786779
 40
0.3861500067367504
 40
0.721761859564322
 40
1.0
 40
1.0
 40
1.0
 40
1.0
 10
473.2128812596107
 20
321.9791259436262
 30
0.0
 10
473.2175990770032
 20
322.0194736179932
 30
0.0
 10
473.2547921644501
 20
322.3375559972267
 30
0.0
 10
473.3142324964805
 20
322.8458697449026
 30
0.0
 10
473.3658694783106
 20
323.2877026842461
 30
0.0
 10
473.3697415750379
 20
323.3208514280905
 30
0.0
 10
473.3714966699386
 20
323.3358766703261
 30
0.0
  0
SPLINE
  5
20D
330
1F
100
AcDbEntity
  8
0
  6
Continuous
 62
     8
370
    18
100
AcDbSpline
210
0.0
220
0.0
230
1.0
 70
     8
 71
     3
 72
    22
 73
    18
 74
     0
 42
0.000000001
 43
0.00000001
 40
0.0
 40
0.0
 40
0.0
 40
0.0
 40
0.125
 40
0.125
 40
0.25
 40
0.25
 40
0.375
 40
0.375
 40
0.5
 40
0.5
 40
0.625
 40
0.625
 40
0.75
 40
0.75
 40
0.875
 40
0.875
 40
1.0
 40
1.0
 40
1.0
 40
1.0
 10
418.2498961141699
 20
390.4916611620585
 30
0.0
 10
418.2443355567465
 20
390.4917582219494
 30
0.0
 10
418.2393807452098
 20
390.4642787594897
 30
0.0
 10
418.2306740341293
 20
390.3545638383519
 30
0.0
 10
418.2269952754193
 20
390.2728263261315
 30
0.0
 10
418.2210727024008
 20
390.0603740213319
 30
0.0
 10
418.2187920695146
 20
389.9280718037007
 30
0.0
 10
418.2157518520076
 20
389.6167851942877
 30
0.0
 10
418.2150021615375
 20
389.4405433383403
 30
0.0
 10
418.2150077298588
 20
389.0478227650291
 30
0.0
 10
418.2157879563409
 20
388.8287371851296
 30
0.0
 10
418.218835776568
 20
388.3660558158416
 30
0.0
 10
418.2210878731671
 20
388.1215998035632
 30
0.0
 10
418.2270613382333
 20
387.6062233749181
 30
0.0
 10
418.2307904588745
 20
387.3359852833391
 30
0.0
 10
418.2394126693588
 20
386.7921737120324
 30
0.0
 10
418.2443355644933
 20
386.5157834345505
 30
0.0
 10
418.2498961141699
 20
386.234718549464
 30
0.0
  0
ARC
  5
20E
330
1F
100
AcDbEntity
  8
0
  6
Continuous
 62
     8
370
    18
100
AcDbCircle
 10
416.065149269
 20
488.2600711667
 30
0.0
 40
102.048741023095
100
AcDbArc
 50
271.1171015814
 51
271.226730799
  0
ARC
  5
20F
330
1F
100
AcDbEntity
  8
0
  6
Continuous
 62
     8
370
    18
100
AcDbCircle
 10
417.7501082762
 20
390.4761221953
 30
0.0
 40
0.5000292540814995
100
AcDbArc
 50
1.7807601268
 51
52.4752993026
  0
SPLINE
  5
210
330
1F
100
AcDbEntity
  8
0
  6
Continuous
 62
     8
370
    18
100
AcDbSpline
210
0.0
220
0.0
230
1.0
 70
     8
 71
     3
 72
    22
 73
    18
 74
     0
 42
0.000000001
 43
0.00000001
 40
0.0
 40
0.0
 40
0.0
 40
0.0
 40
0.125
 40
0.125
 40
0.25
 40
0.25
 40
0.375
 40
0.375
 40
0.5
 40
0.5
 40
0.625
 40
0.625
 40
0.75
 40
0.75
 40
0.875
 40
0.875
 40
1.0
 40
1.0
 40
1.0
 40
1.0
 10
418.2498961141698
 20
371.4149588698912
 30
0.0
 10
418.2443355567464
 20
371.1338935932318
 30
0.0
 10
418.2393807452098
 20
370.8558867295076
 30
0.0
 10
418.2306740341293
 20
370.3059457902181
 30
0.0
 10
418.2269952754191
 20
370.0382077867897
 30
0.0
 10
418.2210727024006
 20
369.5263089762458
 30
0.0
 10
418.2187920695145
 20
369.2786991911568
 30
0.0
 10
418.2157518520075
 20
368.8137013367015
 30
0.0
 10
418.2150021615374
 20
368.5995560090252
 30
0.0
 10
418.2150077298587
 20
368.2071169643905
 30
0.0
 10
418.2157879563408
 20
368.0274787289755
 30
0.0
 10
418.2188357765679
 20
367.7188930092943
 30
0.0
 10
418.2210878731671
 20
367.5883017792667
 30
0.0
 10
418.2270613382332
 20
367.3749450014849
 30
0.0
 10
418.2307904588745
 20
367.2932538241702
 30
0.0
 10
418.2394126693587
 20
367.1853958644803
 30
0.0
 10
418.2443355644933
 20
367.157919197541
 30
0.0
 10
418.2498961141699
 20
367.1580162572966
 30
0.0
  0
ARC
  5
211
330
1F
100
AcDbEntity
  8
0
  6
Continuous
 62
     8
370
    18
100
AcDbCircle
 10
417.7501033569
 20
367.1735571633
 30
0.0
 40
0.500034249342082
100
AcDbArc
 50
307.5249718357
 51
358.2189687349
  0
ARC
  5
212
330
1F
100
AcDbEntity
  8
0
  6
Continuous
 62
     8
370
    18
100
AcDbCircle
 10
415.8795597267
 20
260.3172739725
 30
0.0
 40
111.1229688426928
100
AcDbArc
 50
88.7777453268
 51
88.8784222929
  0
LWPOLYLINE
  5
213
330
1F
100
AcDbEntity
  8
0
  6
Continuous
 62
     8
370
    18
100
AcDbPolyline
 90
        5
 70
   128
 43
0.0
 10
418.3231874034
 20
390.4903828917
 10
418.3186052963
 20
390.4904611228
 10
418.304864563
 20
390.4907032667
 10
418.2819596156
 20
390.4911018728
 10
418.249896042
 20
390.4916606663
  0
LWPOLYLINE
  5
214
330
1F
100
AcDbEntity
  8
0
  6
Continuous
 62
     8
370
    18
100
AcDbPolyline
 90
        5
 70
   128
 43
0.0
 10
418.249896042
 20
367.1580161719
 10
418.2819596156
 20
367.1585768281
 10
418.304864563
 20
367.1589754341
 10
418.3186052963
 20
367.1592157154
 10
418.3231874034
 20
367.1592958091
  0
ARC
  5
215
330
1F
100
AcDbEntity
  8
0
  6
Continuous
 62
     8
370
    18
100
AcDbCircle
 10
459.6820660316
 20
358.4639039904
 30
0.0
 40
0.7867488764416937
100
AcDbArc
 50
345.8333700748
 51
355.4941070833
  0
SPLINE
  5
216
330
1F
100
AcDbEntity
  8
0
  6
Continuous
 62
     8
370
    18
100
AcDbSpline
210
0.0
220
0.0
230
1.0
 70
     8
 71
     3
 72
    28
 73
    24
 74
     0
 42
0.000000001
 43
0.00000001
 40
0.0
 40
0.0
 40
0.0
 40
0.0
 40
0.125
 40
0.125
 40
0.2499999999999999
 40
0.2499999999999999
 40
0.3125
 40
0.3125
 40
0.375
 40
0.375
 40
0.4375000000000001
 40
0.4375000000000001
 40
0.5000000000000001
 40
0.5000000000000001
 40
0.5625000000000001
 40
0.5625000000000001
 40
0.6250000000000001
 40
0.6250000000000001
 40
0.75
 40
0.75
 40
0.875
 40
0.875
 40
1.0
 40
1.0
 40
1.0
 40
1.0
 10
460.4663839172187
 20
358.4020964853277
 30
0.0
 10
460.9614433580045
 20
358.36755325219
 30
0.0
 10
461.4590597296247
 20
358.3343579846285
 30
0.0
 10
462.4533860337337
 20
358.306130691024
 30
0.0
 10
462.9485237335076
 20
358.3107056223802
 30
0.0
 10
463.6864575096213
 20
358.3614253620368
 30
0.0
 10
463.9316426905697
 20
358.385589982205
 30
0.0
 10
464.4200246499735
 20
358.4516839997736
 30
0.0
 10
464.6600105258385
 20
358.4933387627665
 30
0.0
 10
465.1206282893481
 20
358.5936636972515
 30
0.0
 10
465.3426637935071
 20
358.6525288826509
 30
0.0
 10
465.7678250986696
 20
358.7885051046975
 30
0.0
 10
465.9668598857288
 20
358.8646518795226
 30
0.0
 10
466.3315424820873
 20
359.0269688723296
 30
0.0
 10
466.4986199194722
 20
359.1134519810909
 30
0.0
 10
466.8056319495013
 20
359.2935199364123
 30
0.0
 10
466.9431312193612
 20
359.3856586735215
 30
0.0
 10
467.3125940565337
 20
359.6592293120226
 30
0.0
 10
467.5058962033644
 20
359.840019063884
 30
0.0
 10
467.8210857745894
 20
360.1780073018071
 30
0.0
 10
467.9406935191714
 20
360.3330159531539
 30
0.0
 10
468.1351601125009
 20
360.6115044114807
 30
0.0
 10
468.2094963874375
 20
360.7339711338922
 30
0.0
 10
468.2730697549426
 20
360.8408846076651
 30
0.0
  0
ARC
  5
217
330
1F
100
AcDbEntity
  8
0
  6
Continuous
 62
     8
370
    18
100
AcDbCircle
 10
468.4301255182
 20
360.9736064805
 30
0.0
 40
0.2056231242728223
100
AcDbArc
 50
220.2001837219
 51
268.811594684
  0
SPLINE
  5
218
330
1F
100
AcDbEntity
  8
0
  6
Continuous
 62
     8
370
    18
100
AcDbSpline
210
0.0
220
0.0
230
1.0
 70
     8
 71
     3
 72
    32
 73
    28
 74
     0
 42
0.000000001
 43
0.00000001
 40
0.0
 40
0.0
 40
0.0
 40
0.0
 40
0.1250000000000026
 40
0.1250000000000026
 40
0.2500000000000052
 40
0.2500000000000052
 40
0.3125000000000047
 40
0.3125000000000047
 40
0.3750000000000043
 40
0.3750000000000043
 40
0.4375000000000038
 40
0.4375000000000038
 40
0.5000000000000033
 40
0.5000000000000033
 40
0.5625000000000029
 40
0.5625000000000029
 40
0.6250000000000023
 40
0.6250000000000023
 40
0.6875000000000019
 40
0.6875000000000019
 40
0.7500000000000014
 40
0.7500000000000014
 40
0.8750000000000007
 40
0.8750000000000007
 40
0.9375000000000003
 40
0.9375000000000003
 40
1.0
 40
1.0
 40
1.0
 40
1.0
 10
460.5193180815223
 20
358.817944217102
 30
0.0
 10
460.9907330345425
 20
358.7856439573697
 30
0.0
 10
461.4627228682492
 20
358.7566498053324
 30
0.0
 10
462.4128177849556
 20
358.7310186618191
 30
0.0
 10
462.8939102567207
 20
358.736653468054
 30
0.0
 10
463.5983802244984
 20
358.787141379492
 30
0.0
 10
463.8310307321446
 20
358.8107237529546
 30
0.0
 10
464.2910105514594
 20
358.8741840016727
 30
0.0
 10
464.5198701192223
 20
358.9146135219805
 30
0.0
 10
464.9558145090091
 20
359.0122274825239
 30
0.0
 10
465.1643274021344
 20
359.0694612698024
 30
0.0
 10
465.5602898207534
 20
359.201072409844
 30
0.0
 10
465.7463636822461
 20
359.2773183397462
 30
0.0
 10
466.0845514092765
 20
359.4367548643286
 30
0.0
 10
466.2391331410862
 20
359.5212668306132
 30
0.0
 10
466.5186899703822
 20
359.6954787270479
 30
0.0
 10
466.6419386610989
 20
359.7836416634947
 30
0.0
 10
466.8641302112684
 20
359.9578330881728
 30
0.0
 10
466.9628923321825
 20
360.0439159173596
 30
0.0
 10
467.1405451387977
 20
360.2125683887421
 30
0.0
 10
467.2197891672303
 20
360.2953197316555
 30
0.0
 10
467.4312894410177
 20
360.5314387726644
 30
0.0
 10
467.536864672523
 20
360.6758665463678
 30
0.0
 10
467.6659135749817
 20
360.8701664623111
 30
0.0
 10
467.7040587867525
 20
360.9309404680828
 30
0.0
 10
467.7739779048025
 20
361.0438023580821
 30
0.0
 10
467.8063998728218
 20
361.0950092322955
 30
0.0
 10
467.8343452176107
 20
361.1459697080721
 30
0.0
  0
ARC
  5
219
330
1F
100
AcDbEntity
  8
0
  6
Continuous
 62
     8
370
    18
100
AcDbCircle
 10
467.4856250711
 20
360.176494186
 30
0.0
 40
1.030285138917604
100
AcDbArc
 50
40.1552588702
 51
70.2163913823
  0
ARC
  5
21A
330
1F
100
AcDbEntity
  8
0
  6
Continuous
 62
     8
370
    18
100
AcDbCircle
 10
466.0735499579
 20
357.8996124826
 30
0.0
 40
5.629636547431034
100
AcDbArc
 50
170.6116982403
 51
174.8791483211
  0
SPLINE
  5
21B
330
1F
100
AcDbEntity
  8
0
  6
Continuous
 62
     8
370
    18
100
AcDbSpline
210
0.0
220
0.0
230
1.0
 70
     8
 71
     3
 72
     8
 73
     4
 74
     0
 42
0.000000001
 43
0.00000001
 40
0.0
 40
0.0
 40
0.0
 40
0.0
 40
1.0
 40
1.0
 40
1.0
 40
1.0
 10
460.4093452598861
 20
358.4060802611446
 30
0.0
 10
460.4040992650909
 20
358.3521238854884
 30
0.0
 10
460.3960837232973
 20
358.3034942344383
 30
0.0
 10
460.3877946128019
 20
358.2753342087138
 30
0.0
  0
SPLINE
  5
21C
330
1F
100
AcDbEntity
  8
0
  6
Continuous
 62
     8
370
    18
100
AcDbSpline
210
0.0
220
0.0
230
1.0
 70
     8
 71
     3
 72
     8
 73
     4
 74
     0
 42
0.000000001
 43
0.00000001
 40
0.0
 40
0.0
 40
0.0
 40
0.0
 40
0.0000577096167922
 40
0.0000577096167922
 40
0.0000577096167922
 40
0.0000577096167922
 10
460.4093245055869
 20
358.4060817121815
 30
0.0
 10
460.4283437993424
 20
358.4047519775438
 30
0.0
 10
460.4473636022839
 20
358.4034236455008
 30
0.0
 10
460.4663839172187
 20
358.4020964853277
 30
0.0
  0
ARC
  5
21D
330
1F
100
AcDbEntity
  8
0
  6
Continuous
 62
     8
370
    18
100
AcDbCircle
 10
435.3765399798
 20
360.2983525138
 30
0.0
 40
0.2160261266010285
100
AcDbArc
 50
323.4694665166
 51
352.7037860068
  0
SPLINE
  5
21E
330
1F
100
AcDbEntity
  8
0
  6
Continuous
 62
     8
370
    18
100
AcDbSpline
210
0.0
220
0.0
230
1.0
 70
     8
 71
     3
 72
    14
 73
    10
 74
     0
 42
0.000000001
 43
0.00000001
 40
0.0
 40
0.0
 40
0.0
 40
0.0
 40
0.25
 40
0.25
 40
0.5
 40
0.5
 40
0.75
 40
0.75
 40
1.0
 40
1.0
 40
1.0
 40
1.0
 10
435.5908364326129
 20
360.2709153183073
 30
0.0
 10
437.6239668131873
 20
360.1301384230389
 30
0.0
 10
439.6746056682977
 20
359.9857597190687
 30
0.0
 10
443.7913584532466
 20
359.6821332153644
 30
0.0
 10
445.8562372819871
 20
359.5232057319227
 30
0.0
 10
449.9959974706581
 20
359.2000725786088
 30
0.0
 10
452.0709008067526
 20
359.0360796651079
 30
0.0
 10
456.2311860229239
 20
358.7127389578938
 30
0.0
 10
458.3164375532122
 20
358.5528189596621
 30
0.0
 10
460.409330897312
 20
358.4060725584988
 30
0.0
  0
SPLINE
  5
21F
330
1F
100
AcDbEntity
  8
0
  6
Continuous
 62
     8
370
    18
100
AcDbSpline
210
0.0
220
0.0
230
1.0
 70
     8
 71
     3
 72
    10
 73
     6
 74
     0
 42
0.000000001
 43
0.00000001
 40
0.0
 40
0.0
 40
0.0
 40
0.0
 40
0.5
 40
0.5
 40
1.0
 40
1.0
 40
1.0
 40
1.0
 10
467.8343452176144
 20
361.1459697080713
 30
0.0
 10
467.921069574669
 20
361.304118212989
 30
0.0
 10
467.9833169314834
 20
361.4148080374507
 30
0.0
 10
468.0635775140854
 20
361.5637368110879
 30
0.0
 10
468.082885883306
 20
361.6006207913875
 30
0.0
 10
468.0828854674322
 20
361.6006211701517
 30
0.0
  0
SPLINE
  5
220
330
1F
100
AcDbEntity
  8
0
  6
Continuous
 62
     8
370
    18
100
AcDbSpline
210
0.0
220
0.0
230
1.0
 70
     8
 71
     3
 72
    11
 73
     7
 74
     0
 42
0.000000001
 43
0.00000001
 40
-0.00000006
 40
-0.00000006
 40
-0.00000006
 40
-0.00000006
 40
0.0
 40
0.0
 40
0.0
 40
0.0000567126826241
 40
0.0000567126826241
 40
0.0000567126826241
 40
0.0000567126826241
 10
460.4631897697269
 20
358.8218085641969
 30
0.0
 10
460.4632095412649
 20
358.8218071957246
 30
0.0
 10
460.4632293128029
 20
358.8218058272421
 30
0.0
 10
460.4632490843433
 20
358.8218044587771
 30
0.0
 10
460.4819373693049
 20
358.8205109701168
 30
0.0
 10
460.500627095658
 20
358.819224880123
 30
0.0
 10
460.5193180815129
 20
358.8179442171025
 30
0.0
  0
SPLINE
  5
221
330
1F
100
AcDbEntity
  8
0
  6
Continuous
 62
     8
370
    18
100
AcDbSpline
210
0.0
220
0.0
230
1.0
 70
     8
 71
     3
 72
    11
 73
     7
 74
     0
 42
0.000000001
 43
0.00000001
 40
0.0442197346866862
 40
0.0442197346866862
 40
0.0442197346866862
 40
0.0442197346866862
 40
0.47938232421875
 40
0.712042236328125
 40
0.9447021484375
 40
0.9641244587562942
 40
0.9641244587562942
 40
0.9641244587562942
 40
0.9641244587562942
 10
460.4631937708796
 20
358.8218681046812
 30
0.0
 10
460.4772026747435
 20
359.6946442497165
 30
0.0
 10
460.5073057378981
 20
360.7805846204643
 30
0.0
 10
460.5657272606376
 20
361.7195846492548
 30
0.0
 10
460.6038696861734
 20
362.0278891441253
 30
0.0
 10
460.6255921651795
 20
362.1326264838784
 30
0.0
 10
460.6272765041059
 20
362.1403817484506
 30
0.0
  0
SPLINE
  5
222
330
1F
100
AcDbEntity
  8
0
  6
Continuous
 62
     8
370
    18
100
AcDbSpline
210
0.0
220
0.0
230
1.0
 70
     8
 71
     3
 72
    16
 73
    12
 74
     0
 42
0.000000001
 43
0.00000001
 40
0.0
 40
0.0
 40
0.0
 40
0.0
 40
0.1249999999999999
 40
0.1249999999999999
 40
0.2499999999999998
 40
0.2499999999999998
 40
0.4999999999999996
 40
0.4999999999999996
 40
0.7499999999999993
 40
0.7499999999999993
 40
1.0
 40
1.0
 40
1.0
 40
1.0
 10
435.7041607929791
 20
360.6685126128353
 30
0.0
 10
436.714844279758
 20
360.6001516203962
 30
0.0
 10
437.7326267921489
 20
360.5370011108075
 30
0.0
 10
439.7729769571212
 20
360.4045389659678
 30
0.0
 10
440.7956867230062
 20
360.3352716088893
 30
0.0
 10
443.8693189665932
 20
360.1115451001841
 30
0.0
 10
445.926725693162
 20
359.9408409107083
 30
0.0
 10
450.0584817024989
 20
359.6068615348819
 30
0.0
 10
452.1317504544975
 20
359.4441466222985
 30
0.0
 10
456.2891952525697
 20
359.1239826948694
 30
0.0
 10
458.3729243351397
 20
358.9654320494911
 30
0.0
 10
460.4631951160553
 20
358.8219519096008
 30
0.0
  0
SPLINE
  5
223
330
1F
100
AcDbEntity
  8
0
  6
Continuous
 62
     8
370
    18
100
AcDbSpline
210
0.0
220
0.0
230
1.0
 70
     8
 71
     3
 72
     8
 73
     4
 74
     0
 42
0.000000001
 43
0.00000001
 40
0.0
 40
0.0
 40
0.0
 40
0.0
 40
1.0
 40
1.0
 40
1.0
 40
1.0
 10
460.4093316029152
 20
358.4060799892615
 30
0.0
 10
460.4236892259491
 20
358.5572804121511
 30
0.0
 10
460.4422915470795
 20
358.7009060793285
 30
0.0
 10
460.4631951160553
 20
358.8219519096008
 30
0.0
  0
SPLINE
  5
224
330
1F
100
AcDbEntity
  8
0
  6
Continuous
 62
     8
370
    18
100
AcDbSpline
210
0.0
220
0.0
230
1.0
 70
     8
 71
     3
 72
     8
 73
     4
 74
     0
 42
0.000000001
 43
0.00000001
 40
0.0
 40
0.0
 40
0.0
 40
0.0
 40
1.0
 40
1.0
 40
1.0
 40
1.0
 10
435.7041610743998
 20
360.6685125938016
 30
0.0
 10
435.659356003044
 20
360.5731250383878
 30
0.0
 10
435.6196342757116
 20
360.4338832433115
 30
0.0
 10
435.5908364326135
 20
360.2709153183072
 30
0.0
  0
SPLINE
  5
225
330
1F
100
AcDbEntity
  8
0
  6
Continuous
 62
     8
370
    18
100
AcDbSpline
210
0.0
220
0.0
230
1.0
 70
     8
 71
     3
 72
    11
 73
     7
 74
     0
 42
0.000000001
 43
0.00000001
 40
-0.0980497121990386
 40
-0.0980497121990386
 40
-0.0980497121990386
 40
-0.0980497121990386
 40
0.0
 40
0.0
 40
0.0
 40
0.8094990553115559
 40
0.8094990553115559
 40
0.8094990553115559
 40
0.8094990553115559
 10
436.3010001167584
 20
361.3532265275446
 30
0.0
 10
436.2795720907262
 20
361.3425669400688
 30
0.0
 10
436.2581440646939
 20
361.3319073525931
 30
0.0
 10
436.2367160386617
 20
361.3212477651174
 30
0.0
 10
436.0598061177525
 20
361.2332421422746
 30
0.0
 10
435.8822905854913
 20
361.015669376821
 30
0.0
 10
435.704169441878
 20
360.6685294687567
 30
0.0
  0
LINE
  5
226
330
1F
100
AcDbEntity
  8
0
  6
Continuous
 62
     8
370
    18
100
AcDbLine
 10
459.8288296387
 20
362.1148280619
 30
0.0
 11
459.4465403482
 21
365.089431387
 31
0.0
  0
SPLINE
  5
227
330
1F
100
AcDbEntity
  8
0
  6
Continuous
 62
     8
370
    18
100
AcDbSpline
210
0.0
220
0.0
230
1.0
 70
     8
 71
     3
 72
     9
 73
     5
 74
     0
 42
0.000000001
 43
0.00000001
 40
0.0
 40
0.0
 40
0.0
 40
0.0
 40
0.5096443824727948
 40
1.0
 40
1.0
 40
1.0
 40
1.0
 10
459.7351927377381
 20
365.1368218741036
 30
0.0
 10
459.6860462481923
 20
365.1287451779232
 30
0.0
 10
459.5896133407845
 20
365.112897468308
 30
0.0
 10
459.4936152638405
 20
365.0971518993502
 30
0.0
 10
459.4465420675392
 20
365.0894309711606
 30
0.0
  0
ARC
  5
228
330
1F
100
AcDbEntity
  8
0
  6
Continuous
 62
     8
370
    18
100
AcDbCircle
 10
432.6093601973
 20
361.0110034068
 30
0.0
 40
0.2008155978472198
100
AcDbArc
 50
271.4474722872
 51
314.1900541682
  0
SPLINE
  5
229
330
1F
100
AcDbEntity
  8
0
  6
Continuous
 62
     8
370
    18
100
AcDbSpline
210
0.0
220
0.0
230
1.0
 70
     8
 71
     3
 72
    18
 73
    14
 74
     0
 42
0.000000001
 43
0.00000001
 40
0.0
 40
0.0
 40
0.0
 40
0.0
 40
0.2500000000000012
 40
0.2500000000000012
 40
0.3750000000000012
 40
0.3750000000000012
 40
0.5000000000000009
 40
0.5000000000000009
 40
0.6250000000000006
 40
0.6250000000000006
 40
0.7500000000000003
 40
0.7500000000000003
 40
1.0
 40
1.0
 40
1.0
 40
1.0
 10
432.7493364028604
 20
360.8670116175686
 30
0.0
 10
432.8040871461586
 20
360.826016091113
 30
0.0
 10
432.8716621589147
 20
360.7757731065592
 30
0.0
 10
433.048006346127
 20
360.6841991531384
 30
0.0
 10
433.1197620771583
 20
360.6515812050078
 30
0.0
 10
433.2987498825208
 20
360.5857863132869
 30
0.0
 10
433.4083379882329
 20
360.5520285328875
 30
0.0
 10
433.6647087607626
 20
360.4889428369193
 30
0.0
 10
433.8097679438962
 20
360.459993778213
 30
0.0
 10
434.1279445512582
 20
360.4078508723724
 30
0.0
 10
434.3009212240759
 20
360.384678098429
 30
0.0
 10
434.8315995570461
 20
360.3247597309269
 30
0.0
 10
435.2100410077588
 20
360.2971539110981
 30
0.0
 10
435.5908367406548
 20
360.2709170615231
 30
0.0
  0
SPLINE
  5
22A
330
1F
100
AcDbEntity
  8
0
  6
Continuous
 62
     8
370
    18
100
AcDbSpline
210
0.0
220
0.0
230
1.0
 70
     8
 71
     3
 72
    20
 73
    16
 74
     0
 42
0.000000001
 43
0.00000001
 40
0.0
 40
0.0
 40
0.0
 40
0.0
 40
0.1249999999999994
 40
0.1249999999999994
 40
0.2499999999999988
 40
0.2499999999999988
 40
0.3749999999999982
 40
0.3749999999999982
 40
0.4999999999999977
 40
0.4999999999999977
 40
0.6249999999999971
 40
0.6249999999999971
 40
0.7499999999999964
 40
0.7499999999999964
 40
1.0
 40
1.0
 40
1.0
 40
1.0
 10
433.2513677651123
 20
361.1341858146822
 30
0.0
 10
433.2726328966572
 20
361.118519138013
 30
0.0
 10
433.298959014929
 20
361.1048923484518
 30
0.0
 10
433.3588592932298
 20
361.0699879465847
 30
0.0
 10
433.3943853112592
 20
361.048721882269
 30
0.0
 10
433.4861294990912
 20
361.0009435305224
 30
0.0
 10
433.5428053592395
 20
360.9744857152198
 30
0.0
 10
433.6888659131317
 20
360.92107630948
 30
0.0
 10
433.7804662632219
 20
360.8936217731269
 30
0.0
 10
433.9998098186437
 20
360.8423062418623
 30
0.0
 10
434.1266377754066
 20
360.8196985520509
 30
0.0
 10
434.4059894205592
 20
360.7792908054535
 30
0.0
 10
434.5588910982588
 20
360.7613325823775
 30
0.0
 10
435.0292479526609
 20
360.7144224102757
 30
0.0
 10
435.3662639055228
 20
360.69051384292
 30
0.0
 10
435.704169441878
 20
360.6685294687567
 30
0.0
  0
ARC
  5
22B
330
1F
100
AcDbEntity
  8
0
  6
Continuous
 62
     8
370
    18
100
AcDbCircle
 10
433.4504455965
 20
360.1548555337
 30
0.0
 40
0.9993601570964021
100
AcDbArc
 50
101.4904692799
 51
134.5521086062
  0
LINE
  5
22C
330
1F
100
AcDbEntity
  8
0
  6
Continuous
 62
     8
370
    18
100
AcDbLine
 10
436.7643541321
 20
361.7317341088
 30
0.0
 11
436.7675578818
 21
361.3647576241
 31
0.0
  0
SPLINE
  5
22D
330
1F
100
AcDbEntity
  8
0
  6
Continuous
 62
     8
370
    18
100
AcDbSpline
210
0.0
220
0.0
230
1.0
 70
     8
 71
     3
 72
    20
 73
    16
 74
     0
 42
0.000000001
 43
0.00000001
 40
0.0
 40
0.0
 40
0.0
 40
0.0
 40
0.0768964513735299
 40
0.1537908397933002
 40
0.2306858677068645
 40
0.3075840550066443
 40
0.3844877130421488
 40
0.4613989522343193
 40
0.5383196897083202
 40
0.6152513436769094
 40
0.6921926613813433
 40
0.769141033128575
 40
0.8460936855164406
 40
0.923047696007184
 40
0.9999999999999999
 40
0.9999999999999999
 40
0.9999999999999999
 40
0.9999999999999999
 10
459.446541536474
 20
365.089434408889
 30
0.0
 10
458.8667929101763
 20
365.0049752060394
 30
0.0
 10
457.7073112108944
 20
364.836059066185
 30
0.0
 10
455.9667781743523
 20
364.5813805252355
 30
0.0
 10
454.2253557477932
 20
364.3258342060765
 30
0.0
 10
452.4829635772285
 20
364.0693829383669
 30
0.0
 10
450.7396431449211
 20
363.8121146343865
 30
0.0
 10
448.9954031868835
 20
363.5540837882211
 30
0.0
 10
447.2502635189005
 20
363.2953537881247
 30
0.0
 10
445.5042629231561
 20
363.0359904231537
 30
0.0
 10
443.7574710697082
 20
362.7760525177523
 30
0.0
 10
442.0099887284794
 20
362.515602196814
 30
0.0
 10
440.2619140829524
 20
362.2546950398148
 30
0.0
 10
438.5133886926225
 20
361.9934189063059
 30
0.0
 10
437.3473620027331
 20
361.8189622572687
 30
0.0
 10
436.7643551221824
 20
361.7317348999292
 30
0.0
  0
ARC
  5
22E
330
1F
100
AcDbEntity
  8
0
  6
Continuous
 62
     8
370
    18
100
AcDbCircle
 10
461.5975047725
 20
365.627697213
 30
0.0
 40
2.217289796889955
100
AcDbArc
 50
168.2717816672
 51
194.049304242
  0
SPLINE
  5
22F
330
1F
100
AcDbEntity
  8
0
  6
Continuous
 62
     8
370
    18
100
AcDbSpline
210
0.0
220
0.0
230
1.0
 70
     8
 71
     3
 72
    10
 73
     6
 74
     0
 42
0.000000001
 43
0.00000001
 40
0.0
 40
0.0
 40
0.0
 40
0.0
 40
0.5
 40
0.5
 40
1.0
 40
1.0
 40
1.0
 40
1.0
 10
459.9805082943273
 20
366.1830521628627
 30
0.0
 10
459.9814450862656
 20
366.1775629961056
 30
0.0
 10
459.919800263964
 20
366.1622983840335
 30
0.0
 10
459.7109364488069
 20
366.1225919151125
 30
0.0
 10
459.5654559566021
 20
366.0985648838202
 30
0.0
 10
459.4265041868896
 20
366.0784049817089
 30
0.0
  0
ARC
  5
230
330
1F
100
AcDbEntity
  8
0
  6
Continuous
 62
     8
370
    18
100
AcDbCircle
 10
460.1300994698
 20
365.1947071016
 30
0.0
 40
0.999601283536041
100
AcDbArc
 50
9.7148988584
 51
98.6066776767
  0
ARC
  5
231
330
1F
100
AcDbEntity
  8
0
  6
Continuous
 62
     8
370
    18
100
AcDbCircle
 10
440.3781079546
 20
362.5116084444
 30
0.0
 40
3.696947479873726
100
AcDbArc
 50
176.7540409817
 51
192.1780822343
  0
SPLINE
  5
232
330
1F
100
AcDbEntity
  8
0
  6
Continuous
 62
     8
370
    18
100
AcDbSpline
210
0.0
220
0.0
230
1.0
 70
     8
 71
     3
 72
     8
 73
     4
 74
     0
 42
0.000000001
 43
0.00000001
 40
0.0
 40
0.0
 40
0.0
 40
0.0
 40
1.0
 40
1.0
 40
1.0
 40
1.0
 10
459.4265042775843
 20
366.0784049024973
 30
0.0
 10
451.8693984102349
 20
364.9819784813225
 30
0.0
 10
444.2827216591316
 20
363.8555204152678
 30
0.0
 10
436.6870916985238
 20
362.7209386893886
 30
0.0
  0
SPLINE
  5
233
330
1F
100
AcDbEntity
  8
0
  6
Continuous
 62
     8
370
    18
100
AcDbSpline
210
0.0
220
0.0
230
1.0
 70
     8
 71
     3
 72
    10
 73
     6
 74
     0
 42
0.000000001
 43
0.00000001
 40
0.0
 40
0.0
 40
0.0
 40
0.0
 40
0.4999999999999999
 40
0.4999999999999999
 40
1.0
 40
1.0
 40
1.0
 40
1.0
 10
433.1205980762719
 20
361.2277358404108
 30
0.0
 10
433.1205983860037
 20
361.2277356016082
 30
0.0
 10
433.131606381709
 20
361.2202845020134
 30
0.0
 10
433.1753530224693
 20
361.190348719868
 30
0.0
 10
433.2086189620775
 20
361.1656801731218
 30
0.0
 10
433.251367765113
 20
361.1341858146816
 30
0.0
  0
SPLINE
  5
234
330
1F
100
AcDbEntity
  8
0
  6
Continuous
 62
     8
370
    18
100
AcDbSpline
210
0.0
220
0.0
230
1.0
 70
     8
 71
     3
 72
    10
 73
     6
 74
     0
 42
0.000000001
 43
0.00000001
 40
0.0
 40
0.0
 40
0.0
 40
0.0
 40
0.4999999999999997
 40
0.4999999999999997
 40
1.0
 40
1.0
 40
1.0
 40
1.0
 10
436.6870916985238
 20
362.7209386893886
 30
0.0
 10
436.5635058859771
 20
362.7024783132309
 30
0.0
 10
436.4435413538358
 20
362.685628892807
 30
0.0
 10
436.2730288544814
 20
362.6635581108382
 30
0.0
 10
436.2235873829196
 20
362.6584476554332
 30
0.0
 10
436.2235664064935
 20
362.660519798907
 30
0.0
  0
SPLINE
  5
235
330
1F
100
AcDbEntity
  8
0
  6
Continuous
 62
     8
370
    18
100
AcDbSpline
210
0.0
220
0.0
230
1.0
 70
     8
 71
     3
 72
     9
 73
     5
 74
     0
 42
0.000000001
 43
0.00000001
 40
0.0
 40
0.0
 40
0.0
 40
0.0
 40
0.499962516314324
 40
1.0
 40
1.0
 40
1.0
 40
1.0
 10
436.2234320362472
 20
362.6737983571406
 30
0.0
 10
436.2234376042349
 20
362.6732451329822
 30
0.0
 10
436.2234487410451
 20
362.6721386017117
 30
0.0
 10
436.2235271823675
 20
362.66439292905
 30
0.0
 10
436.223566405969
 20
362.6605198023828
 30
0.0
  0
SPLINE
  5
236
330
1F
100
AcDbEntity
  8
0
  6
Continuous
 62
     8
370
    18
100
AcDbSpline
210
0.0
220
0.0
230
1.0
 70
     8
 71
     3
 72
     8
 73
     4
 74
     0
 42
0.000000001
 43
0.00000001
 40
0.0
 40
0.0
 40
0.0
 40
0.0
 40
1.0
 40
1.0
 40
1.0
 40
1.0
 10
459.9677232253803
 20
366.2578014297277
 30
0.0
 10
459.9677232253803
 20
366.2578014297277
 30
0.0
 10
459.9720088091192
 20
366.2328819691697
 30
0.0
 10
459.9805110400338
 20
366.1830526668423
 30
0.0
  0
SPLINE
  5
237
330
1F
100
AcDbEntity
  8
0
  6
Continuous
 62
     8
370
    18
100
AcDbSpline
210
0.0
220
0.0
230
1.0
 70
     8
 71
     3
 72
    10
 73
     6
 74
     0
 42
0.000000001
 43
0.00000001
 40
0.0
 40
0.0
 40
0.0
 40
0.0
 40
0.5
 40
0.5
 40
1.0
 40
1.0
 40
1.0
 40
1.0
 10
468.2730697549431
 20
360.8408846076645
 30
0.0
 10
468.3667202785201
 20
360.9983798480305
 30
0.0
 10
468.4362133385619
 20
361.1156595338073
 30
0.0
 10
468.5275967260778
 20
361.2720129974743
 30
0.0
 10
468.549701592748
 20
361.3113206231005
 30
0.0
 10
468.5497015922473
 20
361.3113206511026
 30
0.0
  0
SPLINE
  5
238
330
1F
100
AcDbEntity
  8
0
  6
Continuous
 62
     8
370
    18
100
AcDbSpline
210
0.0
220
0.0
230
1.0
 70
     8
 71
     3
 72
    23
 73
    19
 74
     0
 42
0.000000001
 43
0.00000001
 40
0.0
 40
0.0
 40
0.0
 40
0.0
 40
0.0527836491918485
 40
0.1040762268835805
 40
0.1538777585846885
 40
0.2021882798893063
 40
0.2490078375264903
 40
0.2943364905830943
 40
0.3381743119344092
 40
0.3805213899264097
 40
0.4213778303645209
 40
0.4607437588785419
 40
0.4986193237522243
 40
0.6011776034110466
 40
0.7025905967316795
 40
0.8028624440746163
 40
0.9019974321062155
 40
0.9999999999999999
 40
0.9999999999999999
 40
0.9999999999999999
 40
0.9999999999999999
 10
436.7643549936479
 20
361.7317347844225
 30
0.0
 10
436.7250215701042
 20
361.7295593684267
 30
0.0
 10
436.6474658426104
 20
361.7252699891924
 30
0.0
 10
436.5343182520461
 20
361.7191254311984
 30
0.0
 10
436.4263224212993
 20
361.7133178800018
 30
0.0
 10
436.323940519455
 20
361.7078634855268
 30
0.0
 10
436.2274528835843
 20
361.7027615754052
 30
0.0
 10
436.1370575814244
 20
361.6980146458699
 30
0.0
 10
436.0528567561324
 20
361.6936234073421
 30
0.0
 10
435.9748718177661
 20
361.6895879342029
 30
0.0
 10
435.9030528310367
 20
361.6859082612231
 30
0.0
 10
435.8372837733092
 20
361.6825815581569
 30
0.0
 10
435.7425375660131
 20
361.6778837966626
 30
0.0
 10
435.6288853235465
 20
361.6724726684616
 30
0.0
 10
435.5146891913963
 20
361.6673519761624
 30
0.0
 10
435.4332188659873
 20
361.6640653780569
 30
0.0
 10
435.3822599158325
 20
361.6624464989211
 30
0.0
 10
435.3759651732401
 20
361.6628990067583
 30
0.0
 10
435.3728358814348
 20
361.6631239610032
 30
0.0
  0
ARC
  5
239
330
1F
100
AcDbEntity
  8
0
  6
Continuous
 62
     8
370
    18
100
AcDbCircle
 10
436.3727088203
 20
361.671794122
 30
0.0
 40
0.9999111425212147
100
AcDbArc
 50
98.5780858425
 51
180.4968361418
  0
SPLINE
  5
23A
330
1F
100
AcDbEntity
  8
0
  6
Continuous
 62
     8
370
    18
100
AcDbSpline
210
0.0
220
0.0
230
1.0
 70
     8
 71
     3
 72
     8
 73
     4
 74
     0
 42
0.000000001
 43
0.00000001
 40
0.0
 40
0.0
 40
0.0
 40
0.0
 40
1.0
 40
1.0
 40
1.0
 40
1.0
 10
432.6000477350545
 20
360.9812210886399
 30
0.0
 10
432.6000477130558
 20
360.9812209463325
 30
0.0
 10
432.6483326857361
 20
360.9426398247493
 30
0.0
 10
432.7493364028604
 20
360.8670116175686
 30
0.0
  0
SPLINE
  5
23B
330
1F
100
AcDbEntity
  8
0
  6
Continuous
 62
     8
370
    18
100
AcDbSpline
210
0.0
220
0.0
230
1.0
 70
     8
 71
     3
 72
    24
 73
    20
 74
     0
 42
0.000000001
 43
0.00000001
 40
0.0
 40
0.0
 40
0.0
 40
0.0
 40
0.0563078963366863
 40
0.1140437009706035
 40
0.1730374216996518
 40
0.2330919386693959
 40
0.2939858390326897
 40
0.3554775560772918
 40
0.4173106727233713
 40
0.4792199949354271
 40
0.5409381801764133
 40
0.6022032341676837
 40
0.6627646208522581
 40
0.722389063966023
 40
0.7808653514129208
 40
0.8380079023589273
 40
0.8936590115199725
 40
0.9476898003967945
 40
1.0
 40
1.0
 40
1.0
 40
1.0
 10
459.7352112112421
 20
365.1368277193992
 30
0.0
 10
459.7768078425341
 20
365.1436651688009
 30
0.0
 10
459.8610559513976
 20
365.1575134580411
 30
0.0
 10
459.9870220474924
 20
365.1782161529541
 30
0.0
 10
460.113047882485
 20
365.1989168864372
 30
0.0
 10
460.23746646117
 20
365.2193400859593
 30
0.0
 10
460.3586209805429
 20
365.2392168171424
 30
0.0
 10
460.4748194460713
 20
365.258279234462
 30
0.0
 10
460.5844375074666
 20
365.2762770124068
 30
0.0
 10
460.6859819957983
 20
365.2929904739012
 30
0.0
 10
460.7781737392322
 20
365.3081623070289
 30
0.0
 10
460.8599810389805
 20
365.3216208499867
 30
0.0
 10
460.9306625074987
 20
365.3332391607373
 30
0.0
 10
460.9897911129439
 20
365.3429471299926
 30
0.0
 10
461.0372212071242
 20
365.35072198979
 30
0.0
 10
461.0731807844927
 20
365.3566030214607
 30
0.0
 10
461.0978318061796
 20
365.3606166907576
 30
0.0
 10
461.1126791011765
 20
365.3630112421696
 30
0.0
 10
461.1144812915452
 20
365.3632621421187
 30
0.0
 10
461.1153678070766
 20
365.363385562322
 30
0.0
  0
ENDSEC
  0
SECTION
  2
OBJECTS
  0
DICTIONARY
  5
C
330
0
100
AcDbDictionary
281
     1
  3
ACAD_GROUP
350
D
  3
ACAD_LAYOUT
350
1A
  3
ACAD_MLINESTYLE
350
17
  3
ACAD_PLOTSETTINGS
350
19
  3
ACAD_PLOTSTYLENAME
350
E
  3
ACAD_SCALELIST
350
47
  0
DICTIONARY
  5
D
102
{ACAD_REACTORS
330
C
102
}
330
C
100
AcDbDictionary
281
     1
  0
DICTIONARY
  5
1A
102
{ACAD_REACTORS
330
C
102
}
330
C
100
AcDbDictionary
281
     1
  3
Layout1
350
1E
  3
Layout2
350
26
  3
Model
350
22
  0
DICTIONARY
  5
17
102
{ACAD_REACTORS
330
C
102
}
330
C
100
AcDbDictionary
281
     1
  3
Standard
350
18
  0
DICTIONARY
  5
19
102
{ACAD_REACTORS
330
C
102
}
330
C
100
AcDbDictionary
281
     1
  0
ACDBDICTIONARYWDFLT
  5
E
102
{ACAD_REACTORS
330
C
102
}
330
C
100
AcDbDictionary
281
     1
  3
Normal
350
F
100
AcDbDictionaryWithDefault
340
F
  0
DICTIONARY
  5
47
102
{ACAD_REACTORS
330
C
102
}
330
C
100
AcDbDictionary
281
     1
  3
A0
350
48
  3
A1
350
49
  3
A2
350
4A
  3
A3
350
4B
  3
A4
350
4C
  3
A5
350
4D
  3
A6
350
4E
  3
A7
350
4F
  3
A8
350
50
  3
A9
350
51
  3
B0
350
52
  3
B1
350
53
  3
B2
350
54
  3
B3
350
55
  3
B4
350
56
  3
B5
350
57
  3
B6
350
58
  3
B7
350
59
  3
B8
350
5A
  3
B9
350
5B
  3
C0
350
5C
  3
C1
350
5D
  3
C2
350
5E
  3
C3
350
5F
  3
C4
350
60
  3
C5
350
61
  3
C6
350
62
  3
C7
350
63
  3
C8
350
64
  3
C9
350
65
  3
D0
350
66
  3
D1
350
67
  3
D2
350
68
  0
LAYOUT
  5
1E
102
{ACAD_REACTORS
330
1A
102
}
330
1A
100
AcDbPlotSettings
  1

  2
none_device
  4

  6

 40
0.0
 41
0.0
 42
0.0
 43
0.0
 44
0.0
 45
0.0
 46
0.0
 47
0.0
 48
0.0
 49
0.0
140
0.0
141
0.0
142
1.0
143
1.0
 70
   688
 72
     1
 73
     0
 74
     5
  7

 75
    16
147
1.0
148
0.0
149
0.0
100
AcDbLayout
  1
Layout1
 70
     1
 71
     1
 10
0.0
 20
0.0
 11
420.0
 21
297.0
 12
0.0
 22
0.0
 32
0.0
 14
1.0000000000E+20
 24
1.0000000000E+20
 34
1.0000000000E+20
 15
-1.0000000000E+20
 25
-1.0000000000E+20
 35
-1.0000000000E+20
146
0.0
 13
0.0
 23
0.0
 33
0.0
 16
1.0
 26
0.0
 36
0.0
 17
0.0
 27
1.0
 37
0.0
 76
     0
330
1B
  0
LAYOUT
  5
26
102
{ACAD_REACTORS
330
1A
102
}
330
1A
100
AcDbPlotSettings
  1

  2
none_device
  4

  6

 40
0.0
 41
0.0
 42
0.0
 43
0.0
 44
0.0
 45
0.0
 46
0.0
 47
0.0
 48
0.0
 49
0.0
140
0.0
141
0.0
142
1.0
143
1.0
 70
   688
 72
     1
 73
     0
 74
     5
  7

 75
    16
147
1.0
148
0.0
149
0.0
100
AcDbLayout
  1
Layout2
 70
     1
 71
     2
 10
0.0
 20
0.0
 11
0.0
 21
0.0
 12
0.0
 22
0.0
 32
0.0
 14
0.0
 24
0.0
 34
0.0
 15
0.0
 25
0.0
 35
0.0
146
0.0
 13
0.0
 23
0.0
 33
0.0
 16
1.0
 26
0.0
 36
0.0
 17
0.0
 27
1.0
 37
0.0
 76
     0
330
23
  0
LAYOUT
  5
22
102
{ACAD_REACTORS
330
1A
102
}
330
1A
100
AcDbPlotSettings
  1

  2
none_device
  4
Letter_(8.50_x_11.00_Inches)
  6

 40
6.35
 41
6.35
 42
6.35000508
 43
6.35000508
 44
215.9
 45
279.4
 46
0.0
 47
0.0
 48
0.0
 49
0.0
140
0.0
141
0.0
142
1.0
143
1.0
 70
  1712
 72
     1
 73
     0
 74
     0
  7

 75
     0
147
1.0
148
0.0
149
0.0
100
AcDbLayout
  1
Model
 70
     1
 71
     0
 10
0.0
 20
0.0
 11
594.0
 21
841.0
 12
0.0
 22
0.0
 32
0.0
 14
0.0
 24
0.0
 34
0.0
 15
594.0
 25
841.0
 35
0.0
146
0.0
 13
0.0
 23
0.0
 33
0.0
 16
1.0
 26
0.0
 36
0.0
 17
0.0
 27
1.0
 37
0.0
 76
     0
330
1F
331
29
  0
MLINESTYLE
  5
18
102
{ACAD_REACTORS
330
17
102
}
330
17
100
AcDbMlineStyle
  2
Standard
 70
     0
  3

 62
   256
 51
90.0
 52
90.0
 71
     2
 49
0.5
 62
   256
  6
BYLAYER
 49
-0.5
 62
   256
  6
BYLAYER
  0
ACDBPLACEHOLDER
  5
F
102
{ACAD_REACTORS
330
E
102
}
330
E
  0
SCALE
  5
48
102
{ACAD_REACTORS
330
47
102
}
330
47
100
AcDbScale
 70
     0
300
1:1
140
1.0
141
1.0
290
     1
  0
SCALE
  5
49
102
{ACAD_REACTORS
330
47
102
}
330
47
100
AcDbScale
 70
     0
300
1:2
140
1.0
141
2.0
290
     0
  0
SCALE
  5
4A
102
{ACAD_REACTORS
330
47
102
}
330
47
100
AcDbScale
 70
     0
300
1:4
140
1.0
141
4.0
290
     0
  0
SCALE
  5
4B
102
{ACAD_REACTORS
330
47
102
}
330
47
100
AcDbScale
 70
     0
300
1:5
140
1.0
141
5.0
290
     0
  0
SCALE
  5
4C
102
{ACAD_REACTORS
330
47
102
}
330
47
100
AcDbScale
 70
     0
300
1:8
140
1.0
141
8.0
290
     0
  0
SCALE
  5
4D
102
{ACAD_REACTORS
330
47
102
}
330
47
100
AcDbScale
 70
     0
300
1:10
140
1.0
141
10.0
290
     0
  0
SCALE
  5
4E
102
{ACAD_REACTORS
330
47
102
}
330
47
100
AcDbScale
 70
     0
300
1:16
140
1.0
141
16.0
290
     0
  0
SCALE
  5
4F
102
{ACAD_REACTORS
330
47
102
}
330
47
100
AcDbScale
 70
     0
300
1:20
140
1.0
141
20.0
290
     0
  0
SCALE
  5
50
102
{ACAD_REACTORS
330
47
102
}
330
47
100
AcDbScale
 70
     0
300
1:30
140
1.0
141
30.0
290
     0
  0
SCALE
  5
51
102
{ACAD_REACTORS
330
47
102
}
330
47
100
AcDbScale
 70
     0
300
1:40
140
1.0
141
40.0
290
     0
  0
SCALE
  5
52
102
{ACAD_REACTORS
330
47
102
}
330
47
100
AcDbScale
 70
     0
300
1:50
140
1.0
141
50.0
290
     0
  0
SCALE
  5
53
102
{ACAD_REACTORS
330
47
102
}
330
47
100
AcDbScale
 70
     0
300
1:100
140
1.0
141
100.0
290
     0
  0
SCALE
  5
54
102
{ACAD_REACTORS
330
47
102
}
330
47
100
AcDbScale
 70
     0
300
2:1
140
2.0
141
1.0
290
     0
  0
SCALE
  5
55
102
{ACAD_REACTORS
330
47
102
}
330
47
100
AcDbScale
 70
     0
300
4:1
140
4.0
141
1.0
290
     0
  0
SCALE
  5
56
102
{ACAD_REACTORS
330
47
102
}
330
47
100
AcDbScale
 70
     0
300
8:1
140
8.0
141
1.0
290
     0
  0
SCALE
  5
57
102
{ACAD_REACTORS
330
47
102
}
330
47
100
AcDbScale
 70
     0
300
10:1
140
10.0
141
1.0
290
     0
  0
SCALE
  5
58
102
{ACAD_REACTORS
330
47
102
}
330
47
100
AcDbScale
 70
     0
300
100:1
140
100.0
141
1.0
290
     0
  0
SCALE
  5
59
102
{ACAD_REACTORS
330
47
102
}
330
47
100
AcDbScale
 70
     0
300
1/128" = 1'-0"
140
0.0078125
141
12.0
290
     0
  0
SCALE
  5
5A
102
{ACAD_REACTORS
330
47
102
}
330
47
100
AcDbScale
 70
     0
300
1/64" = 1'-0"
140
0.015625
141
12.0
290
     0
  0
SCALE
  5
5B
102
{ACAD_REACTORS
330
47
102
}
330
47
100
AcDbScale
 70
     0
300
1/32" = 1'-0"
140
0.03125
141
12.0
290
     0
  0
SCALE
  5
5C
102
{ACAD_REACTORS
330
47
102
}
330
47
100
AcDbScale
 70
     0
300
1/16" = 1'-0"
140
0.0625
141
12.0
290
     0
  0
SCALE
  5
5D
102
{ACAD_REACTORS
330
47
102
}
330
47
100
AcDbScale
 70
     0
300
3/32" = 1'-0"
140
0.09375
141
12.0
290
     0
  0
SCALE
  5
5E
102
{ACAD_REACTORS
330
47
102
}
330
47
100
AcDbScale
 70
     0
300
1/8" = 1'-0"
140
0.125
141
12.0
290
     0
  0
SCALE
  5
5F
102
{ACAD_REACTORS
330
47
102
}
330
47
100
AcDbScale
 70
     0
300
3/16" = 1'-0"
140
0.1875
141
12.0
290
     0
  0
SCALE
  5
60
102
{ACAD_REACTORS
330
47
102
}
330
47
100
AcDbScale
 70
     0
300
1/4" = 1'-0"
140
0.25
141
12.0
290
     0
  0
SCALE
  5
61
102
{ACAD_REACTORS
330
47
102
}
330
47
100
AcDbScale
 70
     0
300
3/8" = 1'-0"
140
0.375
141
12.0
290
     0
  0
SCALE
  5
62
102
{ACAD_REACTORS
330
47
102
}
330
47
100
AcDbScale
 70
     0
300
1/2" = 1'-0"
140
0.5
141
12.0
290
     0
  0
SCALE
  5
63
102
{ACAD_REACTORS
330
47
102
}
330
47
100
AcDbScale
 70
     0
300
3/4" = 1'-0"
140
0.75
141
12.0
290
     0
  0
SCALE
  5
64
102
{ACAD_REACTORS
330
47
102
}
330
47
100
AcDbScale
 70
     0
300
1" = 1'-0"
140
1.0
141
12.0
290
     0
  0
SCALE
  5
65
102
{ACAD_REACTORS
330
47
102
}
330
47
100
AcDbScale
 70
     0
300
1-1/2" = 1'-0"
140
1.5
141
12.0
290
     0
  0
SCALE
  5
66
102
{ACAD_REACTORS
330
47
102
}
330
47
100
AcDbScale
 70
     0
300
3" = 1'-0"
140
3.0
141
12.0
290
     0
  0
SCALE
  5
67
102
{ACAD_REACTORS
330
47
102
}
330
47
100
AcDbScale
 70
     0
300
6" = 1'-0"
140
6.0
141
12.0
290
     0
  0
SCALE
  5
68
102
{ACAD_REACTORS
330
47
102
}
330
47
100
AcDbScale
 70
     0
300
1'-0" = 1'-0"
140
12.0
141
12.0
290
     0
  0
ENDSEC
  0
EOF
