  0
SECTION
  2
HEADER
  9
$ACADVER
  1
AC1024
  9
$ACADMAINTVER
 70
     6
  9
$DWGCODEPAGE
  3
ANSI_1252
  9
$INSBASE
 10
0.0
 20
0.0
 30
0.0
  9
$EXTMIN
 10
0.0
 20
0.0
 30
0.0
  9
$EXTMAX
 10
594.0
 20
841.0
 30
0.0
  9
$LIMMIN
 10
0.0
 20
0.0
  9
$LIMMAX
 10
594.0
 20
841.0
  9
$ORTHOMODE
 70
     0
  9
$REGENMODE
 70
     1
  9
$FILLMODE
 70
     1
  9
$QTEXTMODE
 70
     0
  9
$MIRRTEXT
 70
     1
  9
$LTSCALE
 40
1.0
  9
$ATTMODE
 70
     1
  9
$TEXTSIZE
 40
10.0
  9
$TRACEWID
 40
1.0
  9
$TEXTSTYLE
  7
Standard
  9
$CLAYER
  8
0
  9
$CELTYPE
  6
ByLayer
  9
$CECOLOR
 62
   256
  9
$CELTSCALE
 40
1.0
  9
$DISPSILH
 70
     0
  9
$DIMSCALE
 40
1.0
  9
$DIMASZ
 40
2.5
  9
$DIMEXO
 40
0.0
  9
$DIMDLI
 40
3.75
  9
$DIMRND
 40
0.0
  9
$DIMDLE
 40
0.0
  9
$DIMEXE
 40
1.0
  9
$DIMTP
 40
0.0
  9
$DIMTM
 40
0.0
  9
$DIMTXT
 40
3.5
  9
$DIMCEN
 40
2.5
  9
$DIMTSZ
 40
0.0
  9
$DIMTOL
 70
     0
  9
$DIMLIM
 70
     0
  9
$DIMTIH
 70
     1
  9
$DIMTOH
 70
     1
  9
$DIMSE1
 70
     0
  9
$DIMSE2
 70
     0
  9
$DIMTAD
 70
     1
  9
$DIMZIN
 70
     0
  9
$DIMBLK
  1

  9
$DIMASO
 70
     1
  9
$DIMSHO
 70
     1
  9
$DIMPOST
  1

  9
$DIMAPOST
  1

  9
$DIMALT
 70
     0
  9
$DIMALTD
 70
     3
  9
$DIMALTF
 40
0.0393700787
  9
$DIMLFAC
 40
1.0
  9
$DIMTOFL
 70
     1
  9
$DIMTVP
 40
0.0
  9
$DIMTIX
 70
     0
  9
$DIMSOXD
 70
     0
  9
$DIMSAH
 70
     0
  9
$DIMBLK1
  1

  9
$DIMBLK2
  1

  9
$DIMSTYLE
  2
ISO-25
  9
$DIMCLRD
 70
     0
  9
$DIMCLRE
 70
     0
  9
$DIMCLRT
 70
     0
  9
$DIMTFAC
 40
1.0
  9
$DIMGAP
 40
1.5
  9
$DIMJUST
 70
     0
  9
$DIMSD1
 70
     0
  9
$DIMSD2
 70
     0
  9
$DIMTOLJ
 70
     0
  9
$DIMTZIN
 70
     0
  9
$DIMALTZ
 70
     0
  9
$DIMALTTZ
 70
     0
  9
$DIMUPT
 70
     0
  9
$DIMDEC
 70
     2
  9
$DIMTDEC
 70
     2
  9
$DIMALTU
 70
     2
  9
$DIMALTTD
 70
     3
  9
$DIMTXSTY
  7
Standard
  9
$DIMAUNIT
 70
     0
  9
$DIMADEC
 70
     2
  9
$DIMALTRND
 40
0.0
  9
$DIMAZIN
 70
     0
  9
$DIMDSEP
 70
    44
  9
$DIMATFIT
 70
     3
  9
$DIMFRAC
 70
     0
  9
$DIMLDRBLK
  1

  9
$DIMLUNIT
 70
     2
  9
$DIMLWD
 70
    -2
  9
$DIMLWE
 70
    -2
  9
$DIMTMOVE
 70
     0
  9
$DIMFXL
 40
1.0
  9
$DIMFXLON
 70
     0
  9
$DIMJOGANG
 40
0.7853981634
  9
$DIMTFILL
 70
     0
  9
$DIMTFILLCLR
 70
     0
  9
$DIMARCSYM
 70
     0
  9
$DIMLTYPE
  6

  9
$DIMLTEX1
  6

  9
$DIMLTEX2
  6

  9
$DIMTXTDIRECTION
 70
     0
  9
$LUNITS
 70
     2
  9
$LUPREC
 70
     2
  9
$SKETCHINC
 40
1.0
  9
$FILLETRAD
 40
10.0
  9
$AUNITS
 70
     0
  9
$AUPREC
 70
     2
  9
$MENU
  1
.
  9
$ELEVATION
 40
0.0
  9
$PELEVATION
 40
0.0
  9
$THICKNESS
 40
0.0
  9
$LIMCHECK
 70
     0
  9
$CHAMFERA
 40
10.0
  9
$CHAMFERB
 40
10.0
  9
$CHAMFERC
 40
20.0
  9
$CHAMFERD
 40
0.0
  9
$SKPOLY
 70
     0
  9
$TDCREATE
 40
2456359.366668819
  9
$TDUCREATE
 40
2456359.325002153
  9
$TDUPDATE
 40
2456359.366671713
  9
$TDUUPDATE
 40
2456359.325005046
  9
$TDINDWG
 40
0.0000000116
  9
$TDUSRTIMER
 40
0.0000000116
  9
$USRTIMER
 70
     1
  9
$ANGBASE
 50
0.0
  9
$ANGDIR
 70
     0
  9
$PDMODE
 70
     0
  9
$PDSIZE
 40
-1.0
  9
$PLINEWID
 40
0.0
  9
$SPLFRAME
 70
     0
  9
$SPLINETYPE
 70
     6
  9
$SPLINESEGS
 70
     8
  9
$HANDSEED
  5
156
  9
$SURFTAB1
 70
     6
  9
$SURFTAB2
 70
     6
  9
$SURFTYPE
 70
     6
  9
$SURFU
 70
     6
  9
$SURFV
 70
     6
  9
$UCSBASE
  2

  9
$UCSNAME
  2

  9
$UCSORG
 10
0.0
 20
0.0
 30
0.0
  9
$UCSXDIR
 10
1.0
 20
0.0
 30
0.0
  9
$UCSYDIR
 10
0.0
 20
1.0
 30
0.0
  9
$UCSORTHOREF
  2

  9
$UCSORTHOVIEW
 70
     0
  9
$UCSORGTOP
 10
0.0
 20
0.0
 30
0.0
  9
$UCSORGBOTTOM
 10
0.0
 20
0.0
 30
0.0
  9
$UCSORGLEFT
 10
0.0
 20
0.0
 30
0.0
  9
$UCSORGRIGHT
 10
0.0
 20
0.0
 30
0.0
  9
$UCSORGFRONT
 10
0.0
 20
0.0
 30
0.0
  9
$UCSORGBACK
 10
0.0
 20
0.0
 30
0.0
  9
$PUCSBASE
  2

  9
$PUCSNAME
  2

  9
$PUCSORG
 10
0.0
 20
0.0
 30
0.0
  9
$PUCSXDIR
 10
1.0
 20
0.0
 30
0.0
  9
$PUCSYDIR
 10
0.0
 20
1.0
 30
0.0
  9
$PUCSORTHOREF
  2

  9
$PUCSORTHOVIEW
 70
     0
  9
$PUCSORGTOP
 10
0.0
 20
0.0
 30
0.0
  9
$PUCSORGBOTTOM
 10
0.0
 20
0.0
 30
0.0
  9
$PUCSORGLEFT
 10
0.0
 20
0.0
 30
0.0
  9
$PUCSORGRIGHT
 10
0.0
 20
0.0
 30
0.0
  9
$PUCSORGFRONT
 10
0.0
 20
0.0
 30
0.0
  9
$PUCSORGBACK
 10
0.0
 20
0.0
 30
0.0
  9
$USERI1
 70
     0
  9
$USERI2
 70
     0
  9
$USERI3
 70
     0
  9
$USERI4
 70
     0
  9
$USERI5
 70
     0
  9
$USERR1
 40
0.0
  9
$USERR2
 40
0.0
  9
$USERR3
 40
0.0
  9
$USERR4
 40
0.0
  9
$USERR5
 40
0.0
  9
$WORLDVIEW
 70
     1
  9
$SHADEDGE
 70
     3
  9
$SHADEDIF
 70
    70
  9
$TILEMODE
 70
     1
  9
$MAXACTVP
 70
    64
  9
$PINSBASE
 10
0.0
 20
0.0
 30
0.0
  9
$PLIMCHECK
 70
     0
  9
$PEXTMIN
 10
1.0000000000E+20
 20
1.0000000000E+20
 30
1.0000000000E+20
  9
$PEXTMAX
 10
-1.0000000000E+20
 20
-1.0000000000E+20
 30
-1.0000000000E+20
  9
$PLIMMIN
 10
0.0
 20
0.0
  9
$PLIMMAX
 10
420.0
 20
297.0
  9
$UNITMODE
 70
     0
  9
$VISRETAIN
 70
     1
  9
$PLINEGEN
 70
     0
  9
$PSLTSCALE
 70
     1
  9
$TREEDEPTH
 70
  3020
  9
$CMLSTYLE
  2
Standard
  9
$CMLJUST
 70
     0
  9
$CMLSCALE
 40
20.0
  9
$PROXYGRAPHICS
 70
     1
  9
$MEASUREMENT
 70
     1
  9
$CELWEIGHT
370
    -1
  9
$ENDCAPS
280
     0
  9
$JOINSTYLE
280
     0
  9
$LWDISPLAY
290
     1
  9
$INSUNITS
 70
     4
  9
$HYPERLINKBASE
  1

  9
$STYLESHEET
  1

  9
$XEDIT
290
     1
  9
$CEPSNTYPE
380
     0
  9
$PSTYLEMODE
290
     1
  9
$FINGERPRINTGUID
  2
{7CBFC209-1E3B-483C-AE27-A0FD6CF671BB}
  9
$VERSIONGUID
  2
{FAEB1C32-E019-11D5-929B-00C0DF256EC4}
  9
$EXTNAMES
290
     1
  9
$PSVPSCALE
 40
0.0
  9
$OLESTARTUP
290
     0
  9
$SORTENTS
280
   127
  9
$INDEXCTL
280
     0
  9
$HIDETEXT
280
     1
  9
$XCLIPFRAME
280
     2
  9
$HALOGAP
280
     0
  9
$OBSCOLOR
 70
   257
  9
$OBSLTYPE
280
     0
  9
$INTERSECTIONDISPLAY
280
     0
  9
$INTERSECTIONCOLOR
 70
   257
  9
$DIMASSOC
280
     2
  9
$PROJECTNAME
  1

  9
$CAMERADISPLAY
290
     0
  9
$LENSLENGTH
 40
50.0
  9
$CAMERAHEIGHT
 40
0.0
  9
$STEPSPERSEC
 40
2.0
  9
$STEPSIZE
 40
6.0
  9
$3DDWFPREC
 40
2.0
  9
$PSOLWIDTH
 40
5.0
  9
$PSOLHEIGHT
 40
80.0
  9
$LOFTANG1
 40
1.5707963268
  9
$LOFTANG2
 40
1.5707963268
  9
$LOFTMAG1
 40
0.0
  9
$LOFTMAG2
 40
0.0
  9
$LOFTPARAM
 70
     7
  9
$LOFTNORMALS
280
     1
  9
$LATITUDE
 40
37.795
  9
$LONGITUDE
 40
-122.394
  9
$NORTHDIRECTION
 40
0.0
  9
$TIMEZONE
 70
 -8000
  9
$LIGHTGLYPHDISPLAY
280
     1
  9
$TILEMODELIGHTSYNCH
280
     1
  9
$SOLIDHIST
280
     1
  9
$SHOWHIST
280
     1
  9
$DWFFRAME
280
     2
  9
$DGNFRAME
280
     2
  9
$REALWORLDSCALE
290
     1
  9
$INTERFERECOLOR
 62
   256
  9
$CSHADOW
280
     0
  9
$SHADOWPLANELOCATION
 40
0.0
  0
ENDSEC
  0
SECTION
  2
CLASSES
  0
CLASS
  1
ACDBDICTIONARYWDFLT
  2
AcDbDictionaryWithDefault
  3
ObjectDBX Classes
 90
        0
 91
        4
280
     0
281
     0
  0
CLASS
  1
VISUALSTYLE
  2
AcDbVisualStyle
  3
ObjectDBX Classes
 90
     4095
 91
        4
280
     0
281
     0
  0
CLASS
  1
MATERIAL
  2
AcDbMaterial
  3
ObjectDBX Classes
 90
     1153
 91
        4
280
     0
281
     0
  0
ENDSEC
  0
SECTION
  2
TABLES
  0
TABLE
  2
VPORT
  5
8
330
0
100
AcDbSymbolTable
 70
     1
  0
VPORT
  5
29
330
8
100
AcDbSymbolTableRecord
100
AcDbViewportTableRecord
  2
*Active
 70
     0
 10
0.0
 20
0.0
 11
1.0
 21
1.0
 12
297.0
 22
420.5
 13
0.0
 23
0.0
 14
10.0
 24
10.0
 15
10.0
 25
10.0
 16
0.0
 26
0.0
 36
1.0
 17
0.0
 27
0.0
 37
0.0
 40
841.0
 41
0.7063020214
 42
50.0
 43
0.0
 44
0.0
 50
0.0
 51
0.0
 71
     0
 72
  2000
 73
     1
 74
     3
 75
     0
 76
     0
 77
     0
 78
     0
281
     0
 65
     1
110
0.0
120
0.0
130
0.0
111
1.0
121
0.0
131
0.0
112
0.0
122
1.0
132
0.0
 79
     0
146
0.0
 60
     3
 61
     5
292
     1
282
     1
141
0.0
142
0.0
 63
   250
  0
ENDTAB
  0
TABLE
  2
LTYPE
  5
5
330
0
100
AcDbSymbolTable
 70
     6
  0
LTYPE
  5
14
330
5
100
AcDbSymbolTableRecord
100
AcDbLinetypeTableRecord
  2
ByBlock
 70
     0
  3

 72
    65
 73
     0
 40
0.0
  0
LTYPE
  5
15
330
5
100
AcDbSymbolTableRecord
100
AcDbLinetypeTableRecord
  2
ByLayer
 70
     0
  3

 72
    65
 73
     0
 40
0.0
  0
LTYPE
  5
16
330
5
100
AcDbSymbolTableRecord
100
AcDbLinetypeTableRecord
  2
Continuous
 70
     0
  3
Solid line
 72
    65
 73
     0
 40
0.0
  0
LTYPE
  5
3F
330
5
100
AcDbSymbolTableRecord
100
AcDbLinetypeTableRecord
  2
HIDDEN
 70
     0
  3
Hidden __ __ __ __ __ __ __ __ __ __ __ __ __ __
 72
    65
 73
     2
 40
1.905
 49
1.27
 74
     0
 49
-0.635
 74
     0
  0
LTYPE
  5
40
330
5
100
AcDbSymbolTableRecord
100
AcDbLinetypeTableRecord
  2
PHANTOM
 70
     0
  3
Phantom ______  __  __  ______  __  __  ______
 72
    65
 73
     6
 40
12.7
 49
6.35
 74
     0
 49
-1.27
 74
     0
 49
1.27
 74
     0
 49
-1.27
 74
     0
 49
1.27
 74
     0
 49
-1.27
 74
     0
  0
LTYPE
  5
41
330
5
100
AcDbSymbolTableRecord
100
AcDbLinetypeTableRecord
  2
CENTER
 70
     0
  3
Center ____ _ ____ _ ____ _ ____ _ ____ _ ____
 72
    65
 73
     4
 40
10.16
 49
6.35
 74
     0
 49
-1.27
 74
     0
 49
1.27
 74
     0
 49
-1.27
 74
     0
  0
LTYPE
  5
42
330
5
100
AcDbSymbolTableRecord
100
AcDbLinetypeTableRecord
  2
CENTERX2
 70
     0
  3
Center (2x) ________  __  ________  __  _____
 72
    65
 73
     4
 40
20.32
 49
12.7
 74
     0
 49
-2.54
 74
     0
 49
2.54
 74
     0
 49
-2.54
 74
     0
  0
LTYPE
  5
43
330
5
100
AcDbSymbolTableRecord
100
AcDbLinetypeTableRecord
  2
DOT2
 70
     0
  3
Dot (.5x) ........................................
 72
    65
 73
     2
 40
0.635
 49
0.0
 74
     0
 49
-0.635
 74
     0
  0
ENDTAB
  0
TABLE
  2
LAYER
  5
2
330
0
100
AcDbSymbolTable
 70
     1
  0
LAYER
  5
10
330
2
100
AcDbSymbolTableRecord
100
AcDbLayerTableRecord
  2
0
 70
     0
 62
     7
  6
Continuous
370
    -3
390
F
347
3E
  0
ENDTAB
  0
TABLE
  2
STYLE
  5
3
330
0
100
AcDbSymbolTable
 70
     3
  0
STYLE
  5
11
330
3
100
AcDbSymbolTableRecord
100
AcDbTextStyleTableRecord
  2
Standard
 70
     0
 40
0.0
 41
1.0
 50
0.0
 71
     0
 42
10.0
  3
txt
  4

  0
STYLE
  5
47
330
3
100
AcDbSymbolTableRecord
100
AcDbTextStyleTableRecord
  2
SLDTEXTSTYLE0
 70
     0
 40
0.0
 41
0.96
 50
0.0
 71
     0
 42
0.2
  3
ISOCP3
  4

  0
STYLE
  5
5E
330
3
100
AcDbSymbolTableRecord
100
AcDbTextStyleTableRecord
  2
SLDTEXTSTYLE1
 70
     0
 40
0.0
 41
0.605
 50
0.0
 71
     0
 42
0.2
  3
TXT
  4

  0
ENDTAB
  0
TABLE
  2
VIEW
  5
6
330
0
100
AcDbSymbolTable
 70
     0
  0
ENDTAB
  0
TABLE
  2
UCS
  5
7
330
0
100
AcDbSymbolTable
 70
     0
  0
ENDTAB
  0
TABLE
  2
APPID
  5
9
330
0
100
AcDbSymbolTable
 70
     1
  0
APPID
  5
12
330
9
100
AcDbSymbolTableRecord
100
AcDbRegAppTableRecord
  2
ACAD
 70
     0
  0
ENDTAB
  0
TABLE
  2
DIMSTYLE
  5
A
330
0
100
AcDbSymbolTable
 70
     2
100
AcDbDimStyleTable
  0
DIMSTYLE
105
27
330
A
100
AcDbSymbolTableRecord
100
AcDbDimStyleTableRecord
  2
ISO-25
 70
     0
 41
2.5
 42
0.625
 43
3.75
 44
1.25
 73
     0
 74
     0
 77
     1
 78
     8
140
2.5
141
2.5
143
0.0393700787
147
0.625
171
     3
172
     1
178
     0
271
     2
272
     2
274
     3
278
    44
283
     0
284
     8
340
11
  0
DIMSTYLE
105
48
102
{ACAD_REACTORS
330
46
330
53
102
}
330
A
100
AcDbSymbolTableRecord
100
AcDbDimStyleTableRecord
  2
SLDDIMSTYLE0
 70
     0
 41
2.5
 44
0.0
 45
0.000000001
 73
     0
 74
     0
 77
     1
 78
    12
 79
     3
140
6.0
147
1.5
173
     1
178
     0
271
     2
272
     2
276
     2
284
    12
340
47
  0
ENDTAB
  0
TABLE
  2
BLOCK_RECORD
  5
1
330
0
100
AcDbSymbolTable
 70
     3
  0
BLOCK_RECORD
  5
1F
330
1
100
AcDbSymbolTableRecord
100
AcDbBlockTableRecord
  2
*Model_Space
340
22
 70
     0
280
     1
281
     0
  0
BLOCK_RECORD
  5
1B
330
1
100
AcDbSymbolTableRecord
100
AcDbBlockTableRecord
  2
*Paper_Space
340
1E
 70
     0
280
     1
281
     0
  0
BLOCK_RECORD
  5
23
330
1
100
AcDbSymbolTableRecord
100
AcDbBlockTableRecord
  2
*Paper_Space0
340
26
 70
     0
280
     1
281
     0
  0
BLOCK_RECORD
  5
49
330
1
100
AcDbSymbolTableRecord
100
AcDbBlockTableRecord
  2
_D
340
0
 70
     0
280
     1
281
     0
  0
BLOCK_RECORD
  5
54
330
1
100
AcDbSymbolTableRecord
100
AcDbBlockTableRecord
  2
_D_1
340
0
 70
     0
280
     1
281
     0
  0
ENDTAB
  0
ENDSEC
  0
SECTION
  2
BLOCKS
  0
BLOCK
  5
20
330
1F
100
AcDbEntity
  8
0
100
AcDbBlockBegin
  2
*Model_Space
 70
     0
 10
0.0
 20
0.0
 30
0.0
  3
*Model_Space
  1

  0
ENDBLK
  5
21
330
1F
100
AcDbEntity
  8
0
100
AcDbBlockEnd
  0
BLOCK
  5
1C
330
1B
100
AcDbEntity
 67
     1
  8
0
100
AcDbBlockBegin
  2
*Paper_Space
 70
     0
 10
0.0
 20
0.0
 30
0.0
  3
*Paper_Space
  1

  0
ENDBLK
  5
1D
330
1B
100
AcDbEntity
 67
     1
  8
0
100
AcDbBlockEnd
  0
BLOCK
  5
24
330
23
100
AcDbEntity
  8
0
100
AcDbBlockBegin
  2
*Paper_Space0
 70
     0
 10
0.0
 20
0.0
 30
0.0
  3
*Paper_Space0
  1

  0
ENDBLK
  5
25
330
23
100
AcDbEntity
  8
0
100
AcDbBlockEnd
  0
BLOCK
  5
4A
330
49
100
AcDbEntity
  8
0
100
AcDbBlockBegin
  2
_D
 70
     0
 10
0.0
 20
0.0
 30
0.0
  3
_D
  1

  0
SOLID
  5
4C
330
49
100
AcDbEntity
  8
0
  6
Continuous
 62
     7
370
     0
100
AcDbTrace
 10
42.7614395004
 20
152.0299240879
 30
0.0
 11
42.4614395004
 21
149.5299240879
 31
0.0
 12
43.0614395004
 22
149.5299240879
 32
0.0
 13
43.0614395004
 23
149.5299240879
 33
0.0
  0
SOLID
  5
4D
330
49
100
AcDbEntity
  8
0
  6
Continuous
 62
     7
370
     0
100
AcDbTrace
 10
42.7614395004
 20
52.0299240879
 30
0.0
 11
43.0614395004
 21
54.5299240879
 31
0.0
 12
42.4614395004
 22
54.5299240879
 32
0.0
 13
42.4614395004
 23
54.5299240879
 33
0.0
  0
LINE
  5
4E
330
49
100
AcDbEntity
  8
0
  6
Continuous
 62
     7
370
     0
100
AcDbLine
 10
56.6850079902
 20
152.0299240879
 30
0.0
 11
41.7614395004
 21
152.0299240879
 31
0.0
  0
LINE
  5
4F
330
49
100
AcDbEntity
  8
0
  6
Continuous
 62
     7
370
     0
100
AcDbLine
 10
56.6850079902
 20
52.0299240879
 30
0.0
 11
41.7614395004
 21
52.0299240879
 31
0.0
  0
LINE
  5
50
330
49
100
AcDbEntity
  8
0
  6
Continuous
 62
     7
370
     0
100
AcDbLine
 10
42.7614395004
 20
152.0299240879
 30
0.0
 11
42.7614395004
 21
52.0299240879
 31
0.0
  0
MTEXT
  5
51
330
49
100
AcDbEntity
  8
0
  6
Continuous
 62
     7
370
     0
100
AcDbMText
 10
35.0270332946
 20
91.6722208134
 30
0.1
 40
6.0
 41
0.0
 46
0.0
 71
     1
 72
     1
  1
100
  7
SLDTEXTSTYLE0
 11
-7.044195017643634E-15
 21
1.0
 31
0.0
 73
     1
 44
1.0
  0
MTEXT
  5
52
330
49
100
AcDbEntity
  8
0
  6
Continuous
 62
     7
370
     0
100
AcDbMText
 10
35.0270332946
 20
108.4388881795
 30
0.1
 40
6.0
 41
0.0
 46
0.0
 71
     1
 72
     1
  1
mm
  7
SLDTEXTSTYLE0
 11
-7.044195017643634E-15
 21
1.0
 31
0.0
 73
     1
 44
1.0
  0
ENDBLK
  5
4B
330
49
100
AcDbEntity
  8
0
100
AcDbBlockEnd
  0
BLOCK
  5
55
330
54
100
AcDbEntity
  8
0
100
AcDbBlockBegin
  2
_D_1
 70
     0
 10
0.0
 20
0.0
 30
0.0
  3
_D_1
  1

  0
SOLID
  5
57
330
54
100
AcDbEntity
  8
0
  6
Continuous
 62
     7
370
     0
100
AcDbTrace
 10
56.6850079902
 20
38.4602342313
 30
0.0
 11
59.1850079902
 21
38.1602342313
 31
0.0
 12
59.1850079902
 22
38.7602342313
 32
0.0
 13
59.1850079902
 23
38.7602342313
 33
0.0
  0
SOLID
  5
58
330
54
100
AcDbEntity
  8
0
  6
Continuous
 62
     7
370
     0
100
AcDbTrace
 10
156.6850079902
 20
38.4602342313
 30
0.0
 11
154.1850079902
 21
38.7602342313
 31
0.0
 12
154.1850079902
 22
38.1602342313
 32
0.0
 13
154.1850079902
 23
38.1602342313
 33
0.0
  0
LINE
  5
59
330
54
100
AcDbEntity
  8
0
  6
Continuous
 62
     7
370
     0
100
AcDbLine
 10
56.6850079902
 20
52.0299240879
 30
0.0
 11
56.6850079902
 21
37.4602342313
 31
0.0
  0
LINE
  5
5A
330
54
100
AcDbEntity
  8
0
  6
Continuous
 62
     7
370
     0
100
AcDbLine
 10
156.6850079902
 20
52.0299240879
 30
0.0
 11
156.6850079902
 21
37.4602342313
 31
0.0
  0
LINE
  5
5B
330
54
100
AcDbEntity
  8
0
  6
Continuous
 62
     7
370
     0
100
AcDbLine
 10
56.6850079902
 20
38.4602342313
 30
0.0
 11
156.6850079902
 21
38.4602342313
 31
0.0
  0
MTEXT
  5
5C
330
54
100
AcDbEntity
  8
0
  6
Continuous
 62
     7
370
     0
100
AcDbMText
 10
91.2668151533
 20
46.1946404371
 30
0.1
 40
6.0
 41
0.0
 46
0.0
 71
     1
 72
     1
  1
100
  7
SLDTEXTSTYLE0
 73
     1
 44
1.0
  0
MTEXT
  5
5D
330
54
100
AcDbEntity
  8
0
  6
Continuous
 62
     7
370
     0
100
AcDbMText
 10
108.0334825193
 20
46.1946404371
 30
0.1
 40
6.0
 41
0.0
 46
0.0
 71
     1
 72
     1
  1
mm
  7
SLDTEXTSTYLE0
 73
     1
 44
1.0
  0
ENDBLK
  5
56
330
54
100
AcDbEntity
  8
0
100
AcDbBlockEnd
  0
ENDSEC
  0
SECTION
  2
ENTITIES
  0
LINE
  5
44
330
1F
100
AcDbEntity
  8
0
  6
Continuous
 62
     7
370
     0
100
AcDbLine
 10
56.6850079902
 20
152.0299240879
 30
0.0
 11
56.6850079902
 21
52.0299240879
 31
0.0
  0
LINE
  5
45
330
1F
100
AcDbEntity
  8
0
  6
Continuous
 62
     7
370
     0
100
AcDbLine
 10
56.6850079902
 20
52.0299240879
 30
0.0
 11
156.6850079902
 21
52.0299240879
 31
0.0
  0
DIMENSION
  5
46
330
1F
100
AcDbEntity
  8
0
  6
Continuous
 62
     7
370
     0
100
AcDbDimension
280
     0
  2
_D
 10
42.7614395004
 20
52.0299240879
 30
0.0
 11
42.7614395004
 21
105.4472211621
 31
0.0
 70
   160
  1
<>mm
 71
     2
 42
-1.0
 73
     0
 74
     0
 75
     0
  3
SLDDIMSTYLE0
100
AcDbAlignedDimension
 13
56.6850079902
 23
152.0299240879
 33
0.0
 14
56.6850079902
 24
52.0299240879
 34
0.0
 50
90.0
100
AcDbRotatedDimension
  0
DIMENSION
  5
53
330
1F
100
AcDbEntity
  8
0
  6
Continuous
 62
     7
370
     0
100
AcDbDimension
280
     0
  2
_D_1
 10
156.6850079902
 20
38.4602342313
 30
0.0
 11
105.0418155019
 21
38.4602342313
 31
0.0
 70
   160
  1
<>mm
 71
     2
 42
-1.0
 73
     0
 74
     0
 75
     0
  3
SLDDIMSTYLE0
100
AcDbAlignedDimension
 13
56.6850079902
 23
52.0299240879
 33
0.0
 14
156.6850079902
 24
52.0299240879
 34
0.0
100
AcDbRotatedDimension
  0
MTEXT
  5
5F
330
1F
100
AcDbEntity
  8
0
  6
Continuous
 62
     7
370
     0
100
AcDbMText
 10
294.0968106502
 20
47.1123446555
 30
0.0
 40
10.0
 41
0.0
 46
0.0
 71
     1
 72
     1
  1
32 578 05 75
  7
SLDTEXTSTYLE1
 73
     1
 44
1.0
  0
MTEXT
  5
60
330
1F
100
AcDbEntity
  8
0
  6
Continuous
 62
     7
370
     0
100
AcDbMText
 10
412.8252631579
 20
48.4342449499
 30
0.0
 40
10.0
 41
0.0
 46
0.0
 71
     1
 72
     1
  1
KLUDI GmbH & Co KG
  7
SLDTEXTSTYLE1
 73
     1
 44
1.0
  0
SPLINE
  5
61
330
1F
100
AcDbEntity
  8
0
  6
Continuous
 62
     7
370
    15
100
AcDbSpline
210
0.0
220
0.0
230
1.0
 70
     8
 71
     3
 72
    21
 73
    17
 74
     0
 42
0.00000001
 43
0.00000001
 12
1.0
 22
0.0
 32
0.0
 13
1.0
 23
0.0
 33
0.0
 40
0.0
 40
0.0
 40
0.0
 40
0.0
 40
0.1163860319882616
 40
0.2111691609355229
 40
0.2852468186169683
 40
0.3380997158491729
 40
0.3853916929404114
 40
0.4291366621499603
 40
0.4752015326290326
 40
0.5404050777465592
 40
0.6250548830513918
 40
0.7020507500646809
 40
0.7898552501063353
 40
0.8546116690574891
 40
0.9242527945124662
 40
1.0
 40
1.0
 40
1.0
 40
1.0
 10
192.3454739739564
 20
564.6149437679487
 30
0.0
 10
192.3001211927009
 20
565.1643810290083
 30
0.0
 10
192.2178337515003
 20
566.1612721801419
 30
0.0
 10
192.0763995443662
 20
567.5248398693413
 30
0.0
 10
191.6711820488202
 20
568.5922726701039
 30
0.0
 10
191.0855519482426
 20
569.4715283533408
 30
0.0
 10
190.4794604826875
 20
570.1372653554586
 30
0.0
 10
189.8102378695882
 20
570.7231428589891
 30
0.0
 10
188.9733190760233
 20
571.323288397085
 30
0.0
 10
187.7756137553778
 20
572.0113093621959
 30
0.0
 10
186.1617169468564
 20
572.706576362398
 30
0.0
 10
184.1614288596548
 20
573.3377361968371
 30
0.0
 10
182.1467546874014
 20
573.7884604896076
 30
0.0
 10
180.0889404413488
 20
574.0968578590855
 30
0.0
 10
178.0832895346191
 20
574.2973281920636
 30
0.0
 10
176.6700504289465
 20
574.3374185831219
 30
0.0
 10
175.9337539720958
 20
574.3583056451708
 30
0.0
  0
SPLINE
  5
62
330
1F
100
AcDbEntity
  8
0
  6
Continuous
 62
     7
370
    15
100
AcDbSpline
210
0.0
220
0.0
230
1.0
 70
     8
 71
     3
 72
    21
 73
    17
 74
     0
 42
0.00000001
 43
0.00000001
 12
1.0
 22
0.0
 32
0.0
 13
1.0
 23
0.0
 33
0.0
 40
0.0
 40
0.0
 40
0.0
 40
0.0
 40
0.0929378112924578
 40
0.1768449833989514
 40
0.2532274595719089
 40
0.3225960042173872
 40
0.4027849282816452
 40
0.4696356633455843
 40
0.5267188734025687
 40
0.5641705117676191
 40
0.5971871557540781
 40
0.625996772560876
 40
0.6643902721406321
 40
0.7462899351338141
 40
0.8593706403961348
 40
1.0
 40
1.0
 40
1.0
 40
1.0
 10
175.9337539720958
 20
574.3582670226654
 30
0.0
 10
175.0316374924792
 20
574.329364676523
 30
0.0
 10
173.3150619497252
 20
574.2743683854263
 30
0.0
 10
170.9219046582328
 20
573.9912141515672
 30
0.0
 10
168.848186831543
 20
573.611719961648
 30
0.0
 10
166.9374711665282
 20
573.1168661133277
 30
0.0
 10
165.2628722151965
 20
572.5328211369441
 30
0.0
 10
163.8615552284645
 20
571.8848460767922
 30
0.0
 10
162.8820695374876
 20
571.310274900656
 30
0.0
 10
162.1858586371391
 20
570.8162873924713
 30
0.0
 10
161.69148271055
 20
570.4079144293189
 30
0.0
 10
161.2255832288868
 20
569.9630903254101
 30
0.0
 10
160.6284500782148
 20
569.2819026206961
 30
0.0
 10
159.9606823209992
 20
568.1874705794536
 30
0.0
 10
159.6861645822311
 20
566.5626413605595
 30
0.0
 10
159.5805614281179
 20
565.309474058403
 30
0.0
 10
159.5220264861049
 20
564.6148539404674
 30
0.0
  0
SPLINE
  5
63
330
1F
100
AcDbEntity
  8
0
  6
Continuous
 62
     7
370
    15
100
AcDbSpline
210
0.0
220
0.0
230
1.0
 70
     8
 71
     3
 72
     9
 73
     5
 74
     0
 42
0.00000001
 43
0.00000001
 12
1.0
 22
0.0
 32
0.0
 13
1.0
 23
0.0
 33
0.0
 40
0.0
 40
0.0
 40
0.0
 40
0.0
 40
0.5478655555117531
 40
0.9999999999999999
 40
0.9999999999999999
 40
0.9999999999999999
 40
0.9999999999999999
 10
159.5211424810555
 20
564.6033218911401
 30
0.0
 10
159.4797285250007
 20
564.0070636984524
 30
0.0
 10
159.4041370671364
 20
562.9187342959391
 30
0.0
 10
159.3329534854929
 20
561.8298736810489
 30
0.0
 10
159.3007689363498
 20
561.3375622918103
 30
0.0
  0
LINE
  5
64
330
1F
100
AcDbEntity
  8
0
  6
Continuous
 62
     7
370
    15
100
AcDbLine
 10
192.5571536227
 20
561.3076964943
 30
0.0
 11
192.3463440526
 21
564.6036138866
 31
0.0
  0
SPLINE
  5
65
330
1F
100
AcDbEntity
  8
0
  6
Continuous
 62
     7
370
    15
100
AcDbSpline
210
0.0
220
0.0
230
1.0
 70
     8
 71
     3
 72
    12
 73
     8
 74
     0
 42
0.00000001
 43
0.00000001
 12
1.0
 22
0.0
 32
0.0
 13
1.0
 23
0.0
 33
0.0
 40
0.0
 40
0.0
 40
0.0
 40
0.0
 40
0.3287279612962248
 40
0.5945443372643304
 40
0.7997377239451599
 40
0.95674194940825
 40
1.0
 40
1.0
 40
1.0
 40
1.0
 10
199.7401171521712
 20
539.0384901128878
 30
0.0
 10
199.0959227777838
 20
539.7445362453133
 30
0.0
 10
197.9308192195732
 20
541.0215062001224
 30
0.0
 10
196.2439401511965
 20
542.6825370128379
 30
0.0
 10
195.2061790393344
 20
544.0000266212282
 30
0.0
 10
194.7235866053443
 20
544.8113832690761
 30
0.0
 10
194.5356572483077
 20
545.2181784975869
 30
0.0
 10
194.4950631943775
 20
545.3060491086777
 30
0.0
  0
SPLINE
  5
66
330
1F
100
AcDbEntity
  8
0
  6
Continuous
 62
     7
370
    15
100
AcDbSpline
210
0.0
220
0.0
230
1.0
 70
     8
 71
     3
 72
    12
 73
     8
 74
     0
 42
0.00000001
 43
0.00000001
 12
1.0
 22
0.0
 32
0.0
 13
1.0
 23
0.0
 33
0.0
 40
0.0
 40
0.0
 40
0.0
 40
0.0
 40
0.0417135199502564
 40
0.2000019672490598
 40
0.406421398745906
 40
0.6720050334467159
 40
1.0
 40
1.0
 40
1.0
 40
1.0
 10
157.3727104250243
 20
545.311014125546
 30
0.0
 10
157.3344140051088
 20
545.2262216382718
 30
0.0
 10
157.1507958561052
 20
544.8196708537067
 30
0.0
 10
156.6693522153049
 20
544.0042971481329
 30
0.0
 10
155.6293789845136
 20
542.6803725143633
 30
0.0
 10
153.9319506629716
 20
541.0193228586978
 30
0.0
 10
152.7696060200933
 20
539.7434222327803
 30
0.0
 10
152.1273268148477
 20
539.0383951609839
 30
0.0
  0
LINE
  5
67
330
1F
100
AcDbEntity
  8
0
  6
Continuous
 62
     7
370
    15
100
AcDbLine
 10
149.9337539721
 20
533.3954032354
 30
0.0
 11
149.9337539721
 21
502.4064361915
 31
0.0
  0
LINE
  5
68
330
1F
100
AcDbEntity
  8
0
  6
Continuous
 62
     7
370
    15
100
AcDbLine
 10
201.9337539721
 20
502.4064361915
 30
0.0
 11
201.9337539721
 21
533.3898585472
 31
0.0
  0
LINE
  5
69
330
1F
100
AcDbEntity
  8
0
  6
Continuous
 62
     7
370
    15
100
AcDbLine
 10
201.8837539721
 20
490.4064361915
 30
0.0
 11
201.8271821067
 21
493.6474361915
 31
0.0
  0
LINE
  5
6A
330
1F
100
AcDbEntity
  8
0
  6
Continuous
 62
     7
370
    15
100
AcDbLine
 10
150.0403258375
 20
493.6474361915
 30
0.0
 11
149.9837539721
 21
490.4064361915
 31
0.0
  0
ARC
  5
6B
330
1F
100
AcDbEntity
  8
0
  6
Continuous
 62
     7
370
    15
100
AcDbCircle
 10
176.0363659116
 20
493.1936736242
 30
0.0
 40
26.00000000000003
100
AcDbArc
 50
159.2471825426
 51
179.0
  0
ARC
  5
6C
330
1F
100
AcDbEntity
  8
0
  6
Continuous
 62
     7
370
    15
100
AcDbCircle
 10
175.8311420326
 20
493.1936736242
 30
0.0
 40
26.00000000000003
100
AcDbArc
 50
1.0
 51
20.7528174574
  0
SPLINE
  5
6D
330
1F
100
AcDbEntity
  8
0
  6
Continuous
 62
     7
370
    15
100
AcDbSpline
210
0.0
220
0.0
230
1.0
 70
     8
 71
     3
 72
     9
 73
     5
 74
     0
 42
0.00000001
 43
0.00000001
 12
1.0
 22
0.0
 32
0.0
 13
1.0
 23
0.0
 33
0.0
 40
0.0
 40
0.0
 40
0.0
 40
0.0
 40
0.5010212971367517
 40
1.0
 40
1.0
 40
1.0
 40
1.0
 10
201.9331274219662
 20
533.3888376122053
 30
0.0
 10
201.8467456116951
 20
534.3506324362423
 30
0.0
 10
201.6743341578012
 20
536.2703009803411
 30
0.0
 10
200.3874746345342
 20
538.1125610516563
 30
0.0
 10
199.7453591388473
 20
539.0318095923778
 30
0.0
  0
SPLINE
  5
6E
330
1F
100
AcDbEntity
  8
0
  6
Continuous
 62
     7
370
    15
100
AcDbSpline
210
0.0
220
0.0
230
1.0
 70
     8
 71
     3
 72
     9
 73
     5
 74
     0
 42
0.00000001
 43
0.00000001
 12
1.0
 22
0.0
 32
0.0
 13
1.0
 23
0.0
 33
0.0
 40
0.0
 40
0.0
 40
0.0
 40
0.0
 40
0.4991316664634844
 40
1.0
 40
1.0
 40
1.0
 40
1.0
 10
152.1220980542573
 20
539.0317293351725
 30
0.0
 10
151.4801256993099
 20
538.112772686016
 30
0.0
 10
150.1939473257837
 20
536.2716619913814
 30
0.0
 10
150.0210645906503
 20
534.3528549776327
 30
0.0
 10
149.9344731032068
 20
533.3917853062782
 30
0.0
  0
LINE
  5
6F
330
1F
100
AcDbEntity
  8
0
  6
Continuous
 62
     7
370
    15
100
AcDbLine
 10
176.3638171355
 20
566.5438485975
 30
0.0
 11
175.9336707602
 21
566.550848344
 31
0.0
  0
SPLINE
  5
70
330
1F
100
AcDbEntity
  8
0
  6
Continuous
 62
     7
370
    15
100
AcDbSpline
210
0.0
220
0.0
230
1.0
 70
     8
 71
     3
 72
    22
 73
    18
 74
     0
 42
0.00000001
 43
0.00000001
 12
1.0
 22
0.0
 32
0.0
 13
1.0
 23
0.0
 33
0.0
 40
0.0
 40
0.0
 40
0.0
 40
0.0
 40
0.0679370129996819
 40
0.1417432326801633
 40
0.1849976010205308
 40
0.2296845617264547
 40
0.2718091492420047
 40
0.3379621661152334
 40
0.4093277444772789
 40
0.4860171854724458
 40
0.5651125676523464
 40
0.644124216003996
 40
0.7215495832026186
 40
0.7992393655760116
 40
0.8780275057230736
 40
0.9577442507872833
 40
0.9999999999999999
 40
0.9999999999999999
 40
0.9999999999999999
 40
0.9999999999999999
 10
193.9329164695031
 20
556.8661330929898
 30
0.0
 10
193.9191880328075
 20
557.1732822953633
 30
0.0
 10
193.8905451338788
 20
557.8141158989802
 30
0.0
 10
193.7367593130024
 20
558.7215740694988
 30
0.0
 10
193.5730982691813
 20
559.4621176976191
 30
0.0
 10
193.2984383174536
 20
560.2407824101119
 30
0.0
 10
192.8317824950625
 20
561.037720026322
 30
0.0
 10
192.111906953689
 20
561.9025008238967
 30
0.0
 10
191.0379448561126
 20
562.8124737332246
 30
0.0
 10
189.681732198754
 20
563.6708472951011
 30
0.0
 10
188.0658443415031
 20
564.4483641956135
 30
0.0
 10
186.247324810851
 20
565.1160032284814
 30
0.0
 10
184.2680360165365
 20
565.6580249423693
 30
0.0
 10
182.1578527102579
 20
566.078650172106
 30
0.0
 10
179.9269651805019
 20
566.3710378739368
 30
0.0
 10
177.9775581853919
 20
566.5313179922815
 30
0.0
 10
176.7790309601872
 20
566.5406244863743
 30
0.0
 10
176.3638171355205
 20
566.5438485975377
 30
0.0
  0
SPLINE
  5
71
330
1F
100
AcDbEntity
  8
0
  6
Continuous
 62
     7
370
    15
100
AcDbSpline
210
0.0
220
0.0
230
1.0
 70
     8
 71
     3
 72
    22
 73
    18
 74
     0
 42
0.00000001
 43
0.00000001
 12
1.0
 22
0.0
 32
0.0
 13
1.0
 23
0.0
 33
0.0
 40
0.0
 40
0.0
 40
0.0
 40
0.0
 40
0.0084141774893559
 40
0.0872412979120012
 40
0.1665529159796482
 40
0.2458213622569874
 40
0.3246752248319599
 40
0.4029882823471282
 40
0.480709702727248
 40
0.559327420923099
 40
0.6390119498064343
 40
0.7086405768984421
 40
0.7719993209565668
 40
0.8172098273834073
 40
0.8571128052048075
 40
0.896858423783422
 40
1.0
 40
1.0
 40
1.0
 40
1.0
 10
175.9337826208245
 20
566.558806205497
 30
0.0
 10
175.8504561768514
 20
566.5603870165763
 30
0.0
 10
174.9864968496561
 20
566.5767774493295
 30
0.0
 10
173.336504474688
 20
566.4860490589565
 30
0.0
 10
171.0303000552152
 20
566.2732324155158
 30
0.0
 10
168.8040016521373
 20
565.9160265469424
 30
0.0
 10
166.7050823341501
 20
565.4348761411991
 30
0.0
 10
164.7753093352036
 20
564.8287780065173
 30
0.0
 10
163.0349732820781
 20
564.1055484574729
 30
0.0
 10
161.4924643719329
 20
563.2655588162585
 30
0.0
 10
160.2278944886268
 20
562.3448347740673
 30
0.0
 10
159.2695174537239
 20
561.362816952704
 30
0.0
 10
158.6639474138806
 20
560.4619420154291
 30
0.0
 10
158.3205433445515
 20
559.5623565999475
 30
0.0
 10
158.1869752253896
 20
558.9747121511539
 30
0.0
 10
158.0099557971697
 20
558.0771251192973
 30
0.0
 10
157.9622153742824
 20
557.4118860892726
 30
0.0
 10
157.9277544663409
 20
556.9316904901087
 30
0.0
  0
LINE
  5
72
330
1F
100
AcDbEntity
  8
0
  6
Continuous
 62
     7
370
    15
100
AcDbLine
 10
187.9337539721
 20
537.6780236282
 30
0.0
 11
187.9337539721
 21
541.3001412626
 31
0.0
  0
LINE
  5
73
330
1F
100
AcDbEntity
  8
0
  6
Continuous
 62
     7
370
    15
100
AcDbLine
 10
163.9337539721
 20
541.2975914431
 30
0.0
 11
163.9337539721
 21
537.6780236282
 31
0.0
  0
LINE
  5
74
330
1F
100
AcDbEntity
  8
0
  6
Continuous
 62
     7
370
    15
100
AcDbLine
 10
167.0337539721
 20
534.2493544253
 30
0.0
 11
167.0337539721
 21
534.0779209652
 31
0.0
  0
LINE
  5
75
330
1F
100
AcDbEntity
  8
0
  6
Continuous
 62
     7
370
    15
100
AcDbLine
 10
184.8337539721
 20
534.0779209652
 30
0.0
 11
184.8337539721
 21
534.2493544253
 31
0.0
  0
LINE
  5
76
330
1F
100
AcDbEntity
  8
0
  6
Continuous
 62
     7
370
    15
100
AcDbLine
 10
201.9337539721
 20
425.1064361736
 30
0.0
 11
201.9337539721
 21
490.1064361736
 31
0.0
  0
LINE
  5
77
330
1F
100
AcDbEntity
  8
0
  6
Continuous
 62
     7
370
    15
100
AcDbLine
 10
149.9337539721
 20
490.1064361736
 30
0.0
 11
149.9337539721
 21
425.1064361736
 31
0.0
  0
LINE
  5
78
330
1F
100
AcDbEntity
  8
0
  6
Continuous
 62
     7
370
    15
100
AcDbLine
 10
201.9337539724
 20
361.6064361736
 30
0.0
 11
201.9337539724
 21
424.6064361736
 31
0.0
  0
LINE
  5
79
330
1F
100
AcDbEntity
  8
0
  6
Continuous
 62
     7
370
    15
100
AcDbLine
 10
149.9337539718
 20
424.6064361736
 30
0.0
 11
149.9337539718
 21
361.6064361736
 31
0.0
  0
LINE
  5
7A
330
1F
100
AcDbEntity
  8
0
  6
Continuous
 62
     7
370
    15
100
AcDbLine
 10
151.0337539721
 20
425.1064361736
 30
0.0
 11
151.0337539721
 21
424.6064361736
 31
0.0
  0
LINE
  5
7B
330
1F
100
AcDbEntity
  8
0
  6
Continuous
 62
     7
370
    15
100
AcDbLine
 10
200.8337539721
 20
424.6064361736
 30
0.0
 11
200.8337539721
 21
425.1064361736
 31
0.0
  0
SPLINE
  5
7C
330
1F
100
AcDbEntity
  8
0
  6
Continuous
 62
     7
370
    15
100
AcDbSpline
210
0.0
220
0.0
230
1.0
 70
     8
 71
     3
 72
    30
 73
    26
 74
     0
 42
0.00000001
 43
0.00000001
 12
1.0
 22
0.0
 32
0.0
 13
1.0
 23
0.0
 33
0.0
 40
0.0
 40
0.0
 40
0.0
 40
0.0
 40
0.0488649663023286
 40
0.096475396542593
 40
0.1428406346768739
 40
0.1879385960798384
 40
0.2299175624427434
 40
0.2690260341972772
 40
0.3058464024118611
 40
0.3400515832234906
 40
0.4188120072538209
 40
0.492393517580097
 40
0.5645078525848582
 40
0.6317307218439282
 40
0.6925734978437967
 40
0.745980060598429
 40
0.7837374536056159
 40
0.819316364751339
 40
0.8524802587234768
 40
0.8830454898605885
 40
0.9109326478933237
 40
0.9362226000449662
 40
0.9591901021434243
 40
0.9802837251960336
 40
1.0
 40
1.0
 40
1.0
 40
1.0
 10
192.2831367893243
 20
564.1320863400383
 30
0.0
 10
192.2675902582036
 20
564.3407867259971
 30
0.0
 10
192.2368963302582
 20
564.7528294227914
 30
0.0
 10
192.183179927132
 20
565.3588261066294
 30
0.0
 10
192.1142309611863
 20
565.943695475518
 30
0.0
 10
192.0383112458825
 20
566.4980530413691
 30
0.0
 10
191.8918956963472
 20
567.014485806433
 30
0.0
 10
191.6687014825383
 20
567.4914145240706
 30
0.0
 10
191.3826556679901
 20
567.93186361061
 30
0.0
 10
190.8986209440953
 20
568.5198740469243
 30
0.0
 10
190.1117547041728
 20
569.2210270862636
 30
0.0
 10
188.8990135654892
 20
570.0047249875678
 30
0.0
 10
187.518338000107
 20
570.6693500187174
 30
0.0
 10
186.041169328846
 20
571.2187206783747
 30
0.0
 10
184.5770750073748
 20
571.6538415032602
 30
0.0
 10
183.2720724308394
 20
571.9673103586588
 30
0.0
 10
182.1378468790495
 20
572.1825679975043
 30
0.0
 10
181.1598087799547
 20
572.3375725497301
 30
0.0
 10
180.2306189933969
 20
572.4634618081342
 30
0.0
 10
179.3616151448129
 20
572.5651911308661
 30
0.0
 10
178.5591340005613
 20
572.6452499700447
 30
0.0
 10
177.8235960059182
 20
572.7042507177184
 30
0.0
 10
177.1493773021041
 20
572.7418872737543
 30
0.0
 10
176.5264439424184
 20
572.7595077679534
 30
0.0
 10
176.1268214966841
 20
572.7603454048811
 30
0.0
 10
175.9337539720943
 20
572.7607500880762
 30
0.0
  0
SPLINE
  5
7D
330
1F
100
AcDbEntity
  8
0
  6
Continuous
 62
     7
370
    15
100
AcDbSpline
210
0.0
220
0.0
230
1.0
 70
     8
 71
     3
 72
    39
 73
    35
 74
     0
 42
0.00000001
 43
0.00000001
 12
1.0
 22
0.0
 32
0.0
 13
1.0
 23
0.0
 33
0.0
 40
0.0
 40
0.0
 40
0.0
 40
0.0
 40
0.010913348191247
 40
0.022198191840766
 40
0.0339309714737064
 40
0.0462015864617517
 40
0.0591004113088278
 40
0.0727078357666643
 40
0.0870872362809791
 40
0.1022818381231439
 40
0.1183153592692651
 40
0.135193066371836
 40
0.1529043733900012
 40
0.1714261110357296
 40
0.1907258477024193
 40
0.2107650347500533
 40
0.2315013164043283
 40
0.2528898531487037
 40
0.3061236348923829
 40
0.3667731666674275
 40
0.4337941540688911
 40
0.505714761825755
 40
0.5756206159772942
 40
0.650338211025152
 40
0.7191169866428981
 40
0.7957014632558848
 40
0.8201462578807287
 40
0.8449587753605302
 40
0.8700675241552055
 40
0.8954658169145361
 40
0.9211563716659812
 40
0.9471412811937263
 40
0.973422113240733
 40
1.0
 40
1.0
 40
1.0
 40
1.0
 10
175.9337539720943
 20
572.7607500880762
 30
0.0
 10
175.8268967480241
 20
572.7606344228486
 30
0.0
 10
175.6095448301789
 20
572.7603991550956
 30
0.0
 10
175.2775880356598
 20
572.7565835710822
 30
0.0
 10
174.9328796893755
 20
572.7479320199855
 30
0.0
 10
174.5732044153649
 20
572.7333721176707
 30
0.0
 10
174.1963288486975
 20
572.7123867784074
 30
0.0
 10
173.8002994943381
 20
572.6847459431839
 30
0.0
 10
173.3836542797735
 20
572.6504017323033
 30
0.0
 10
172.9455390334299
 20
572.6093497351018
 30
0.0
 10
172.4857488784854
 20
572.5615410527829
 30
0.0
 10
172.0047177119269
 20
572.5068004386007
 30
0.0
 10
171.5034806142491
 20
572.4447646011631
 30
0.0
 10
170.983612628854
 20
572.3748419785528
 30
0.0
 10
170.4471586344866
 20
572.2961916658539
 30
0.0
 10
169.8965768198855
 20
572.2076948527292
 30
0.0
 10
169.334667785111
 20
572.1079878412135
 30
0.0
 10
168.4869294519934
 20
571.9405348196822
 30
0.0
 10
167.3241272375383
 20
571.6627319457664
 30
0.0
 10
165.862118272429
 20
571.2305659151575
 30
0.0
 10
164.3854909982172
 20
570.6846832123836
 30
0.0
 10
163.0260186985853
 20
570.0347582120218
 30
0.0
 10
161.8437436748096
 20
569.2824866427021
 30
0.0
 10
160.9181832980709
 20
568.4861032648198
 30
0.0
 10
160.2329519699074
 20
567.6157027751196
 30
0.0
 10
159.9354943573896
 20
566.9263490046543
 30
0.0
 10
159.8211794682683
 20
566.4081558966806
 30
0.0
 10
159.7759556617718
 20
566.0993356789022
 30
0.0
 10
159.733833668256
 20
565.7844526338691
 30
0.0
 10
159.6975415686559
 20
565.4639941792352
 30
0.0
 10
159.6651933553533
 20
565.138201495528
 30
0.0
 10
159.6361670519196
 20
564.8072605697614
 30
0.0
 10
159.6094136074548
 20
564.4714453323114
 30
0.0
 10
159.592749854627
 20
564.2456290173222
 30
0.0
 10
159.5843711548468
 20
564.1320863400928
 30
0.0
  0
LINE
  5
7E
330
1F
100
AcDbEntity
  8
0
  6
Continuous
 62
     7
370
    15
100
AcDbLine
 10
149.9337539721
 20
502.4064361915
 30
0.0
 11
155.474305038
 21
502.4064361915
 31
0.0
  0
LINE
  5
7F
330
1F
100
AcDbEntity
  8
0
  6
Continuous
 62
     7
370
    15
100
AcDbLine
 10
196.3736997707
 20
502.4064361915
 30
0.0
 11
201.9337539721
 21
502.4064361915
 31
0.0
  0
LINE
  5
80
330
1F
100
AcDbEntity
  8
0
  6
Continuous
 62
     7
370
    15
100
AcDbLine
 10
201.8951084049
 20
533.3898585472
 30
0.0
 11
201.8986109135
 21
533.4666498486
 31
0.0
  0
LINE
  5
81
330
1F
100
AcDbEntity
  8
0
  6
Continuous
 62
     7
370
    15
100
AcDbLine
 10
201.8837539721
 20
490.4064361915
 30
0.0
 11
196.7437553997
 21
490.4064361915
 31
0.0
  0
LINE
  5
82
330
1F
100
AcDbEntity
  8
0
  6
Continuous
 62
     7
370
    15
100
AcDbLine
 10
155.155156515
 20
490.4064361915
 30
0.0
 11
149.9837539721
 21
490.4064361915
 31
0.0
  0
SPLINE
  5
83
330
1F
100
AcDbEntity
  8
0
  6
Continuous
 62
     7
370
    15
100
AcDbSpline
210
0.0
220
0.0
230
1.0
 70
     8
 71
     3
 72
    12
 73
     8
 74
     0
 42
0.00000001
 43
0.00000001
 12
1.0
 22
0.0
 32
0.0
 13
1.0
 23
0.0
 33
0.0
 40
0.0
 40
0.0
 40
0.0
 40
0.0
 40
0.25
 40
0.25
 40
0.5
 40
0.5
 40
1.0
 40
1.0
 40
1.0
 40
1.0
 10
194.7611409545799
 20
540.333509324819
 30
0.0
 10
194.7158493078447
 20
541.2058228681781
 30
0.0
 10
194.6719640069874
 20
542.0803758996157
 30
0.0
 10
194.5809849247886
 20
543.8269923450947
 30
0.0
 10
194.5348895707099
 20
544.7002098514845
 30
0.0
 10
194.3933098128185
 20
547.3182275099911
 30
0.0
 10
194.2952309351315
 20
549.0620581242378
 30
0.0
 10
194.1938798042026
 20
550.8044962549077
 30
0.0
  0
SPLINE
  5
84
330
1F
100
AcDbEntity
  8
0
  6
Continuous
 62
     7
370
    15
100
AcDbSpline
210
0.0
220
0.0
230
1.0
 70
     8
 71
     3
 72
    11
 73
     7
 74
     0
 42
0.00000001
 43
0.00000001
 12
1.0
 22
0.0
 32
0.0
 13
1.0
 23
0.0
 33
0.0
 40
0.0
 40
0.0
 40
0.0
 40
0.0
 40
0.1424961723707269
 40
0.4240497762851207
 40
0.7106342242741701
 40
1.0
 40
1.0
 40
1.0
 40
1.0
 10
193.8365898223832
 20
556.5810402221167
 30
0.0
 10
193.8561633739547
 20
556.3083987607606
 30
0.0
 10
193.9144116765363
 20
555.4970538048182
 30
0.0
 10
193.9957887985424
 20
554.1263388186433
 30
0.0
 10
194.0962508390763
 20
552.4740494041997
 30
0.0
 10
194.1612382856326
 20
551.3628172532894
 30
0.0
 10
194.1938889247172
 20
550.8045180459626
 30
0.0
  0
SPLINE
  5
85
330
1F
100
AcDbEntity
  8
0
  6
Continuous
 62
     7
370
    15
100
AcDbSpline
210
0.0
220
0.0
230
1.0
 70
     8
 71
     3
 72
    11
 73
     7
 74
     0
 42
0.00000001
 43
0.00000001
 12
1.0
 22
0.0
 32
0.0
 13
1.0
 23
0.0
 33
0.0
 40
0.0
 40
0.0
 40
0.0
 40
0.0
 40
0.15264897306756
 40
0.4308689969629339
 40
0.7140603000009118
 40
1.0
 40
1.0
 40
1.0
 40
1.0
 10
158.0357636610618
 20
556.6498780721678
 30
0.0
 10
158.0145238974813
 20
556.3543253619491
 30
0.0
 10
157.9545722617397
 20
555.5200943989594
 30
0.0
 10
157.8716842528252
 20
554.126362545228
 30
0.0
 10
157.7712659920949
 20
552.4740433611873
 30
0.0
 10
157.7062726304051
 20
551.3628152324775
 30
0.0
 10
157.6736190194713
 20
550.8045180459626
 30
0.0
  0
SPLINE
  5
86
330
1F
100
AcDbEntity
  8
0
  6
Continuous
 62
     7
370
    15
100
AcDbSpline
210
0.0
220
0.0
230
1.0
 70
     8
 71
     3
 72
    12
 73
     8
 74
     0
 42
0.00000001
 43
0.00000001
 12
1.0
 22
0.0
 32
0.0
 13
1.0
 23
0.0
 33
0.0
 40
0.0
 40
0.0
 40
0.0
 40
0.0
 40
0.2499999999999988
 40
0.2499999999999988
 40
0.4999999999999977
 40
0.4999999999999977
 40
1.0
 40
1.0
 40
1.0
 40
1.0
 10
157.1063669896087
 20
540.333509324819
 30
0.0
 10
157.1516586363438
 20
541.2058228681782
 30
0.0
 10
157.1955439372012
 20
542.0803758996154
 30
0.0
 10
157.2865230193999
 20
543.8269923450948
 30
0.0
 10
157.3326183734787
 20
544.7002098514846
 30
0.0
 10
157.47419813137
 20
547.3182275099913
 30
0.0
 10
157.5722770090572
 20
549.0620581242375
 30
0.0
 10
157.6736281399859
 20
550.8044962549075
 30
0.0
  0
SPLINE
  5
87
330
1F
100
AcDbEntity
  8
0
  6
Continuous
 62
     7
370
    15
100
AcDbSpline
210
0.0
220
0.0
230
1.0
 70
     8
 71
     3
 72
    15
 73
    11
 74
     0
 42
0.00000001
 43
0.00000001
 12
1.0
 22
0.0
 32
0.0
 13
1.0
 23
0.0
 33
0.0
 40
0.0
 40
0.0
 40
0.0
 40
0.0
 40
0.1970910472671721
 40
0.3020908126352642
 40
0.4070946445159335
 40
0.5122228107105801
 40
0.6173719722014166
 40
0.7254003845410398
 40
0.8333721485325919
 40
1.0
 40
1.0
 40
1.0
 40
1.0
 10
175.9337539720942
 20
545.8177048425814
 30
0.0
 10
174.6826823771598
 20
545.7774355205769
 30
0.0
 10
172.7651055007921
 20
545.7157128174033
 30
0.0
 10
170.3915755778138
 20
545.3590505519782
 30
0.0
 10
168.7063493834228
 20
545.0085612218107
 30
0.0
 10
167.2291882809775
 20
544.5879578560455
 30
0.0
 10
165.9728257387213
 20
544.1012553087436
 30
0.0
 10
164.9952467650341
 20
543.5270038165017
 30
0.0
 10
164.1377361272791
 20
542.720039397651
 30
0.0
 10
164.0337687925265
 20
541.8333460961655
 30
0.0
 10
163.9706811090873
 20
541.2952980020699
 30
0.0
  0
SPLINE
  5
88
330
1F
100
AcDbEntity
  8
0
  6
Continuous
 62
     7
370
    15
100
AcDbSpline
210
0.0
220
0.0
230
1.0
 70
     8
 71
     3
 72
    15
 73
    11
 74
     0
 42
0.00000001
 43
0.00000001
 12
1.0
 22
0.0
 32
0.0
 13
1.0
 23
0.0
 33
0.0
 40
0.0
 40
0.0
 40
0.0
 40
0.0
 40
0.0728695986377608
 40
0.251050943628484
 40
0.4465470417818548
 40
0.5565406412298485
 40
0.6665146187325706
 40
0.773281816619384
 40
0.8800478942638358
 40
1.0
 40
1.0
 40
1.0
 40
1.0
 10
187.9045650976772
 20
541.2995937033206
 30
0.0
 10
187.8996247584395
 20
541.5485527723279
 30
0.0
 10
187.8826042608565
 20
542.4062686149775
 30
0.0
 10
187.1044285898105
 20
543.463802530572
 30
0.0
 10
185.5368393343158
 20
544.2885500029589
 30
0.0
 10
183.691372974982
 20
544.8731672874846
 30
0.0
 10
182.0106479990009
 20
545.2634308338273
 30
0.0
 10
180.1603202373718
 20
545.56199536041
 30
0.0
 10
178.1268070569699
 20
545.7739431335813
 30
0.0
 10
176.6925768184138
 20
545.8025627628881
 30
0.0
 10
175.9337539720942
 20
545.8177048425817
 30
0.0
  0
LWPOLYLINE
  5
89
330
1F
100
AcDbEntity
  8
0
  6
Continuous
 62
     7
370
    15
100
AcDbPolyline
 90
       19
 70
   128
 43
0.0
 10
186.9337539721
 20
534.2493544253
 10
186.7666392552
 20
535.2331440799
 10
186.2703728007
 20
536.1870417835
 10
185.4600334137
 20
537.0820638374
 10
184.3602428464
 20
537.8910154491
 10
183.0044176786
 20
538.5893170334
 10
181.4337539721
 20
539.15575105
 10
179.6959755487
 20
539.5731066879
 10
177.8438839264
 20
539.8287028073
 10
175.9337539721
 20
539.9147732494
 10
174.0236240178
 20
539.8287028073
 10
172.1715323955
 20
539.5731066879
 10
170.4337539721
 20
539.15575105
 10
168.8630902655
 20
538.5893170334
 10
167.5072650978
 20
537.8910154491
 10
166.4074745305
 20
537.0820638373
 10
165.5971351434
 20
536.1870417835
 10
165.100868689
 20
535.2331440799
 10
164.9337539721
 20
534.2493544253
  0
SPLINE
  5
8A
330
1F
100
AcDbEntity
  8
0
  6
Continuous
 62
     7
370
    15
100
AcDbSpline
210
0.0
220
0.0
230
1.0
 70
    24
 71
     3
 72
     8
 73
     4
 74
     0
 42
0.00000001
 43
0.00000001
 12
1.0
 22
0.0
 32
0.0
 13
1.0
 23
0.0
 33
0.0
 40
0.0
 40
0.0
 40
0.0
 40
0.0
 40
1.0
 40
1.0
 40
1.0
 40
1.0
 10
164.9337539720943
 20
537.2142760325063
 30
0.0
 10
164.9337539720943
 20
536.0874590975895
 30
0.0
 10
164.9337539720943
 20
535.082953377223
 30
0.0
 10
164.9337539720943
 20
534.2493544253448
 30
0.0
  0
LWPOLYLINE
  5
8B
330
1F
100
AcDbEntity
  8
0
  6
Continuous
 62
     7
370
    15
100
AcDbPolyline
 90
       14
 70
   128
 43
0.0
 10
186.9337539721
 20
537.2142760325
 10
185.9080664316
 20
538.1804780078
 10
184.5657400432
 20
539.0375951327
 10
182.9493875364
 20
539.7584178547
 10
181.1103207184
 20
540.3200633459
 10
179.1069215579
 20
540.7047019279
 10
177.0027888248
 20
540.9001230834
 10
174.8647191194
 20
540.9001230834
 10
172.7605863863
 20
540.7047019279
 10
170.7571872258
 20
540.3200633459
 10
168.9181204077
 20
539.7584178547
 10
167.301767901
 20
539.0375951327
 10
165.9594415125
 20
538.1804780078
 10
164.9337539721
 20
537.2142760325
  0
SPLINE
  5
8C
330
1F
100
AcDbEntity
  8
0
  6
Continuous
 62
     7
370
    15
100
AcDbSpline
210
0.0
220
0.0
230
1.0
 70
    24
 71
     3
 72
     8
 73
     4
 74
     0
 42
0.00000001
 43
0.00000001
 12
1.0
 22
0.0
 32
0.0
 13
1.0
 23
0.0
 33
0.0
 40
0.0
 40
0.0
 40
0.0
 40
0.0
 40
1.0
 40
1.0
 40
1.0
 40
1.0
 10
186.9337539720943
 20
537.2142760325061
 30
0.0
 10
186.9337539720943
 20
536.0874590975894
 30
0.0
 10
186.9337539720943
 20
535.0829533772231
 30
0.0
 10
186.9337539720943
 20
534.2493544253449
 30
0.0
  0
LWPOLYLINE
  5
8D
330
1F
100
AcDbEntity
  8
0
  6
Continuous
 62
     7
370
    15
100
AcDbPolyline
 90
       14
 70
   128
 43
0.0
 10
164.9337539721
 20
532.2742043618
 10
165.9594415125
 20
531.3080023865
 10
167.301767901
 20
530.4508852616
 10
168.9181204077
 20
529.7300625396
 10
170.7571872258
 20
529.1684170484
 10
172.7605863863
 20
528.7837784663
 10
174.8647191194
 20
528.5883573109
 10
177.0027888248
 20
528.5883573109
 10
179.1069215579
 20
528.7837784663
 10
181.1103207184
 20
529.1684170484
 10
182.9493875364
 20
529.7300625396
 10
184.5657400432
 20
530.4508852616
 10
185.9080664316
 20
531.3080023865
 10
186.9337539721
 20
532.2742043618
  0
ARC
  5
8E
330
1F
100
AcDbEntity
  8
0
  6
Continuous
 62
     7
370
    15
100
AcDbCircle
 10
184.3213360411
 20
537.6780236282
 30
0.0
 40
3.595247484416335
100
AcDbArc
 50
316.6046894687
 51
43.3953105313
  0
LINE
  5
8F
330
1F
100
AcDbEntity
  8
0
  6
Continuous
 62
     7
370
    15
100
AcDbLine
 10
186.9337539721
 20
540.1480594635
 30
0.0
 11
186.9337539721
 21
537.2142760325
 31
0.0
  0
LINE
  5
90
330
1F
100
AcDbEntity
  8
0
  6
Continuous
 62
     7
370
    15
100
AcDbLine
 10
164.9337539721
 20
540.1480594635
 30
0.0
 11
164.9337539721
 21
537.2142760325
 31
0.0
  0
ARC
  5
91
330
1F
100
AcDbEntity
  8
0
  6
Continuous
 62
     7
370
    15
100
AcDbCircle
 10
167.5461719031
 20
537.6780236282
 30
0.0
 40
3.595247484417342
100
AcDbArc
 50
136.6046894687
 51
223.3953105313
  0
LWPOLYLINE
  5
92
330
1F
100
AcDbEntity
  8
0
  6
Continuous
 62
     7
370
    15
100
AcDbPolyline
 90
        9
 70
   128
 43
0.0
 10
175.9337539721
 20
538.833193292
 10
177.670057838
 20
538.7451161135
 10
179.3396365201
 20
538.4842693346
 10
180.878329046
 20
538.0606771507
 10
182.2270043247
 20
537.4906179719
 10
183.3338335216
 20
536.7959988526
 10
184.1562818114
 20
536.0035136163
 10
184.6627429677
 20
535.1436170259
 10
184.8337539721
 20
534.2493544253
  0
LWPOLYLINE
  5
93
330
1F
100
AcDbEntity
  8
0
  6
Continuous
 62
     7
370
    15
100
AcDbPolyline
 90
        9
 70
   128
 43
0.0
 10
167.0337539721
 20
534.2493544253
 10
167.2047649765
 20
535.1436170259
 10
167.7112261327
 20
536.0035136163
 10
168.5336744226
 20
536.7959988526
 10
169.6405036195
 20
537.4906179719
 10
170.9891788982
 20
538.0606771507
 10
172.527871424
 20
538.4842693346
 10
174.1974501062
 20
538.7451161135
 10
175.9337539721
 20
538.833193292
  0
LWPOLYLINE
  5
94
330
1F
100
AcDbEntity
  8
0
  6
Continuous
 62
     7
370
    15
100
AcDbPolyline
 90
       19
 70
   128
 43
0.0
 10
164.9337539721
 20
534.2493544253
 10
165.100868689
 20
533.2655647708
 10
165.5971351434
 20
532.3116670672
 10
166.4074745305
 20
531.4166450133
 10
167.5072650978
 20
530.6076934016
 10
168.8630902655
 20
529.9093918173
 10
170.4337539721
 20
529.3429578007
 10
172.1715323955
 20
528.9256021628
 10
174.0236240178
 20
528.6700060434
 10
175.9337539721
 20
528.5839356013
 10
177.8438839264
 20
528.6700060434
 10
179.6959755487
 20
528.9256021628
 10
181.4337539721
 20
529.3429578007
 10
183.0044176786
 20
529.9093918173
 10
184.3602428464
 20
530.6076934016
 10
185.4600334137
 20
531.4166450133
 10
186.2703728007
 20
532.3116670672
 10
186.7666392552
 20
533.2655647708
 10
186.9337539721
 20
534.2493544253
  0
LWPOLYLINE
  5
95
330
1F
100
AcDbEntity
  8
0
  6
Continuous
 62
     7
370
    15
100
AcDbPolyline
 90
       33
 70
   128
 43
0.0
 10
182.8453580919
 20
536.9657982152
 10
183.8064472515
 20
536.2158377811
 10
184.4649932233
 20
535.3837184028
 10
184.7956884551
 20
534.5014179612
 10
184.7858245146
 20
533.6028427675
 10
184.4357804674
 20
532.7225245626
 10
183.75900831
 20
531.8942934812
 10
182.7815160168
 20
531.1499779796
 10
181.5408680686
 20
530.5181816848
 10
180.0847418701
 20
530.0231841742
 10
178.4690955345
 20
529.6840079247
 10
176.7560174446
 20
529.5136872891
 10
175.0113402306
 20
529.518767594
 10
173.3021108593
 20
529.6990536062
 10
171.6940140571
 20
530.0476170353
 10
170.2488480821
 20
530.5510627842
 10
169.0221498523
 20
531.1900437152
 10
168.0610606927
 20
531.9400041493
 10
167.4025147209
 20
532.7721235276
 10
167.0718194891
 20
533.6544239692
 10
167.0816834296
 20
534.5529991629
 10
167.4317274768
 20
535.4333173679
 10
168.1084996342
 20
536.2615484492
 10
169.0859919274
 20
537.0058639509
 10
170.3266398756
 20
537.6376602456
 10
171.7827660741
 20
538.1326577562
 10
173.3984124096
 20
538.4718340058
 10
175.1114904996
 20
538.6421546413
 10
176.8561677136
 20
538.6370743364
 10
178.5653970849
 20
538.4567883242
 10
180.1734938871
 20
538.1082248951
 10
181.6186598621
 20
537.6047791462
 10
182.8453580919
 20
536.9657982152
  0
SPLINE
  5
96
330
1F
100
AcDbEntity
  8
0
  6
Continuous
 62
     7
370
    15
100
AcDbSpline
210
0.0
220
0.0
230
1.0
 70
    24
 71
     3
 72
    10
 73
     6
 74
     0
 42
0.00000001
 43
0.00000001
 12
1.0
 22
0.0
 32
0.0
 13
1.0
 23
0.0
 33
0.0
 40
0.0
 40
0.0
 40
0.0
 40
0.0
 40
0.5
 40
0.5
 40
1.0
 40
1.0
 40
1.0
 40
1.0
 10
186.9337539720943
 20
534.2493544253449
 30
0.0
 10
186.9337539720943
 20
533.8335256362132
 30
0.0
 10
186.9337539720943
 20
533.4582226187418
 30
0.0
 10
186.9337539720943
 20
532.8040242357837
 30
0.0
 10
186.9337539720943
 20
532.521898740811
 30
0.0
 10
186.9337539720943
 20
532.274204361786
 30
0.0
  0
SPLINE
  5
97
330
1F
100
AcDbEntity
  8
0
  6
Continuous
 62
     7
370
    15
100
AcDbSpline
210
0.0
220
0.0
230
1.0
 70
    24
 71
     3
 72
    10
 73
     6
 74
     0
 42
0.00000001
 43
0.00000001
 12
1.0
 22
0.0
 32
0.0
 13
1.0
 23
0.0
 33
0.0
 40
0.0
 40
0.0
 40
0.0
 40
0.0
 40
0.5
 40
0.5
 40
1.0
 40
1.0
 40
1.0
 40
1.0
 10
164.9337539720943
 20
534.2493544253448
 30
0.0
 10
164.9337539720943
 20
533.8335256362129
 30
0.0
 10
164.9337539720943
 20
533.4582226187415
 30
0.0
 10
164.9337539720943
 20
532.8040242357835
 30
0.0
 10
164.9337539720943
 20
532.5218987408107
 30
0.0
 10
164.9337539720943
 20
532.2742043617858
 30
0.0
  0
SPLINE
  5
98
330
1F
100
AcDbEntity
  8
0
  6
Continuous
 62
     7
370
    15
100
AcDbSpline
210
0.0
220
0.0
230
1.0
 70
     8
 71
     3
 72
     8
 73
     4
 74
     0
 42
0.00000001
 43
0.00000001
 12
1.0
 22
0.0
 32
0.0
 13
1.0
 23
0.0
 33
0.0
 40
0.0
 40
0.0
 40
0.0
 40
0.0
 40
0.9473044749837759
 40
0.9473044749837759
 40
0.9473044749837759
 40
0.9473044749837759
 10
157.1063831036734
 20
540.3334153219052
 30
0.0
 10
158.5147500312116
 20
531.2697450665993
 30
0.0
 10
164.4769569949884
 20
523.9165328576214
 30
0.0
 10
175.9337539720943
 20
523.9165328576214
 30
0.0
  0
SPLINE
  5
99
330
1F
100
AcDbEntity
  8
0
  6
Continuous
 62
     7
370
    15
100
AcDbSpline
210
0.0
220
0.0
230
1.0
 70
     8
 71
     3
 72
    38
 73
    34
 74
     0
 42
0.00000001
 43
0.00000001
 12
1.0
 22
0.0
 32
0.0
 13
1.0
 23
0.0
 33
0.0
 40
0.0
 40
0.0
 40
0.0
 40
0.0
 40
0.0177413682145436
 40
0.035284849652561
 40
0.0526389070090736
 40
0.0698124987366859
 40
0.0868149789838966
 40
0.1036560180835465
 40
0.1203455425003755
 40
0.1368936915402241
 40
0.1533107875318453
 40
0.1696073162150867
 40
0.1857939144250749
 40
0.2018813626631645
 40
0.217880580674571
 40
0.233802624643549
 40
0.2496586850381721
 40
0.2654600844790492
 40
0.2812182752729277
 40
0.3443856542551746
 40
0.407397392878443
 40
0.468850708745876
 40
0.531249851795412
 40
0.5931278916655959
 40
0.6566490508301904
 40
0.7202987943033776
 40
0.7859367047543869
 40
0.8204019516761218
 40
0.8552944999329923
 40
0.8906562847746023
 40
0.9265298859467235
 40
0.9629609237254649
 40
1.0
 40
1.0
 40
1.0
 40
1.0
 10
175.9337540032849
 20
523.9164571523286
 30
0.0
 10
176.1053761938561
 20
523.9174521736242
 30
0.0
 10
176.446706305385
 20
523.9194311177728
 30
0.0
 10
176.9556692256751
 20
523.9349465665119
 30
0.0
 10
177.4586477795187
 20
523.9596887039266
 30
0.0
 10
177.9556432177667
 20
523.9945270991573
 30
0.0
 10
178.4466611212541
 20
524.0392270266101
 30
0.0
 10
178.9317091679012
 20
524.0938425819721
 30
0.0
 10
179.4107955350154
 20
524.1583509808389
 30
0.0
 10
179.8839276167861
 20
524.2327503914966
 30
0.0
 10
180.3511110822262
 20
524.3170350719175
 30
0.0
 10
180.8123492054306
 20
524.4112026410653
 30
0.0
 10
181.267642369694
 20
524.5152526122664
 30
0.0
 10
181.7169878558078
 20
524.6291871732955
 30
0.0
 10
182.1603792593107
 20
524.7530109026942
 30
0.0
 10
182.597807759983
 20
524.8867320091045
 30
0.0
 10
183.0292568451529
 20
525.0303582435911
 30
0.0
 10
183.4547215063509
 20
525.1839122919652
 30
0.0
 10
184.2949236800555
 20
525.5113719991166
 30
0.0
 10
185.5156557243028
 20
526.0803438612666
 30
0.0
 10
187.0231874144155
 20
526.9913046919755
 30
0.0
 10
188.4025943090905
 20
528.0419138140296
 30
0.0
 10
189.6409865467467
 20
529.2112431920558
 30
0.0
 10
190.7529052607836
 20
530.5004289612434
 30
0.0
 10
191.7294358628621
 20
531.8873419336794
 30
0.0
 10
192.5816689107639
 20
533.374566091331
 30
0.0
 10
193.1873594990357
 20
534.6865948885644
 30
0.0
 10
193.6155655835964
 20
535.7911072722654
 30
0.0
 10
193.9108853719434
 20
536.6586496495672
 30
0.0
 10
194.1738676536943
 20
537.5471428620282
 30
0.0
 10
194.4038722951242
 20
538.4566109136518
 30
0.0
 10
194.6039585262459
 20
539.3867215603311
 30
0.0
 10
194.7084484958721
 20
540.0161122913285
 30
0.0
 10
194.76112586006
 20
540.3334120749519
 30
0.0
  0
SPLINE
  5
9A
330
1F
100
AcDbEntity
  8
0
  6
Continuous
 62
     7
370
    15
100
AcDbSpline
210
0.0
220
0.0
230
1.0
 70
     8
 71
     3
 72
     8
 73
     4
 74
     0
 42
0.00000001
 43
0.00000001
 12
1.0
 22
0.0
 32
0.0
 13
1.0
 23
0.0
 33
0.0
 40
0.0
 40
0.0
 40
0.0
 40
0.0
 40
0.1774419611394034
 40
0.1774419611394034
 40
0.1774419611394034
 40
0.1774419611394034
 10
154.8205308947707
 20
475.1005995206615
 30
0.0
 10
154.8011957823145
 20
474.0159201720679
 30
0.0
 10
154.782780901566
 20
472.9312405185681
 30
0.0
 10
154.7652854708603
 20
471.8465579884528
 30
0.0
  0
SPLINE
  5
9B
330
1F
100
AcDbEntity
  8
0
  6
Continuous
 62
     7
370
    15
100
AcDbSpline
210
0.0
220
0.0
230
1.0
 70
     8
 71
     3
 72
     8
 73
     4
 74
     0
 42
0.00000001
 43
0.00000001
 12
1.0
 22
0.0
 32
0.0
 13
1.0
 23
0.0
 33
0.0
 40
0.0
 40
0.0
 40
0.0
 40
0.0
 40
1.0
 40
1.0
 40
1.0
 40
1.0
 10
154.8205316207389
 20
475.1005940490738
 30
0.0
 10
155.2082998413238
 20
496.8530544270252
 30
0.0
 10
155.9687921714055
 20
518.5998303393003
 30
0.0
 10
157.1063982124848
 20
540.3333180889995
 30
0.0
  0
SPLINE
  5
9C
330
1F
100
AcDbEntity
  8
0
  6
Continuous
 62
     7
370
    15
100
AcDbSpline
210
0.0
220
0.0
230
1.0
 70
     8
 71
     3
 72
    17
 73
    13
 74
     0
 42
0.00000001
 43
0.00000001
 12
1.0
 22
0.0
 32
0.0
 13
1.0
 23
0.0
 33
0.0
 40
0.0
 40
0.0
 40
0.0
 40
0.0
 40
0.0624996212618261
 40
0.1249992425236523
 40
0.1874988637854784
 40
0.2499984850473045
 40
0.3124981063091307
 40
0.3749977275709568
 40
0.437497348832783
 40
0.4999969700946091
 40
0.4999969700946091
 40
0.4999973556913961
 40
0.4999973556913961
 40
0.4999973556913961
 40
0.4999973556913961
 10
154.7652854708573
 20
471.8465579899806
 30
0.0
 10
154.940295972138
 20
470.5023440349685
 30
0.0
 10
155.4167670692366
 20
467.9298930759284
 30
0.0
 10
156.5650640143105
 20
464.3235976417736
 30
0.0
 10
158.2298914501796
 20
460.9913439638344
 30
0.0
 10
160.5138282877848
 20
458.0141013053357
 30
0.0
 10
163.511134123492
 20
455.5337980801188
 30
0.0
 10
167.2277407998598
 20
453.7314524958329
 30
0.0
 10
171.473066465147
 20
452.7160125270408
 30
0.0
 10
174.4480443802143
 20
452.5248852047712
 30
0.0
 10
175.9337356400073
 20
452.5248852047712
 30
0.0
 10
175.9337448060508
 20
452.524885204775
 30
0.0
 10
175.9337539720943
 20
452.5248852047825
 30
0.0
  0
SPLINE
  5
9D
330
1F
100
AcDbEntity
  8
0
  6
Continuous
 62
     7
370
    15
100
AcDbSpline
210
0.0
220
0.0
230
1.0
 70
     8
 71
     3
 72
     8
 73
     4
 74
     0
 42
0.00000001
 43
0.00000001
 12
1.0
 22
0.0
 32
0.0
 13
1.0
 23
0.0
 33
0.0
 40
0.0
 40
0.0
 40
0.0
 40
0.0
 40
1.0
 40
1.0
 40
1.0
 40
1.0
 10
197.0469763234496
 20
475.1005940490737
 30
0.0
 10
196.6592081028648
 20
496.8530544270251
 30
0.0
 10
195.898715772783
 20
518.5998303393003
 30
0.0
 10
194.7611097317037
 20
540.3333180889995
 30
0.0
  0
SPLINE
  5
9E
330
1F
100
AcDbEntity
  8
0
  6
Continuous
 62
     7
370
    15
100
AcDbSpline
210
0.0
220
0.0
230
1.0
 70
     8
 71
     3
 72
     8
 73
     4
 74
     0
 42
0.00000001
 43
0.00000001
 12
1.0
 22
0.0
 32
0.0
 13
1.0
 23
0.0
 33
0.0
 40
0.0
 40
0.0
 40
0.0
 40
0.0
 40
1.0
 40
1.0
 40
1.0
 40
1.0
 10
197.1022224733282
 20
471.8465579884391
 30
0.0
 10
197.0847173751525
 20
472.9311990846339
 30
0.0
 10
197.0663017383048
 20
474.0158732017882
 30
0.0
 10
197.0469763234496
 20
475.1005940490738
 30
0.0
  0
SPLINE
  5
9F
330
1F
100
AcDbEntity
  8
0
  6
Continuous
 62
     7
370
    15
100
AcDbSpline
210
0.0
220
0.0
230
1.0
 70
     8
 71
     3
 72
    34
 73
    30
 74
     0
 42
0.00000001
 43
0.00000001
 12
1.0
 22
0.0
 32
0.0
 13
1.0
 23
0.0
 33
0.0
 40
0.0
 40
0.0
 40
0.0
 40
0.0
 40
0.013037046023709
 40
0.0259396001948134
 40
0.0387127448828427
 40
0.0513616599604243
 40
0.0638916177674162
 40
0.0763079774552279
 40
0.0886161787055653
 40
0.1008217348246507
 40
0.1129302252214133
 40
0.1249472872861257
 40
0.1864597204880095
 40
0.2501302941065273
 40
0.3084373508798226
 40
0.3749040250632108
 40
0.4249819690143816
 40
0.500029220773085
 40
0.5714554779847988
 40
0.6251750997652802
 40
0.6914153335364
 40
0.7496038477864004
 40
0.8167287149157754
 40
0.8748423566410409
 40
0.9038747559307726
 40
0.9309385515851908
 40
0.9559979432310661
 40
0.9790251272844072
 40
1.0
 40
1.0
 40
1.0
 40
1.0
 10
175.9337539720943
 20
452.5248852047712
 30
0.0
 10
176.0886586381518
 20
452.5254828557314
 30
0.0
 10
176.396869953701
 20
452.526671992207
 30
0.0
 10
176.8566650883219
 20
452.5363995272309
 30
0.0
 10
177.3114722355756
 20
452.5519489994059
 30
0.0
 10
177.7612823123202
 20
452.5738624114381
 30
0.0
 10
178.2060863902612
 20
452.6019807788477
 30
0.0
 10
178.6458755002047
 20
452.6363294829154
 30
0.0
 10
179.0806421073263
 20
452.6768849321121
 30
0.0
 10
179.510374493392
 20
452.7236346282978
 30
0.0
 10
179.9350775313297
 20
452.7765670129234
 30
0.0
 10
180.9317054507315
 20
452.9169009847244
 30
0.0
 10
182.505758809787
 20
453.219523683401
 30
0.0
 10
184.5194452142913
 20
453.8131457045246
 30
0.0
 10
186.4592047587691
 20
454.6125259837183
 30
0.0
 10
188.1129935358562
 20
455.528680195113
 30
0.0
 10
189.7555430745916
 20
456.6911037276796
 30
0.0
 10
191.2518881086225
 20
458.0439964138387
 30
0.0
 10
192.5530815646653
 20
459.5776027721868
 30
0.0
 10
193.6275465311068
 20
461.1481161885968
 30
0.0
 10
194.4869810657529
 20
462.6925530142579
 30
0.0
 10
195.2675769132077
 20
464.4307438323783
 30
0.0
 10
195.8882333800236
 20
466.1637343021067
 30
0.0
 10
196.3132126998323
 20
467.6741705133488
 30
0.0
 10
196.5815076366897
 20
468.8202184691725
 30
0.0
 10
196.7518090129778
 20
469.6477242187221
 30
0.0
 10
196.8922032544084
 20
470.4260755192461
 30
0.0
 10
197.0080477693334
 20
471.1512134631247
 30
0.0
 10
197.07182241524
 20
471.6220973533858
 30
0.0
 10
197.1022224732963
 20
471.8465579897127
 30
0.0
  0
SPLINE
  5
A0
330
1F
100
AcDbEntity
  8
0
  6
Continuous
 62
     7
370
     0
100
AcDbSpline
210
0.0
220
0.0
230
1.0
 70
     8
 71
     3
 72
    35
 73
    31
 74
     0
 42
0.00000001
 43
0.00000001
 12
1.0
 22
0.0
 32
0.0
 13
1.0
 23
0.0
 33
0.0
 40
0.0
 40
0.0
 40
0.0
 40
0.0
 40
0.0154092071515804
 40
0.0308524855373426
 40
0.0463324440091026
 40
0.0618516729129248
 40
0.0774127429757413
 40
0.0930182042384151
 40
0.1086705850368966
 40
0.1243723910328719
 40
0.1868919006081103
 40
0.2482558561779485
 40
0.3773382760123907
 40
0.4981827010977177
 40
0.5636273672709274
 40
0.6268373241101605
 40
0.6884275503884788
 40
0.7490622682712097
 40
0.7806380463720647
 40
0.8120146673569627
 40
0.8432985671899514
 40
0.8745971272175972
 40
0.8903201961137012
 40
0.9060023340946952
 40
0.9216571374517278
 40
0.9372982737586031
 40
0.9529394464162017
 40
0.968594358729346
 40
0.9842766779849157
 40
1.0
 40
1.0
 40
1.0
 40
1.0
 10
200.5792250170044
 20
461.9619485123644
 30
0.0
 10
200.5612482363899
 20
461.7097376980796
 30
0.0
 10
200.5252549267758
 20
461.204758407222
 30
0.0
 10
200.4657616231675
 20
460.4492830537909
 30
0.0
 10
200.401923912807
 20
459.694270292099
 30
0.0
 10
200.3331525398428
 20
458.9399185411115
 30
0.0
 10
200.259330379333
 20
458.1861742036218
 30
0.0
 10
200.1802015844549
 20
457.4330528540146
 30
0.0
 10
200.095531970525
 20
456.6805462126416
 30
0.0
 10
199.9152886115185
 20
455.1822581357708
 30
0.0
 10
199.6048423696594
 20
452.9768155775756
 30
0.0
 10
198.8942156543703
 20
449.062819712575
 30
0.0
 10
197.6909684446308
 20
444.4230367360771
 30
0.0
 10
195.8296812533901
 20
440.1015314455744
 30
0.0
 10
193.8608243134591
 20
437.0181576415777
 30
0.0
 10
192.0638168432075
 20
434.8835404296397
 30
0.0
 10
190.0138820629894
 20
433.0494417924273
 30
0.0
 10
188.0696197398842
 20
431.7578940738989
 30
0.0
 10
186.3727120037662
 20
430.8743009919147
 30
0.0
 10
185.0124449975758
 20
430.284512918956
 30
0.0
 10
183.5969278275791
 20
429.7831165006098
 30
0.0
 10
182.3741487519892
 20
429.4390622740054
 30
0.0
 10
181.3741230896009
 20
429.2083942804599
 30
0.0
 10
180.6140901329654
 20
429.0579415792322
 30
0.0
 10
179.8471942352301
 20
428.9306409974379
 30
0.0
 10
179.0740681879975
 20
428.8265213756695
 30
0.0
 10
178.2953801589202
 20
428.7454365856217
 30
0.0
 10
177.5118109317778
 20
428.6879446947266
 30
0.0
 10
176.7240591369745
 20
428.6519557451054
 30
0.0
 10
176.1974182187007
 20
428.6475235911403
 30
0.0
 10
175.9337539721096
 20
428.6453046208791
 30
0.0
  0
SPLINE
  5
A1
330
1F
100
AcDbEntity
  8
0
  6
Continuous
 62
     7
370
     0
100
AcDbSpline
210
0.0
220
0.0
230
1.0
 70
     8
 71
     3
 72
    15
 73
    11
 74
     0
 42
0.00000001
 43
0.00000001
 12
1.0
 22
0.0
 32
0.0
 13
1.0
 23
0.0
 33
0.0
 40
0.0
 40
0.0
 40
0.0
 40
0.0
 40
0.062499680386339
 40
0.1249993016481651
 40
0.1874989229099913
 40
0.2499985441718174
 40
0.3124981654336435
 40
0.3749977866954697
 40
0.4374974079572958
 40
0.4999970292191219
 40
0.4999970292191219
 40
0.4999970292191219
 40
0.4999970292191219
 10
175.9337480209619
 20
428.6453046208791
 30
0.0
 10
173.8368295079804
 20
428.6453046208803
 30
0.0
 10
169.6439520395782
 20
429.1393819331257
 30
0.0
 10
164.0507222844003
 20
431.3300129364005
 30
0.0
 10
159.6101631697787
 20
434.8052663752037
 30
0.0
 10
156.3907181013331
 20
439.2667023928834
 30
0.0
 10
154.1827662757781
 20
444.4075288090721
 30
0.0
 10
152.7361307324405
 20
449.9897035358829
 30
0.0
 10
151.8001961804157
 20
455.8621559967892
 30
0.0
 10
151.4309288311027
 20
459.9133998996248
 30
0.0
 10
151.2882829271842
 20
461.9619485123644
 30
0.0
  0
SPLINE
  5
A2
330
1F
100
AcDbEntity
  8
0
  6
Continuous
 62
     7
370
     0
100
AcDbSpline
210
0.0
220
0.0
230
1.0
 70
     8
 71
     3
 72
    12
 73
     8
 74
     0
 42
0.00000001
 43
0.00000001
 12
1.0
 22
0.0
 32
0.0
 13
1.0
 23
0.0
 33
0.0
 40
0.0
 40
0.0
 40
0.0
 40
0.0
 40
0.2549018309035931
 40
0.5078664061995527
 40
0.5078664061995527
 40
0.7608388392665357
 40
1.0
 40
1.0
 40
1.0
 40
1.0
 10
151.2882829271842
 20
461.9619485123644
 30
0.0
 10
151.2613500771946
 20
462.3487332076672
 30
0.0
 10
151.2105975660959
 20
463.1230556910419
 30
0.0
 10
151.1670201808782
 20
463.9019594188272
 30
0.0
 10
151.127904448629
 20
464.6788100340566
 30
0.0
 10
151.0943166418125
 20
465.4353723341305
 30
0.0
 10
151.072091341982
 20
466.1944485225759
 30
0.0
 10
151.0645733711074
 20
466.5640965060408
 30
0.0
  0
SPLINE
  5
A3
330
1F
100
AcDbEntity
  8
0
  6
Continuous
 62
     7
370
     0
100
AcDbSpline
210
0.0
220
0.0
230
1.0
 70
     8
 71
     3
 72
    15
 73
    11
 74
     0
 42
0.00000001
 43
0.00000001
 12
1.0
 22
0.0
 32
0.0
 13
1.0
 23
0.0
 33
0.0
 40
0.0
 40
0.0
 40
0.0
 40
0.0
 40
0.0808957075635509
 40
0.1639809202706402
 40
0.2492843000448804
 40
0.3703886770488697
 40
0.4992148743529612
 40
0.7498562143270346
 40
0.8740863264776415
 40
1.0
 40
1.0
 40
1.0
 40
1.0
 10
200.8029345730812
 20
466.5640965060408
 30
0.0
 10
200.8001645929611
 20
466.4386826348935
 30
0.0
 10
200.794549661058
 20
466.1844604687881
 30
0.0
 10
200.7831955322103
 20
465.7988000820119
 30
0.0
 10
200.767746820353
 20
465.3517684636495
 30
0.0
 10
200.7465358286532
 20
464.8354458850442
 30
0.0
 10
200.70987792749
 20
464.0668031392243
 30
0.0
 10
200.6662590247115
 20
463.2967044759059
 30
0.0
 10
200.6182940959278
 20
462.5334912753445
 30
0.0
 10
200.5923063457431
 20
462.1533156747548
 30
0.0
 10
200.5792250170044
 20
461.9619485123644
 30
0.0
  0
LINE
  5
A4
330
1F
100
AcDbEntity
  8
0
  6
Continuous
 62
     7
370
    15
100
AcDbLine
 10
175.9337539721
 20
425.1064361736
 30
0.0
 11
201.9337539721
 21
425.1064361736
 31
0.0
  0
LINE
  5
A5
330
1F
100
AcDbEntity
  8
0
  6
Continuous
 62
     7
370
    15
100
AcDbLine
 10
149.9337539721
 20
425.1064361736
 30
0.0
 11
175.9337539721
 21
425.1064361736
 31
0.0
  0
LINE
  5
A6
330
1F
100
AcDbEntity
  8
0
  6
Continuous
 62
     7
370
    15
100
AcDbLine
 10
196.7338157707
 20
490.1064361736
 30
0.0
 11
201.9337539721
 21
490.1064361736
 31
0.0
  0
LINE
  5
A7
330
1F
100
AcDbEntity
  8
0
  6
Continuous
 62
     7
370
    15
100
AcDbLine
 10
149.9337539721
 20
490.1064361736
 30
0.0
 11
155.0920435627
 21
490.1064361736
 31
0.0
  0
LINE
  5
A8
330
1F
100
AcDbEntity
  8
0
  6
Continuous
 62
     7
370
    15
100
AcDbLine
 10
149.9337539718
 20
361.6064361736
 30
0.0
 11
201.9337539724
 21
361.6064361736
 31
0.0
  0
LINE
  5
A9
330
1F
100
AcDbEntity
  8
0
  6
Continuous
 62
     7
370
    15
100
AcDbLine
 10
149.9337539718
 20
424.6064361736
 30
0.0
 11
201.9337539724
 21
424.6064361736
 31
0.0
  0
SPLINE
  5
AA
330
1F
100
AcDbEntity
  8
0
  6
Continuous
 62
     8
370
    15
100
AcDbSpline
210
0.0
220
0.0
230
1.0
 70
     8
 71
     3
 72
     9
 73
     5
 74
     0
 42
0.00000001
 43
0.00000001
 12
1.0
 22
0.0
 32
0.0
 13
1.0
 23
0.0
 33
0.0
 40
0.0
 40
0.0
 40
0.0
 40
0.0
 40
0.4443320549198317
 40
1.0
 40
1.0
 40
1.0
 40
1.0
 10
192.3381196662366
 20
564.614711365637
 30
0.0
 10
192.3436889209327
 20
564.5423066487336
 30
0.0
 10
192.3562229135502
 20
564.3793548290264
 30
0.0
 10
192.3092454214753
 20
564.2204079287669
 30
0.0
 10
192.283141534989
 20
564.1320862313228
 30
0.0
  0
SPLINE
  5
AB
330
1F
100
AcDbEntity
  8
0
  6
Continuous
 62
     8
370
    15
100
AcDbSpline
210
0.0
220
0.0
230
1.0
 70
     8
 71
     3
 72
     9
 73
     5
 74
     0
 42
0.00000001
 43
0.00000001
 12
1.0
 22
0.0
 32
0.0
 13
1.0
 23
0.0
 33
0.0
 40
0.0
 40
0.0
 40
0.0
 40
0.0
 40
0.4441337900137107
 40
1.0
 40
1.0
 40
1.0
 40
1.0
 10
159.5293744667838
 20
564.6146305408091
 30
0.0
 10
159.5238083942059
 20
564.5422807143906
 30
0.0
 10
159.5112759710868
 20
564.3793797416539
 30
0.0
 10
159.5582418409197
 20
564.2204817337444
 30
0.0
 10
159.5843485809824
 20
564.1321557003135
 30
0.0
  0
LINE
  5
AC
330
1F
100
AcDbEntity
  8
0
  6
Continuous
 62
     8
370
    15
100
AcDbLine
 10
192.4634474658
 20
561.42097436
 30
0.0
 11
192.2831641034
 21
564.1321555906
 31
0.0
  0
LINE
  5
AD
330
1F
100
AcDbEntity
  8
0
  6
Continuous
 62
     8
370
    15
100
AcDbLine
 10
159.5843438408
 20
564.1321555907
 30
0.0
 11
159.4056923478
 21
561.4455152136
 31
0.0
  0
SPLINE
  5
AE
330
1F
100
AcDbEntity
  8
0
  6
Continuous
 62
     8
370
    15
100
AcDbSpline
210
0.0
220
0.0
230
1.0
 70
     8
 71
     3
 72
    10
 73
     6
 74
     0
 42
0.00000001
 43
0.00000001
 12
1.0
 22
0.0
 32
0.0
 13
1.0
 23
0.0
 33
0.0
 40
0.0
 40
0.0
 40
0.0
 40
0.0
 40
0.364937524965449
 40
0.7149832902536996
 40
1.0
 40
1.0
 40
1.0
 40
1.0
 10
199.9801632770994
 20
538.0678558862633
 30
0.0
 10
199.2267859614886
 20
538.8500799608308
 30
0.0
 10
197.7507738907405
 20
540.382608419237
 30
0.0
 10
195.5432051379428
 20
542.5590178932083
 30
0.0
 10
194.84171968838
 20
544.0445219919823
 30
0.0
 10
194.5268922774888
 20
544.711217800964
 30
0.0
  0
SPLINE
  5
AF
330
1F
100
AcDbEntity
  8
0
  6
Continuous
 62
     7
370
     0
100
AcDbSpline
210
0.0
220
0.0
230
1.0
 70
     8
 71
     3
 72
    14
 73
    10
 74
     0
 42
0.00000001
 43
0.00000001
 12
1.0
 22
0.0
 32
0.0
 13
1.0
 23
0.0
 33
0.0
 40
0.0
 40
0.0
 40
0.0
 40
0.0
 40
0.2153805132243539
 40
0.4325961371604391
 40
0.5665765301036648
 40
0.6932619523628929
 40
0.8256482571983872
 40
0.9515619466299398
 40
1.0
 40
1.0
 40
1.0
 40
1.0
 10
199.9804379344467
 20
538.0727254201465
 30
0.0
 10
199.9423521683455
 20
536.2346127260226
 30
0.0
 10
199.8658561332608
 20
532.542726030984
 30
0.0
 10
199.5160165481893
 20
527.7663654194004
 30
0.0
 10
199.0123335535044
 20
523.8430867911044
 30
0.0
 10
198.4252299352558
 20
520.7114381135304
 30
0.0
 10
197.5987905221851
 20
517.8136222570049
 30
0.0
 10
196.7742961877647
 20
515.6179922837293
 30
0.0
 10
196.0899753789582
 20
514.5566237240319
 30
0.0
 10
195.8998587370102
 20
514.2617564281056
 30
0.0
  0
SPLINE
  5
B0
330
1F
100
AcDbEntity
  8
0
  6
Continuous
 62
     7
370
     0
100
AcDbSpline
210
0.0
220
0.0
230
1.0
 70
     8
 71
     3
 72
    16
 73
    12
 74
     0
 42
0.00000001
 43
0.00000001
 12
1.0
 22
0.0
 32
0.0
 13
1.0
 23
0.0
 33
0.0
 40
0.0
 40
0.0
 40
0.0
 40
0.0
 40
0.1423959163668779
 40
0.2897155477057854
 40
0.4325410861955543
 40
0.5227417660066006
 40
0.6095352874736686
 40
0.6932615844767707
 40
0.8256465210490546
 40
0.9515618882124691
 40
1.0
 40
1.0
 40
1.0
 40
1.0
 10
151.887121043157
 20
538.0683652752605
 30
0.0
 10
151.9085720222978
 20
536.8530519816477
 30
0.0
 10
151.9522157048498
 20
534.3804027268334
 30
0.0
 10
152.1347877318754
 20
530.7112523763537
 30
0.0
 10
152.3983744369176
 20
527.5227306298885
 30
0.0
 10
152.7175197769927
 20
524.8881235588547
 30
0.0
 10
153.0512168681039
 20
522.7803161910467
 30
0.0
 10
153.5336285403266
 20
520.3876742929934
 30
0.0
 10
154.2689812618342
 20
517.8137628835943
 30
0.0
 10
155.0931844311478
 20
515.6179912864537
 30
0.0
 10
155.7775279264099
 20
514.5566214876936
 30
0.0
 10
155.9676492071783
 20
514.2617564281055
 30
0.0
  0
SPLINE
  5
B1
330
1F
100
AcDbEntity
  8
0
  6
Continuous
 62
     8
370
    15
100
AcDbSpline
210
0.0
220
0.0
230
1.0
 70
     8
 71
     3
 72
    11
 73
     7
 74
     0
 42
0.00000001
 43
0.00000001
 12
1.0
 22
0.0
 32
0.0
 13
1.0
 23
0.0
 33
0.0
 40
0.0
 40
0.0
 40
0.0
 40
0.0
 40
0.1235646324056958
 40
0.4082526518878882
 40
0.6995358326861557
 40
1.0
 40
1.0
 40
1.0
 40
1.0
 10
157.3464140946301
 20
544.8195805350231
 30
0.0
 10
157.251554937304
 20
544.5246805016822
 30
0.0
 10
156.9381440382443
 20
543.5503424705696
 30
0.0
 10
155.7019014437712
 20
541.9269984279589
 30
0.0
 10
153.7414214048491
 20
540.0179613135349
 30
0.0
 10
152.511729960344
 20
538.7245675898179
 30
0.0
 10
151.8873448792702
 20
538.0678371972858
 30
0.0
  0
SPLINE
  5
B2
330
1F
100
AcDbEntity
  8
0
  6
Continuous
 62
     8
370
    15
100
AcDbSpline
210
0.0
220
0.0
230
1.0
 70
     8
 71
     3
 72
    11
 73
     7
 74
     0
 42
0.00000001
 43
0.00000001
 12
1.0
 22
0.0
 32
0.0
 13
1.0
 23
0.0
 33
0.0
 40
0.0
 40
0.0
 40
0.0
 40
0.0
 40
0.1896804457281283
 40
0.4754221176739217
 40
0.747069533549634
 40
1.0
 40
1.0
 40
1.0
 40
1.0
 10
199.7317525428257
 20
539.0337656251564
 30
0.0
 10
199.7729586091639
 20
538.9856971032397
 30
0.0
 10
199.8762390250461
 20
538.8652163736871
 30
0.0
 10
199.9666018652136
 20
538.6256549039538
 30
0.0
 10
200.0133246677764
 20
538.3470896801845
 30
0.0
 10
199.9916918276892
 20
538.158000912434
 30
0.0
 10
199.981261337731
 20
538.0668298740828
 30
0.0
  0
SPLINE
  5
B3
330
1F
100
AcDbEntity
  8
0
  6
Continuous
 62
     8
370
    15
100
AcDbSpline
210
0.0
220
0.0
230
1.0
 70
     8
 71
     3
 72
    11
 73
     7
 74
     0
 42
0.00000001
 43
0.00000001
 12
1.0
 22
0.0
 32
0.0
 13
1.0
 23
0.0
 33
0.0
 40
0.0
 40
0.0
 40
0.0
 40
0.0
 40
0.1867419446940589
 40
0.4735033134777973
 40
0.746140597311849
 40
1.0
 40
1.0
 40
1.0
 40
1.0
 10
152.1356217788829
 20
539.0337809252466
 30
0.0
 10
152.0952240614166
 20
538.9866873892493
 30
0.0
 10
151.9927915141461
 20
538.8672769087885
 30
0.0
 10
151.9029767715008
 20
538.6288749541815
 30
0.0
 10
151.8561656055163
 20
538.3503306810023
 30
0.0
 10
151.8777771473154
 20
538.1611284254191
 30
0.0
 10
151.8881975226619
 20
538.0699013145575
 30
0.0
  0
SPLINE
  5
B4
330
1F
100
AcDbEntity
  8
0
  6
Continuous
 62
     8
370
    15
100
AcDbSpline
210
0.0
220
0.0
230
1.0
 70
     8
 71
     3
 72
    11
 73
     7
 74
     0
 42
0.00000001
 43
0.00000001
 12
1.0
 22
0.0
 32
0.0
 13
1.0
 23
0.0
 33
0.0
 40
0.0
 40
0.0
 40
0.0
 40
0.0
 40
0.0806607920423131
 40
0.3873126786332418
 40
0.6941717394845656
 40
1.0
 40
1.0
 40
1.0
 40
1.0
 10
201.8986109134946
 20
533.4666498485918
 30
0.0
 10
201.9072675176594
 20
533.5925001106557
 30
0.0
 10
201.9488343367052
 20
534.1968011703466
 30
0.0
 10
201.6619940421425
 20
535.2847734440627
 30
0.0
 10
201.0572237781534
 20
536.7071885110694
 30
0.0
 10
200.3389347638083
 20
537.6155130642877
 30
0.0
 10
199.9803944902566
 20
538.0689112470255
 30
0.0
  0
SPLINE
  5
B5
330
1F
100
AcDbEntity
  8
0
  6
Continuous
 62
     8
370
    15
100
AcDbSpline
210
0.0
220
0.0
230
1.0
 70
     8
 71
     3
 72
    12
 73
     8
 74
     0
 42
0.00000001
 43
0.00000001
 12
1.0
 22
0.0
 32
0.0
 13
1.0
 23
0.0
 33
0.0
 40
0.0
 40
0.0
 40
0.0
 40
0.0
 40
0.1805609590773664
 40
0.3811484550542444
 40
0.6017728800262158
 40
0.8026033914567999
 40
1.0
 40
1.0
 40
1.0
 40
1.0
 10
151.8871150123299
 20
538.0688941208743
 30
0.0
 10
151.6651402109337
 20
537.7971557590877
 30
0.0
 10
151.1965707425092
 20
537.2235397498288
 30
0.0
 10
150.6404565692804
 20
536.2941464456835
 30
0.0
 10
150.2278645981483
 20
535.3192795148425
 30
0.0
 10
149.9779584478628
 20
534.3412282420682
 30
0.0
 10
149.9493445624266
 20
533.7088606073144
 30
0.0
 10
149.9351609881319
 20
533.3954032353978
 30
0.0
  0
SPLINE
  5
B6
330
1F
100
AcDbEntity
  8
0
  6
Continuous
 62
     8
370
    15
100
AcDbSpline
210
0.0
220
0.0
230
1.0
 70
     8
 71
     3
 72
    18
 73
    14
 74
     0
 42
0.00000001
 43
0.00000001
 12
1.0
 22
0.0
 32
0.0
 13
1.0
 23
0.0
 33
0.0
 40
0.0
 40
0.0
 40
0.0
 40
0.0
 40
0.0851624529168081
 40
0.1710584441822363
 40
0.2578598698673993
 40
0.3459848969451906
 40
0.4355025432105018
 40
0.5260599193329477
 40
0.6176937886490956
 40
0.7090717388536417
 40
0.8290711516629072
 40
0.9486279772527975
 40
0.9999999999999999
 40
0.9999999999999999
 40
0.9999999999999999
 40
0.9999999999999999
 10
175.934097989101
 20
564.7530692573666
 30
0.0
 10
176.7978084764342
 20
564.7397646427626
 30
0.0
 10
178.5326689357897
 20
564.713040815575
 30
0.0
 10
181.0952259254974
 20
564.4768613741376
 30
0.0
 10
183.5775232239883
 20
564.0981682188577
 30
0.0
 10
185.9365111646306
 20
563.5738359958551
 30
0.0
 10
188.1114491632428
 20
562.9143724952003
 30
0.0
 10
190.0369823040873
 20
562.12712695675
 30
0.0
 10
191.6298071859129
 20
561.2283158129284
 30
0.0
 10
192.9565230715951
 20
560.1373320197473
 30
0.0
 10
193.7177558645097
 20
558.7974086724793
 30
0.0
 10
193.7640068831658
 20
557.5630751207632
 30
0.0
 10
193.8198164629881
 20
556.8079809394686
 30
0.0
 10
193.8365898223832
 20
556.5810402221167
 30
0.0
  0
SPLINE
  5
B7
330
1F
100
AcDbEntity
  8
0
  6
Continuous
 62
     8
370
    15
100
AcDbSpline
210
0.0
220
0.0
230
1.0
 70
     8
 71
     3
 72
    18
 73
    14
 74
     0
 42
0.00000001
 43
0.00000001
 12
1.0
 22
0.0
 32
0.0
 13
1.0
 23
0.0
 33
0.0
 40
0.0
 40
0.0
 40
0.0
 40
0.0
 40
0.0856088945597867
 40
0.1719551728490429
 40
0.259211632058588
 40
0.34779863129111
 40
0.4377855501490423
 40
0.5288176493729873
 40
0.620931885021584
 40
0.7127888599702997
 40
0.8334173379740982
 40
0.9536009086120412
 40
1.0
 40
1.0
 40
1.0
 40
1.0
 10
175.9334099550875
 20
564.7530692573666
 30
0.0
 10
175.0696994671137
 20
564.739764642094
 30
0.0
 10
173.3348390064713
 20
564.7130408135632
 30
0.0
 10
170.7722820265132
 20
564.4768613823014
 30
0.0
 10
168.2899846903395
 20
564.098168187692
 30
0.0
 10
165.9309968936484
 20
563.5738361149314
 30
0.0
 10
163.756058345749
 20
562.9143720409849
 30
0.0
 10
161.8305272926382
 20
562.127128681505
 30
0.0
 10
160.2376945193092
 20
561.2283093013104
 30
0.0
 10
158.9110111454936
 20
560.1373594408096
 30
0.0
 10
158.149619484984
 20
558.7972702832132
 30
0.0
 10
158.1046916081182
 20
557.5855778810901
 30
0.0
 10
158.0507799432709
 20
556.853724740955
 30
0.0
 10
158.0357636610618
 20
556.6498780721678
 30
0.0
  0
SPLINE
  5
B8
330
1F
100
AcDbEntity
  8
0
  6
Continuous
 62
     8
370
    15
100
AcDbSpline
210
0.0
220
0.0
230
1.0
 70
     8
 71
     3
 72
    12
 73
     8
 74
     0
 42
0.00000001
 43
0.00000001
 12
1.0
 22
0.0
 32
0.0
 13
1.0
 23
0.0
 33
0.0
 40
0.0
 40
0.0
 40
0.0
 40
0.0
 40
0.3186792846203954
 40
0.606678583368694
 40
0.7351704445672127
 40
0.8595665836670967
 40
0.9999999999999999
 40
0.9999999999999999
 40
0.9999999999999999
 40
0.9999999999999999
 10
157.6736229463478
 20
550.804521484235
 30
0.0
 10
157.9465817952826
 20
549.4277610478368
 30
0.0
 10
158.4662211185193
 20
546.8067840609361
 30
0.0
 10
159.860025082618
 20
543.8027773171489
 30
0.0
 10
161.2568765863673
 20
541.7909387295074
 30
0.0
 10
162.4226402164304
 20
540.4090345695048
 30
0.0
 10
163.4101165268795
 20
539.6532674507275
 30
0.0
 10
163.9337539720943
 20
539.2525004054161
 30
0.0
  0
SPLINE
  5
B9
330
1F
100
AcDbEntity
  8
0
  6
Continuous
 62
     8
370
    15
100
AcDbSpline
210
0.0
220
0.0
230
1.0
 70
     8
 71
     3
 72
    12
 73
     8
 74
     0
 42
0.00000001
 43
0.00000001
 12
1.0
 22
0.0
 32
0.0
 13
1.0
 23
0.0
 33
0.0
 40
0.0
 40
0.0
 40
0.0
 40
0.0
 40
0.3186792846592353
 40
0.6066785834426346
 40
0.7351704446568134
 40
0.8595665837718586
 40
0.9999999999999999
 40
0.9999999999999999
 40
0.9999999999999999
 40
0.9999999999999999
 10
194.1938849978407
 20
550.804521484235
 30
0.0
 10
193.9209261488989
 20
549.4277610478437
 30
0.0
 10
193.4012868256489
 20
546.8067840609557
 30
0.0
 10
192.0074828616264
 20
543.8027773170952
 30
0.0
 10
190.6106313577366
 20
541.7909387295887
 30
0.0
 10
189.444867728449
 20
540.4090345696161
 30
0.0
 10
188.457391417409
 20
539.6532674522012
 30
0.0
 10
187.9337539720943
 20
539.2525004077755
 30
0.0
  0
SPLINE
  5
BA
330
1F
100
AcDbEntity
  8
0
  6
Continuous
 62
     7
370
     0
100
AcDbSpline
210
0.0
220
0.0
230
1.0
 70
     8
 71
     3
 72
    17
 73
    13
 74
     0
 42
0.00000001
 43
0.00000001
 12
1.0
 22
0.0
 32
0.0
 13
1.0
 23
0.0
 33
0.0
 40
0.0
 40
0.0
 40
0.0
 40
0.0
 40
0.0025083820697405
 40
0.1276897820592993
 40
0.2497740445909793
 40
0.4507151668147058
 40
0.5409808846964416
 40
0.6256647146841023
 40
0.7188685537363001
 40
0.8121209105180034
 40
0.9064002525518358
 40
1.0
 40
1.0
 40
1.0
 40
1.0
 10
154.9685223122823
 20
481.1087292691759
 30
0.0
 10
154.9606707671536
 20
481.1007175446618
 30
0.0
 10
154.5609860068414
 20
480.6928788148816
 30
0.0
 10
153.9158848076112
 20
479.7972345120615
 30
0.0
 10
152.8600255334484
 20
478.1032784468306
 30
0.0
 10
152.1256716972659
 20
476.3201381714912
 30
0.0
 10
151.6394434192861
 20
474.4902753673148
 30
0.0
 10
151.3738172971122
 20
473.0860185808852
 30
0.0
 10
151.1883569154572
 20
471.5695485995395
 30
0.0
 10
151.0814180463084
 20
469.9251698591144
 30
0.0
 10
151.0425269202399
 20
468.2453344175325
 30
0.0
 10
151.0572422969285
 20
467.1231560986984
 30
0.0
 10
151.0645733711074
 20
466.5640965060408
 30
0.0
  0
SPLINE
  5
BB
330
1F
100
AcDbEntity
  8
0
  6
Continuous
 62
     7
370
     0
100
AcDbSpline
210
0.0
220
0.0
230
1.0
 70
     8
 71
     3
 72
    17
 73
    13
 74
     0
 42
0.00000001
 43
0.00000001
 12
1.0
 22
0.0
 32
0.0
 13
1.0
 23
0.0
 33
0.0
 40
0.0
 40
0.0
 40
0.0
 40
0.0
 40
0.0025083820697407
 40
0.1276897820593001
 40
0.2497740445909796
 40
0.4507151668147055
 40
0.5409808846964417
 40
0.6256647146841028
 40
0.7188685537363003
 40
0.8121209105180035
 40
0.9064002525518359
 40
1.0
 40
1.0
 40
1.0
 40
1.0
 10
196.8989856319062
 20
481.1087292691759
 30
0.0
 10
196.906837177035
 20
481.1007175446618
 30
0.0
 10
197.3065219373471
 20
480.6928788148816
 30
0.0
 10
197.9516231365774
 20
479.7972345120615
 30
0.0
 10
199.0074824107402
 20
478.1032784468306
 30
0.0
 10
199.7418362469226
 20
476.3201381714911
 30
0.0
 10
200.2280645249024
 20
474.4902753673148
 30
0.0
 10
200.4936906470763
 20
473.0860185808852
 30
0.0
 10
200.6791510287314
 20
471.5695485995395
 30
0.0
 10
200.7860898978801
 20
469.9251698591144
 30
0.0
 10
200.8249810239486
 20
468.2453344175325
 30
0.0
 10
200.8102656472601
 20
467.1231560986984
 30
0.0
 10
200.8029345730812
 20
466.5640965060408
 30
0.0
  0
SPLINE
  5
BC
330
1F
100
AcDbEntity
  8
0
  6
Continuous
 62
     7
370
    15
100
AcDbSpline
210
0.0
220
0.0
230
1.0
 70
     8
 71
     3
 72
    14
 73
    10
 74
     0
 42
0.00000001
 43
0.00000001
 12
1.0
 22
0.0
 32
0.0
 13
1.0
 23
0.0
 33
0.0
 40
0.0
 40
0.0
 40
0.0
 40
0.0
 40
0.188850030108542
 40
0.3761791201922912
 40
0.5463422209842642
 40
0.6989377586611056
 40
0.8357723198207566
 40
0.960691881477048
 40
1.0
 40
1.0
 40
1.0
 40
1.0
 10
311.7664668818693
 20
506.7083028937587
 30
0.0
 10
311.8625082409685
 20
508.7246477791743
 30
0.0
 10
312.0538174716169
 20
512.7410985288192
 30
0.0
 10
312.5995206364239
 20
518.5456026379177
 30
0.0
 10
313.42263910831
 20
523.9289514893474
 30
0.0
 10
314.6542875345309
 20
528.7201771910593
 30
0.0
 10
316.431431440129
 20
532.8404481706887
 30
0.0
 10
318.1561588934135
 20
535.6644197908333
 30
0.0
 10
319.3907737667014
 20
536.9588013575974
 30
0.0
 10
319.6862805151158
 20
537.2686133453498
 30
0.0
  0
LINE
  5
BD
330
1F
100
AcDbEntity
  8
0
  6
Continuous
 62
     7
370
    15
100
AcDbLine
 10
260.2669541377
 20
521.16399268
 30
0.0
 11
260.2669541377
 21
502.4064361915
 31
0.0
  0
LINE
  5
BE
330
1F
100
AcDbEntity
  8
0
  6
Continuous
 62
     7
370
    15
100
AcDbLine
 10
312.2669541377
 20
502.4064361915
 30
0.0
 11
312.2669541377
 21
505.4115780874
 31
0.0
  0
LINE
  5
BF
330
1F
100
AcDbEntity
  8
0
  6
Continuous
 62
     7
370
    15
100
AcDbLine
 10
312.2169541359
 20
490.4064361915
 30
0.0
 11
312.1603822704
 21
493.6474361915
 31
0.0
  0
LINE
  5
C0
330
1F
100
AcDbEntity
  8
0
  6
Continuous
 62
     7
370
    15
100
AcDbLine
 10
260.3735260013
 20
493.6474361915
 30
0.0
 11
260.3169541359
 21
490.4064361915
 31
0.0
  0
ARC
  5
C1
330
1F
100
AcDbEntity
  8
0
  6
Continuous
 62
     7
370
    15
100
AcDbCircle
 10
286.3695660754
 20
493.1936736242
 30
0.0
 40
26.00000000000006
100
AcDbArc
 50
159.2471825426
 51
179.0
  0
ARC
  5
C2
330
1F
100
AcDbEntity
  8
0
  6
Continuous
 62
     7
370
    15
100
AcDbCircle
 10
286.1643421964
 20
493.1936736242
 30
0.0
 40
26.00000000000003
100
AcDbArc
 50
1.0
 51
20.7528174574
  0
SPLINE
  5
C3
330
1F
100
AcDbEntity
  8
0
  6
Continuous
 62
     7
370
    15
100
AcDbSpline
210
0.0
220
0.0
230
1.0
 70
     8
 71
     3
 72
    22
 73
    18
 74
     0
 42
0.00000001
 43
0.00000001
 12
1.0
 22
0.0
 32
0.0
 13
1.0
 23
0.0
 33
0.0
 40
0.0
 40
0.0
 40
0.0
 40
0.0
 40
0.0736984868072369
 40
0.1556380191678318
 40
0.238405360995198
 40
0.3135091845605131
 40
0.3798469679972132
 40
0.4392561665729802
 40
0.4960045415497932
 40
0.5520452090562399
 40
0.6140957391145901
 40
0.6812277049288118
 40
0.7503389450729917
 40
0.8058871048117401
 40
0.8648886958684885
 40
0.931472607142554
 40
1.0
 40
1.0
 40
1.0
 40
1.0
 10
366.4909098096678
 20
574.287806452811
 30
0.0
 10
363.7367883956055
 20
573.4225470986734
 30
0.0
 10
357.9205766930028
 20
571.5952741412702
 30
0.0
 10
349.36502741847
 20
567.8293988637107
 30
0.0
 10
340.9467855456326
 20
563.6801760233052
 30
0.0
 10
333.0502871950382
 20
559.8477845403518
 30
0.0
 10
325.9732550580486
 20
556.4227208878818
 30
0.0
 10
319.5491714649849
 20
553.2975591729218
 30
0.0
 10
313.493164796536
 20
550.3373424365536
 30
0.0
 10
307.3355797784448
 20
547.3494593120085
 30
0.0
 10
300.7766975424433
 20
544.2579410517646
 30
0.0
 10
293.7040461220317
 20
541.0591954219896
 30
0.0
 10
286.8698153043412
 20
537.9507775770393
 30
0.0
 10
280.4040788509289
 20
534.803712130282
 30
0.0
 10
274.1555115841466
 20
531.4494689263793
 30
0.0
 10
267.6351610624673
 20
527.5333090739202
 30
0.0
 10
263.3344702265262
 20
524.4515123615242
 30
0.0
 10
261.1531935941425
 20
522.8884492605152
 30
0.0
  0
SPLINE
  5
C4
330
1F
100
AcDbEntity
  8
0
  6
Continuous
 62
     7
370
    15
100
AcDbSpline
210
0.0
220
0.0
230
1.0
 70
     8
 71
     3
 72
    10
 73
     6
 74
     0
 42
0.00000001
 43
0.00000001
 12
1.0
 22
0.0
 32
0.0
 13
1.0
 23
0.0
 33
0.0
 40
0.0
 40
0.0
 40
0.0
 40
0.0
 40
0.3309999694742827
 40
0.7156730356941846
 40
1.0
 40
1.0
 40
1.0
 40
1.0
 10
313.8388380330572
 20
525.1861109313365
 30
0.0
 10
314.1380115375987
 20
526.4119084072428
 30
0.0
 10
314.7848708425543
 20
529.0622717958599
 30
0.0
 10
316.2741417739688
 20
532.6498660536714
 30
0.0
 10
317.7602755277166
 20
534.7739012651542
 30
0.0
 10
318.391886707799
 20
535.6766224253984
 30
0.0
  0
LINE
  5
C5
330
1F
100
AcDbEntity
  8
0
  6
Continuous
 62
     7
370
    15
100
AcDbLine
 10
318.8165943765
 20
536.3250843953
 30
0.0
 11
319.6845594077
 21
537.2667463811
 31
0.0
  0
LINE
  5
C6
330
1F
100
AcDbEntity
  8
0
  6
Continuous
 62
     7
370
    15
100
AcDbLine
 10
312.2662019702
 20
505.4064361915
 30
0.0
 11
312.5169541377
 21
505.4064361915
 31
0.0
  0
LINE
  5
C7
330
1F
100
AcDbEntity
  8
0
  6
Continuous
 62
     7
370
    15
100
AcDbLine
 10
312.5169541377
 20
513.4064361915
 30
0.0
 11
312.4145348941
 21
513.4064361915
 31
0.0
  0
LINE
  5
C8
330
1F
100
AcDbEntity
  8
0
  6
Continuous
 62
     7
370
    15
100
AcDbLine
 10
312.5169541377
 20
505.4064361915
 30
0.0
 11
313.1175015077
 21
505.6250175585
 31
0.0
  0
LINE
  5
C9
330
1F
100
AcDbEntity
  8
0
  6
Continuous
 62
     7
370
    15
100
AcDbLine
 10
313.1175015077
 20
513.1878548246
 30
0.0
 11
312.5169541377
 21
513.4064361915
 31
0.0
  0
ARC
  5
CA
330
1F
100
AcDbEntity
  8
0
  6
Continuous
 62
     7
370
    15
100
AcDbCircle
 10
313.049097479
 20
512.9999163005
 30
0.0
 40
0.2000000000000019
100
AcDbArc
 50
0.0
 51
70.0
  0
ARC
  5
CB
330
1F
100
AcDbEntity
  8
0
  6
Continuous
 62
     7
370
    15
100
AcDbCircle
 10
313.049097479
 20
505.8129560826
 30
0.0
 40
0.1999999999999886
100
AcDbArc
 50
290.0
 51
0.0
  0
LINE
  5
CC
330
1F
100
AcDbEntity
  8
0
  6
Continuous
 62
     7
370
    15
100
AcDbLine
 10
313.249097479
 20
505.8129560826
 30
0.0
 11
313.249097479
 21
512.9999163005
 31
0.0
  0
LINE
  5
CD
330
1F
100
AcDbEntity
  8
0
  6
Continuous
 62
     7
370
    15
100
AcDbLine
 10
312.266954138
 20
361.6064361736
 30
0.0
 11
312.266954138
 21
424.6064361736
 31
0.0
  0
LINE
  5
CE
330
1F
100
AcDbEntity
  8
0
  6
Continuous
 62
     7
370
    15
100
AcDbLine
 10
260.2669541374
 20
424.6064361736
 30
0.0
 11
260.2669541374
 21
361.6064361736
 31
0.0
  0
LINE
  5
CF
330
1F
100
AcDbEntity
  8
0
  6
Continuous
 62
     7
370
    15
100
AcDbLine
 10
312.2669541377
 20
488.6237047511
 30
0.0
 11
312.2669541377
 21
490.1064361736
 31
0.0
  0
LINE
  5
D0
330
1F
100
AcDbEntity
  8
0
  6
Continuous
 62
     7
370
    15
100
AcDbLine
 10
312.2669541377
 20
425.1064361736
 30
0.0
 11
312.2669541377
 21
428.6453046209
 31
0.0
  0
LINE
  5
D1
330
1F
100
AcDbEntity
  8
0
  6
Continuous
 62
     7
370
    15
100
AcDbLine
 10
260.2669541377
 20
490.1064361736
 30
0.0
 11
260.2669541377
 21
425.1064361736
 31
0.0
  0
LINE
  5
D2
330
1F
100
AcDbEntity
  8
0
  6
Continuous
 62
     7
370
    15
100
AcDbLine
 10
261.3669541359
 20
425.1064361736
 30
0.0
 11
261.3669541359
 21
424.6064361736
 31
0.0
  0
LINE
  5
D3
330
1F
100
AcDbEntity
  8
0
  6
Continuous
 62
     7
370
    15
100
AcDbLine
 10
311.1669541359
 20
424.6064361736
 30
0.0
 11
311.1669541359
 21
425.1064361736
 31
0.0
  0
LINE
  5
D4
330
1F
100
AcDbEntity
  8
0
  6
Continuous
 62
     7
370
    15
100
AcDbLine
 10
498.9680091877
 20
540.9246970961
 30
0.0
 11
496.0279935242
 21
545.8177048426
 31
0.0
  0
LINE
  5
D5
330
1F
100
AcDbEntity
  8
0
  6
Continuous
 62
     7
370
    15
100
AcDbLine
 10
476.3823189009
 20
531.9151014013
 30
0.0
 11
478.3959939708
 21
528.5637832982
 31
0.0
  0
LINE
  5
D6
330
1F
100
AcDbEntity
  8
0
  6
Continuous
 62
     7
370
    15
100
AcDbLine
 10
478.3959939708
 20
528.5637832982
 30
0.0
 11
479.5505186427
 21
528.5839356013
 31
0.0
  0
LINE
  5
D7
330
1F
100
AcDbEntity
  8
0
  6
Continuous
 62
     7
370
    15
100
AcDbLine
 10
498.4081992582
 20
539.9147732494
 30
0.0
 11
498.9680091877
 21
540.9246970961
 31
0.0
  0
LINE
  5
D8
330
1F
100
AcDbEntity
  8
0
  6
Continuous
 62
     7
370
    15
100
AcDbLine
 10
481.3505699742
 20
529.6655155586
 30
0.0
 11
481.4535775892
 21
529.4940820985
 31
0.0
  0
LINE
  5
D9
330
1F
100
AcDbEntity
  8
0
  6
Continuous
 62
     7
370
    15
100
AcDbLine
 10
496.7111555417
 20
538.6617598319
 30
0.0
 11
496.6081479267
 21
538.833193292
 31
0.0
  0
SPLINE
  5
DA
330
1F
100
AcDbEntity
  8
0
  6
Continuous
 62
     7
370
    15
100
AcDbSpline
210
0.0
220
0.0
230
1.0
 70
     8
 71
     3
 72
    27
 73
    23
 74
     0
 42
0.00000001
 43
0.00000001
 12
1.0
 22
0.0
 32
0.0
 13
1.0
 23
0.0
 33
0.0
 40
0.0
 40
0.0
 40
0.0
 40
0.0
 40
0.0360201525284683
 40
0.0719594171849685
 40
0.107843303957061
 40
0.1436593353619756
 40
0.179393524272732
 40
0.2150320123624179
 40
0.2505586090717257
 40
0.3412511394008497
 40
0.4234912077301067
 40
0.4974384845974728
 40
0.5753667829776967
 40
0.6572204019353518
 40
0.7433592561395461
 40
0.7857184617537496
 40
0.8280589281396553
 40
0.8704468320903401
 40
0.9015707438660936
 40
0.9335168000854563
 40
0.9663153665121067
 40
1.0
 40
1.0
 40
1.0
 40
1.0
 10
321.0682306074846
 20
550.1439659014738
 30
0.0
 10
320.7580884835396
 20
549.9929822035099
 30
0.0
 10
320.1385006995635
 20
549.6913538608391
 30
0.0
 10
319.2102909515228
 20
549.239867015393
 30
0.0
 10
318.2833637650137
 20
548.7910514108261
 30
0.0
 10
317.3583256828994
 20
548.3440434952528
 30
0.0
 10
316.4358375197106
 20
547.8985788404351
 30
0.0
 10
315.5166113039833
 20
547.4544462652051
 30
0.0
 10
314.1270141836237
 20
546.7806226295769
 30
0.0
 10
312.3416072429526
 20
545.91276007164
 30
0.0
 10
310.2392849906699
 20
544.8878902908294
 30
0.0
 10
308.2655069998445
 20
543.9174930233584
 30
0.0
 10
306.3178509400225
 20
542.9704755413557
 30
0.0
 10
304.3130624008506
 20
541.987993693751
 30
0.0
 10
302.6376860506265
 20
541.1657745301776
 30
0.0
 10
301.2857139298951
 20
540.5125182057379
 30
0.0
 10
300.2814868929531
 20
540.027099412919
 30
0.0
 10
299.360783765454
 20
539.5940180227306
 30
0.0
 10
298.5191693950318
 20
539.1999869266764
 30
0.0
 10
297.7532598766709
 20
538.8343576265955
 30
0.0
 10
296.9638836225776
 20
538.4557063277305
 30
0.0
 10
296.426512508783
 20
538.198270581502
 30
0.0
 10
296.154245995763
 20
538.0678371972858
 30
0.0
  0
SPLINE
  5
DB
330
1F
100
AcDbEntity
  8
0
  6
Continuous
 62
     7
370
    15
100
AcDbSpline
210
0.0
220
0.0
230
1.0
 70
     8
 71
     3
 72
     9
 73
     5
 74
     0
 42
0.00000001
 43
0.00000001
 12
1.0
 22
0.0
 32
0.0
 13
1.0
 23
0.0
 33
0.0
 40
0.0
 40
0.0
 40
0.0
 40
0.0
 40
0.5142872685700832
 40
1.0
 40
1.0
 40
1.0
 40
1.0
 10
312.4145369653068
 20
513.4064362031687
 30
0.0
 10
312.5264096604809
 20
515.441980187351
 30
0.0
 10
312.7439392436751
 20
519.399970416901
 30
0.0
 10
313.4808911228774
 20
523.2944921451134
 30
0.0
 10
313.8388380330572
 20
525.1861109313367
 30
0.0
  0
SPLINE
  5
DC
330
1F
100
AcDbEntity
  8
0
  6
Continuous
 62
     7
370
    15
100
AcDbSpline
210
0.0
220
0.0
230
1.0
 70
     8
 71
     3
 72
     9
 73
     5
 74
     0
 42
0.00000001
 43
0.00000001
 12
1.0
 22
0.0
 32
0.0
 13
1.0
 23
0.0
 33
0.0
 40
0.0
 40
0.0
 40
0.0
 40
0.0
 40
0.1146435175133442
 40
1.0
 40
1.0
 40
1.0
 40
1.0
 10
319.6778331263737
 20
537.2750279568681
 30
0.0
 10
319.8023976282525
 20
537.4431648379923
 30
0.0
 10
320.8889353111553
 20
538.9097709293889
 30
0.0
 10
322.3466709098707
 20
540.0373486659347
 30
0.0
 10
323.6372865719451
 20
541.0356569244932
 30
0.0
  0
SPLINE
  5
DD
330
1F
100
AcDbEntity
  8
0
  6
Continuous
 62
     7
370
    15
100
AcDbSpline
210
0.0
220
0.0
230
1.0
 70
     8
 71
     3
 72
    32
 73
    28
 74
     0
 42
0.00000001
 43
0.00000001
 12
1.0
 22
0.0
 32
0.0
 13
1.0
 23
0.0
 33
0.0
 40
0.0
 40
0.0
 40
0.0
 40
0.0
 40
0.1249999999999969
 40
0.1249999999999969
 40
0.187499999999996
 40
0.187499999999996
 40
0.2499999999999952
 40
0.2499999999999952
 40
0.3124999999999943
 40
0.3124999999999943
 40
0.3749999999999934
 40
0.3749999999999934
 40
0.4374999999999926
 40
0.4374999999999926
 40
0.4999999999999917
 40
0.4999999999999917
 40
0.6249999999999938
 40
0.6249999999999938
 40
0.7499999999999959
 40
0.7499999999999959
 40
0.812499999999997
 40
0.812499999999997
 40
0.874999999999998
 40
0.874999999999998
 40
0.937499999999999
 40
0.937499999999999
 40
1.0
 40
1.0
 40
1.0
 40
1.0
 10
312.4145369646992
 20
513.4064361900979
 30
0.0
 10
312.4140674188655
 20
513.4064468343926
 30
0.0
 10
312.4026703605072
 20
513.3459155303394
 30
0.0
 10
312.3712060867581
 20
513.1711630406533
 30
0.0
 10
312.3583954417388
 20
513.0991141567382
 30
0.0
 10
312.3286659114538
 20
512.9269790867082
 30
0.0
 10
312.3117174247894
 20
512.8266419095094
 30
0.0
 10
312.2756903130979
 20
512.6043808760317
 30
0.0
 10
312.2564907461353
 20
512.4817835523379
 30
0.0
 10
312.2167803159916
 20
512.2135690282265
 30
0.0
 10
312.1961116677936
 20
512.0666731609417
 30
0.0
 10
312.1557972813029
 20
511.7577453024031
 30
0.0
 10
312.1360652161421
 20
511.5952678415574
 30
0.0
 10
312.098566297883
 20
511.2543760795452
 30
0.0
 10
312.0806959126635
 20
511.0747821683302
 30
0.0
 10
312.0324564824498
 20
510.5187925316212
 30
0.0
 10
312.0081204486309
 20
510.1339915281395
 30
0.0
 10
311.9801820231046
 20
509.3355029277761
 30
0.0
 10
311.977288550055
 20
508.9377360636387
 30
0.0
 10
311.9886790170011
 20
508.3534865262038
 30
0.0
 10
311.9951361855153
 20
508.160086784563
 30
0.0
 10
312.0121860304025
 20
507.7893742987753
 30
0.0
 10
312.0227977979156
 20
507.6103406027405
 30
0.0
 10
312.0472366661796
 20
507.2648614482601
 30
0.0
 10
312.0611922252336
 20
507.0972329053185
 30
0.0
 10
312.0904327621281
 20
506.7842577582106
 30
0.0
 10
312.1057436548222
 20
506.6381114772183
 30
0.0
 10
312.1211279948482
 20
506.5021223289797
 30
0.0
  0
SPLINE
  5
DE
330
1F
100
AcDbEntity
  8
0
  6
Continuous
 62
     7
370
    15
100
AcDbSpline
210
0.0
220
0.0
230
1.0
 70
     8
 71
     3
 72
    46
 73
    42
 74
     0
 42
0.00000001
 43
0.00000001
 12
1.0
 22
0.0
 32
0.0
 13
1.0
 23
0.0
 33
0.0
 40
0.0
 40
0.0
 40
0.0
 40
0.0
 40
0.00974210794486
 40
0.0197912139415246
 40
0.0301473917342191
 40
0.0408107086219266
 40
0.0517812261767546
 40
0.0630590008648176
 40
0.0746440845850588
 40
0.0865365251386749
 40
0.0987363666395858
 40
0.1112436498746079
 40
0.1240584126205366
 40
0.1654522137230165
 40
0.2068871221006865
 40
0.2483633224865211
 40
0.2892408375676447
 40
0.3283169710552101
 40
0.3655936503106371
 40
0.4010731107784645
 40
0.4347579606477058
 40
0.4666512634448803
 40
0.4967566448089805
 40
0.5642761621488526
 40
0.6285064122440875
 40
0.6895293176500024
 40
0.747440470597528
 40
0.7661403898905821
 40
0.7847202355184575
 40
0.8031844225048541
 40
0.8215374493433429
 40
0.8397838967449981
 40
0.8579284261419937
 40
0.87597577794036
 40
0.8939307695164213
 40
0.9117982929529264
 40
0.9295833125125197
 40
0.9472908618479785
 40
0.9649260409505538
 40
0.9824940128397515
 40
1.0
 40
1.0
 40
1.0
 40
1.0
 10
296.1542770685728
 20
538.0688941208743
 30
0.0
 10
296.0049736010074
 20
537.9981688897766
 30
0.0
 10
295.7016617422677
 20
537.8544896996425
 30
0.0
 10
295.2360184401508
 20
537.6338271882767
 30
0.0
 10
294.7534928354007
 20
537.4051845076065
 30
0.0
 10
294.2537086212614
 20
537.1684195475954
 30
0.0
 10
293.7366663639694
 20
536.9235719558482
 30
0.0
 10
293.2022974135211
 20
536.6706306608106
 30
0.0
 10
292.6505929493619
 20
536.4095981140953
 30
0.0
 10
292.0815689566696
 20
536.1404756294193
 30
0.0
 10
291.4952894392351
 20
535.863254644214
 30
0.0
 10
290.8918258279418
 20
535.5779689087714
 30
0.0
 10
289.8151783325073
 20
535.0686640910934
 30
0.0
 10
288.2602544044281
 20
534.3352474677938
 30
0.0
 10
286.2290064517952
 20
533.3789001219707
 30
0.0
 10
284.2094776398265
 20
532.4198904391856
 30
0.0
 10
282.2387619958192
 20
531.4831436450494
 30
0.0
 10
280.351766679534
 20
530.5939895666098
 30
0.0
 10
278.5761391298736
 20
529.7589820279089
 30
0.0
 10
276.9158565633596
 20
528.9787979504083
 30
0.0
 10
275.3731327373392
 20
528.2532638832402
 30
0.0
 10
273.9480699919769
 20
527.5824012431742
 30
0.0
 10
272.0716789051635
 20
526.6988250489547
 30
0.0
 10
269.8392118806887
 20
525.6520578406014
 30
0.0
 10
267.4170446471658
 20
524.5168074563248
 30
0.0
 10
265.3728069919167
 20
523.5560226117831
 30
0.0
 10
264.0493537899936
 20
522.9335363366571
 30
0.0
 10
263.2416734386062
 20
522.555705683782
 30
0.0
 10
262.8001717493765
 20
522.3494360078361
 30
0.0
 10
262.3936040422453
 20
522.1596844743658
 30
0.0
 10
262.0222129499724
 20
521.9864247868803
 30
0.0
 10
261.6862098197395
 20
521.8296641587136
 30
0.0
 10
261.3857425025711
 20
521.6894010933355
 30
0.0
 10
261.1209032216834
 20
521.5656357159577
 30
0.0
 10
260.8917345139448
 20
521.4583702735074
 30
0.0
 10
260.698203857597
 20
521.3675969785506
 30
0.0
 10
260.5403049583484
 20
521.2933457801428
 30
0.0
 10
260.4176871739305
 20
521.2355065609291
 30
0.0
 10
260.3310355189987
 20
521.194488632136
 30
0.0
 10
260.2769573659974
 20
521.1687742139343
 30
0.0
 10
260.2702846163303
 20
521.1655846456936
 30
0.0
 10
260.2669541377313
 20
521.1639926799679
 30
0.0
  0
ARC
  5
DF
330
1F
100
AcDbEntity
  8
0
  6
Continuous
 62
     7
370
    15
100
AcDbCircle
 10
262.4370944973
 20
521.16399268
 30
0.0
 40
2.170140359601839
100
AcDbArc
 50
126.6214308223
 51
180.0
  0
SPLINE
  5
E0
330
1F
100
AcDbEntity
  8
0
  6
Continuous
 62
     7
370
    15
100
AcDbSpline
210
0.0
220
0.0
230
1.0
 70
     8
 71
     3
 72
    33
 73
    29
 74
     0
 42
0.00000001
 43
0.00000001
 12
1.0
 22
0.0
 32
0.0
 13
1.0
 23
0.0
 33
0.0
 40
0.0
 40
0.0
 40
0.0
 40
0.0
 40
0.0145204379918169
 40
0.0313819706146066
 40
0.0449529442379919
 40
0.0553708827266715
 40
0.0626539305679932
 40
0.0815894961657969
 40
0.125185946417998
 40
0.1436847251574727
 40
0.1874991065350435
 40
0.2187904001632031
 40
0.2501685081007747
 40
0.2877189805199486
 40
0.3742057991334372
 40
0.4374043384973844
 40
0.4991389754369034
 40
0.5480575208550369
 40
0.6315938525909593
 40
0.7496267511556846
 40
0.809145170791302
 40
0.8744846520222942
 40
0.9045284487271659
 40
0.9370195823510897
 40
0.95251032402624
 40
0.9686184294978067
 40
0.9868006512556128
 40
0.9999999999999999
 40
0.9999999999999999
 40
0.9999999999999999
 40
0.9999999999999999
 10
294.9313271205572
 20
539.4000239952738
 30
0.0
 10
294.718582253988
 20
539.2973030846783
 30
0.0
 10
294.2587921874043
 20
539.0752998228189
 30
0.0
 10
293.5999289431208
 20
538.7532991782683
 30
0.0
 10
292.9980448110522
 20
538.4584106413458
 30
0.0
 10
292.5345880262745
 20
538.2313258258611
 30
0.0
 10
291.9916897687459
 20
537.9637965895738
 30
0.0
 10
290.9440265602522
 20
537.4524570071508
 30
0.0
 10
289.7142279406431
 20
536.8527444185052
 30
0.0
 10
288.0977014183339
 20
536.063421657769
 30
0.0
 10
286.6612280181104
 20
535.3617410347949
 30
0.0
 10
285.0250090303281
 20
534.5629429065898
 30
0.0
 10
283.4871835769023
 20
533.8126313480808
 30
0.0
 10
281.1142415703843
 20
532.6541403411273
 30
0.0
 10
278.2949586123578
 20
531.2777797941889
 30
0.0
 10
275.2359208993905
 20
529.7844489786712
 30
0.0
 10
272.8357690458442
 20
528.6129010785669
 30
0.0
 10
270.3052292466434
 20
527.3778980725484
 30
0.0
 10
267.3080781612147
 20
525.9151877157224
 30
0.0
 10
264.7315593974301
 20
524.6573548712929
 30
0.0
 10
262.94018493953
 20
523.7827580564489
 30
0.0
 10
262.0948336233571
 20
523.3704003781944
 30
0.0
 10
261.6002570269431
 20
523.1290986785386
 30
0.0
 10
261.3794814216889
 20
523.0207834886359
 30
0.0
 10
261.2545914947363
 20
522.9599489991139
 30
0.0
 10
261.1913028212265
 20
522.9305252872836
 30
0.0
 10
261.158878214741
 20
522.9162833073398
 30
0.0
 10
261.1474156149354
 20
522.9088807834164
 30
0.0
 10
261.1425943504183
 20
522.9057672204782
 30
0.0
  0
SPLINE
  5
E1
330
1F
100
AcDbEntity
  8
0
  6
Continuous
 62
     7
370
    15
100
AcDbSpline
210
0.0
220
0.0
230
1.0
 70
     8
 71
     3
 72
     8
 73
     4
 74
     0
 42
0.00000001
 43
0.00000001
 12
1.0
 22
0.0
 32
0.0
 13
1.0
 23
0.0
 33
0.0
 40
0.0
 40
0.0
 40
0.0
 40
0.0
 40
1.0
 40
1.0
 40
1.0
 40
1.0
 10
295.0152513890595
 20
539.4413185764579
 30
0.0
 10
294.9872864680211
 20
539.4275588868478
 30
0.0
 10
294.9593117089335
 20
539.4137940246898
 30
0.0
 10
294.9313271206594
 20
539.4000239953116
 30
0.0
  0
LINE
  5
E2
330
1F
100
AcDbEntity
  8
0
  6
Continuous
 62
     7
370
    15
100
AcDbLine
 10
260.2669541377
 20
502.4064361915
 30
0.0
 11
312.2669541377
 21
502.4064361915
 31
0.0
  0
SPLINE
  5
E3
330
1F
100
AcDbEntity
  8
0
  6
Continuous
 62
     7
370
    15
100
AcDbSpline
210
0.0
220
0.0
230
1.0
 70
     8
 71
     3
 72
    10
 73
     6
 74
     0
 42
0.00000001
 43
0.00000001
 12
1.0
 22
0.0
 32
0.0
 13
1.0
 23
0.0
 33
0.0
 40
0.0
 40
0.0
 40
0.0
 40
0.0
 40
0.4296886374059606
 40
0.8695305414325628
 40
1.0
 40
1.0
 40
1.0
 40
1.0
 10
312.2661830171084
 20
505.4115780873522
 30
0.0
 10
312.259994218052
 20
505.4511282931842
 30
0.0
 10
312.2474703825912
 20
505.5311632508188
 30
0.0
 10
312.1750732684279
 20
506.034788983953
 30
0.0
 10
312.1311245882056
 20
506.4150743093954
 30
0.0
 10
312.1210705004048
 20
506.502071735303
 30
0.0
  0
LINE
  5
E4
330
1F
100
AcDbEntity
  8
0
  6
Continuous
 62
     7
370
    15
100
AcDbLine
 10
312.2169541359
 20
490.4064361915
 30
0.0
 11
260.3169541359
 21
490.4064361915
 31
0.0
  0
SPLINE
  5
E5
330
1F
100
AcDbEntity
  8
0
  6
Continuous
 62
     7
370
    15
100
AcDbSpline
210
0.0
220
0.0
230
1.0
 70
     8
 71
     3
 72
    56
 73
    52
 74
     0
 42
0.00000001
 43
0.00000001
 12
1.0
 22
0.0
 32
0.0
 13
1.0
 23
0.0
 33
0.0
 40
0.0
 40
0.0
 40
0.0
 40
0.0
 40
0.0098631274082959
 40
0.0197850007549857
 40
0.0297852973185139
 40
0.0398832376026779
 40
0.0500975538331584
 40
0.0604465585646547
 40
0.0709483301718928
 40
0.0816100649957998
 40
0.0924265523392055
 40
0.1033914780739629
 40
0.1144977969794139
 40
0.1257377045572537
 40
0.1371083051462849
 40
0.1486157573069307
 40
0.1602628706228551
 40
0.1720528219828962
 40
0.1839892301089408
 40
0.196076180736473
 40
0.2083182513285976
 40
0.2207205350304942
 40
0.2332886635446696
 40
0.2460288285837381
 40
0.258946841070005
 40
0.2720390319479905
 40
0.2852979649862409
 40
0.2987159910158922
 40
0.3122849521570552
 40
0.3259962213604398
 40
0.3398407504508774
 40
0.3538091276413168
 40
0.3678916456042198
 40
0.3820805604117668
 40
0.3964141607255149
 40
0.4109112963722417
 40
0.4255742177922893
 40
0.4404054829751818
 40
0.4554079966386874
 40
0.4705850522498671
 40
0.4859403768207109
 40
0.5014781783665183
 40
0.602253211069515
 40
0.7507887079299252
 40
0.7727297290895282
 40
0.7992871309545513
 40
0.8304019185790869
 40
0.8659290000007447
 40
0.9060452218438365
 40
0.9507344791492922
 40
1.0
 40
1.0
 40
1.0
 40
1.0
 10
366.4847659662757
 20
574.3080996534849
 30
0.0
 10
366.4840206842708
 20
574.3077447531062
 30
0.0
 10
366.4825256812741
 20
574.3070328385207
 30
0.0
 10
366.4712512284118
 20
574.3015455468205
 30
0.0
 10
366.454007220674
 20
574.2931358705134
 30
0.0
 10
366.4306878070445
 20
574.2817507017186
 30
0.0
 10
366.4021424200558
 20
574.2678040985026
 30
0.0
 10
366.3690612940994
 20
574.2516320292814
 30
0.0
 10
366.3322951882047
 20
574.2336489147095
 30
0.0
 10
366.2904446168094
 20
574.2131744482255
 30
0.0
 10
366.2435268880398
 20
574.1902169803063
 30
0.0
 10
366.1912847244541
 20
574.164651486224
 30
0.0
 10
366.1335371853055
 20
574.1363900790941
 30
0.0
 10
366.0700753908548
 20
574.1053312789303
 30
0.0
 10
366.0006407309174
 20
574.0713494302674
 30
0.0
 10
365.924951375851
 20
574.0343072271195
 30
0.0
 10
365.8427433352147
 20
573.99407586224
 30
0.0
 10
365.7537449256753
 20
573.9505228389719
 30
0.0
 10
365.6576812672905
 20
573.9035140905211
 30
0.0
 10
365.5542709097842
 20
573.8529123518813
 30
0.0
 10
365.4432267980441
 20
573.7985776276522
 30
0.0
 10
365.3242560028348
 20
573.7403670606041
 30
0.0
 10
365.1970602074686
 20
573.6781351785463
 30
0.0
 10
365.0613379280127
 20
573.6117349498888
 30
0.0
 10
364.9168280437759
 20
573.5410392004841
 30
0.0
 10
364.7632435707561
 20
573.4659074680077
 30
0.0
 10
364.6005421915141
 20
573.3863190505223
 30
0.0
 10
364.4286747889952
 20
573.3022499145333
 30
0.0
 10
364.247610669926
 20
573.2136850153547
 30
0.0
 10
364.0573285661856
 20
573.1206138977047
 30
0.0
 10
363.8578209853377
 20
573.0230328292756
 30
0.0
 10
363.649088389585
 20
572.9209419254997
 30
0.0
 10
363.4311480823065
 20
572.8143496010318
 30
0.0
 10
363.2037109619082
 20
572.7031140754159
 30
0.0
 10
362.966562639317
 20
572.5871315091244
 30
0.0
 10
362.7193428036505
 20
572.466226029533
 30
0.0
 10
362.4618292360951
 20
572.3402890546415
 30
0.0
 10
362.1939111898767
 20
572.2092666300877
 30
0.0
 10
361.9154797737107
 20
572.0731055337587
 30
0.0
 10
361.6264318134561
 20
571.9317559532865
 30
0.0
 10
361.3266719349575
 20
571.7851695931488
 30
0.0
 10
360.449495082159
 20
571.356243255998
 30
0.0
 10
358.5363126804709
 20
570.4203532586225
 30
0.0
 10
356.3257761483064
 20
569.3385905960722
 30
0.0
 10
354.683122486941
 20
568.5354485108588
 30
0.0
 10
354.0155505634236
 20
568.2094871112457
 30
0.0
 10
353.2317579492234
 20
567.8269596575104
 30
0.0
 10
352.3337479050932
 20
567.3887689542653
 30
0.0
 10
351.3212300400724
 20
566.8948369651855
 30
0.0
 10
350.1929316320252
 20
566.3444902527987
 30
0.0
 10
349.40216420847
 20
565.9588342789025
 30
0.0
 10
348.9875225078802
 20
565.7566142024353
 30
0.0
  0
LINE
  5
E6
330
1F
100
AcDbEntity
  8
0
  6
Continuous
 62
     7
370
    15
100
AcDbLine
 10
348.9875369964
 20
565.7566063099
 30
0.0
 11
348.8973190127
 21
565.7126071476
 31
0.0
  0
SPLINE
  5
E7
330
1F
100
AcDbEntity
  8
0
  6
Continuous
 62
     7
370
    15
100
AcDbSpline
210
0.0
220
0.0
230
1.0
 70
     8
 71
     3
 72
    12
 73
     8
 74
     0
 42
0.00000001
 43
0.00000001
 12
1.0
 22
0.0
 32
0.0
 13
1.0
 23
0.0
 33
0.0
 40
0.0
 40
0.0
 40
0.0
 40
0.0
 40
0.5000000000000007
 40
0.5000000000000007
 40
0.7500000000000003
 40
0.7500000000000003
 40
1.0
 40
1.0
 40
1.0
 40
1.0
 10
348.897319012703
 20
565.7126071475533
 30
0.0
 10
344.1786502794375
 20
563.4114261240979
 30
0.0
 10
339.4598698421973
 20
561.1101305091431
 30
0.0
 10
332.3812341618269
 20
557.6578802604103
 30
0.0
 10
330.0214941737055
 20
556.5070224210745
 30
0.0
 10
325.3016568756798
 20
554.2051202604698
 30
0.0
 10
322.9451387347752
 20
553.0557725393443
 30
0.0
 10
320.5903049148214
 20
551.9073179668545
 30
0.0
  0
SPLINE
  5
E8
330
1F
100
AcDbEntity
  8
0
  6
Continuous
 62
     7
370
    15
100
AcDbSpline
210
0.0
220
0.0
230
1.0
 70
     8
 71
     3
 72
     8
 73
     4
 74
     0
 42
0.00000001
 43
0.00000001
 12
1.0
 22
0.0
 32
0.0
 13
1.0
 23
0.0
 33
0.0
 40
0.0
 40
0.0
 40
0.0
 40
0.0
 40
1.0
 40
1.0
 40
1.0
 40
1.0
 10
320.5903305417453
 20
551.9072655950497
 30
0.0
 10
320.5603766542341
 20
551.8926613305098
 30
0.0
 10
320.5304232441091
 20
551.8780572981427
 30
0.0
 10
320.5004703186351
 20
551.8634535010449
 30
0.0
  0
SPLINE
  5
E9
330
1F
100
AcDbEntity
  8
0
  6
Continuous
 62
     7
370
    15
100
AcDbSpline
210
0.0
220
0.0
230
1.0
 70
     8
 71
     3
 72
     8
 73
     4
 74
     0
 42
0.00000001
 43
0.00000001
 12
1.0
 22
0.0
 32
0.0
 13
1.0
 23
0.0
 33
0.0
 40
0.0
 40
0.0
 40
0.0
 40
0.0
 40
1.0
 40
1.0
 40
1.0
 40
1.0
 10
320.5004703186422
 20
551.8634535010485
 30
0.0
 10
320.411851867934
 20
551.8202699293167
 30
0.0
 10
320.3232375436826
 20
551.77708833026
 30
0.0
 10
320.2346274816555
 20
551.7339087585842
 30
0.0
  0
SPLINE
  5
EA
330
1F
100
AcDbEntity
  8
0
  6
Continuous
 62
     7
370
    15
100
AcDbSpline
210
0.0
220
0.0
230
1.0
 70
     8
 71
     3
 72
     8
 73
     4
 74
     0
 42
0.00000001
 43
0.00000001
 12
1.0
 22
0.0
 32
0.0
 13
1.0
 23
0.0
 33
0.0
 40
0.0
 40
0.0
 40
0.0
 40
0.0
 40
1.0
 40
1.0
 40
1.0
 40
1.0
 10
320.2355454075928
 20
551.7342065262791
 30
0.0
 10
320.2054391060877
 20
551.7195380055839
 30
0.0
 10
320.1753327034743
 20
551.7048694653718
 30
0.0
 10
320.1452262770745
 20
551.6902009422287
 30
0.0
  0
SPLINE
  5
EB
330
1F
100
AcDbEntity
  8
0
  6
Continuous
 62
     7
370
    15
100
AcDbSpline
210
0.0
220
0.0
230
1.0
 70
     8
 71
     3
 72
    21
 73
    17
 74
     0
 42
0.00000001
 43
0.00000001
 12
1.0
 22
0.0
 32
0.0
 13
1.0
 23
0.0
 33
0.0
 40
0.0
 40
0.0
 40
0.0
 40
0.0
 40
0.030697511782087
 40
0.082580657286112
 40
0.1555833990159668
 40
0.2496012574775718
 40
0.3645524271585115
 40
0.5005859837884338
 40
0.6062737747115258
 40
0.6993974674351235
 40
0.7804529747430032
 40
0.8493486084667459
 40
0.9057926609381743
 40
0.9497138621514043
 40
0.9811165645984622
 40
1.0
 40
1.0
 40
1.0
 40
1.0
 10
320.1452262775426
 20
551.6902009419244
 30
0.0
 10
319.8787842354886
 20
551.5601112378296
 30
0.0
 10
319.1620173809741
 20
551.2101514969041
 30
0.0
 10
317.8115443290707
 20
550.5518636503482
 30
0.0
 10
315.9127219482802
 20
549.6264044223346
 30
0.0
 10
313.4703385823789
 20
548.4363267823087
 30
0.0
 10
310.4914218651828
 20
546.9848040862723
 30
0.0
 10
307.4384031862508
 20
545.4972122052386
 30
0.0
 10
304.6338702062885
 20
544.1305788563436
 30
0.0
 10
302.3530575100471
 20
543.0190774301822
 30
0.0
 10
300.4073957045769
 20
542.070949908446
 30
0.0
 10
298.7576304460929
 20
541.2669935771386
 30
0.0
 10
297.4003390586957
 20
540.6054489730103
 30
0.0
 10
296.3378284985276
 20
540.0873002541771
 30
0.0
 10
295.574036067628
 20
539.7147411027373
 30
0.0
 10
295.1650612911029
 20
539.5147160548556
 30
0.0
 10
295.0114832056945
 20
539.4396027088727
 30
0.0
  0
SPLINE
  5
EC
330
1F
100
AcDbEntity
  8
0
  6
Continuous
 62
     7
370
    15
100
AcDbSpline
210
0.0
220
0.0
230
1.0
 70
     8
 71
     3
 72
    15
 73
    11
 74
     0
 42
0.00000001
 43
0.00000001
 12
1.0
 22
0.0
 32
0.0
 13
1.0
 23
0.0
 33
0.0
 40
0.0
 40
0.0
 40
0.0
 40
0.0
 40
0.181046449754438
 40
0.3478709080769404
 40
0.5005313745877656
 40
0.6257734995057356
 40
0.7508540186838534
 40
0.8352971729896619
 40
0.9189388228276648
 40
1.0
 40
1.0
 40
1.0
 40
1.0
 10
349.8168209743355
 20
564.1321555906419
 30
0.0
 10
348.1024862533723
 20
563.3002613388413
 30
0.0
 10
344.8084853108617
 20
561.70182177159
 30
0.0
 10
340.0708296002
 20
559.3970262997991
 30
0.0
 10
335.861799426609
 20
557.3478655625457
 30
0.0
 10
332.0464145708526
 20
555.4936314217406
 30
0.0
 10
328.8786872848761
 20
553.9491969714554
 30
0.0
 10
326.1047377476701
 20
552.595932747665
 30
0.0
 10
323.746320533805
 20
551.4486908565679
 30
0.0
 10
322.1887406710469
 20
550.6892275246216
 30
0.0
 10
321.4221523889455
 20
550.3154452840597
 30
0.0
  0
SPLINE
  5
ED
330
1F
100
AcDbEntity
  8
0
  6
Continuous
 62
     7
370
    15
100
AcDbSpline
210
0.0
220
0.0
230
1.0
 70
     8
 71
     3
 72
     8
 73
     4
 74
     0
 42
0.00000001
 43
0.00000001
 12
1.0
 22
0.0
 32
0.0
 13
1.0
 23
0.0
 33
0.0
 40
0.0
 40
0.0
 40
0.0
 40
0.0
 40
1.0
 40
1.0
 40
1.0
 40
1.0
 10
321.4221718009853
 20
550.3153790498039
 30
0.0
 10
321.3033892439077
 20
550.2575680546572
 30
0.0
 10
321.1854688558253
 20
550.2001712284533
 30
0.0
 10
321.0683991423976
 20
550.1431900079101
 30
0.0
  0
SPLINE
  5
EE
330
1F
100
AcDbEntity
  8
0
  6
Continuous
 62
     7
370
    15
100
AcDbSpline
210
0.0
220
0.0
230
1.0
 70
     8
 71
     3
 72
    13
 73
     9
 74
     0
 42
0.00000001
 43
0.00000001
 12
1.0
 22
0.0
 32
0.0
 13
1.0
 23
0.0
 33
0.0
 40
0.0
 40
0.0
 40
0.0
 40
0.0
 40
0.15247800921059
 40
0.4543873813276144
 40
0.7715845346660382
 40
0.7715845346660382
 40
0.8857922673330191
 40
1.0
 40
1.0
 40
1.0
 40
1.0
 10
351.7381323707049
 20
557.3202333671367
 30
0.0
 10
349.9573756605753
 20
556.3283789946489
 30
0.0
 10
344.595554511636
 20
553.4738988668206
 30
0.0
 10
336.2434011584892
 20
548.8574985541785
 30
0.0
 10
330.8606124601956
 20
545.8462542783302
 30
0.0
 10
327.5431121574446
 20
543.7835343472655
 30
0.0
 10
325.8692069242429
 20
542.698169424251
 30
0.0
 10
324.3553674943209
 20
541.5972917290215
 30
0.0
 10
323.6371766992399
 20
541.0357059425781
 30
0.0
  0
SPLINE
  5
EF
330
1F
100
AcDbEntity
  8
0
  6
Continuous
 62
     7
370
    15
100
AcDbSpline
210
0.0
220
0.0
230
1.0
 70
     8
 71
     3
 72
    39
 73
    35
 74
     0
 42
0.00000001
 43
0.00000001
 12
1.0
 22
0.0
 32
0.0
 13
1.0
 23
0.0
 33
0.0
 40
0.0
 40
0.0
 40
0.0
 40
0.0
 40
0.010913348191247
 40
0.022198191840766
 40
0.0339309714737064
 40
0.0462015864617517
 40
0.0591004113088278
 40
0.0727078357666643
 40
0.0870872362809791
 40
0.1022818381231439
 40
0.1183153592692651
 40
0.135193066371836
 40
0.1529043733900012
 40
0.1714261110357296
 40
0.1907258477024193
 40
0.2107650347500533
 40
0.2315013164043283
 40
0.2528898531487037
 40
0.3061236348923829
 40
0.3667731666674275
 40
0.4337941540688911
 40
0.505714761825755
 40
0.5756206159772942
 40
0.650338211025152
 40
0.7191169866428981
 40
0.7957014632558848
 40
0.8201462578807287
 40
0.8449587753605302
 40
0.8700675241552055
 40
0.8954658169145361
 40
0.9211563716659812
 40
0.9471412811937263
 40
0.973422113240733
 40
1.0
 40
1.0
 40
1.0
 40
1.0
 10
368.0634375289063
 20
572.7607500880762
 30
0.0
 10
368.0624899723404
 20
572.7606344228486
 30
0.0
 10
368.0605626039415
 20
572.7603991550956
 30
0.0
 10
368.0461789301742
 20
572.7565835710822
 30
0.0
 10
368.0237593601533
 20
572.7479320199855
 30
0.0
 10
367.9920657816104
 20
572.7333721176707
 30
0.0
 10
367.9507822026728
 20
572.7123867784074
 30
0.0
 10
367.8989770245962
 20
572.6847459431839
 30
0.0
 10
367.8355905311058
 20
572.6504017323033
 30
0.0
 10
367.7593338850058
 20
572.6093497351018
 30
0.0
 10
367.6687602655816
 20
572.5615410527829
 30
0.0
 10
367.5622804040601
 20
572.5068004386007
 30
0.0
 10
367.4382023070171
 20
572.4447646011631
 30
0.0
 10
367.2947684464192
 20
572.3748419785528
 30
0.0
 10
367.130195771185
 20
572.2961916658539
 30
0.0
 10
366.942732936247
 20
572.2076948527292
 30
0.0
 10
366.73070957728
 20
572.1079878412135
 30
0.0
 10
366.3765863347569
 20
571.9405348196822
 30
0.0
 10
365.8014068732506
 20
571.6627319457664
 30
0.0
 10
364.8931836370215
 20
571.2305659151575
 30
0.0
 10
363.7271246018954
 20
570.6846832123836
 30
0.0
 10
362.3352335124915
 20
570.0347582120218
 30
0.0
 10
360.7363023404267
 20
569.2824866427021
 30
0.0
 10
359.032427744761
 20
568.4861032648198
 30
0.0
 10
357.1769560089788
 20
567.6157027751196
 30
0.0
 10
355.6862508251973
 20
566.9263490046543
 30
0.0
 10
354.5741522739073
 20
566.4081558966806
 30
0.0
 10
353.9162294940663
 20
566.0993356789022
 30
0.0
 10
353.2507117286373
 20
565.7844526338691
 30
0.0
 10
352.5779421604161
 20
565.4639941792352
 30
0.0
 10
351.898015801174
 20
565.138201495528
 30
0.0
 10
351.2108181139419
 20
564.8072605697614
 30
0.0
 10
350.516229704403
 20
564.4714453323114
 30
0.0
 10
350.0508420322749
 20
564.2456290173222
 30
0.0
 10
349.8168405065416
 20
564.1320863400928
 30
0.0
  0
ARC
  5
F0
330
1F
100
AcDbEntity
  8
0
  6
Continuous
 62
     7
370
    15
100
AcDbCircle
 10
366.8502773563
 20
573.102021152
 30
0.0
 40
1.260247413551661
100
AcDbArc
 50
344.2883088269
 51
106.8608555874
  0
SPLINE
  5
F1
330
1F
100
AcDbEntity
  8
0
  6
Continuous
 62
     7
370
    15
100
AcDbSpline
210
0.0
220
0.0
230
1.0
 70
     8
 71
     3
 72
    15
 73
    11
 74
     0
 42
0.00000001
 43
0.00000001
 12
1.0
 22
0.0
 32
0.0
 13
1.0
 23
0.0
 33
0.0
 40
0.0
 40
0.0
 40
0.0
 40
0.0
 40
0.2159249427285367
 40
0.2159249427285367
 40
0.3466041189404472
 40
0.4772832951523577
 40
0.6079624713642683
 40
0.7386416475761789
 40
0.8693208237880894
 40
0.8898059991320623
 40
0.8898059991320623
 40
0.8898059991320623
 40
0.8898059991320623
 10
351.7381323707049
 20
557.3202333671367
 30
0.0
 10
353.5315533172254
 20
558.3191415264595
 30
0.0
 10
355.3062095926024
 20
559.3525160124603
 30
0.0
 10
358.0126058341656
 20
561.0972521762017
 30
0.0
 10
359.9884388877336
 20
562.4521052094486
 30
0.0
 10
362.6644348003163
 20
564.6274462163545
 30
0.0
 10
364.959733999327
 20
566.9712288522302
 30
0.0
 10
366.7813934389634
 20
569.5088332890099
 30
0.0
 10
367.6836928374569
 20
571.4907559038259
 30
0.0
 10
368.020548973352
 20
572.6082886198891
 30
0.0
 10
368.0634375289063
 20
572.7607500880761
 30
0.0
  0
LINE
  5
F2
330
1F
100
AcDbEntity
  8
0
  6
Continuous
 62
     7
370
    15
100
AcDbLine
 10
312.5169541377
 20
509.4064361915
 30
0.0
 11
312.5169541377
 21
513.4064361915
 31
0.0
  0
LINE
  5
F3
330
1F
100
AcDbEntity
  8
0
  6
Continuous
 62
     7
370
    15
100
AcDbLine
 10
312.5169541377
 20
505.4064361915
 30
0.0
 11
312.5169541377
 21
509.4064361915
 31
0.0
  0
SPLINE
  5
F4
330
1F
100
AcDbEntity
  8
0
  6
Continuous
 62
     7
370
    15
100
AcDbSpline
210
0.0
220
0.0
230
1.0
 70
     8
 71
     3
 72
    10
 73
     6
 74
     0
 42
0.00000001
 43
0.00000001
 12
1.0
 22
0.0
 32
0.0
 13
1.0
 23
0.0
 33
0.0
 40
0.0
 40
0.0
 40
0.0
 40
0.0
 40
0.8225580388243489
 40
0.8225580388243489
 40
1.0
 40
1.0
 40
1.0
 40
1.0
 10
293.8514024522428
 20
466.5640965060408
 30
0.0
 10
300.8315981875528
 20
468.823619778746
 30
0.0
 10
302.4827270363959
 20
468.6605223590068
 30
0.0
 10
314.08751415165
 20
473.9472304233825
 30
0.0
 10
316.5140599225008
 20
475.0952671582418
 30
0.0
 10
319.4407092501254
 20
476.5228904150865
 30
0.0
  0
SPLINE
  5
F5
330
1F
100
AcDbEntity
  8
0
  6
Continuous
 62
     7
370
    15
100
AcDbSpline
210
0.0
220
0.0
230
1.0
 70
     8
 71
     3
 72
    63
 73
    59
 74
     0
 42
0.00000001
 43
0.00000001
 12
1.0
 22
0.0
 32
0.0
 13
1.0
 23
0.0
 33
0.0
 40
0.0
 40
0.0
 40
0.0
 40
0.0
 40
0.0171443971675718
 40
0.0343293360183492
 40
0.0608917783324116
 40
0.0835821463931643
 40
0.10838693765854
 40
0.1329596818606168
 40
0.1701117464587748
 40
0.1825833670388307
 40
0.1951024702693113
 40
0.2315924318909372
 40
0.2436305175142124
 40
0.2800783176155272
 40
0.3046824963076182
 40
0.3106187575763214
 40
0.3285248477766824
 40
0.3648051731439484
 40
0.3709178009074047
 40
0.3893783068260112
 40
0.4135916095765468
 40
0.4254759857924751
 40
0.4374485819576474
 40
0.4495148287069978
 40
0.4739437941733834
 40
0.49254599529842
 40
0.5071964971451546
 40
0.5156442732753451
 40
0.5500249533372311
 40
0.5676044025266053
 40
0.5763715030932198
 40
0.603113060150767
 40
0.6213377978022132
 40
0.6305792842808613
 40
0.6561769357916016
 40
0.681114246946668
 40
0.6895760424179467
 40
0.706726755565673
 40
0.7469661218751764
 40
0.7538125375073997
 40
0.7720698551009453
 40
0.8065706936333707
 40
0.82750293089612
 40
0.8431890350760758
 40
0.8638215860163453
 40
0.8714942219781859
 40
0.8791384607955495
 40
0.9018754953993271
 40
0.9056354658104222
 40
0.9174618319164404
 40
0.9334885585757365
 40
0.9374696040898935
 40
0.9493494908621889
 40
0.9650555558515997
 40
0.9689595750547343
 40
0.9796830830840948
 40
0.9898731248584621
 40
0.9999999999999999
 40
0.9999999999999999
 40
0.9999999999999999
 40
0.9999999999999999
 10
307.1900527970285
 20
485.2781355337069
 30
0.0
 10
307.1053394124348
 20
485.219428123328
 30
0.0
 10
306.9357123198901
 20
485.1018744760362
 30
0.0
 10
306.6281293068344
 20
484.8870844025432
 30
0.0
 10
306.2859258838815
 20
484.6462764037066
 30
0.0
 10
305.8960455216709
 20
484.3692066795226
 30
0.0
 10
305.5093330199389
 20
484.09161549384
 30
0.0
 10
305.0364465314788
 20
483.7483512397358
 30
0.0
 10
304.6223811273834
 20
483.4432648769912
 30
0.0
 10
304.2705943266965
 20
483.1805405834882
 30
0.0
 10
303.9201749309606
 20
482.9170162714677
 30
0.0
 10
303.5677745647255
 20
482.6482569439131
 30
0.0
 10
303.0721870481526
 20
482.264148929337
 30
0.0
 10
302.6417688507337
 20
481.9251391221142
 30
0.0
 10
302.2437016698252
 20
481.6042880715616
 30
0.0
 10
301.9547912646583
 20
481.3685120240175
 30
0.0
 10
301.5953268269092
 20
481.0722576464927
 30
0.0
 10
301.2331442291982
 20
480.7666117674992
 30
0.0
 10
300.8672102137256
 20
480.4512214232317
 30
0.0
 10
300.5736993716234
 20
480.1950783061835
 30
0.0
 10
300.2455994584444
 20
479.9021068954187
 30
0.0
 10
299.9570951081171
 20
479.6389175066432
 30
0.0
 10
299.7418864158296
 20
479.4396854523353
 30
0.0
 10
299.4522234784189
 20
479.1673598838984
 30
0.0
 10
299.1244416696019
 20
478.8515325039428
 30
0.0
 10
298.783996909301
 20
478.5128450127593
 30
0.0
 10
298.5397480507112
 20
478.2633480000311
 30
0.0
 10
298.2052258048698
 20
477.9148474263101
 30
0.0
 10
297.8580723209886
 20
477.5394412761295
 30
0.0
 10
297.5166379710926
 20
477.1501895343088
 30
0.0
 10
297.2220123044708
 20
476.8044387462313
 30
0.0
 10
296.9294155815692
 20
476.4468346132165
 30
0.0
 10
296.6430343234313
 20
476.0758906505436
 30
0.0
 10
296.3687445867105
 20
475.7064331794624
 30
0.0
 10
296.0688254294993
 20
475.2810478363455
 30
0.0
 10
295.7882250052239
 20
474.8476203326141
 30
0.0
 10
295.5580340973618
 20
474.4684064667788
 30
0.0
 10
295.2687817656804
 20
473.9665979976419
 30
0.0
 10
295.0120007399422
 20
473.4595030418426
 30
0.0
 10
294.7766454581471
 20
472.930440633456
 30
0.0
 10
294.5747016790565
 20
472.4413685515347
 30
0.0
 10
294.3602889900851
 20
471.8207252854401
 30
0.0
 10
294.1919795945969
 20
471.2089429748685
 30
0.0
 10
294.0771872169788
 20
470.7107347880769
 30
0.0
 10
294.0047214347956
 20
470.3241839841768
 30
0.0
 10
293.9552396798162
 20
470.006592023152
 30
0.0
 10
293.9083571360761
 20
469.6695191194862
 30
0.0
 10
293.8758687625963
 20
469.3656668075019
 30
0.0
 10
293.8481124803408
 20
469.02387225748
 30
0.0
 10
293.8293707233785
 20
468.7415614231949
 30
0.0
 10
293.8175609405063
 20
468.456841739361
 30
0.0
 10
293.8104221366599
 20
468.1715177413421
 30
0.0
 10
293.8069412944019
 20
467.8889715876105
 30
0.0
 10
293.8092452152064
 20
467.6070912645641
 30
0.0
 10
293.8150128576306
 20
467.335646414404
 30
0.0
 10
293.8219963374665
 20
467.1136199566773
 30
0.0
 10
293.8344411758868
 20
466.8360720870434
 30
0.0
 10
293.8457774594511
 20
466.6546027257327
 30
0.0
 10
293.8514279786071
 20
466.5641501451756
 30
0.0
  0
LINE
  5
F6
330
1F
100
AcDbEntity
  8
0
  6
Continuous
 62
     7
370
    15
100
AcDbLine
 10
260.2669541374
 20
361.6064361736
 30
0.0
 11
312.266954138
 21
361.6064361736
 31
0.0
  0
LINE
  5
F7
330
1F
100
AcDbEntity
  8
0
  6
Continuous
 62
     7
370
    15
100
AcDbLine
 10
260.2669541374
 20
424.6064361736
 30
0.0
 11
312.266954138
 21
424.6064361736
 31
0.0
  0
LINE
  5
F8
330
1F
100
AcDbEntity
  8
0
  6
Continuous
 62
     7
370
    15
100
AcDbLine
 10
260.2669541377
 20
490.1064361736
 30
0.0
 11
312.2669541377
 21
490.1064361736
 31
0.0
  0
SPLINE
  5
F9
330
1F
100
AcDbEntity
  8
0
  6
Continuous
 62
     7
370
    15
100
AcDbSpline
210
0.0
220
0.0
230
1.0
 70
     8
 71
     3
 72
    12
 73
     8
 74
     0
 42
0.00000001
 43
0.00000001
 12
1.0
 22
0.0
 32
0.0
 13
1.0
 23
0.0
 33
0.0
 40
0.0
 40
0.0
 40
0.0
 40
0.0
 40
0.2549018309035931
 40
0.5078664061995527
 40
0.5078664061995527
 40
0.7608388392665357
 40
1.0
 40
1.0
 40
1.0
 40
1.0
 10
294.5495115311031
 20
461.9619485123644
 30
0.0
 10
294.4693704897495
 20
462.3487332076672
 30
0.0
 10
294.315692493022
 20
463.1230556910419
 30
0.0
 10
294.1797983751334
 20
463.9019594188272
 30
0.0
 10
294.0563065984846
 20
464.6788100340566
 30
0.0
 10
293.9486853544095
 20
465.4353723341305
 30
0.0
 10
293.8760536552942
 20
466.1944485225759
 30
0.0
 10
293.8514024522428
 20
466.5640965060408
 30
0.0
  0
SPLINE
  5
FA
330
1F
100
AcDbEntity
  8
0
  6
Continuous
 62
     7
370
    15
100
AcDbSpline
210
0.0
220
0.0
230
1.0
 70
     8
 71
     3
 72
    15
 73
    11
 74
     0
 42
0.00000001
 43
0.00000001
 12
1.0
 22
0.0
 32
0.0
 13
1.0
 23
0.0
 33
0.0
 40
0.0
 40
0.0
 40
0.0
 40
0.0
 40
0.062499680386339
 40
0.1249993016481651
 40
0.1874989229099913
 40
0.2499985441718174
 40
0.3124981654336435
 40
0.3749977866954697
 40
0.4374974079572958
 40
0.4999970292191219
 40
0.4999970292191219
 40
0.4999970292191219
 40
0.4999970292191219
 10
312.2669541377313
 20
428.6453046208791
 30
0.0
 10
312.2669541377301
 20
428.6453046208803
 30
0.0
 10
311.7486239873349
 20
429.1393819331257
 30
0.0
 10
309.6232647715188
 20
431.3300129364005
 30
0.0
 10
306.7005486455825
 20
434.8052663752037
 30
0.0
 10
303.5718154186612
 20
439.2667023928834
 30
0.0
 10
300.6454998559034
 20
444.4075288090721
 30
0.0
 10
298.098095221136
 20
449.9897035358829
 30
0.0
 10
296.0163364320139
 20
455.8621559967892
 30
0.0
 10
294.9739668445686
 20
459.9133998996248
 30
0.0
 10
294.5495115311031
 20
461.9619485123644
 30
0.0
  0
SPLINE
  5
FB
330
1F
100
AcDbEntity
  8
0
  6
Continuous
 62
     7
370
    15
100
AcDbSpline
210
0.0
220
0.0
230
1.0
 70
     8
 71
     3
 72
    26
 73
    22
 74
     0
 42
0.00000001
 43
0.00000001
 12
1.0
 22
0.0
 32
0.0
 13
1.0
 23
0.0
 33
0.0
 40
0.0
 40
0.0
 40
0.0
 40
0.0
 40
0.0265317950657681
 40
0.0530722980966415
 40
0.0905821524047218
 40
0.1278938157487976
 40
0.1526671556584324
 40
0.2517304447119614
 40
0.3509308979067253
 40
0.3758486958434618
 40
0.4501665059499338
 40
0.4999893397038105
 40
0.5251207697264029
 40
0.601501632719683
 40
0.6519402361093922
 40
0.7031779129806882
 40
0.8046976640497763
 40
0.8809434622599357
 40
0.9069027664461875
 40
0.9529783390657881
 40
1.0
 40
1.0
 40
1.0
 40
1.0
 10
312.2666086726084
 20
488.6237047470456
 30
0.0
 10
312.2658826494228
 20
488.6232714360868
 30
0.0
 10
312.2644303647645
 20
488.6224046719529
 30
0.0
 10
312.2509318389097
 20
488.6141588172172
 30
0.0
 10
312.2245457941332
 20
488.597777000965
 30
0.0
 10
312.1845756142077
 20
488.5726257553446
 30
0.0
 10
312.1014998330784
 20
488.5200472559681
 30
0.0
 10
311.9356020729674
 20
488.4143762044218
 30
0.0
 10
311.6907620367359
 20
488.2583823498679
 30
0.0
 10
311.4308899685684
 20
488.0923367292221
 30
0.0
 10
311.2104734825195
 20
487.9511686238631
 30
0.0
 10
310.9592294398219
 20
487.7895709092264
 30
0.0
 10
310.6862913362148
 20
487.6135343253691
 30
0.0
 10
310.3877039003125
 20
487.4201303772068
 30
0.0
 10
310.0037341304754
 20
487.169673777567
 30
0.0
 10
309.5354224800695
 20
486.8623515488072
 30
0.0
 10
308.9582488755636
 20
486.480145382659
 30
0.0
 10
308.3981706729159
 20
486.1038506392942
 30
0.0
 10
307.9722495921679
 20
485.8148849754331
 30
0.0
 10
307.621080964974
 20
485.5751623767869
 30
0.0
 10
307.3346736171654
 20
485.3777716648227
 30
0.0
 10
307.1900146548779
 20
485.2780733303477
 30
0.0
  0
LINE
  5
FC
330
1F
100
AcDbEntity
  8
0
  6
Continuous
 62
     7
370
    15
100
AcDbLine
 10
260.2669541377
 20
425.1064361736
 30
0.0
 11
312.2669541377
 21
425.1064361736
 31
0.0
  0
SPLINE
  5
FD
330
1F
100
AcDbEntity
  8
0
  6
Continuous
 62
     7
370
    15
100
AcDbSpline
210
0.0
220
0.0
230
1.0
 70
     8
 71
     3
 72
     8
 73
     4
 74
     0
 42
0.00000001
 43
0.00000001
 12
1.0
 22
0.0
 32
0.0
 13
1.0
 23
0.0
 33
0.0
 40
0.0
 40
0.0
 40
0.0
 40
0.0
 40
0.1774419611394034
 40
0.1774419611394034
 40
0.1774419611394034
 40
0.1774419611394034
 10
320.1367189958573
 20
475.1005995206615
 30
0.0
 10
317.9118097799924
 20
474.0159201720679
 30
0.0
 10
315.6868930586187
 20
472.9312405185681
 30
0.0
 10
313.4619723062872
 20
471.8465579884528
 30
0.0
  0
SPLINE
  5
FE
330
1F
100
AcDbEntity
  8
0
  6
Continuous
 62
     7
370
    15
100
AcDbSpline
210
0.0
220
0.0
230
1.0
 70
     8
 71
     3
 72
     8
 73
     4
 74
     0
 42
0.00000001
 43
0.00000001
 12
1.0
 22
0.0
 32
0.0
 13
1.0
 23
0.0
 33
0.0
 40
0.1774419611394034
 40
0.1774419611394034
 40
0.1774419611394034
 40
0.1774419611394034
 40
1.0
 40
1.0
 40
1.0
 40
1.0
 10
313.4619723062872
 20
471.8465579884528
 30
0.0
 10
303.148028307631
 20
466.8183542377322
 30
0.0
 10
301.1687105367235
 20
465.6611735787027
 30
0.0
 10
294.5495115311031
 20
461.9619485123644
 30
0.0
  0
SPLINE
  5
FF
330
1F
100
AcDbEntity
  8
0
  6
Continuous
 62
     7
370
    15
100
AcDbSpline
210
0.0
220
0.0
230
1.0
 70
     8
 71
     3
 72
    26
 73
    22
 74
     0
 42
0.00000001
 43
0.00000001
 12
1.0
 22
0.0
 32
0.0
 13
1.0
 23
0.0
 33
0.0
 40
0.0
 40
0.0
 40
0.0
 40
0.0
 40
0.1249999999999998
 40
0.1249999999999998
 40
0.2499999999999996
 40
0.2499999999999996
 40
0.3124999999999997
 40
0.3124999999999997
 40
0.3749999999999997
 40
0.3749999999999997
 40
0.4999999999999999
 40
0.4999999999999999
 40
0.5625
 40
0.5625
 40
0.6250000000000001
 40
0.6250000000000001
 40
0.7500000000000002
 40
0.7500000000000002
 40
0.8750000000000001
 40
0.8750000000000001
 40
1.0
 40
1.0
 40
1.0
 40
1.0
 10
312.2669541377306
 20
428.6453046208797
 30
0.0
 10
312.2669541374788
 20
429.921253507554
 30
0.0
 10
312.3156681644744
 20
431.1910668714578
 30
0.0
 10
312.5623889420853
 20
433.7118902081901
 30
0.0
 10
312.7604611012706
 20
434.9628919428209
 30
0.0
 10
313.2157674951623
 20
436.8194695162331
 30
0.0
 10
313.3951411196102
 20
437.437902908644
 30
0.0
 10
313.8069362606098
 20
438.6451989881774
 30
0.0
 10
314.0394412977896
 20
439.2355225018943
 30
0.0
 10
314.8191277147678
 20
440.9653431766173
 30
0.0
 10
315.4490166071512
 20
442.0634219485974
 30
0.0
 10
316.5575788881965
 20
443.6285476874738
 30
0.0
 10
316.9534938351779
 20
444.1350789701216
 30
0.0
 10
317.7804651399475
 20
445.1041032571904
 30
0.0
 10
318.2132636606334
 20
445.5691725731256
 30
0.0
 10
319.5628431203504
 20
446.9128521988544
 30
0.0
 10
320.5317063442457
 20
447.7410493736561
 30
0.0
 10
322.5704538879675
 20
449.2873725695633
 30
0.0
 10
323.6289292902147
 20
449.9974177084572
 30
0.0
 10
325.803128154644
 20
451.3251002069423
 30
0.0
 10
326.9189677996993
 20
451.9425500282777
 30
0.0
 10
328.0565615146717
 20
452.5248852047825
 30
0.0
  0
SPLINE
  5
100
330
1F
100
AcDbEntity
  8
0
  6
Continuous
 62
     7
370
    15
100
AcDbSpline
210
0.0
220
0.0
230
1.0
 70
     8
 71
     3
 72
     8
 73
     4
 74
     0
 42
0.00000001
 43
0.00000001
 12
1.0
 22
0.0
 32
0.0
 13
1.0
 23
0.0
 33
0.0
 40
0.0
 40
0.0
 40
0.0
 40
0.0
 40
1.0
 40
1.0
 40
1.0
 40
1.0
 10
320.1367216734119
 20
475.1005940490738
 30
0.0
 10
364.7559467068747
 20
496.8530544270252
 30
0.0
 10
409.3743087095496
 20
518.5998303393003
 30
0.0
 10
453.9899744375429
 20
540.3333180889995
 30
0.0
  0
SPLINE
  5
101
330
1F
100
AcDbEntity
  8
0
  6
Continuous
 62
     7
370
    15
100
AcDbSpline
210
0.0
220
0.0
230
1.0
 70
     8
 71
     3
 72
     9
 73
     5
 74
     0
 42
0.00000001
 43
0.00000001
 12
1.0
 22
0.0
 32
0.0
 13
1.0
 23
0.0
 33
0.0
 40
0.0
 40
0.0
 40
0.0
 40
0.0
 40
0.5
 40
0.8388692518020254
 40
0.8388692518020254
 40
0.8388692518020254
 40
0.8388692518020254
 10
462.1645876597518
 20
523.9165328576214
 30
0.0
 10
436.9405872282563
 20
509.8128835369707
 30
0.0
 10
394.2427012573692
 20
486.7056359992333
 30
0.0
 10
347.78362975136
 20
462.6231879471902
 30
0.0
 10
328.0565615146844
 20
452.5248852047712
 30
0.0
  0
SPLINE
  5
102
330
1F
100
AcDbEntity
  8
0
  6
Continuous
 62
     7
370
    15
100
AcDbSpline
210
0.0
220
0.0
230
1.0
 70
    24
 71
     3
 72
     9
 73
     5
 74
     0
 42
0.00000001
 43
0.00000001
 12
1.0
 22
0.0
 32
0.0
 13
1.0
 23
0.0
 33
0.0
 40
0.1933632574953295
 40
0.1933632574953295
 40
0.1933632574953295
 40
0.1933632574953295
 40
0.5
 40
1.0
 40
1.0
 40
1.0
 40
1.0
 10
319.4407308139079
 20
476.5228441014233
 30
0.0
 10
336.398156337107
 20
484.7945302818825
 30
0.0
 10
381.0049720216215
 20
506.5533509440816
 30
0.0
 10
425.6070490430067
 20
528.3098601272022
 30
0.0
 10
453.2513173516937
 20
541.7944962133251
 30
0.0
  0
SPLINE
  5
103
330
1F
100
AcDbEntity
  8
0
  6
Continuous
 62
     7
370
    15
100
AcDbSpline
210
0.0
220
0.0
230
1.0
 70
     8
 71
     3
 72
    10
 73
     6
 74
     0
 42
0.00000001
 43
0.00000001
 12
1.0
 22
0.0
 32
0.0
 13
1.0
 23
0.0
 33
0.0
 40
0.0
 40
0.0
 40
0.0
 40
0.0
 40
0.5
 40
0.5
 40
1.0
 40
1.0
 40
1.0
 40
1.0
 10
324.618908835402
 20
482.8128514026569
 30
0.0
 10
345.8262590316108
 20
493.0459202673085
 30
0.0
 10
367.0382964698917
 20
503.269259734611
 30
0.0
 10
409.4787756530611
 20
523.681887938579
 30
0.0
 10
430.7053442782557
 20
533.8750474977987
 30
0.0
 10
451.9319141946843
 20
544.0681955818987
 30
0.0
  0
SPLINE
  5
104
330
1F
100
AcDbEntity
  8
0
  6
Continuous
 62
     7
370
    15
100
AcDbSpline
210
0.0
220
0.0
230
1.0
 70
     8
 71
     3
 72
    12
 73
     8
 74
     0
 42
0.00000001
 43
0.00000001
 12
1.0
 22
0.0
 32
0.0
 13
1.0
 23
0.0
 33
0.0
 40
0.0
 40
0.0
 40
0.0
 40
0.0
 40
0.2499999999999988
 40
0.2499999999999988
 40
0.4999999999999977
 40
0.4999999999999977
 40
1.0
 40
1.0
 40
1.0
 40
1.0
 10
453.989871405629
 20
540.333509324819
 30
0.0
 10
455.7790452178227
 20
541.2058228681782
 30
0.0
 10
457.5671630959326
 20
542.0803758996154
 30
0.0
 10
461.1445297758121
 20
543.8269923450948
 30
0.0
 10
462.9332415602472
 20
544.7002098514846
 30
0.0
 10
468.3000885752095
 20
547.3182275099913
 30
0.0
 10
471.8786355663526
 20
549.0620581242375
 30
0.0
 10
475.4577572296145
 20
550.8044962549075
 30
0.0
  0
SPLINE
  5
105
330
1F
100
AcDbEntity
  8
0
  6
Continuous
 62
     7
370
    15
100
AcDbSpline
210
0.0
220
0.0
230
1.0
 70
     8
 71
     3
 72
    28
 73
    24
 74
     0
 42
0.00000001
 43
0.00000001
 12
1.0
 22
0.0
 32
0.0
 13
1.0
 23
0.0
 33
0.0
 40
0.0
 40
0.0
 40
0.0
 40
0.0
 40
0.1249999999999984
 40
0.1249999999999984
 40
0.1874999999999979
 40
0.1874999999999979
 40
0.2499999999999974
 40
0.2499999999999974
 40
0.3749999999999953
 40
0.3749999999999953
 40
0.4374999999999951
 40
0.4374999999999951
 40
0.4999999999999949
 40
0.4999999999999949
 40
0.6249999999999963
 40
0.6249999999999963
 40
0.687499999999997
 40
0.687499999999997
 40
0.7499999999999976
 40
0.7499999999999976
 40
0.8749999999999988
 40
0.8749999999999988
 40
1.0
 40
1.0
 40
1.0
 40
1.0
 10
476.3823193569154
 20
531.9151006423767
 30
0.0
 10
476.38229607572
 20
531.9151364241279
 30
0.0
 10
476.4145109181597
 20
531.9570252731997
 30
0.0
 10
476.5073157249993
 20
532.0841423210104
 30
0.0
 10
476.5457106216524
 20
532.137258274888
 30
0.0
 10
476.6373210480444
 20
532.2655759170951
 30
0.0
 10
476.6908502488512
 20
532.3412283405978
 30
0.0
 10
476.8713052209389
 20
532.5985840009715
 30
0.0
 10
477.0175708367299
 20
532.8100856901231
 30
0.0
 10
477.2739886264795
 20
533.1831469930162
 30
0.0
 10
477.365678712785
 20
533.3168258720558
 30
0.0
 10
477.56174125084
 20
533.6023957382554
 30
0.0
 10
477.6665836119979
 20
533.7549682703304
 30
0.0
 10
477.9968982739948
 20
534.2334601641927
 30
0.0
 10
478.2377602797625
 20
534.5797824370457
 30
0.0
 10
478.6325189008782
 20
535.1334101495444
 30
0.0
 10
478.7697271340929
 20
535.3236615616664
 30
0.0
 10
479.0563837753011
 20
535.7145944757052
 30
0.0
 10
479.2063576942277
 20
535.9159672850251
 30
0.0
 10
479.672876517466
 20
536.5291628245172
 30
0.0
 10
480.003845047164
 20
536.9475106256758
 30
0.0
 10
480.7154946662815
 20
537.7922900758041
 30
0.0
 10
481.0961116042118
 20
538.2187561466634
 30
0.0
 10
481.5095822386634
 20
538.6435741912575
 30
0.0
  0
SPLINE
  5
106
330
1F
100
AcDbEntity
  8
0
  6
Continuous
 62
     7
370
    15
100
AcDbSpline
210
0.0
220
0.0
230
1.0
 70
     8
 71
     3
 72
    11
 73
     7
 74
     0
 42
0.00000001
 43
0.00000001
 12
1.0
 22
0.0
 32
0.0
 13
1.0
 23
0.0
 33
0.0
 40
0.0
 40
0.0
 40
0.0
 40
0.0
 40
0.0581424252993877
 40
0.5291875084084654
 40
0.7495594248366162
 40
1.0
 40
1.0
 40
1.0
 40
1.0
 10
476.3823193550114
 20
531.9151006412989
 30
0.0
 10
476.1071640577536
 20
531.7593797676885
 30
0.0
 10
473.6028181273683
 20
530.3420749220652
 30
0.0
 10
470.0524826878407
 20
528.3400207401812
 30
0.0
 10
465.5871000581903
 20
525.8318434101501
 30
0.0
 10
463.3530136880121
 20
524.5815363848192
 30
0.0
 10
462.1646300204063
 20
523.9164571523285
 30
0.0
  0
SPLINE
  5
107
330
1F
100
AcDbEntity
  8
0
  6
Continuous
 62
     7
370
    15
100
AcDbSpline
210
0.0
220
0.0
230
1.0
 70
     8
 71
     3
 72
    10
 73
     6
 74
     0
 42
0.00000001
 43
0.00000001
 12
1.0
 22
0.0
 32
0.0
 13
1.0
 23
0.0
 33
0.0
 40
0.0
 40
0.0
 40
0.0
 40
0.0
 40
0.1684339292269001
 40
0.7247279782473205
 40
1.0
 40
1.0
 40
1.0
 40
1.0
 10
474.7281877641867
 20
552.2706724113913
 30
0.0
 10
473.5224187237463
 20
551.6825079419947
 30
0.0
 10
468.3343039364086
 20
549.1517871499362
 30
0.0
 10
461.1753574659242
 20
545.6596891571891
 30
0.0
 10
455.2219587750628
 20
542.7558267643351
 30
0.0
 10
453.2512144752028
 20
541.7945657174174
 30
0.0
  0
SPLINE
  5
108
330
1F
100
AcDbEntity
  8
0
  6
Continuous
 62
     7
370
    15
100
AcDbSpline
210
0.0
220
0.0
230
1.0
 70
     8
 71
     3
 72
    41
 73
    37
 74
     0
 42
0.00000001
 43
0.00000001
 12
1.0
 22
0.0
 32
0.0
 13
1.0
 23
0.0
 33
0.0
 40
0.0
 40
0.0
 40
0.0
 40
0.0
 40
0.0102484668042712
 40
0.020149390494297
 40
0.0297071982124615
 40
0.0389256313057566
 40
0.0478076938011528
 40
0.0563556152970095
 40
0.0645708914673627
 40
0.0724559109983074
 40
0.1165437695368027
 40
0.1417391193544005
 40
0.1554572993141921
 40
0.1814219204177126
 40
0.2201407666675689
 40
0.2697305308923239
 40
0.2994988375969486
 40
0.328519188531127
 40
0.3841027491997563
 40
0.409954476971874
 40
0.4400469102027983
 40
0.4756193603311745
 40
0.4941679956432416
 40
0.510212364492944
 40
0.5449932043311027
 40
0.5742596979786163
 40
0.5884452855890843
 40
0.5968542909237394
 40
0.6176171362206561
 40
0.6399262108541474
 40
0.6664117537917755
 40
0.7082623765954328
 40
0.7575742498729184
 40
0.8244339815004419
 40
0.8816199057982593
 40
1.0
 40
1.0
 40
1.0
 40
1.0
 10
503.9983455094913
 20
566.5484588684728
 30
0.0
 10
503.9973681881307
 20
566.547986399628
 30
0.0
 10
503.9954466880558
 20
566.5470574841687
 30
0.0
 10
503.9812607657166
 20
566.540149253265
 30
0.0
 10
503.9596397018413
 20
566.529612680706
 30
0.0
 10
503.9305953166787
 20
566.5154523034221
 30
0.0
 10
503.8951359533168
 20
566.4981590398534
 30
0.0
 10
503.8539921051434
 20
566.4780880988618
 30
0.0
 10
503.80795599322
 20
566.455626145719
 30
0.0
 10
503.6802364097304
 20
566.3932866573908
 30
0.0
 10
503.4526959712218
 20
566.2822826597851
 30
0.0
 10
503.120789896749
 20
566.1205079799745
 30
0.0
 10
502.8249993837437
 20
565.976107867191
 30
0.0
 10
502.4228636082661
 20
565.7798743287377
 30
0.0
 10
501.7354987658549
 20
565.444540432202
 30
0.0
 10
500.8854835107772
 20
565.0299051190497
 30
0.0
 10
499.9984373536846
 20
564.5973737466869
 30
0.0
 10
498.9837851166191
 20
564.1022768801089
 30
0.0
 10
497.8983059359277
 20
563.5729673665917
 30
0.0
 10
496.7171103504759
 20
562.9966608220132
 30
0.0
 10
495.7028530190712
 20
562.5020303267659
 30
0.0
 10
494.7268235174408
 20
562.0258747426956
 30
0.0
 10
493.8902300307914
 20
561.6178428168798
 30
0.0
 10
493.0499205262232
 20
561.208014313962
 30
0.0
 10
492.0595709473358
 20
560.7246939707984
 30
0.0
 10
491.0749152624481
 20
560.2444099177509
 30
0.0
 10
490.4200054875174
 20
559.9251175313474
 30
0.0
 10
489.8720838699245
 20
559.6578638826662
 30
0.0
 10
489.2210072481866
 20
559.3405062881436
 30
0.0
 10
488.3412548226444
 20
558.9113185507755
 30
0.0
 10
487.1946485766721
 20
558.3520708522323
 30
0.0
 10
485.7065001329616
 20
557.6258751975372
 30
0.0
 10
483.70729943771
 20
556.6508246682116
 30
0.0
 10
481.5141404439306
 20
555.5808814423775
 30
0.0
 10
478.4471049721079
 20
554.0847600630242
 30
0.0
 10
476.2258981074214
 20
553.0012508787145
 30
0.0
 10
474.7281898371629
 20
552.270665766611
 30
0.0
  0
SPLINE
  5
109
330
1F
100
AcDbEntity
  8
0
  6
Continuous
 62
     7
370
    15
100
AcDbSpline
210
0.0
220
0.0
230
1.0
 70
     8
 71
     3
 72
    20
 73
    16
 74
     0
 42
0.00000001
 43
0.00000001
 12
1.0
 22
0.0
 32
0.0
 13
1.0
 23
0.0
 33
0.0
 40
0.0
 40
0.0
 40
0.0
 40
0.0
 40
0.125
 40
0.125
 40
0.25
 40
0.25
 40
0.375
 40
0.375
 40
0.5
 40
0.5
 40
0.625
 40
0.625
 40
0.75
 40
0.75
 40
1.0
 40
1.0
 40
1.0
 40
1.0
 10
505.7183490692918
 20
564.7530459691702
 30
0.0
 10
505.7444141812861
 20
564.8735649283193
 30
0.0
 10
505.7553019416451
 20
564.9947568211812
 30
0.0
 10
505.7477485094915
 20
565.2384409945893
 30
0.0
 10
505.7287149232892
 20
565.3613606852231
 30
0.0
 10
505.6625432169673
 20
565.5953306791994
 30
0.0
 10
505.614672614419
 20
565.7094606301321
 30
0.0
 10
505.4931140320152
 20
565.9217137476029
 30
0.0
 10
505.4203587352568
 20
566.0191005509035
 30
0.0
 10
505.25069207488
 20
566.1962457324325
 30
0.0
 10
505.1552720060959
 20
566.2740123347913
 30
0.0
 10
504.9494687877134
 20
566.4037971953085
 30
0.0
 10
504.8368122553655
 20
566.4568838446653
 30
0.0
 10
504.4899507336651
 20
566.5710458822216
 30
0.0
 10
504.2391806559747
 20
566.5898319842253
 30
0.0
 10
503.9984140312843
 20
566.5484930820551
 30
0.0
  0
SPLINE
  5
10A
330
1F
100
AcDbEntity
  8
0
  6
Continuous
 62
     7
370
    15
100
AcDbSpline
210
0.0
220
0.0
230
1.0
 70
     8
 71
     3
 72
    39
 73
    35
 74
     0
 42
0.00000001
 43
0.00000001
 12
1.0
 22
0.0
 32
0.0
 13
1.0
 23
0.0
 33
0.0
 40
0.0
 40
0.0
 40
0.0
 40
0.0
 40
0.0101485410704173
 40
0.0203134713480029
 40
0.0304957047709494
 40
0.0406939162005144
 40
0.0509060595340184
 40
0.0611308571236962
 40
0.0713692521815096
 40
0.0816236956838311
 40
0.1012317123338826
 40
0.1209043852801587
 40
0.1444665005982073
 40
0.1681251672899753
 40
0.1990264783397162
 40
0.2301998828891995
 40
0.276893368411482
 40
0.3239967243048817
 40
0.3362724814232576
 40
0.3613795207087832
 40
0.434695808026444
 40
0.4733654308155764
 40
0.4940754592243971
 40
0.5148482028560386
 40
0.5457698297845226
 40
0.5764504681624718
 40
0.5947134372255197
 40
0.6220783832851833
 40
0.649417061996298
 40
0.7108034668262944
 40
0.7754903959912453
 40
0.8423950321592961
 40
0.9208885303029737
 40
1.0
 40
1.0
 40
1.0
 40
1.0
 10
505.7182595569747
 20
564.7530692573666
 30
0.0
 10
505.7173740068071
 20
564.7527704429613
 30
0.0
 10
505.7156014763682
 20
564.7521723315854
 30
0.0
 10
505.7008698211208
 20
564.7458694691469
 30
0.0
 10
505.6771058569224
 20
564.735495437473
 30
0.0
 10
505.6433185871441
 20
564.7205892766411
 30
0.0
 10
505.5996269831439
 20
564.701186333134
 30
0.0
 10
505.5458769749878
 20
564.6772053108822
 30
0.0
 10
505.4820078410386
 20
564.6486205722128
 30
0.0
 10
505.3854923443165
 20
564.6053621044421
 30
0.0
 10
505.2426561778658
 20
564.5413160098624
 30
0.0
 10
505.0225971642206
 20
564.4428287778051
 30
0.0
 10
504.7440227552771
 20
564.3181709497567
 30
0.0
 10
504.3641521631291
 20
564.1483084820427
 30
0.0
 10
503.8801134806474
 20
563.9324254804887
 30
0.0
 10
503.1725584853761
 20
563.618803209157
 30
0.0
 10
502.2266389088314
 20
563.2035090183824
 30
0.0
 10
501.2953113911955
 20
562.7982716214618
 30
0.0
 10
500.494613237214
 20
562.4518134613066
 30
0.0
 10
499.397697773412
 20
561.9786482367482
 30
0.0
 10
497.8847845698901
 20
561.3319290314781
 30
0.0
 10
496.2940875825748
 20
560.6515125162745
 30
0.0
 10
495.2996790657608
 20
560.2238898887465
 30
0.0
 10
494.3833108044093
 20
559.8269986285013
 30
0.0
 10
493.3203754223209
 20
559.3570206685546
 30
0.0
 10
492.2733503944112
 20
558.8816223501022
 30
0.0
 10
491.2631520944192
 20
558.431116290342
 30
0.0
 10
490.2993821021021
 20
557.9888675926157
 30
0.0
 10
488.7729643159814
 20
557.2685939694493
 30
0.0
 10
486.7638515177889
 20
556.2986373616303
 30
0.0
 10
484.2382047383776
 20
555.0746706883241
 30
0.0
 10
481.4900410428961
 20
553.7391299563695
 30
0.0
 10
478.5534569772253
 20
552.3112485968543
 30
0.0
 10
476.4923368944963
 20
551.3080727190489
 30
0.0
 10
475.4577360110296
 20
550.8045180459626
 30
0.0
  0
SPLINE
  5
10B
330
1F
100
AcDbEntity
  8
0
  6
Continuous
 62
     7
370
    15
100
AcDbSpline
210
0.0
220
0.0
230
1.0
 70
     8
 71
     3
 72
    16
 73
    12
 74
     0
 42
0.00000001
 43
0.00000001
 12
1.0
 22
0.0
 32
0.0
 13
1.0
 23
0.0
 33
0.0
 40
0.0
 40
0.0
 40
0.0
 40
0.0
 40
0.2499999999999991
 40
0.2499999999999991
 40
0.4999999999999982
 40
0.4999999999999982
 40
0.6249999999999987
 40
0.6249999999999987
 40
0.7499999999999991
 40
0.7499999999999991
 40
1.0
 40
1.0
 40
1.0
 40
1.0
 10
505.7182604653196
 20
564.7530734294205
 30
0.0
 10
505.3362978722915
 20
562.9860048163235
 30
0.0
 10
504.8641405029537
 20
561.2510372578408
 30
0.0
 10
503.6924110926746
 20
557.8620408724961
 30
0.0
 10
502.9936854597788
 20
556.2077108021249
 30
0.0
 10
501.7630604130133
 20
553.7911819565085
 30
0.0
 10
501.3229138496613
 20
552.9978890707854
 30
0.0
 10
500.3955218012796
 20
551.4573180674531
 30
0.0
 10
499.906749439438
 20
550.7069527243186
 30
0.0
 10
498.367239834308
 20
548.5139994195089
 30
0.0
 10
497.2431046887065
 20
547.129717334486
 30
0.0
 10
496.0279935242119
 20
545.8177048425814
 30
0.0
  0
SPLINE
  5
10C
330
1F
100
AcDbEntity
  8
0
  6
Continuous
 62
     7
370
    15
100
AcDbSpline
210
0.0
220
0.0
230
1.0
 70
     8
 71
     3
 72
    36
 73
    32
 74
     0
 42
0.00000001
 43
0.00000001
 12
1.0
 22
0.0
 32
0.0
 13
1.0
 23
0.0
 33
0.0
 40
0.0
 40
0.0
 40
0.0
 40
0.0
 40
0.1249999999999983
 40
0.1249999999999983
 40
0.1874999999999975
 40
0.1874999999999975
 40
0.2499999999999968
 40
0.2499999999999968
 40
0.312499999999996
 40
0.312499999999996
 40
0.3749999999999952
 40
0.3749999999999952
 40
0.4999999999999943
 40
0.4999999999999943
 40
0.5624999999999939
 40
0.5624999999999939
 40
0.6249999999999934
 40
0.6249999999999934
 40
0.687499999999993
 40
0.687499999999993
 40
0.7499999999999926
 40
0.7499999999999926
 40
0.8124999999999922
 40
0.8124999999999922
 40
0.8437499999999936
 40
0.8437499999999936
 40
0.8749999999999949
 40
0.8749999999999949
 40
0.9374999999999974
 40
0.9374999999999974
 40
1.0
 40
1.0
 40
1.0
 40
1.0
 10
496.0279935242117
 20
545.8177048425814
 30
0.0
 10
496.0282148904876
 20
545.8173364272319
 30
0.0
 10
495.9172269073184
 20
545.7745891066758
 30
0.0
 10
495.5859160676884
 20
545.6511264281677
 30
0.0
 10
495.4463823017724
 20
545.5995607466295
 30
0.0
 10
495.116817832005
 20
545.4797491343937
 30
0.0
 10
494.9267991031897
 20
545.4115087271041
 30
0.0
 10
494.496964556157
 20
545.2599994476009
 30
0.0
 10
494.2571405897796
 20
545.1767425025273
 30
0.0
 10
493.7263587646322
 20
544.9959482362943
 30
0.0
 10
493.4351160811654
 20
544.8983741391278
 30
0.0
 10
492.508554789463
 20
544.5923372304949
 30
0.0
 10
491.8136736619708
 20
544.3697139786942
 30
0.0
 10
490.6624121562566
 20
543.9901213060399
 30
0.0
 10
490.2660211747972
 20
543.8573923645209
 30
0.0
 10
489.4569778195917
 20
543.575113637997
 30
0.0
 10
489.0434579379747
 20
543.4252758420043
 30
0.0
 10
488.2017201113507
 20
543.0993942820875
 30
0.0
 10
487.7716378833787
 20
542.9224968007343
 30
0.0
 10
486.9079017526572
 20
542.5349055947529
 30
0.0
 10
486.4798811192605
 20
542.326718147685
 30
0.0
 10
485.6352444722347
 20
541.8750188461242
 30
0.0
 10
485.2186413687788
 20
541.631483190756
 30
0.0
 10
484.6040275121674
 20
541.2361875515659
 30
0.0
 10
484.4002110158544
 20
541.0989477831822
 30
0.0
 10
484.0023593963147
 20
540.8186888008256
 30
0.0
 10
483.8076749910081
 20
540.6752952708036
 30
0.0
 10
483.2357099696569
 20
540.2359156578998
 30
0.0
 10
482.8705182813517
 20
539.9307070809454
 30
0.0
 10
482.1686431896645
 20
539.299858268903
 30
0.0
 10
481.830262360972
 20
538.9724236226693
 30
0.0
 10
481.5098985210778
 20
538.6430211686072
 30
0.0
  0
LWPOLYLINE
  5
10D
330
1F
100
AcDbEntity
  8
0
  6
Continuous
 62
     7
370
    15
100
AcDbPolyline
 90
        3
 70
   128
 43
0.0
 10
474.6852397058
 20
552.3422969804
 10
474.7066391182
 20
552.3066910251
 10
474.7281822617
 20
552.2706816121
  0
SPLINE
  5
10E
330
1F
100
AcDbEntity
  8
0
  6
Continuous
 62
     7
370
    15
100
AcDbSpline
210
0.0
220
0.0
230
1.0
 70
     8
 71
     3
 72
    15
 73
    11
 74
     0
 42
0.00000001
 43
0.00000001
 12
1.0
 22
0.0
 32
0.0
 13
1.0
 23
0.0
 33
0.0
 40
0.0
 40
0.0
 40
0.0
 40
0.0
 40
0.1250131545069557
 40
0.2500596660317262
 40
0.3751357047653135
 40
0.5002348473938871
 40
0.6252183584363318
 40
0.7500280337241122
 40
0.8748992868586575
 40
1.0
 40
1.0
 40
1.0
 40
1.0
 10
473.690560131176
 20
554.3559577066205
 30
0.0
 10
472.7802743243348
 20
553.9348859266494
 30
0.0
 10
470.9594598208543
 20
553.09263001294
 30
0.0
 10
468.2327080237011
 20
551.8187424509238
 30
0.0
 10
465.5082018155826
 20
550.5384467317159
 30
0.0
 10
462.7870771331542
 20
549.2521600914918
 30
0.0
 10
460.0702466347528
 20
547.9618039965906
 30
0.0
 10
457.3571263801536
 20
546.6679070759822
 30
0.0
 10
454.6448989108845
 20
545.3699607025844
 30
0.0
 10
452.8368293024539
 20
544.5023109075365
 30
0.0
 10
451.9319646458537
 20
544.0680877835018
 30
0.0
  0
SPLINE
  5
10F
330
1F
100
AcDbEntity
  8
0
  6
Continuous
 62
     7
370
    15
100
AcDbSpline
210
0.0
220
0.0
230
1.0
 70
     8
 71
     3
 72
    78
 73
    74
 74
     0
 42
0.00000001
 43
0.00000001
 12
1.0
 22
0.0
 32
0.0
 13
1.0
 23
0.0
 33
0.0
 40
0.0
 40
0.0
 40
0.0
 40
0.0
 40
0.0640381069596805
 40
0.1008218852519183
 40
0.113083026549489
 40
0.1375169681447204
 40
0.161951191768831
 40
0.1863857898144905
 40
0.2228090399685645
 40
0.2467863277342189
 40
0.258775496227817
 40
0.306731690356462
 40
0.3237705925744445
 40
0.3322907475493421
 40
0.3578505734079256
 40
0.3706298591942493
 40
0.3748894856293633
 40
0.3805904327743078
 40
0.3976929769265543
 40
0.4033937939673121
 40
0.4090942955121897
 40
0.4176453560064397
 40
0.4204959056654747
 40
0.4260225160380153
 40
0.4315493562626826
 40
0.4343132890646398
 40
0.4398411521958147
 40
0.448132564054001
 40
0.4508964972860319
 40
0.4564246222406989
 40
0.4647164763512764
 40
0.4669368566568228
 40
0.4735978241095317
 40
0.482479582568181
 40
0.4913614434266046
 40
0.4980230243130878
 40
0.5024634792904872
 40
0.5046834675230635
 40
0.5135637692860643
 40
0.5180043698107256
 40
0.5202247271409616
 40
0.5268851815711969
 40
0.5313242906429058
 40
0.5335442642296397
 40
0.5386197815126552
 40
0.5471855932735455
 40
0.5586061339976057
 40
0.5700266381776055
 40
0.604517206333217
 40
0.61605728099795
 40
0.6275972173477407
 40
0.6392950485814188
 40
0.6509925948921029
 40
0.6743840878709679
 40
0.6862190970129326
 40
0.692136840054792
 40
0.709888685621942
 40
0.7336825921524737
 40
0.7456440607462176
 40
0.7695640883635322
 40
0.7936879088045194
 40
0.8057507484378645
 40
0.8259207528511937
 40
0.8502440538364205
 40
0.8583858314074522
 40
0.8746683944412103
 40
0.8989053368886427
 40
0.9150026614454253
 40
0.9389873826560108
 40
0.9589555201748874
 40
0.9709291158658659
 40
0.9854651347246461
 40
1.0
 40
1.0
 40
1.0
 40
1.0
 10
474.7282509199848
 20
552.2705311854044
 30
0.0
 10
475.5354600511254
 20
552.664183747318
 30
0.0
 10
476.8063337583289
 20
553.2839521213484
 30
0.0
 10
478.2310885626441
 20
553.9803651036875
 30
0.0
 10
479.1570495655109
 20
554.4324742275768
 30
0.0
 10
479.9275904289632
 20
554.8081595043594
 30
0.0
 10
480.8516020673772
 20
555.2585900774969
 30
0.0
 10
481.9259204124506
 20
555.7843521315598
 30
0.0
 10
482.9945364824366
 20
556.3071439636675
 30
0.0
 10
483.906659198865
 20
556.7526178219446
 30
0.0
 10
484.9641976994967
 20
557.2688097206369
 30
0.0
 10
485.9343241347295
 20
557.7422032470406
 30
0.0
 10
486.8602178644686
 20
558.1951584878665
 30
0.0
 10
487.5038926141787
 20
558.510357379328
 30
0.0
 10
488.0937539882315
 20
558.7995693182921
 30
0.0
 10
488.6299929226806
 20
559.0623545520003
 30
0.0
 10
488.9162866637424
 20
559.2025141735554
 30
0.0
 10
489.2570219267976
 20
559.3692520983438
 30
0.0
 10
489.6158998883189
 20
559.5447284113799
 30
0.0
 10
489.9747292008714
 20
559.7199445964267
 30
0.0
 10
490.225879250843
 20
559.8424884039849
 30
0.0
 10
490.4410686267298
 20
559.947449649409
 30
0.0
 10
490.6539407243446
 20
560.0512848167663
 30
0.0
 10
490.8286817680315
 20
560.1365463600491
 30
0.0
 10
491.0021396404
 20
560.2212563577282
 30
0.0
 10
491.1754178506662
 20
560.3059519178215
 30
0.0
 10
491.383095009021
 20
560.4075624793622
 30
0.0
 10
491.5902055600075
 20
560.5090999249713
 30
0.0
 10
491.7967382417958
 20
560.6104538743124
 30
0.0
 10
492.002869795527
 20
560.7116006995225
 30
0.0
 10
492.2014831113452
 20
560.8090412832973
 30
0.0
 10
492.4133944241133
 20
560.9130038656007
 30
0.0
 10
492.6319615130948
 20
561.0202133813885
 30
0.0
 10
492.9309067700518
 20
561.1667616697258
 30
0.0
 10
493.2279296413813
 20
561.3122291348576
 30
0.0
 10
493.4694234547595
 20
561.4304337827963
 30
0.0
 10
493.6296447972861
 20
561.50883581686
 30
0.0
 10
493.8159916054379
 20
561.6000109358966
 30
0.0
 10
494.0014081345702
 20
561.690715074856
 30
0.0
 10
494.1856124248062
 20
561.7808222680405
 30
0.0
 10
494.3429760656701
 20
561.8577981708474
 30
0.0
 10
494.4996101397497
 20
561.9344165075504
 30
0.0
 10
494.655292580642
 20
562.0105803317972
 30
0.0
 10
494.7919363710159
 20
562.0774371957693
 30
0.0
 10
494.9758600990849
 20
562.167442024455
 30
0.0
 10
495.264105772557
 20
562.3085513250523
 30
0.0
 10
495.620766288887
 20
562.4832648108634
 30
0.0
 10
496.2616275304145
 20
562.797410365096
 30
0.0
 10
496.8829889868935
 20
563.1021794776286
 30
0.0
 10
497.4808602639579
 20
563.3951942127459
 30
0.0
 10
497.8343674352092
 20
563.5684056417322
 30
0.0
 10
498.1813870223074
 20
563.7384092282423
 30
0.0
 10
498.6348631395701
 20
563.9605533080245
 30
0.0
 10
499.07242502381
 20
564.1749116895795
 30
0.0
 10
499.4398270240064
 20
564.3549907896978
 30
0.0
 10
499.7496927119495
 20
564.5068981065069
 30
0.0
 10
500.1509103775171
 20
564.7036748083743
 30
0.0
 10
500.5764693221458
 20
564.9124948686117
 30
0.0
 10
501.0244152167696
 20
565.1322235658873
 30
0.0
 10
501.4477180920458
 20
565.3397411554045
 30
0.0
 10
501.8337572025912
 20
565.5290024613084
 30
0.0
 10
502.1683575385756
 20
565.6931308968252
 30
0.0
 10
502.4794570490655
 20
565.8458217804628
 30
0.0
 10
502.7371251599907
 20
565.9721918020061
 30
0.0
 10
502.9530017220042
 20
566.0780786697876
 30
0.0
 10
503.1512365566143
 20
566.1753283226277
 30
0.0
 10
503.3480007486808
 20
566.2718429140241
 30
0.0
 10
503.5318795286639
 20
566.3620517491162
 30
0.0
 10
503.6664160750797
 20
566.428039507881
 30
0.0
 10
503.753211453199
 20
566.4706760678926
 30
0.0
 10
503.8021026745946
 20
566.4946928722658
 30
0.0
 10
503.8298319894503
 20
566.5083277856916
 30
0.0
 10
503.8335853851999
 20
566.5101402952386
 30
0.0
 10
503.8354620086039
 20
566.5110465140502
 30
0.0
  0
SPLINE
  5
110
330
1F
100
AcDbEntity
  8
0
  6
Continuous
 62
     7
370
    15
100
AcDbSpline
210
0.0
220
0.0
230
1.0
 70
     8
 71
     3
 72
    16
 73
    12
 74
     0
 42
0.00000001
 43
0.00000001
 12
1.0
 22
0.0
 32
0.0
 13
1.0
 23
0.0
 33
0.0
 40
0.0
 40
0.0
 40
0.0
 40
0.0
 40
0.2500000000000007
 40
0.2500000000000007
 40
0.3750000000000006
 40
0.3750000000000006
 40
0.5000000000000004
 40
0.5000000000000004
 40
0.7500000000000002
 40
0.7500000000000002
 40
1.0
 40
1.0
 40
1.0
 40
1.0
 10
503.8354619835121
 20
566.5110465068685
 30
0.0
 10
501.2291672002198
 20
565.7588591495515
 30
0.0
 10
498.6397766699763
 20
564.9532178088009
 30
0.0
 10
494.7997174319228
 20
563.6055366994732
 30
0.0
 10
493.5287729057411
 20
563.1330208467284
 30
0.0
 10
491.0055059765646
 20
562.1409064410554
 30
0.0
 10
489.7530230516515
 20
561.6216009156118
 30
0.0
 10
486.0142557290065
 20
560.016221299891
 30
0.0
 10
483.5478487747777
 20
558.8873696203202
 30
0.0
 10
478.6167740510064
 20
556.6270083576928
 30
0.0
 10
476.1528640347465
 20
555.4932495731938
 30
0.0
 10
473.6904956129001
 20
554.3561011824114
 30
0.0
  0
SPLINE
  5
111
330
1F
100
AcDbEntity
  8
0
  6
Continuous
 62
     7
370
    15
100
AcDbSpline
210
0.0
220
0.0
230
1.0
 70
     8
 71
     3
 72
     8
 73
     4
 74
     0
 42
0.00000001
 43
0.00000001
 12
1.0
 22
0.0
 32
0.0
 13
1.0
 23
0.0
 33
0.0
 40
0.0
 40
0.0
 40
0.0
 40
0.0
 40
1.0
 40
1.0
 40
1.0
 40
1.0
 10
503.8354621885777
 20
566.5110461518769
 30
0.0
 10
503.8875719347782
 20
566.5261158488381
 30
0.0
 10
503.941959605241
 20
566.5387777033079
 30
0.0
 10
503.9983455074918
 20
566.5484588675434
 30
0.0
  0
SPLINE
  5
112
330
1F
100
AcDbEntity
  8
0
  6
Continuous
 62
     7
370
    15
100
AcDbSpline
210
0.0
220
0.0
230
1.0
 70
     8
 71
     3
 72
    32
 73
    28
 74
     0
 42
0.00000001
 43
0.00000001
 12
1.0
 22
0.0
 32
0.0
 13
1.0
 23
0.0
 33
0.0
 40
0.0
 40
0.0
 40
0.0
 40
0.0
 40
0.1249999999999989
 40
0.1249999999999989
 40
0.2499999999999979
 40
0.2499999999999979
 40
0.3749999999999968
 40
0.3749999999999968
 40
0.4374999999999966
 40
0.4374999999999966
 40
0.4999999999999964
 40
0.4999999999999964
 40
0.5624999999999962
 40
0.5624999999999962
 40
0.5937499999999962
 40
0.5937499999999962
 40
0.6249999999999961
 40
0.6249999999999961
 40
0.6874999999999964
 40
0.6874999999999964
 40
0.7499999999999967
 40
0.7499999999999967
 40
0.8124999999999969
 40
0.8124999999999969
 40
0.8749999999999971
 40
0.8749999999999971
 40
1.0
 40
1.0
 40
1.0
 40
1.0
 10
324.6189146578408
 20
482.8129208597705
 30
0.0
 10
323.9417515565492
 20
482.4855143082052
 30
0.0
 10
323.25579009214
 20
482.1811813773347
 30
0.0
 10
321.8588931076401
 20
481.638009730858
 30
0.0
 10
321.148202046022
 20
481.3985299253135
 30
0.0
 10
319.6873618921361
 20
481.0230486113115
 30
0.0
 10
318.9464700118487
 20
480.8884878865787
 30
0.0
 10
317.8177683141679
 20
480.8286237353528
 30
0.0
 10
317.4379254304139
 20
480.8332384804331
 30
0.0
 10
316.6917898602225
 20
480.9075091017787
 30
0.0
 10
316.3231158129306
 20
480.9767479475029
 30
0.0
 10
315.5977280148465
 20
481.2026154230174
 30
0.0
 10
315.2544455823383
 20
481.3556216941248
 30
0.0
 10
314.7739655463665
 20
481.6520936782532
 30
0.0
 10
314.6183771392224
 20
481.7631144521189
 30
0.0
 10
314.3262248089682
 20
482.0028663718384
 30
0.0
 10
314.1893300081716
 20
482.1315122682467
 30
0.0
 10
313.8042036001032
 20
482.541862667875
 30
0.0
 10
313.5795868904448
 20
482.8519434096418
 30
0.0
 10
313.2025666383096
 20
483.5025938220184
 30
0.0
 10
313.0481251880367
 20
483.8436237781181
 30
0.0
 10
312.7893093234196
 20
484.5487632570961
 30
0.0
 10
312.6850214153334
 20
484.9141619424636
 30
0.0
 10
312.51822769672
 20
485.6454761512213
 30
0.0
 10
312.4548283978658
 20
486.0136845312383
 30
0.0
 10
312.3088338273104
 20
487.1239491026113
 30
0.0
 10
312.2696501426165
 20
487.8721904935049
 30
0.0
 10
312.2666086726088
 20
488.6237047470461
 30
0.0
  0
LINE
  5
113
330
1F
100
AcDbEntity
  8
0
  6
Continuous
 62
     7
370
    15
100
AcDbLine
 10
484.5711716178
 20
532.2742043618
 30
0.0
 11
482.8083766894
 21
535.2079877928
 31
0.0
  0
LINE
  5
114
330
1F
100
AcDbEntity
  8
0
  6
Continuous
 62
     7
370
    15
100
AcDbLine
 10
484.5711716178
 20
532.2742043618
 30
0.0
 11
478.3959939708
 21
528.5637832982
 31
0.0
  0
LINE
  5
115
330
1F
100
AcDbEntity
  8
0
  6
Continuous
 62
     7
370
    15
100
AcDbLine
 10
498.9680091877
 20
540.9246970961
 30
0.0
 11
492.7928315407
 21
537.2142760325
 31
0.0
  0
LINE
  5
116
330
1F
100
AcDbEntity
  8
0
  6
Continuous
 62
     7
370
    15
100
AcDbLine
 10
491.0300366123
 20
540.1480594635
 30
0.0
 11
492.7928315407
 21
537.2142760325
 31
0.0
  0
LINE
  5
117
330
1F
100
AcDbEntity
  8
0
  6
Continuous
 62
     7
370
    15
100
AcDbLine
 10
482.8083766894
 20
535.2079877928
 30
0.0
 11
491.0300366123
 21
540.1480594635
 31
0.0
  0
SPLINE
  5
118
330
1F
100
AcDbEntity
  8
0
  6
Continuous
 62
     7
370
    15
100
AcDbSpline
210
0.0
220
0.0
230
1.0
 70
     8
 71
     3
 72
    10
 73
     6
 74
     0
 42
0.00000001
 43
0.00000001
 12
1.0
 22
0.0
 32
0.0
 13
1.0
 23
0.0
 33
0.0
 40
0.0
 40
0.0
 40
0.0
 40
0.0
 40
0.5
 40
0.5
 40
1.0
 40
1.0
 40
1.0
 40
1.0
 10
488.9793589504558
 20
534.2493544253448
 30
0.0
 10
488.287303628533
 20
533.8335256362129
 30
0.0
 10
487.5598601146393
 20
533.4582226187415
 30
0.0
 10
486.0846142497506
 20
532.8040242357835
 30
0.0
 10
485.3331798492033
 20
532.5218987408107
 30
0.0
 10
484.5711716178038
 20
532.2742043617858
 30
0.0
  0
LINE
  5
119
330
1F
100
AcDbEntity
  8
0
  6
Continuous
 62
     7
370
    15
100
AcDbLine
 10
488.9793589505
 20
534.2493544253
 30
0.0
 11
479.5505186427
 21
528.5839356013
 31
0.0
  0
SPLINE
  5
11A
330
1F
100
AcDbEntity
  8
0
  6
Continuous
 62
     7
370
    15
100
AcDbSpline
210
0.0
220
0.0
230
1.0
 70
     8
 71
     3
 72
     8
 73
     4
 74
     0
 42
0.00000001
 43
0.00000001
 12
1.0
 22
0.0
 32
0.0
 13
1.0
 23
0.0
 33
0.0
 40
0.0
 40
0.0
 40
0.0
 40
0.0
 40
1.0
 40
1.0
 40
1.0
 40
1.0
 10
492.7928315407242
 20
537.2142760325063
 30
0.0
 10
491.6256932135116
 20
536.0874590975895
 30
0.0
 10
490.3667005825756
 20
535.082953377223
 30
0.0
 10
488.9793589504558
 20
534.2493544253448
 30
0.0
  0
LINE
  5
11B
330
1F
100
AcDbEntity
  8
0
  6
Continuous
 62
     7
370
    15
100
AcDbLine
 10
498.4081992582
 20
539.9147732494
 30
0.0
 11
488.9793589505
 21
534.2493544253
 31
0.0
  0
LINE
  5
11C
330
1F
100
AcDbEntity
  8
0
  6
Continuous
 62
     7
370
    15
100
AcDbLine
 10
481.4535775892
 20
529.4940820985
 30
0.0
 11
496.7111555417
 21
538.6617598319
 31
0.0
  0
SPLINE
  5
11D
330
1F
100
AcDbEntity
  8
0
  6
Continuous
 62
     7
370
    15
100
AcDbSpline
210
0.0
220
0.0
230
1.0
 70
     8
 71
     3
 72
    20
 73
    16
 74
     0
 42
0.00000001
 43
0.00000001
 12
1.0
 22
0.0
 32
0.0
 13
1.0
 23
0.0
 33
0.0
 40
0.0
 40
0.0
 40
0.0
 40
0.0
 40
0.0845655990589641
 40
0.159787315266227
 40
0.2276334625584285
 40
0.2880143591612604
 40
0.357266161245112
 40
0.4128713104083337
 40
0.4586662258083313
 40
0.5500031671956975
 40
0.6075661914346999
 40
0.6734033537780305
 40
0.7738644399882387
 40
0.882273252293129
 40
1.0
 40
1.0
 40
1.0
 40
1.0
 10
175.933753972095
 20
213.5394642232506
 30
0.0
 10
176.7697221948723
 20
213.5892950901012
 30
0.0
 10
178.3492902397025
 20
213.6834508759059
 30
0.0
 10
180.5454374049606
 20
214.1639547807474
 30
0.0
 10
182.4410368243306
 20
214.7830395829159
 30
0.0
 10
184.1920688193718
 20
215.575687851637
 30
0.0
 10
185.7299009840218
 20
216.4874797310864
 30
0.0
 10
187.0298514950218
 20
217.4691234566459
 30
0.0
 10
188.3748088369129
 20
218.6974161195357
 30
0.0
 10
189.5510365768186
 20
220.0928044947128
 30
0.0
 10
190.5957231994563
 20
221.7736335137127
 30
0.0
 10
191.4571295979761
 20
223.6283902980222
 30
0.0
 10
192.1028674463821
 20
226.0432176192542
 30
0.0
 10
192.233165721317
 20
228.9759930914676
 30
0.0
 10
192.309291880644
 20
230.9862761752204
 30
0.0
 10
192.3489233528128
 20
232.032834661679
 30
0.0
  0
SPLINE
  5
11E
330
1F
100
AcDbEntity
  8
0
  6
Continuous
 62
     7
370
    15
100
AcDbSpline
210
0.0
220
0.0
230
1.0
 70
     8
 71
     3
 72
    21
 73
    17
 74
     0
 42
0.00000001
 43
0.00000001
 12
1.0
 22
0.0
 32
0.0
 13
1.0
 23
0.0
 33
0.0
 40
0.0
 40
0.0
 40
0.0
 40
0.0
 40
0.1024521520570269
 40
0.1935859483916384
 40
0.2759388633670916
 40
0.345062114132717
 40
0.3994632057691996
 40
0.4453189410190312
 40
0.5377659453145504
 40
0.5954000433922453
 40
0.6606246679883849
 40
0.7339449160174356
 40
0.8143710980292712
 40
0.8720522709519892
 40
0.9333603140021256
 40
1.0
 40
1.0
 40
1.0
 40
1.0
 10
159.5185813544571
 20
232.0327823347686
 30
0.0
 10
159.5533431817671
 20
231.1222139837331
 30
0.0
 10
159.6190265390468
 20
229.4016719133967
 30
0.0
 10
159.7103558679593
 20
226.9342067521692
 30
0.0
 10
160.0677578571261
 20
224.7713785054286
 30
0.0
 10
160.6850669479625
 20
223.0048292222431
 30
0.0
 10
161.3719112620269
 20
221.6154556942764
 30
0.0
 10
162.3128788922392
 20
220.1078111401388
 30
0.0
 10
163.4859732617035
 20
218.6940557408913
 30
0.0
 10
164.9961214382515
 20
217.3260946778263
 30
0.0
 10
166.5217865998405
 20
216.2301170292071
 30
0.0
 10
168.381361062305
 20
215.211887534994
 30
0.0
 10
170.310079399798
 20
214.4612494329922
 30
0.0
 10
172.2051302309454
 20
213.9624125638949
 30
0.0
 10
174.0098187554106
 20
213.6362166276453
 30
0.0
 10
175.2748704636735
 20
213.5725918723699
 30
0.0
 10
175.933753972095
 20
213.5394538577699
 30
0.0
  0
SPLINE
  5
11F
330
1F
100
AcDbEntity
  8
0
  6
Continuous
 62
     7
370
    15
100
AcDbSpline
210
0.0
220
0.0
230
1.0
 70
     8
 71
     3
 72
    16
 73
    12
 74
     0
 42
0.00000001
 43
0.00000001
 12
1.0
 22
0.0
 32
0.0
 13
1.0
 23
0.0
 33
0.0
 40
0.0
 40
0.0
 40
0.0
 40
0.0
 40
0.1290611932606353
 40
0.2383871193784432
 40
0.3279780347758838
 40
0.3978384471967973
 40
0.4528438953691136
 40
0.543288090006605
 40
0.6648360841993731
 40
0.8173769609620435
 40
1.0
 40
1.0
 40
1.0
 40
1.0
 10
192.3492627998622
 20
232.0255300604791
 30
0.0
 10
192.3906337668279
 20
233.2466147167994
 30
0.0
 10
192.467049499487
 20
235.5020630540045
 30
0.0
 10
192.5667957746845
 20
238.6049752373696
 30
0.0
 10
192.6459794871287
 20
241.1477714506694
 30
0.0
 10
192.7073035331681
 20
243.1766660212717
 30
0.0
 10
192.7675595942234
 20
245.2138407708
 30
0.0
 10
192.8397891117924
 20
247.7398068190195
 30
0.0
 10
192.9372070977107
 20
251.1882420202834
 30
0.0
 10
193.0288239570332
 20
255.5087983211702
 30
0.0
 10
193.153044529447
 20
258.6777917979645
 30
0.0
 10
193.220729436371
 20
260.4045027956004
 30
0.0
  0
SPLINE
  5
120
330
1F
100
AcDbEntity
  8
0
  6
Continuous
 62
     7
370
    15
100
AcDbSpline
210
0.0
220
0.0
230
1.0
 70
     8
 71
     3
 72
     9
 73
     5
 74
     0
 42
0.00000001
 43
0.00000001
 12
1.0
 22
0.0
 32
0.0
 13
1.0
 23
0.0
 33
0.0
 40
0.0
 40
0.0
 40
0.0
 40
0.0
 40
0.452038404820965
 40
1.0
 40
1.0
 40
1.0
 40
1.0
 10
158.6467667979653
 20
260.4043156245083
 30
0.0
 10
158.7742322331295
 20
256.1292712584531
 30
0.0
 10
159.0562114495075
 20
246.6720120511337
 30
0.0
 10
159.3546861639715
 20
237.2101099949157
 30
0.0
 10
159.5182388446298
 20
232.0253510507627
 30
0.0
  0
SPLINE
  5
121
330
1F
100
AcDbEntity
  8
0
  6
Continuous
 62
     7
370
    15
100
AcDbSpline
210
0.0
220
0.0
230
1.0
 70
     8
 71
     3
 72
    10
 73
     6
 74
     0
 42
0.00000001
 43
0.00000001
 12
1.0
 22
0.0
 32
0.0
 13
1.0
 23
0.0
 33
0.0
 40
0.0
 40
0.0
 40
0.0
 40
0.0
 40
0.052359515094569
 40
0.7950428024727111
 40
0.9999999999999999
 40
0.9999999999999999
 40
0.9999999999999999
 40
0.9999999999999999
 10
199.0034509628553
 20
283.2791854672933
 30
0.0
 10
199.0129200142286
 20
283.3016148995391
 30
0.0
 10
199.156700970316
 20
283.6421902207256
 30
0.0
 10
199.2154066344448
 20
283.7698563974136
 30
0.0
 10
199.1989515886151
 20
283.7408123550016
 30
0.0
 10
199.1953926650232
 20
283.7345306631233
 30
0.0
  0
LINE
  5
122
330
1F
100
AcDbEntity
  8
0
  6
Continuous
 62
     7
370
    15
100
AcDbLine
 10
153.3922928209
 20
282.2026157771
 30
0.0
 11
153.5105935622
 21
281.9114819265
 31
0.0
  0
LINE
  5
123
330
1F
100
AcDbEntity
  8
0
  6
Continuous
 62
     7
370
    15
100
AcDbLine
 10
193.2205166218
 20
260.4074884925
 30
0.0
 11
193.2386763534
 21
260.7607105056
 31
0.0
  0
LINE
  5
124
330
1F
100
AcDbEntity
  8
0
  6
Continuous
 62
     7
370
    15
100
AcDbLine
 10
158.6288168403
 20
260.7604982941
 30
0.0
 11
158.6469764587
 21
260.4072775775
 31
0.0
  0
SPLINE
  5
125
330
1F
100
AcDbEntity
  8
0
  6
Continuous
 62
     7
370
    15
100
AcDbSpline
210
0.0
220
0.0
230
1.0
 70
     8
 71
     3
 72
    14
 73
    10
 74
     0
 42
0.00000001
 43
0.00000001
 12
1.0
 22
0.0
 32
0.0
 13
1.0
 23
0.0
 33
0.0
 40
0.0
 40
0.0
 40
0.0
 40
0.0
 40
0.2062240650210224
 40
0.3665157064648716
 40
0.4800677692570881
 40
0.5636208783399371
 40
0.6797409300955866
 40
0.8318401995752011
 40
0.9999999999999999
 40
0.9999999999999999
 40
0.9999999999999999
 40
0.9999999999999999
 10
193.2386130512405
 20
260.7593924743041
 30
0.0
 10
193.3394681405516
 20
262.3745984219453
 30
0.0
 10
193.5187147978495
 20
265.2452544189824
 30
0.0
 10
193.9600333342681
 20
268.9877166380063
 30
0.0
 10
194.449999911097
 20
271.7555931256542
 30
0.0
 10
195.033317493967
 20
274.140448440782
 30
0.0
 10
195.9161620653927
 20
276.7511927996198
 30
0.0
 10
197.3529345519284
 20
279.8800337624004
 30
0.0
 10
198.4539285223895
 20
282.1679785482895
 30
0.0
 10
199.0320321383055
 20
283.3693195085717
 30
0.0
  0
SPLINE
  5
126
330
1F
100
AcDbEntity
  8
0
  6
Continuous
 62
     7
370
    15
100
AcDbSpline
210
0.0
220
0.0
230
1.0
 70
     8
 71
     3
 72
    15
 73
    11
 74
     0
 42
0.00000001
 43
0.00000001
 12
1.0
 22
0.0
 32
0.0
 13
1.0
 23
0.0
 33
0.0
 40
0.0
 40
0.0
 40
0.0
 40
0.0
 40
0.1586888880929062
 40
0.2796038668500825
 40
0.3654220056462485
 40
0.4408610525208378
 40
0.541134695002145
 40
0.6673293651893777
 40
0.8202896618579669
 40
0.9999999999999999
 40
0.9999999999999999
 40
0.9999999999999999
 40
0.9999999999999999
 10
152.5781659607962
 20
283.9084953014276
 30
0.0
 10
153.1284005480092
 20
282.7500025070976
 30
0.0
 10
154.0978932460067
 20
280.7087816698643
 30
0.0
 10
155.390419754163
 20
278.0553574121846
 30
0.0
 10
156.2410529380921
 20
275.9443430923911
 30
0.0
 10
156.8909479493648
 20
273.9255777400729
 30
0.0
 10
157.4683983587882
 20
271.5600664766536
 30
0.0
 10
157.9695177149926
 20
268.5459379172462
 30
0.0
 10
158.3764864108511
 20
264.8753785621065
 30
0.0
 10
158.5405079463017
 20
262.2049744335073
 30
0.0
 10
158.6291131988067
 20
260.7624087883622
 30
0.0
  0
SPLINE
  5
127
330
1F
100
AcDbEntity
  8
0
  6
Continuous
 62
     7
370
    15
100
AcDbSpline
210
0.0
220
0.0
230
1.0
 70
     8
 71
     3
 72
    18
 73
    14
 74
     0
 42
0.00000001
 43
0.00000001
 12
1.0
 22
0.0
 32
0.0
 13
1.0
 23
0.0
 33
0.0
 40
0.0
 40
0.0
 40
0.0
 40
0.0
 40
0.1947112934002997
 40
0.3671180885214744
 40
0.4989302757431686
 40
0.5989190539346826
 40
0.6769353635983529
 40
0.7584480865320153
 40
0.8329493496424931
 40
0.8700360912968693
 40
0.9199458458446269
 40
0.9900251277245035
 40
1.0
 40
1.0
 40
1.0
 40
1.0
 10
197.050466236169
 20
261.6509266752304
 30
0.0
 10
197.0645485215431
 20
263.1830497065035
 30
0.0
 10
197.0910999433855
 20
266.0717885608254
 30
0.0
 10
197.1229574988512
 20
270.0097178978114
 30
0.0
 10
197.2652899318605
 20
273.204295314746
 30
0.0
 10
197.4901551820035
 20
275.6561526608737
 30
0.0
 10
197.7891990301097
 20
277.7029263085917
 30
0.0
 10
198.1769255525467
 20
279.5580030178751
 30
0.0
 10
198.6084171336547
 20
281.1153953486865
 30
0.0
 10
199.02185796871
 20
282.4280381668585
 30
0.0
 10
199.4515717299327
 20
283.7188489904284
 30
0.0
 10
199.8282171385854
 20
284.7848060167296
 30
0.0
 10
200.0429100746835
 20
285.4490874275455
 30
0.0
 10
200.069661148861
 20
285.5318579258137
 30
0.0
  0
SPLINE
  5
128
330
1F
100
AcDbEntity
  8
0
  6
Continuous
 62
     7
370
    15
100
AcDbSpline
210
0.0
220
0.0
230
1.0
 70
     8
 71
     3
 72
    18
 73
    14
 74
     0
 42
0.00000001
 43
0.00000001
 12
1.0
 22
0.0
 32
0.0
 13
1.0
 23
0.0
 33
0.0
 40
0.0
 40
0.0
 40
0.0
 40
0.0
 40
0.0099749410571371
 40
0.0800540237691689
 40
0.1488668850144043
 40
0.2037440273783638
 40
0.2610508232453317
 40
0.3230665602763472
 40
0.4010826482148542
 40
0.5010711422346562
 40
0.6328829548413636
 40
0.8052892599762129
 40
1.0
 40
1.0
 40
1.0
 40
1.0
 10
151.7978460112404
 20
285.5318603425991
 30
0.0
 10
151.8245983234198
 20
285.4490902071727
 30
0.0
 10
152.0392993650427
 20
284.7848173707876
 30
0.0
 10
152.4703913539907
 20
283.5634130135143
 30
0.0
 10
152.996907391202
 20
281.972221623276
 30
0.0
 10
153.4332776085867
 20
280.5084579356026
 30
0.0
 10
153.7864381695631
 20
279.1113290115384
 30
0.0
 10
154.1006206083594
 20
277.5495508258813
 30
0.0
 10
154.3774118920975
 20
275.6560024935542
 30
0.0
 10
154.6021945183723
 20
273.204354980391
 30
0.0
 10
154.7445597966637
 20
270.0096941490257
 30
0.0
 10
154.7764050179696
 20
266.0717961360793
 30
0.0
 10
154.802958388895
 20
263.1830523318334
 30
0.0
 10
154.8170417080196
 20
261.6509266752304
 30
0.0
  0
SPLINE
  5
129
330
1F
100
AcDbEntity
  8
0
  6
Continuous
 62
     7
370
     0
100
AcDbSpline
210
0.0
220
0.0
230
1.0
 70
     8
 71
     3
 72
    37
 73
    33
 74
     0
 42
0.00000001
 43
0.00000001
 12
1.0
 22
0.0
 32
0.0
 13
1.0
 23
0.0
 33
0.0
 40
0.0
 40
0.0
 40
0.0
 40
0.0
 40
0.0478674349294122
 40
0.0916370643545237
 40
0.1313074170494485
 40
0.1668614116277028
 40
0.1985233392707808
 40
0.2262145814359398
 40
0.2498554960527407
 40
0.3050477683452956
 40
0.3747878789537417
 40
0.4371734839480587
 40
0.4711466104223778
 40
0.4990374982948356
 40
0.5331084556265675
 40
0.5662797385250395
 40
0.5986868456521028
 40
0.6304460143435029
 40
0.6616149699912922
 40
0.6921100461206255
 40
0.7218325088535238
 40
0.7506960906414641
 40
0.7787926304206803
 40
0.806199248624937
 40
0.8329077109128438
 40
0.8589072757561212
 40
0.8841787758839365
 40
0.9086840578761863
 40
0.9324691132006298
 40
0.9555639056236231
 40
0.9780240193071714
 40
1.0
 40
1.0
 40
1.0
 40
1.0
 10
191.2192941243496
 20
232.6590958466149
 30
0.0
 10
191.2061553085834
 20
232.2560259800174
 30
0.0
 10
191.1810024565936
 20
231.4843920004814
 30
0.0
 10
191.1423336916483
 20
230.3788192169665
 30
0.0
 10
191.1027904656118
 20
229.3770638267662
 30
0.0
 10
191.0605364568645
 20
228.4775597690203
 30
0.0
 10
191.0191079022912
 20
227.6789235532253
 30
0.0
 10
190.9485520595504
 20
226.9825211589242
 30
0.0
 10
190.8125583483288
 20
226.0936103659311
 30
0.0
 10
190.511082042312
 20
224.8697379203531
 30
0.0
 10
189.9320918356333
 20
223.3747084163977
 30
0.0
 10
189.2237322902198
 20
222.1257134789734
 30
0.0
 10
188.6035482889598
 20
221.239934257422
 30
0.0
 10
188.0825256985173
 20
220.581268093541
 30
0.0
 10
187.5250380197928
 20
219.9553600671074
 30
0.0
 10
186.8948017371495
 20
219.3353649246713
 30
0.0
 10
186.2380724511579
 20
218.765740548757
 30
0.0
 10
185.5585182179894
 20
218.2437802598124
 30
0.0
 10
184.8595833152633
 20
217.769195044118
 30
0.0
 10
184.1474155440107
 20
217.3409696601205
 30
0.0
 10
183.4286042358143
 20
216.9586803627471
 30
0.0
 10
182.7077997773077
 20
216.6211969136579
 30
0.0
 10
181.9878477064822
 20
216.3266776183991
 30
0.0
 10
181.2711479093038
 20
216.0717367663297
 30
0.0
 10
180.5602967519517
 20
215.853678931655
 30
0.0
 10
179.8583413436885
 20
215.670039633679
 30
0.0
 10
179.1681800360539
 20
215.5186832759333
 30
0.0
 10
178.4921958865687
 20
215.396006297543
 30
0.0
 10
177.8315475448229
 20
215.2999915363876
 30
0.0
 10
177.1868610774114
 20
215.2260453985995
 30
0.0
 10
176.5562806617374
 20
215.1725265059583
 30
0.0
 10
176.1397501632714
 20
215.1650361407593
 30
0.0
 10
175.9337539720956
 20
215.1613317620711
 30
0.0
  0
SPLINE
  5
12A
330
1F
100
AcDbEntity
  8
0
  6
Continuous
 62
     7
370
     0
100
AcDbSpline
210
0.0
220
0.0
230
1.0
 70
     8
 71
     3
 72
    56
 73
    52
 74
     0
 42
0.00000001
 43
0.00000001
 12
1.0
 22
0.0
 32
0.0
 13
1.0
 23
0.0
 33
0.0
 40
0.0
 40
0.0
 40
0.0
 40
0.0
 40
0.0098631274082959
 40
0.0197850007549857
 40
0.0297852973185139
 40
0.0398832376026779
 40
0.0500975538331584
 40
0.0604465585646547
 40
0.0709483301718928
 40
0.0816100649957998
 40
0.0924265523392055
 40
0.1033914780739629
 40
0.1144977969794139
 40
0.1257377045572537
 40
0.1371083051462849
 40
0.1486157573069307
 40
0.1602628706228551
 40
0.1720528219828962
 40
0.1839892301089408
 40
0.196076180736473
 40
0.2083182513285976
 40
0.2207205350304942
 40
0.2332886635446696
 40
0.2460288285837381
 40
0.258946841070005
 40
0.2720390319479905
 40
0.2852979649862409
 40
0.2987159910158922
 40
0.3122849521570552
 40
0.3259962213604398
 40
0.3398407504508774
 40
0.3538091276413168
 40
0.3678916456042198
 40
0.3820805604117668
 40
0.3964141607255149
 40
0.4109112963722417
 40
0.4255742177922893
 40
0.4404054829751818
 40
0.4554079966386874
 40
0.4705850522498671
 40
0.4859403768207109
 40
0.5014781783665183
 40
0.602253211069515
 40
0.7507887079299252
 40
0.7727297290895282
 40
0.7992871309545513
 40
0.8304019185790869
 40
0.8659290000007447
 40
0.9060452218438365
 40
0.9507344791492922
 40
1.0
 40
1.0
 40
1.0
 40
1.0
 10
175.9316448920239
 20
215.1613311605996
 30
0.0
 10
175.8392437377735
 20
215.1620764426046
 30
0.0
 10
175.6538910772098
 20
215.1635714456013
 30
0.0
 10
175.3750883712825
 20
215.1748458984636
 30
0.0
 10
175.0944945702636
 20
215.1920899062014
 30
0.0
 10
174.811688537273
 20
215.215409319831
 30
0.0
 10
174.5261997436232
 20
215.2439547068196
 30
0.0
 10
174.2375102006241
 20
215.2770358327761
 30
0.0
 10
173.9451395593133
 20
215.3138019386707
 30
0.0
 10
173.6491783816345
 20
215.355652510066
 30
0.0
 10
173.3497566854108
 20
215.4025702388357
 30
0.0
 10
173.0471859398071
 20
215.4548124024213
 30
0.0
 10
172.7418027029068
 20
215.5125599415699
 30
0.0
 10
172.4339266349562
 20
215.5760217360207
 30
0.0
 10
172.1237768644767
 20
215.645456395958
 30
0.0
 10
171.8114918766013
 20
215.7211457510244
 30
0.0
 10
171.4971610692655
 20
215.8033537916608
 30
0.0
 10
171.1809154857096
 20
215.8923522012
 30
0.0
 10
170.8628906458694
 20
215.9884158595849
 30
0.0
 10
170.5432270796198
 20
216.0918262170913
 30
0.0
 10
170.2220701469084
 20
216.2028703288314
 30
0.0
 10
169.8995702535713
 20
216.3218411240406
 30
0.0
 10
169.5758826171319
 20
216.4490369194068
 30
0.0
 10
169.2511765711018
 20
216.5847591988627
 30
0.0
 10
168.9257156250488
 20
216.7292690830996
 30
0.0
 10
168.5999450926749
 20
216.8828535561193
 30
0.0
 10
168.2743341535944
 20
217.0455549353612
 30
0.0
 10
167.9494160365114
 20
217.2174223378802
 30
0.0
 10
167.62574270474
 20
217.3984864569494
 30
0.0
 10
167.3038933591585
 20
217.5887685606899
 30
0.0
 10
166.9844719977902
 20
217.7882761415377
 30
0.0
 10
166.6681129568287
 20
217.9970087372905
 30
0.0
 10
166.355446265795
 20
218.214949044569
 30
0.0
 10
166.0468357397093
 20
218.4423861649672
 30
0.0
 10
165.7422600623756
 20
218.6795344875584
 30
0.0
 10
165.441722660183
 20
218.9267543232249
 30
0.0
 10
165.1455667608516
 20
219.1842678907803
 30
0.0
 10
164.8542569317231
 20
219.4521859369987
 30
0.0
 10
164.5682742516695
 20
219.7306173531646
 30
0.0
 10
164.2881202365123
 20
220.0196653134194
 30
0.0
 10
164.0142861175698
 20
220.3194251919179
 30
0.0
 10
163.2604205456113
 20
221.1966020447164
 30
0.0
 10
161.9610809410812
 20
223.1097844464045
 30
0.0
 10
161.1697871472026
 20
225.3203209785691
 30
0.0
 10
160.9175484311919
 20
226.9629746399344
 30
0.0
 10
160.8477904528134
 20
227.6305465634518
 30
0.0
 10
160.8050971987435
 20
228.4143391776519
 30
0.0
 10
160.7632420188884
 20
229.3123492217822
 30
0.0
 10
160.7227273223846
 20
230.324867086803
 30
0.0
 10
160.6832268601407
 20
231.4531654948502
 30
0.0
 10
160.6574462463546
 20
232.2439329184054
 30
0.0
 10
160.6439280901633
 20
232.6585746189953
 30
0.0
  0
SPLINE
  5
12B
330
1F
100
AcDbEntity
  8
0
  6
Continuous
 62
     7
370
     0
100
AcDbSpline
210
0.0
220
0.0
230
1.0
 70
     8
 71
     3
 72
     8
 73
     4
 74
     0
 42
0.00000001
 43
0.00000001
 12
1.0
 22
0.0
 32
0.0
 13
1.0
 23
0.0
 33
0.0
 40
0.0
 40
0.0
 40
0.0
 40
0.0
 40
1.0
 40
1.0
 40
1.0
 40
1.0
 10
192.0891487514245
 20
261.4996231751779
 30
0.0
 10
192.0877088935328
 20
261.4701174609881
 30
0.0
 10
192.0862773378782
 20
261.4406128886205
 30
0.0
 10
192.0848539623167
 20
261.4111095135279
 30
0.0
  0
SPLINE
  5
12C
330
1F
100
AcDbEntity
  8
0
  6
Continuous
 62
     7
370
     0
100
AcDbSpline
210
0.0
220
0.0
230
1.0
 70
     8
 71
     3
 72
     8
 73
     4
 74
     0
 42
0.00000001
 43
0.00000001
 12
1.0
 22
0.0
 32
0.0
 13
1.0
 23
0.0
 33
0.0
 40
0.0
 40
0.0
 40
0.0
 40
0.0
 40
1.0
 40
1.0
 40
1.0
 40
1.0
 10
192.0849242329837
 20
261.4120295078314
 30
0.0
 10
192.0805457401634
 20
261.3233917932446
 30
0.0
 10
192.0762422382432
 20
261.2347512062845
 30
0.0
 10
192.0720116910402
 20
261.1461078537922
 30
0.0
  0
SPLINE
  5
12D
330
1F
100
AcDbEntity
  8
0
  6
Continuous
 62
     7
370
     0
100
AcDbSpline
210
0.0
220
0.0
230
1.0
 70
     8
 71
     3
 72
     8
 73
     4
 74
     0
 42
0.00000001
 43
0.00000001
 12
1.0
 22
0.0
 32
0.0
 13
1.0
 23
0.0
 33
0.0
 40
0.0
 40
0.0
 40
0.0
 40
0.0
 40
1.0
 40
1.0
 40
1.0
 40
1.0
 10
192.0720116910401
 20
261.1461078537923
 30
0.0
 10
192.0705318494227
 20
261.116171886888
 30
0.0
 10
192.0690603296423
 20
261.0862355846309
 30
0.0
 10
192.0675970533366
 20
261.0562989532148
 30
0.0
  0
SPLINE
  5
12E
330
1F
100
AcDbEntity
  8
0
  6
Continuous
 62
     7
370
     0
100
AcDbSpline
210
0.0
220
0.0
230
1.0
 70
     8
 71
     3
 72
    12
 73
     8
 74
     0
 42
0.00000001
 43
0.00000001
 12
1.0
 22
0.0
 32
0.0
 13
1.0
 23
0.0
 33
0.0
 40
0.0
 40
0.0
 40
0.0
 40
0.0
 40
0.25
 40
0.25
 40
0.5
 40
0.5
 40
1.0
 40
1.0
 40
1.0
 40
1.0
 10
192.0676089986729
 20
261.0563242225714
 30
0.0
 10
191.9510339374652
 20
258.7014486837321
 30
0.0
 10
191.8928709752162
 20
256.3448780033848
 30
0.0
 10
191.7800463510986
 20
251.6250326395504
 30
0.0
 10
191.7172431911622
 20
249.2652903903161
 30
0.0
 10
191.5195618121367
 20
242.1866418569057
 30
0.0
 10
191.3765248429732
 20
237.4678516630567
 30
0.0
 10
191.2222476724811
 20
232.749177849351
 30
0.0
  0
LINE
  5
12F
330
1F
100
AcDbEntity
  8
0
  6
Continuous
 62
     7
370
    15
100
AcDbLine
 10
191.2222476725
 20
232.7491778494
 30
0.0
 11
191.2192935666
 21
232.659089658
 31
0.0
  0
LINE
  5
130
330
1F
100
AcDbEntity
  8
0
  6
Continuous
 62
     7
370
    15
100
AcDbLine
 10
160.6439289221
 20
232.6585601305
 30
0.0
 11
160.6409702407
 21
232.7487781142
 31
0.0
  0
SPLINE
  5
131
330
1F
100
AcDbEntity
  8
0
  6
Continuous
 62
     7
370
     0
100
AcDbSpline
210
0.0
220
0.0
230
1.0
 70
     8
 71
     3
 72
    12
 73
     8
 74
     0
 42
0.00000001
 43
0.00000001
 12
1.0
 22
0.0
 32
0.0
 13
1.0
 23
0.0
 33
0.0
 40
0.0
 40
0.0
 40
0.0
 40
0.0
 40
0.5000000000000007
 40
0.5000000000000007
 40
0.7500000000000003
 40
0.7500000000000003
 40
1.0
 40
1.0
 40
1.0
 40
1.0
 10
160.6409702407381
 20
232.7487781141725
 30
0.0
 10
160.4867409793313
 20
237.4674468474379
 30
0.0
 10
160.3437469545826
 20
242.1862272846781
 30
0.0
 10
160.1461308724595
 20
249.2648629650485
 30
0.0
 10
160.0833492208744
 20
251.6246029531698
 30
0.0
 10
159.9705671303993
 20
256.3444402511956
 30
0.0
 10
159.9124267655368
 20
258.7009583921002
 30
0.0
 10
159.7958741495817
 20
261.055792212054
 30
0.0
  0
SPLINE
  5
132
330
1F
100
AcDbEntity
  8
0
  6
Continuous
 62
     7
370
     0
100
AcDbSpline
210
0.0
220
0.0
230
1.0
 70
     8
 71
     3
 72
     8
 73
     4
 74
     0
 42
0.00000001
 43
0.00000001
 12
1.0
 22
0.0
 32
0.0
 13
1.0
 23
0.0
 33
0.0
 40
0.0
 40
0.0
 40
0.0
 40
0.0
 40
1.0
 40
1.0
 40
1.0
 40
1.0
 10
159.7958864032027
 20
261.0557665851301
 30
0.0
 10
159.7944226266411
 20
261.0857204726414
 30
0.0
 10
159.7929506043217
 20
261.1156738827663
 30
0.0
 10
159.7914702580456
 20
261.1456268082404
 30
0.0
  0
SPLINE
  5
133
330
1F
100
AcDbEntity
  8
0
  6
Continuous
 62
     7
370
     0
100
AcDbSpline
210
0.0
220
0.0
230
1.0
 70
     8
 71
     3
 72
     8
 73
     4
 74
     0
 42
0.00000001
 43
0.00000001
 12
1.0
 22
0.0
 32
0.0
 13
1.0
 23
0.0
 33
0.0
 40
0.0
 40
0.0
 40
0.0
 40
0.0
 40
1.0
 40
1.0
 40
1.0
 40
1.0
 10
159.7914702580459
 20
261.1456268082333
 30
0.0
 10
159.7871899704776
 20
261.2342452589414
 30
0.0
 10
159.7828368302676
 20
261.3228595831928
 30
0.0
 10
159.7784088104399
 20
261.4114696452199
 30
0.0
  0
SPLINE
  5
134
330
1F
100
AcDbEntity
  8
0
  6
Continuous
 62
     7
370
     0
100
AcDbSpline
210
0.0
220
0.0
230
1.0
 70
     8
 71
     3
 72
     8
 73
     4
 74
     0
 42
0.00000001
 43
0.00000001
 12
1.0
 22
0.0
 32
0.0
 13
1.0
 23
0.0
 33
0.0
 40
0.0
 40
0.0
 40
0.0
 40
0.0
 40
1.0
 40
1.0
 40
1.0
 40
1.0
 10
159.7784804406576
 20
261.4105517192826
 30
0.0
 10
159.7770109421809
 20
261.4406580207877
 30
0.0
 10
159.7755329146266
 20
261.4707644234011
 30
0.0
 10
159.774046236291
 20
261.5008708498009
 30
0.0
  0
SPLINE
  5
135
330
1F
100
AcDbEntity
  8
0
  6
Continuous
 62
     7
370
     0
100
AcDbSpline
210
0.0
220
0.0
230
1.0
 70
     8
 71
     3
 72
    21
 73
    17
 74
     0
 42
0.00000001
 43
0.00000001
 12
1.0
 22
0.0
 32
0.0
 13
1.0
 23
0.0
 33
0.0
 40
0.0
 40
0.0
 40
0.0
 40
0.0
 40
0.030697511782087
 40
0.082580657286112
 40
0.1555833990159668
 40
0.2496012574775718
 40
0.3645524271585115
 40
0.5005859837884338
 40
0.6062737747115258
 40
0.6993974674351235
 40
0.7804529747430032
 40
0.8493486084667459
 40
0.9057926609381743
 40
0.9497138621514043
 40
0.9811165645984622
 40
1.0
 40
1.0
 40
1.0
 40
1.0
 10
159.7740462340199
 20
261.5008708493328
 30
0.0
 10
159.7592984036506
 20
261.7673128913868
 30
0.0
 10
159.7196246498271
 20
262.4840797459014
 30
0.0
 10
159.6370747952004
 20
263.8345527978047
 30
0.0
 10
159.4957726427572
 20
265.7333751785952
 30
0.0
 10
159.2591285861271
 20
268.1757585444965
 30
0.0
 10
158.8629122785036
 20
271.1546752616925
 30
0.0
 10
158.2330671087798
 20
274.2076939406247
 30
0.0
 10
157.3495417255431
 20
277.0122269205869
 30
0.0
 10
156.4018747405816
 20
279.2930396168283
 30
0.0
 10
155.4843885856251
 20
281.2387014222986
 30
0.0
 10
154.6995691792513
 20
282.8884666807825
 30
0.0
 10
154.0673777584545
 20
284.2457580681797
 30
0.0
 10
153.5913877839755
 20
285.3082686283478
 30
0.0
 10
153.2629013030424
 20
286.0720610592474
 30
0.0
 10
153.0919422759271
 20
286.4810358357726
 30
0.0
 10
153.0277437933441
 20
286.634613921181
 30
0.0
  0
SPLINE
  5
136
330
1F
100
AcDbEntity
  8
0
  6
Continuous
 62
     7
370
    15
100
AcDbSpline
210
0.0
220
0.0
230
1.0
 70
     8
 71
     3
 72
     8
 73
     4
 74
     0
 42
0.00000001
 43
0.00000001
 12
1.0
 22
0.0
 32
0.0
 13
1.0
 23
0.0
 33
0.0
 40
0.0
 40
0.0
 40
0.0
 40
0.0
 40
1.0
 40
1.0
 40
1.0
 40
1.0
 10
153.0293250065766
 20
286.6308457378158
 30
0.0
 10
153.0175404681522
 20
286.6588106588543
 30
0.0
 10
153.0058113514721
 20
286.6867854179419
 30
0.0
 10
152.9941375997232
 20
286.714770006216
 30
0.0
  0
SPLINE
  5
137
330
1F
100
AcDbEntity
  8
0
  6
Continuous
 62
     7
370
     0
100
AcDbSpline
210
0.0
220
0.0
230
1.0
 70
     8
 71
     3
 72
    33
 73
    29
 74
     0
 42
0.00000001
 43
0.00000001
 12
1.0
 22
0.0
 32
0.0
 13
1.0
 23
0.0
 33
0.0
 40
0.0
 40
0.0
 40
0.0
 40
0.0
 40
0.0145204379918169
 40
0.0313819706146066
 40
0.0449529442379919
 40
0.0553708827266715
 40
0.0626539305679932
 40
0.0815894961657969
 40
0.125185946417998
 40
0.1436847251574727
 40
0.1874991065350435
 40
0.2187904001632031
 40
0.2501685081007747
 40
0.2877189805199486
 40
0.3742057991334372
 40
0.4374043384973844
 40
0.4991389754369034
 40
0.5480575208550369
 40
0.6315938525909593
 40
0.7496267511556846
 40
0.809145170791302
 40
0.8744846520222942
 40
0.9045284487271659
 40
0.9370195823510897
 40
0.95251032402624
 40
0.9686184294978067
 40
0.9868006512556128
 40
0.9999999999999999
 40
0.9999999999999999
 40
0.9999999999999999
 40
0.9999999999999999
 10
152.9941375997479
 20
286.7147700063182
 30
0.0
 10
152.9180784484796
 20
286.9275148728873
 30
0.0
 10
152.7536973153886
 20
287.3873049394712
 30
0.0
 10
152.5243233219416
 20
288.0461681837546
 30
0.0
 10
152.3284000637033
 20
288.6480523158231
 30
0.0
 10
152.1893122909117
 20
289.1115091006009
 30
0.0
 10
152.028491794523
 20
289.6544073581295
 30
0.0
 10
151.7716570534469
 20
290.7020705666232
 30
0.0
 10
151.5480157502739
 20
291.9318691862322
 30
0.0
 10
151.3450931383116
 20
293.5483957085415
 30
0.0
 10
151.2483205569056
 20
294.9848691087651
 30
0.0
 10
151.2533531332025
 20
296.6210880965473
 30
0.0
 10
151.3503788042618
 20
298.158913549973
 30
0.0
 10
151.6505292267164
 20
300.5318555564912
 30
0.0
 10
152.347596395492
 20
303.3511385145176
 30
0.0
 10
153.5794392285045
 20
306.4101762274849
 30
0.0
 10
154.8971484291559
 20
308.8103280810313
 30
0.0
 10
156.6619046889898
 20
311.340867880232
 30
0.0
 10
159.3732819266687
 20
314.3380189656607
 30
0.0
 10
162.8584519669129
 20
316.9145377294453
 30
0.0
 10
166.5104889642977
 20
318.7059121873454
 30
0.0
 10
168.9971358276604
 20
319.5512635035183
 30
0.0
 10
171.1135571509538
 20
320.0458400999323
 30
0.0
 10
172.4257908026215
 20
320.2666157051866
 30
0.0
 10
173.5126583571368
 20
320.3915056321391
 30
0.0
 10
174.3609415517398
 20
320.4547943056489
 30
0.0
 10
175.1720063937309
 20
320.4872189121344
 30
0.0
 10
175.7082141852097
 20
320.49868151194
 30
0.0
 10
175.9337476281166
 20
320.5035027764571
 30
0.0
  0
SPLINE
  5
138
330
1F
100
AcDbEntity
  8
0
  6
Continuous
 62
     7
370
     0
100
AcDbSpline
210
0.0
220
0.0
230
1.0
 70
     8
 71
     3
 72
    34
 73
    30
 74
     0
 42
0.00000001
 43
0.00000001
 12
1.0
 22
0.0
 32
0.0
 13
1.0
 23
0.0
 33
0.0
 40
0.0
 40
0.0
 40
0.0
 40
0.0
 40
0.0144961281819169
 40
0.0316258703433983
 40
0.0454268715342721
 40
0.0558567669968504
 40
0.062910334354309
 40
0.0716497908801195
 40
0.0925491378041947
 40
0.1254407131833046
 40
0.1460818821355777
 40
0.1884853737910526
 40
0.2182801966882312
 40
0.2507525764225989
 40
0.3305164916135497
 40
0.413543585099667
 40
0.5006157794971725
 40
0.5925252503019119
 40
0.6759325914729425
 40
0.7496700606125091
 40
0.7950051134420139
 40
0.8499116139050413
 40
0.8592975511852838
 40
0.8687492392940845
 40
0.887389207915403
 40
0.9247270675245707
 40
0.9627025040619164
 40
0.9857677725637145
 40
1.0
 40
1.0
 40
1.0
 40
1.0
 10
175.9337476281169
 20
320.5035028813571
 30
0.0
 10
176.1813182622666
 20
320.495045945192
 30
0.0
 10
176.7214374360345
 20
320.476595641545
 30
0.0
 10
177.496900825694
 20
320.4399385585251
 30
0.0
 10
178.20185786414
 20
320.3899106542557
 30
0.0
 10
178.7335209996234
 20
320.3379738380393
 30
0.0
 10
179.1790521089914
 20
320.2924633190459
 30
0.0
 10
179.7987670873772
 20
320.2049152603532
 30
0.0
 10
180.848756931475
 20
320.0239193528109
 30
0.0
 10
182.0816542637076
 20
319.7369851209384
 30
0.0
 10
183.6426667132777
 20
319.2847741429836
 30
0.0
 10
185.1182675184607
 20
318.7534586905684
 30
0.0
 10
186.7212776305375
 20
318.0369088195037
 30
0.0
 10
188.8172289793307
 20
316.9333319310699
 30
0.0
 10
191.4912306574576
 20
315.1133009943856
 30
0.0
 10
194.4361039478549
 20
312.3106813947194
 30
0.0
 10
196.959408267577
 20
308.964252411689
 30
0.0
 10
198.8444654504593
 20
305.2863778576609
 30
0.0
 10
200.0167311187211
 20
301.5952284749194
 30
0.0
 10
200.513301645705
 20
298.5087117576339
 30
0.0
 10
200.6412576032217
 20
295.8370986734474
 30
0.0
 10
200.5700881820711
 20
294.1512563784285
 30
0.0
 10
200.4511843442486
 20
293.0236829748168
 30
0.0
 10
200.3806259245589
 20
292.4515467001391
 30
0.0
 10
200.2314619087463
 20
291.4554207402247
 30
0.0
 10
199.9451512950211
 20
290.0342977800997
 30
0.0
 10
199.5356876583164
 20
288.5672985089707
 30
0.0
 10
199.1500374173395
 20
287.4648254672547
 30
0.0
 10
198.9464154018272
 20
286.9214586011663
 30
0.0
 10
198.8687159541051
 20
286.7141170457882
 30
0.0
  0
SPLINE
  5
139
330
1F
100
AcDbEntity
  8
0
  6
Continuous
 62
     7
370
    15
100
AcDbSpline
210
0.0
220
0.0
230
1.0
 70
     8
 71
     3
 72
     8
 73
     4
 74
     0
 42
0.00000001
 43
0.00000001
 12
1.0
 22
0.0
 32
0.0
 13
1.0
 23
0.0
 33
0.0
 40
0.0
 40
0.0
 40
0.0
 40
0.0
 40
1.0
 40
1.0
 40
1.0
 40
1.0
 10
198.8687159536951
 20
286.7141170459413
 30
0.0
 10
198.8574288133347
 20
286.686832754407
 30
0.0
 10
198.8460894724417
 20
286.6595586497079
 30
0.0
 10
198.8346978883804
 20
286.6322947390219
 30
0.0
  0
SPLINE
  5
13A
330
1F
100
AcDbEntity
  8
0
  6
Continuous
 62
     7
370
     0
100
AcDbSpline
210
0.0
220
0.0
230
1.0
 70
     8
 71
     3
 72
    21
 73
    17
 74
     0
 42
0.00000001
 43
0.00000001
 12
1.0
 22
0.0
 32
0.0
 13
1.0
 23
0.0
 33
0.0
 40
0.0
 40
0.0
 40
0.0
 40
0.0
 40
0.0170924234861708
 40
0.0622476652993384
 40
0.0865119523523049
 40
0.1248448141295543
 40
0.1946566203806223
 40
0.250768795619037
 40
0.3477676758026004
 40
0.5001569985392725
 40
0.5623773929019255
 40
0.6248711073068851
 40
0.7500346172042668
 40
0.8754337632820262
 40
0.9608945539452434
 40
1.0
 40
1.0
 40
1.0
 40
1.0
 10
198.8362708389543
 20
286.6360744291816
 30
0.0
 10
198.7791263739696
 20
286.4966529461317
 30
0.0
 10
198.571016065156
 20
285.9889038946616
 30
0.0
 10
198.2698430290039
 20
285.2870084727994
 30
0.0
 10
197.8791880314497
 20
284.4187150994478
 30
0.0
 10
197.3839302165815
 20
283.3576349264263
 30
0.0
 10
196.7555567637318
 20
282.0466455520681
 30
0.0
 10
195.9118443547439
 20
280.2625786066868
 30
0.0
 10
194.8172279582756
 20
277.7946419492864
 30
0.0
 10
193.9097194426564
 20
275.2042738676451
 30
0.0
 10
193.3534539351573
 20
272.8465134538397
 30
0.0
 10
192.950106106389
 20
270.7034222800401
 30
0.0
 10
192.5767219874126
 20
268.0018705768701
 30
0.0
 10
192.3065025092955
 20
265.0904039310487
 30
0.0
 10
192.165712938342
 20
262.9206441058012
 30
0.0
 10
192.1074419422507
 20
261.839142295872
 30
0.0
 10
192.0891487565991
 20
261.4996232431928
 30
0.0
  0
SPLINE
  5
13B
330
1F
100
AcDbEntity
  8
0
  6
Continuous
 62
     7
370
    15
100
AcDbSpline
210
0.0
220
0.0
230
1.0
 70
     8
 71
     3
 72
    10
 73
     6
 74
     0
 42
0.00000001
 43
0.00000001
 12
1.0
 22
0.0
 32
0.0
 13
1.0
 23
0.0
 33
0.0
 40
0.0
 40
0.0
 40
0.0
 40
0.0
 40
0.3947131848228999
 40
0.7927894519538801
 40
1.0
 40
1.0
 40
1.0
 40
1.0
 10
199.9804379344467
 20
285.4919295083526
 30
0.0
 10
199.9405713590054
 20
285.3965003781417
 30
0.0
 10
199.8604985321766
 20
285.204829031074
 30
0.0
 10
199.5462456461506
 20
284.4657127164634
 30
0.0
 10
199.1703997193572
 20
283.72172731301
 30
0.0
 10
199.041734698876
 20
283.4670354556584
 30
0.0
  0
SPLINE
  5
13C
330
1F
100
AcDbEntity
  8
0
  6
Continuous
 62
     7
370
    15
100
AcDbSpline
210
0.0
220
0.0
230
1.0
 70
     8
 71
     3
 72
    11
 73
     7
 74
     0
 42
0.00000001
 43
0.00000001
 12
1.0
 22
0.0
 32
0.0
 13
1.0
 23
0.0
 33
0.0
 40
0.0
 40
0.0
 40
0.0
 40
0.0
 40
0.2850854391448196
 40
0.5800284604509734
 40
0.865974029680248
 40
1.0
 40
1.0
 40
1.0
 40
1.0
 10
151.887121043157
 20
285.4918053909356
 30
0.0
 10
151.90832986058
 20
285.4400058770731
 30
0.0
 10
151.951480846315
 20
285.3346157443191
 30
0.0
 10
152.1378071239553
 20
284.8995574694277
 30
0.0
 10
152.3737754595478
 20
284.3705784464821
 30
0.0
 10
152.5935315276787
 20
283.9264816665279
 30
0.0
 10
152.6636625186895
 20
283.7847565822206
 30
0.0
  0
LINE
  5
13D
330
1F
100
AcDbEntity
  8
0
  6
Continuous
 62
     7
370
    15
100
AcDbLine
 10
153.5278630719
 20
281.9195196201
 30
0.0
 11
152.656599378
 21
283.8167510938
 31
0.0
  0
SPLINE
  5
13E
330
1F
100
AcDbEntity
  8
0
  6
Continuous
 62
     7
370
    15
100
AcDbSpline
210
0.0
220
0.0
230
1.0
 70
     8
 71
     3
 72
    46
 73
    42
 74
     0
 42
0.00000001
 43
0.00000001
 12
1.0
 22
0.0
 32
0.0
 13
1.0
 23
0.0
 33
0.0
 40
0.0
 40
0.0
 40
0.0
 40
0.0
 40
0.00974210794486
 40
0.0197912139415246
 40
0.0301473917342191
 40
0.0408107086219266
 40
0.0517812261767546
 40
0.0630590008648176
 40
0.0746440845850588
 40
0.0865365251386749
 40
0.0987363666395858
 40
0.1112436498746079
 40
0.1240584126205366
 40
0.1654522137230165
 40
0.2068871221006865
 40
0.2483633224865211
 40
0.2892408375676447
 40
0.3283169710552101
 40
0.3655936503106371
 40
0.4010731107784645
 40
0.4347579606477058
 40
0.4666512634448803
 40
0.4967566448089805
 40
0.5642761621488526
 40
0.6285064122440875
 40
0.6895293176500024
 40
0.747440470597528
 40
0.7661403898905821
 40
0.7847202355184575
 40
0.8031844225048541
 40
0.8215374493433429
 40
0.8397838967449981
 40
0.8579284261419937
 40
0.87597577794036
 40
0.8939307695164213
 40
0.9117982929529264
 40
0.9295833125125197
 40
0.9472908618479785
 40
0.9649260409505538
 40
0.9824940128397515
 40
1.0
 40
1.0
 40
1.0
 40
1.0
 10
151.8871150123299
 20
285.4918200583027
 30
0.0
 10
151.8266628460614
 20
285.641123525868
 30
0.0
 10
151.7038535154093
 20
285.9444353846077
 30
0.0
 10
151.5281225859868
 20
286.4100786867247
 30
0.0
 10
151.3559108683675
 20
286.8926042914748
 30
0.0
 10
151.1889278205994
 20
287.392388505614
 30
0.0
 10
151.0278520597252
 20
287.909430762906
 30
0.0
 10
150.8736899095956
 20
288.4437997133543
 30
0.0
 10
150.7273944433061
 20
288.9955041775135
 30
0.0
 10
150.5899708667279
 20
289.5645281702058
 30
0.0
 10
150.4624473371796
 20
290.1508076876403
 30
0.0
 10
150.3458769019631
 20
290.7542712989336
 30
0.0
 10
150.1644902801411
 20
291.830918794368
 30
0.0
 10
149.9837334321398
 20
293.3858427224474
 30
0.0
 10
149.9073425606195
 20
295.4170906750802
 30
0.0
 10
149.9891614713342
 20
297.4366194870489
 30
0.0
 10
150.2227022994587
 20
299.4073351310563
 30
0.0
 10
150.5922746051708
 20
301.2943304473414
 30
0.0
 10
151.0755558734724
 20
303.0699579970019
 30
0.0
 10
151.6533244354556
 20
304.7302405635157
 30
0.0
 10
152.3071748192072
 20
306.2729643895362
 30
0.0
 10
153.0198360316991
 20
307.6980271348986
 30
0.0
 10
154.102569761346
 20
309.5744182217119
 30
0.0
 10
155.6878290703406
 20
311.8068852461868
 30
0.0
 10
157.9291180778393
 20
314.2290524797095
 30
0.0
 10
160.3563021604442
 20
316.2732901349588
 30
0.0
 10
162.3741697614944
 20
317.5967433368818
 30
0.0
 10
163.8440487169592
 20
318.4044236882692
 30
0.0
 10
164.7251480713835
 20
318.8459253774989
 30
0.0
 10
165.6195017890199
 20
319.2524930846301
 30
0.0
 10
166.5257157817249
 20
319.623884176903
 30
0.0
 10
167.4423663229534
 20
319.9598873071359
 30
0.0
 10
168.3680443509471
 20
320.2603546243043
 30
0.0
 10
169.3013464921284
 20
320.5251939051921
 30
0.0
 10
170.2408801455004
 20
320.7543626129306
 30
0.0
 10
171.1852647427129
 20
320.9478932692784
 30
0.0
 10
172.1331339343648
 20
321.1057921685271
 30
0.0
 10
173.083137430728
 20
321.2284099529449
 30
0.0
 10
174.033942860438
 20
321.3150616078767
 30
0.0
 10
174.9842374474983
 20
321.3691397608779
 30
0.0
 10
175.6176215815869
 20
321.3758125105451
 30
0.0
 10
175.9337539720943
 20
321.3791429891441
 30
0.0
  0
LWPOLYLINE
  5
13F
330
1F
100
AcDbEntity
  8
0
  6
Continuous
 62
     7
370
    15
100
AcDbPolyline
 90
        9
 70
   128
 43
0.0
 10
175.9337476282
 20
320.5035458632
 10
175.933748219
 20
320.6971524796
 10
175.9337488878
 20
320.8706003079
 10
175.9337496254
 20
321.0215397876
 10
175.9337504219
 20
321.1479262612
 10
175.9337512665
 20
321.2480476712
 10
175.9337521477
 20
321.3205477519
 10
175.9337530537
 20
321.3644444023
 10
175.9337539721
 20
321.3791429891
  0
SPLINE
  5
140
330
1F
100
AcDbEntity
  8
0
  6
Continuous
 62
     7
370
    15
100
AcDbSpline
210
0.0
220
0.0
230
1.0
 70
     8
 71
     3
 72
    52
 73
    48
 74
     0
 42
0.00000001
 43
0.00000001
 12
1.0
 22
0.0
 32
0.0
 13
1.0
 23
0.0
 33
0.0
 40
0.0
 40
0.0
 40
0.0
 40
0.0
 40
0.0084661916221675
 40
0.0169463522021199
 40
0.0254410789142347
 40
0.03395096586638
 40
0.042476603997097
 40
0.051018580975892
 40
0.0595774811067002
 40
0.0681538852345571
 40
0.0767483706555501
 40
0.0853615110300599
 40
0.0939938762993326
 40
0.1026460326054159
 40
0.1113185422144696
 40
0.1200119634434564
 40
0.1287268505902398
 40
0.1374637538670683
 40
0.1462232193374532
 40
0.155005788856428
 40
0.1638120000141717
 40
0.1726423860829732
 40
0.1814974759675211
 40
0.1903777941584753
 40
0.1992838606892961
 40
0.2082161910962885
 40
0.21717529638182
 40
0.2261616829806654
 40
0.235175852729427
 40
0.2442183028389833
 40
0.2532895258699033
 40
0.3110489150192196
 40
0.3719106491224687
 40
0.4359693813802423
 40
0.5033062365467704
 40
0.5723578498001141
 40
0.6550104506561131
 40
0.7512830412891286
 40
0.7927457869645581
 40
0.8342138659040849
 40
0.8756872812025739
 40
0.8964647694535083
 40
0.9172181819336147
 40
0.9379479637992192
 40
0.9586545617306758
 40
0.9793384239103234
 40
1.0
 40
1.0
 40
1.0
 40
1.0
 10
175.9337539720943
 20
321.3791429891441
 30
0.0
 10
176.0866051024562
 20
321.3783646449554
 30
0.0
 10
176.3925595628802
 20
321.3768066723337
 30
0.0
 10
176.8517047933964
 20
321.3641914410969
 30
0.0
 10
177.3112867486859
 20
321.3440117486799
 30
0.0
 10
177.7711598617549
 20
321.3154967858612
 30
0.0
 10
178.231177342921
 20
321.2788155525669
 30
0.0
 10
178.6911912160945
 20
321.2338878560329
 30
0.0
 10
179.1510523639862
 20
321.1807037951391
 30
0.0
 10
179.6106105722115
 20
321.1192379657163
 30
0.0
 10
180.0697145749801
 20
321.0494725603446
 30
0.0
 10
180.5282121016421
 20
320.9713912053339
 30
0.0
 10
180.9859499242766
 20
320.8849806610451
 30
0.0
 10
181.4427739062662
 20
320.790230407865
 30
0.0
 10
181.8985290518616
 20
320.6871327995609
 30
0.0
 10
182.3530595567258
 20
320.5756830631306
 30
0.0
 10
182.8062088594485
 20
320.4558793389096
 30
0.0
 10
183.2578196940255
 20
320.3277227088071
 30
0.0
 10
183.7077341432799
 20
320.1912172266595
 30
0.0
 10
184.1557936932551
 20
320.0463699468831
 30
0.0
 10
184.6018392884276
 20
319.8931909525188
 30
0.0
 10
185.0457113882456
 20
319.73169338196
 30
0.0
 10
185.4872500230447
 20
319.561893455963
 30
0.0
 10
185.9262948565809
 20
319.3838104990701
 30
0.0
 10
186.3626852279827
 20
319.1974669772553
 30
0.0
 10
186.7962602750017
 20
319.0028884699452
 30
0.0
 10
187.2268587565922
 20
318.800103883086
 30
0.0
 10
187.654320006676
 20
318.5891447535021
 30
0.0
 10
188.0784806508878
 20
318.3700479549197
 30
0.0
 10
188.4991872133996
 20
318.1428456445313
 30
0.0
 10
189.6619557668643
 20
317.486989347808
 30
0.0
 10
191.5321542837661
 20
316.2572068066715
 30
0.0
 10
193.9504681556748
 20
314.2169679663667
 30
0.0
 10
196.1841081142076
 20
311.8007591462572
 30
0.0
 10
198.146512943782
 20
309.0365514720853
 30
0.0
 10
199.8528773992263
 20
305.802516173143
 30
0.0
 10
201.2239986984528
 20
301.9326977745206
 30
0.0
 10
201.8402274439663
 20
298.3559948281199
 30
0.0
 10
201.9601566502911
 20
295.430105592172
 30
0.0
 10
201.8846894311342
 20
293.3973594348128
 30
0.0
 10
201.6896984482846
 20
291.7137364951217
 30
0.0
 10
201.4549316523614
 20
290.377510427867
 30
0.0
 10
201.2390832669828
 20
289.3803250312786
 30
0.0
 10
200.9842360544099
 20
288.3914395810017
 30
0.0
 10
200.689710030212
 20
287.412587217824
 30
0.0
 10
200.3593343131594
 20
286.4441301953754
 30
0.0
 10
200.1066623660002
 20
285.8091452071766
 30
0.0
 10
199.9803944902566
 20
285.491823848433
 30
0.0
  0
SPLINE
  5
141
330
1F
100
AcDbEntity
  8
0
  6
Continuous
 62
     7
370
    15
100
AcDbSpline
210
0.0
220
0.0
230
1.0
 70
     8
 71
     3
 72
    12
 73
     8
 74
     0
 42
0.00000001
 43
0.00000001
 12
1.0
 22
0.0
 32
0.0
 13
1.0
 23
0.0
 33
0.0
 40
0.0
 40
0.0
 40
0.0
 40
0.0
 40
0.25
 40
0.25
 40
0.5
 40
0.5
 40
1.0
 40
1.0
 40
1.0
 40
1.0
 10
194.7611409545799
 20
127.6562257212464
 30
0.0
 10
194.7158493078447
 20
125.8670519090527
 30
0.0
 10
194.6719640069874
 20
124.0789340309429
 30
0.0
 10
194.5809849247886
 20
120.5015673510633
 30
0.0
 10
194.5348895707099
 20
118.7128555666283
 30
0.0
 10
194.3933098128185
 20
113.3460085516659
 30
0.0
 10
194.2952309351315
 20
109.7674615605229
 30
0.0
 10
194.1938798042026
 20
106.188339897261
 30
0.0
  0
SPLINE
  5
142
330
1F
100
AcDbEntity
  8
0
  6
Continuous
 62
     7
370
    15
100
AcDbSpline
210
0.0
220
0.0
230
1.0
 70
     8
 71
     3
 72
    42
 73
    38
 74
     0
 42
0.00000001
 43
0.00000001
 12
1.0
 22
0.0
 32
0.0
 13
1.0
 23
0.0
 33
0.0
 40
0.0
 40
0.0
 40
0.0
 40
0.0
 40
0.2499999999999972
 40
0.2499999999999972
 40
0.3124999999999982
 40
0.3124999999999982
 40
0.3749999999999993
 40
0.3749999999999993
 40
0.4062499999999998
 40
0.4062499999999998
 40
0.4375000000000004
 40
0.4375000000000004
 40
0.4687500000000009
 40
0.4687500000000009
 40
0.5000000000000014
 40
0.5000000000000014
 40
0.531250000000002
 40
0.531250000000002
 40
0.5625000000000026
 40
0.5625000000000026
 40
0.6250000000000028
 40
0.6250000000000028
 40
0.656250000000002
 40
0.656250000000002
 40
0.6875000000000012
 40
0.6875000000000012
 40
0.7500000000000007
 40
0.7500000000000007
 40
0.8125000000000002
 40
0.8125000000000002
 40
0.8749999999999998
 40
0.8749999999999998
 40
0.9062499999999998
 40
0.9062499999999998
 40
0.9374999999999997
 40
0.9374999999999997
 40
1.0
 40
1.0
 40
1.0
 40
1.0
 10
194.1938798042026
 20
106.188339897261
 30
0.0
 10
194.1055813210093
 20
103.0701604439642
 30
0.0
 10
194.0157795866605
 20
99.95268801776218
 30
0.0
 10
193.896343628407
 20
96.05071066174679
 30
0.0
 10
193.8719659392574
 20
95.26973885398678
 30
0.0
 10
193.8193754279143
 20
93.70515635676244
 30
0.0
 10
193.7918599540928
 20
92.92420973258064
 30
0.0
 10
193.7433034188335
 20
91.74119877866936
 30
0.0
 10
193.7258355105156
 20
91.34440820895624
 30
0.0
 10
193.6792367567105
 20
90.53717627861373
 30
0.0
 10
193.6503718948982
 20
90.12506702900765
 30
0.0
 10
193.554569703597
 20
89.27292944022513
 30
0.0
 10
193.4852665103544
 20
88.83607810727777
 30
0.0
 10
193.2959168115485
 20
87.97780756148097
 30
0.0
 10
193.1781031433766
 20
87.555507797361
 30
0.0
 10
192.8992875004537
 20
86.71735673892864
 30
0.0
 10
192.7371133875352
 20
86.29995928021692
 30
0.0
 10
192.376049819846
 20
85.48691439041261
 30
0.0
 10
192.1771984906459
 20
85.0908328080522
 30
0.0
 10
191.5292837645291
 20
83.93363809857023
 30
0.0
 10
191.0291853357949
 20
83.20308165561106
 30
0.0
 10
190.1822536906085
 20
82.16687078799563
 30
0.0
 10
189.8837351462998
 20
81.83147842136971
 30
0.0
 10
189.2543067996241
 20
81.18086519064373
 30
0.0
 10
188.925671305439
 20
80.86814029214752
 30
0.0
 10
187.9092373043722
 20
79.9745826183416
 30
0.0
 10
187.1871777288282
 20
79.43378400941404
 30
0.0
 10
185.6556903102191
 20
78.45658422416086
 30
0.0
 10
184.8401443614754
 20
78.01840615417184
 30
0.0
 10
183.1702826315515
 20
77.2685069447326
 30
0.0
 10
182.3121317927065
 20
76.95304621240155
 30
0.0
 10
180.9855529984668
 20
76.56913412407641
 30
0.0
 10
180.5368004235596
 20
76.45622182752413
 30
0.0
 10
179.6256846503827
 20
76.26185663424008
 30
0.0
 10
179.1627318558179
 20
76.18053374891325
 30
0.0
 10
177.779124496449
 20
75.98854634833037
 30
0.0
 10
176.8556675254196
 20
75.92807004679274
 30
0.0
 10
175.9340895796141
 20
75.92774817215216
 30
0.0
  0
SPLINE
  5
143
330
1F
100
AcDbEntity
  8
0
  6
Continuous
 62
     7
370
     0
100
AcDbSpline
210
0.0
220
0.0
230
1.0
 70
     8
 71
     3
 72
    67
 73
    63
 74
     0
 42
0.00000001
 43
0.00000001
 12
1.0
 22
0.0
 32
0.0
 13
1.0
 23
0.0
 33
0.0
 40
0.0
 40
0.0
 40
0.0
 40
0.0
 40
0.0098281262183323
 40
0.0195969696181539
 40
0.0293111685122146
 40
0.0389754495956409
 40
0.0485945957383462
 40
0.0581734106520379
 40
0.0677166818318002
 40
0.0772291452750686
 40
0.0867083122099871
 40
0.0961021298581205
 40
0.1054040322231617
 40
0.1146196822690062
 40
0.1237545843746121
 40
0.1328139410075272
 40
0.1418026443769041
 40
0.1507254002617879
 40
0.1595867209481555
 40
0.1683909499023766
 40
0.1771422868953197
 40
0.1858448126204704
 40
0.1945025119387746
 40
0.2031192950135281
 40
0.2116990157755509
 40
0.2202414798824897
 40
0.22870822223681
 40
0.2370918525348402
 40
0.2453963242983153
 40
0.2536253870006976
 40
0.2617826271172323
 40
0.2698715019786734
 40
0.2778953642939384
 40
0.2858574796268497
 40
0.2937610382343632
 40
0.3016091620813949
 40
0.3094049075029416
 40
0.3171512638692006
 40
0.3248511487189791
 40
0.3325073672996289
 40
0.3401225550247083
 40
0.3476908122906567
 40
0.3551770799342794
 40
0.3625802550049048
 40
0.3699036056858472
 40
0.3771502200280488
 40
0.3843230289147796
 40
0.3914248264032203
 40
0.4338505481673968
 40
0.4890541471556568
 40
0.5136472943195322
 40
0.5381898200612981
 40
0.5627901498095943
 40
0.5872628359291142
 40
0.6162709479843498
 40
0.6586254686784838
 40
0.7144061857683153
 40
0.783628506098107
 40
0.8359810240630561
 40
0.8894930536339251
 40
0.9441658028994712
 40
1.0
 40
1.0
 40
1.0
 40
1.0
 10
175.9337536065433
 20
77.6477553610321
 30
0.0
 10
176.0721636527254
 20
77.64866062756305
 30
0.0
 10
176.3481488618712
 20
77.6504657000978
 30
0.0
 10
176.7607126222629
 20
77.66403081288402
 30
0.0
 10
177.1705183597059
 20
77.68557206677225
 30
0.0
 10
177.5775366685535
 20
77.71584415840958
 30
0.0
 10
177.9817397363472
 20
77.75462066232652
 30
0.0
 10
178.3831006135634
 20
77.80192030279305
 30
0.0
 10
178.7815932419677
 20
77.85768259422123
 30
0.0
 10
179.177093348807
 20
77.92183869094828
 30
0.0
 10
179.5686985119354
 20
77.99415196442035
 30
0.0
 10
179.9553787308893
 20
78.07425546854306
 30
0.0
 10
180.3362514481822
 20
78.16171086948243
 30
0.0
 10
180.7112465684269
 20
78.25621636023074
 30
0.0
 10
181.0804686562247
 20
78.35751353481281
 30
0.0
 10
181.4440192031261
 20
78.46536637354802
 30
0.0
 10
181.8019967470728
 20
78.57955413484758
 30
0.0
 10
182.1544964089459
 20
78.69987289514795
 30
0.0
 10
182.5016086780304
 20
78.82613971748272
 30
0.0
 10
182.8434177641356
 20
78.95819320729335
 30
0.0
 10
183.1800002778723
 20
79.09589428804793
 30
0.0
 10
183.5114241615141
 20
79.23912620832084
 30
0.0
 10
183.8377478827294
 20
79.38779394306135
 30
0.0
 10
184.159019782093
 20
79.54182326322943
 30
0.0
 10
184.4752289640175
 20
79.7011336183552
 30
0.0
 10
184.7858429938278
 20
79.8653881375153
 30
0.0
 10
185.0902234078756
 20
80.03413274812547
 30
0.0
 10
185.3878225091424
 20
80.20688911189093
 30
0.0
 10
185.6786127597875
 20
80.3834511301094
 30
0.0
 10
185.962701767761
 20
80.56369160669237
 30
0.0
 10
186.2401943870083
 20
80.74748663043356
 30
0.0
 10
186.5111936012156
 20
80.93471624660893
 30
0.0
 10
186.7758003042019
 20
81.12526597807513
 30
0.0
 10
187.0341124670666
 20
81.31902831794584
 30
0.0
 10
187.2862238898506
 20
81.51590407129635
 30
0.0
 10
187.5322228059315
 20
81.71580330152422
 30
0.0
 10
187.7721905902946
 20
81.91864571892341
 30
0.0
 10
188.0062006928841
 20
82.1243604935555
 30
0.0
 10
188.2343179412442
 20
82.33288492293138
 30
0.0
 10
188.4565970816368
 20
82.54416280351963
 30
0.0
 10
188.6730055717221
 20
82.75806197989367
 30
0.0
 10
188.8831655417569
 20
82.97408746898844
 30
0.0
 10
189.0867160181598
 20
83.19167022373546
 30
0.0
 10
189.2834078504538
 20
83.41031670453651
 30
0.0
 10
189.473349727084
 20
83.62990100601945
 30
0.0
 10
189.6566842719233
 20
83.85034321267916
 30
0.0
 10
189.8335515735373
 20
84.07157136753392
 30
0.0
 10
190.2873169643838
 20
84.66210916314635
 30
0.0
 10
191.0464648626713
 20
85.80194367911194
 30
0.0
 10
191.7323080703565
 20
87.22810992504805
 30
0.0
 10
192.1631942154583
 20
88.49154205172282
 30
0.0
 10
192.3984496954631
 20
89.40145478561566
 30
0.0
 10
192.552029177522
 20
90.32390950386267
 30
0.0
 10
192.6356885310195
 20
91.30988296103902
 30
0.0
 10
192.6949160789962
 20
92.52181370515184
 30
0.0
 10
192.7546252385324
 20
94.13023168800001
 30
0.0
 10
192.8275013154119
 20
96.247413003259
 30
0.0
 10
192.8962236936145
 20
98.4913852706928
 30
0.0
 10
192.963070248659
 20
100.7066863726588
 30
0.0
 10
193.0234029209025
 20
102.7379160151113
 30
0.0
 10
193.0845067358329
 20
104.8132148608572
 30
0.0
 10
193.1249974838161
 20
106.211452691517
 30
0.0
 10
193.1454556403211
 20
106.9179194720927
 30
0.0
  0
SPLINE
  5
144
330
1F
100
AcDbEntity
  8
0
  6
Continuous
 62
     7
370
     0
100
AcDbSpline
210
0.0
220
0.0
230
1.0
 70
     8
 71
     3
 72
    10
 73
     6
 74
     0
 42
0.00000001
 43
0.00000001
 12
1.0
 22
0.0
 32
0.0
 13
1.0
 23
0.0
 33
0.0
 40
0.0
 40
0.0
 40
0.0
 40
0.0
 40
0.3141858682607886
 40
0.6475246636078372
 40
1.0
 40
1.0
 40
1.0
 40
1.0
 10
193.1454556403211
 20
106.9179194720927
 30
0.0
 10
193.2095928403445
 20
109.1670843523833
 30
0.0
 10
193.3417770760639
 20
113.8025243248136
 30
0.0
 10
193.5353504657837
 20
120.961476693398
 30
0.0
 10
193.6612668067844
 20
125.8713450750083
 30
0.0
 10
193.7259817238406
 20
128.3947802586206
 30
0.0
  0
SPLINE
  5
145
330
1F
100
AcDbEntity
  8
0
  6
Continuous
 62
     7
370
     0
100
AcDbSpline
210
0.0
220
0.0
230
1.0
 70
     8
 71
     3
 72
    10
 73
     6
 74
     0
 42
0.00000001
 43
0.00000001
 12
1.0
 22
0.0
 32
0.0
 13
1.0
 23
0.0
 33
0.0
 40
0.0
 40
0.0
 40
0.0
 40
0.0
 40
0.1684339292269001
 40
0.7247279782473205
 40
1.0
 40
1.0
 40
1.0
 40
1.0
 10
158.722020424245
 20
106.9179093626888
 30
0.0
 10
158.6874634105944
 20
108.123678403129
 30
0.0
 10
158.5387734479949
 20
113.3117931904668
 30
0.0
 10
158.3443537964137
 20
120.4707396609513
 30
0.0
 10
158.1919602655302
 20
126.4241383518126
 30
0.0
 10
158.1415136722614
 20
128.3948826516726
 30
0.0
  0
SPLINE
  5
146
330
1F
100
AcDbEntity
  8
0
  6
Continuous
 62
     7
370
     0
100
AcDbSpline
210
0.0
220
0.0
230
1.0
 70
     8
 71
     3
 72
    41
 73
    37
 74
     0
 42
0.00000001
 43
0.00000001
 12
1.0
 22
0.0
 32
0.0
 13
1.0
 23
0.0
 33
0.0
 40
0.0
 40
0.0
 40
0.0
 40
0.0
 40
0.0102484668042712
 40
0.020149390494297
 40
0.0297071982124615
 40
0.0389256313057566
 40
0.0478076938011528
 40
0.0563556152970095
 40
0.0645708914673627
 40
0.0724559109983074
 40
0.1165437695368027
 40
0.1417391193544005
 40
0.1554572993141921
 40
0.1814219204177126
 40
0.2201407666675689
 40
0.2697305308923239
 40
0.2994988375969486
 40
0.328519188531127
 40
0.3841027491997563
 40
0.409954476971874
 40
0.4400469102027983
 40
0.4756193603311745
 40
0.4941679956432416
 40
0.510212364492944
 40
0.5449932043311027
 40
0.5742596979786163
 40
0.5884452855890843
 40
0.5968542909237394
 40
0.6176171362206561
 40
0.6399262108541474
 40
0.6664117537917755
 40
0.7082623765954328
 40
0.7575742498729184
 40
0.8244339815004419
 40
0.8816199057982593
 40
1.0
 40
1.0
 40
1.0
 40
1.0
 10
175.9337543413944
 20
77.64775161738412
 30
0.0
 10
175.789437808754
 20
77.64872893874468
 30
0.0
 10
175.5056987650033
 20
77.65065043881954
 30
0.0
 10
175.0876154894583
 20
77.66483636115888
 30
0.0
 10
174.6844869594693
 20
77.68645742503406
 30
0.0
 10
174.2963232812033
 20
77.7155018101967
 30
0.0
 10
173.9231233642091
 20
77.75096117355861
 30
0.0
 10
173.5648871280134
 20
77.79210502173204
 30
0.0
 10
173.2215728419504
 20
77.83814113365538
 30
0.0
 10
172.3860357745669
 20
77.96586071714508
 30
0.0
 10
171.3264162035975
 20
78.19340115565362
 30
0.0
 10
170.2168395743748
 20
78.52530723012639
 30
0.0
 10
169.3644520073883
 20
78.82109774313169
 30
0.0
 10
168.3543755116685
 20
79.22323351860926
 30
0.0
 10
166.9360325546764
 20
79.91059836102059
 30
0.0
 10
165.5628677492929
 20
80.76061361609814
 30
0.0
 10
164.3970359898866
 20
81.64765977319087
 30
0.0
 10
163.2469235903225
 20
82.66231201025627
 30
0.0
 10
162.2565704547731
 20
83.74779119094762
 30
0.0
 10
161.3952603611001
 20
84.92898677639947
 30
0.0
 10
160.7699670068451
 20
85.94324410780422
 30
0.0
 10
160.288635823133
 20
86.91927360943464
 30
0.0
 10
159.9560016493538
 20
87.75586709608403
 30
0.0
 10
159.6721228430978
 20
88.59617660065219
 30
0.0
 10
159.4204693737976
 20
89.58652617953962
 30
0.0
 10
159.2921142160222
 20
90.57118186442732
 30
0.0
 10
159.2425471701532
 20
91.22609163935806
 30
0.0
 10
159.2089655044712
 20
91.77401325695094
 30
0.0
 10
159.17840939821
 20
92.42508987868885
 30
0.0
 10
159.1438145946367
 20
93.30484230423099
 30
0.0
 10
159.1015309606186
 20
94.4514485502034
 30
0.0
 10
159.0507388485454
 20
95.93959699391387
 30
0.0
 10
158.9879751416316
 20
97.93879768916531
 30
0.0
 10
158.9216538679856
 20
100.1319566829449
 30
0.0
 10
158.8301992070017
 20
103.1989921547676
 30
0.0
 10
158.765611150434
 20
105.4201990194541
 30
0.0
 10
158.7220609219436
 20
106.9179072897125
 30
0.0
  0
SPLINE
  5
147
330
1F
100
AcDbEntity
  8
0
  6
Continuous
 62
     7
370
    15
100
AcDbSpline
210
0.0
220
0.0
230
1.0
 70
     8
 71
     3
 72
    39
 73
    35
 74
     0
 42
0.00000001
 43
0.00000001
 12
1.0
 22
0.0
 32
0.0
 13
1.0
 23
0.0
 33
0.0
 40
0.0
 40
0.0
 40
0.0
 40
0.0
 40
0.0101485410704173
 40
0.0203134713480029
 40
0.0304957047709494
 40
0.0406939162005144
 40
0.0509060595340184
 40
0.0611308571236962
 40
0.0713692521815096
 40
0.0816236956838311
 40
0.1012317123338826
 40
0.1209043852801587
 40
0.1444665005982073
 40
0.1681251672899753
 40
0.1990264783397162
 40
0.2301998828891995
 40
0.276893368411482
 40
0.3239967243048817
 40
0.3362724814232576
 40
0.3613795207087832
 40
0.434695808026444
 40
0.4733654308155764
 40
0.4940754592243971
 40
0.5148482028560386
 40
0.5457698297845226
 40
0.5764504681624718
 40
0.5947134372255197
 40
0.6220783832851833
 40
0.649417061996298
 40
0.7108034668262944
 40
0.7754903959912453
 40
0.8423950321592961
 40
0.9208885303029737
 40
1.0
 40
1.0
 40
1.0
 40
1.0
 10
175.9334099550875
 20
75.92783756990066
 30
0.0
 10
175.7857521749974
 20
75.92872312006831
 30
0.0
 10
175.490198157493
 20
75.93049565050721
 30
0.0
 10
175.0467341728661
 20
75.94522730575459
 30
0.0
 10
174.6030442085247
 20
75.96899126995304
 30
0.0
 10
174.1594309097288
 20
76.00277853973135
 30
0.0
 10
173.7162382899344
 20
76.04647014373157
 30
0.0
 10
173.2737858796704
 20
76.10022015188768
 30
0.0
 10
172.8323289257228
 20
76.16408928583684
 30
0.0
 10
172.2585053733346
 20
76.2606047825589
 30
0.0
 10
171.5546992916737
 20
76.40344094900959
 30
0.0
 10
170.6724031619635
 20
76.62349996265479
 30
0.0
 10
169.7476735088377
 20
76.90207437159839
 30
0.0
 10
168.6893780301303
 20
77.28194496374626
 30
0.0
 10
167.5589542270596
 20
77.76598364622795
 30
0.0
 10
166.1771520857718
 20
78.47353864149926
 30
0.0
 10
164.6762163245014
 20
79.41945821804396
 30
0.0
 10
163.5092459023577
 20
80.35078573567988
 30
0.0
 10
162.6431352312085
 20
81.15148388966144
 30
0.0
 10
161.5620212027568
 20
82.24839935346341
 30
0.0
 10
160.4089381851308
 20
83.76131255698523
 30
0.0
 10
159.545576573212
 20
85.35200954430066
 30
0.0
 10
159.1100183432575
 20
86.34641806111463
 30
0.0
 10
158.7731134148207
 20
87.26278632246607
 30
0.0
 10
158.4727826974255
 20
88.32572170455451
 30
0.0
 10
158.2936477401946
 20
89.37274673246425
 30
0.0
 10
158.1953992651453
 20
90.38294503245623
 30
0.0
 10
158.1404718610565
 20
91.34671502477333
 30
0.0
 10
158.0769697530617
 20
92.87313281089398
 30
0.0
 10
158.0071555699196
 20
94.88224560908658
 30
0.0
 10
157.9292590446853
 20
97.40789238849774
 30
0.0
 10
157.8475339563766
 20
100.1560560839794
 30
0.0
 10
157.7618603851959
 20
103.0926401496501
 30
0.0
 10
157.7031095956356
 20
105.1537602323791
 30
0.0
 10
157.6736190194713
 20
106.1883611158458
 30
0.0
  0
SPLINE
  5
148
330
1F
100
AcDbEntity
  8
0
  6
Continuous
 62
     7
370
    15
100
AcDbSpline
210
0.0
220
0.0
230
1.0
 70
     8
 71
     3
 72
    12
 73
     8
 74
     0
 42
0.00000001
 43
0.00000001
 12
1.0
 22
0.0
 32
0.0
 13
1.0
 23
0.0
 33
0.0
 40
0.0
 40
0.0
 40
0.0
 40
0.0
 40
0.2499999999999988
 40
0.2499999999999988
 40
0.4999999999999977
 40
0.4999999999999977
 40
1.0
 40
1.0
 40
1.0
 40
1.0
 10
157.1063669896087
 20
127.6562257212464
 30
0.0
 10
157.1516586363438
 20
125.8670519090527
 30
0.0
 10
157.1955439372012
 20
124.0789340309428
 30
0.0
 10
157.2865230193999
 20
120.5015673510633
 30
0.0
 10
157.3326183734787
 20
118.7128555666283
 30
0.0
 10
157.47419813137
 20
113.3460085516659
 30
0.0
 10
157.5722770090572
 20
109.7674615605228
 30
0.0
 10
157.6736281399859
 20
106.1883398972609
 30
0.0
  0
SPLINE
  5
149
330
1F
100
AcDbEntity
  8
0
  6
Continuous
 62
     7
370
     0
100
AcDbSpline
210
0.0
220
0.0
230
1.0
 70
     8
 71
     3
 72
     9
 73
     5
 74
     0
 42
0.00000001
 43
0.00000001
 12
1.0
 22
0.0
 32
0.0
 13
1.0
 23
0.0
 33
0.0
 40
0.1933632574953295
 40
0.1933632574953295
 40
0.1933632574953295
 40
0.1933632574953295
 40
0.5
 40
1.0
 40
1.0
 40
1.0
 40
1.0
 10
155.7873981549369
 20
262.2053663129676
 30
0.0
 10
155.9433245355666
 20
245.2479407897684
 30
0.0
 10
156.4951458438347
 20
200.6411251052539
 30
0.0
 10
157.4217267906088
 20
156.0390480838687
 30
0.0
 10
158.1414175087185
 20
128.3947797751818
 30
0.0
  0
SPLINE
  5
14A
330
1F
100
AcDbEntity
  8
0
  6
Continuous
 62
     7
370
     0
100
AcDbSpline
210
0.0
220
0.0
230
1.0
 70
     8
 71
     3
 72
    20
 73
    16
 74
     0
 42
0.00000001
 43
0.00000001
 12
1.0
 22
0.0
 32
0.0
 13
1.0
 23
0.0
 33
0.0
 40
0.0
 40
0.0
 40
0.0
 40
0.0
 40
0.0692594971400598
 40
0.1397962467179851
 40
0.2116103253435065
 40
0.2847015934511684
 40
0.3590700034388606
 40
0.4347156452011303
 40
0.5116386187528901
 40
0.5898390346500489
 40
0.6693168068555415
 40
0.7500716735789548
 40
0.8321037424120487
 40
0.9154131391736937
 40
1.0
 40
1.0
 40
1.0
 40
1.0
 10
193.7260904355996
 20
128.3947797801607
 30
0.0
 10
193.8054601887074
 20
131.4835903187108
 30
0.0
 10
193.9656633961458
 20
137.7181738479423
 30
0.0
 10
194.1940578779216
 20
147.1557879873126
 30
0.0
 10
194.4158446959155
 20
156.7645016947369
 30
0.0
 10
194.6293787226879
 20
166.5443309814332
 30
0.0
 10
194.8343115671542
 20
176.4952632225397
 30
0.0
 10
195.029926837055
 20
186.6173030660923
 30
0.0
 10
195.2155945875563
 20
196.9104588670471
 30
0.0
 10
195.3906566322407
 20
207.3747304670437
 30
0.0
 10
195.5544141137519
 20
218.0100999627219
 30
0.0
 10
195.7063045279919
 20
228.8165488856759
 30
0.0
 10
195.8453029122066
 20
239.794071578132
 30
0.0
 10
195.9721470806755
 20
250.942665385259
 30
0.0
 10
196.0440144530859
 20
258.4321520826843
 30
0.0
 10
196.0802215461763
 20
262.2053878774353
 30
0.0
  0
SPLINE
  5
14B
330
1F
100
AcDbEntity
  8
0
  6
Continuous
 62
     7
370
    15
100
AcDbSpline
210
0.0
220
0.0
230
1.0
 70
     8
 71
     3
 72
     8
 73
     4
 74
     0
 42
0.00000001
 43
0.00000001
 12
1.0
 22
0.0
 32
0.0
 13
1.0
 23
0.0
 33
0.0
 40
0.0
 40
0.0
 40
0.0
 40
0.0
 40
1.0
 40
1.0
 40
1.0
 40
1.0
 10
197.0469763234496
 20
261.5093754534635
 30
0.0
 10
196.6592081028648
 20
216.8901504200007
 30
0.0
 10
195.898715772783
 20
172.2717884173258
 30
0.0
 10
194.7611097317037
 20
127.6561226893326
 30
0.0
  0
SPLINE
  5
14C
330
1F
100
AcDbEntity
  8
0
  6
Continuous
 62
     7
370
    15
100
AcDbSpline
210
0.0
220
0.0
230
1.0
 70
     8
 71
     3
 72
     8
 73
     4
 74
     0
 42
0.00000001
 43
0.00000001
 12
1.0
 22
0.0
 32
0.0
 13
1.0
 23
0.0
 33
0.0
 40
0.0
 40
0.0
 40
0.0
 40
0.0
 40
1.0
 40
1.0
 40
1.0
 40
1.0
 10
154.8205316207389
 20
261.5093754534635
 30
0.0
 10
155.2082998413238
 20
216.8901504200007
 30
0.0
 10
155.9687921714055
 20
172.2717884173258
 30
0.0
 10
157.1063982124848
 20
127.6561226893326
 30
0.0
  0
ARC
  5
14D
330
1F
100
AcDbEntity
  8
0
  6
Continuous
 62
     7
370
    15
100
AcDbCircle
 10
175.9337539721
 20
295.3791429891
 30
0.0
 40
26.00000000000001
100
AcDbArc
 50
335.0512907869
 51
346.610810551
  0
ARC
  5
14E
330
1F
100
AcDbEntity
  8
0
  6
Continuous
 62
     7
370
    15
100
AcDbCircle
 10
175.9337539721
 20
295.3791429891
 30
0.0
 40
25.99999999999998
100
AcDbArc
 50
78.9769109657
 51
90.4506612125
  0
ARC
  5
14F
330
1F
100
AcDbEntity
  8
0
  6
Continuous
 62
     7
370
    15
100
AcDbCircle
 10
175.9337539721
 20
295.3791429891
 30
0.0
 40
26.0
100
AcDbArc
 50
194.0331149015
 51
206.8586988035
  0
LINE
  5
150
330
1F
100
AcDbEntity
  8
0
  6
Continuous
 62
     8
370
    15
100
AcDbLine
 10
199.9801632771
 20
285.4918516517
 30
0.0
 11
197.8088637219
 21
280.8069106687
 31
0.0
  0
LINE
  5
151
330
1F
100
AcDbEntity
  8
0
  6
Continuous
 62
     8
370
    15
100
AcDbLine
 10
152.656599378
 20
283.8167510938
 30
0.0
 11
151.8873448793
 21
285.4918511311
 31
0.0
  0
SPLINE
  5
152
330
1F
100
AcDbEntity
  8
0
  6
Continuous
 62
     7
370
     0
100
AcDbSpline
210
0.0
220
0.0
230
1.0
 70
     8
 71
     3
 72
    16
 73
    12
 74
     0
 42
0.00000001
 43
0.00000001
 12
1.0
 22
0.0
 32
0.0
 13
1.0
 23
0.0
 33
0.0
 40
0.0
 40
0.0
 40
0.0
 40
0.0
 40
0.1848189119881965
 40
0.3375016948762193
 40
0.4633774908393128
 40
0.567827761008572
 40
0.6562665941035467
 40
0.7340712782476012
 40
0.8473112268585977
 40
0.9661994822059987
 40
1.0
 40
1.0
 40
1.0
 40
1.0
 10
196.08022154617
 20
262.20538787675
 30
0.0
 10
196.1010328357988
 20
263.611085053699
 30
0.0
 10
196.1390367686578
 20
266.1780581767379
 30
0.0
 10
196.3141409148783
 20
269.726827212066
 30
0.0
 10
196.5700837539086
 20
272.6775922021807
 30
0.0
 10
196.9081919969431
 20
275.1475522976924
 30
0.0
 10
197.3236881354282
 20
277.2516109367818
 30
0.0
 10
197.8974891776458
 20
279.4206435183316
 30
0.0
 10
198.7083673697875
 20
281.8076059962612
 30
0.0
 10
199.4956275906325
 20
283.8381523439842
 30
0.0
 10
199.8810115057715
 20
285.0144814043003
 30
0.0
 10
199.9663234485763
 20
285.2748838590244
 30
0.0
  0
SPLINE
  5
153
330
1F
100
AcDbEntity
  8
0
  6
Continuous
 62
     7
370
     0
100
AcDbSpline
210
0.0
220
0.0
230
1.0
 70
     8
 71
     3
 72
    16
 73
    12
 74
     0
 42
0.00000001
 43
0.00000001
 12
1.0
 22
0.0
 32
0.0
 13
1.0
 23
0.0
 33
0.0
 40
0.0
 40
0.0
 40
0.0
 40
0.0
 40
0.184064232679998
 40
0.3361235591493881
 40
0.4614853608594344
 40
0.5655091245809254
 40
0.6535868314434166
 40
0.7310738122497943
 40
0.843851363126929
 40
0.9622541567575971
 40
0.9999999999999999
 40
0.9999999999999999
 40
0.9999999999999999
 40
0.9999999999999999
 10
155.7872863980185
 20
262.20538787675
 30
0.0
 10
155.7664750415117
 20
263.6110850432149
 30
0.0
 10
155.7284709865255
 20
266.1780581471085
 30
0.0
 10
155.5533675912202
 20
269.7268273001537
 30
0.0
 10
155.2974226024001
 20
272.6775919532569
 30
0.0
 10
154.9593204851969
 20
275.1475530090836
 30
0.0
 10
154.5438063577744
 20
277.25160882814
 30
0.0
 10
153.9700708446034
 20
279.4206516823411
 30
0.0
 10
153.1588372013824
 20
281.8075584380348
 30
0.0
 10
152.3605805715565
 20
283.8695906881874
 30
0.0
 10
151.9652951515472
 20
285.0775772934144
 30
0.0
 10
151.8697427227943
 20
285.3695841527307
 30
0.0
  0
ENDSEC
  0
SECTION
  2
OBJECTS
  0
DICTIONARY
  5
C
330
0
100
AcDbDictionary
281
     1
  3
ACAD_GROUP
350
D
  3
ACAD_LAYOUT
350
1A
  3
ACAD_MATERIAL
350
3B
  3
ACAD_MLEADERSTYLE
350
155
  3
ACAD_MLINESTYLE
350
17
  3
ACAD_PLOTSETTINGS
350
19
  3
ACAD_PLOTSTYLENAME
350
E
  3
ACAD_TABLESTYLE
350
154
  3
ACAD_VISUALSTYLE
350
2A
  0
DICTIONARY
  5
D
102
{ACAD_REACTORS
330
C
102
}
330
C
100
AcDbDictionary
281
     1
  0
DICTIONARY
  5
1A
102
{ACAD_REACTORS
330
C
102
}
330
C
100
AcDbDictionary
281
     1
  3
Layout1
350
1E
  3
Layout2
350
26
  3
Model
350
22
  0
DICTIONARY
  5
3B
102
{ACAD_REACTORS
330
C
102
}
330
C
100
AcDbDictionary
281
     1
  3
ByBlock
350
3D
  3
ByLayer
350
3C
  3
Global
350
3E
  0
DICTIONARY
  5
155
102
{ACAD_REACTORS
330
C
102
}
330
C
100
AcDbDictionary
281
     1
  0
DICTIONARY
  5
17
102
{ACAD_REACTORS
330
C
102
}
330
C
100
AcDbDictionary
281
     1
  3
Standard
350
18
  0
DICTIONARY
  5
19
102
{ACAD_REACTORS
330
C
102
}
330
C
100
AcDbDictionary
281
     1
  0
ACDBDICTIONARYWDFLT
  5
E
102
{ACAD_REACTORS
330
C
102
}
330
C
100
AcDbDictionary
281
     1
  3
Normal
350
F
100
AcDbDictionaryWithDefault
340
F
  0
DICTIONARY
  5
154
102
{ACAD_REACTORS
330
C
102
}
330
C
100
AcDbDictionary
281
     1
  0
DICTIONARY
  5
2A
102
{ACAD_REACTORS
330
C
102
}
330
C
100
AcDbDictionary
281
     1
  3
2dWireframe
350
2F
  3
3D Hidden
350
31
  3
3dWireframe
350
30
  3
Basic
350
32
  3
Brighten
350
36
  3
ColorChange
350
3A
  3
Conceptual
350
34
  3
Dim
350
35
  3
Facepattern
350
39
  3
Flat
350
2B
  3
FlatWithEdges
350
2C
  3
Gouraud
350
2D
  3
GouraudWithEdges
350
2E
  3
Linepattern
350
38
  3
Realistic
350
33
  3
Thicken
350
37
  0
LAYOUT
  5
1E
102
{ACAD_REACTORS
330
1A
102
}
330
1A
100
AcDbPlotSettings
  1

  2
none_device
  4

  6

 40
0.0
 41
0.0
 42
0.0
 43
0.0
 44
0.0
 45
0.0
 46
0.0
 47
0.0
 48
0.0
 49
0.0
140
0.0
141
0.0
142
1.0
143
1.0
 70
   688
 72
     0
 73
     0
 74
     5
  7

 75
    16
 76
     0
 77
     2
 78
   300
147
1.0
148
0.0
149
0.0
100
AcDbLayout
  1
Layout1
 70
     1
 71
     1
 10
0.0
 20
0.0
 11
420.0
 21
297.0
 12
0.0
 22
0.0
 32
0.0
 14
1.0000000000E+20
 24
1.0000000000E+20
 34
1.0000000000E+20
 15
-1.0000000000E+20
 25
-1.0000000000E+20
 35
-1.0000000000E+20
146
0.0
 13
0.0
 23
0.0
 33
0.0
 16
1.0
 26
0.0
 36
0.0
 17
0.0
 27
1.0
 37
0.0
 76
     0
330
1B
  0
LAYOUT
  5
26
102
{ACAD_REACTORS
330
1A
102
}
330
1A
100
AcDbPlotSettings
  1

  2
none_device
  4

  6

 40
0.0
 41
0.0
 42
0.0
 43
0.0
 44
0.0
 45
0.0
 46
0.0
 47
0.0
 48
0.0
 49
0.0
140
0.0
141
0.0
142
1.0
143
1.0
 70
   688
 72
     0
 73
     0
 74
     5
  7

 75
    16
 76
     0
 77
     2
 78
   300
147
1.0
148
0.0
149
0.0
100
AcDbLayout
  1
Layout2
 70
     1
 71
     2
 10
0.0
 20
0.0
 11
0.0
 21
0.0
 12
0.0
 22
0.0
 32
0.0
 14
0.0
 24
0.0
 34
0.0
 15
0.0
 25
0.0
 35
0.0
146
0.0
 13
0.0
 23
0.0
 33
0.0
 16
1.0
 26
0.0
 36
0.0
 17
0.0
 27
1.0
 37
0.0
 76
     0
330
23
  0
LAYOUT
  5
22
102
{ACAD_REACTORS
330
1A
102
}
330
1A
100
AcDbPlotSettings
  1

  2
none_device
  4

  6

 40
0.0
 41
0.0
 42
0.0
 43
0.0
 44
0.0
 45
0.0
 46
0.0
 47
0.0
 48
0.0
 49
0.0
140
0.0
141
0.0
142
1.0
143
1.0
 70
  1712
 72
     0
 73
     0
 74
     0
  7

 75
     0
 76
     0
 77
     2
 78
   300
147
1.0
148
0.0
149
0.0
100
AcDbLayout
  1
Model
 70
     1
 71
     0
 10
0.0
 20
0.0
 11
594.0
 21
841.0
 12
0.0
 22
0.0
 32
0.0
 14
0.0
 24
0.0
 34
0.0
 15
594.0
 25
841.0
 35
0.0
146
0.0
 13
0.0
 23
0.0
 33
0.0
 16
1.0
 26
0.0
 36
0.0
 17
0.0
 27
1.0
 37
0.0
 76
     0
330
1F
331
29
  0
MATERIAL
  5
3D
102
{ACAD_REACTORS
330
3B
102
}
330
3B
100
AcDbMaterial
  1
ByBlock
 72
     1
 94
      127
  0
MATERIAL
  5
3C
102
{ACAD_REACTORS
330
3B
102
}
330
3B
100
AcDbMaterial
  1
ByLayer
 72
     1
 94
      127
  0
MATERIAL
  5
3E
102
{ACAD_REACTORS
330
3B
102
}
330
3B
100
AcDbMaterial
  1
Global
 72
     1
 94
      127
  0
MLINESTYLE
  5
18
102
{ACAD_REACTORS
330
17
102
}
330
17
100
AcDbMlineStyle
  2
Standard
 70
     0
  3

 62
   256
 51
90.0
 52
90.0
 71
     2
 49
0.5
 62
   256
  6
BYLAYER
 49
-0.5
 62
   256
  6
BYLAYER
  0
ACDBPLACEHOLDER
  5
F
102
{ACAD_REACTORS
330
E
102
}
330
E
  0
VISUALSTYLE
  5
2F
102
{ACAD_REACTORS
330
2A
102
}
330
2A
100
AcDbVisualStyle
  2
2dWireframe
 70
     4
177
     2
291
     0
 71
     0
176
     1
 72
     2
176
     1
 73
     0
176
     1
 90
        0
176
     1
 40
-0.6
176
     1
 41
-30.0
176
     1
 62
     5
 63
     7
421
 16777215
176
     1
 74
     1
176
     1
 91
        4
176
     1
 64
     7
176
     1
 65
   257
176
     1
 75
     1
176
     1
175
     1
176
     1
 42
1.0
176
     1
 92
        0
176
     1
 66
   257
176
     1
 43
1.0
176
     1
 76
     1
176
     1
 77
     6
176
     1
 78
     2
176
     1
 67
     7
176
     1
 79
     5
176
     1
170
     0
176
     1
171
     0
176
     1
290
     0
176
     1
 93
        1
176
     1
 44
0.0
176
     1
173
     0
176
     1
  0
VISUALSTYLE
  5
31
102
{ACAD_REACTORS
330
2A
102
}
330
2A
100
AcDbVisualStyle
  2
3D Hidden
 70
     6
177
     2
291
     0
 71
     1
176
     1
 72
     2
176
     1
 73
     2
176
     1
 90
        0
176
     1
 40
-0.6
176
     1
 41
-30.0
176
     1
 62
     5
 63
     7
421
 16777215
176
     1
 74
     2
176
     1
 91
        2
176
     1
 64
     7
176
     1
 65
   257
176
     1
 75
     2
176
     1
175
     1
176
     1
 42
40.0
176
     1
 92
        0
176
     1
 66
   257
176
     1
 43
1.0
176
     1
 76
     1
176
     1
 77
     6
176
     1
 78
     2
176
     1
 67
     7
176
     1
 79
     3
176
     1
170
     0
176
     1
171
     0
176
     1
290
     0
176
     1
 93
        1
176
     1
 44
0.0
176
     1
173
     0
176
     1
  0
VISUALSTYLE
  5
30
102
{ACAD_REACTORS
330
2A
102
}
330
2A
100
AcDbVisualStyle
  2
3dWireframe
 70
     5
177
     2
291
     0
 71
     0
176
     1
 72
     2
176
     1
 73
     0
176
     1
 90
        0
176
     1
 40
-0.6
176
     1
 41
-30.0
176
     1
 62
     5
 63
     7
421
 16777215
176
     1
 74
     1
176
     1
 91
        4
176
     1
 64
     7
176
     1
 65
   257
176
     1
 75
     1
176
     1
175
     1
176
     1
 42
1.0
176
     1
 92
        0
176
     1
 66
   257
176
     1
 43
1.0
176
     1
 76
     1
176
     1
 77
     6
176
     1
 78
     2
176
     1
 67
     7
176
     1
 79
     5
176
     1
170
     0
176
     1
171
     0
176
     1
290
     0
176
     1
 93
        1
176
     1
 44
0.0
176
     1
173
     0
176
     1
  0
VISUALSTYLE
  5
32
102
{ACAD_REACTORS
330
2A
102
}
330
2A
100
AcDbVisualStyle
  2
Basic
 70
     7
177
     2
291
     1
 71
     1
176
     1
 72
     0
176
     1
 73
     1
176
     1
 90
        0
176
     1
 40
-0.6
176
     1
 41
-30.0
176
     1
 62
     5
 63
     7
421
 16777215
176
     1
 74
     0
176
     1
 91
        4
176
     1
 64
     7
176
     1
 65
   257
176
     1
 75
     1
176
     1
175
     1
176
     1
 42
1.0
176
     1
 92
        8
176
     1
 66
     7
176
     1
 43
1.0
176
     1
 76
     1
176
     1
 77
     6
176
     1
 78
     2
176
     1
 67
     7
176
     1
 79
     5
176
     1
170
     0
176
     1
171
     0
176
     1
290
     0
176
     1
 93
        1
176
     1
 44
0.0
176
     1
173
     0
176
     1
  0
VISUALSTYLE
  5
36
102
{ACAD_REACTORS
330
2A
102
}
330
2A
100
AcDbVisualStyle
  2
Brighten
 70
    12
177
     2
291
     1
 71
     2
176
     1
 72
     2
176
     1
 73
     0
176
     1
 90
        0
176
     1
 40
-0.6
176
     1
 41
-30.0
176
     1
 62
     5
 63
     7
421
 16777215
176
     1
 74
     1
176
     1
 91
        4
176
     1
 64
     7
176
     1
 65
   257
176
     1
 75
     1
176
     1
175
     1
176
     1
 42
1.0
176
     1
 92
        8
176
     1
 66
     7
176
     1
 43
1.0
176
     1
 76
     1
176
     1
 77
     6
176
     1
 78
     2
176
     1
 67
     7
176
     1
 79
     5
176
     1
170
     0
176
     1
171
     0
176
     1
290
     0
176
     1
 93
        1
176
     1
 44
50.0
176
     1
173
     0
176
     1
  0
VISUALSTYLE
  5
3A
102
{ACAD_REACTORS
330
2A
102
}
330
2A
100
AcDbVisualStyle
  2
ColorChange
 70
    16
177
     2
291
     1
 71
     2
176
     1
 72
     2
176
     1
 73
     3
176
     1
 90
        0
176
     1
 40
-0.6
176
     1
 41
-30.0
176
     1
 62
     5
 63
     8
421
  8421504
176
     1
 74
     1
176
     1
 91
        4
176
     1
 64
     7
176
     1
 65
   257
176
     1
 75
     1
176
     1
175
     1
176
     1
 42
1.0
176
     1
 92
        8
176
     1
 66
     8
424
  8421504
176
     1
 43
1.0
176
     1
 76
     1
176
     1
 77
     6
176
     1
 78
     2
176
     1
 67
     7
176
     1
 79
     5
176
     1
170
     0
176
     1
171
     0
176
     1
290
     0
176
     1
 93
        1
176
     1
 44
0.0
176
     1
173
     0
176
     1
  0
VISUALSTYLE
  5
34
102
{ACAD_REACTORS
330
2A
102
}
330
2A
100
AcDbVisualStyle
  2
Conceptual
 70
     9
177
     2
291
     0
 71
     3
176
     1
 72
     2
176
     1
 73
     0
176
     1
 90
        0
176
     1
 40
-0.6
176
     1
 41
-30.0
176
     1
 62
     5
 63
     7
421
 16777215
176
     1
 74
     2
176
     1
 91
        2
176
     1
 64
     7
176
     1
 65
   257
176
     1
 75
     1
176
     1
175
     1
176
     1
 42
40.0
176
     1
 92
        8
176
     1
 66
     7
176
     1
 43
1.0
176
     1
 76
     1
176
     1
 77
     6
176
     1
 78
     2
176
     1
 67
     7
176
     1
 79
     3
176
     1
170
     0
176
     1
171
     0
176
     1
290
     0
176
     1
 93
        1
176
     1
 44
0.0
176
     1
173
     0
176
     1
  0
VISUALSTYLE
  5
35
102
{ACAD_REACTORS
330
2A
102
}
330
2A
100
AcDbVisualStyle
  2
Dim
 70
    11
177
     2
291
     1
 71
     2
176
     1
 72
     2
176
     1
 73
     0
176
     1
 90
        0
176
     1
 40
-0.6
176
     1
 41
-30.0
176
     1
 62
     5
 63
     7
421
 16777215
176
     1
 74
     1
176
     1
 91
        4
176
     1
 64
     7
176
     1
 65
   257
176
     1
 75
     1
176
     1
175
     1
176
     1
 42
1.0
176
     1
 92
        8
176
     1
 66
     7
176
     1
 43
1.0
176
     1
 76
     1
176
     1
 77
     6
176
     1
 78
     2
176
     1
 67
     7
176
     1
 79
     5
176
     1
170
     0
176
     1
171
     0
176
     1
290
     0
176
     1
 93
        1
176
     1
 44
-50.0
176
     1
173
     0
176
     1
  0
VISUALSTYLE
  5
39
102
{ACAD_REACTORS
330
2A
102
}
330
2A
100
AcDbVisualStyle
  2
Facepattern
 70
    15
177
     2
291
     1
 71
     2
176
     1
 72
     2
176
     1
 73
     0
176
     1
 90
        0
176
     1
 40
-0.6
176
     1
 41
-30.0
176
     1
 62
     5
 63
     7
421
 16777215
176
     1
 74
     1
176
     1
 91
        4
176
     1
 64
     7
176
     1
 65
   257
176
     1
 75
     1
176
     1
175
     1
176
     1
 42
1.0
176
     1
 92
        8
176
     1
 66
     7
176
     1
 43
1.0
176
     1
 76
     1
176
     1
 77
     6
176
     1
 78
     2
176
     1
 67
     7
176
     1
 79
     5
176
     1
170
     0
176
     1
171
     0
176
     1
290
     0
176
     1
 93
        1
176
     1
 44
0.0
176
     1
173
     0
176
     1
  0
VISUALSTYLE
  5
2B
102
{ACAD_REACTORS
330
2A
102
}
330
2A
100
AcDbVisualStyle
  2
Flat
 70
     0
177
     2
291
     1
 71
     2
176
     1
 72
     1
176
     1
 73
     1
176
     1
 90
        2
176
     1
 40
-0.6
176
     1
 41
30.0
176
     1
 62
     5
 63
     7
421
 16777215
176
     1
 74
     0
176
     1
 91
        4
176
     1
 64
     7
176
     1
 65
   257
176
     1
 75
     1
176
     1
175
     1
176
     1
 42
1.0
176
     1
 92
        8
176
     1
 66
     7
176
     1
 43
1.0
176
     1
 76
     1
176
     1
 77
     6
176
     1
 78
     2
176
     1
 67
     7
176
     1
 79
     5
176
     1
170
     0
176
     1
171
     0
176
     1
290
     0
176
     1
 93
       13
176
     1
 44
0.0
176
     1
173
     0
176
     1
  0
VISUALSTYLE
  5
2C
102
{ACAD_REACTORS
330
2A
102
}
330
2A
100
AcDbVisualStyle
  2
FlatWithEdges
 70
     1
177
     2
291
     1
 71
     2
176
     1
 72
     1
176
     1
 73
     1
176
     1
 90
        2
176
     1
 40
-0.6
176
     1
 41
30.0
176
     1
 62
     5
 63
     7
421
 16777215
176
     1
 74
     1
176
     1
 91
        4
176
     1
 64
     7
176
     1
 65
   257
176
     1
 75
     1
176
     1
175
     1
176
     1
 42
1.0
176
     1
 92
        0
176
     1
 66
   257
176
     1
 43
1.0
176
     1
 76
     1
176
     1
 77
     6
176
     1
 78
     2
176
     1
 67
     7
176
     1
 79
     5
176
     1
170
     0
176
     1
171
     0
176
     1
290
     0
176
     1
 93
       13
176
     1
 44
0.0
176
     1
173
     0
176
     1
  0
VISUALSTYLE
  5
2D
102
{ACAD_REACTORS
330
2A
102
}
330
2A
100
AcDbVisualStyle
  2
Gouraud
 70
     2
177
     2
291
     1
 71
     2
176
     1
 72
     2
176
     1
 73
     1
176
     1
 90
        2
176
     1
 40
-0.6
176
     1
 41
30.0
176
     1
 62
     5
 63
     7
421
 16777215
176
     1
 74
     0
176
     1
 91
        4
176
     1
 64
     7
176
     1
 65
   257
176
     1
 75
     1
176
     1
175
     1
176
     1
 42
1.0
176
     1
 92
        0
176
     1
 66
     7
176
     1
 43
1.0
176
     1
 76
     1
176
     1
 77
     6
176
     1
 78
     2
176
     1
 67
     7
176
     1
 79
     5
176
     1
170
     0
176
     1
171
     0
176
     1
290
     0
176
     1
 93
       13
176
     1
 44
0.0
176
     1
173
     0
176
     1
  0
VISUALSTYLE
  5
2E
102
{ACAD_REACTORS
330
2A
102
}
330
2A
100
AcDbVisualStyle
  2
GouraudWithEdges
 70
     3
177
     2
291
     1
 71
     2
176
     1
 72
     2
176
     1
 73
     1
176
     1
 90
        2
176
     1
 40
-0.6
176
     1
 41
30.0
176
     1
 62
     5
 63
     7
421
 16777215
176
     1
 74
     1
176
     1
 91
        4
176
     1
 64
     7
176
     1
 65
   257
176
     1
 75
     1
176
     1
175
     1
176
     1
 42
1.0
176
     1
 92
        0
176
     1
 66
   257
176
     1
 43
1.0
176
     1
 76
     1
176
     1
 77
     6
176
     1
 78
     2
176
     1
 67
     7
176
     1
 79
     5
176
     1
170
     0
176
     1
171
     0
176
     1
290
     0
176
     1
 93
       13
176
     1
 44
0.0
176
     1
173
     0
176
     1
  0
VISUALSTYLE
  5
38
102
{ACAD_REACTORS
330
2A
102
}
330
2A
100
AcDbVisualStyle
  2
Linepattern
 70
    14
177
     2
291
     1
 71
     2
176
     1
 72
     2
176
     1
 73
     0
176
     1
 90
        0
176
     1
 40
-0.6
176
     1
 41
-30.0
176
     1
 62
     5
 63
     7
421
 16777215
176
     1
 74
     1
176
     1
 91
        4
176
     1
 64
     7
176
     1
 65
   257
176
     1
 75
     7
176
     1
175
     7
176
     1
 42
1.0
176
     1
 92
        8
176
     1
 66
     7
176
     1
 43
1.0
176
     1
 76
     1
176
     1
 77
     6
176
     1
 78
     2
176
     1
 67
     7
176
     1
 79
     5
176
     1
170
     0
176
     1
171
     0
176
     1
290
     0
176
     1
 93
        1
176
     1
 44
0.0
176
     1
173
     0
176
     1
  0
VISUALSTYLE
  5
33
102
{ACAD_REACTORS
330
2A
102
}
330
2A
100
AcDbVisualStyle
  2
Realistic
 70
     8
177
     2
291
     0
 71
     2
176
     1
 72
     2
176
     1
 73
     0
176
     1
 90
        0
176
     1
 40
-0.6
176
     1
 41
-30.0
176
     1
 62
     5
 63
     7
421
 16777215
176
     1
 74
     1
176
     1
 91
        0
176
     1
 64
     7
176
     1
 65
   257
176
     1
 75
     1
176
     1
175
     1
176
     1
 42
1.0
176
     1
 92
        8
176
     1
 66
     8
424
  7895160
176
     1
 43
1.0
176
     1
 76
     1
176
     1
 77
     6
176
     1
 78
     2
176
     1
 67
     7
176
     1
 79
     5
176
     1
170
     0
176
     1
171
     0
176
     1
290
     0
176
     1
 93
       13
176
     1
 44
0.0
176
     1
173
     0
176
     1
  0
VISUALSTYLE
  5
37
102
{ACAD_REACTORS
330
2A
102
}
330
2A
100
AcDbVisualStyle
  2
Thicken
 70
    13
177
     2
291
     1
 71
     2
176
     1
 72
     2
176
     1
 73
     0
176
     1
 90
        0
176
     1
 40
-0.6
176
     1
 41
-30.0
176
     1
 62
     5
 63
     7
421
 16777215
176
     1
 74
     1
176
     1
 91
        4
176
     1
 64
     7
176
     1
 65
   257
176
     1
 75
     1
176
     1
175
     1
176
     1
 42
1.0
176
     1
 92
       12
176
     1
 66
     7
176
     1
 43
1.0
176
     1
 76
     1
176
     1
 77
     6
176
     1
 78
     2
176
     1
 67
     7
176
     1
 79
     5
176
     1
170
     0
176
     1
171
     0
176
     1
290
     0
176
     1
 93
        1
176
     1
 44
0.0
176
     1
173
     0
176
     1
  0
ENDSEC
  0
EOF
