  0
SECTION
  2
HEADER
  9
$ACADVER
  1
AC1015
  9
$ACADMAINTVER
 70
     6
  9
$DWGCODEPAGE
  3
ANSI_1252
  9
$INSBASE
 10
0.0
 20
0.0
 30
0.0
  9
$EXTMIN
 10
0.0
 20
0.0
 30
0.0
  9
$EXTMAX
 10
594.0
 20
841.0
 30
0.0
  9
$LIMMIN
 10
0.0
 20
0.0
  9
$LIMMAX
 10
594.0
 20
841.0
  9
$ORTHOMODE
 70
     0
  9
$REGENMODE
 70
     1
  9
$FILLMODE
 70
     1
  9
$QTEXTMODE
 70
     0
  9
$MIRRTEXT
 70
     1
  9
$LTSCALE
 40
1.0
  9
$ATTMODE
 70
     1
  9
$TEXTSIZE
 40
10.0
  9
$TRACEWID
 40
1.0
  9
$TEXTSTYLE
  7
Standard
  9
$CLAYER
  8
0
  9
$CELTYPE
  6
ByLayer
  9
$CECOLOR
 62
   256
  9
$CELTSCALE
 40
1.0
  9
$DISPSILH
 70
     0
  9
$DIMSCALE
 40
1.0
  9
$DIMASZ
 40
2.5
  9
$DIMEXO
 40
0.0
  9
$DIMDLI
 40
3.75
  9
$DIMRND
 40
0.0
  9
$DIMDLE
 40
0.0
  9
$DIMEXE
 40
1.0
  9
$DIMTP
 40
0.0
  9
$DIMTM
 40
0.0
  9
$DIMTXT
 40
3.5
  9
$DIMCEN
 40
2.5
  9
$DIMTSZ
 40
0.0
  9
$DIMTOL
 70
     0
  9
$DIMLIM
 70
     0
  9
$DIMTIH
 70
     1
  9
$DIMTOH
 70
     1
  9
$DIMSE1
 70
     0
  9
$DIMSE2
 70
     0
  9
$DIMTAD
 70
     1
  9
$DIMZIN
 70
     0
  9
$DIMBLK
  1

  9
$DIMASO
 70
     1
  9
$DIMSHO
 70
     1
  9
$DIMPOST
  1

  9
$DIMAPOST
  1

  9
$DIMALT
 70
     0
  9
$DIMALTD
 70
     3
  9
$DIMALTF
 40
0.0393700787
  9
$DIMLFAC
 40
1.0
  9
$DIMTOFL
 70
     1
  9
$DIMTVP
 40
0.0
  9
$DIMTIX
 70
     0
  9
$DIMSOXD
 70
     0
  9
$DIMSAH
 70
     0
  9
$DIMBLK1
  1

  9
$DIMBLK2
  1

  9
$DIMSTYLE
  2
ISO-25
  9
$DIMCLRD
 70
     0
  9
$DIMCLRE
 70
     0
  9
$DIMCLRT
 70
     0
  9
$DIMTFAC
 40
1.0
  9
$DIMGAP
 40
1.5
  9
$DIMJUST
 70
     0
  9
$DIMSD1
 70
     0
  9
$DIMSD2
 70
     0
  9
$DIMTOLJ
 70
     0
  9
$DIMTZIN
 70
     0
  9
$DIMALTZ
 70
     0
  9
$DIMALTTZ
 70
     0
  9
$DIMUPT
 70
     0
  9
$DIMDEC
 70
     2
  9
$DIMTDEC
 70
     2
  9
$DIMALTU
 70
     2
  9
$DIMALTTD
 70
     3
  9
$DIMTXSTY
  7
Standard
  9
$DIMAUNIT
 70
     0
  9
$DIMADEC
 70
     2
  9
$DIMALTRND
 40
0.0
  9
$DIMAZIN
 70
     0
  9
$DIMDSEP
 70
    44
  9
$DIMATFIT
 70
     3
  9
$DIMFRAC
 70
     0
  9
$DIMLDRBLK
  1

  9
$DIMLUNIT
 70
     2
  9
$DIMLWD
 70
    -2
  9
$DIMLWE
 70
    -2
  9
$DIMTMOVE
 70
     0
  9
$LUNITS
 70
     2
  9
$LUPREC
 70
     2
  9
$SKETCHINC
 40
1.0
  9
$FILLETRAD
 40
10.0
  9
$AUNITS
 70
     0
  9
$AUPREC
 70
     2
  9
$MENU
  1
.
  9
$ELEVATION
 40
0.0
  9
$PELEVATION
 40
0.0
  9
$THICKNESS
 40
0.0
  9
$LIMCHECK
 70
     0
  9
$CHAMFERA
 40
0.0
  9
$CHAMFERB
 40
0.0
  9
$CHAMFERC
 40
0.0
  9
$CHAMFERD
 40
0.0
  9
$SKPOLY
 70
     0
  9
$TDCREATE
 40
2457996.304426331
  9
$TDUCREATE
 40
2457996.221092998
  9
$TDUPDATE
 40
2457996.304428866
  9
$TDUUPDATE
 40
2457996.221095532
  9
$TDINDWG
 40
0.0000000116
  9
$TDUSRTIMER
 40
0.0000000116
  9
$USRTIMER
 70
     1
  9
$ANGBASE
 50
0.0
  9
$ANGDIR
 70
     0
  9
$PDMODE
 70
     0
  9
$PDSIZE
 40
-1.0
  9
$PLINEWID
 40
0.0
  9
$SPLFRAME
 70
     0
  9
$SPLINETYPE
 70
     6
  9
$SPLINESEGS
 70
     8
  9
$HANDSEED
  5
207
  9
$SURFTAB1
 70
     6
  9
$SURFTAB2
 70
     6
  9
$SURFTYPE
 70
     6
  9
$SURFU
 70
     6
  9
$SURFV
 70
     6
  9
$UCSBASE
  2

  9
$UCSNAME
  2

  9
$UCSORG
 10
0.0
 20
0.0
 30
0.0
  9
$UCSXDIR
 10
1.0
 20
0.0
 30
0.0
  9
$UCSYDIR
 10
0.0
 20
1.0
 30
0.0
  9
$UCSORTHOREF
  2

  9
$UCSORTHOVIEW
 70
     0
  9
$UCSORGTOP
 10
0.0
 20
0.0
 30
0.0
  9
$UCSORGBOTTOM
 10
0.0
 20
0.0
 30
0.0
  9
$UCSORGLEFT
 10
0.0
 20
0.0
 30
0.0
  9
$UCSORGRIGHT
 10
0.0
 20
0.0
 30
0.0
  9
$UCSORGFRONT
 10
0.0
 20
0.0
 30
0.0
  9
$UCSORGBACK
 10
0.0
 20
0.0
 30
0.0
  9
$PUCSBASE
  2

  9
$PUCSNAME
  2

  9
$PUCSORG
 10
0.0
 20
0.0
 30
0.0
  9
$PUCSXDIR
 10
1.0
 20
0.0
 30
0.0
  9
$PUCSYDIR
 10
0.0
 20
1.0
 30
0.0
  9
$PUCSORTHOREF
  2

  9
$PUCSORTHOVIEW
 70
     0
  9
$PUCSORGTOP
 10
0.0
 20
0.0
 30
0.0
  9
$PUCSORGBOTTOM
 10
0.0
 20
0.0
 30
0.0
  9
$PUCSORGLEFT
 10
0.0
 20
0.0
 30
0.0
  9
$PUCSORGRIGHT
 10
0.0
 20
0.0
 30
0.0
  9
$PUCSORGFRONT
 10
0.0
 20
0.0
 30
0.0
  9
$PUCSORGBACK
 10
0.0
 20
0.0
 30
0.0
  9
$USERI1
 70
     0
  9
$USERI2
 70
     0
  9
$USERI3
 70
     0
  9
$USERI4
 70
     0
  9
$USERI5
 70
     0
  9
$USERR1
 40
0.0
  9
$USERR2
 40
0.0
  9
$USERR3
 40
0.0
  9
$USERR4
 40
0.0
  9
$USERR5
 40
0.0
  9
$WORLDVIEW
 70
     1
  9
$SHADEDGE
 70
     3
  9
$SHADEDIF
 70
    70
  9
$TILEMODE
 70
     1
  9
$MAXACTVP
 70
    64
  9
$PINSBASE
 10
0.0
 20
0.0
 30
0.0
  9
$PLIMCHECK
 70
     0
  9
$PEXTMIN
 10
1.0000000000E+20
 20
1.0000000000E+20
 30
1.0000000000E+20
  9
$PEXTMAX
 10
-1.0000000000E+20
 20
-1.0000000000E+20
 30
-1.0000000000E+20
  9
$PLIMMIN
 10
0.0
 20
0.0
  9
$PLIMMAX
 10
420.0
 20
297.0
  9
$UNITMODE
 70
     0
  9
$VISRETAIN
 70
     1
  9
$PLINEGEN
 70
     0
  9
$PSLTSCALE
 70
     1
  9
$TREEDEPTH
 70
  3020
  9
$CMLSTYLE
  2
Standard
  9
$CMLJUST
 70
     0
  9
$CMLSCALE
 40
20.0
  9
$PROXYGRAPHICS
 70
     1
  9
$MEASUREMENT
 70
     1
  9
$CELWEIGHT
370
    -1
  9
$ENDCAPS
280
     0
  9
$JOINSTYLE
280
     0
  9
$LWDISPLAY
290
     1
  9
$INSUNITS
 70
     4
  9
$HYPERLINKBASE
  1

  9
$STYLESHEET
  1

  9
$XEDIT
290
     1
  9
$CEPSNTYPE
380
     0
  9
$PSTYLEMODE
290
     1
  9
$FINGERPRINTGUID
  2
{25CD48E9-B651-4F77-AB4F-98F9A046DAC3}
  9
$VERSIONGUID
  2
{FAEB1C32-E019-11D5-929B-00C0DF256EC4}
  9
$EXTNAMES
290
     1
  9
$PSVPSCALE
 40
0.0
  9
$OLESTARTUP
290
     0
  0
ENDSEC
  0
SECTION
  2
CLASSES
  0
CLASS
  1
ACDBDICTIONARYWDFLT
  2
AcDbDictionaryWithDefault
  3
ObjectDBX Classes
 90
        0
280
     0
281
     0
  0
CLASS
  1
VISUALSTYLE
  2
AcDbVisualStyle
  3
ObjectDBX Classes
 90
     4095
280
     0
281
     0
  0
CLASS
  1
MATERIAL
  2
AcDbMaterial
  3
ObjectDBX Classes
 90
     1153
280
     0
281
     0
  0
CLASS
  1
SCALE
  2
AcDbScale
  3
ObjectDBX Classes
 90
     1153
280
     0
281
     0
  0
CLASS
  1
TABLESTYLE
  2
AcDbTableStyle
  3
ObjectDBX Classes
 90
     4095
280
     0
281
     0
  0
CLASS
  1
MLEADERSTYLE
  2
AcDbMLeaderStyle
  3
ACDB_MLEADERSTYLE_CLASS
 90
     4095
280
     0
281
     0
  0
CLASS
  1
SUN
  2
AcDbSun
  3
SCENEOE
 90
     1153
280
     0
281
     0
  0
CLASS
  1
ACDBPLACEHOLDER
  2
AcDbPlaceHolder
  3
ObjectDBX Classes
 90
        0
280
     0
281
     0
  0
CLASS
  1
LAYOUT
  2
AcDbLayout
  3
ObjectDBX Classes
 90
        0
280
     0
281
     0
  0
ENDSEC
  0
SECTION
  2
TABLES
  0
TABLE
  2
VPORT
  5
8
330
0
100
AcDbSymbolTable
 70
     1
  0
VPORT
  5
29
330
8
100
AcDbSymbolTableRecord
100
AcDbViewportTableRecord
  2
*Active
 70
     0
 10
0.0
 20
0.0
 11
1.0
 21
1.0
 12
297.0
 22
420.5
 13
0.0
 23
0.0
 14
10.0
 24
10.0
 15
10.0
 25
10.0
 16
0.0
 26
0.0
 36
1.0
 17
0.0
 27
0.0
 37
0.0
 40
841.0
 41
0.7063020214
 42
50.0
 43
0.0
 44
0.0
 50
0.0
 51
0.0
 71
     0
 72
  2000
 73
     1
 74
     3
 75
     0
 76
     0
 77
     0
 78
     0
281
     0
 65
     1
110
0.0
120
0.0
130
0.0
111
1.0
121
0.0
131
0.0
112
0.0
122
1.0
132
0.0
 79
     0
146
0.0
  0
ENDTAB
  0
TABLE
  2
LTYPE
  5
5
330
0
100
AcDbSymbolTable
 70
     6
  0
LTYPE
  5
14
330
5
100
AcDbSymbolTableRecord
100
AcDbLinetypeTableRecord
  2
ByBlock
 70
     0
  3

 72
    65
 73
     0
 40
0.0
  0
LTYPE
  5
15
330
5
100
AcDbSymbolTableRecord
100
AcDbLinetypeTableRecord
  2
ByLayer
 70
     0
  3

 72
    65
 73
     0
 40
0.0
  0
LTYPE
  5
16
330
5
100
AcDbSymbolTableRecord
100
AcDbLinetypeTableRecord
  2
Continuous
 70
     0
  3
Solid line
 72
    65
 73
     0
 40
0.0
  0
LTYPE
  5
6E
330
5
100
AcDbSymbolTableRecord
100
AcDbLinetypeTableRecord
  2
HIDDEN
 70
     0
  3
Hidden __ __ __ __ __ __ __ __ __ __ __ __ __ __
 72
    65
 73
     2
 40
1.905
 49
1.27
 74
     0
 49
-0.635
 74
     0
  0
LTYPE
  5
6F
330
5
100
AcDbSymbolTableRecord
100
AcDbLinetypeTableRecord
  2
PHANTOM
 70
     0
  3
Phantom ______  __  __  ______  __  __  ______
 72
    65
 73
     6
 40
12.7
 49
6.35
 74
     0
 49
-1.27
 74
     0
 49
1.27
 74
     0
 49
-1.27
 74
     0
 49
1.27
 74
     0
 49
-1.27
 74
     0
  0
LTYPE
  5
70
330
5
100
AcDbSymbolTableRecord
100
AcDbLinetypeTableRecord
  2
CENTER
 70
     0
  3
Center ____ _ ____ _ ____ _ ____ _ ____ _ ____
 72
    65
 73
     4
 40
10.16
 49
6.35
 74
     0
 49
-1.27
 74
     0
 49
1.27
 74
     0
 49
-1.27
 74
     0
  0
LTYPE
  5
71
330
5
100
AcDbSymbolTableRecord
100
AcDbLinetypeTableRecord
  2
CENTERX2
 70
     0
  3
Center (2x) ________  __  ________  __  _____
 72
    65
 73
     4
 40
20.32
 49
12.7
 74
     0
 49
-2.54
 74
     0
 49
2.54
 74
     0
 49
-2.54
 74
     0
  0
LTYPE
  5
72
330
5
100
AcDbSymbolTableRecord
100
AcDbLinetypeTableRecord
  2
DOT2
 70
     0
  3
Dot (.5x) ........................................
 72
    65
 73
     2
 40
0.635
 49
0.0
 74
     0
 49
-0.635
 74
     0
  0
ENDTAB
  0
TABLE
  2
LAYER
  5
2
330
0
100
AcDbSymbolTable
 70
     1
  0
LAYER
  5
10
330
2
100
AcDbSymbolTableRecord
100
AcDbLayerTableRecord
  2
0
 70
     0
 62
     7
  6
Continuous
370
    -3
390
F
  0
ENDTAB
  0
TABLE
  2
STYLE
  5
3
330
0
100
AcDbSymbolTable
 70
     3
  0
STYLE
  5
11
330
3
100
AcDbSymbolTableRecord
100
AcDbTextStyleTableRecord
  2
Standard
 70
     0
 40
0.0
 41
1.0
 50
0.0
 71
     0
 42
10.0
  3
txt
  4

  0
STYLE
  5
76
330
3
100
AcDbSymbolTableRecord
100
AcDbTextStyleTableRecord
  2
SLDTEXTSTYLE0
 70
     0
 40
0.0
 41
0.96
 50
0.0
 71
     0
 42
10.0
  3
ISOCP3
  4

  0
STYLE
  5
8D
330
3
100
AcDbSymbolTableRecord
100
AcDbTextStyleTableRecord
  2
SLDTEXTSTYLE1
 70
     0
 40
0.0
 41
0.605
 50
0.0
 71
     0
 42
10.0
  3
TXT
  4

  0
ENDTAB
  0
TABLE
  2
VIEW
  5
6
330
0
100
AcDbSymbolTable
 70
     0
  0
ENDTAB
  0
TABLE
  2
UCS
  5
7
330
0
100
AcDbSymbolTable
 70
     0
  0
ENDTAB
  0
TABLE
  2
APPID
  5
9
330
0
100
AcDbSymbolTable
 70
     1
  0
APPID
  5
12
330
9
100
AcDbSymbolTableRecord
100
AcDbRegAppTableRecord
  2
ACAD
 70
     0
  0
ENDTAB
  0
TABLE
  2
DIMSTYLE
  5
A
330
0
100
AcDbSymbolTable
 70
     2
100
AcDbDimStyleTable
  0
DIMSTYLE
105
27
330
A
100
AcDbSymbolTableRecord
100
AcDbDimStyleTableRecord
  2
ISO-25
 70
     0
 41
2.5
 42
0.625
 43
3.75
 44
1.25
 73
     0
 74
     0
 77
     1
 78
     8
140
2.5
141
2.5
143
0.0393700787
147
0.625
171
     3
172
     1
178
     0
271
     2
272
     2
274
     3
278
    44
283
     0
284
     8
340
11
  0
DIMSTYLE
105
77
102
{ACAD_REACTORS
330
75
330
82
102
}
330
A
100
AcDbSymbolTableRecord
100
AcDbDimStyleTableRecord
  2
SLDDIMSTYLE0
 70
     0
 41
2.5
 44
0.0
 45
0.000000001
 73
     0
 74
     0
 77
     1
 78
    12
 79
     3
140
6.0
147
1.5
173
     1
178
     0
271
     2
272
     2
276
     2
284
    12
340
76
  0
ENDTAB
  0
TABLE
  2
BLOCK_RECORD
  5
1
330
0
100
AcDbSymbolTable
 70
     3
  0
BLOCK_RECORD
  5
1F
330
1
100
AcDbSymbolTableRecord
100
AcDbBlockTableRecord
  2
*Model_Space
340
22
  0
BLOCK_RECORD
  5
1B
330
1
100
AcDbSymbolTableRecord
100
AcDbBlockTableRecord
  2
*Paper_Space
340
1E
  0
BLOCK_RECORD
  5
23
330
1
100
AcDbSymbolTableRecord
100
AcDbBlockTableRecord
  2
*Paper_Space0
340
26
  0
BLOCK_RECORD
  5
78
330
1
100
AcDbSymbolTableRecord
100
AcDbBlockTableRecord
  2
_D
340
0
  0
BLOCK_RECORD
  5
83
330
1
100
AcDbSymbolTableRecord
100
AcDbBlockTableRecord
  2
_D_1
340
0
  0
ENDTAB
  0
ENDSEC
  0
SECTION
  2
BLOCKS
  0
BLOCK
  5
20
330
1F
100
AcDbEntity
  8
0
100
AcDbBlockBegin
  2
*Model_Space
 70
     0
 10
0.0
 20
0.0
 30
0.0
  3
*Model_Space
  1

  0
ENDBLK
  5
21
330
1F
100
AcDbEntity
  8
0
100
AcDbBlockEnd
  0
BLOCK
  5
1C
330
1B
100
AcDbEntity
 67
     1
  8
0
100
AcDbBlockBegin
  2
*Paper_Space
 70
     0
 10
0.0
 20
0.0
 30
0.0
  3
*Paper_Space
  1

  0
ENDBLK
  5
1D
330
1B
100
AcDbEntity
 67
     1
  8
0
100
AcDbBlockEnd
  0
BLOCK
  5
24
330
23
100
AcDbEntity
  8
0
100
AcDbBlockBegin
  2
*Paper_Space0
 70
     0
 10
0.0
 20
0.0
 30
0.0
  3
*Paper_Space0
  1

  0
ENDBLK
  5
25
330
23
100
AcDbEntity
  8
0
100
AcDbBlockEnd
  0
BLOCK
  5
79
330
78
100
AcDbEntity
  8
0
100
AcDbBlockBegin
  2
_D
 70
     0
 10
0.0
 20
0.0
 30
0.0
  3
_D
  1

  0
SOLID
  5
7B
330
78
100
AcDbEntity
  8
0
  6
Continuous
 62
     7
370
    18
100
AcDbTrace
 10
42.7614395004
 20
152.0299240879
 30
0.0
 11
42.4614395004
 21
149.5299240879
 31
0.0
 12
43.0614395004
 22
149.5299240879
 32
0.0
 13
43.0614395004
 23
149.5299240879
 33
0.0
  0
SOLID
  5
7C
330
78
100
AcDbEntity
  8
0
  6
Continuous
 62
     7
370
    18
100
AcDbTrace
 10
42.7614395004
 20
52.0299240879
 30
0.0
 11
43.0614395004
 21
54.5299240879
 31
0.0
 12
42.4614395004
 22
54.5299240879
 32
0.0
 13
42.4614395004
 23
54.5299240879
 33
0.0
  0
LINE
  5
7D
330
78
100
AcDbEntity
  8
0
  6
Continuous
 62
     7
370
    18
100
AcDbLine
 10
56.6850079902
 20
152.0299240879
 30
0.0
 11
41.7614395004
 21
152.0299240879
 31
0.0
  0
LINE
  5
7E
330
78
100
AcDbEntity
  8
0
  6
Continuous
 62
     7
370
    18
100
AcDbLine
 10
56.6850079902
 20
52.0299240879
 30
0.0
 11
41.7614395004
 21
52.0299240879
 31
0.0
  0
LINE
  5
7F
330
78
100
AcDbEntity
  8
0
  6
Continuous
 62
     7
370
    18
100
AcDbLine
 10
42.7614395004
 20
152.0299240879
 30
0.0
 11
42.7614395004
 21
52.0299240879
 31
0.0
  0
MTEXT
  5
80
330
78
100
AcDbEntity
  8
0
  6
Continuous
 62
     7
370
    18
100
AcDbMText
 10
35.0270332946
 20
94.3680541463
 30
0.0
 40
6.0
 41
0.0
 71
     1
 72
     1
  1
100
  7
SLDTEXTSTYLE0
 11
-7.044195017643634E-15
 21
1.0
 31
0.0
 73
     1
 44
1.0
  0
MTEXT
  5
81
330
78
100
AcDbEntity
  8
0
  6
Continuous
 62
     7
370
    18
100
AcDbMText
 10
35.0270332946
 20
105.7430548466
 30
0.0
 40
6.0
 41
0.0
 71
     1
 72
     1
  1
mm
  7
SLDTEXTSTYLE0
 11
-7.044195017643634E-15
 21
1.0
 31
0.0
 73
     1
 44
1.0
  0
ENDBLK
  5
7A
330
78
100
AcDbEntity
  8
0
100
AcDbBlockEnd
  0
BLOCK
  5
84
330
83
100
AcDbEntity
  8
0
100
AcDbBlockBegin
  2
_D_1
 70
     0
 10
0.0
 20
0.0
 30
0.0
  3
_D_1
  1

  0
SOLID
  5
86
330
83
100
AcDbEntity
  8
0
  6
Continuous
 62
     7
370
    18
100
AcDbTrace
 10
56.6850079902
 20
38.4602342313
 30
0.0
 11
59.1850079902
 21
38.1602342313
 31
0.0
 12
59.1850079902
 22
38.7602342313
 32
0.0
 13
59.1850079902
 23
38.7602342313
 33
0.0
  0
SOLID
  5
87
330
83
100
AcDbEntity
  8
0
  6
Continuous
 62
     7
370
    18
100
AcDbTrace
 10
156.6850079902
 20
38.4602342313
 30
0.0
 11
154.1850079902
 21
38.7602342313
 31
0.0
 12
154.1850079902
 22
38.1602342313
 32
0.0
 13
154.1850079902
 23
38.1602342313
 33
0.0
  0
LINE
  5
88
330
83
100
AcDbEntity
  8
0
  6
Continuous
 62
     7
370
    18
100
AcDbLine
 10
56.6850079902
 20
52.0299240879
 30
0.0
 11
56.6850079902
 21
37.4602342313
 31
0.0
  0
LINE
  5
89
330
83
100
AcDbEntity
  8
0
  6
Continuous
 62
     7
370
    18
100
AcDbLine
 10
156.6850079902
 20
52.0299240879
 30
0.0
 11
156.6850079902
 21
37.4602342313
 31
0.0
  0
LINE
  5
8A
330
83
100
AcDbEntity
  8
0
  6
Continuous
 62
     7
370
    18
100
AcDbLine
 10
56.6850079902
 20
38.4602342313
 30
0.0
 11
156.6850079902
 21
38.4602342313
 31
0.0
  0
MTEXT
  5
8B
330
83
100
AcDbEntity
  8
0
  6
Continuous
 62
     7
370
    18
100
AcDbMText
 10
93.9626484861
 20
46.1946404371
 30
0.0
 40
6.0
 41
0.0
 71
     1
 72
     1
  1
100
  7
SLDTEXTSTYLE0
 73
     1
 44
1.0
  0
MTEXT
  5
8C
330
83
100
AcDbEntity
  8
0
  6
Continuous
 62
     7
370
    18
100
AcDbMText
 10
105.3376491864
 20
46.1946404371
 30
0.0
 40
6.0
 41
0.0
 71
     1
 72
     1
  1
mm
  7
SLDTEXTSTYLE0
 73
     1
 44
1.0
  0
ENDBLK
  5
85
330
83
100
AcDbEntity
  8
0
100
AcDbBlockEnd
  0
ENDSEC
  0
SECTION
  2
ENTITIES
  0
LINE
  5
73
330
1F
100
AcDbEntity
  8
0
  6
Continuous
 62
     7
370
    18
100
AcDbLine
 10
56.6850079902
 20
152.0299240879
 30
0.0
 11
56.6850079902
 21
52.0299240879
 31
0.0
  0
LINE
  5
74
330
1F
100
AcDbEntity
  8
0
  6
Continuous
 62
     7
370
    18
100
AcDbLine
 10
56.6850079902
 20
52.0299240879
 30
0.0
 11
156.6850079902
 21
52.0299240879
 31
0.0
  0
DIMENSION
  5
75
330
1F
100
AcDbEntity
  8
0
  6
Continuous
 62
     7
370
    18
100
AcDbDimension
  2
_D
 10
42.7614395004
 20
52.0299240879
 30
0.0
 11
42.7614395004
 21
105.4472211621
 31
0.0
 70
   160
  1
<>mm
 71
     2
 42
-1.0
  3
SLDDIMSTYLE0
100
AcDbAlignedDimension
 13
56.6850079902
 23
152.0299240879
 33
0.0
 14
56.6850079902
 24
52.0299240879
 34
0.0
 50
90.0
100
AcDbRotatedDimension
  0
DIMENSION
  5
82
330
1F
100
AcDbEntity
  8
0
  6
Continuous
 62
     7
370
    18
100
AcDbDimension
  2
_D_1
 10
156.6850079902
 20
38.4602342313
 30
0.0
 11
105.0418155019
 21
38.4602342313
 31
0.0
 70
   160
  1
<>mm
 71
     2
 42
-1.0
  3
SLDDIMSTYLE0
100
AcDbAlignedDimension
 13
56.6850079902
 23
52.0299240879
 33
0.0
 14
156.6850079902
 24
52.0299240879
 34
0.0
100
AcDbRotatedDimension
  0
MTEXT
  5
8E
330
1F
100
AcDbEntity
  8
0
  6
Continuous
 62
     7
370
     0
100
AcDbMText
 10
412.8252631579
 20
48.4342449499
 30
0.0
 40
10.0
 41
0.0
 71
     1
 72
     1
  1
KLUDI GmbH & Co KG
  7
SLDTEXTSTYLE1
 73
     1
 44
1.0
  0
MTEXT
  5
8F
330
1F
100
AcDbEntity
  8
0
  6
Continuous
 62
     7
370
     0
100
AcDbMText
 10
210.0873490389
 20
48.4342449499
 30
0.0
 40
10.0
 41
0.0
 71
     1
 72
     1
  1
40 385 05 75
  7
SLDTEXTSTYLE1
 73
     1
 44
1.0
  0
LWPOLYLINE
  5
90
330
1F
100
AcDbEntity
  8
0
  6
Continuous
 62
     7
370
    25
100
AcDbPolyline
 90
        3
 70
   128
 43
0.0
 10
371.1763681219
 20
377.0335678417
 10
370.512178664
 20
336.6439406235
 10
369.8399295405
 20
295.7640726526
  0
SPLINE
  5
91
330
1F
100
AcDbEntity
  8
0
  6
Continuous
 62
     7
370
    25
100
AcDbSpline
210
0.0
220
0.0
230
1.0
 70
     8
 71
     3
 72
    19
 73
    15
 74
     0
 42
0.000000001
 43
0.00000001
 40
0.0
 40
0.0
 40
0.0
 40
0.0
 40
0.1473620918810698
 40
0.2810987456044162
 40
0.3361021353242236
 40
0.3811302473199462
 40
0.4011800817439453
 40
0.4211289720093163
 40
0.4648339316379907
 40
0.5174244951807602
 40
0.579523446469665
 40
0.7272521547808516
 40
0.8931280555195233
 40
1.0
 40
1.0
 40
1.0
 40
1.0
 10
375.1879972712034
 20
411.9875271279587
 30
0.0
 10
375.1434039825102
 20
411.7642775647581
 30
0.0
 10
375.0583406032244
 20
411.3384206067619
 30
0.0
 10
374.9725283875749
 20
410.7297899465984
 30
0.0
 10
374.895295987609
 20
410.1032391361394
 30
0.0
 10
374.8359008658189
 20
409.6460962563766
 30
0.0
 10
374.7738428804734
 20
409.2340632027536
 30
0.0
 10
374.7026981062922
 20
408.801531548615
 30
0.0
 10
374.5917619063174
 20
408.2067859532524
 30
0.0
 10
374.4398692056888
 20
407.4910845016121
 30
0.0
 10
374.1895799499672
 20
406.4095257919508
 30
0.0
 10
373.8434233143468
 20
405.0031738380571
 30
0.0
 10
373.4984233514818
 20
403.5105137788275
 30
0.0
 10
373.3042985484406
 20
402.4301712236092
 30
0.0
 10
373.2282338038916
 20
402.0068560201897
 30
0.0
  0
SPLINE
  5
92
330
1F
100
AcDbEntity
  8
0
  6
Continuous
 62
     7
370
    25
100
AcDbSpline
210
0.0
220
0.0
230
1.0
 70
     8
 71
     3
 72
    17
 73
    13
 74
     0
 42
0.000000001
 43
0.00000001
 40
0.0
 40
0.0
 40
0.0
 40
0.0
 40
0.3394269027753494
 40
0.4470786550266869
 40
0.4650582585830962
 40
0.4804420196713717
 40
0.4945534959191623
 40
0.5088208229745466
 40
0.5244096965920726
 40
0.5843351171829695
 40
0.6982186723784587
 40
1.0
 40
1.0
 40
1.0
 40
1.0
 10
376.5064110354418
 20
413.1607328016534
 30
0.0
 10
376.3719730970413
 20
413.1375565935217
 30
0.0
 10
376.1948971723187
 20
413.1070298795948
 30
0.0
 10
375.9283892870316
 20
412.9764211288885
 30
0.0
 10
375.7968510090923
 20
412.8866351401121
 30
0.0
 10
375.7453577957991
 20
412.8481789486732
 30
0.0
 10
375.6946626271681
 20
412.8069428095169
 30
0.0
 10
375.6461829109957
 20
412.7640278321118
 30
0.0
 10
375.5601422917332
 20
412.6812731656556
 30
0.0
 10
375.4399137020705
 20
412.5400162183572
 30
0.0
 10
375.2681546670885
 20
412.2717192611867
 30
0.0
 10
375.2166042897491
 20
412.082324746503
 30
0.0
 10
375.1791776464218
 20
411.9448203999772
 30
0.0
  0
SPLINE
  5
93
330
1F
100
AcDbEntity
  8
0
  6
Continuous
 62
     7
370
    25
100
AcDbSpline
210
0.0
220
0.0
230
1.0
 70
     8
 71
     3
 72
     9
 73
     5
 74
     0
 42
0.000000001
 43
0.00000001
 40
0.0
 40
0.0
 40
0.0
 40
0.0
 40
0.4988563933066242
 40
0.9999999999999999
 40
0.9999999999999999
 40
0.9999999999999999
 40
0.9999999999999999
 10
482.0771538958782
 20
413.0534891445412
 30
0.0
 10
482.0776156070378
 20
413.0705535078267
 30
0.0
 10
482.0785411462627
 20
413.1047604730264
 30
0.0
 10
482.0774035966355
 20
413.1395057373227
 30
0.0
 10
482.0768335209125
 20
413.1569181043877
 30
0.0
  0
ARC
  5
94
330
1F
100
AcDbEntity
  8
0
  6
Continuous
 62
     7
370
    25
100
AcDbCircle
 10
394.0972368362
 20
377.9239755037
 30
0.0
 40
21.64486082191341
100
AcDbArc
 50
144.9802476932
 51
170.9531540197
  0
ARC
  5
95
330
1F
100
AcDbEntity
  8
0
  6
Continuous
 62
     7
370
    25
100
AcDbCircle
 10
394.0972368362
 20
377.9239755037
 30
0.0
 40
21.64486082191334
100
AcDbArc
 50
9.0468459803
 51
9.5739963405
  0
SPLINE
  5
96
330
1F
100
AcDbEntity
  8
0
  6
Continuous
 62
     7
370
    25
100
AcDbSpline
210
0.0
220
0.0
230
1.0
 70
     8
 71
     3
 72
    13
 73
     9
 74
     0
 42
0.000000001
 43
0.00000001
 40
0.0
 40
0.0
 40
0.0
 40
0.0
 40
0.2961539179732344
 40
0.5530170892238929
 40
0.6682048964927304
 40
0.777565261880012
 40
0.8860868560091412
 40
1.0
 40
1.0
 40
1.0
 40
1.0
 10
478.673236940884
 20
409.5410768348946
 30
0.0
 10
479.1636070118639
 20
409.667437033954
 30
0.0
 10
480.0792897458681
 20
409.9033932217222
 30
0.0
 10
480.98322650961
 20
410.5383687505914
 30
0.0
 10
481.5050835798781
 20
411.2042466372524
 30
0.0
 10
481.7824825050254
 20
411.769232797931
 30
0.0
 10
481.9629091436531
 20
412.4143830039721
 30
0.0
 10
481.993599323263
 20
412.8713817625575
 30
0.0
 10
482.0093163595432
 20
413.1054196913018
 30
0.0
  0
LINE
  5
97
330
1F
100
AcDbEntity
  8
0
  6
Continuous
 62
     7
370
    25
100
AcDbLine
 10
372.5972366826
 20
379.7550339658
 30
0.0
 11
372.5972366826
 21
378.4488354285
 31
0.0
  0
LINE
  5
98
330
1F
100
AcDbEntity
  8
0
  6
Continuous
 62
     7
370
    25
100
AcDbLine
 10
415.5972362802
 20
378.990969475
 30
0.0
 11
415.5972362802
 21
379.7550339658
 31
0.0
  0
ARC
  5
99
330
1F
100
AcDbEntity
  8
0
  6
Continuous
 62
     7
370
    25
100
AcDbCircle
 10
405.5972368362
 20
379.7550362787
 30
0.0
 40
10.0
100
AcDbArc
 50
0.0
 51
9.0468459803
  0
ARC
  5
9A
330
1F
100
AcDbEntity
  8
0
  6
Continuous
 62
     7
370
    25
100
AcDbCircle
 10
382.5972368362
 20
379.7550362787
 30
0.0
 40
10.0
100
AcDbArc
 50
170.9531540197
 51
180.0
  0
SPLINE
  5
9B
330
1F
100
AcDbEntity
  8
0
  6
Continuous
 62
     7
370
    25
100
AcDbSpline
210
0.0
220
0.0
230
1.0
 70
     8
 71
     3
 72
    10
 73
     6
 74
     0
 42
0.000000001
 43
0.00000001
 40
0.0
 40
0.0
 40
0.0
 40
0.0
 40
0.1843019926099676
 40
0.6271751932743074
 40
1.0
 40
1.0
 40
1.0
 40
1.0
 10
382.2073047355646
 20
413.5918382961526
 30
0.0
 10
381.8303308564854
 20
413.5735805623279
 30
0.0
 10
380.5474979249327
 20
413.5114499386813
 30
0.0
 10
378.5753023489412
 20
413.3808185173239
 30
0.0
 10
377.1613024849581
 20
413.2246166163932
 30
0.0
 10
376.5150164560312
 20
413.1532226164117
 30
0.0
  0
SPLINE
  5
9C
330
1F
100
AcDbEntity
  8
0
  6
Continuous
 62
     7
370
    25
100
AcDbSpline
210
0.0
220
0.0
230
1.0
 70
     8
 71
     3
 72
    15
 73
    11
 74
     0
 42
0.000000001
 43
0.00000001
 40
0.0
 40
0.0
 40
0.0
 40
0.0
 40
0.0001383848536287
 40
0.0028775177131432
 40
0.0151492021022515
 40
0.1010350661498133
 40
0.3080460833491155
 40
0.5842962327672692
 40
0.8874235160631399
 40
1.0
 40
1.0
 40
1.0
 40
1.0
 10
394.0492490379968
 20
413.8493154604211
 30
0.0
 10
394.0489794475623
 20
413.8493129871652
 30
0.0
 10
394.0433736949789
 20
413.8492615593012
 30
0.0
 10
394.0136737575247
 20
413.8489206680845
 30
0.0
 10
393.8159640111442
 20
413.8469479093655
 30
0.0
 10
393.2114952108649
 20
413.8403654451631
 30
0.0
 10
392.0506695823824
 20
413.8278507797884
 30
0.0
 10
390.4264616410846
 20
413.8079559998848
 30
0.0
 10
389.0197242842042
 20
413.7889203109171
 30
0.0
 10
388.1800108391247
 20
413.7720710291868
 30
0.0
 10
387.952608552658
 20
413.7675080854668
 30
0.0
  0
LINE
  5
9D
330
1F
100
AcDbEntity
  8
0
  6
Continuous
 62
     7
370
    25
100
AcDbLine
 10
394.0514703588
 20
413.8493378122
 30
0.0
 11
394.0514682633
 21
413.8493378122
 31
0.0
  0
LWPOLYLINE
  5
9E
330
1F
100
AcDbEntity
  8
0
  6
Continuous
 62
     7
370
    25
100
AcDbPolyline
 90
        6
 70
   128
 43
0.0
 10
394.049249038
 20
413.8493154604
 10
394.050300734
 20
413.8493303616
 10
394.0512909627
 20
413.8493378122
 10
394.0514035364
 20
413.8493378122
 10
394.0514682633
 20
413.8493378122
 10
394.0514624425
 20
413.8493378122
  0
LINE
  5
9F
330
1F
100
AcDbEntity
  8
0
  6
Continuous
 62
     7
370
    25
100
AcDbLine
 10
417.3879982279
 20
397.6035926897
 30
0.0
 11
417.3879982279
 21
400.7675264437
 31
0.0
  0
LINE
  5
A0
330
1F
100
AcDbEntity
  8
0
  6
Continuous
 62
     7
370
    25
100
AcDbLine
 10
417.3879982279
 20
381.5239731629
 30
0.0
 11
417.3879982279
 21
389.6456350047
 31
0.0
  0
SPLINE
  5
A1
330
1F
100
AcDbEntity
  8
0
  6
Continuous
 62
     7
370
    25
100
AcDbSpline
210
0.0
220
0.0
230
1.0
 70
     8
 71
     3
 72
    15
 73
    11
 74
     0
 42
0.000000001
 43
0.00000001
 40
0.0
 40
0.0
 40
0.0
 40
0.0
 40
0.1312457112590674
 40
0.2559496048227951
 40
0.3754325820476543
 40
0.4934863316242427
 40
0.6125241086087639
 40
0.7349801468716405
 40
0.8633526671257447
 40
1.0
 40
1.0
 40
1.0
 40
1.0
 10
417.3878697053427
 20
400.7675264436974
 30
0.0
 10
417.3879243787272
 20
401.2280044751414
 30
0.0
 10
417.3880310003535
 20
402.1260084483533
 30
0.0
 10
417.5199101557035
 20
403.4424332490541
 30
0.0
 10
417.9225409827536
 20
404.6620433757559
 30
0.0
 10
418.6123279814594
 20
405.7214750963245
 30
0.0
 10
419.5403766477987
 20
406.5936725363667
 30
0.0
 10
420.6745291210625
 20
407.2436255417635
 30
0.0
 10
421.9791675111894
 20
407.67033436765
 30
0.0
 10
422.9089623715474
 20
407.7424445953588
 30
0.0
 10
423.3883754656547
 20
407.7796254713311
 30
0.0
  0
LINE
  5
A2
330
1F
100
AcDbEntity
  8
0
  6
Continuous
 62
     7
370
    25
100
AcDbLine
 10
513.9453956232
 20
360.7720125873
 30
0.0
 11
512.3860412584
 21
364.8342702944
 31
0.0
  0
LINE
  5
A3
330
1F
100
AcDbEntity
  8
0
  6
Continuous
 62
     7
370
    25
100
AcDbLine
 10
490.2486005173
 20
355.533989932
 30
0.0
 11
491.5394657598
 21
352.1711852808
 31
0.0
  0
LINE
  5
A4
330
1F
100
AcDbEntity
  8
0
  6
Continuous
 62
     7
370
    25
100
AcDbLine
 10
513.2187181459
 20
359.8746423085
 30
0.0
 11
513.9453956232
 21
360.7720125873
 31
0.0
  0
LINE
  5
A5
330
1F
100
AcDbEntity
  8
0
  6
Continuous
 62
     7
370
    25
100
AcDbLine
 10
491.5394657598
 20
352.1711852808
 30
0.0
 11
492.6799484835
 21
351.9905496795
 31
0.0
  0
SPLINE
  5
A6
330
1F
100
AcDbEntity
  8
0
  6
Continuous
 62
     7
370
    25
100
AcDbSpline
210
0.0
220
0.0
230
1.0
 70
     8
 71
     3
 72
    12
 73
     8
 74
     0
 42
0.000000001
 43
0.00000001
 40
0.0
 40
0.0
 40
0.0
 40
0.0
 40
0.2237608341668922
 40
0.4597453883032433
 40
0.6853537391483281
 40
0.9132775568789054
 40
1.0
 40
1.0
 40
1.0
 40
1.0
 10
482.0624986038441
 20
412.979370768763
 30
0.0
 10
482.0410404346635
 20
412.7241480899485
 30
0.0
 10
481.9969518685884
 20
412.1997602987954
 30
0.0
 10
481.7110082464698
 20
411.4558910137119
 30
0.0
 10
481.246837269466
 20
410.8213919866106
 30
0.0
 10
480.7979287858074
 20
410.3710159001371
 30
0.0
 10
480.4625214550206
 20
410.2381004901955
 30
0.0
 10
480.370076869511
 20
410.2014664966836
 30
0.0
  0
SPLINE
  5
A7
330
1F
100
AcDbEntity
  8
0
  6
Continuous
 62
     7
370
    25
100
AcDbSpline
210
0.0
220
0.0
230
1.0
 70
     8
 71
     3
 72
    10
 73
     6
 74
     0
 42
0.000000001
 43
0.00000001
 40
0.0
 40
0.0
 40
0.0
 40
0.0
 40
0.3753225981331588
 40
0.7076954556602301
 40
1.0
 40
1.0
 40
1.0
 40
1.0
 10
480.9509390340084
 20
414.3975291807427
 30
0.0
 10
479.5729869645696
 20
414.4850628005486
 30
0.0
 10
476.9747676659983
 20
414.650113200557
 30
0.0
 10
473.3000104764261
 20
414.6728747182802
 30
0.0
 10
471.0544409480782
 20
414.6536522397777
 30
0.0
 10
470.0036743030781
 20
414.6446574885621
 30
0.0
  0
SPLINE
  5
A8
330
1F
100
AcDbEntity
  8
0
  6
Continuous
 62
     7
370
    25
100
AcDbSpline
210
0.0
220
0.0
230
1.0
 70
     8
 71
     3
 72
     9
 73
     5
 74
     0
 42
0.000000001
 43
0.00000001
 40
0.0
 40
0.0
 40
0.0
 40
0.0
 40
0.808802391617852
 40
1.0
 40
1.0
 40
1.0
 40
1.0
 10
482.0648902402157
 20
413.28550767491
 30
0.0
 10
482.0738797936596
 20
413.2859240305373
 30
0.0
 10
482.084994441115
 20
413.286438810948
 30
0.0
 10
482.0253725377473
 20
413.4478914718094
 30
0.0
 10
482.0139729724163
 20
413.478760834433
 30
0.0
  0
LINE
  5
A9
330
1F
100
AcDbEntity
  8
0
  6
Continuous
 62
     7
370
    25
100
AcDbLine
 10
480.9580394373
 20
414.3735308606
 30
0.0
 11
480.8812537537
 21
414.4032512266
 31
0.0
  0
SPLINE
  5
AA
330
1F
100
AcDbEntity
  8
0
  6
Continuous
 62
     7
370
    25
100
AcDbSpline
210
0.0
220
0.0
230
1.0
 70
     8
 71
     3
 72
    10
 73
     6
 74
     0
 42
0.000000001
 43
0.00000001
 40
0.0
 40
0.0
 40
0.0
 40
0.0
 40
0.1913988243360725
 40
0.992603905156751
 40
1.0
 40
1.0
 40
1.0
 40
1.0
 10
517.4282738313907
 20
378.4339119155183
 30
0.0
 10
517.4363283937389
 20
378.4336848171341
 30
0.0
 10
517.4780997581602
 20
378.4325070735205
 30
0.0
 10
517.5938281957295
 20
378.4336304120599
 30
0.0
 10
517.6828727144551
 20
378.3990392212761
 30
0.0
 10
517.6836871848338
 20
378.398722823359
 30
0.0
  0
SPLINE
  5
AB
330
1F
100
AcDbEntity
  8
0
  6
Continuous
 62
     7
370
    25
100
AcDbSpline
210
0.0
220
0.0
230
1.0
 70
     8
 71
     3
 72
    16
 73
    12
 74
     0
 42
0.000000001
 43
0.00000001
 40
0.0
 40
0.0
 40
0.0
 40
0.0
 40
0.0077230664831394
 40
0.0247759040850779
 40
0.0542763841328561
 40
0.1247400118926725
 40
0.2443075172742165
 40
0.3533431358298426
 40
0.5021505209234979
 40
0.7098147250989993
 40
1.0
 40
1.0
 40
1.0
 40
1.0
 10
518.4508660183185
 20
377.9172365028634
 30
0.0
 10
518.4512235223066
 20
377.9167970486636
 30
0.0
 10
518.4523704093023
 20
377.9153872621328
 30
0.0
 10
518.4246553234493
 20
377.9494130738626
 30
0.0
 10
518.3412925530371
 20
378.0431050764838
 30
0.0
 10
518.1307795636319
 20
378.2217475948609
 30
0.0
 10
517.9323003014513
 20
378.3204133601461
 30
0.0
 10
517.7320443824565
 20
378.3914715526595
 30
0.0
 10
517.6208313578957
 20
378.4141481141399
 30
0.0
 10
517.5127283221383
 20
378.4327331913079
 30
0.0
 10
517.4566997167532
 20
378.4367868734447
 30
0.0
 10
517.4240419016116
 20
378.4391496736779
 30
0.0
  0
SPLINE
  5
AC
330
1F
100
AcDbEntity
  8
0
  6
Continuous
 62
     7
370
    25
100
AcDbSpline
210
0.0
220
0.0
230
1.0
 70
     8
 71
     3
 72
    11
 73
     7
 74
     0
 42
0.000000001
 43
0.00000001
 40
0.0
 40
0.0
 40
0.0
 40
0.0
 40
0.1745789927965365
 40
0.4012349250636223
 40
0.6749063237755627
 40
1.0
 40
1.0
 40
1.0
 40
1.0
 10
512.9989036665195
 20
378.7350122291817
 30
0.0
 10
512.4075515373013
 20
378.7644665298
 30
0.0
 10
511.0484468509225
 20
378.8321613532839
 30
0.0
 10
508.6786469114037
 20
378.9073115698057
 30
0.0
 10
505.7772086915285
 20
378.9500494929912
 30
0.0
 10
503.6656067894172
 20
378.9509340700857
 30
0.0
 10
502.5191330657237
 20
378.9514143426194
 30
0.0
  0
LINE
  5
AD
330
1F
100
AcDbEntity
  8
0
  6
Continuous
 62
     7
370
    25
100
AcDbLine
 10
417.3885402576
 20
389.6423716504
 30
0.0
 11
417.9385458426
 21
389.8425538499
 31
0.0
  0
LINE
  5
AE
330
1F
100
AcDbEntity
  8
0
  6
Continuous
 62
     7
370
    25
100
AcDbLine
 10
417.9385458426
 20
397.4053923447
 30
0.0
 11
417.3883372293
 21
397.6056565006
 31
0.0
  0
ARC
  5
AF
330
1F
100
AcDbEntity
  8
0
  6
Continuous
 62
     7
370
    25
100
AcDbCircle
 10
417.8701411289
 20
397.2174556126
 30
0.0
 40
0.1999999999999886
100
AcDbArc
 50
0.0
 51
70.0
  0
ARC
  5
B0
330
1F
100
AcDbEntity
  8
0
  6
Continuous
 62
     7
370
    25
100
AcDbCircle
 10
417.8701411289
 20
390.0304953948
 30
0.0
 40
0.2000000000000019
100
AcDbArc
 50
290.0
 51
0.0
  0
LINE
  5
B1
330
1F
100
AcDbEntity
  8
0
  6
Continuous
 62
     7
370
    25
100
AcDbLine
 10
418.0701417223
 20
390.0304947455
 30
0.0
 11
418.0701417223
 21
397.2174588997
 31
0.0
  0
LINE
  5
B2
330
1F
100
AcDbEntity
  8
0
  6
Continuous
 62
     7
370
    25
100
AcDbLine
 10
365.4061542199
 20
332.4481126327
 30
0.0
 11
369.8668317244
 21
320.1925054599
 31
0.0
  0
LINE
  5
B3
330
1F
100
AcDbEntity
  8
0
  6
Continuous
 62
     7
370
    25
100
AcDbLine
 10
370.0677738831
 20
331.3356403668
 30
0.0
 11
369.1649255649
 21
333.8161919672
 31
0.0
  0
ARC
  5
B4
330
1F
100
AcDbEntity
  8
0
  6
Continuous
 62
     7
370
    25
100
AcDbCircle
 10
363.5267698161
 20
331.7640726526
 30
0.0
 40
2.0
100
AcDbArc
 50
20.0
 51
90.0
  0
ARC
  5
B5
330
1F
100
AcDbEntity
  8
0
  6
Continuous
 62
     7
370
    25
100
AcDbCircle
 10
363.5267698161
 20
331.7640726526
 30
0.0
 40
6.000000000000052
100
AcDbArc
 50
20.0
 51
90.0
  0
LINE
  5
B6
330
1F
100
AcDbEntity
  8
0
  6
Continuous
 62
     7
370
    25
100
AcDbLine
 10
350.5267710731
 20
333.7640714307
 30
0.0
 11
363.5267694787
 21
333.7640714307
 31
0.0
  0
LINE
  5
B7
330
1F
100
AcDbEntity
  8
0
  6
Continuous
 62
     7
370
    25
100
AcDbLine
 10
363.5267694787
 20
337.7640720863
 30
0.0
 11
350.5267710731
 21
337.7640720863
 31
0.0
  0
LINE
  5
B8
330
1F
100
AcDbEntity
  8
0
  6
Continuous
 62
     7
370
    25
100
AcDbLine
 10
373.3116523669
 20
402.4558429081
 30
0.0
 11
373.2330915824
 21
402.0665873248
 31
0.0
  0
SPLINE
  5
B9
330
1F
100
AcDbEntity
  8
0
  6
Continuous
 62
     7
370
    25
100
AcDbSpline
210
0.0
220
0.0
230
1.0
 70
     8
 71
     3
 72
    10
 73
     6
 74
     0
 42
0.000000001
 43
0.00000001
 40
0.0
 40
0.0
 40
0.0
 40
0.0
 40
0.2776062488854863
 40
0.7097034456508139
 40
1.0
 40
1.0
 40
1.0
 40
1.0
 10
517.6073485360378
 20
378.4165669638886
 30
0.0
 10
517.6164327360525
 20
378.4151078005543
 30
0.0
 10
517.6396565938632
 20
378.4113774333517
 30
0.0
 10
517.7325001593729
 20
378.3935331742708
 30
0.0
 10
517.8386869791847
 20
378.3525535879711
 30
0.0
 10
517.8813585386508
 20
378.3360857922806
 30
0.0
  0
SPLINE
  5
BA
330
1F
100
AcDbEntity
  8
0
  6
Continuous
 62
     7
370
    25
100
AcDbSpline
210
0.0
220
0.0
230
1.0
 70
     8
 71
     3
 72
     9
 73
     5
 74
     0
 42
0.000000001
 43
0.00000001
 40
0.0
 40
0.0
 40
0.0
 40
0.0
 40
0.4984632442689446
 40
1.0
 40
1.0
 40
1.0
 40
1.0
 10
482.0771464452976
 20
413.0534965951218
 30
0.0
 10
482.0776072514909
 20
413.0705671490282
 30
0.0
 10
482.0785317051965
 20
413.1048135134346
 30
0.0
 10
482.0774007410177
 20
413.1395242801976
 30
0.0
 10
482.0768335209125
 20
413.1569330055489
 30
0.0
  0
ARC
  5
BB
330
1F
100
AcDbEntity
  8
0
  6
Continuous
 62
     7
370
    25
100
AcDbCircle
 10
372.2916536605
 20
377.0109327314
 30
0.0
 40
1.399999999999941
100
AcDbArc
 50
95.9354190641
 51
178.9669093514
  0
LINE
  5
BC
330
1F
100
AcDbEntity
  8
0
  6
Continuous
 62
     7
370
    25
100
AcDbLine
 10
370.0677738831
 20
331.3356403668
 30
0.0
 11
370.092891653
 21
332.7285301347
 31
0.0
  0
LINE
  5
BD
330
1F
100
AcDbEntity
  8
0
  6
Continuous
 62
     7
370
    25
100
AcDbLine
 10
370.8918807403
 20
377.036175545
 30
0.0
 11
370.092891653
 21
332.7285301347
 31
0.0
  0
LINE
  5
BE
330
1F
100
AcDbEntity
  8
0
  6
Continuous
 62
     7
370
    25
100
AcDbLine
 10
417.3144833491
 20
295.7640726526
 30
0.0
 11
417.3145019756
 21
313.604072522
 31
0.0
  0
SPLINE
  5
BF
330
1F
100
AcDbEntity
  8
0
  6
Continuous
 62
     7
370
    25
100
AcDbSpline
210
0.0
220
0.0
230
1.0
 70
    24
 71
     3
 72
    23
 73
    19
 74
     0
 42
0.000000001
 43
0.00000001
 40
0.7822437780977693
 40
0.7822437780977693
 40
0.7822437780977693
 40
0.7822437780977693
 40
0.817524248647584
 40
0.8528047191973984
 40
0.8704449544723056
 40
0.8880851897472128
 40
0.9057254250221201
 40
0.9233656602970273
 40
0.9586461308468417
 40
0.9939266013966563
 40
1.029207071946471
 40
1.064487542496285
 40
1.064487542496285
 40
1.064487542496285
 40
1.118926597983685
 40
1.173365653471084
 40
1.227804708958484
 40
1.282243764398516
 40
1.282243764398516
 40
1.282243764398516
 40
1.282243764398516
 10
369.4263186850344
 20
295.7640726525559
 30
0.0
 10
369.4263186850344
 20
295.7640726525559
 30
0.0
 10
369.7725900516277
 20
295.7640726525559
 30
0.0
 10
371.1149925379602
 20
295.7640726525558
 30
0.0
 10
372.7450795997599
 20
295.7640726525559
 30
0.0
 10
374.2395166765443
 20
295.7640726525559
 30
0.0
 10
375.9943027405051
 20
295.7640726525558
 30
0.0
 10
378.6477542427627
 20
295.7640726525559
 30
0.0
 10
382.4723045051188
 20
295.7640726525558
 30
0.0
 10
387.5686172646098
 20
295.764072652556
 30
0.0
 10
392.8997935133886
 20
295.7640726525559
 30
0.0
 10
396.4558672883101
 20
295.7640726525559
 30
0.0
 10
398.1932246455768
 20
295.7640726525559
 30
0.0
 10
400.8740305446971
 20
295.7640726525559
 30
0.0
 10
406.0382485319678
 20
295.7640726525559
 30
0.0
 10
412.3043987651951
 20
295.764072652556
 30
0.0
 10
416.3743643549379
 20
295.7640726525559
 30
0.0
 10
417.3144836867323
 20
295.764072652556
 30
0.0
 10
417.314483675104
 20
295.764072652556
 30
0.0
  0
LINE
  5
C0
330
1F
100
AcDbEntity
  8
0
  6
Continuous
 62
     7
370
    25
100
AcDbLine
 10
369.8417139546
 20
318.7996138294
 30
0.0
 11
369.4263180093
 21
295.7640726526
 31
0.0
  0
LINE
  5
C1
330
1F
100
AcDbEntity
  8
0
  6
Continuous
 62
     7
370
    25
100
AcDbLine
 10
369.8417139546
 20
318.7996138294
 30
0.0
 11
369.8668317244
 21
320.1925073225
 31
0.0
  0
SPLINE
  5
C2
330
1F
100
AcDbEntity
  8
0
  6
Continuous
 62
     7
370
    25
100
AcDbSpline
210
0.0
220
0.0
230
1.0
 70
     8
 71
     3
 72
    36
 73
    32
 74
     0
 42
0.000000001
 43
0.00000001
 40
0.0
 40
0.0
 40
0.0
 40
0.0
 40
0.0312499999999999
 40
0.0312499999999999
 40
0.0624999999999998
 40
0.0624999999999998
 40
0.1249999999999997
 40
0.1249999999999997
 40
0.1874999999999996
 40
0.1874999999999996
 40
0.2499999999999994
 40
0.2499999999999994
 40
0.3749999999999999
 40
0.3749999999999999
 40
0.5000000000000006
 40
0.5000000000000006
 40
0.6250000000000011
 40
0.6250000000000011
 40
0.7500000000000007
 40
0.7500000000000007
 40
0.8125000000000006
 40
0.8125000000000006
 40
0.8750000000000003
 40
0.8750000000000003
 40
0.9062500000000002
 40
0.9062500000000002
 40
0.9375000000000002
 40
0.9375000000000002
 40
0.9687500000000001
 40
0.9687500000000001
 40
1.0
 40
1.0
 40
1.0
 40
1.0
 10
369.8668314221193
 20
320.1925053523146
 30
0.0
 10
369.8668314308591
 20
320.1925055634708
 30
0.0
 10
369.8684205101885
 20
320.2290079993243
 30
0.0
 10
369.8735741964193
 20
320.349030581515
 30
0.0
 10
369.8771062133724
 20
320.4319560332412
 30
0.0
 10
369.8886774751447
 20
320.7089968949514
 30
0.0
 10
369.8977670621074
 20
320.9335338819327
 30
0.0
 10
369.9156114133106
 20
321.3968297061186
 30
0.0
 10
369.9245355614903
 20
321.6392375235022
 30
0.0
 10
369.9419002437467
 20
322.1368970239703
 30
0.0
 10
369.9502731179167
 20
322.3902047241473
 30
0.0
 10
369.9740192658561
 20
323.151472229777
 30
0.0
 10
369.988159187032
 20
323.6647737595637
 30
0.0
 10
370.0129700558701
 20
324.6991200227858
 30
0.0
 10
370.023662237909
 20
325.2211386711744
 30
0.0
 10
370.0415998052898
 20
326.2686131821761
 30
0.0
 10
370.048762997558
 20
326.7887877415172
 30
0.0
 10
370.0598552359306
 20
327.821614285776
 30
0.0
 10
370.0637823002996
 20
328.3343542009681
 30
0.0
 10
370.0675199117469
 20
329.0955161136126
 30
0.0
 10
370.0684084907362
 20
329.3487329205718
 30
0.0
 10
370.069512573607
 20
329.8471882551159
 30
0.0
 10
370.0697260107556
 20
330.0927095846972
 30
0.0
 10
370.0696328027809
 20
330.4444246389468
 30
0.0
 10
370.0695338490033
 20
330.5585733733071
 30
0.0
 10
370.0692317553008
 20
330.7778759275133
 30
0.0
 10
370.069026084868
 20
330.88391163015
 30
0.0
 10
370.068570023967
 20
331.077127690122
 30
0.0
 10
370.0683171468872
 20
331.1649408746973
 30
0.0
 10
370.0679164123841
 20
331.2942172219064
 30
0.0
 10
370.0677732003331
 20
331.3356400370155
 30
0.0
 10
370.0677732010249
 20
331.3356399527979
 30
0.0
  0
SPLINE
  5
C3
330
1F
100
AcDbEntity
  8
0
  6
Continuous
 62
     7
370
    25
100
AcDbSpline
210
0.0
220
0.0
230
1.0
 70
     8
 71
     3
 72
    22
 73
    18
 74
     0
 42
0.000000001
 43
0.00000001
 40
0.0
 40
0.0
 40
0.0
 40
0.0
 40
0.125
 40
0.1875906404119492
 40
0.25
 40
0.3126362219817198
 40
0.375
 40
0.4389352287039424
 40
0.5
 40
0.5626105899993806
 40
0.625
 40
0.6875142232234988
 40
0.75
 40
0.8122341968257443
 40
0.875
 40
0.9373977961900054
 40
1.0
 40
1.0
 40
1.0
 40
1.0
 10
417.3145025834775
 20
313.6040726525559
 30
0.0
 10
417.3145165395363
 20
316.5691306944465
 30
0.0
 10
417.3239931259824
 20
321.0175055504731
 30
0.0
 10
417.807024226634
 20
326.6593551581257
 30
0.0
 10
418.4678899733997
 20
330.6910686558157
 30
0.0
 10
419.4887255771217
 20
334.4559948700569
 30
0.0
 10
420.9036445383558
 20
337.9437901643769
 30
0.0
 10
422.7152079814765
 20
341.0503137121704
 30
0.0
 10
424.9232546818602
 20
343.7880575060859
 30
0.0
 10
427.4895590912218
 20
346.1149452468397
 30
0.0
 10
430.425112202782
 20
348.0656804307488
 30
0.0
 10
433.6731780957086
 20
349.6225008977551
 30
0.0
 10
437.1838767285686
 20
350.8153753544191
 30
0.0
 10
440.9150621803105
 20
351.6772927423891
 30
0.0
 10
444.8053530947596
 20
352.2683523936259
 30
0.0
 10
448.8084631904957
 20
352.6525485614853
 30
0.0
 10
451.507815893945
 20
352.8367327401525
 30
0.0
 10
452.8594902934178
 20
352.9278639982642
 30
0.0
  0
SPLINE
  5
C4
330
1F
100
AcDbEntity
  8
0
  6
Continuous
 62
     7
370
    25
100
AcDbSpline
210
0.0
220
0.0
230
1.0
 70
    24
 71
     3
 72
     8
 73
     4
 74
     0
 42
0.000000001
 43
0.00000001
 40
0.0
 40
0.0
 40
0.0
 40
0.0
 40
1.0
 40
1.0
 40
1.0
 40
1.0
 10
409.3621474942788
 20
381.5239755036938
 30
0.0
 10
408.2842139953012
 20
381.5239755036938
 30
0.0
 10
407.1285813482078
 20
381.5239755036937
 30
0.0
 10
405.8966514258394
 20
381.5239755036937
 30
0.0
  0
SPLINE
  5
C5
330
1F
100
AcDbEntity
  8
0
  6
Continuous
 62
     7
370
    25
100
AcDbSpline
210
0.0
220
0.0
230
1.0
 70
     8
 71
     3
 72
    14
 73
    10
 74
     0
 42
0.000000001
 43
0.00000001
 40
0.0
 40
0.0
 40
0.0
 40
0.0
 40
0.2500000000000001
 40
0.2500000000000001
 40
0.3749999999999998
 40
0.3749999999999998
 40
0.4999999999999997
 40
0.4999999999999997
 40
1.0
 40
1.0
 40
1.0
 40
1.0
 10
405.8966514258394
 20
381.5239755036938
 30
0.0
 10
405.0945933994445
 20
381.5239755036939
 30
0.0
 10
404.2711757544712
 20
381.5561112080263
 30
0.0
 10
403.0070562974075
 20
381.6604692561987
 30
0.0
 10
402.5808278944034
 20
381.704619378602
 30
0.0
 10
401.7188714595208
 20
381.8131215954048
 30
0.0
 10
401.28367724871
 20
381.8774853323702
 30
0.0
 10
399.1132971413259
 20
382.2478987780331
 30
0.0
 10
397.3728107260914
 20
382.7010666257515
 30
0.0
 10
395.6360471260692
 20
383.3331968801166
 30
0.0
  0
SPLINE
  5
C6
330
1F
100
AcDbEntity
  8
0
  6
Continuous
 62
     7
370
    25
100
AcDbSpline
210
0.0
220
0.0
230
1.0
 70
    24
 71
     3
 72
     8
 73
     4
 74
     0
 42
0.000000001
 43
0.00000001
 40
0.0
 40
0.0
 40
0.0
 40
0.0
 40
1.0
 40
1.0
 40
1.0
 40
1.0
 10
395.6360471260692
 20
383.3331968801166
 30
0.0
 10
395.1259682267677
 20
383.5188504165896
 30
0.0
 10
394.6152717778487
 20
383.7047287227567
 30
0.0
 10
394.1039643092819
 20
383.8908294218731
 30
0.0
  0
SPLINE
  5
C7
330
1F
100
AcDbEntity
  8
0
  6
Continuous
 62
     7
370
    25
100
AcDbSpline
210
0.0
220
0.0
230
1.0
 70
     8
 71
     3
 72
     8
 73
     4
 74
     0
 42
0.000000001
 43
0.00000001
 40
0.0013999840203585
 40
0.0013999840203585
 40
0.0013999840203585
 40
0.0013999840203585
 40
0.6262686277567391
 40
0.6262686277567391
 40
0.6262686277567391
 40
0.6262686277567391
 10
375.1791778941287
 20
411.9448167632675
 30
0.0
 10
373.8669563141829
 20
405.5905304670928
 30
0.0
 10
372.5558826759507
 20
399.2343347422529
 30
0.0
 10
371.758329100312
 20
392.0239755036937
 30
0.0
  0
SPLINE
  5
C8
330
1F
100
AcDbEntity
  8
0
  6
Continuous
 62
     7
370
    25
100
AcDbSpline
210
0.0
220
0.0
230
1.0
 70
     8
 71
     3
 72
    38
 73
    34
 74
     0
 42
0.000000001
 43
0.00000001
 40
0.0
 40
0.0
 40
0.0
 40
0.0
 40
0.1250000000000003
 40
0.1250000000000003
 40
0.1875000000000004
 40
0.1875000000000004
 40
0.2500000000000006
 40
0.2500000000000006
 40
0.2812500000000007
 40
0.2812500000000007
 40
0.3125000000000009
 40
0.3125000000000009
 40
0.3750000000000011
 40
0.3750000000000011
 40
0.4375000000000014
 40
0.4375000000000014
 40
0.4687500000000016
 40
0.4687500000000016
 40
0.5000000000000019
 40
0.5000000000000019
 40
0.5625000000000021
 40
0.5625000000000021
 40
0.593750000000002
 40
0.593750000000002
 40
0.6250000000000019
 40
0.6250000000000019
 40
0.7500000000000012
 40
0.7500000000000012
 40
0.8125000000000009
 40
0.8125000000000009
 40
0.8750000000000006
 40
0.8750000000000006
 40
1.0
 40
1.0
 40
1.0
 40
1.0
 10
371.7583291000985
 20
392.0239755057352
 30
0.0
 10
371.7582994840029
 20
392.0239862851124
 30
0.0
 10
371.8450126362344
 20
391.992425276817
 30
0.0
 10
372.1336146095163
 20
391.8873827489919
 30
0.0
 10
372.2562900973026
 20
391.8427325229637
 30
0.0
 10
372.5592217735493
 20
391.7324744097934
 30
0.0
 10
372.738175532423
 20
391.6673405682533
 30
0.0
 10
373.0559869471863
 20
391.5516666731695
 30
0.0
 10
373.1707306324921
 20
391.5099033871483
 30
0.0
 10
373.4206748596316
 20
391.4189311282428
 30
0.0
 10
373.55630145665
 20
391.3695670839532
 30
0.0
 10
373.9957130063283
 20
391.2096343592775
 30
0.0
 10
374.3289177835233
 20
391.0883577384632
 30
0.0
 10
375.0819085959023
 20
390.8142914960814
 30
0.0
 10
375.5021243548499
 20
390.6613454678549
 30
0.0
 10
376.2016595083703
 20
390.4067354941506
 30
0.0
 10
376.4472738216535
 20
390.3173391950058
 30
0.0
 10
376.957188975108
 20
390.131745257147
 30
0.0
 10
377.2206839565002
 20
390.0358409270417
 30
0.0
 10
378.0357726667126
 20
389.7391728982379
 30
0.0
 10
378.611672193659
 20
389.5295626125015
 30
0.0
 10
379.5205797976693
 20
389.1987472989436
 30
0.0
 10
379.831112291992
 20
389.0857227142377
 30
0.0
 10
380.4668170201768
 20
388.8543451153961
 30
0.0
 10
380.7930889379586
 20
388.7355918490467
 30
0.0
 10
382.4443664781389
 20
388.1345759759087
 30
0.0
 10
383.824784540504
 20
387.6321448903644
 30
0.0
 10
385.962333805255
 20
386.8541405837175
 30
0.0
 10
386.6861480687062
 20
386.5906937366838
 30
0.0
 10
388.1536336370938
 20
386.0565726705755
 30
0.0
 10
388.8931992185582
 20
385.7873928126347
 30
0.0
 10
391.1146060342197
 20
384.9788668535379
 30
0.0
 10
392.6044282354413
 20
384.4366159179787
 30
0.0
 10
394.1039643092819
 20
383.8908294218923
 30
0.0
  0
LINE
  5
C9
330
1F
100
AcDbEntity
  8
0
  6
Continuous
 62
     7
370
    25
100
AcDbLine
 10
490.0194951639
 20
355.43322828
 30
0.0
 11
452.8594897435
 21
352.9278625209
 31
0.0
  0
SPLINE
  5
CA
330
1F
100
AcDbEntity
  8
0
  6
Continuous
 62
     7
370
    25
100
AcDbSpline
210
0.0
220
0.0
230
1.0
 70
     8
 71
     3
 72
    12
 73
     8
 74
     0
 42
0.000000001
 43
0.00000001
 40
0.0
 40
0.0
 40
0.0
 40
0.0
 40
0.4999999999999996
 40
0.4999999999999996
 40
0.7499999999999998
 40
0.7499999999999998
 40
1.0
 40
1.0
 40
1.0
 40
1.0
 10
490.8594902934288
 20
355.8002747256638
 30
0.0
 10
490.5801009408548
 20
355.6801376188412
 30
0.0
 10
490.3722768838362
 20
355.5884678543097
 30
0.0
 10
490.1619839149515
 20
355.4958578887737
 30
0.0
 10
490.1089366562815
 20
355.4724745664874
 30
0.0
 10
490.037644326311
 20
355.4411385591599
 30
0.0
 10
490.0194962583995
 20
355.4332292951494
 30
0.0
 10
490.0194962810784
 20
355.4332292684895
 30
0.0
  0
LINE
  5
CB
330
1F
100
AcDbEntity
  8
0
  6
Continuous
 62
     7
370
    25
100
AcDbLine
 10
417.6506945238
 20
407.6093350012
 30
0.0
 11
469.3181538329
 21
409.1427911479
 31
0.0
  0
SPLINE
  5
CC
330
1F
100
AcDbEntity
  8
0
  6
Continuous
 62
     7
370
    25
100
AcDbSpline
210
0.0
220
0.0
230
1.0
 70
     8
 71
     3
 72
     8
 73
     4
 74
     0
 42
0.000000001
 43
0.00000001
 40
0.0668195429079495
 40
0.0668195429079495
 40
0.0668195429079495
 40
0.0668195429079495
 40
0.0908119752786345
 40
0.0908119752786345
 40
0.0908119752786345
 40
0.0908119752786345
 10
372.1468832700406
 20
378.4034274473361
 30
0.0
 10
372.2963040513453
 20
378.4189619442428
 30
0.0
 10
372.4464144380687
 20
378.4340950368111
 30
0.0
 10
372.5972368361704
 20
378.4488370275309
 30
0.0
  0
SPLINE
  5
CD
330
1F
100
AcDbEntity
  8
0
  6
Continuous
 62
     7
370
    25
100
AcDbSpline
210
0.0
220
0.0
230
1.0
 70
     8
 71
     3
 72
    30
 73
    26
 74
     0
 42
0.000000001
 43
0.00000001
 40
0.0
 40
0.0
 40
0.0
 40
0.0
 40
0.1250000000000001
 40
0.1250000000000001
 40
0.1875000000000002
 40
0.1875000000000002
 40
0.2500000000000002
 40
0.2500000000000002
 40
0.3750000000000003
 40
0.3750000000000003
 40
0.4375000000000003
 40
0.4375000000000003
 40
0.5000000000000002
 40
0.5000000000000002
 40
0.6250000000000002
 40
0.6250000000000002
 40
0.6875000000000001
 40
0.6875000000000001
 40
0.7500000000000001
 40
0.7500000000000001
 40
0.8125
 40
0.8125
 40
0.875
 40
0.875
 40
1.0
 40
1.0
 40
1.0
 40
1.0
 10
394.0300347519941
 20
378.4188830167482
 30
0.0
 10
392.6132625875796
 20
378.4207051610949
 30
0.0
 10
391.2205590679633
 20
378.4264663423777
 30
0.0
 10
389.1661187165604
 20
378.4393230360083
 30
0.0
 10
388.4871171202371
 20
378.4443135156211
 30
0.0
 10
387.1409979025411
 20
378.4554010378126
 30
0.0
 10
386.4719299233789
 20
378.4615413620654
 30
0.0
 10
384.5256974684572
 20
378.4804971901055
 30
0.0
 10
383.2952105900825
 20
378.4938542163685
 30
0.0
 10
381.5489817539285
 20
378.5101845955006
 30
0.0
 10
380.9819347361828
 20
378.5150199905326
 30
0.0
 10
379.8898872067511
 20
378.5226241884097
 30
0.0
 10
379.3702527246365
 20
378.5253403261431
 30
0.0
 10
377.8880090923739
 20
378.53006946674
 30
0.0
 10
377.0013393724412
 20
378.5285947937767
 30
0.0
 10
375.826996275942
 20
378.5199305448207
 30
0.0
 10
375.4620592672034
 20
378.5159720955365
 30
0.0
 10
374.8007011773524
 20
378.5065619335446
 30
0.0
 10
374.5019638146028
 20
378.501099590412
 30
0.0
 10
373.9673522411373
 20
378.4898026254285
 30
0.0
 10
373.7314785664208
 20
378.4839663774712
 30
0.0
 10
373.323390973557
 20
378.4729143037438
 30
0.0
 10
373.1506489123072
 20
378.4676800793152
 30
0.0
 10
372.7359249817398
 20
378.4543776583296
 30
0.0
 10
372.5972368361703
 20
378.4488370216756
 30
0.0
 10
372.5972368361703
 20
378.4488370275309
 30
0.0
  0
SPLINE
  5
CE
330
1F
100
AcDbEntity
  8
0
  6
Continuous
 62
     7
370
    25
100
AcDbSpline
210
0.0
220
0.0
230
1.0
 70
     8
 71
     3
 72
    20
 73
    16
 74
     0
 42
0.000000001
 43
0.00000001
 40
0.0
 40
0.0
 40
0.0
 40
0.0
 40
0.0426959575028843
 40
0.0862068117060062
 40
0.1305460699943477
 40
0.1757263099233324
 40
0.2217594750163609
 40
0.2686564846799924
 40
0.3164265301207906
 40
0.4146643118639803
 40
0.5186030186705861
 40
0.6186198085982426
 40
0.7259228227487543
 40
0.9369692376480664
 40
1.0
 40
1.0
 40
1.0
 40
1.0
 10
512.5655463122854
 20
365.0642494464361
 30
0.0
 10
512.6741192526347
 20
365.2133879935171
 30
0.0
 10
512.8933373606824
 20
365.5145115517711
 30
0.0
 10
513.2147011774541
 20
365.9780866054944
 30
0.0
 10
513.5345700698539
 20
366.455637114694
 30
0.0
 10
513.8521596964229
 20
366.9477386455795
 30
0.0
 10
514.1676905320178
 20
367.454224095703
 30
0.0
 10
514.4811123578835
 20
367.9751212985425
 30
0.0
 10
514.9002041686718
 20
368.6955640477788
 30
0.0
 10
515.423255767075
 20
369.6404967728656
 30
0.0
 10
516.0266155852449
 20
370.7984819190643
 30
0.0
 10
516.6226689204693
 20
372.0040558082787
 30
0.0
 10
517.3946582398507
 20
373.6385499110273
 30
0.0
 10
518.0666183448897
 20
375.1432424005012
 30
0.0
 10
518.5388857704261
 20
376.2291370124721
 30
0.0
 10
518.6474952364315
 20
376.4788650851005
 30
0.0
  0
SPLINE
  5
CF
330
1F
100
AcDbEntity
  8
0
  6
Continuous
 62
     7
370
    25
100
AcDbSpline
210
0.0
220
0.0
230
1.0
 70
     8
 71
     3
 72
    51
 73
    47
 74
     0
 42
0.000000001
 43
0.00000001
 40
0.0
 40
0.0
 40
0.0
 40
0.0
 40
0.062499999999998
 40
0.062499999999998
 40
0.124999999999996
 40
0.124999999999996
 40
0.187499999999994
 40
0.187499999999994
 40
0.2187499999999934
 40
0.2187499999999934
 40
0.2499999999999929
 40
0.2499999999999929
 40
0.3124999999999927
 40
0.3124999999999927
 40
0.3437499999999932
 40
0.3437499999999932
 40
0.3749999999999936
 40
0.3749999999999936
 40
0.4374999999999954
 40
0.4374999999999954
 40
0.4687499999999955
 40
0.4687499999999955
 40
0.4999999999999957
 40
0.4999999999999957
 40
0.5624999999999962
 40
0.5624999999999962
 40
0.5937499999999964
 40
0.5937499999999964
 40
0.6249999999999967
 40
0.6249999999999967
 40
0.6874999999999968
 40
0.6874999999999968
 40
0.7187499999999968
 40
0.7187499999999968
 40
0.7499999999999968
 40
0.7812499999999968
 40
0.7812499999999968
 40
0.8124999999999968
 40
0.8124999999999968
 40
0.8749999999999978
 40
0.8749999999999978
 40
0.9062499999999983
 40
0.9062499999999983
 40
0.9374999999999989
 40
0.9374999999999989
 40
1.0
 40
1.0
 40
1.0
 40
1.0
 10
490.8594916000345
 20
355.8002186633822
 30
0.0
 10
491.1051300666205
 20
355.9058467801904
 30
0.0
 10
491.4006475012484
 20
356.0321217075361
 30
0.0
 10
492.092495234989
 20
356.3243603071415
 30
0.0
 10
492.4919621639987
 20
356.4915672973798
 30
0.0
 10
493.3651767140891
 20
356.8496675736378
 30
0.0
 10
493.8415794567619
 20
357.0417966228945
 30
0.0
 10
494.6181058410509
 20
357.3453694714914
 30
0.0
 10
494.8886013820476
 20
357.4495937822674
 30
0.0
 10
495.4451960449169
 20
357.6599707411231
 30
0.0
 10
495.7301665643445
 20
357.7657065652181
 30
0.0
 10
496.6050509694981
 20
358.0830620265612
 30
0.0
 10
497.2148423173848
 20
358.2946941809963
 30
0.0
 10
498.1712185464041
 20
358.6080069121512
 30
0.0
 10
498.4986724992819
 20
358.712295462916
 30
0.0
 10
499.1581813787753
 20
358.9163411109845
 30
0.0
 10
499.4901004322666
 20
359.0160917647071
 30
0.0
 10
500.4919617131053
 20
359.3094359478867
 30
0.0
 10
501.168064597378
 20
359.496805732277
 30
0.0
 10
502.1920717052465
 20
359.7744375751988
 30
0.0
 10
502.5363911705012
 20
359.8668560612697
 30
0.0
 10
503.2156596003
 20
360.0498478297619
 30
0.0
 10
503.5517169093852
 20
360.1407302018621
 30
0.0
 10
504.5481620860598
 20
360.4157006458225
 30
0.0
 10
505.1969099674056
 20
360.6021347516118
 30
0.0
 10
506.1408222590502
 20
360.9038925972391
 30
0.0
 10
506.451290203623
 20
361.0084995600916
 30
0.0
 10
507.0482292950513
 20
361.2228453759549
 30
0.0
 10
507.3363668958132
 20
361.3330848034043
 30
0.0
 10
508.1696671331954
 20
361.6747643083887
 30
0.0
 10
508.6837319854136
 20
361.9175996905187
 30
0.0
 10
509.391520778285
 20
362.304540753708
 30
0.0
 10
509.6164248232251
 20
362.4370459455905
 30
0.0
 10
510.036555282534
 20
362.7022494086296
 30
0.0
 10
510.4296224432743
 20
362.9690217194312
 30
0.0
 10
510.7722391533306
 20
363.2344386196355
 30
0.0
 10
511.0910773895263
 20
363.4963083878934
 30
0.0
 10
511.2390299979068
 20
363.625864213974
 30
0.0
 10
511.6458529623724
 20
364.0012157404979
 30
0.0
 10
511.8652666453353
 20
364.2309071759898
 30
0.0
 10
512.1281444489844
 20
364.5243187384904
 30
0.0
 10
512.2046341572408
 20
364.6135710032553
 30
0.0
 10
512.3360925706802
 20
364.771205643269
 30
0.0
 10
512.3912604855267
 20
364.8398391617596
 30
0.0
 10
512.5226224650665
 20
365.0061689542495
 30
0.0
 10
512.5654957442331
 20
365.0643607410016
 30
0.0
 10
512.5655463419807
 20
365.0642494867632
 30
0.0
  0
LWPOLYLINE
  5
D0
330
1F
100
AcDbEntity
  8
0
  6
Continuous
 62
     7
370
    25
100
AcDbPolyline
 90
        3
 70
   128
 43
0.0
 10
502.5191330657
 20
378.9524872262
 10
451.5456506357
 20
378.9750550349
 10
415.5972362802
 20
378.990969475
  0
SPLINE
  5
D1
330
1F
100
AcDbEntity
  8
0
  6
Continuous
 62
     7
370
    25
100
AcDbSpline
210
0.0
220
0.0
230
1.0
 70
     8
 71
     3
 72
    31
 73
    27
 74
     0
 42
0.000000001
 43
0.00000001
 40
0.0
 40
0.0
 40
0.0
 40
0.0
 40
0.1250000000000003
 40
0.1250000000000003
 40
0.1875000000000005
 40
0.1875000000000005
 40
0.2500000000000006
 40
0.2500000000000006
 40
0.3750000000000007
 40
0.3750000000000007
 40
0.4375000000000007
 40
0.4375000000000007
 40
0.5000000000000008
 40
0.5000000000000008
 40
0.6250000000000006
 40
0.6250000000000006
 40
0.6562500000000004
 40
0.6562500000000004
 40
0.6875000000000004
 40
0.6875000000000004
 40
0.7500000000000003
 40
0.8125000000000003
 40
0.8125000000000003
 40
0.8750000000000002
 40
0.8750000000000002
 40
1.0
 40
1.0
 40
1.0
 40
1.0
 10
394.0300347519941
 20
378.4188830167482
 30
0.0
 10
395.4528214537211
 20
378.4169834963572
 30
0.0
 10
396.8521390552809
 20
378.426230584899
 30
0.0
 10
398.9173873015351
 20
378.4537918109689
 30
0.0
 10
399.6001406308683
 20
378.4652225918322
 30
0.0
 10
400.9540724018624
 20
378.4917827271942
 30
0.0
 10
401.6269344345826
 20
378.5069677580752
 30
0.0
 10
403.5842675606425
 20
378.5556589972917
 30
0.0
 10
404.8224099980346
 20
378.5924429800197
 30
0.0
 10
406.5804561348044
 20
378.6491656951912
 30
0.0
 10
407.151928205816
 20
378.6684286973294
 30
0.0
 10
408.2506552586854
 20
378.7065907613345
 30
0.0
 10
408.7736462321278
 20
378.7253348576245
 30
0.0
 10
410.2659336088389
 20
378.779915516692
 30
0.0
 10
411.1592758398503
 20
378.8140858046938
 30
0.0
 10
412.1458387947513
 20
378.8525031063504
 30
0.0
 10
412.3370408871131
 20
378.8599912051623
 30
0.0
 10
412.7024800218272
 20
378.8743672198407
 30
0.0
 10
412.8770260075644
 20
378.8812669752115
 30
0.0
 10
413.3765859095656
 20
378.9010875350154
 30
0.0
 10
413.9785716490976
 20
378.9251725695402
 30
0.0
 10
414.4542003967457
 20
378.9444066159023
 30
0.0
 10
414.8657291728053
 20
378.9610991760511
 30
0.0
 10
415.0400247339647
 20
378.9681988177555
 30
0.0
 10
415.4576076035026
 20
378.9852373103204
 30
0.0
 10
415.5972376195787
 20
378.9909725005313
 30
0.0
 10
415.5972368361671
 20
378.9909724684256
 30
0.0
  0
LINE
  5
D2
330
1F
100
AcDbEntity
  8
0
  6
Continuous
 62
     7
370
    25
100
AcDbLine
 10
482.0747101054
 20
413.0533997376
 30
0.0
 11
482.0771389947
 21
413.0535263974
 31
0.0
  0
LINE
  5
D3
330
1F
100
AcDbEntity
  8
0
  6
Continuous
 62
     7
370
    25
100
AcDbLine
 10
482.0771389947
 20
413.0535263974
 30
0.0
 11
482.0425310478
 21
413.2864911515
 31
0.0
  0
SPLINE
  5
D4
330
1F
100
AcDbEntity
  8
0
  6
Continuous
 62
     7
370
    25
100
AcDbSpline
210
0.0
220
0.0
230
1.0
 70
    24
 71
     3
 72
    15
 73
    11
 74
     0
 42
0.000000001
 43
0.00000001
 40
0.0
 40
0.0
 40
0.0
 40
0.0
 40
0.2499999999999999
 40
0.2499999999999999
 40
0.4999999999999999
 40
0.4999999999999999
 40
0.7499999999999998
 40
0.7499999999999998
 40
0.8124999999999998
 40
1.0
 40
1.0
 40
1.0
 40
1.0
 10
469.3181567425878
 20
409.1427919588961
 30
0.0
 10
470.4003661876828
 20
409.174911185398
 30
0.0
 10
471.4295566182906
 20
409.2054568442852
 30
0.0
 10
473.2996422843822
 20
409.2609596911319
 30
0.0
 10
474.140537519866
 20
409.2859168790915
 30
0.0
 10
475.5517756295598
 20
409.3278014483852
 30
0.0
 10
476.1221185037699
 20
409.3447288297193
 30
0.0
 10
476.6145411418927
 20
409.3593435924348
 30
0.0
 10
476.9643780614631
 20
409.3697265098168
 30
0.0
 10
477.1275280715531
 20
409.3745686890748
 30
0.0
 10
477.1275280715531
 20
409.3745686890748
 30
0.0
  0
LINE
  5
D5
330
1F
100
AcDbEntity
  8
0
  6
Continuous
 62
     7
370
    25
100
AcDbLine
 10
469.273830329
 20
414.6370951493
 30
0.0
 11
394.1025283727
 21
413.849874254
 31
0.0
  0
LINE
  5
D6
330
1F
100
AcDbEntity
  8
0
  6
Continuous
 62
     7
370
    25
100
AcDbLine
 10
376.5064110354
 20
413.1607328017
 30
0.0
 11
376.9321800516
 21
413.1961752136
 31
0.0
  0
SPLINE
  5
D7
330
1F
100
AcDbEntity
  8
0
  6
Continuous
 62
     7
370
    25
100
AcDbSpline
210
0.0
220
0.0
230
1.0
 70
     8
 71
     3
 72
     9
 73
     5
 74
     0
 42
0.000000001
 43
0.00000001
 40
0.0
 40
0.0
 40
0.0
 40
0.0
 40
0.6879923155043827
 40
1.0
 40
1.0
 40
1.0
 40
1.0
 10
380.9548993901247
 20
413.5267053205743
 30
0.0
 10
382.5590702293173
 20
413.6022831675883
 30
0.0
 10
384.8907399341114
 20
413.7121359163921
 30
0.0
 10
387.2245435438358
 20
413.7504841863329
 30
0.0
 10
387.9527082041735
 20
413.7624491412415
 30
0.0
  0
SPLINE
  5
D8
330
1F
100
AcDbEntity
  8
0
  6
Continuous
 62
     7
370
    25
100
AcDbSpline
210
0.0
220
0.0
230
1.0
 70
     8
 71
     3
 72
     9
 73
     5
 74
     0
 42
0.000000001
 43
0.00000001
 40
0.0
 40
0.0
 40
0.0
 40
0.0
 40
0.9920371066193149
 40
1.0
 40
1.0
 40
1.0
 40
1.0
 10
417.337997381472
 20
397.3314751345887
 30
0.0
 10
417.3710635041423
 20
397.5129137552582
 30
0.0
 10
417.4043950422971
 20
397.695808749265
 30
0.0
 10
417.3877323053934
 20
397.6043211953675
 30
0.0
 10
417.387599621796
 20
397.6035926897301
 30
0.0
  0
SPLINE
  5
D9
330
1F
100
AcDbEntity
  8
0
  6
Continuous
 62
     7
370
    25
100
AcDbSpline
210
0.0
220
0.0
230
1.0
 70
     8
 71
     3
 72
    32
 73
    28
 74
     0
 42
0.000000001
 43
0.00000001
 40
0.0
 40
0.0
 40
0.0
 40
0.0
 40
0.1250000000000003
 40
0.1250000000000003
 40
0.1875000000000005
 40
0.1875000000000005
 40
0.2500000000000007
 40
0.2500000000000007
 40
0.3125000000000009
 40
0.3125000000000009
 40
0.3750000000000011
 40
0.3750000000000011
 40
0.4375000000000013
 40
0.4375000000000013
 40
0.5000000000000014
 40
0.5000000000000014
 40
0.6250000000000019
 40
0.6250000000000019
 40
0.687500000000002
 40
0.687500000000002
 40
0.7500000000000021
 40
0.7500000000000021
 40
0.8125000000000022
 40
0.8125000000000022
 40
0.8750000000000024
 40
0.8750000000000024
 40
1.0
 40
1.0
 40
1.0
 40
1.0
 10
417.3379977876883
 20
389.9190845367239
 30
0.0
 10
417.3135056079139
 20
390.0695344420589
 30
0.0
 10
417.282194640323
 20
390.2701143206422
 30
0.0
 10
417.230998905703
 20
390.644584351505
 30
0.0
 10
417.2132703823366
 20
390.7817705715881
 30
0.0
 10
417.1786687039001
 20
391.0723064158583
 30
0.0
 10
417.1616513322319
 20
391.2266537662597
 30
0.0
 10
417.129281811821
 20
391.5536977562572
 30
0.0
 10
417.1138330665851
 20
391.7278638118356
 30
0.0
 10
417.0865546953399
 20
392.0848605136933
 30
0.0
 10
417.0746313858929
 20
392.2683171131592
 30
0.0
 10
417.0549675064338
 20
392.6450835328557
 30
0.0
 10
417.0471956027728
 20
392.8395876107576
 30
0.0
 10
417.0367465313706
 20
393.233578285243
 30
0.0
 10
417.034104847113
 20
393.430602208041
 30
0.0
 10
417.0339597780758
 20
394.0217572404556
 30
0.0
 10
417.0447484667203
 20
394.421779019693
 30
0.0
 10
417.0740737276834
 20
394.9867606907882
 30
0.0
 10
417.0859650198598
 20
395.1702605511219
 30
0.0
 10
417.1132489921284
 20
395.5275029069135
 30
0.0
 10
417.1286816816616
 20
395.7012320897734
 30
0.0
 10
417.1610611838655
 20
396.0275682771673
 30
0.0
 10
417.1781183531615
 20
396.18172973495
 30
0.0
 10
417.2128656990299
 20
396.4721121939659
 30
0.0
 10
417.2306999829053
 20
396.609293303759
 30
0.0
 10
417.2819674316935
 20
396.9818624433065
 30
0.0
 10
417.3134011668202
 20
397.1816677631713
 30
0.0
 10
417.3379977876853
 20
397.3314769029431
 30
0.0
  0
LINE
  5
DA
330
1F
100
AcDbEntity
  8
0
  6
Continuous
 62
     7
370
    25
100
AcDbLine
 10
417.3873723791
 20
389.6456350047
 30
0.0
 11
417.3379973815
 21
389.9190862138
 31
0.0
  0
SPLINE
  5
DB
330
1F
100
AcDbEntity
  8
0
  6
Continuous
 62
     7
370
    25
100
AcDbSpline
210
0.0
220
0.0
230
1.0
 70
    24
 71
     3
 72
    13
 73
     9
 74
     0
 42
0.000000001
 43
0.00000001
 40
0.0
 40
0.0
 40
0.0
 40
0.0
 40
0.1550276767953039
 40
0.3485314066902186
 40
0.5476569771503907
 40
0.740882200950522
 40
0.9396957825052694
 40
1.0
 40
1.0
 40
1.0
 40
1.0
 10
417.3296657697195
 20
381.523973162867
 30
0.0
 10
417.3135022524584
 20
381.523973162867
 30
0.0
 10
417.2771636223214
 20
381.523973162867
 30
0.0
 10
416.4390886796958
 20
381.523973162867
 30
0.0
 10
414.9931815534541
 20
381.5239731628671
 30
0.0
 10
412.9200440119185
 20
381.523973162867
 30
0.0
 10
410.940918558121
 20
381.5239731628671
 30
0.0
 10
409.6604024589877
 20
381.523973162867
 30
0.0
 10
409.3623892710442
 20
381.523973162867
 30
0.0
  0
LINE
  5
DC
330
1F
100
AcDbEntity
  8
0
  6
Continuous
 62
     7
370
    25
100
AcDbLine
 10
490.0194951639
 20
355.43322828
 30
0.0
 11
490.0498562799
 21
355.4465312917
 31
0.0
  0
LINE
  5
DD
330
1F
100
AcDbEntity
  8
0
  6
Continuous
 62
     7
370
    25
100
AcDbLine
 10
498.2651346669
 20
354.7529269416
 30
0.0
 11
497.038567935
 21
357.9482462663
 31
0.0
  0
LWPOLYLINE
  5
DE
330
1F
100
AcDbEntity
  8
0
  6
Continuous
 62
     7
370
    25
100
AcDbPolyline
 90
       10
 70
   128
 43
0.0
 10
498.2651346669
 20
354.7529269416
 10
496.910023068
 20
354.2327497561
 10
495.6633099661
 20
353.7541803379
 10
494.5481517658
 20
353.326110955
 10
493.5852759824
 20
352.9564988274
 10
492.792586361
 20
352.6522133906
 10
492.1848052488
 20
352.418909635
 10
491.7732351766
 20
352.2609200735
 10
491.5655204401
 20
352.1811876852
 10
491.5394657598
 20
352.1711852808
  0
LWPOLYLINE
  5
DF
330
1F
100
AcDbEntity
  8
0
  6
Continuous
 62
     7
370
    25
100
AcDbPolyline
 90
       10
 70
   128
 43
0.0
 10
513.9453956232
 20
360.7720125873
 10
513.9193409429
 20
360.7620139081
 10
513.7116262064
 20
360.6822777946
 10
513.3000486837
 20
360.524288233
 10
512.6922750221
 20
360.2909882028
 10
511.89957795
 20
359.9866990406
 10
510.9367096172
 20
359.6170906384
 10
509.8215514169
 20
359.1890175302
 10
508.5748308645
 20
358.7104518373
 10
507.2197267161
 20
358.1902709265
  0
LINE
  5
E0
330
1F
100
AcDbEntity
  8
0
  6
Continuous
 62
     7
370
    25
100
AcDbLine
 10
506.1727189765
 20
360.917812999
 30
0.0
 11
507.2197267161
 21
358.1902709265
 31
0.0
  0
LWPOLYLINE
  5
E1
330
1F
100
AcDbEntity
  8
0
  6
Continuous
 62
     7
370
    25
100
AcDbPolyline
 90
        5
 70
   128
 43
0.0
 10
497.038567935
 20
357.9482462663
 10
498.1158697353
 20
358.3617870171
 10
499.2290684328
 20
358.7891001661
 10
500.366399561
 20
359.2256818373
 10
500.7787817464
 20
359.3839768727
  0
LWPOLYLINE
  5
E2
330
1F
100
AcDbEntity
  8
0
  6
Continuous
 62
     7
370
    25
100
AcDbPolyline
 90
       12
 70
   128
 43
0.0
 10
513.2187181459
 20
359.8746423085
 10
513.1141939507
 20
359.8345209319
 10
512.80273733
 20
359.7149614651
 10
512.2906961785
 20
359.5184076984
 10
511.5884864078
 20
359.2488605935
 10
510.7104131327
 20
358.9117963273
 10
509.674350296
 20
358.5140917856
 10
508.5013830409
 20
358.0638271231
 10
507.2153904782
 20
357.5701814551
 10
505.8425539479
 20
357.0431981642
 10
504.4108205781
 20
356.4936098118
 10
502.9493295894
 20
355.932595994
  0
SPLINE
  5
E3
330
1F
100
AcDbEntity
  8
0
  6
Continuous
 62
     7
370
    25
100
AcDbSpline
210
0.0
220
0.0
230
1.0
 70
     8
 71
     3
 72
     8
 73
     4
 74
     0
 42
0.000000001
 43
0.00000001
 40
0.0
 40
0.0
 40
0.0
 40
0.0
 40
1.0
 40
1.0
 40
1.0
 40
1.0
 10
507.219723897244
 20
358.1902718299618
 30
0.0
 10
505.874647316455
 20
357.2832452198362
 30
0.0
 10
504.4603510247265
 20
356.5126219745325
 30
0.0
 10
502.9493332904399
 20
355.9325966100392
 30
0.0
  0
SPLINE
  5
E4
330
1F
100
AcDbEntity
  8
0
  6
Continuous
 62
     7
370
    25
100
AcDbSpline
210
0.0
220
0.0
230
1.0
 70
     8
 71
     3
 72
    10
 73
     6
 74
     0
 42
0.000000001
 43
0.00000001
 40
0.0
 40
0.0
 40
0.0
 40
0.0
 40
0.5
 40
0.5
 40
1.0
 40
1.0
 40
1.0
 40
1.0
 10
502.9493332904399
 20
355.9325966100392
 30
0.0
 10
502.1955839324427
 20
355.643259340073
 30
0.0
 10
501.4140212350248
 20
355.3999772592816
 30
0.0
 10
499.84758731265
 20
355.011891375785
 30
0.0
 10
499.0585783110355
 20
354.8645372153048
 30
0.0
 10
498.265135019358
 20
354.7529272112131
 30
0.0
  0
LWPOLYLINE
  5
E5
330
1F
100
AcDbEntity
  8
0
  6
Continuous
 62
     7
370
    25
100
AcDbPolyline
 90
       12
 70
   128
 43
0.0
 10
502.9493295894
 20
355.932595994
 10
501.4878460512
 20
355.3715859015
 10
500.0561126814
 20
354.8219938237
 10
498.6832761512
 20
354.2950105328
 10
497.3972835884
 20
353.8013648648
 10
496.2243163333
 20
353.3511039276
 10
495.1882534967
 20
352.9533956606
 10
494.3101802216
 20
352.6163351197
 10
493.6079704509
 20
352.3467842896
 10
493.0959292994
 20
352.1502305228
 10
492.7844726787
 20
352.0306747813
 10
492.6799484835
 20
351.9905496795
  0
LINE
  5
E6
330
1F
100
AcDbEntity
  8
0
  6
Continuous
 62
     7
370
    25
100
AcDbLine
 10
480.8813208089
 20
414.4033778865
 30
0.0
 11
480.7272949562
 21
414.4094650109
 31
0.0
  0
LINE
  5
E7
330
1F
100
AcDbEntity
  8
0
  6
Continuous
 62
     7
370
    25
100
AcDbLine
 10
473.7155982599
 20
414.6573905308
 30
0.0
 11
470.5373742924
 21
414.6428693492
 31
0.0
  0
SPLINE
  5
E8
330
1F
100
AcDbEntity
  8
0
  6
Continuous
 62
     7
370
    25
100
AcDbSpline
210
0.0
220
0.0
230
1.0
 70
    24
 71
     3
 72
     9
 73
     5
 74
     0
 42
0.000000001
 43
0.00000001
 40
0.0
 40
0.0
 40
0.0
 40
0.0
 40
0.0000598149063563
 40
1.0
 40
1.0
 40
1.0
 40
1.0
 10
517.4068161592716
 20
378.4410793740525
 30
0.0
 10
517.4068161592613
 20
378.4410793740533
 30
0.0
 10
517.406815987037
 20
378.4410793888167
 30
0.0
 10
517.4154515543339
 20
378.4403380264929
 30
0.0
 10
517.4240866050952
 20
378.4395967085137
 30
0.0
  0
ARC
  5
E9
330
1F
100
AcDbEntity
  8
0
  6
Continuous
 62
     7
370
    25
100
AcDbCircle
 10
517.3631513858
 20
377.0360793033
 30
0.0
 40
1.400015709974951
100
AcDbArc
 50
336.5464177217
 51
45.0231413477
  0
SPLINE
  5
EA
330
1F
100
AcDbEntity
  8
0
  6
Continuous
 62
     7
370
    25
100
AcDbSpline
210
0.0
220
0.0
230
1.0
 70
     8
 71
     3
 72
     9
 73
     5
 74
     0
 42
0.000000001
 43
0.00000001
 40
0.0
 40
0.0
 40
0.0
 40
0.0
 40
0.5473695282431543
 40
1.0
 40
1.0
 40
1.0
 40
1.0
 10
517.476493989014
 20
378.4314904768243
 30
0.0
 10
516.2853879313363
 20
378.5228694410916
 30
0.0
 10
514.1093331891211
 20
378.6898114419748
 30
0.0
 10
511.9289924808766
 20
378.7848612685013
 30
0.0
 10
510.9421038375133
 20
378.8278837163224
 30
0.0
  0
SPLINE
  5
EB
330
1F
100
AcDbEntity
  8
0
  6
Continuous
 62
     7
370
    25
100
AcDbSpline
210
0.0
220
0.0
230
1.0
 70
     8
 71
     3
 72
     9
 73
     5
 74
     0
 42
0.000000001
 43
0.00000001
 40
0.0
 40
0.0
 40
0.0
 40
0.0
 40
0.1481203698137608
 40
1.0
 40
1.0
 40
1.0
 40
1.0
 10
505.6287893400424
 20
378.9420787651314
 30
0.0
 10
505.475263355707
 20
378.9438886018991
 30
0.0
 10
504.4387686147846
 20
378.9561072911311
 30
0.0
 10
503.4021809674181
 20
378.9541524854047
 30
0.0
 10
502.5191330657237
 20
378.9524872262253
 30
0.0
  0
LINE
  5
EC
330
1F
100
AcDbEntity
  8
0
  6
Continuous
 62
     7
370
    25
100
AcDbLine
 10
417.3379973815
 20
389.9190862138
 30
0.0
 11
417.3379973815
 21
397.3314751346
 31
0.0
  0
LINE
  5
ED
330
1F
100
AcDbEntity
  8
0
  6
Continuous
 62
     7
370
    25
100
AcDbLine
 10
350.5267710731
 20
333.7640714307
 30
0.0
 11
350.5267710731
 21
337.7640720863
 31
0.0
  0
SPLINE
  5
EE
330
1F
100
AcDbEntity
  8
0
  6
Continuous
 62
     8
370
    18
100
AcDbSpline
210
0.0
220
0.0
230
1.0
 70
     8
 71
     3
 72
    39
 73
    35
 74
     0
 42
0.000000001
 43
0.00000001
 40
0.0
 40
0.0
 40
0.0
 40
0.0
 40
0.015625
 40
0.015625
 40
0.0312499999999999
 40
0.0624999999999999
 40
0.0624999999999999
 40
0.1249999999999998
 40
0.1249999999999998
 40
0.2499999999999997
 40
0.2499999999999997
 40
0.2812499999999997
 40
0.2812499999999997
 40
0.3124999999999997
 40
0.3124999999999997
 40
0.3749999999999994
 40
0.3749999999999994
 40
0.4374999999999992
 40
0.4374999999999992
 40
0.4999999999999989
 40
0.4999999999999989
 40
0.5624999999999988
 40
0.5624999999999988
 40
0.5937499999999988
 40
0.5937499999999988
 40
0.6249999999999987
 40
0.6249999999999987
 40
0.7499999999999991
 40
0.7499999999999991
 40
0.8124999999999993
 40
0.8124999999999993
 40
0.8749999999999996
 40
0.8749999999999996
 40
1.0
 40
1.0
 40
1.0
 40
1.0
 10
372.1468832700406
 20
378.4034274473361
 30
0.0
 10
372.1468832690054
 20
378.4034274484482
 30
0.0
 10
372.1482014566429
 20
378.4034192812057
 30
0.0
 10
372.1535534635776
 20
378.4033905750078
 30
0.0
 10
372.1656554094601
 20
378.4033288447105
 30
0.0
 10
372.1903398820617
 20
378.4032281299243
 30
0.0
 10
372.2574911183564
 20
378.4030108970793
 30
0.0
 10
372.3259479899533
 20
378.4028502443167
 30
0.0
 10
372.6110863053075
 20
378.4024552270387
 30
0.0
 10
372.9052656959443
 20
378.4023162072967
 30
0.0
 10
373.4530248925302
 20
378.4023739398579
 30
0.0
 10
373.5719714156089
 20
378.4023898949421
 30
0.0
 10
373.8268360415055
 20
378.4023902952527
 30
0.0
 10
373.9629796029943
 20
378.4023719767148
 30
0.0
 10
374.3986822782646
 20
378.4021776771987
 30
0.0
 10
374.7255330910283
 20
378.4018948620561
 30
0.0
 10
375.4599720056054
 20
378.4012540127567
 30
0.0
 10
375.8688480212321
 20
378.4008986377206
 30
0.0
 10
376.7718455901253
 20
378.400286736781
 30
0.0
 10
377.2574073844522
 20
378.3999867123469
 30
0.0
 10
378.2949064752237
 20
378.3993042977789
 30
0.0
 10
378.8466481438338
 20
378.398890768083
 30
0.0
 10
379.7237287296338
 20
378.3981211498321
 30
0.0
 10
380.0242755542781
 20
378.3978355816233
 30
0.0
 10
380.6412787305858
 20
378.3971818039047
 30
0.0
 10
380.957676704992
 20
378.3968134053606
 30
0.0
 10
382.5551876677669
 20
378.3947938496269
 30
0.0
 10
383.9001529593422
 20
378.3925950562338
 30
0.0
 10
385.997574090808
 20
378.389684378205
 30
0.0
 10
386.7126080249645
 20
378.3887878294763
 30
0.0
 10
388.15511481225
 20
378.3870880723043
 30
0.0
 10
388.8798102090018
 20
378.3862312928819
 30
0.0
 10
391.063612673557
 20
378.3839102685142
 30
0.0
 10
392.5322376575025
 20
378.3826223828337
 30
0.0
 10
394.013827130455
 20
378.3827111804471
 30
0.0
  0
SPLINE
  5
EF
330
1F
100
AcDbEntity
  8
0
  6
Continuous
 62
     8
370
    18
100
AcDbSpline
210
0.0
220
0.0
230
1.0
 70
     8
 71
     3
 72
    36
 73
    32
 74
     0
 42
0.000000001
 43
0.00000001
 40
0.0
 40
0.0
 40
0.0
 40
0.0
 40
0.1249999999999996
 40
0.1249999999999996
 40
0.1874999999999994
 40
0.1874999999999994
 40
0.2499999999999992
 40
0.2499999999999992
 40
0.3749999999999987
 40
0.3749999999999987
 40
0.4062499999999986
 40
0.4062499999999986
 40
0.4374999999999984
 40
0.4374999999999984
 40
0.4999999999999983
 40
0.4999999999999983
 40
0.5624999999999982
 40
0.5624999999999982
 40
0.5937499999999983
 40
0.5937499999999983
 40
0.6249999999999984
 40
0.6249999999999984
 40
0.6874999999999988
 40
0.6874999999999988
 40
0.7187499999999989
 40
0.7187499999999989
 40
0.749999999999999
 40
0.749999999999999
 40
0.8749999999999994
 40
0.8749999999999994
 40
1.0
 40
1.0
 40
1.0
 40
1.0
 10
394.031698757899
 20
376.9995572346313
 30
0.0
 10
392.4656486178429
 20
377.0000210168407
 30
0.0
 10
390.913641353271
 20
377.0015791570529
 30
0.0
 10
388.6063098832295
 20
377.0037943157431
 30
0.0
 10
387.8406949428405
 20
377.004532699161
 30
0.0
 10
386.3169008882043
 20
377.0058474159729
 30
0.0
 10
385.5625663283999
 20
377.0064866212228
 30
0.0
 10
383.3496627247058
 20
377.0085438315164
 30
0.0
 10
381.9312742042463
 20
377.0100586249952
 30
0.0
 10
380.2465079844993
 20
377.0116059437091
 30
0.0
 10
379.912854311575
 20
377.0119001932551
 30
0.0
 10
379.2626573582406
 20
377.0124644887141
 30
0.0
 10
378.9458673057987
 20
377.0127348585039
 30
0.0
 10
378.0210529176165
 20
377.013566391704
 30
0.0
 10
377.4387898718302
 20
377.0141689840574
 30
0.0
 10
376.3427683610425
 20
377.0155392803731
 30
0.0
 10
375.8291965566825
 20
377.0163397660533
 30
0.0
 10
375.1118618143473
 20
377.0177712724682
 30
0.0
 10
374.8826772582302
 20
377.0182876332665
 30
0.0
 10
374.4483091578727
 20
377.0194021907736
 30
0.0
 10
374.2423096299964
 20
377.0199946923412
 30
0.0
 10
373.6559630957715
 20
377.0218078300894
 30
0.0
 10
373.3073198048031
 20
377.0230787906691
 30
0.0
 10
372.8419685484384
 20
377.0248378143863
 30
0.0
 10
372.6964466121673
 20
377.0253899702017
 30
0.0
 10
372.423823078815
 20
377.0264528945837
 30
0.0
 10
372.2964240433802
 20
377.0269698014732
 30
0.0
 10
371.7086041980216
 20
377.0295218915584
 30
0.0
 10
371.3919751949969
 20
377.0315822225574
 30
0.0
 10
370.9826322542843
 20
377.0348700051041
 30
0.0
 10
370.8918812247057
 20
377.0361745225966
 30
0.0
 10
370.8918812320376
 20
377.0361745301784
 30
0.0
  0
LWPOLYLINE
  5
F0
330
1F
100
AcDbEntity
  8
0
  6
Continuous
 62
     8
370
    18
100
AcDbPolyline
 90
        5
 70
   128
 43
0.0
 10
394.0505058578
 20
376.99915361
 10
394.0457789301
 20
376.99915361
 10
394.0410237134
 20
376.9991610605
 10
394.0362683804
 20
376.9991610605
 10
394.0315131637
 20
376.9991685111
  0
SPLINE
  5
F1
330
1F
100
AcDbEntity
  8
0
  6
Continuous
 62
     8
370
    18
100
AcDbSpline
210
0.0
220
0.0
230
1.0
 70
     8
 71
     3
 72
    12
 73
     8
 74
     0
 42
0.000000001
 43
0.00000001
 40
0.0
 40
0.0
 40
0.0
 40
0.0
 40
0.5000000000000001
 40
0.5000000000000001
 40
0.75
 40
0.75
 40
1.0
 40
1.0
 40
1.0
 40
1.0
 10
430.6828465303644
 20
376.9710829216962
 30
0.0
 10
424.5774224521126
 20
376.9732376480005
 30
0.0
 10
418.4720318309699
 20
376.9787965177896
 30
0.0
 10
409.3139276222415
 20
376.9851707709545
 30
0.0
 10
406.2612267561483
 20
376.9865826746473
 30
0.0
 10
400.1558263339232
 20
376.9915295284385
 30
0.0
 10
397.1031441344702
 20
376.996409566504
 30
0.0
 10
394.0505058862698
 20
376.9991513168137
 30
0.0
  0
SPLINE
  5
F2
330
1F
100
AcDbEntity
  8
0
  6
Continuous
 62
     8
370
    18
100
AcDbSpline
210
0.0
220
0.0
230
1.0
 70
     8
 71
     3
 72
    10
 73
     6
 74
     0
 42
0.000000001
 43
0.00000001
 40
0.0
 40
0.0
 40
0.0
 40
0.0
 40
0.5
 40
0.5
 40
1.0
 40
1.0
 40
1.0
 40
1.0
 10
452.8594902459839
 20
376.9805135843785
 30
0.0
 10
449.1633567134629
 20
376.9807977295002
 30
0.0
 10
445.4671936527037
 20
376.979961757661
 30
0.0
 10
438.0748256767757
 20
376.9782022640305
 30
0.0
 10
434.3786073280542
 20
376.9801280934806
 30
0.0
 10
430.6824657351722
 20
376.9712065393016
 30
0.0
  0
LINE
  5
F3
330
1F
100
AcDbEntity
  8
0
  6
Continuous
 62
     8
370
    18
100
AcDbLine
 10
394.0109440897
 20
378.3827860315
 30
0.0
 11
394.0300348055
 21
378.3827860315
 31
0.0
  0
SPLINE
  5
F4
330
1F
100
AcDbEntity
  8
0
  6
Continuous
 62
     8
370
    18
100
AcDbSpline
210
0.0
220
0.0
230
1.0
 70
     8
 71
     3
 72
    10
 73
     6
 74
     0
 42
0.000000001
 43
0.00000001
 40
0.0
 40
0.0
 40
0.0
 40
0.0
 40
0.5
 40
0.5
 40
1.0
 40
1.0
 40
1.0
 40
1.0
 10
394.0300347519941
 20
378.3827872208395
 30
0.0
 10
400.1356970865296
 20
378.3836806292712
 30
0.0
 10
406.2415317884135
 20
378.3835896494465
 30
0.0
 10
418.4531143696305
 20
378.3839017731634
 30
0.0
 10
424.5588946482493
 20
378.38412008277
 30
0.0
 10
430.6647066011951
 20
378.3841547678152
 30
0.0
  0
SPLINE
  5
F5
330
1F
100
AcDbEntity
  8
0
  6
Continuous
 62
     8
370
    18
100
AcDbSpline
210
0.0
220
0.0
230
1.0
 70
     8
 71
     3
 72
    24
 73
    20
 74
     0
 42
0.000000001
 43
0.00000001
 40
0.0
 40
0.0
 40
0.0
 40
0.0
 40
0.125
 40
0.125
 40
0.1875
 40
0.1875
 40
0.25
 40
0.25
 40
0.375
 40
0.375
 40
0.5
 40
0.5
 40
0.625
 40
0.625
 40
0.75
 40
0.75
 40
0.875
 40
0.875
 40
1.0
 40
1.0
 40
1.0
 40
1.0
 10
394.1006479309482
 20
412.0174937682544
 30
0.0
 10
392.7182436703218
 20
412.0018605002147
 30
0.0
 10
391.3837343582466
 20
411.9839443707952
 30
0.0
 10
389.2789710709094
 20
411.953428432227
 30
0.0
 10
388.5594478317933
 20
411.9427864678648
 30
0.0
 10
387.0840166825321
 20
411.9218501617214
 30
0.0
 10
386.3310805783498
 20
411.9117127730559
 30
0.0
 10
384.1297819900321
 20
411.8852229249202
 30
0.0
 10
382.7131918795523
 20
411.8717004903405
 30
0.0
 10
380.1962056546823
 20
411.8540038568934
 30
0.0
 10
379.0804827554863
 20
411.84961068261
 30
0.0
 10
377.2430006470618
 20
411.8479975390769
 30
0.0
 10
376.5276875981071
 20
411.850843271269
 30
0.0
 10
375.5901707920305
 20
411.8643395364031
 30
0.0
 10
375.3856341869267
 20
411.8754716686706
 30
0.0
 10
375.227829346795
 20
411.9017778430454
 30
0.0
 10
375.223442383374
 20
411.9164180702849
 30
0.0
 10
375.1875899679533
 20
411.9384118727998
 30
0.0
 10
375.1791785911785
 20
411.9448214824171
 30
0.0
 10
375.1791778941287
 20
411.9448167632675
 30
0.0
  0
SPLINE
  5
F6
330
1F
100
AcDbEntity
  8
0
  6
Continuous
 62
     8
370
    18
100
AcDbSpline
210
0.0
220
0.0
230
1.0
 70
     8
 71
     3
 72
    10
 73
     6
 74
     0
 42
0.000000001
 43
0.00000001
 40
0.0
 40
0.0
 40
0.0
 40
0.0
 40
0.5
 40
0.5
 40
1.0
 40
1.0
 40
1.0
 40
1.0
 10
412.9258756876434
 20
412.1940827699934
 30
0.0
 10
409.7918810892587
 20
412.1621597660148
 30
0.0
 10
406.6492006943701
 20
412.1263768734337
 30
0.0
 10
400.3766211735465
 20
412.0735609893022
 30
0.0
 10
397.2408865869726
 20
412.0538939111952
 30
0.0
 10
394.1025617241483
 20
412.0177074817448
 30
0.0
  0
SPLINE
  5
F7
330
1F
100
AcDbEntity
  8
0
  6
Continuous
 62
     8
370
    18
100
AcDbSpline
210
0.0
220
0.0
230
1.0
 70
     8
 71
     3
 72
    43
 73
    39
 74
     0
 42
0.000000001
 43
0.00000001
 40
0.0
 40
0.0
 40
0.0
 40
0.0
 40
0.0205282890803558
 40
0.0407639424507126
 40
0.0607118193738485
 40
0.0803697316221556
 40
0.0997337777086989
 40
0.1408590872330617
 40
0.1803167060628869
 40
0.2075110767361496
 40
0.234238832147652
 40
0.2864961065255622
 40
0.3119452391513167
 40
0.3497094686330837
 40
0.3746587739869418
 40
0.3870841411691804
 40
0.4375520820447005
 40
0.4627304285819374
 40
0.4753186170218059
 40
0.5004736428805827
 40
0.5382447319656208
 40
0.5888801455420468
 40
0.6296129204153811
 40
0.6706491497447833
 40
0.6982469489454123
 40
0.7250383618020497
 40
0.7452722884098401
 40
0.7520207630424407
 40
0.7655548876169883
 40
0.8065647371005205
 40
0.8194476827065027
 40
0.8453991691107853
 40
0.8650575801911087
 40
0.8716456960273044
 40
0.8845550674858099
 40
0.9109848611261365
 40
0.9550668562724812
 40
1.0
 40
1.0
 40
1.0
 40
1.0
 10
412.9258626614684
 20
412.1944064105058
 30
0.0
 10
412.9289554820152
 20
412.1315444478413
 30
0.0
 10
412.9350970342064
 20
412.0067166349452
 30
0.0
 10
412.9516870997052
 20
411.8216206855969
 30
0.0
 10
412.9734865618134
 20
411.6401841950764
 30
0.0
 10
413.0008680373979
 20
411.4627485348597
 30
0.0
 10
413.0458987881962
 20
411.2239170170169
 30
0.0
 10
413.1174710872697
 20
410.9313940264318
 30
0.0
 10
413.2162361277851
 20
410.6267970123796
 30
0.0
 10
413.3165112036398
 20
410.372588840778
 30
0.0
 10
413.4433816543347
 20
410.0934886993257
 30
0.0
 10
413.5857885649404
 20
409.8343797037348
 30
0.0
 10
413.7588275530784
 20
409.5669350740522
 30
0.0
 10
413.8998724299312
 20
409.3745968185739
 30
0.0
 10
414.0263695873255
 20
409.2210376632358
 30
0.0
 10
414.1780980584772
 20
409.0486998644656
 30
0.0
 10
414.3364307207917
 20
408.887896726754
 30
0.0
 10
414.5002549802333
 20
408.7410669866221
 30
0.0
 10
414.6187205794747
 20
408.6413181023782
 30
0.0
 10
414.7626627798126
 20
408.5274705851447
 30
0.0
 10
414.9827755310808
 20
408.3707001151805
 30
0.0
 10
415.2370151753893
 20
408.2145052279341
 30
0.0
 10
415.4998894343713
 20
408.0763565290139
 30
0.0
 10
415.7177912686204
 20
407.9775765795986
 30
0.0
 10
415.907775317501
 20
407.9020119359767
 30
0.0
 10
416.0560487720542
 20
407.8492869968444
 30
0.0
 10
416.1626131014331
 20
407.81515432438
 30
0.0
 10
416.2427291661092
 20
407.7910666497023
 30
0.0
 10
416.3637652128689
 20
407.756480195647
 30
0.0
 10
416.4962137547013
 20
407.7237912261141
 30
0.0
 10
416.6519444403788
 20
407.6911044155831
 30
0.0
 10
416.7654177793207
 20
407.6702863995755
 30
0.0
 10
416.8660163282666
 20
407.6548970038226
 30
0.0
 10
416.9411308908649
 20
407.6446906162556
 30
0.0
 10
417.0290715095417
 20
407.633880074079
 30
0.0
 10
417.1876787301052
 20
407.6185115192424
 30
0.0
 10
417.4043476338941
 20
407.6063775117968
 30
0.0
 10
417.5680673691547
 20
407.6083126797433
 30
0.0
 10
417.6507099678022
 20
407.6092895156004
 30
0.0
  0
SPLINE
  5
F8
330
1F
100
AcDbEntity
  8
0
  6
Continuous
 62
     8
370
    18
100
AcDbSpline
210
0.0
220
0.0
230
1.0
 70
     8
 71
     3
 72
    11
 73
     7
 74
     0
 42
0.000000001
 43
0.00000001
 40
0.0
 40
0.0
 40
0.0
 40
0.0
 40
0.0176053492035896
 40
0.0176053492035896
 40
0.0176053492035896
 40
0.0221786405319829
 40
0.0221786405319829
 40
0.0221786405319829
 40
0.0221786405319829
 10
430.6643612778174
 20
378.3841606743804
 30
0.0
 10
436.5322271738614
 20
378.384181510751
 30
0.0
 10
442.4002208802362
 20
378.3834400098606
 30
0.0
 10
448.2680941176501
 20
378.3834173562387
 30
0.0
 10
449.7923749335739
 20
378.3834114715715
 30
0.0
 10
451.3166504362498
 20
378.3834368827708
 30
0.0
 10
452.8409220589542
 20
378.3834840449073
 30
0.0
  0
SPLINE
  5
F9
330
1F
100
AcDbEntity
  8
0
  6
Continuous
 62
     8
370
    18
100
AcDbSpline
210
0.0
220
0.0
230
1.0
 70
     8
 71
     3
 72
    14
 73
    10
 74
     0
 42
0.000000001
 43
0.00000001
 40
0.0
 40
0.0
 40
0.0
 40
0.0
 40
0.25
 40
0.25
 40
0.5
 40
0.5
 40
0.75
 40
0.75
 40
1.0
 40
1.0
 40
1.0
 40
1.0
 10
412.9060933883896
 20
413.5254511409071
 30
0.0
 10
412.9066836879865
 20
413.5164640803308
 30
0.0
 10
412.9076347556051
 20
413.4798727975895
 30
0.0
 10
412.9102924058514
 20
413.3395144199893
 30
0.0
 10
412.9119999255569
 20
413.2354172870265
 30
0.0
 10
412.9158425350454
 20
412.9768058552025
 30
0.0
 10
412.9179654975927
 20
412.8231077313415
 30
0.0
 10
412.9221014582722
 20
412.5062493519385
 30
0.0
 10
412.9241051434814
 20
412.3439828371892
 30
0.0
 10
412.9258756876433
 20
412.1940827699934
 30
0.0
  0
SPLINE
  5
FA
330
1F
100
AcDbEntity
  8
0
  6
Continuous
 62
     8
370
    18
100
AcDbSpline
210
0.0
220
0.0
230
1.0
 70
     8
 71
     3
 72
    12
 73
     8
 74
     0
 42
0.000000001
 43
0.00000001
 40
0.0
 40
0.0
 40
0.0
 40
0.0
 40
0.2500000000000002
 40
0.2500000000000002
 40
0.5000000000000001
 40
0.5000000000000001
 40
1.0
 40
1.0
 40
1.0
 40
1.0
 10
412.9041916683843
 20
413.5254571775863
 30
0.0
 10
417.5996574799079
 20
413.581829774738
 30
0.0
 10
422.2948339844132
 20
413.6382225344922
 30
0.0
 10
431.6845143001161
 20
413.7510978698037
 30
0.0
 10
436.379355509848
 20
413.807530725058
 30
0.0
 10
450.4638805688865
 20
413.9768212641723
 30
0.0
 10
459.8535671217927
 20
414.0896661173509
 30
0.0
 10
469.2432584047429
 20
414.202491277433
 30
0.0
  0
SPLINE
  5
FB
330
1F
100
AcDbEntity
  8
0
  6
Continuous
 62
     8
370
    18
100
AcDbSpline
210
0.0
220
0.0
230
1.0
 70
     8
 71
     3
 72
    12
 73
     8
 74
     0
 42
0.000000001
 43
0.00000001
 40
0.0
 40
0.0
 40
0.0
 40
0.0
 40
0.5
 40
0.5
 40
0.75
 40
0.75
 40
1.0
 40
1.0
 40
1.0
 40
1.0
 10
469.2772800634935
 20
412.8650821173491
 30
0.0
 10
459.8875902175146
 20
412.7539214624526
 30
0.0
 10
450.497903729328
 20
412.6423878208384
 30
0.0
 10
436.4133799444913
 20
412.4747106325549
 30
0.0
 10
431.7185400874687
 20
412.4187802856242
 30
0.0
 10
422.3288569700303
 20
412.3067548835184
 30
0.0
 10
417.6276863643812
 20
412.2506780767528
 30
0.0
 10
412.9258923058979
 20
412.1947260337799
 30
0.0
  0
SPLINE
  5
FC
330
1F
100
AcDbEntity
  8
0
  6
Continuous
 62
     8
370
    18
100
AcDbSpline
210
0.0
220
0.0
230
1.0
 70
     8
 71
     3
 72
    10
 73
     6
 74
     0
 42
0.000000001
 43
0.00000001
 40
0.0
 40
0.0
 40
0.0
 40
0.0
 40
0.5
 40
0.5
 40
1.0
 40
1.0
 40
1.0
 40
1.0
 10
394.1025283177224
 20
413.3020599038798
 30
0.0
 10
397.2360434522479
 20
413.3394092087794
 30
0.0
 10
400.369916971371
 20
413.37658579341
 30
0.0
 10
406.6378010302564
 20
413.4505540187363
 30
0.0
 10
409.7705630307277
 20
413.4883906743706
 30
0.0
 10
412.9060933883896
 20
413.5254511409071
 30
0.0
  0
LWPOLYLINE
  5
FD
330
1F
100
AcDbEntity
  8
0
  6
Continuous
 62
     8
370
    18
100
AcDbPolyline
 90
        6
 70
   128
 43
0.0
 10
452.8412767992
 20
378.3835087378
 10
459.7285189972
 20
378.3835832436
 10
466.6157537446
 20
378.3836577494
 10
473.5029959426
 20
378.3837322552
 10
480.39023069
 20
378.3838216622
 10
490.8411749945
 20
378.3839706738
  0
LWPOLYLINE
  5
FE
330
1F
100
AcDbEntity
  8
0
  6
Continuous
 62
     8
370
    18
100
AcDbPolyline
 90
        6
 70
   128
 43
0.0
 10
490.8594885216
 20
376.9609619338
 10
483.2723238812
 20
376.9651491601
 10
475.6851592407
 20
376.9690905173
 10
468.0979946003
 20
376.9728158076
 10
460.5108225093
 20
376.9763399322
 10
452.8594897435
 20
376.9796926934
  0
SPLINE
  5
FF
330
1F
100
AcDbEntity
  8
0
  6
Continuous
 62
     8
370
    18
100
AcDbSpline
210
0.0
220
0.0
230
1.0
 70
     8
 71
     3
 72
    24
 73
    20
 74
     0
 42
0.000000001
 43
0.00000001
 40
0.0
 40
0.0
 40
0.0
 40
0.0
 40
0.1250000000000001
 40
0.1250000000000001
 40
0.2500000000000003
 40
0.2500000000000003
 40
0.3750000000000003
 40
0.3750000000000003
 40
0.5000000000000003
 40
0.5000000000000003
 40
0.6250000000000002
 40
0.6250000000000002
 40
0.7500000000000002
 40
0.7500000000000002
 40
0.8125000000000001
 40
0.8125000000000001
 40
0.8750000000000001
 40
0.8750000000000001
 40
1.0
 40
1.0
 40
1.0
 40
1.0
 10
376.5064115793531
 20
413.1607323626432
 30
0.0
 10
376.5064161164725
 20
413.1607328918992
 30
0.0
 10
376.5096660766982
 20
413.1599591490612
 30
0.0
 10
376.5269503932412
 20
413.1575625572717
 30
0.0
 10
376.5196324653891
 20
413.1567067747241
 30
0.0
 10
376.6516093148994
 20
413.1500514397331
 30
0.0
 10
376.8374504223819
 20
413.1455484009142
 30
0.0
 10
377.6762758468661
 20
413.1428931471011
 30
0.0
 10
378.318709844014
 20
413.1447052625783
 30
0.0
 10
379.9805173520411
 20
413.1541952580214
 30
0.0
 10
380.9955997769663
 20
413.1618570050329
 30
0.0
 10
383.2813585954714
 20
413.1822807202815
 30
0.0
 10
384.561583288648
 20
413.195106198032
 30
0.0
 10
386.5656443418783
 20
413.2162944848327
 30
0.0
 10
387.2557775738471
 20
413.2239617945367
 30
0.0
 10
388.6298150196969
 20
413.2394482809195
 30
0.0
 10
389.316554231253
 20
413.2471547634142
 30
0.0
 10
391.3717836961976
 20
413.2701223414105
 30
0.0
 10
392.7347742498871
 20
413.2854946177357
 30
0.0
 10
394.1025283177245
 20
413.302037482088
 30
0.0
  0
SPLINE
  5
100
330
1F
100
AcDbEntity
  8
0
  6
Continuous
 62
     8
370
    18
100
AcDbSpline
210
0.0
220
0.0
230
1.0
 70
     8
 71
     3
 72
    36
 73
    32
 74
     0
 42
0.000000001
 43
0.00000001
 40
0.0
 40
0.0
 40
0.0
 40
0.0
 40
0.0625000000000007
 40
0.0625000000000007
 40
0.1250000000000014
 40
0.1250000000000014
 40
0.1875000000000021
 40
0.1875000000000021
 40
0.2500000000000027
 40
0.2500000000000027
 40
0.3125000000000034
 40
0.3125000000000034
 40
0.3437500000000028
 40
0.3437500000000028
 40
0.3750000000000023
 40
0.3750000000000023
 40
0.4375000000000031
 40
0.4375000000000031
 40
0.4687500000000028
 40
0.4687500000000028
 40
0.5000000000000026
 40
0.5000000000000026
 40
0.5625000000000021
 40
0.5625000000000021
 40
0.6250000000000017
 40
0.6250000000000017
 40
0.7500000000000011
 40
0.7500000000000011
 40
0.8750000000000007
 40
0.8750000000000007
 40
1.0
 40
1.0
 40
1.0
 40
1.0
 10
507.7702872590407
 20
378.3907923954716
 30
0.0
 10
508.1447236759862
 20
378.391339733011
 30
0.0
 10
508.5209879044227
 20
378.3920328471694
 30
0.0
 10
509.2705220475602
 20
378.3931004107865
 30
0.0
 10
509.6447988308847
 20
378.3934784209051
 30
0.0
 10
510.3910833642532
 20
378.3938798034731
 30
0.0
 10
510.7630849430594
 20
378.3939108244952
 30
0.0
 10
511.5029793242109
 20
378.393989772181
 30
0.0
 10
511.8734481902923
 20
378.394065651685
 30
0.0
 10
512.594665204999
 20
378.3946771155202
 30
0.0
 10
512.9436135721728
 20
378.3951827217598
 30
0.0
 10
513.4482177576456
 20
378.3962991991224
 30
0.0
 10
513.6132988619584
 20
378.3967386786704
 30
0.0
 10
513.9369766984235
 20
378.3977845224892
 30
0.0
 10
514.0961113166576
 20
378.3983936321502
 30
0.0
 10
514.5549157214116
 20
378.4004743793838
 30
0.0
 10
514.8385557038232
 20
378.4022064058549
 30
0.0
 10
515.2298954497373
 20
378.4054249912265
 30
0.0
 10
515.3546381841741
 20
378.4066001957098
 30
0.0
 10
515.5926421075396
 20
378.4091338703262
 30
0.0
 10
515.7062666115839
 20
378.41049773592
 30
0.0
 10
516.0246293247623
 20
378.4147040161553
 30
0.0
 10
516.2089413614232
 20
378.4176691002519
 30
0.0
 10
516.5281522294314
 20
378.4233653002565
 30
0.0
 10
516.6634914007418
 20
378.4261030108167
 30
0.0
 10
516.9892159148783
 20
378.4333442344229
 30
0.0
 10
517.105397060712
 20
378.4372533588265
 30
0.0
 10
517.2604521021332
 20
378.4425645692245
 30
0.0
 10
517.3004513655684
 20
378.4437334129289
 30
0.0
 10
517.3656248260954
 20
378.4434464628952
 30
0.0
 10
517.388307386098
 20
378.4421530122009
 30
0.0
 10
517.406827041635
 20
378.4410933554555
 30
0.0
  0
SPLINE
  5
101
330
1F
100
AcDbEntity
  8
0
  6
Continuous
 62
     8
370
    18
100
AcDbSpline
210
0.0
220
0.0
230
1.0
 70
     8
 71
     3
 72
    14
 73
    10
 74
     0
 42
0.000000001
 43
0.00000001
 40
0.0
 40
0.0
 40
0.0
 40
0.0
 40
0.25
 40
0.25
 40
0.5
 40
0.5
 40
0.75
 40
0.75
 40
1.0
 40
1.0
 40
1.0
 40
1.0
 10
518.5860096745213
 20
376.514688279811
 30
0.0
 10
518.6690900208981
 20
376.7173202953617
 30
0.0
 10
518.7037169261604
 20
376.9396394171247
 30
0.0
 10
518.6686812096225
 20
377.3762522393782
 30
0.0
 10
518.5990466179697
 20
377.5901966301016
 30
0.0
 10
518.370390435339
 20
377.9637472758513
 30
0.0
 10
518.2115517795263
 20
378.1230546736912
 30
0.0
 10
517.8387185922519
 20
378.3527684262044
 30
0.0
 10
517.625022343983
 20
378.422990999647
 30
0.0
 10
517.4068270341829
 20
378.4410933558818
 30
0.0
  0
SPLINE
  5
102
330
1F
100
AcDbEntity
  8
0
  6
Continuous
 62
     8
370
    18
100
AcDbSpline
210
0.0
220
0.0
230
1.0
 70
     8
 71
     3
 72
    28
 73
    24
 74
     0
 42
0.000000001
 43
0.00000001
 40
0.0
 40
0.0
 40
0.0
 40
0.0
 40
0.1249999999999999
 40
0.1249999999999999
 40
0.2499999999999999
 40
0.2499999999999999
 40
0.3749999999999998
 40
0.3749999999999998
 40
0.4999999999999993
 40
0.4999999999999993
 40
0.6249999999999989
 40
0.6249999999999989
 40
0.6562499999999989
 40
0.6562499999999989
 40
0.687499999999999
 40
0.687499999999999
 40
0.7499999999999992
 40
0.7499999999999992
 40
0.8124999999999994
 40
0.8124999999999994
 40
0.8749999999999996
 40
0.8749999999999996
 40
1.0
 40
1.0
 40
1.0
 40
1.0
 10
518.5860094867061
 20
376.514688316985
 30
0.0
 10
518.5670300297562
 20
376.5184448873336
 30
0.0
 10
518.5433374136435
 20
376.5221163736991
 30
0.0
 10
518.4686249942697
 20
376.5194414604001
 30
0.0
 10
518.4198107157024
 20
376.5122094460771
 30
0.0
 10
518.2212678805945
 20
376.5024999768746
 30
0.0
 10
518.0687781678793
 20
376.5002013679948
 30
0.0
 10
517.534234756349
 20
376.5193920579671
 30
0.0
 10
517.1653073745314
 20
376.5319502371223
 30
0.0
 10
516.1943517590784
 20
376.570800287267
 30
0.0
 10
515.6125767799869
 20
376.5985631215121
 30
0.0
 10
514.7704881181394
 20
376.6399850772656
 30
0.0
 10
514.5957153161286
 20
376.6484979524152
 30
0.0
 10
514.2406736147713
 20
376.6654633392316
 30
0.0
 10
514.0597148487682
 20
376.6739506313887
 30
0.0
 10
513.506849780305
 20
376.6993437973373
 30
0.0
 10
513.1249082919371
 20
376.7161675808726
 30
0.0
 10
512.3358101664522
 20
376.749990261569
 30
0.0
 10
511.9282340291813
 20
376.7672647413688
 30
0.0
 10
511.1138951955546
 20
376.7996757681743
 30
0.0
 10
510.7041753796725
 20
376.8145901375194
 30
0.0
 10
509.4703571690013
 20
376.8534564080708
 30
0.0
 10
508.642052620398
 20
376.8711931955471
 30
0.0
 10
507.813121727923
 20
376.8820601738935
 30
0.0
  0
SPLINE
  5
103
330
1F
100
AcDbEntity
  8
0
  6
Continuous
 62
     8
370
    18
100
AcDbSpline
210
0.0
220
0.0
230
1.0
 70
     8
 71
     3
 72
    14
 73
    10
 74
     0
 42
0.000000001
 43
0.00000001
 40
0.0
 40
0.0
 40
0.0
 40
0.0
 40
0.25
 40
0.25
 40
0.5
 40
0.5
 40
0.75
 40
0.75
 40
1.0
 40
1.0
 40
1.0
 40
1.0
 10
507.8128452278444
 20
376.8811740045741
 30
0.0
 10
506.4005694010492
 20
376.8996951452894
 30
0.0
 10
504.9876981008557
 20
376.9057102190953
 30
0.0
 10
502.1620706730052
 20
376.9219978361089
 30
0.0
 10
500.7492813690897
 20
376.9296736114614
 30
0.0
 10
497.9237074435921
 20
376.9419321101086
 30
0.0
 10
496.510905505942
 20
376.9476297124711
 30
0.0
 10
493.6852255830901
 20
376.9566894362761
 30
0.0
 10
492.272341545082
 20
376.9587540330151
 30
0.0
 10
490.859434091523
 20
376.9606930953354
 30
0.0
  0
SPLINE
  5
104
330
1F
100
AcDbEntity
  8
0
  6
Continuous
 62
     8
370
    18
100
AcDbSpline
210
0.0
220
0.0
230
1.0
 70
     8
 71
     3
 72
    10
 73
     6
 74
     0
 42
0.000000001
 43
0.00000001
 40
0.0
 40
0.0
 40
0.0
 40
0.0
 40
0.5000000000000001
 40
0.5000000000000001
 40
1.0
 40
1.0
 40
1.0
 40
1.0
 10
518.6474952537858
 20
376.4788651251004
 30
0.0
 10
518.646609287772
 20
376.479212672694
 30
0.0
 10
518.649605633948
 20
376.4847571389559
 30
0.0
 10
518.6348404928656
 20
376.4999347182236
 30
0.0
 10
518.6182586305738
 20
376.5082945974599
 30
0.0
 10
518.58600228212
 20
376.5146702498332
 30
0.0
  0
SPLINE
  5
105
330
1F
100
AcDbEntity
  8
0
  6
Continuous
 62
     8
370
    18
100
AcDbSpline
210
0.0
220
0.0
230
1.0
 70
     8
 71
     3
 72
    12
 73
     8
 74
     0
 42
0.000000001
 43
0.00000001
 40
0.0
 40
0.0
 40
0.0
 40
0.0
 40
0.5
 40
0.5
 40
0.75
 40
0.75
 40
1.0
 40
1.0
 40
1.0
 40
1.0
 10
490.8406248667571
 20
378.383960244118
 30
0.0
 10
493.6623845007203
 20
378.3840848609217
 30
0.0
 10
496.4840178219602
 20
378.3848036430311
 30
0.0
 10
500.7163464816795
 20
378.3864445804599
 30
0.0
 10
502.1271313664108
 20
378.3869521030051
 30
0.0
 10
504.9487625180839
 20
378.3876723371034
 30
0.0
 10
506.3596181770362
 20
378.3879132891912
 30
0.0
 10
507.7699962897145
 20
378.3899649627417
 30
0.0
  0
SPLINE
  5
106
330
1F
100
AcDbEntity
  8
0
  6
Continuous
 62
     8
370
    18
100
AcDbSpline
210
0.0
220
0.0
230
1.0
 70
     8
 71
     3
 72
    17
 73
    13
 74
     0
 42
0.000000001
 43
0.00000001
 40
0.0
 40
0.0
 40
0.0
 40
0.0
 40
0.1176196556449777
 40
0.2402472293311377
 40
0.3698440538951244
 40
0.4367214683112359
 40
0.5044524966882675
 40
0.5721257277762365
 40
0.6388469691751767
 40
0.7682036321551264
 40
0.8901277469531006
 40
1.0
 40
1.0
 40
1.0
 40
1.0
 10
469.3077677235836
 20
412.8654886443391
 30
0.0
 10
470.1400349052093
 20
412.8764583135859
 30
0.0
 10
471.8400048919634
 20
412.8988647101087
 30
0.0
 10
474.446606017575
 20
412.932832760659
 30
0.0
 10
476.618274172997
 20
412.9623053842728
 30
0.0
 10
478.2284305978907
 20
412.9857860271244
 30
0.0
 10
479.3265849351312
 20
413.0025450526526
 30
0.0
 10
480.2293799516806
 20
413.0172001201852
 30
0.0
 10
481.1547451131998
 20
413.0332304068075
 30
0.0
 10
481.8166668168234
 20
413.0456735354759
 30
0.0
 10
482.0721827183445
 20
413.0520452044551
 30
0.0
 10
482.0738973597063
 20
413.0529641529271
 30
0.0
 10
482.0747101054424
 20
413.0533997375741
 30
0.0
  0
SPLINE
  5
107
330
1F
100
AcDbEntity
  8
0
  6
Continuous
 62
     8
370
    18
100
AcDbSpline
210
0.0
220
0.0
230
1.0
 70
     8
 71
     3
 72
    18
 73
    14
 74
     0
 42
0.000000001
 43
0.00000001
 40
0.0
 40
0.0
 40
0.0
 40
0.0
 40
0.2499999999999998
 40
0.2499999999999998
 40
0.3749999999999999
 40
0.3749999999999999
 40
0.4999999999999999
 40
0.4999999999999999
 40
0.6249999999999999
 40
0.6249999999999999
 40
0.75
 40
0.75
 40
1.0
 40
1.0
 40
1.0
 40
1.0
 10
469.2738274143788
 20
414.2028605439014
 30
0.0
 10
470.8912594298569
 20
414.2223998952172
 30
0.0
 10
472.5241248853711
 20
414.2458032976777
 30
0.0
 10
474.9061677319712
 20
414.2816743793995
 30
0.0
 10
475.6966981632528
 20
414.2939325982626
 30
0.0
 10
477.1617982563529
 20
414.317381143549
 30
0.0
 10
477.8501785783129
 20
414.3287895117477
 30
0.0
 10
478.9900367242093
 20
414.3488465884597
 30
0.0
 10
479.45679503213
 20
414.3578057107795
 30
0.0
 10
480.1568862619826
 20
414.3721869134252
 30
0.0
 10
480.4011932985838
 20
414.3777999961208
 30
0.0
 10
480.8665582423204
 20
414.3896812857341
 30
0.0
 10
480.8739922732913
 20
414.3917826665015
 30
0.0
 10
480.8769269790193
 20
414.3949767828451
 30
0.0
  0
SPLINE
  5
108
330
1F
100
AcDbEntity
  8
0
  6
Continuous
 62
     8
370
    18
100
AcDbSpline
210
0.0
220
0.0
230
1.0
 70
     8
 71
     3
 72
    11
 73
     7
 74
     0
 42
0.000000001
 43
0.00000001
 40
0.0
 40
0.0
 40
0.0
 40
0.0
 40
0.1378830629836399
 40
0.4323821642431102
 40
0.72688158966757
 40
1.0
 40
1.0
 40
1.0
 40
1.0
 10
482.0425310478443
 20
413.2864911515488
 30
0.0
 10
482.034869928742
 20
413.3667905377833
 30
0.0
 10
482.0108457216617
 20
413.6185982772994
 30
0.0
 10
481.7670793508177
 20
413.9861434182798
 30
0.0
 10
481.3637801861847
 20
414.305961288712
 30
0.0
 10
481.0350829193663
 20
414.3660574171465
 30
0.0
 10
480.8769249663586
 20
414.394973631598
 30
0.0
  0
LINE
  5
109
330
1F
100
AcDbEntity
  8
0
  6
Continuous
 62
     8
370
    18
100
AcDbLine
 10
394.0972368306
 20
381.327456649
 30
0.0
 11
415.4728376613
 21
381.327456649
 31
0.0
  0
LINE
  5
10A
330
1F
100
AcDbEntity
  8
0
  6
Continuous
 62
     8
370
    18
100
AcDbLine
 10
372.7216353015
 20
381.327456649
 30
0.0
 11
394.0972368306
 21
381.327456649
 31
0.0
  0
SPLINE
  5
10B
330
1F
100
AcDbEntity
  8
0
  6
Continuous
 62
     8
370
    18
100
AcDbSpline
210
0.0
220
0.0
230
1.0
 70
     8
 71
     3
 72
     9
 73
     5
 74
     0
 42
0.000000001
 43
0.00000001
 40
0.0
 40
0.0
 40
0.0
 40
0.0
 40
0.7257939726559614
 40
1.0
 40
1.0
 40
1.0
 40
1.0
 10
482.077138994717
 20
413.0535338480248
 30
0.0
 10
482.0464734428644
 20
412.6149094411712
 30
0.0
 10
482.0042224005467
 20
412.0105720901066
 30
0.0
 10
481.6666305985428
 20
411.522941776085
 30
0.0
 10
481.5740608916515
 20
411.3892306048646
 30
0.0
  0
LINE
  5
10C
330
1F
100
AcDbEntity
  8
0
  6
Continuous
 62
     8
370
    18
100
AcDbLine
 10
478.6764779434
 20
409.559159394
 30
0.0
 11
477.1275245891
 21
409.3745712597
 31
0.0
  0
LINE
  5
10D
330
1F
100
AcDbEntity
  8
0
  6
Continuous
 62
     8
370
    18
100
AcDbLine
 10
394.0972368306
 20
379.7550339658
 30
0.0
 11
372.5972366826
 21
379.7550339658
 31
0.0
  0
LINE
  5
10E
330
1F
100
AcDbEntity
  8
0
  6
Continuous
 62
     8
370
    18
100
AcDbLine
 10
415.5972362802
 20
379.7550339658
 30
0.0
 11
394.0972368306
 21
379.7550339658
 31
0.0
  0
SPLINE
  5
10F
330
1F
100
AcDbEntity
  8
0
  6
Continuous
 62
     8
370
    18
100
AcDbSpline
210
0.0
220
0.0
230
1.0
 70
    24
 71
     3
 72
     9
 73
     5
 74
     0
 42
0.000000001
 43
0.00000001
 40
0.0
 40
0.0
 40
0.0
 40
0.0
 40
0.5
 40
1.0
 40
1.0
 40
1.0
 40
1.0
 10
469.273827414379
 20
414.6370958039196
 30
0.0
 10
469.273827414379
 20
414.6370958039196
 30
0.0
 10
469.273827414379
 20
414.6265728645484
 30
0.0
 10
469.2738274143789
 20
414.5950040464349
 30
0.0
 10
469.2738274143789
 20
414.5739581676926
 30
0.0
  0
LINE
  5
110
330
1F
100
AcDbEntity
  8
0
  6
Continuous
 62
     8
370
    18
100
AcDbLine
 10
387.9527082042
 20
413.7624491412
 30
0.0
 11
389.6826154393
 21
413.7963865359
 31
0.0
  0
LINE
  5
111
330
1F
100
AcDbEntity
  8
0
  6
Continuous
 62
     8
370
    18
100
AcDbLine
 10
390.1836704769
 20
413.803844567
 30
0.0
 11
394.1025283727
 21
413.849874254
 31
0.0
  0
SPLINE
  5
112
330
1F
100
AcDbEntity
  8
0
  6
Continuous
 62
     8
370
    18
100
AcDbSpline
210
0.0
220
0.0
230
1.0
 70
     8
 71
     3
 72
    10
 73
     6
 74
     0
 42
0.000000001
 43
0.00000001
 40
0.0
 40
0.0
 40
0.0
 40
0.0
 40
0.0311540302368708
 40
0.5780290302368708
 40
0.9061540302368708
 40
0.9061540302368708
 40
0.9061540302368708
 40
0.9061540302368708
 10
480.8788009894368
 20
414.3948505696191
 30
0.0
 10
480.7458673094578
 20
414.4047268711089
 30
0.0
 10
478.2793606809935
 20
414.5796915268046
 30
0.0
 10
474.41096131828
 20
414.6378408708192
 30
0.0
 10
470.6744354061371
 20
414.5889436839674
 30
0.0
 10
469.2738274143789
 20
414.5739581676926
 30
0.0
  0
SPLINE
  5
113
330
1F
100
AcDbEntity
  8
0
  6
Continuous
 62
     8
370
    18
100
AcDbSpline
210
0.0
220
0.0
230
1.0
 70
     8
 71
     3
 72
     8
 73
     4
 74
     0
 42
0.000000001
 43
0.00000001
 40
0.0
 40
0.0
 40
0.0
 40
0.0
 40
1.0
 40
1.0
 40
1.0
 40
1.0
 10
482.0771900402182
 20
413.0549426406874
 30
0.0
 10
482.0772688020392
 20
413.0570979932557
 30
0.0
 10
482.0773061788466
 20
413.0581600717739
 30
0.0
 10
482.0773059353635
 20
413.058153299518
 30
0.0
  0
LINE
  5
114
330
1F
100
AcDbEntity
  8
0
  6
Continuous
 62
     8
370
    18
100
AcDbLine
 10
470.5373742924
 20
414.6428693492
 30
0.0
 11
469.273830329
 21
414.6370951493
 31
0.0
  0
SPLINE
  5
115
330
1F
100
AcDbEntity
  8
0
  6
Continuous
 62
     8
370
    18
100
AcDbSpline
210
0.0
220
0.0
230
1.0
 70
     8
 71
     3
 72
     8
 73
     4
 74
     0
 42
0.000000001
 43
0.00000001
 40
0.0
 40
0.0
 40
0.0
 40
0.0
 40
1.0
 40
1.0
 40
1.0
 40
1.0
 10
480.8769363445963
 20
414.3949890740407
 30
0.0
 10
480.8799197407834
 20
414.400661226947
 30
0.0
 10
480.8813292415472
 20
414.4033896706006
 30
0.0
 10
480.881322385583
 20
414.403375715556
 30
0.0
  0
LINE
  5
116
330
1F
100
AcDbEntity
  8
0
  6
Continuous
 62
     8
370
    18
100
AcDbLine
 10
417.9385458426
 20
389.8425538499
 30
0.0
 11
417.9385458426
 21
397.4053923447
 31
0.0
  0
LWPOLYLINE
  5
117
330
1F
100
AcDbEntity
  8
0
  6
Continuous
 62
     8
370
    18
100
AcDbPolyline
 90
       12
 70
   128
 43
0.0
 10
365.4061542199
 20
332.4481126327
 10
365.4125747577
 20
332.4504483897
 10
365.5644492553
 20
332.5057279725
 10
365.9028322742
 20
332.628889795
 10
366.3910520569
 20
332.8065861423
 10
366.9762038932
 20
333.0195647139
 10
367.5948777542
 20
333.2447436113
 10
368.1800295905
 20
333.457722183
 10
368.6682493732
 20
333.6354185302
 10
369.0066305295
 20
333.7585803528
 10
369.1585068897
 20
333.8138562102
 10
369.1649255649
 20
333.8161919672
  0
LINE
  5
118
330
1F
100
AcDbEntity
  8
0
  6
Continuous
 62
     8
370
    18
100
AcDbLine
 10
363.5267694787
 20
333.7640714307
 30
0.0
 11
363.5267694787
 21
337.7640720863
 31
0.0
  0
LINE
  5
119
330
1F
100
AcDbEntity
  8
0
  6
Continuous
 62
     8
370
    18
100
AcDbLine
 10
370.8918807403
 20
377.036175545
 30
0.0
 11
370.9014007197
 21
377.0360712368
 31
0.0
  0
LINE
  5
11A
330
1F
100
AcDbEntity
  8
0
  6
Continuous
 62
     8
370
    18
100
AcDbLine
 10
375.1798854516
 20
411.9443510134
 30
0.0
 11
375.1791776464
 21
411.9448204
 31
0.0
  0
LINE
  5
11B
330
1F
100
AcDbEntity
  8
0
  6
Continuous
 62
     7
370
    25
100
AcDbLine
 10
205.966641553
 20
359.6669201214
 30
0.0
 11
205.966641553
 21
360.2180023153
 31
0.0
  0
LINE
  5
11C
330
1F
100
AcDbEntity
  8
0
  6
Continuous
 62
     7
370
    25
100
AcDbLine
 10
181.9666413444
 20
360.2004487474
 30
0.0
 11
181.9666413444
 21
359.6669201214
 31
0.0
  0
LINE
  5
11D
330
1F
100
AcDbEntity
  8
0
  6
Continuous
 62
     7
370
    25
100
AcDbLine
 10
185.0031534064
 20
353.6123734374
 30
0.0
 11
185.7501113641
 21
353.3116382022
 31
0.0
  0
LINE
  5
11E
330
1F
100
AcDbEntity
  8
0
  6
Continuous
 62
     7
370
    25
100
AcDbLine
 10
202.1831715333
 20
353.3116382022
 30
0.0
 11
202.9301294911
 21
353.6123734374
 31
0.0
  0
SPLINE
  5
11F
330
1F
100
AcDbEntity
  8
0
  6
Continuous
 62
     7
370
    25
100
AcDbSpline
210
0.0
220
0.0
230
1.0
 70
     8
 71
     3
 72
    11
 73
     7
 74
     0
 42
0.000000001
 43
0.00000001
 40
0.0
 40
0.0
 40
0.0
 40
0.0
 40
0.3013841463948541
 40
0.5830946378275311
 40
0.822923706113436
 40
1.0
 40
1.0
 40
1.0
 40
1.0
 10
174.109920285926
 20
414.2792735655083
 30
0.0
 10
173.9292664832304
 20
414.2658445748972
 30
0.0
 10
173.5797515372221
 20
414.2398632068974
 30
0.0
 10
173.2771297101442
 20
414.1672694030372
 30
0.0
 10
173.0649428331815
 20
414.087163576348
 30
0.0
 10
172.9134710096972
 20
413.9818876016688
 30
0.0
 10
172.8491348999597
 20
413.93717270682
 30
0.0
  0
SPLINE
  5
120
330
1F
100
AcDbEntity
  8
0
  6
Continuous
 62
     7
370
    25
100
AcDbSpline
210
0.0
220
0.0
230
1.0
 70
     8
 71
     3
 72
     9
 73
     5
 74
     0
 42
0.000000001
 43
0.00000001
 40
0.0
 40
0.0
 40
0.0
 40
0.0
 40
0.5468393808201886
 40
1.0
 40
1.0
 40
1.0
 40
1.0
 10
215.0841088819362
 20
413.9372025091424
 30
0.0
 10
214.9676690148292
 20
414.0238090346654
 30
0.0
 10
214.7547365319265
 20
414.1821855681789
 30
0.0
 10
214.1135401367714
 20
414.2490125574253
 30
0.0
 10
213.822975181327
 20
414.2792959172501
 30
0.0
  0
SPLINE
  5
121
330
1F
100
AcDbEntity
  8
0
  6
Continuous
 62
     7
370
    25
100
AcDbSpline
210
0.0
220
0.0
230
1.0
 70
     8
 71
     3
 72
    17
 73
    13
 74
     0
 42
0.000000001
 43
0.00000001
 40
0.0
 40
0.0
 40
0.0
 40
0.0
 40
0.0975821848177224
 40
0.1974460072251076
 40
0.3744783590765375
 40
0.4642016583840525
 40
0.527893777043202
 40
0.5668683490760981
 40
0.636263702912002
 40
0.7379118025444982
 40
0.868677720280641
 40
0.9999999999999999
 40
0.9999999999999999
 40
0.9999999999999999
 40
0.9999999999999999
 10
185.3597260865428
 20
414.6110702712311
 30
0.0
 10
185.0421249067167
 20
414.6078891436676
 30
0.0
 10
184.3994964908457
 20
414.601452508363
 30
0.0
 10
183.0559423573824
 20
414.5831638740242
 30
0.0
 10
181.6666484362218
 20
414.5575765553874
 30
0.0
 10
180.391207091612
 20
414.5271093638672
 30
0.0
 10
179.6517781109444
 20
414.5069719239919
 30
0.0
 10
178.9909434335778
 20
414.4873104709186
 30
0.0
 10
178.1830649003697
 20
414.4613242553494
 30
0.0
 10
177.02710702985
 20
414.4190240227339
 30
0.0
 10
175.6111085765906
 20
414.3592214818128
 30
0.0
 10
174.6502347812403
 20
414.3072808604958
 30
0.0
 10
174.1687780099966
 20
414.2812554199471
 30
0.0
  0
SPLINE
  5
122
330
1F
100
AcDbEntity
  8
0
  6
Continuous
 62
     7
370
    25
100
AcDbSpline
210
0.0
220
0.0
230
1.0
 70
     8
 71
     3
 72
    17
 73
    13
 74
     0
 42
0.000000001
 43
0.00000001
 40
0.0
 40
0.0
 40
0.0
 40
0.0
 40
0.1314120959298706
 40
0.2621746511260596
 40
0.363808872424862
 40
0.4331791653264552
 40
0.472131318152633
 40
0.5358046011436283
 40
0.6255141484483255
 40
0.8025390571246016
 40
0.9024077281327867
 40
0.9999999999999999
 40
0.9999999999999999
 40
0.9999999999999999
 40
0.9999999999999999
 10
213.7635344493248
 20
414.2813150245919
 30
0.0
 10
213.2817712508866
 20
414.3073509636815
 30
0.0
 10
212.3206261022445
 20
414.3592941520103
 30
0.0
 10
210.9044994454759
 20
414.4190917999493
 30
0.0
 10
209.7488416123713
 20
414.4613677871898
 30
0.0
 10
208.9412950601725
 20
414.4873389418669
 30
0.0
 10
208.280785260986
 20
414.506996845382
 30
0.0
 10
207.54165350588
 20
414.5271110795136
 30
0.0
 10
206.2664996376225
 20
414.5575918579867
 30
0.0
 10
204.8773797389284
 20
414.5831624800932
 30
0.0
 10
203.5338805463502
 20
414.6014532876175
 30
0.0
 10
202.891195021189
 20
414.6078893423936
 30
0.0
 10
202.5735568109013
 20
414.6110702712311
 30
0.0
  0
SPLINE
  5
123
330
1F
100
AcDbEntity
  8
0
  6
Continuous
 62
     7
370
    25
100
AcDbSpline
210
0.0
220
0.0
230
1.0
 70
     8
 71
     3
 72
     9
 73
     5
 74
     0
 42
0.000000001
 43
0.00000001
 40
0.0
 40
0.0
 40
0.0
 40
0.0
 40
0.5117752228596639
 40
1.0
 40
1.0
 40
1.0
 40
1.0
 10
193.9666414487217
 20
414.6645803410782
 30
0.0
 10
192.4887521342316
 20
414.6624145105678
 30
0.0
 10
189.6009817841313
 20
414.6581825149304
 30
0.0
 10
186.7512862664715
 20
414.6267861733119
 30
0.0
 10
185.3599943074443
 20
414.6114577014222
 30
0.0
  0
SPLINE
  5
124
330
1F
100
AcDbEntity
  8
0
  6
Continuous
 62
     7
370
    25
100
AcDbSpline
210
0.0
220
0.0
230
1.0
 70
     8
 71
     3
 72
     9
 73
     5
 74
     0
 42
0.000000001
 43
0.00000001
 40
0.0
 40
0.0
 40
0.0
 40
0.0
 40
0.4882247771402946
 40
1.0
 40
1.0
 40
1.0
 40
1.0
 10
202.5732885899998
 20
414.6114577014222
 30
0.0
 10
201.1819966309726
 20
414.6267861733119
 30
0.0
 10
198.3323011133126
 20
414.6581825149304
 30
0.0
 10
195.444530763212
 20
414.6624145105678
 30
0.0
 10
193.9666414487217
 20
414.6645803410782
 30
0.0
  0
SPLINE
  5
125
330
1F
100
AcDbEntity
  8
0
  6
Continuous
 62
     7
370
    25
100
AcDbSpline
210
0.0
220
0.0
230
1.0
 70
     8
 71
     3
 72
    20
 73
    16
 74
     0
 42
0.000000001
 43
0.00000001
 40
0.0
 40
0.0
 40
0.0
 40
0.0
 40
0.1021272517665479
 40
0.192526853143803
 40
0.2712205415721972
 40
0.3394685565723323
 40
0.4045339267078816
 40
0.4676339381181949
 40
0.5191190556110523
 40
0.5695347926360849
 40
0.6282379905050913
 40
0.6995728798327384
 40
0.7878526193727553
 40
0.8899951214729983
 40
0.9999999999999999
 40
0.9999999999999999
 40
0.9999999999999999
 40
0.9999999999999999
 10
216.2802977341272
 20
412.6904596049561
 30
0.0
 10
216.2231209062368
 20
412.8085995818653
 30
0.0
 10
216.1153330772677
 20
413.0313130847879
 30
0.0
 10
215.9061630164514
 20
413.2544382962382
 30
0.0
 10
215.7495828907508
 20
413.3925951776938
 30
0.0
 10
215.678428418328
 20
413.4504085717472
 30
0.0
 10
215.6132467813939
 20
413.5042163237572
 30
0.0
 10
215.5570968717022
 20
413.550155964285
 30
0.0
 10
215.5079180392201
 20
413.5904341962645
 30
0.0
 10
215.4631007568992
 20
413.6271283417809
 30
0.0
 10
215.4132881737402
 20
413.6679299458734
 30
0.0
 10
215.3528428215362
 20
413.7174456605342
 30
0.0
 10
215.2804750409233
 20
413.7767579165297
 30
0.0
 10
215.1974311768983
 20
413.8448387191989
 30
0.0
 10
215.138859989135
 20
413.8928818961299
 30
0.0
 10
215.1084890442945
 20
413.9177937466874
 30
0.0
  0
SPLINE
  5
126
330
1F
100
AcDbEntity
  8
0
  6
Continuous
 62
     7
370
    25
100
AcDbSpline
210
0.0
220
0.0
230
1.0
 70
     8
 71
     3
 72
    13
 73
     9
 74
     0
 42
0.000000001
 43
0.00000001
 40
0.0
 40
0.0
 40
0.0
 40
0.0
 40
0.2013258741909589
 40
0.3887710673622909
 40
0.5623372908749076
 40
0.7220275815348122
 40
0.8678984230080775
 40
1.0
 40
1.0
 40
1.0
 40
1.0
 10
172.8247770893432
 20
413.9177788455262
 30
0.0
 10
172.7665539133658
 20
413.8700913460298
 30
0.0
 10
172.6541218359643
 20
413.7780042253181
 30
0.0
 10
172.4549146301644
 20
413.6132392913586
 30
0.0
 10
172.2425636133474
 20
413.4310330851022
 30
0.0
 10
172.0248015306218
 20
413.2217366027792
 30
0.0
 10
171.800347662619
 20
412.9877470115064
 30
0.0
 10
171.7004806306682
 20
412.7862886219905
 30
0.0
 10
171.6530205535747
 20
412.6905490119233
 30
0.0
  0
SPLINE
  5
127
330
1F
100
AcDbEntity
  8
0
  6
Continuous
 62
     7
370
    25
100
AcDbSpline
210
0.0
220
0.0
230
1.0
 70
     8
 71
     3
 72
    14
 73
    10
 74
     0
 42
0.000000001
 43
0.00000001
 40
0.0
 40
0.0
 40
0.0
 40
0.0
 40
0.211335374314675
 40
0.3804287182186455
 40
0.5416970783993869
 40
0.6933939144168673
 40
0.8358919918392804
 40
0.9742320916112102
 40
0.9999999999999999
 40
0.9999999999999999
 40
0.9999999999999999
 40
0.9999999999999999
 10
216.5993446338035
 20
404.7763783890977
 30
0.0
 10
216.5721057795321
 20
405.438340819589
 30
0.0
 10
216.5230726138833
 20
406.6299516408127
 30
0.0
 10
216.4536855237779
 20
408.2194674204205
 30
0.0
 10
216.3960174720667
 20
409.5104711662741
 30
0.0
 10
216.354702280026
 20
410.5850927953791
 30
0.0
 10
216.3356479496043
 20
411.4042559508853
 30
0.0
 10
216.3316227251809
 20
411.8814367505854
 30
0.0
 10
216.3323634334627
 20
412.0406603917435
 30
0.0
 10
216.3324797379829
 20
412.0656613666787
 30
0.0
  0
SPLINE
  5
128
330
1F
100
AcDbEntity
  8
0
  6
Continuous
 62
     7
370
    25
100
AcDbSpline
210
0.0
220
0.0
230
1.0
 70
     8
 71
     3
 72
    12
 73
     8
 74
     0
 42
0.000000001
 43
0.00000001
 40
0.0
 40
0.0
 40
0.0
 40
0.0
 40
0.0969712178110703
 40
0.3785889727713677
 40
0.6502058294842288
 40
0.9162148317145661
 40
1.0
 40
1.0
 40
1.0
 40
1.0
 10
216.231217034445
 20
411.1466769535317
 30
0.0
 10
216.2245519308749
 20
411.0575705148865
 30
0.0
 10
216.1985304497491
 20
410.709686721783
 30
0.0
 10
215.9462640347114
 20
410.0741808870932
 30
0.0
 10
215.453151048638
 20
409.2356463036056
 30
0.0
 10
214.8766395629979
 20
408.6075850667801
 30
0.0
 10
214.4568363747895
 20
408.3926388209072
 30
0.0
 10
214.3562821525194
 20
408.3411533791794
 30
0.0
  0
SPLINE
  5
129
330
1F
100
AcDbEntity
  8
0
  6
Continuous
 62
     7
370
    25
100
AcDbSpline
210
0.0
220
0.0
230
1.0
 70
     8
 71
     3
 72
    12
 73
     8
 74
     0
 42
0.000000001
 43
0.00000001
 40
0.0
 40
0.0
 40
0.0
 40
0.0
 40
0.0351071863380329
 40
0.2871450072428697
 40
0.548213686039555
 40
0.8242678501881107
 40
1.0
 40
1.0
 40
1.0
 40
1.0
 10
172.8623987960674
 20
408.8686544854417
 30
0.0
 10
172.8282006978389
 20
408.8900812423848
 30
0.0
 10
172.5484912084778
 20
409.0653327199136
 30
0.0
 10
172.2192771967712
 20
409.6192124363306
 30
0.0
 10
171.8110728022882
 20
410.4304661164331
 30
0.0
 10
171.6085040871388
 20
411.2761971320483
 30
0.0
 10
171.5906156204905
 20
411.8535891223466
 30
0.0
 10
171.5836575108625
 20
412.0781783420815
 30
0.0
  0
SPLINE
  5
12A
330
1F
100
AcDbEntity
  8
0
  6
Continuous
 62
     7
370
    25
100
AcDbSpline
210
0.0
220
0.0
230
1.0
 70
     8
 71
     3
 72
    18
 73
    14
 74
     0
 42
0.000000001
 43
0.00000001
 40
0.0
 40
0.0
 40
0.0
 40
0.0
 40
0.0006296619396296
 40
0.1110678081347986
 40
0.2278030064372737
 40
0.3511735670107198
 40
0.471274975328747
 40
0.541329029072037
 40
0.6088108338421542
 40
0.6794586920870722
 40
0.7610272464921802
 40
0.8846647146770633
 40
1.0
 40
1.0
 40
1.0
 40
1.0
 10
171.5618142711975
 20
412.1354658562913
 30
0.0
 10
171.5618210404707
 20
412.1346659161782
 30
0.0
 10
171.5630150912592
 20
411.993562270868
 30
0.0
 10
171.5770325840929
 20
411.750957133306
 30
0.0
 10
171.5872043371684
 20
411.452735834883
 30
0.0
 10
171.5900099583844
 20
411.2596318889458
 30
0.0
 10
171.5893214166518
 20
410.9260420193065
 30
0.0
 10
171.5690378623448
 20
410.3154133763836
 30
0.0
 10
171.5343099153529
 20
409.507951491976
 30
0.0
 10
171.4818440943452
 20
408.305630846237
 30
0.0
 10
171.4088304809043
 20
406.5852157930738
 30
0.0
 10
171.3233544664704
 20
404.5521536315254
 30
0.0
 10
171.2638305708995
 20
403.0353475395747
 30
0.0
 10
171.2351025867321
 20
402.3032922703995
 30
0.0
  0
SPLINE
  5
12B
330
1F
100
AcDbEntity
  8
0
  6
Continuous
 62
     7
370
    25
100
AcDbSpline
210
0.0
220
0.0
230
1.0
 70
     8
 71
     3
 72
    10
 73
     6
 74
     0
 42
0.000000001
 43
0.00000001
 40
0.0
 40
0.0
 40
0.0
 40
0.0
 40
0.3878808782410049
 40
0.6179699749938303
 40
1.0
 40
1.0
 40
1.0
 40
1.0
 10
217.9170375543691
 20
295.7640726524598
 30
0.0
 10
217.8244101074228
 20
306.2673962413065
 30
0.0
 10
217.6768364983995
 20
323.0012415522341
 30
0.0
 10
217.4392716459159
 20
350.0799098606178
 30
0.0
 10
217.2948136458758
 20
366.6553078532067
 30
0.0
 10
217.2046558785297
 20
377.0001892406716
 30
0.0
  0
LWPOLYLINE
  5
12C
330
1F
100
AcDbEntity
  8
0
  6
Continuous
 62
     7
370
    25
100
AcDbPolyline
 90
        5
 70
   128
 43
0.0
 10
170.7286270189
 20
377.0000700314
 10
170.4683838266
 20
347.1767630834
 10
170.3230006474
 20
330.5953879316
 10
170.2378349233
 20
320.9051907469
 10
170.0162453431
 20
295.7640726526
  0
LINE
  5
12D
330
1F
100
AcDbEntity
  8
0
  6
Continuous
 62
     7
370
    25
100
AcDbLine
 10
172.4666407186
 20
379.7550339658
 30
0.0
 11
172.4666407186
 21
378.4186456759
 31
0.0
  0
LINE
  5
12E
330
1F
100
AcDbEntity
  8
0
  6
Continuous
 62
     7
370
    25
100
AcDbLine
 10
215.4666421789
 20
378.4190927107
 30
0.0
 11
215.4666421789
 21
379.7550339658
 31
0.0
  0
ARC
  5
12F
330
1F
100
AcDbEntity
  8
0
  6
Continuous
 62
     7
370
    25
100
AcDbCircle
 10
205.4666414487
 20
379.7550362787
 30
0.0
 40
10.0
100
AcDbArc
 50
0.0
 51
9.0468459803
  0
ARC
  5
130
330
1F
100
AcDbEntity
  8
0
  6
Continuous
 62
     7
370
    25
100
AcDbCircle
 10
182.4666414487
 20
379.7550362787
 30
0.0
 40
10.0
100
AcDbArc
 50
170.9531540197
 51
180.0
  0
LWPOLYLINE
  5
131
330
1F
100
AcDbEntity
  8
0
  6
Continuous
 62
     7
370
    25
100
AcDbPolyline
 90
        3
 70
   128
 43
0.0
 10
172.6488483924
 20
381.67253774
 10
172.6451976079
 20
381.6517133672
 10
172.5910412001
 20
381.327456649
  0
LWPOLYLINE
  5
132
330
1F
100
AcDbEntity
  8
0
  6
Continuous
 62
     7
370
    25
100
AcDbPolyline
 90
        3
 70
   128
 43
0.0
 10
215.3422416973
 20
381.327456649
 10
215.2880852896
 20
381.6517133672
 10
215.286608212
 20
381.660154875
  0
LINE
  5
133
330
1F
100
AcDbEntity
  8
0
  6
Continuous
 62
     7
370
    25
100
AcDbLine
 10
216.3696208823
 20
412.1522073109
 30
0.0
 11
216.3165280449
 21
412.5784252245
 31
0.0
  0
LINE
  5
134
330
1F
100
AcDbEntity
  8
0
  6
Continuous
 62
     7
370
    25
100
AcDbLine
 10
171.6167567152
 20
412.5784326751
 30
0.0
 11
171.5636620152
 21
412.1522073109
 31
0.0
  0
SPLINE
  5
135
330
1F
100
AcDbEntity
  8
0
  6
Continuous
 62
     7
370
    25
100
AcDbSpline
210
0.0
220
0.0
230
1.0
 70
     8
 71
     3
 72
    12
 73
     8
 74
     0
 42
0.000000001
 43
0.00000001
 40
0.0
 40
0.0
 40
0.0
 40
0.0
 40
0.0335693970706793
 40
0.236012951743501
 40
0.4937626938141348
 40
0.9003237369214798
 40
0.9999999999999999
 40
0.9999999999999999
 40
0.9999999999999999
 40
0.9999999999999999
 10
171.8251699435569
 20
378.3595923740639
 30
0.0
 10
171.8216615017913
 20
378.3589168839428
 30
0.0
 10
171.7969950564757
 20
378.3541677841293
 30
0.0
 10
171.6883255313354
 20
378.3257317977793
 30
0.0
 10
171.4705726916722
 20
378.235076450071
 30
0.0
 10
171.260505698595
 20
378.1179009191189
 30
0.0
 10
171.1654166760616
 20
377.9964607380701
 30
0.0
 10
171.146693997369
 20
377.9725496132149
 30
0.0
  0
LINE
  5
136
330
1F
100
AcDbEntity
  8
0
  6
Continuous
 62
     7
370
    25
100
AcDbLine
 10
216.7404958832
 20
401.1822853644
 30
0.0
 11
216.7369177419
 21
401.2945879657
 31
0.0
  0
LINE
  5
137
330
1F
100
AcDbEntity
  8
0
  6
Continuous
 62
     7
370
    25
100
AcDbLine
 10
217.1606546122
 20
384.0307359059
 30
0.0
 11
217.1444309729
 21
384.9521864612
 31
0.0
  0
LINE
  5
138
330
1F
100
AcDbEntity
  8
0
  6
Continuous
 62
     7
370
    25
100
AcDbLine
 10
170.7888370234
 20
384.9513594467
 30
0.0
 11
170.7726282853
 21
384.0306688506
 31
0.0
  0
LINE
  5
139
330
1F
100
AcDbEntity
  8
0
  6
Continuous
 62
     7
370
    25
100
AcDbLine
 10
171.1963651556
 20
401.2945879657
 30
0.0
 11
171.1927870142
 21
401.1822704632
 31
0.0
  0
SPLINE
  5
13A
330
1F
100
AcDbEntity
  8
0
  6
Continuous
 62
     7
370
    25
100
AcDbSpline
210
0.0
220
0.0
230
1.0
 70
     8
 71
     3
 72
    20
 73
    16
 74
     0
 42
0.000000001
 43
0.00000001
 40
0.0
 40
0.0
 40
0.0
 40
0.0
 40
0.0601440426444249
 40
0.1214815561851488
 40
0.1937646596049236
 40
0.2676177425072481
 40
0.3511236490424938
 40
0.4371069880341032
 40
0.5187058550332847
 40
0.603098370178257
 40
0.6789166321737552
 40
0.7566011343293237
 40
0.8388812932360358
 40
0.9235034450881753
 40
1.0
 40
1.0
 40
1.0
 40
1.0
 10
193.9667689539818
 20
365.0642473656907
 30
0.0
 10
194.4586804009454
 20
365.0479549487494
 30
0.0
 10
195.4522645608219
 20
365.0150468155909
 30
0.0
 10
197.0052645339991
 20
364.7422603878658
 30
0.0
 10
198.6014493762909
 20
364.2967903448355
 30
0.0
 10
200.2577847793718
 20
363.6612535470016
 30
0.0
 10
201.8635633253345
 20
362.9090323116141
 30
0.0
 10
203.3171503122942
 20
362.1316484189266
 30
0.0
 10
204.5240502887782
 20
361.4182331355414
 30
0.0
 10
205.4006921995812
 20
360.8204227197159
 30
0.0
 10
205.9686775349035
 20
360.2974627654888
 30
0.0
 10
206.2452079223172
 20
359.8033226143627
 30
0.0
 10
206.2081704998145
 20
359.2766114527987
 30
0.0
 10
205.867812877851
 20
358.7144761606933
 30
0.0
 10
205.3743930937982
 20
358.3188876411136
 30
0.0
 10
205.1401253643491
 20
358.1310686130299
 30
0.0
  0
SPLINE
  5
13B
330
1F
100
AcDbEntity
  8
0
  6
Continuous
 62
     7
370
    25
100
AcDbSpline
210
0.0
220
0.0
230
1.0
 70
     8
 71
     3
 72
    19
 73
    15
 74
     0
 42
0.000000001
 43
0.00000001
 40
0.0
 40
0.0
 40
0.0
 40
0.0
 40
0.0832563659599311
 40
0.1648789356029328
 40
0.2488273054283556
 40
0.3313493496856971
 40
0.416272907316019
 40
0.4979716268711899
 40
0.5824838464299433
 40
0.6579070807489775
 40
0.7352098192036663
 40
0.8169925759016659
 40
0.9010321125436933
 40
0.9999999999999999
 40
0.9999999999999999
 40
0.9999999999999999
 40
0.9999999999999999
 10
182.8215498331048
 20
358.1050735373273
 30
0.0
 10
182.5670799078122
 20
358.3101659438061
 30
0.0
 10
182.0631336937127
 20
358.7163260889263
 30
0.0
 10
181.7197084977281
 20
359.291949522764
 30
0.0
 10
181.6895943093601
 20
359.827279476935
 30
0.0
 10
182.0066953561268
 20
360.3555674286737
 30
0.0
 10
182.6535136946278
 20
360.9125235243572
 30
0.0
 10
183.6261585095382
 20
361.5526205600505
 30
0.0
 10
184.8394236236902
 20
362.2555673539152
 30
0.0
 10
186.2476239932504
 20
362.994638560659
 30
0.0
 10
187.8089094819819
 20
363.7196746745628
 30
0.0
 10
189.5799548061874
 20
364.3817280982547
 30
0.0
 10
191.6494756782025
 20
364.9366748044073
 30
0.0
 10
193.1532782704387
 20
365.0194718609914
 30
0.0
 10
193.9665139434624
 20
365.0642473656907
 30
0.0
  0
ARC
  5
13C
330
1F
100
AcDbEntity
  8
0
  6
Continuous
 62
     7
370
    25
100
AcDbCircle
 10
187.9632334917
 20
361.2861561964
 30
0.0
 40
8.22490218446247
100
AcDbArc
 50
232.5913611582
 51
248.9064096832
  0
ARC
  5
13D
330
1F
100
AcDbEntity
  8
0
  6
Continuous
 62
     7
370
    25
100
AcDbCircle
 10
199.9700494057
 20
361.2861561964
 30
0.0
 40
8.224902184462453
100
AcDbArc
 50
291.0935903168
 51
307.4086388418
  0
ARC
  5
13E
330
1F
100
AcDbEntity
  8
0
  6
Continuous
 62
     7
370
    25
100
AcDbCircle
 10
203.9486049839
 20
359.6423504861
 30
0.0
 40
1.976458253990545
100
AcDbArc
 50
301.0028798204
 51
30.6389883338
  0
LINE
  5
13F
330
1F
100
AcDbEntity
  8
0
  6
Continuous
 62
     7
370
    25
100
AcDbLine
 10
204.9666413891
 20
361.0940713842
 30
0.0
 11
204.9666413891
 21
358.1902709265
 31
0.0
  0
LWPOLYLINE
  5
140
330
1F
100
AcDbEntity
  8
0
  6
Continuous
 62
     7
370
    25
100
AcDbPolyline
 90
       18
 70
   128
 43
0.0
 10
204.9666413891
 20
358.1902709265
 10
204.2121574136
 20
358.7104518373
 10
203.2672673318
 20
359.1890175302
 10
202.1495302993
 20
359.6170906384
 10
200.8797194663
 20
359.9866990406
 10
199.481432684
 20
360.2909882028
 10
197.9806571121
 20
360.524288233
 10
196.4052835333
 20
360.6822777946
 10
194.7845891787
 20
360.7620139081
 10
193.1486937188
 20
360.7620139081
 10
191.5279993641
 20
360.6822777946
 10
189.9526257853
 20
360.524288233
 10
188.4518502134
 20
360.2909882028
 10
187.0535634312
 20
359.9866990406
 10
185.7837525982
 20
359.6170906384
 10
184.6660155657
 20
359.1890175302
 10
183.7211254838
 20
358.7104518373
 10
182.9666415083
 20
358.1902709265
  0
LINE
  5
141
330
1F
100
AcDbEntity
  8
0
  6
Continuous
 62
     7
370
    25
100
AcDbLine
 10
182.9666415083
 20
361.0988695581
 30
0.0
 11
182.9666415083
 21
358.1902709265
 31
0.0
  0
ARC
  5
142
330
1F
100
AcDbEntity
  8
0
  6
Continuous
 62
     7
370
    25
100
AcDbCircle
 10
183.9102363076
 20
359.6235132127
 30
0.0
 40
1.922729956765227
100
AcDbArc
 50
147.6743514169
 51
240.6095956658
  0
LWPOLYLINE
  5
143
330
1F
100
AcDbEntity
  8
0
  6
Continuous
 62
     7
370
    25
100
AcDbPolyline
 90
       23
 70
   128
 43
0.0
 10
204.9666413891
 20
355.932595994
 10
204.8546768579
 20
356.4936098118
 10
204.5210640731
 20
357.0431981642
 10
203.9725933078
 20
357.5701814551
 10
203.2204301882
 20
358.0638271231
 10
202.2798865887
 20
358.5140917856
 10
201.1701095703
 20
358.9117963273
 10
199.9136902246
 20
359.2488605935
 10
198.5362063947
 20
359.5184076984
 10
197.065699505
 20
359.7149614651
 10
195.5321047076
 20
359.8345209319
 10
193.9666414487
 20
359.8746423085
 10
192.4011781898
 20
359.8345209319
 10
190.8675833925
 20
359.7149614651
 10
189.3970765027
 20
359.5184076984
 10
188.0195926729
 20
359.2488605935
 10
186.7631733271
 20
358.9117963273
 10
185.6533963087
 20
358.5140917856
 10
184.7128527093
 20
358.0638271231
 10
183.9606895897
 20
357.5701814551
 10
183.4122188243
 20
357.0431981642
 10
183.0786060396
 20
356.4936098118
 10
182.9666415083
 20
355.932595994
  0
SPLINE
  5
144
330
1F
100
AcDbEntity
  8
0
  6
Continuous
 62
     7
370
    25
100
AcDbSpline
210
0.0
220
0.0
230
1.0
 70
    24
 71
     3
 72
     8
 73
     4
 74
     0
 42
0.000000001
 43
0.00000001
 40
0.0
 40
0.0
 40
0.0
 40
0.0
 40
1.0
 40
1.0
 40
1.0
 40
1.0
 10
182.9666414487217
 20
358.1902718299618
 30
0.0
 10
182.9666414487217
 20
357.2832452198362
 30
0.0
 10
182.9666414487217
 20
356.5126219745325
 30
0.0
 10
182.9666414487217
 20
355.9325966100392
 30
0.0
  0
SPLINE
  5
145
330
1F
100
AcDbEntity
  8
0
  6
Continuous
 62
     7
370
    25
100
AcDbSpline
210
0.0
220
0.0
230
1.0
 70
    24
 71
     3
 72
     8
 73
     4
 74
     0
 42
0.000000001
 43
0.00000001
 40
0.0
 40
0.0
 40
0.0
 40
0.0
 40
1.0
 40
1.0
 40
1.0
 40
1.0
 10
204.9666414487217
 20
358.1902718299618
 30
0.0
 10
204.9666414487217
 20
357.2832452198362
 30
0.0
 10
204.9666414487217
 20
356.5126219745325
 30
0.0
 10
204.9666414487217
 20
355.9325966100392
 30
0.0
  0
LINE
  5
146
330
1F
100
AcDbEntity
  8
0
  6
Continuous
 62
     7
370
    25
100
AcDbLine
 10
205.966641553
 20
359.9048395116
 30
0.0
 11
206.0941228497
 21
360.1678822596
 31
0.0
  0
LINE
  5
147
330
1F
100
AcDbEntity
  8
0
  6
Continuous
 62
     7
370
    25
100
AcDbLine
 10
181.8433612439
 20
360.1574067433
 30
0.0
 11
181.9666413444
 21
359.9048395116
 31
0.0
  0
LWPOLYLINE
  5
148
330
1F
100
AcDbEntity
  8
0
  6
Continuous
 62
     7
370
    25
100
AcDbPolyline
 90
       23
 70
   128
 43
0.0
 10
182.9666415083
 20
355.932595994
 10
183.0786060396
 20
355.3715859015
 10
183.4122188243
 20
354.8219938237
 10
183.9606895897
 20
354.2950105328
 10
184.7128527093
 20
353.8013648648
 10
185.6533963087
 20
353.3511039276
 10
186.7631733271
 20
352.9533956606
 10
188.0195926729
 20
352.6163351197
 10
189.3970765027
 20
352.3467842896
 10
190.8675833925
 20
352.1502305228
 10
192.4011781898
 20
352.0306747813
 10
193.9666414487
 20
351.9905496795
 10
195.5321047076
 20
352.0306747813
 10
197.065699505
 20
352.1502305228
 10
198.5362063947
 20
352.3467842896
 10
199.9136902246
 20
352.6163351197
 10
201.1701095703
 20
352.9533956606
 10
202.2798865887
 20
353.3511039276
 10
203.2204301882
 20
353.8013648648
 10
203.9725933078
 20
354.2950105328
 10
204.5210640731
 20
354.8219938237
 10
204.8546768579
 20
355.3715859015
 10
204.9666413891
 20
355.932595994
  0
SPLINE
  5
149
330
1F
100
AcDbEntity
  8
0
  6
Continuous
 62
     7
370
    25
100
AcDbSpline
210
0.0
220
0.0
230
1.0
 70
     8
 71
     3
 72
    10
 73
     6
 74
     0
 42
0.000000001
 43
0.00000001
 40
0.0
 40
0.0
 40
0.0
 40
0.0
 40
0.0856775436923667
 40
0.4123798159754564
 40
1.0
 40
1.0
 40
1.0
 40
1.0
 10
173.5265118855096
 20
378.3857364613785
 30
0.0
 10
173.5312419652656
 20
378.3858295307374
 30
0.0
 10
173.5540086009002
 20
378.3862774885503
 30
0.0
 10
173.6068802870773
 20
378.3871650858887
 30
0.0
 10
173.6661749940065
 20
378.3888716257327
 30
0.0
 10
173.7042827385523
 20
378.3899683911576
 30
0.0
  0
SPLINE
  5
14A
330
1F
100
AcDbEntity
  8
0
  6
Continuous
 62
     7
370
    25
100
AcDbSpline
210
0.0
220
0.0
230
1.0
 70
     8
 71
     3
 72
     8
 73
     4
 74
     0
 42
0.000000001
 43
0.00000001
 40
0.084138999357143
 40
0.084138999357143
 40
0.084138999357143
 40
0.084138999357143
 40
0.1112997098811783
 40
0.1112997098811783
 40
0.1112997098811783
 40
0.1112997098811783
 10
172.4667464751305
 20
378.4188830167561
 30
0.0
 10
172.3135781814231
 20
378.4070322038218
 30
0.0
 10
172.1634291511987
 20
378.3950002969331
 30
0.0
 10
172.0163916600449
 20
378.3827872960901
 30
0.0
  0
SPLINE
  5
14B
330
1F
100
AcDbEntity
  8
0
  6
Continuous
 62
     7
370
    25
100
AcDbSpline
210
0.0
220
0.0
230
1.0
 70
     8
 71
     3
 72
    31
 73
    27
 74
     0
 42
0.000000001
 43
0.00000001
 40
0.0
 40
0.0
 40
0.0
 40
0.0
 40
0.1250000000000003
 40
0.1250000000000003
 40
0.1875000000000005
 40
0.1875000000000005
 40
0.2500000000000006
 40
0.2500000000000006
 40
0.3750000000000007
 40
0.3750000000000007
 40
0.4375000000000007
 40
0.4375000000000007
 40
0.5000000000000008
 40
0.5000000000000008
 40
0.6250000000000006
 40
0.6250000000000006
 40
0.6562500000000004
 40
0.6562500000000004
 40
0.6875000000000004
 40
0.6875000000000004
 40
0.7500000000000003
 40
0.8125000000000003
 40
0.8125000000000003
 40
0.8750000000000002
 40
0.8750000000000002
 40
1.0
 40
1.0
 40
1.0
 40
1.0
 10
172.4667464750279
 20
378.4188830167482
 30
0.0
 10
172.4622992797364
 20
378.4169834963572
 30
0.0
 10
172.5977651673031
 20
378.426230584899
 30
0.0
 10
173.0021896449398
 20
378.4537918109689
 30
0.0
 10
173.1707859576776
 20
378.4652225918322
 30
0.0
 10
173.5771009486725
 20
378.4917827271942
 30
0.0
 10
173.8159235842097
 20
378.5069677580752
 30
0.0
 10
174.6214261863433
 20
378.5556589972917
 30
0.0
 10
175.2797321729791
 20
378.5924429800197
 30
0.0
 10
176.447674146105
 20
378.6491656951912
 30
0.0
 10
176.8690292534675
 20
378.6684286973294
 30
0.0
 10
177.7668248913277
 20
378.7065907613345
 30
0.0
 10
178.2394038511074
 20
378.7253348576245
 30
0.0
 10
179.7260225888627
 20
378.779915516692
 30
0.0
 10
180.8082882907285
 20
378.8140858046938
 30
0.0
 10
182.2780441466372
 20
378.8525031063504
 30
0.0
 10
182.5787021660389
 20
378.8599912051623
 30
0.0
 10
183.1860784334881
 20
378.8743672198407
 30
0.0
 10
183.4931694370837
 20
378.8812669752115
 30
0.0
 10
184.4244672463457
 20
378.9010875350154
 30
0.0
 10
185.6928830392247
 20
378.9251725695402
 30
0.0
 10
187.0139110298024
 20
378.9444066159023
 30
0.0
 10
188.361630142052
 20
378.9610991760511
 30
0.0
 10
189.0520929501472
 20
378.9681988177555
 30
0.0
 10
191.1387149663896
 20
378.9852373103204
 30
0.0
 10
192.5450228397049
 20
378.9909725005313
 30
0.0
 10
193.9666532966317
 20
378.9909724684256
 30
0.0
  0
SPLINE
  5
14C
330
1F
100
AcDbEntity
  8
0
  6
Continuous
 62
     7
370
    25
100
AcDbSpline
210
0.0
220
0.0
230
1.0
 70
     8
 71
     3
 72
     8
 73
     4
 74
     0
 42
0.000000001
 43
0.00000001
 40
0.9443501450594047
 40
0.9443501450594047
 40
0.9443501450594047
 40
0.9443501450594047
 40
0.9579305282132574
 40
0.9579305282132574
 40
0.9579305282132574
 40
0.9579305282132574
 10
215.9168921433721
 20
378.3827872208396
 30
0.0
 10
215.7698543630085
 20
378.39500024751
 30
0.0
 10
215.6197050306035
 20
378.4070321794822
 30
0.0
 10
215.4665364223134
 20
378.4188830167561
 30
0.0
  0
SPLINE
  5
14D
330
1F
100
AcDbEntity
  8
0
  6
Continuous
 62
     7
370
    25
100
AcDbSpline
210
0.0
220
0.0
230
1.0
 70
     8
 71
     3
 72
    33
 73
    29
 74
     0
 42
0.000000001
 43
0.00000001
 40
0.0
 40
0.0
 40
0.0
 40
0.0
 40
0.1249999999999993
 40
0.1249999999999993
 40
0.1874999999999989
 40
0.1874999999999989
 40
0.2499999999999986
 40
0.2499999999999986
 40
0.3749999999999979
 40
0.3749999999999979
 40
0.4062499999999979
 40
0.4062499999999979
 40
0.4374999999999978
 40
0.4374999999999978
 40
0.4999999999999977
 40
0.4999999999999977
 40
0.6249999999999979
 40
0.6249999999999979
 40
0.6562499999999981
 40
0.6562499999999981
 40
0.6874999999999982
 40
0.6874999999999982
 40
0.7499999999999987
 40
0.8124999999999991
 40
0.8124999999999991
 40
0.8749999999999993
 40
0.8749999999999993
 40
1.0
 40
1.0
 40
1.0
 40
1.0
 10
193.966629572793
 20
378.9909724684255
 30
0.0
 10
195.3877260285597
 20
378.9909725005951
 30
0.0
 10
196.7860466897674
 20
378.9852426174106
 30
0.0
 10
198.8506274010626
 20
378.9684797094465
 30
0.0
 10
199.533297096935
 20
378.9615226312335
 30
0.0
 10
200.8873122278707
 20
378.9448526930821
 30
0.0
 10
201.5590569244771
 20
378.9351124884977
 30
0.0
 10
203.5127055598332
 20
378.9025058512701
 30
0.0
 10
204.7489676699711
 20
378.8760915780018
 30
0.0
 10
206.2119735837141
 20
378.8379743217047
 30
0.0
 10
206.5004215849924
 20
378.8300955693669
 30
0.0
 10
207.0688687978845
 20
378.8138468528598
 30
0.0
 10
207.3495674853379
 20
378.8054538998887
 30
0.0
 10
208.170720803031
 20
378.7798258365713
 30
0.0
 10
208.69192210745
 20
378.7621011274533
 30
0.0
 10
210.1791036452004
 20
378.7075597882579
 30
0.0
 10
211.0693946040387
 20
378.6692994731486
 30
0.0
 10
212.0521568560096
 20
378.6216693453908
 30
0.0
 10
212.2423759555786
 20
378.612145621627
 30
0.0
 10
212.6054927316087
 20
378.5934276013011
 30
0.0
 10
212.7789155656575
 20
378.584208783042
 30
0.0
 10
213.2751951568301
 20
378.5571130239002
 30
0.0
 10
213.8730438947535
 20
378.5224703569501
 30
0.0
 10
214.3447683078285
 20
378.4925135740968
 30
0.0
 10
214.7523844977885
 20
378.46589808521
 30
0.0
 10
214.9246855726986
 20
378.4542269601468
 30
0.0
 10
215.3355258447806
 20
378.4262330207864
 30
0.0
 10
215.4709835764748
 20
378.4169835139688
 30
0.0
 10
215.4665364224163
 20
378.4188830167482
 30
0.0
  0
SPLINE
  5
14E
330
1F
100
AcDbEntity
  8
0
  6
Continuous
 62
     7
370
    25
100
AcDbSpline
210
0.0
220
0.0
230
1.0
 70
    24
 71
     3
 72
    10
 73
     6
 74
     0
 42
0.000000001
 43
0.00000001
 40
0.0
 40
0.0
 40
0.0
 40
0.0
 40
0.5
 40
0.5
 40
1.0
 40
1.0
 40
1.0
 40
1.0
 10
182.9666414487217
 20
355.9325966100392
 30
0.0
 10
182.9666414487217
 20
355.643259340073
 30
0.0
 10
182.9666414487217
 20
355.3999772592816
 30
0.0
 10
182.9666414487217
 20
355.011891375785
 30
0.0
 10
182.9666414487217
 20
354.8645372153048
 30
0.0
 10
182.9666414487217
 20
354.7529272112131
 30
0.0
  0
SPLINE
  5
14F
330
1F
100
AcDbEntity
  8
0
  6
Continuous
 62
     7
370
    25
100
AcDbSpline
210
0.0
220
0.0
230
1.0
 70
    24
 71
     3
 72
    10
 73
     6
 74
     0
 42
0.000000001
 43
0.00000001
 40
0.0
 40
0.0
 40
0.0
 40
0.0
 40
0.5
 40
0.5
 40
1.0
 40
1.0
 40
1.0
 40
1.0
 10
204.9666414487217
 20
355.9325966100392
 30
0.0
 10
204.9666414487217
 20
355.643259340073
 30
0.0
 10
204.9666414487217
 20
355.3999772592816
 30
0.0
 10
204.9666414487217
 20
355.011891375785
 30
0.0
 10
204.9666414487217
 20
354.8645372153048
 30
0.0
 10
204.9666414487217
 20
354.7529272112131
 30
0.0
  0
LINE
  5
150
330
1F
100
AcDbEntity
  8
0
  6
Continuous
 62
     7
370
    25
100
AcDbLine
 10
174.1688767302
 20
414.2793555219
 30
0.0
 11
174.0613071102
 21
414.2744530399
 31
0.0
  0
LINE
  5
151
330
1F
100
AcDbEntity
  8
0
  6
Continuous
 62
     7
370
    25
100
AcDbLine
 10
213.873179056
 20
414.2743338306
 30
0.0
 11
213.7634320038
 21
414.2793629725
 31
0.0
  0
SPLINE
  5
152
330
1F
100
AcDbEntity
  8
0
  6
Continuous
 62
     7
370
    25
100
AcDbSpline
210
0.0
220
0.0
230
1.0
 70
     8
 71
     3
 72
     8
 73
     4
 74
     0
 42
0.000000001
 43
0.00000001
 40
0.0
 40
0.0
 40
0.0
 40
0.0
 40
0.9660390747218122
 40
0.9660390747218122
 40
0.9660390747218122
 40
0.9660390747218122
 10
177.3514261059933
 20
409.1427919588961
 30
0.0
 10
174.5311147233476
 20
409.144033479501
 30
0.0
 10
172.4942214934585
 20
410.3334810054
 30
0.0
 10
172.3591247263672
 20
412.8650817796106
 30
0.0
  0
SPLINE
  5
153
330
1F
100
AcDbEntity
  8
0
  6
Continuous
 62
     7
370
    25
100
AcDbSpline
210
0.0
220
0.0
230
1.0
 70
     8
 71
     3
 72
     8
 73
     4
 74
     0
 42
0.000000001
 43
0.00000001
 40
0.0
 40
0.0
 40
0.0
 40
0.0
 40
0.9660391189136345
 40
0.9660391189136345
 40
0.9660391189136345
 40
0.9660391189136345
 10
210.5818567914502
 20
409.1427919588961
 30
0.0
 10
213.4021683031121
 20
409.1440334795578
 30
0.0
 10
215.4390615903418
 20
410.3334811142234
 30
0.0
 10
215.5741581896164
 20
412.8650821270377
 30
0.0
  0
LINE
  5
154
330
1F
100
AcDbEntity
  8
0
  6
Continuous
 62
     7
370
    25
100
AcDbLine
 10
202.5762259814
 20
414.5992760021
 30
0.0
 11
202.5755824375
 21
414.6007735688
 31
0.0
  0
LINE
  5
155
330
1F
100
AcDbEntity
  8
0
  6
Continuous
 62
     7
370
    25
100
AcDbLine
 10
215.1088615733
 20
413.9174882729
 30
0.0
 11
215.0842038768
 21
413.9371280033
 31
0.0
  0
SPLINE
  5
156
330
1F
100
AcDbEntity
  8
0
  6
Continuous
 62
     7
370
    25
100
AcDbSpline
210
0.0
220
0.0
230
1.0
 70
     8
 71
     3
 72
     9
 73
     5
 74
     0
 42
0.000000001
 43
0.00000001
 40
0.0
 40
0.0
 40
0.0
 40
0.0
 40
0.770723792464079
 40
0.9999999999999999
 40
0.9999999999999999
 40
0.9999999999999999
 40
0.9999999999999999
 10
216.3030704337217
 20
412.5763614136948
 30
0.0
 10
216.3016688825756
 20
412.6069314936499
 30
0.0
 10
216.2998503956418
 20
412.6465956123055
 30
0.0
 10
216.282188403073
 20
412.6814541033646
 30
0.0
 10
216.2781389283992
 20
412.6894463259949
 30
0.0
  0
SPLINE
  5
157
330
1F
100
AcDbEntity
  8
0
  6
Continuous
 62
     7
370
    25
100
AcDbSpline
210
0.0
220
0.0
230
1.0
 70
     8
 71
     3
 72
     9
 73
     5
 74
     0
 42
0.000000001
 43
0.00000001
 40
0.0
 40
0.0
 40
0.0
 40
0.0
 40
0.7448496391192352
 40
1.0
 40
1.0
 40
1.0
 40
1.0
 10
171.6301584470131
 20
412.5763837654366
 30
0.0
 10
171.6316267072609
 20
412.606727579273
 30
0.0
 10
171.6335979242297
 20
412.6474657527818
 30
0.0
 10
171.6518696119622
 20
412.6832749320575
 30
0.0
 10
171.656531639681
 20
412.6924116570725
 30
0.0
  0
ARC
  5
158
330
1F
100
AcDbEntity
  8
0
  6
Continuous
 62
     7
370
    25
100
AcDbCircle
 10
215.8009097597
 20
376.9876762157
 30
0.0
 40
1.399922592269978
100
AcDbArc
 50
0.4697499879
 51
85.2476549622
  0
LINE
  5
159
330
1F
100
AcDbEntity
  8
0
  6
Continuous
 62
     7
370
    25
100
AcDbLine
 10
216.7493173706
 20
400.9625379402
 30
0.0
 11
216.5962116647
 21
404.7762517292
 31
0.0
  0
LINE
  5
15A
330
1F
100
AcDbEntity
  8
0
  6
Continuous
 62
     7
370
    25
100
AcDbLine
 10
171.1839655268
 20
400.9625379402
 30
0.0
 11
171.2377866584
 21
402.3031879623
 31
0.0
  0
CIRCLE
  5
15B
330
1F
100
AcDbEntity
  8
0
  6
Continuous
 62
     7
370
    25
100
AcDbCircle
 10
193.9666414487
 20
393.6239755037
 30
0.0
 40
3.569682227408581
  0
ARC
  5
15C
330
1F
100
AcDbEntity
  8
0
  6
Continuous
 62
     7
370
    25
100
AcDbCircle
 10
193.9666414487
 20
393.6239755037
 30
0.0
 40
3.999999999999996
100
AcDbArc
 50
112.047137569
 51
247.8534622059
  0
SPLINE
  5
15D
330
1F
100
AcDbEntity
  8
0
  6
Continuous
 62
     7
370
    25
100
AcDbSpline
210
0.0
220
0.0
230
1.0
 70
     8
 71
     3
 72
    10
 73
     6
 74
     0
 42
0.000000001
 43
0.00000001
 40
0.0
 40
0.0
 40
0.0
 40
0.0
 40
0.5
 40
0.5
 40
1.0
 40
1.0
 40
1.0
 40
1.0
 10
192.4651643844368
 20
397.3314769029431
 30
0.0
 10
192.948399395814
 20
397.5145612273518
 30
0.0
 10
193.4495834157987
 20
397.605826756725
 30
0.0
 10
194.4845185589582
 20
397.6057271878344
 30
0.0
 10
194.9848834994498
 20
397.5145612281762
 30
0.0
 10
195.4681185130071
 20
397.3314769029405
 30
0.0
  0
ARC
  5
15E
330
1F
100
AcDbEntity
  8
0
  6
Continuous
 62
     7
370
    25
100
AcDbCircle
 10
193.9666414487
 20
393.6239755037
 30
0.0
 40
4.0
100
AcDbArc
 50
292.1465377942
 51
67.952862431
  0
SPLINE
  5
15F
330
1F
100
AcDbEntity
  8
0
  6
Continuous
 62
     7
370
    25
100
AcDbSpline
210
0.0
220
0.0
230
1.0
 70
     8
 71
     3
 72
    10
 73
     6
 74
     0
 42
0.000000001
 43
0.00000001
 40
0.0
 40
0.0
 40
0.0
 40
0.0
 40
0.5
 40
0.5
 40
1.0
 40
1.0
 40
1.0
 40
1.0
 10
195.474548250599
 20
389.9190845367633
 30
0.0
 10
194.9894129410574
 20
389.7342633560897
 30
0.0
 10
194.4856817648053
 20
389.6420948418041
 30
0.0
 10
193.4463041134883
 20
389.6422532878743
 30
0.0
 10
192.9438699580464
 20
389.7342633554557
 30
0.0
 10
192.458734646845
 20
389.9190845367607
 30
0.0
  0
SPLINE
  5
160
330
1F
100
AcDbEntity
  8
0
  6
Continuous
 62
     7
370
    25
100
AcDbSpline
210
0.0
220
0.0
230
1.0
 70
    24
 71
     3
 72
    17
 73
    13
 74
     0
 42
0.000000001
 43
0.00000001
 40
0.0
 40
0.0
 40
0.0
 40
0.0
 40
0.1052300075705334
 40
0.2134992359735374
 40
0.3187296008285155
 40
0.4269997422007215
 40
0.5323296596511068
 40
0.6407086035943336
 40
0.7460370243193818
 40
0.854414945727286
 40
0.9597570724269062
 40
1.0
 40
1.0
 40
1.0
 40
1.0
 10
193.9666413476747
 20
295.764072652556
 30
0.0
 10
195.2920809765085
 20
295.764072652556
 30
0.0
 10
197.9812411753748
 20
295.764072652556
 30
0.0
 10
201.8850396699862
 20
295.764072652556
 30
0.0
 10
205.5972640644638
 20
295.7640726525559
 30
0.0
 10
208.9511570257549
 20
295.764072652556
 30
0.0
 10
211.907431212649
 20
295.7640726525559
 30
0.0
 10
214.3315691377939
 20
295.764072652556
 30
0.0
 10
216.2037646673061
 20
295.7640726525559
 30
0.0
 10
217.3929059395887
 20
295.7640726525559
 30
0.0
 10
217.9327405433968
 20
295.7640726525559
 30
0.0
 10
217.860937899288
 20
295.7640726525559
 30
0.0
 10
217.8410900610544
 20
295.7640726525559
 30
0.0
  0
SPLINE
  5
161
330
1F
100
AcDbEntity
  8
0
  6
Continuous
 62
     7
370
    25
100
AcDbSpline
210
0.0
220
0.0
230
1.0
 70
    24
 71
     3
 72
    17
 73
    13
 74
     0
 42
0.000000001
 43
0.00000001
 40
0.0
 40
0.0
 40
0.0
 40
0.0
 40
0.0086458545561571
 40
0.1198769593038188
 40
0.2313239357476359
 40
0.3463969792357549
 40
0.4518241373092834
 40
0.5603090247905497
 40
0.6656408944121558
 40
0.7740218561628679
 40
0.8852058927058732
 40
1.0
 40
1.0
 40
1.0
 40
1.0
 10
170.0401170033075
 20
295.7640726525559
 30
0.0
 10
170.0323066373029
 20
295.7640726525559
 30
0.0
 10
169.9240139379985
 20
295.7640726525559
 30
0.0
 10
170.3469352065455
 20
295.764072652556
 30
0.0
 10
171.4262558188289
 20
295.7640726525559
 30
0.0
 10
173.2591487983347
 20
295.764072652556
 30
0.0
 10
175.6801181556148
 20
295.7640726525559
 30
0.0
 10
178.549457375143
 20
295.764072652556
 30
0.0
 10
181.8857190870127
 20
295.764072652556
 30
0.0
 10
185.59690756013
 20
295.764072652556
 30
0.0
 10
189.6736327048961
 20
295.764072652556
 30
0.0
 10
192.5204788521992
 20
295.764072652556
 30
0.0
 10
193.9666415497693
 20
295.764072652556
 30
0.0
  0
SPLINE
  5
162
330
1F
100
AcDbEntity
  8
0
  6
Continuous
 62
     7
370
    25
100
AcDbSpline
210
0.0
220
0.0
230
1.0
 70
    24
 71
     3
 72
    26
 73
    22
 74
     0
 42
0.000000001
 43
0.00000001
 40
0.2294549521418066
 40
0.2294549521418066
 40
0.2294549521418066
 40
0.2294549521418066
 40
0.2499769504868403
 40
0.2499769504868403
 40
0.3124769504868403
 40
0.3124769504868403
 40
0.3749769504868403
 40
0.3749769504868403
 40
0.4374769504868403
 40
0.4374769504868403
 40
0.4999769504868403
 40
0.4999769504868403
 40
0.5624769504868403
 40
0.5624769504868403
 40
0.6249769504868403
 40
0.6249769504868403
 40
0.6874769504868403
 40
0.6874769504868403
 40
0.7499769504868403
 40
0.7499769504868403
 40
0.7705219983450335
 40
0.7705219983450335
 40
0.7705219983450335
 40
0.7705219983450335
 10
211.47189434278
 20
381.5239755036938
 30
0.0
 10
211.1830192722607
 20
381.5239755036938
 30
0.0
 10
210.8807366336346
 20
381.5239755036938
 30
0.0
 10
209.6025488102442
 20
381.5239755036938
 30
0.0
 10
208.5131660967139
 20
381.5239755036938
 30
0.0
 10
206.0930586140603
 20
381.5239755036938
 30
0.0
 10
204.7621757321594
 20
381.5239755036938
 30
0.0
 10
201.907645342222
 20
381.5239755036938
 30
0.0
 10
200.3842242684356
 20
381.5239755036939
 30
0.0
 10
197.2291305803365
 20
381.5239755036939
 30
0.0
 10
195.5980869398881
 20
381.5239755036938
 30
0.0
 10
192.3351959575558
 20
381.5239755036938
 30
0.0
 10
190.7041523171074
 20
381.5239755036938
 30
0.0
 10
187.5490586290083
 20
381.5239755036939
 30
0.0
 10
186.0256375552219
 20
381.5239755036938
 30
0.0
 10
183.1711071652844
 20
381.5239755036938
 30
0.0
 10
181.8402242833836
 20
381.5239755036937
 30
0.0
 10
179.4201168007301
 20
381.5239755036938
 30
0.0
 10
178.3307340871997
 20
381.5239755036938
 30
0.0
 10
177.0521913987418
 20
381.5239755036937
 30
0.0
 10
176.7495846181391
 20
381.5239755036937
 30
0.0
 10
176.4604152455548
 20
381.5239755036937
 30
0.0
  0
SPLINE
  5
163
330
1F
100
AcDbEntity
  8
0
  6
Continuous
 62
     7
370
    25
100
AcDbSpline
210
0.0
220
0.0
230
1.0
 70
     8
 71
     3
 72
     8
 73
     4
 74
     0
 42
0.000000001
 43
0.00000001
 40
0.0
 40
0.0
 40
0.0
 40
0.0
 40
1.0
 40
1.0
 40
1.0
 40
1.0
 10
217.1621303114052
 20
383.8908294219306
 30
0.0
 10
217.1572591595495
 20
383.704728722816
 30
0.0
 10
217.1358935830619
 20
383.5188504165878
 30
0.0
 10
217.097857305689
 20
383.3331968801165
 30
0.0
  0
SPLINE
  5
164
330
1F
100
AcDbEntity
  8
0
  6
Continuous
 62
     7
370
    25
100
AcDbSpline
210
0.0
220
0.0
230
1.0
 70
     8
 71
     3
 72
    16
 73
    12
 74
     0
 42
0.000000001
 43
0.00000001
 40
0.0
 40
0.0
 40
0.0
 40
0.0
 40
0.2500000000000004
 40
0.2500000000000004
 40
0.3750000000000006
 40
0.3750000000000006
 40
0.5000000000000008
 40
0.5000000000000008
 40
0.7500000000000004
 40
0.7500000000000004
 40
1.0
 40
1.0
 40
1.0
 40
1.0
 10
217.097857305689
 20
383.3331968801165
 30
0.0
 10
217.0331134908807
 20
383.0171849301038
 30
0.0
 10
216.9193007783124
 20
382.7450378364226
 30
0.0
 10
216.6722271805202
 20
382.3990345398216
 30
0.0
 10
216.5771420303107
 20
382.2940855631569
 30
0.0
 10
216.3608037464244
 20
382.1045405889966
 30
0.0
 10
216.2394995305706
 20
382.0200810006735
 30
0.0
 10
215.8408480164397
 20
381.7991647689619
 30
0.0
 10
215.5276275513644
 20
381.693735522539
 30
0.0
 10
214.8043471359487
 20
381.5561098884007
 30
0.0
 10
214.3942764917124
 20
381.5239755036938
 30
0.0
 10
213.9311323986231
 20
381.5239755036938
 30
0.0
  0
SPLINE
  5
165
330
1F
100
AcDbEntity
  8
0
  6
Continuous
 62
     7
370
    25
100
AcDbSpline
210
0.0
220
0.0
230
1.0
 70
    24
 71
     3
 72
     8
 73
     4
 74
     0
 42
0.000000001
 43
0.00000001
 40
0.0
 40
0.0
 40
0.0
 40
0.0
 40
1.0
 40
1.0
 40
1.0
 40
1.0
 10
213.9311323986231
 20
381.5239755036937
 30
0.0
 10
213.2194357208238
 20
381.5239755036937
 30
0.0
 10
212.4003134295012
 20
381.5239755036938
 30
0.0
 10
211.471914710838
 20
381.5239755036938
 30
0.0
  0
SPLINE
  5
166
330
1F
100
AcDbEntity
  8
0
  6
Continuous
 62
     7
370
    25
100
AcDbSpline
210
0.0
220
0.0
230
1.0
 70
     8
 71
     3
 72
    14
 73
    10
 74
     0
 42
0.000000001
 43
0.00000001
 40
0.0
 40
0.0
 40
0.0
 40
0.0
 40
0.2500000000000001
 40
0.2500000000000001
 40
0.3749999999999998
 40
0.3749999999999998
 40
0.4999999999999997
 40
0.4999999999999997
 40
1.0
 40
1.0
 40
1.0
 40
1.0
 10
174.0021504988209
 20
381.5239755036938
 30
0.0
 10
173.5388811805481
 20
381.5239755036939
 30
0.0
 10
173.1271488649785
 20
381.5561112080263
 30
0.0
 10
172.5813882069445
 20
381.6604692561987
 30
0.0
 10
172.4114921959989
 20
381.704619378602
 30
0.0
 10
172.0955088288781
 20
381.8131215954048
 30
0.0
 10
171.9497244744209
 20
381.8774853323702
 30
0.0
 10
171.2884376703146
 20
382.2478987780331
 30
0.0
 10
170.9649350110086
 20
382.7010666257515
 30
0.0
 10
170.835425591755
 20
383.3331968801166
 30
0.0
  0
SPLINE
  5
167
330
1F
100
AcDbEntity
  8
0
  6
Continuous
 62
     7
370
    25
100
AcDbSpline
210
0.0
220
0.0
230
1.0
 70
     8
 71
     3
 72
     8
 73
     4
 74
     0
 42
0.000000001
 43
0.00000001
 40
0.0
 40
0.0
 40
0.0
 40
0.0
 40
1.0
 40
1.0
 40
1.0
 40
1.0
 10
170.8354255917551
 20
383.3331968801166
 30
0.0
 10
170.7973893143819
 20
383.5188504165896
 30
0.0
 10
170.7760237378935
 20
383.7047287227567
 30
0.0
 10
170.7711525860377
 20
383.8908294218731
 30
0.0
  0
SPLINE
  5
168
330
1F
100
AcDbEntity
  8
0
  6
Continuous
 62
     7
370
    25
100
AcDbSpline
210
0.0
220
0.0
230
1.0
 70
    24
 71
     3
 72
     8
 73
     4
 74
     0
 42
0.000000001
 43
0.00000001
 40
0.0
 40
0.0
 40
0.0
 40
0.0
 40
1.0
 40
1.0
 40
1.0
 40
1.0
 10
176.4613681866059
 20
381.5239755036938
 30
0.0
 10
175.5327948762026
 20
381.5239755036938
 30
0.0
 10
174.7137141469784
 20
381.5239755036937
 30
0.0
 10
174.0021504988209
 20
381.5239755036937
 30
0.0
  0
SPLINE
  5
169
330
1F
100
AcDbEntity
  8
0
  6
Continuous
 62
     7
370
    25
100
AcDbSpline
210
0.0
220
0.0
230
1.0
 70
     8
 71
     3
 72
    14
 73
    10
 74
     0
 42
0.000000001
 43
0.00000001
 40
0.0
 40
0.0
 40
0.0
 40
0.0
 40
0.25
 40
0.25
 40
0.5
 40
0.5
 40
0.75
 40
0.75
 40
1.0
 40
1.0
 40
1.0
 40
1.0
 10
170.7313454215198
 20
376.9995572861176
 30
0.0
 10
170.7328260210206
 20
377.1721368245856
 30
0.0
 10
170.7665741341501
 20
377.3443853589127
 30
0.0
 10
170.8940819613727
 20
377.6651352113072
 30
0.0
 10
170.9878021776245
 20
377.8135371768998
 30
0.0
 10
171.2226141709286
 20
378.0665059822001
 30
0.0
 10
171.3636332126338
 20
378.1709944649576
 30
0.0
 10
171.673997235361
 20
378.321975803591
 30
0.0
 10
171.8432460788589
 20
378.3684218934159
 30
0.0
 10
172.0152199679563
 20
378.3827110105597
 30
0.0
  0
SPLINE
  5
16A
330
1F
100
AcDbEntity
  8
0
  6
Continuous
 62
     7
370
    25
100
AcDbSpline
210
0.0
220
0.0
230
1.0
 70
     8
 71
     3
 72
    11
 73
     7
 74
     0
 42
0.000000001
 43
0.00000001
 40
0.0
 40
0.0
 40
0.0
 40
0.0
 40
0.3056671533578795
 40
0.6113292528095935
 40
0.916994235130713
 40
1.0
 40
1.0
 40
1.0
 40
1.0
 10
217.2010572481014
 20
376.9995484907403
 30
0.0
 10
217.1811999556199
 20
377.1726129792273
 30
0.0
 10
217.1414856989776
 20
377.5187390947501
 30
0.0
 10
216.8460223784546
 20
377.9529499799431
 30
0.0
 10
216.5381820940399
 20
378.2217397855708
 30
0.0
 10
216.3249850061867
 20
378.272483739737
 30
0.0
 10
216.2794539558746
 20
378.2833207804932
 30
0.0
  0
SPLINE
  5
16B
330
1F
100
AcDbEntity
  8
0
  6
Continuous
 62
     8
370
    18
100
AcDbSpline
210
0.0
220
0.0
230
1.0
 70
     8
 71
     3
 72
    36
 73
    32
 74
     0
 42
0.000000001
 43
0.00000001
 40
0.0
 40
0.0
 40
0.0
 40
0.0
 40
0.0625000000000007
 40
0.0625000000000007
 40
0.1250000000000014
 40
0.1250000000000014
 40
0.1875000000000021
 40
0.1875000000000021
 40
0.2500000000000027
 40
0.2500000000000027
 40
0.3125000000000034
 40
0.3125000000000034
 40
0.3437500000000028
 40
0.3437500000000028
 40
0.3750000000000023
 40
0.3750000000000023
 40
0.4375000000000031
 40
0.4375000000000031
 40
0.4687500000000028
 40
0.4687500000000028
 40
0.5000000000000026
 40
0.5000000000000026
 40
0.5625000000000021
 40
0.5625000000000021
 40
0.6250000000000017
 40
0.6250000000000017
 40
0.7500000000000011
 40
0.7500000000000011
 40
0.8750000000000007
 40
0.8750000000000007
 40
1.0
 40
1.0
 40
1.0
 40
1.0
 10
173.7038305794999
 20
378.3907923954716
 30
0.0
 10
173.7158560640192
 20
378.391339733011
 30
0.0
 10
173.7297687389323
 20
378.3920328471694
 30
0.0
 10
173.7667268814724
 20
378.3931004107865
 30
0.0
 10
173.7898377107443
 20
378.3934784209051
 30
0.0
 10
173.8574921541426
 20
378.3938798034731
 30
0.0
 10
173.902093994675
 20
378.3939108244952
 30
0.0
 10
174.0301032360078
 20
378.393989772181
 30
0.0
 10
174.1146896153083
 20
378.394065651685
 30
0.0
 10
174.3380369335329
 20
378.3946771155202
 30
0.0
 10
174.4758504544231
 20
378.3951827217598
 30
0.0
 10
174.724757852183
 20
378.3962991991224
 30
0.0
 10
174.814722036097
 20
378.3967386786704
 30
0.0
 10
175.0091869189281
 20
378.3977845224892
 30
0.0
 10
175.1141404223827
 20
378.3983936321502
 30
0.0
 10
175.4457908749444
 20
378.4004743793838
 30
0.0
 10
175.6903965917162
 20
378.4022064058549
 30
0.0
 10
176.0933829157907
 20
378.4054249912265
 30
0.0
 10
176.2337427856717
 20
378.4066001957098
 30
0.0
 10
176.5266029764495
 20
378.4091338703262
 30
0.0
 10
176.6797232891104
 20
378.41049773592
 30
0.0
 10
177.1488167671938
 20
378.4147040161553
 30
0.0
 10
177.4762384397362
 20
378.4176691002519
 30
0.0
 10
178.1570803991606
 20
378.4233653002565
 30
0.0
 10
178.5136014043955
 20
378.4261030108167
 30
0.0
 10
179.5950763657567
 20
378.4333442344229
 30
0.0
 10
180.3311477486332
 20
378.4372533588265
 30
0.0
 10
181.8148499550636
 20
378.4425645692245
 30
0.0
 10
182.5626407696963
 20
378.4437334129289
 30
0.0
 10
184.0589166647863
 20
378.4434464628952
 30
0.0
 10
184.8069926216172
 20
378.4421530122009
 30
0.0
 10
185.5560227066281
 20
378.4410933554555
 30
0.0
  0
SPLINE
  5
16C
330
1F
100
AcDbEntity
  8
0
  6
Continuous
 62
     8
370
    18
100
AcDbSpline
210
0.0
220
0.0
230
1.0
 70
     8
 71
     3
 72
    28
 73
    24
 74
     0
 42
0.000000001
 43
0.00000001
 40
0.0
 40
0.0
 40
0.0
 40
0.0
 40
0.1249999999999999
 40
0.1249999999999999
 40
0.2499999999999999
 40
0.2499999999999999
 40
0.3749999999999998
 40
0.3749999999999998
 40
0.4999999999999993
 40
0.4999999999999993
 40
0.6249999999999989
 40
0.6249999999999989
 40
0.6562499999999989
 40
0.6562499999999989
 40
0.687499999999999
 40
0.687499999999999
 40
0.7499999999999992
 40
0.7499999999999992
 40
0.8124999999999994
 40
0.8124999999999994
 40
0.8749999999999996
 40
0.8749999999999996
 40
1.0
 40
1.0
 40
1.0
 40
1.0
 10
185.5248100838135
 20
376.514688316985
 30
0.0
 10
184.6970209970486
 20
376.5184448873336
 30
0.0
 10
183.869387484912
 20
376.5221163736991
 30
0.0
 10
182.2150015604269
 20
376.5194414604001
 30
0.0
 10
181.3890958829798
 20
376.5122094460771
 30
0.0
 10
179.7525839596728
 20
376.5024999768746
 30
0.0
 10
178.942186166911
 20
376.5002013679948
 30
0.0
 10
177.3552596916996
 20
376.5193920579671
 30
0.0
 10
176.6125380763317
 20
376.5319502371223
 30
0.0
 10
175.2474607696786
 20
376.570800287267
 30
0.0
 10
174.6601825137298
 20
376.5985631215121
 30
0.0
 10
174.0476003641165
 20
376.6399850772656
 30
0.0
 10
173.9309435867842
 20
376.6484979524152
 30
0.0
 10
173.7138691651924
 20
376.6654633392316
 30
0.0
 10
173.6128995064489
 20
376.6739506313887
 30
0.0
 10
173.3319697214961
 20
376.6993437973373
 30
0.0
 10
173.174089625297
 20
376.7161675808726
 30
0.0
 10
172.913847113729
 20
376.749990261569
 30
0.0
 10
172.8120295049595
 20
376.7672647413688
 30
0.0
 10
172.6571327839015
 20
376.7996757681743
 30
0.0
 10
172.6026477311501
 20
376.8145901375194
 30
0.0
 10
172.4802033198888
 20
376.8534564080708
 30
0.0
 10
172.4490285711824
 20
376.8711931955471
 30
0.0
 10
172.4217502932624
 20
376.8820601738935
 30
0.0
  0
SPLINE
  5
16D
330
1F
100
AcDbEntity
  8
0
  6
Continuous
 62
     8
370
    18
100
AcDbSpline
210
0.0
220
0.0
230
1.0
 70
     8
 71
     3
 72
    14
 73
    10
 74
     0
 42
0.000000001
 43
0.00000001
 40
0.0
 40
0.0
 40
0.0
 40
0.0
 40
0.25
 40
0.25
 40
0.5
 40
0.5
 40
0.75
 40
0.75
 40
1.0
 40
1.0
 40
1.0
 40
1.0
 10
172.4217506208921
 20
376.8820601744274
 30
0.0
 10
172.4070364539721
 20
377.0647107793602
 30
0.0
 10
172.4286233966652
 20
377.2502147712723
 30
0.0
 10
172.541146373354
 20
377.5989742866383
 30
0.0
 10
172.6320381508523
 20
377.7620926392225
 30
0.0
 10
172.8693849957725
 20
378.0412247823822
 30
0.0
 10
173.0157467121266
 20
378.1571287872827
 30
0.0
 10
173.3417901869978
 20
378.324146060873
 30
0.0
 10
173.5213437091084
 20
378.3751936398725
 30
0.0
 10
173.7038997592303
 20
378.3899337547778
 30
0.0
  0
SPLINE
  5
16E
330
1F
100
AcDbEntity
  8
0
  6
Continuous
 62
     8
370
    18
100
AcDbSpline
210
0.0
220
0.0
230
1.0
 70
     8
 71
     3
 72
    30
 73
    26
 74
     0
 42
0.000000001
 43
0.00000001
 40
0.0
 40
0.0
 40
0.0
 40
0.0
 40
0.1250000000000004
 40
0.1250000000000004
 40
0.2500000000000008
 40
0.2500000000000008
 40
0.3750000000000012
 40
0.3750000000000012
 40
0.4375000000000011
 40
0.4375000000000011
 40
0.500000000000001
 40
0.500000000000001
 40
0.5625000000000009
 40
0.5625000000000009
 40
0.6250000000000008
 40
0.6250000000000008
 40
0.6875000000000007
 40
0.6875000000000007
 40
0.7500000000000004
 40
0.7500000000000004
 40
0.8750000000000002
 40
0.8750000000000002
 40
0.9375000000000001
 40
0.9375000000000001
 40
1.0
 40
1.0
 40
1.0
 40
1.0
 10
202.3772601908152
 20
378.4410933554555
 30
0.0
 10
203.1270543037835
 20
378.4421540926629
 30
0.0
 10
203.8780137243222
 20
378.4434523280887
 30
0.0
 10
205.3771090430784
 20
378.4437294524807
 30
0.0
 10
206.126151462537
 20
378.4425519237573
 30
0.0
 10
207.6189454555059
 20
378.4371779500756
 30
0.0
 10
208.3690610393728
 20
378.4331653552222
 30
0.0
 10
209.4428227635311
 20
378.4259334490303
 30
0.0
 10
209.7926429189774
 20
378.423234825231
 30
0.0
 10
210.4744753127519
 20
378.417515833367
 30
0.0
 10
210.8036321064154
 20
378.414531142225
 30
0.0
 10
211.4197858923479
 20
378.4090082774226
 30
0.0
 10
211.7090999120148
 20
378.4064676717551
 30
0.0
 10
212.2470299416094
 20
378.4021753380824
 30
0.0
 10
212.4958311805129
 20
378.4004184872232
 30
0.0
 10
212.9337951389555
 20
378.3976779868113
 30
0.0
 10
213.1260501009873
 20
378.3966686910026
 30
0.0
 10
213.4585241430892
 20
378.3951782776319
 30
0.0
 10
213.597972084713
 20
378.3946684263846
 30
0.0
 10
213.9294055910318
 20
378.3937647550596
 30
0.0
 10
214.0409507179674
 20
378.3940820975396
 30
0.0
 10
214.1432003439377
 20
378.3934820522899
 30
0.0
 10
214.1663994035497
 20
378.3931039607266
 30
0.0
 10
214.203475550602
 20
378.3920349311991
 30
0.0
 10
214.2174145653365
 20
378.3913402914546
 30
0.0
 10
214.2294523179436
 20
378.3907923954716
 30
0.0
  0
SPLINE
  5
16F
330
1F
100
AcDbEntity
  8
0
  6
Continuous
 62
     8
370
    18
100
AcDbSpline
210
0.0
220
0.0
230
1.0
 70
     8
 71
     3
 72
    14
 73
    10
 74
     0
 42
0.000000001
 43
0.00000001
 40
0.0
 40
0.0
 40
0.0
 40
0.0
 40
0.25
 40
0.25
 40
0.5
 40
0.5
 40
0.75
 40
0.75
 40
1.0
 40
1.0
 40
1.0
 40
1.0
 10
215.511541669296
 20
376.882063785102
 30
0.0
 10
215.526373463279
 20
377.0647765899094
 30
0.0
 10
215.5048772078003
 20
377.2503672111715
 30
0.0
 10
215.3924705358777
 20
377.5993144590719
 30
0.0
 10
215.3016043990292
 20
377.7625336275448
 30
0.0
 10
215.0642503963814
 20
378.041847352234
 30
0.0
 10
214.9178560297279
 20
378.1578318805298
 30
0.0
 10
214.5917108602018
 20
378.3249642050707
 30
0.0
 10
214.4120885332848
 20
378.3760461641949
 30
0.0
 10
214.2294612276866
 20
378.3907919900497
 30
0.0
  0
SPLINE
  5
170
330
1F
100
AcDbEntity
  8
0
  6
Continuous
 62
     8
370
    18
100
AcDbSpline
210
0.0
220
0.0
230
1.0
 70
     8
 71
     3
 72
    34
 73
    30
 74
     0
 42
0.000000001
 43
0.00000001
 40
0.0
 40
0.0
 40
0.0
 40
0.0
 40
0.0625000000000028
 40
0.0625000000000028
 40
0.1250000000000056
 40
0.1250000000000056
 40
0.2500000000000091
 40
0.2500000000000091
 40
0.3125000000000099
 40
0.3125000000000099
 40
0.3750000000000105
 40
0.3750000000000105
 40
0.4062500000000101
 40
0.4062500000000101
 40
0.4375000000000096
 40
0.4375000000000096
 40
0.5000000000000082
 40
0.5000000000000082
 40
0.5625000000000069
 40
0.5625000000000069
 40
0.6250000000000056
 40
0.6250000000000056
 40
0.6875000000000044
 40
0.6875000000000044
 40
0.7500000000000033
 40
0.7500000000000033
 40
0.8750000000000017
 40
0.8750000000000017
 40
1.0
 40
1.0
 40
1.0
 40
1.0
 10
215.511532604181
 20
376.8820601738935
 30
0.0
 10
215.4978653425666
 20
376.8766154813636
 30
0.0
 10
215.4822210558309
 20
376.8695211515401
 30
0.0
 10
215.4392771829917
 20
376.851403363151
 30
0.0
 10
215.4118316822789
 20
376.8403301010251
 30
0.0
 10
215.2881903002688
 20
376.8011851466272
 30
0.0
 10
215.1491544342826
 20
376.7668981157036
 30
0.0
 10
214.7613474654057
 20
376.7164233172551
 30
0.0
 10
214.6009486801126
 20
376.6993027661998
 30
0.0
 10
214.2253423277323
 20
376.6653680183246
 30
0.0
 10
214.0103572091624
 20
376.6484469419447
 30
0.0
 10
213.6465564972343
 20
376.6238003879582
 30
0.0
 10
213.5183651199035
 20
376.6156860016632
 30
0.0
 10
213.2476735738036
 20
376.6001971522844
 30
0.0
 10
213.104729260574
 20
376.5928269823792
 30
0.0
 10
212.6622769031348
 20
376.5724888541965
 30
0.0
 10
212.3468008441806
 20
376.5611911797805
 30
0.0
 10
211.6773492481382
 20
376.5420607812844
 30
0.0
 10
211.3234554024536
 20
376.5341352409238
 30
0.0
 10
210.5789529029224
 20
376.5204033983176
 30
0.0
 10
210.1948876849119
 20
376.5147879197303
 30
0.0
 10
209.4120475069661
 20
376.505264175225
 30
0.0
 10
209.0121187520076
 20
376.503287181334
 30
0.0
 10
208.1990106232032
 20
376.5031887657989
 30
0.0
 10
207.7863767710302
 20
376.5048570695163
 30
0.0
 10
206.5505798779172
 20
376.5121371338757
 30
0.0
 10
205.7232202570209
 20
376.5194180908663
 30
0.0
 10
204.0669435858069
 20
376.5221267551935
 30
0.0
 10
203.2378683425617
 20
376.5184521774912
 30
0.0
 10
202.4084728136297
 20
376.5146883169849
 30
0.0
  0
SPLINE
  5
171
330
1F
100
AcDbEntity
  8
0
  6
Continuous
 62
     8
370
    18
100
AcDbSpline
210
0.0
220
0.0
230
1.0
 70
     8
 71
     3
 72
    10
 73
     6
 74
     0
 42
0.000000001
 43
0.00000001
 40
0.0
 40
0.0
 40
0.0
 40
0.0
 40
0.5
 40
0.5
 40
1.0
 40
1.0
 40
1.0
 40
1.0
 10
202.4084644677297
 20
376.5146702498333
 30
0.0
 10
201.0017811361559
 20
376.5082947668441
 30
0.0
 10
199.5948027551397
 20
376.4999343152773
 30
0.0
 10
196.780841455758
 20
376.4847567399353
 30
0.0
 10
195.3738202692346
 20
376.4792126659818
 30
0.0
 10
193.9667913094007
 20
376.4788651251003
 30
0.0
  0
SPLINE
  5
172
330
1F
100
AcDbEntity
  8
0
  6
Continuous
 62
     8
370
    18
100
AcDbSpline
210
0.0
220
0.0
230
1.0
 70
     8
 71
     3
 72
    14
 73
    10
 74
     0
 42
0.000000001
 43
0.00000001
 40
0.0
 40
0.0
 40
0.0
 40
0.0
 40
0.25
 40
0.25
 40
0.5
 40
0.5
 40
0.75
 40
0.75
 40
1.0
 40
1.0
 40
1.0
 40
1.0
 10
215.826710553777
 20
376.9606930953354
 30
0.0
 10
215.8060645079978
 20
376.9587540330152
 30
0.0
 10
215.7840962030808
 20
376.956689436276
 30
0.0
 10
215.7360816864516
 20
376.947629712471
 30
0.0
 10
215.7101218586437
 20
376.9419321101084
 30
0.0
 10
215.6566528375679
 20
376.9296736114613
 30
0.0
 10
215.6303516193783
 20
376.9219978361089
 30
0.0
 10
215.5807714429453
 20
376.9057102190952
 30
0.0
 10
215.5579546462214
 20
376.8996951452896
 30
0.0
 10
215.5114694310305
 20
376.8811740045741
 30
0.0
  0
SPLINE
  5
173
330
1F
100
AcDbEntity
  8
0
  6
Continuous
 62
     8
370
    18
100
AcDbSpline
210
0.0
220
0.0
230
1.0
 70
     8
 71
     3
 72
    17
 73
    13
 74
     0
 42
0.000000001
 43
0.00000001
 40
0.0
 40
0.0
 40
0.0
 40
0.0
 40
0.0054250441974621
 40
0.1007817444989876
 40
0.1961858137483499
 40
0.291517206780009
 40
0.3868562798407721
 40
0.4822232992886938
 40
0.5775474243661305
 40
0.6729408720097146
 40
0.8363715046162281
 40
1.0
 40
1.0
 40
1.0
 40
1.0
 10
204.9666413891174
 20
357.4714128334298
 30
0.0
 10
205.0071884347846
 20
357.4860068352586
 30
0.0
 10
205.7604361223383
 20
357.7571214861262
 30
0.0
 10
207.1434145027134
 20
358.4960026595517
 30
0.0
 10
209.0517769854198
 20
359.7338430491153
 30
0.0
 10
210.7566093984762
 20
361.2517258002326
 30
0.0
 10
212.2136075196944
 20
363.0053776758027
 30
0.0
 10
213.3979603587059
 20
364.953339774627
 30
0.0
 10
214.3057537985282
 20
367.0433670736667
 30
0.0
 10
215.116986166307
 20
369.7415156388146
 30
0.0
 10
215.6759494106556
 20
373.0641779082994
 30
0.0
 10
215.7763729641364
 20
375.6614207622068
 30
0.0
 10
215.8266151177742
 20
376.9608278233781
 30
0.0
  0
SPLINE
  5
174
330
1F
100
AcDbEntity
  8
0
  6
Continuous
 62
     8
370
    18
100
AcDbSpline
210
0.0
220
0.0
230
1.0
 70
     8
 71
     3
 72
    14
 73
    10
 74
     0
 42
0.000000001
 43
0.00000001
 40
0.0
 40
0.0
 40
0.0
 40
0.0
 40
0.25
 40
0.25
 40
0.5
 40
0.5
 40
0.75
 40
0.75
 40
1.0
 40
1.0
 40
1.0
 40
1.0
 10
172.4218134664128
 20
376.8811740045741
 30
0.0
 10
172.375328251222
 20
376.8996951452894
 30
0.0
 10
172.3525114544981
 20
376.9057102190953
 30
0.0
 10
172.3029312780651
 20
376.9219978361089
 30
0.0
 10
172.2766300598755
 20
376.9296736114614
 30
0.0
 10
172.2231610387997
 20
376.9419321101086
 30
0.0
 10
172.1972012109919
 20
376.9476297124711
 30
0.0
 10
172.1491866943626
 20
376.9566894362761
 30
0.0
 10
172.1272183894456
 20
376.9587540330151
 30
0.0
 10
172.1065723436664
 20
376.9606930953354
 30
0.0
  0
SPLINE
  5
175
330
1F
100
AcDbEntity
  8
0
  6
Continuous
 62
     8
370
    18
100
AcDbSpline
210
0.0
220
0.0
230
1.0
 70
     8
 71
     3
 72
    10
 73
     6
 74
     0
 42
0.000000001
 43
0.00000001
 40
0.0
 40
0.0
 40
0.0
 40
0.0
 40
0.5000000000000001
 40
0.5000000000000001
 40
1.0
 40
1.0
 40
1.0
 40
1.0
 10
193.9664915880426
 20
376.4788651251004
 30
0.0
 10
192.5594354546663
 20
376.479212672694
 30
0.0
 10
191.152360005562
 20
376.4847571389559
 30
0.0
 10
188.3384128920682
 20
376.4999347182236
 30
0.0
 10
186.931539134113
 20
376.5082945974599
 30
0.0
 10
185.5248184297135
 20
376.5146702498332
 30
0.0
  0
SPLINE
  5
176
330
1F
100
AcDbEntity
  8
0
  6
Continuous
 62
     8
370
    18
100
AcDbSpline
210
0.0
220
0.0
230
1.0
 70
     8
 71
     3
 72
    17
 73
    13
 74
     0
 42
0.000000001
 43
0.00000001
 40
0.0
 40
0.0
 40
0.0
 40
0.0
 40
0.0054250441974621
 40
0.1007817444989876
 40
0.1961858137483499
 40
0.291517206780009
 40
0.3868562798407721
 40
0.4822232992886938
 40
0.5775474243661305
 40
0.6729408720097146
 40
0.8363715046162281
 40
1.0
 40
1.0
 40
1.0
 40
1.0
 10
182.9666415083267
 20
357.4714128334298
 30
0.0
 10
182.9260944626596
 20
357.4860068352586
 30
0.0
 10
182.1728467751058
 20
357.7571214861262
 30
0.0
 10
180.7898683947307
 20
358.4960026595517
 30
0.0
 10
178.8815059120243
 20
359.7338430491153
 30
0.0
 10
177.1766734989679
 20
361.2517258002326
 30
0.0
 10
175.7196753777497
 20
363.0053776758027
 30
0.0
 10
174.5353225387382
 20
364.953339774627
 30
0.0
 10
173.6275290989159
 20
367.0433670736667
 30
0.0
 10
172.8162967311372
 20
369.7415156388146
 30
0.0
 10
172.2573334867885
 20
373.0641779082994
 30
0.0
 10
172.1569099333078
 20
375.6614207622068
 30
0.0
 10
172.1066677796699
 20
376.9608278233781
 30
0.0
  0
SPLINE
  5
177
330
1F
100
AcDbEntity
  8
0
  6
Continuous
 62
     8
370
    18
100
AcDbSpline
210
0.0
220
0.0
230
1.0
 70
     8
 71
     3
 72
    10
 73
     6
 74
     0
 42
0.000000001
 43
0.00000001
 40
0.0
 40
0.0
 40
0.0
 40
0.0
 40
0.4999999999999998
 40
0.4999999999999998
 40
1.0
 40
1.0
 40
1.0
 40
1.0
 10
193.9666414487216
 20
378.431488892278
 30
0.0
 10
195.3684898251241
 20
378.4315705124655
 30
0.0
 10
196.7703486879815
 20
378.4328570937661
 30
0.0
 10
199.5739788910025
 20
378.4368014023958
 30
0.0
 10
200.9758471866067
 20
378.4391080737338
 30
0.0
 10
202.3772601908152
 20
378.4410758588705
 30
0.0
  0
SPLINE
  5
178
330
1F
100
AcDbEntity
  8
0
  6
Continuous
 62
     8
370
    18
100
AcDbSpline
210
0.0
220
0.0
230
1.0
 70
     8
 71
     3
 72
    10
 73
     6
 74
     0
 42
0.000000001
 43
0.00000001
 40
0.0
 40
0.0
 40
0.0
 40
0.0
 40
0.5
 40
0.5
 40
1.0
 40
1.0
 40
1.0
 40
1.0
 10
185.556022706628
 20
378.4410758588705
 30
0.0
 10
186.9574121581316
 20
378.4391081067609
 30
0.0
 10
188.3592292273202
 20
378.4368015286761
 30
0.0
 10
191.1628431245949
 20
378.4328572008338
 30
0.0
 10
192.5647588785947
 20
378.4315705144564
 30
0.0
 10
193.9666414487216
 20
378.4314888922779
 30
0.0
  0
SPLINE
  5
179
330
1F
100
AcDbEntity
  8
0
  6
Continuous
 62
     8
370
    18
100
AcDbSpline
210
0.0
220
0.0
230
1.0
 70
     8
 71
     3
 72
    14
 73
    10
 74
     0
 42
0.000000001
 43
0.00000001
 40
0.0
 40
0.0
 40
0.0
 40
0.0
 40
0.1454313570111787
 40
0.2788902717141069
 40
0.5577349446373637
 40
0.7053759465669033
 40
0.8365655006896088
 40
0.9222098305516685
 40
1.0
 40
1.0
 40
1.0
 40
1.0
 10
202.3772601908242
 20
378.8778759047373
 30
0.0
 10
202.9521935044083
 20
378.8664406599297
 30
0.0
 10
204.0547295140989
 20
378.8445115615767
 30
0.0
 10
206.2593072554876
 20
378.7878052785095
 30
0.0
 10
208.4722931943771
 20
378.7144828120282
 30
0.0
 10
210.6755368648895
 20
378.6163791107992
 30
0.0
 10
212.1147980028215
 20
378.5378273542937
 30
0.0
 10
213.2777924821671
 20
378.4634621192071
 30
0.0
 10
213.9223992175925
 20
378.4136546108498
 30
0.0
 10
214.2292136746861
 20
378.3899476546609
 30
0.0
  0
SPLINE
  5
17A
330
1F
100
AcDbEntity
  8
0
  6
Continuous
 62
     8
370
    18
100
AcDbSpline
210
0.0
220
0.0
230
1.0
 70
    24
 71
     3
 72
     8
 73
     4
 74
     0
 42
0.000000001
 43
0.00000001
 40
0.0
 40
0.0
 40
0.0
 40
0.0
 40
0.8917884799968288
 40
0.8917884799968288
 40
0.8917884799968288
 40
0.8917884799968288
 10
202.3772601908152
 20
378.4410753650508
 30
0.0
 10
202.3772601908241
 20
378.873083511016
 30
0.0
 10
202.3772601908242
 20
378.8756323233589
 30
0.0
 10
202.3772601908242
 20
378.8778759047373
 30
0.0
  0
SPLINE
  5
17B
330
1F
100
AcDbEntity
  8
0
  6
Continuous
 62
     8
370
    18
100
AcDbSpline
210
0.0
220
0.0
230
1.0
 70
    24
 71
     3
 72
    13
 73
     9
 74
     0
 42
0.000000001
 43
0.00000001
 40
0.1134289634971918
 40
0.1134289634971918
 40
0.1134289634971918
 40
0.1134289634971918
 40
0.2384289634971918
 40
0.3634289634971918
 40
0.6134289634971918
 40
0.8634289634971918
 40
0.9884289634971918
 40
1.0
 40
1.0
 40
1.0
 40
1.0
 10
185.5560227066192
 20
378.8778759047373
 30
0.0
 10
185.5560227066192
 20
378.8775294925294
 30
0.0
 10
185.5560227066192
 20
378.8766588999743
 30
0.0
 10
185.5560227066194
 20
378.8639536329073
 30
0.0
 10
185.5560227066205
 20
378.8082900027801
 30
0.0
 10
185.5560227066235
 20
378.6604908449085
 30
0.0
 10
185.5560227066266
 20
378.5089256867883
 30
0.0
 10
185.5560227066279
 20
378.4464518466751
 30
0.0
 10
185.556022706628
 20
378.4410938492971
 30
0.0
  0
SPLINE
  5
17C
330
1F
100
AcDbEntity
  8
0
  6
Continuous
 62
     8
370
    18
100
AcDbSpline
210
0.0
220
0.0
230
1.0
 70
     8
 71
     3
 72
    13
 73
     9
 74
     0
 42
0.000000001
 43
0.00000001
 40
0.1035717186133187
 40
0.1035717186133187
 40
0.1035717186133187
 40
0.1035717186133187
 40
0.125
 40
0.25
 40
0.5
 40
0.75
 40
0.875
 40
1.0
 40
1.0
 40
1.0
 40
1.0
 10
173.7040443112151
 20
378.3908097517321
 30
0.0
 10
173.7982965308864
 20
378.398463429382
 30
0.0
 10
174.4424598845805
 20
378.4494009466842
 30
0.0
 10
176.1880489758014
 20
378.5640729431738
 30
0.0
 10
178.941975012615
 20
378.6978755506429
 30
0.0
 10
181.6975434642992
 20
378.7884934652388
 30
0.0
 10
183.9022944692493
 20
378.8446534389897
 30
0.0
 10
185.0047648070365
 20
378.8676040703353
 30
0.0
 10
185.5560227066192
 20
378.8778759047373
 30
0.0
  0
SPLINE
  5
17D
330
1F
100
AcDbEntity
  8
0
  6
Continuous
 62
     8
370
    18
100
AcDbSpline
210
0.0
220
0.0
230
1.0
 70
     8
 71
     3
 72
    13
 73
     9
 74
     0
 42
0.000000001
 43
0.00000001
 40
0.0
 40
0.0
 40
0.0
 40
0.0
 40
0.1249999999857222
 40
0.2499999999714443
 40
0.3749999999571664
 40
0.4999999999428885
 40
0.4999999999428885
 40
0.5000013429604316
 40
0.5000013429604316
 40
0.5000013429604316
 40
0.5000013429604316
 10
202.3772601908242
 20
378.8778759047373
 30
0.0
 10
201.6764567810324
 20
378.8907806748596
 30
0.0
 10
200.274781984339
 20
378.9128749370039
 30
0.0
 10
198.1721359803297
 20
378.9359123970091
 30
0.0
 10
196.0694080982137
 20
378.9494922039293
 30
0.0
 10
194.6675636644033
 20
378.9524850571442
 30
0.0
 10
193.966633917915
 20
378.9524850409815
 30
0.0
 10
193.9666263871084
 20
378.9524850409812
 30
0.0
 10
193.9666188563017
 20
378.9524850409807
 30
0.0
  0
SPLINE
  5
17E
330
1F
100
AcDbEntity
  8
0
  6
Continuous
 62
     8
370
    18
100
AcDbSpline
210
0.0
220
0.0
230
1.0
 70
     8
 71
     3
 72
     8
 73
     4
 74
     0
 42
0.000000001
 43
0.00000001
 40
0.4999993479283647
 40
0.4999993479283647
 40
0.4999993479283647
 40
0.4999993479283647
 40
0.6646044878546494
 40
0.6646044878546494
 40
0.6646044878546494
 40
0.6646044878546494
 10
193.9666640411417
 20
378.9524850409806
 30
0.0
 10
191.1119177608186
 20
378.9524852380214
 30
0.0
 10
188.2571708720228
 20
378.9276155259403
 30
0.0
 10
185.5560227066192
 20
378.8778759047373
 30
0.0
  0
LWPOLYLINE
  5
17F
330
1F
100
AcDbEntity
  8
0
  6
Continuous
 62
     8
370
    18
100
AcDbPolyline
 90
        3
 70
   128
 43
0.0
 10
193.9666866314
 20
378.9524872262
 10
193.9666723936
 20
378.9750550349
 10
193.9666532966
 20
378.990969475
  0
SPLINE
  5
180
330
1F
100
AcDbEntity
  8
0
  6
Continuous
 62
     8
370
    18
100
AcDbSpline
210
0.0
220
0.0
230
1.0
 70
     8
 71
     3
 72
    10
 73
     6
 74
     0
 42
0.000000001
 43
0.00000001
 40
0.0
 40
0.0
 40
0.0
 40
0.0
 40
0.3652629578829738
 40
0.7305259317080214
 40
1.0
 40
1.0
 40
1.0
 40
1.0
 10
173.3921835052826
 20
378.3839632231965
 30
0.0
 10
173.4067453534836
 20
378.3840303426105
 30
0.0
 10
173.4358690505211
 20
378.3841645814417
 30
0.0
 10
173.4814421222445
 20
378.3848368319798
 30
0.0
 10
173.5130801411701
 20
378.3854683527574
 30
0.0
 10
173.5265118855096
 20
378.3857364613785
 30
0.0
  0
LWPOLYLINE
  5
181
330
1F
100
AcDbEntity
  8
0
  6
Continuous
 62
     8
370
    18
100
AcDbPolyline
 90
        6
 70
   128
 43
0.0
 10
172.8520983684
 20
378.3835087378
 10
172.9498145956
 20
378.3835832436
 10
173.0476090538
 20
378.3836577494
 10
173.1454854685
 20
378.3837322552
 10
173.2434512901
 20
378.3838216622
 10
173.3922896761
 20
378.3839706738
  0
SPLINE
  5
182
330
1F
100
AcDbEntity
  8
0
  6
Continuous
 62
     8
370
    18
100
AcDbSpline
210
0.0
220
0.0
230
1.0
 70
     8
 71
     3
 72
    11
 73
     7
 74
     0
 42
0.000000001
 43
0.00000001
 40
0.0
 40
0.0
 40
0.0
 40
0.0
 40
0.0176053492035896
 40
0.0176053492035896
 40
0.0176053492035896
 40
0.0221786405319829
 40
0.0221786405319829
 40
0.0221786405319829
 40
0.0221786405319829
 10
172.548080202514
 20
378.3841606743804
 30
0.0
 10
172.6308576892721
 20
378.384181510751
 30
0.0
 10
172.7043832169468
 20
378.3834400098606
 30
0.0
 10
172.7866386473601
 20
378.3834173562387
 30
0.0
 10
172.8080059076113
 20
378.3834114715715
 30
0.0
 10
172.8297537642747
 20
378.3834368827708
 30
0.0
 10
172.8517670246521
 20
378.3834840449073
 30
0.0
  0
SPLINE
  5
183
330
1F
100
AcDbEntity
  8
0
  6
Continuous
 62
     8
370
    18
100
AcDbSpline
210
0.0
220
0.0
230
1.0
 70
     8
 71
     3
 72
    10
 73
     6
 74
     0
 42
0.000000001
 43
0.00000001
 40
0.0
 40
0.0
 40
0.0
 40
0.0
 40
0.5
 40
0.5
 40
1.0
 40
1.0
 40
1.0
 40
1.0
 10
172.0163907540718
 20
378.3827872208395
 30
0.0
 10
172.1129728831765
 20
378.3836806292712
 30
0.0
 10
172.1977350824297
 20
378.3835896494465
 30
0.0
 10
172.3732132614118
 20
378.3839017731634
 30
0.0
 10
172.4617214569812
 20
378.38412008277
 30
0.0
 10
172.5480133758713
 20
378.3841547678152
 30
0.0
  0
SPLINE
  5
184
330
1F
100
AcDbEntity
  8
0
  6
Continuous
 62
     8
370
    18
100
AcDbSpline
210
0.0
220
0.0
230
1.0
 70
     8
 71
     3
 72
    11
 73
     7
 74
     0
 42
0.000000001
 43
0.00000001
 40
0.0
 40
0.0
 40
0.0
 40
0.0
 40
0.0286318264926026
 40
0.0286318264926026
 40
0.0286318264926026
 40
0.0366385322350309
 40
0.0366385322350309
 40
0.0366385322350309
 40
0.0366385322350309
 10
215.3852695215725
 20
378.3841547678153
 30
0.0
 10
215.5201382097237
 20
378.3841005573329
 30
0.0
 10
215.6583884501692
 20
378.3837654166934
 30
0.0
 10
215.7961892516002
 20
378.3834640473015
 30
0.0
 10
215.8347243498546
 20
378.3833797713103
 30
0.0
 10
215.8746795353123
 20
378.3831776978389
 30
0.0
 10
215.9168921433721
 20
378.3827872208396
 30
0.0
  0
SPLINE
  5
185
330
1F
100
AcDbEntity
  8
0
  6
Continuous
 62
     8
370
    18
100
AcDbSpline
210
0.0
220
0.0
230
1.0
 70
     8
 71
     3
 72
    10
 73
     6
 74
     0
 42
0.000000001
 43
0.00000001
 40
0.0
 40
0.0
 40
0.0
 40
0.0
 40
0.5
 40
0.5
 40
1.0
 40
1.0
 40
1.0
 40
1.0
 10
215.0815158727917
 20
378.3834840449072
 30
0.0
 10
215.1348936525333
 20
378.3833696861027
 30
0.0
 10
215.1861532813126
 20
378.3834291862484
 30
0.0
 10
215.2854481626275
 20
378.3838139001098
 30
0.0
 10
215.3330625124534
 20
378.3841737988685
 30
0.0
 10
215.3852026949299
 20
378.3841606743804
 30
0.0
  0
LWPOLYLINE
  5
186
330
1F
100
AcDbEntity
  8
0
  6
Continuous
 62
     8
370
    18
100
AcDbPolyline
 90
        5
 70
   128
 43
0.0
 10
214.5409932214
 20
378.3839706738
 10
214.6762976277
 20
378.3838365633
 10
214.8114213574
 20
378.383717354
 10
214.9463793117
 20
378.3836055953
 10
215.0811845291
 20
378.3835087378
  0
SPLINE
  5
187
330
1F
100
AcDbEntity
  8
0
  6
Continuous
 62
     8
370
    18
100
AcDbSpline
210
0.0
220
0.0
230
1.0
 70
     8
 71
     3
 72
    12
 73
     8
 74
     0
 42
0.000000001
 43
0.00000001
 40
0.0
 40
0.0
 40
0.0
 40
0.0
 40
0.25
 40
0.25
 40
0.5
 40
0.5
 40
1.0
 40
1.0
 40
1.0
 40
1.0
 10
214.228999795632
 20
378.3899649627417
 30
0.0
 10
214.2742649413491
 20
378.3879132891912
 30
0.0
 10
214.2967404428121
 20
378.3876723371034
 30
0.0
 10
214.3455189140923
 20
378.3869521030051
 30
0.0
 10
214.371578677116
 20
378.3864445804599
 30
0.0
 10
214.4513485024519
 20
378.3848036430311
 30
0.0
 10
214.4998649550076
 20
378.3840848609217
 30
0.0
 10
214.5410986417699
 20
378.383960244118
 30
0.0
  0
ARC
  5
188
330
1F
100
AcDbEntity
  8
0
  6
Continuous
 62
     8
370
    18
100
AcDbCircle
 10
218.0069887129
 20
321.9247355897
 30
0.0
 40
55.07939926115417
100
AcDbArc
 50
91.7069816907
 51
92.2687001584
  0
SPLINE
  5
189
330
1F
100
AcDbEntity
  8
0
  6
Continuous
 62
     8
370
    18
100
AcDbSpline
210
0.0
220
0.0
230
1.0
 70
     8
 71
     3
 72
    17
 73
    13
 74
     0
 42
0.000000001
 43
0.00000001
 40
0.0
 40
0.0
 40
0.0
 40
0.0
 40
0.1605335993871966
 40
0.3204892994473282
 40
0.4126564151091902
 40
0.5047518725061511
 40
0.5969090981554553
 40
0.6890151901959983
 40
0.7811004735026521
 40
0.8732934581613297
 40
0.96545385665371
 40
1.0
 40
1.0
 40
1.0
 40
1.0
 10
216.3666033971168
 20
376.9801024753823
 30
0.0
 10
216.3472943630311
 20
375.563872671667
 30
0.0
 10
216.3087458047806
 20
372.7365113007031
 30
0.0
 10
215.8894117987824
 20
369.1085316658097
 30
0.0
 10
215.1687335299154
 20
366.1537544499978
 30
0.0
 10
214.3187378592035
 20
363.8609876392022
 30
0.0
 10
213.1555217701422
 20
361.7088676667839
 30
0.0
 10
211.6909617223216
 20
359.7489525640526
 30
0.0
 10
209.9422222236759
 20
358.035157936086
 30
0.0
 10
207.9660479225838
 20
356.5993518972501
 30
0.0
 10
206.2873939703378
 20
355.6264943376075
 30
0.0
 10
205.2495942462651
 20
355.2101311679548
 30
0.0
 10
204.9666413891174
 20
355.096611048676
 30
0.0
  0
SPLINE
  5
18A
330
1F
100
AcDbEntity
  8
0
  6
Continuous
 62
     8
370
    18
100
AcDbSpline
210
0.0
220
0.0
230
1.0
 70
     8
 71
     3
 72
    17
 73
    13
 74
     0
 42
0.000000001
 43
0.00000001
 40
0.0
 40
0.0
 40
0.0
 40
0.0
 40
0.1602440755137129
 40
0.3203515115272241
 40
0.4125491712722799
 40
0.5046980293675585
 40
0.5968494918988737
 40
0.6889941149857844
 40
0.7811327214203729
 40
0.8733166243684503
 40
0.9654696761482208
 40
1.0
 40
1.0
 40
1.0
 40
1.0
 10
171.5669998752929
 20
376.9801024753823
 30
0.0
 10
171.587462297549
 20
375.5663557511332
 30
0.0
 10
171.6283696938333
 20
372.7400677989704
 30
0.0
 10
172.04389654709
 20
369.1126261958951
 30
0.0
 10
172.7612107678171
 20
366.154428766657
 30
0.0
 10
173.6122187818419
 20
363.861313421331
 30
0.0
 10
174.7706681240244
 20
361.7053048428583
 30
0.0
 10
176.2406611084464
 20
359.7480971284301
 30
0.0
 10
177.9884713585554
 20
358.0323177329502
 30
0.0
 10
179.9669044522877
 20
356.5984443470281
 30
0.0
 10
181.6456866674968
 20
355.6261938119346
 30
0.0
 10
182.683706505944
 20
355.2106716392826
 30
0.0
 10
182.9666415083267
 20
355.0974119860902
 30
0.0
  0
ARC
  5
18B
330
1F
100
AcDbEntity
  8
0
  6
Continuous
 62
     8
370
    18
100
AcDbCircle
 10
169.9121834098
 20
321.5181822242
 30
0.0
 40
55.48619258179883
100
AcDbArc
 50
87.7333589587
 51
88.2909591922
  0
SPLINE
  5
18C
330
1F
100
AcDbEntity
  8
0
  6
Continuous
 62
     8
370
    18
100
AcDbSpline
210
0.0
220
0.0
230
1.0
 70
     8
 71
     3
 72
    18
 73
    14
 74
     0
 42
0.000000001
 43
0.00000001
 40
0.0
 40
0.0
 40
0.0
 40
0.0
 40
0.25
 40
0.25
 40
0.375
 40
0.375
 40
0.5
 40
0.5
 40
0.625
 40
0.625
 40
0.75
 40
0.75
 40
1.0
 40
1.0
 40
1.0
 40
1.0
 10
185.3503555437224
 20
413.0535280707093
 30
0.0
 10
183.7220814723701
 20
413.053110051758
 30
0.0
 10
182.054888084757
 20
413.0512264611758
 30
0.0
 10
179.4250782281614
 20
413.0411837197928
 30
0.0
 10
178.5293776375322
 20
413.0359981610064
 30
0.0
 10
176.8443968834045
 20
413.0218710407343
 30
0.0
 10
176.0301923517129
 20
413.0127407166512
 30
0.0
 10
174.6548988985886
 20
412.9916619395132
 30
0.0
 10
174.0952991743501
 20
412.9796956246399
 30
0.0
 10
173.2604423421486
 20
412.9559023701991
 30
0.0
 10
172.9703444651017
 20
412.9437804355654
 30
0.0
 10
172.4098964964965
 20
412.9091067708661
 30
0.0
 10
172.3837391426405
 20
412.8871630127792
 30
0.0
 10
172.3595718942843
 20
412.8654855895705
 30
0.0
  0
SPLINE
  5
18D
330
1F
100
AcDbEntity
  8
0
  6
Continuous
 62
     8
370
    18
100
AcDbSpline
210
0.0
220
0.0
230
1.0
 70
     8
 71
     3
 72
    11
 73
     7
 74
     0
 42
0.000000001
 43
0.00000001
 40
0.0
 40
0.0
 40
0.0
 40
0.0
 40
0.3906161813356686
 40
0.6009282009738757
 40
0.8157127270447108
 40
1.0
 40
1.0
 40
1.0
 40
1.0
 10
172.3595721500971
 20
412.8654886443391
 30
0.0
 10
172.367943042493
 20
413.0264102194555
 30
0.0
 10
172.3808209148095
 20
413.2739737287345
 30
0.0
 10
172.5245139406173
 20
413.5773591648094
 30
0.0
 10
172.6680950008289
 20
413.7823891670168
 30
0.0
 10
172.7934721771433
 20
413.8866037078771
 30
0.0
 10
172.8513700741388
 20
413.9347289163842
 30
0.0
  0
SPLINE
  5
18E
330
1F
100
AcDbEntity
  8
0
  6
Continuous
 62
     8
370
    18
100
AcDbSpline
210
0.0
220
0.0
230
1.0
 70
     8
 71
     3
 72
    15
 73
    11
 74
     0
 42
0.000000001
 43
0.00000001
 40
0.0
 40
0.0
 40
0.0
 40
0.0
 40
0.1727546013110405
 40
0.3458013327413555
 40
0.5208309737694875
 40
0.6087355392524673
 40
0.6963958676192924
 40
0.7840496730265581
 40
0.8719860984364702
 40
1.0
 40
1.0
 40
1.0
 40
1.0
 10
185.3474428731062
 20
414.394973631598
 30
0.0
 10
184.541293656059
 20
414.393529742565
 30
0.0
 10
182.927632013893
 20
414.3906395228655
 30
0.0
 10
180.5023665125022
 20
414.3832463008172
 30
0.0
 10
178.532434894878
 20
414.369401697969
 30
0.0
 10
177.1058956121643
 20
414.3533484834442
 30
0.0
 10
176.1443204510828
 20
414.3391276332676
 30
0.0
 10
175.3535483539079
 20
414.3230511810111
 30
0.0
 10
174.6047436851757
 20
414.3031637685814
 30
0.0
 10
174.3310942657388
 20
414.2882162879132
 30
0.0
 10
174.1688767301895
 20
414.2793555218949
 30
0.0
  0
SPLINE
  5
18F
330
1F
100
AcDbEntity
  8
0
  6
Continuous
 62
     8
370
    18
100
AcDbSpline
210
0.0
220
0.0
230
1.0
 70
     8
 71
     3
 72
    18
 73
    14
 74
     0
 42
0.000000001
 43
0.00000001
 40
0.0
 40
0.0
 40
0.0
 40
0.0
 40
0.25
 40
0.25
 40
0.375
 40
0.375
 40
0.5
 40
0.5
 40
0.625
 40
0.625
 40
0.7500000000000002
 40
0.7500000000000002
 40
1.0
 40
1.0
 40
1.0
 40
1.0
 10
215.5737110031591
 20
412.8654855895704
 30
0.0
 10
215.5496198251917
 20
412.8870947794041
 30
0.0
 10
215.5258649204872
 20
412.9087829804782
 30
0.0
 10
214.9680117152233
 20
412.9435503535634
 30
0.0
 10
214.6811084233715
 20
412.9555969160801
 30
0.0
 10
213.8522219731671
 20
412.9793577924844
 30
0.0
 10
213.2993059708581
 20
412.9912646913316
 30
0.0
 10
211.9295482911276
 20
413.0124091897889
 30
0.0
 10
211.1167084623547
 20
413.0215882657257
 30
0.0
 10
209.4311058470719
 20
413.0358180262216
 30
0.0
 10
208.5370476208155
 20
413.0410382098862
 30
0.0
 10
205.9102032953577
 20
413.0511739465028
 30
0.0
 10
204.215365525108
 20
413.0531089832047
 30
0.0
 10
202.582927353721
 20
413.0535280707092
 30
0.0
  0
SPLINE
  5
190
330
1F
100
AcDbEntity
  8
0
  6
Continuous
 62
     8
370
    18
100
AcDbSpline
210
0.0
220
0.0
230
1.0
 70
     8
 71
     3
 72
    15
 73
    11
 74
     0
 42
0.000000001
 43
0.00000001
 40
0.0
 40
0.0
 40
0.0
 40
0.0
 40
0.1264053375695761
 40
0.2141027059427875
 40
0.301578565561381
 40
0.3892575651669025
 40
0.4772504919903851
 40
0.6522161465910408
 40
0.8260622848859299
 40
1.0
 40
1.0
 40
1.0
 40
1.0
 10
213.7634320038416
 20
414.2793629724755
 30
0.0
 10
213.6041807341843
 20
414.2881141002414
 30
0.0
 10
213.3344442783193
 20
414.3029365766555
 30
0.0
 10
212.5943808324657
 20
414.3227110224283
 30
0.0
 10
211.8083766573885
 20
414.3387852572872
 30
0.0
 10
210.8503369151008
 20
414.3530439897029
 30
0.0
 10
209.4264156467237
 20
414.3691769413314
 30
0.0
 10
207.4544685134873
 20
414.3831363133228
 30
0.0
 10
205.0202788139777
 20
414.3906105798784
 30
0.0
 10
203.3974620583929
 20
414.3935190257453
 30
0.0
 10
202.585840024338
 20
414.394973631598
 30
0.0
  0
SPLINE
  5
191
330
1F
100
AcDbEntity
  8
0
  6
Continuous
 62
     8
370
    18
100
AcDbSpline
210
0.0
220
0.0
230
1.0
 70
     8
 71
     3
 72
    11
 73
     7
 74
     0
 42
0.000000001
 43
0.00000001
 40
0.0
 40
0.0
 40
0.0
 40
0.0
 40
0.390599395898428
 40
0.6009022739172344
 40
0.8156775703341151
 40
1.0
 40
1.0
 40
1.0
 40
1.0
 10
215.573710747347
 20
412.8654886443391
 30
0.0
 10
215.5653397868736
 20
413.0264101032041
 30
0.0
 10
215.5524618120581
 20
413.2739733907297
 30
0.0
 10
215.4087693404329
 20
413.5773596713754
 30
0.0
 10
215.2651761911737
 20
413.7824020643162
 30
0.0
 10
215.1397865209359
 20
413.8866291247483
 30
0.0
 10
215.0818755704023
 20
413.9347661692872
 30
0.0
  0
SPLINE
  5
192
330
1F
100
AcDbEntity
  8
0
  6
Continuous
 62
     8
370
    18
100
AcDbSpline
210
0.0
220
0.0
230
1.0
 70
     8
 71
     3
 72
     8
 73
     4
 74
     0
 42
0.000000001
 43
0.00000001
 40
0.0
 40
0.0
 40
0.0
 40
0.0
 40
1.0
 40
1.0
 40
1.0
 40
1.0
 10
202.5774871961668
 20
413.0535315638501
 30
0.0
 10
199.7072039898046
 20
413.0566348426174
 30
0.0
 10
196.8369261114874
 20
413.0581614144464
 30
0.0
 10
193.9666480124617
 20
413.058153299518
 30
0.0
  0
LWPOLYLINE
  5
193
330
1F
100
AcDbEntity
  8
0
  6
Continuous
 62
     8
370
    18
100
AcDbPolyline
 90
        9
 70
   128
 43
0.0
 10
193.966634885
 20
413.058153208
 10
193.9666361302
 20
413.3057285507
 10
193.9666373303
 20
413.5460321266
 10
193.9666384417
 20
413.7703393061
 10
193.9666394243
 20
413.9705364067
 10
193.9666402423
 20
414.1393591125
 10
193.9666408661
 20
414.2706979472
 10
193.9666412732
 20
414.3597770889
 10
193.9666414487
 20
414.4033778865
  0
SPLINE
  5
194
330
1F
100
AcDbEntity
  8
0
  6
Continuous
 62
     8
370
    18
100
AcDbSpline
210
0.0
220
0.0
230
1.0
 70
     8
 71
     3
 72
     8
 73
     4
 74
     0
 42
0.000000001
 43
0.00000001
 40
0.0
 40
0.0
 40
0.0
 40
0.0
 40
1.0
 40
1.0
 40
1.0
 40
1.0
 10
193.9666414487217
 20
414.4033757155561
 30
0.0
 10
196.837796456454
 20
414.403389670601
 30
0.0
 10
199.7089383604474
 20
414.4006612268325
 30
0.0
 10
202.5801427001535
 20
414.3949890740407
 30
0.0
  0
SPLINE
  5
195
330
1F
100
AcDbEntity
  8
0
  6
Continuous
 62
     8
370
    18
100
AcDbSpline
210
0.0
220
0.0
230
1.0
 70
     8
 71
     3
 72
     8
 73
     4
 74
     0
 42
0.000000001
 43
0.00000001
 40
0.0
 40
0.0
 40
0.0
 40
0.0
 40
1.0
 40
1.0
 40
1.0
 40
1.0
 10
193.9666348849817
 20
413.0581532995182
 30
0.0
 10
191.0963568333522
 20
413.0581614145614
 30
0.0
 10
188.22607896034
 20
413.0566348423596
 30
0.0
 10
185.3557957012764
 20
413.0535315638501
 30
0.0
  0
SPLINE
  5
196
330
1F
100
AcDbEntity
  8
0
  6
Continuous
 62
     8
370
    18
100
AcDbSpline
210
0.0
220
0.0
230
1.0
 70
     8
 71
     3
 72
     8
 73
     4
 74
     0
 42
0.000000001
 43
0.00000001
 40
0.0
 40
0.0
 40
0.0
 40
0.0
 40
1.0
 40
1.0
 40
1.0
 40
1.0
 10
185.3531401972897
 20
414.3949890740407
 30
0.0
 10
188.2243445896945
 20
414.400661226947
 30
0.0
 10
191.0954864884192
 20
414.4033896706006
 30
0.0
 10
193.9666414487218
 20
414.403375715556
 30
0.0
  0
SPLINE
  5
197
330
1F
100
AcDbEntity
  8
0
  6
Continuous
 62
     8
370
    18
100
AcDbSpline
210
0.0
220
0.0
230
1.0
 70
     8
 71
     3
 72
    15
 73
    11
 74
     0
 42
0.000000001
 43
0.00000001
 40
0.0
 40
0.0
 40
0.0
 40
0.0
 40
0.2499999999999999
 40
0.2499999999999999
 40
0.4999999999999999
 40
0.4999999999999999
 40
0.7499999999999998
 40
0.7499999999999998
 40
0.8124999999999998
 40
1.0
 40
1.0
 40
1.0
 40
1.0
 10
177.3514261059933
 20
409.1427919588961
 30
0.0
 10
177.3674917011282
 20
409.174911185398
 30
0.0
 10
177.6004233115077
 20
409.2054568442852
 30
0.0
 10
178.4164949940766
 20
409.2609596911319
 30
0.0
 10
178.9996350662661
 20
409.2859168790915
 30
0.0
 10
180.4326001037763
 20
409.3278014483852
 30
0.0
 10
181.282425069097
 20
409.3447288297193
 30
0.0
 10
182.4591821035306
 20
409.3593435924348
 30
0.0
 10
183.4234828966341
 20
409.3697265098168
 30
0.0
 10
184.4689239058788
 20
409.3745686890748
 30
0.0
 10
185.2810277816237
 20
409.3745686890748
 30
0.0
  0
SPLINE
  5
198
330
1F
100
AcDbEntity
  8
0
  6
Continuous
 62
     8
370
    18
100
AcDbSpline
210
0.0
220
0.0
230
1.0
 70
     8
 71
     3
 72
    26
 73
    22
 74
     0
 42
0.000000001
 43
0.00000001
 40
0.0
 40
0.0
 40
0.0
 40
0.0
 40
0.020888040983904
 40
0.0417297757350735
 40
0.0625470702775164
 40
0.0833618676589803
 40
0.1041961188173939
 40
0.125071713323136
 40
0.1875634251708792
 40
0.2500999909328805
 40
0.3125917027798604
 40
0.3751282685426394
 40
0.5000080743070491
 40
0.6248878800714572
 40
0.6873795919197048
 40
0.7499161576812152
 40
0.8124078695295079
 40
0.8749444352909694
 40
0.9166290310503846
 40
0.9582556329718537
 40
1.0
 40
1.0
 40
1.0
 40
1.0
 10
202.6522551158197
 20
409.3745686890748
 30
0.0
 10
202.7381219214187
 20
409.3745447200184
 30
0.0
 10
202.9096651764083
 20
409.374496835042
 30
0.0
 10
203.1665154400321
 20
409.3741128066229
 30
0.0
 10
203.4225260036817
 20
409.3734999913521
 30
0.0
 10
203.6776941914164
 20
409.3726361658133
 30
0.0
 10
203.9320258514207
 20
409.3715271441911
 30
0.0
 10
204.3536141857616
 20
409.3692729866432
 30
0.0
 10
204.9368217547679
 20
409.3649881854826
 30
0.0
 10
205.6644434594626
 20
409.357335951978
 30
0.0
 10
206.3640565176157
 20
409.3476333594934
 30
0.0
 10
207.2489455426306
 20
409.3320743130923
 30
0.0
 10
208.2535187746934
 20
409.307953774936
 30
0.0
 10
209.0812811852713
 20
409.2785172279453
 30
0.0
 10
209.618847021954
 20
409.2525002166948
 30
0.0
 10
209.9562079246544
 20
409.2318969282712
 30
0.0
 10
210.2249562323931
 20
409.210421677332
 30
0.0
 10
210.4000537597877
 20
409.1907293595185
 30
0.0
 10
210.5052428325571
 20
409.173210870703
 30
0.0
 10
210.564625701455
 20
409.1580461357209
 30
0.0
 10
210.576107688517
 20
409.1478814705144
 30
0.0
 10
210.5818567914502
 20
409.1427919588961
 30
0.0
  0
LINE
  5
199
330
1F
100
AcDbEntity
  8
0
  6
Continuous
 62
     8
370
    18
100
AcDbLine
 10
202.6522554311
 20
409.3745712597
 30
0.0
 11
185.2810274663
 21
409.3745712597
 31
0.0
  0
SPLINE
  5
19A
330
1F
100
AcDbEntity
  8
0
  6
Continuous
 62
     8
370
    18
100
AcDbSpline
210
0.0
220
0.0
230
1.0
 70
     8
 71
     3
 72
     9
 73
     5
 74
     0
 42
0.000000001
 43
0.00000001
 40
0.0
 40
0.0
 40
0.0
 40
0.0
 40
0.1945773476397352
 40
0.9999999999999999
 40
0.9999999999999999
 40
0.9999999999999999
 40
0.9999999999999999
 10
185.3570531907536
 20
414.5994026620164
 30
0.0
 10
185.3583792588112
 20
414.6040337136133
 30
0.0
 10
185.3651943792431
 20
414.6278342826577
 30
0.0
 10
185.3585154272412
 20
414.4987856576029
 30
0.0
 10
185.3531360480048
 20
414.3948469717278
 30
0.0
  0
SPLINE
  5
19B
330
1F
100
AcDbEntity
  8
0
  6
Continuous
 62
     8
370
    18
100
AcDbSpline
210
0.0
220
0.0
230
1.0
 70
     8
 71
     3
 72
     9
 73
     5
 74
     0
 42
0.000000001
 43
0.00000001
 40
0.0
 40
0.0
 40
0.0
 40
0.0
 40
0.1642298267619608
 40
1.0
 40
1.0
 40
1.0
 40
1.0
 10
202.5755824375011
 20
414.6007735688462
 30
0.0
 10
202.5745255356383
 20
414.6042833540409
 30
0.0
 10
202.5680900306894
 20
414.6256545340747
 30
0.0
 10
202.5746557182876
 20
414.5000037283921
 30
0.0
 10
202.580143124149
 20
414.3949885327592
 30
0.0
  0
SPLINE
  5
19C
330
1F
100
AcDbEntity
  8
0
  6
Continuous
 62
     8
370
    18
100
AcDbSpline
210
0.0
220
0.0
230
1.0
 70
    24
 71
     3
 72
     9
 73
     5
 74
     0
 42
0.000000001
 43
0.00000001
 40
0.0
 40
0.0
 40
0.0
 40
0.0
 40
0.8459926722941732
 40
1.0
 40
1.0
 40
1.0
 40
1.0
 10
193.9666414487217
 20
414.4033778865113
 30
0.0
 10
193.9666414487217
 20
414.5294992161601
 30
0.0
 10
193.9666414487217
 20
414.678580093311
 30
0.0
 10
193.9666414487217
 20
414.6581717336823
 30
0.0
 10
193.9666414487217
 20
414.655028696753
 30
0.0
  0
SPLINE
  5
19D
330
1F
100
AcDbEntity
  8
0
  6
Continuous
 62
     8
370
    18
100
AcDbSpline
210
0.0
220
0.0
230
1.0
 70
     8
 71
     3
 72
    25
 73
    21
 74
     0
 42
0.000000001
 43
0.00000001
 40
0.0
 40
0.0
 40
0.0
 40
0.0
 40
0.0278278052389512
 40
0.055624156972669
 40
0.083397755554591
 40
0.1111573227319191
 40
0.1389115934799151
 40
0.1666693077739834
 40
0.194439202338185
 40
0.2222300024090758
 40
0.2500504135536148
 40
0.3750238770644359
 40
0.5000238038085687
 40
0.6249915239041718
 40
0.7499868255200522
 40
0.8000264490424541
 40
0.8499966169627688
 40
0.899948277864955
 40
0.9499324369253148
 40
1.0
 40
1.0
 40
1.0
 40
1.0
 10
176.5844132773013
 20
407.6093374825676
 30
0.0
 10
176.7236777137171
 20
407.6123669276106
 30
0.0
 10
177.0020491772725
 20
407.6184223935435
 30
0.0
 10
177.4261852606774
 20
407.6272223121974
 30
0.0
 10
177.8547750124755
 20
407.6358067413832
 30
0.0
 10
178.2883121185456
 20
407.6441559143835
 30
0.0
 10
178.7266641438118
 20
407.6522751176895
 30
0.0
 10
179.1698669104218
 20
407.6601629354872
 30
0.0
 10
179.6179087065336
 20
407.6678197330738
 30
0.0
 10
180.0707997589711
 20
407.6752454519714
 30
0.0
 10
181.061042267567
 20
407.6908105333125
 30
0.0
 10
182.6235417541082
 20
407.7125609245267
 30
0.0
 10
184.8044909383481
 20
407.7368120867868
 30
0.0
 10
187.0435229876364
 20
407.7558603897261
 30
0.0
 10
188.8705700052264
 20
407.7667995156726
 30
0.0
 10
190.2526501939292
 20
407.7727273404514
 30
0.0
 10
191.1776173152
 20
407.77580888217
 30
0.0
 10
192.1050702141239
 20
407.7779941046261
 30
0.0
 10
193.0350249929396
 20
407.7793626868659
 30
0.0
 10
193.6559300994364
 20
407.7795319583607
 30
0.0
 10
193.9666414487219
 20
407.7796166646613
 30
0.0
  0
SPLINE
  5
19E
330
1F
100
AcDbEntity
  8
0
  6
Continuous
 62
     8
370
    18
100
AcDbSpline
210
0.0
220
0.0
230
1.0
 70
     8
 71
     3
 72
    11
 73
     7
 74
     0
 42
0.000000001
 43
0.00000001
 40
0.0
 40
0.0
 40
0.0
 40
0.0
 40
0.125
 40
0.25
 40
0.375
 40
0.5
 40
0.5
 40
0.5
 40
0.5
 10
211.3488696201426
 20
407.6093374825676
 30
0.0
 10
210.1023157221798
 20
407.6367464286251
 30
0.0
 10
207.4608602753829
 20
407.6856220940647
 30
0.0
 10
203.1586425179866
 20
407.7394732634423
 30
0.0
 10
198.6213985388015
 20
407.7722264552818
 30
0.0
 10
195.5182271454151
 20
407.7796278563053
 30
0.0
 10
193.9666414487219
 20
407.7796278563053
 30
0.0
  0
SPLINE
  5
19F
330
1F
100
AcDbEntity
  8
0
  6
Continuous
 62
     8
370
    18
100
AcDbSpline
210
0.0
220
0.0
230
1.0
 70
     8
 71
     3
 72
    12
 73
     8
 74
     0
 42
0.000000001
 43
0.00000001
 40
0.0
 40
0.0
 40
0.0
 40
0.0
 40
0.25
 40
0.25
 40
0.5
 40
0.5
 40
1.0
 40
1.0
 40
1.0
 40
1.0
 10
216.3615500651227
 20
412.1947260337799
 30
0.0
 10
216.3393575938341
 20
412.2506814497382
 30
0.0
 10
216.2732645549939
 20
412.306758323007
 30
0.0
 10
216.133541856348
 20
412.4187830310929
 30
0.0
 10
216.0636597899492
 20
412.4747130341369
 30
0.0
 10
215.8539784315015
 20
412.6423891893161
 30
0.0
 10
215.7141224284013
 20
412.7539221445012
 30
0.0
 10
215.5741581890994
 20
412.8650821173491
 30
0.0
  0
ARC
  5
1A0
330
1F
100
AcDbEntity
  8
0
  6
Continuous
 62
     8
370
    18
100
AcDbCircle
 10
214.3046240486
 20
412.9328508061
 30
0.0
 40
1.271341392841883
100
AcDbArc
 50
356.9442607732
 51
50.7585514375
  0
LINE
  5
1A1
330
1F
100
AcDbEntity
  8
0
  6
Continuous
 62
     8
370
    18
100
AcDbLine
 10
216.3615500408
 20
412.1947277744
 30
0.0
 11
216.3030704337
 21
412.5763614137
 31
0.0
  0
SPLINE
  5
1A2
330
1F
100
AcDbEntity
  8
0
  6
Continuous
 62
     8
370
    18
100
AcDbSpline
210
0.0
220
0.0
230
1.0
 70
     8
 71
     3
 72
    12
 73
     8
 74
     0
 42
0.000000001
 43
0.00000001
 40
0.0
 40
0.0
 40
0.0
 40
0.0
 40
0.5
 40
0.5
 40
0.75
 40
0.75
 40
1.0
 40
1.0
 40
1.0
 40
1.0
 10
172.359124708344
 20
412.8650821173491
 30
0.0
 10
172.219159610436
 20
412.7539214624526
 30
0.0
 10
172.0793027500912
 20
412.6423878208384
 30
0.0
 10
171.8696201065583
 20
412.4747106325549
 30
0.0
 10
171.7997376117948
 20
412.4187802856242
 30
0.0
 10
171.6600140575697
 20
412.3067548835184
 30
0.0
 10
171.5939239656815
 20
412.2506780767528
 30
0.0
 10
171.5717328323213
 20
412.1947260337799
 30
0.0
  0
SPLINE
  5
1A3
330
1F
100
AcDbEntity
  8
0
  6
Continuous
 62
     8
370
    18
100
AcDbSpline
210
0.0
220
0.0
230
1.0
 70
     8
 71
     3
 72
    43
 73
    39
 74
     0
 42
0.000000001
 43
0.00000001
 40
0.0
 40
0.0
 40
0.0
 40
0.0
 40
0.0205282890803558
 40
0.0407639424507126
 40
0.0607118193738485
 40
0.0803697316221556
 40
0.0997337777086989
 40
0.1408590872330617
 40
0.1803167060628869
 40
0.2075110767361496
 40
0.234238832147652
 40
0.2864961065255622
 40
0.3119452391513167
 40
0.3497094686330837
 40
0.3746587739869418
 40
0.3870841411691804
 40
0.4375520820447005
 40
0.4627304285819374
 40
0.4753186170218059
 40
0.5004736428805827
 40
0.5382447319656208
 40
0.5888801455420468
 40
0.6296129204153811
 40
0.6706491497447833
 40
0.6982469489454123
 40
0.7250383618020497
 40
0.7452722884098401
 40
0.7520207630424407
 40
0.7655548876169883
 40
0.8065647371005205
 40
0.8194476827065027
 40
0.8453991691107853
 40
0.8650575801911087
 40
0.8716456960273044
 40
0.8845550674858099
 40
0.9109848611261365
 40
0.9550668562724812
 40
1.0
 40
1.0
 40
1.0
 40
1.0
 10
171.5719170100567
 20
412.1944064105058
 30
0.0
 10
171.5745484268064
 20
412.1315444478413
 30
0.0
 10
171.5797737488257
 20
412.0067166349452
 30
0.0
 10
171.5936324512288
 20
411.8216206855969
 30
0.0
 10
171.6118383574233
 20
411.6401841950764
 30
0.0
 10
171.6347515842122
 20
411.4627485348597
 30
0.0
 10
171.672563964504
 20
411.2239170170169
 30
0.0
 10
171.7329731105715
 20
410.9313940264318
 30
0.0
 10
171.8173925834725
 20
410.6267970123796
 30
0.0
 10
171.9040839574211
 20
410.372588840778
 30
0.0
 10
172.0147401731636
 20
410.0934886993257
 30
0.0
 10
172.1404541313754
 20
409.8343797037348
 30
0.0
 10
172.2957651702492
 20
409.5669350740522
 30
0.0
 10
172.4240075114695
 20
409.3745968185739
 30
0.0
 10
172.5406442469905
 20
409.2210376632358
 30
0.0
 10
172.6817908390442
 20
409.0486998644656
 30
0.0
 10
172.8312324677267
 20
408.887896726754
 30
0.0
 10
172.9890920495299
 20
408.7410669866221
 30
0.0
 10
173.1043774335074
 20
408.6413181023782
 30
0.0
 10
173.2458973679122
 20
408.5274705851447
 30
0.0
 10
173.4661194935977
 20
408.3707001151805
 30
0.0
 10
173.727315940217
 20
408.2145052279341
 30
0.0
 10
174.0047545020889
 20
408.0763565290139
 30
0.0
 10
174.2402376709536
 20
407.9775765795986
 30
0.0
 10
174.4498581031527
 20
407.9020119359767
 30
0.0
 10
174.6162055184558
 20
407.8492869968444
 30
0.0
 10
174.7374652400046
 20
407.81515432438
 30
0.0
 10
174.8294151570556
 20
407.7910666497023
 30
0.0
 10
174.9691300387797
 20
407.756480195647
 30
0.0
 10
175.1247502941506
 20
407.7237912261141
 30
0.0
 10
175.311011964585
 20
407.6911044155831
 30
0.0
 10
175.4485114584656
 20
407.6702863995755
 30
0.0
 10
175.5721828949017
 20
407.6548970038226
 30
0.0
 10
175.6653848394981
 20
407.6446906162556
 30
0.0
 10
175.7749616444058
 20
407.633880074079
 30
0.0
 10
175.9752748808921
 20
407.6185115192424
 30
0.0
 10
176.2553724284445
 20
407.6063775117968
 30
0.0
 10
176.4739981909451
 20
407.6083126797433
 30
0.0
 10
176.5843563045566
 20
407.6092895156004
 30
0.0
  0
SPLINE
  5
1A4
330
1F
100
AcDbEntity
  8
0
  6
Continuous
 62
     8
370
    18
100
AcDbSpline
210
0.0
220
0.0
230
1.0
 70
     8
 71
     3
 72
    24
 73
    20
 74
     0
 42
0.000000001
 43
0.00000001
 40
0.0
 40
0.0
 40
0.0
 40
0.0
 40
0.0400088573575243
 40
0.0725835779095105
 40
0.0979998281886937
 40
0.1164636425014548
 40
0.1281191322998141
 40
0.1973162736201305
 40
0.255404659983732
 40
0.3837408284558542
 40
0.5122156709490197
 40
0.6410297244293864
 40
0.7071988437645403
 40
0.7699320945613168
 40
0.8344447619790295
 40
0.898191146535737
 40
0.9316674355136803
 40
0.965558887306238
 40
1.0
 40
1.0
 40
1.0
 40
1.0
 10
211.3488696201426
 20
407.6093374825676
 30
0.0
 10
211.4471886720431
 20
407.6081880841924
 30
0.0
 10
211.6255578891351
 20
407.606102859769
 30
0.0
 10
211.8636891574914
 20
407.6139348672602
 30
0.0
 10
212.0480346973072
 20
407.6249470466396
 30
0.0
 10
212.1809958856238
 20
407.6360330437041
 30
0.0
 10
212.4176799714447
 20
407.6596134689415
 30
0.0
 10
212.7449090237951
 20
407.7070797976544
 30
0.0
 10
213.3314378576945
 20
407.8394395709533
 30
0.0
 10
214.0241368631836
 20
408.0901589729515
 30
0.0
 10
214.7993312124639
 20
408.5699954928359
 30
0.0
 10
215.3629352758525
 20
409.1443743990155
 30
0.0
 10
215.7339534696834
 20
409.7122194307315
 30
0.0
 10
215.9672969367751
 20
410.1911949897065
 30
0.0
 10
216.1479806328201
 20
410.709799029083
 30
0.0
 10
216.2556736065646
 20
411.178956512609
 30
0.0
 10
216.3147001452498
 20
411.570611974367
 30
0.0
 10
216.3469266625885
 20
411.8791078483001
 30
0.0
 10
216.356622014297
 20
412.0881426962712
 30
0.0
 10
216.3615086844125
 20
412.1935008488595
 30
0.0
  0
SPLINE
  5
1A5
330
1F
100
AcDbEntity
  8
0
  6
Continuous
 62
     8
370
    18
100
AcDbSpline
210
0.0
220
0.0
230
1.0
 70
     8
 71
     3
 72
    11
 73
     7
 74
     0
 42
0.000000001
 43
0.00000001
 40
0.0
 40
0.0
 40
0.0
 40
0.0
 40
0.392681257595328
 40
0.6040975057159951
 40
0.8200137904091996
 40
1.0
 40
1.0
 40
1.0
 40
1.0
 10
172.3591251152612
 20
412.8650788624062
 30
0.0
 10
172.367479881393
 20
413.0260118590937
 30
0.0
 10
172.3803327825269
 20
413.2735898119648
 30
0.0
 10
172.5240721576878
 20
413.5769330963999
 30
0.0
 10
172.6662535255845
 20
413.7803528606224
 30
0.0
 10
172.7899110768703
 20
413.8832692767229
 30
0.0
 10
172.8461285906889
 20
413.9300574023499
 30
0.0
  0
LINE
  5
1A6
330
1F
100
AcDbEntity
  8
0
  6
Continuous
 62
     8
370
    18
100
AcDbLine
 10
171.5719284344
 20
412.1940795738
 30
0.0
 11
171.630158447
 21
412.5763837654
 31
0.0
  0
SPLINE
  5
1A7
330
1F
100
AcDbEntity
  8
0
  6
Continuous
 62
     8
370
    18
100
AcDbSpline
210
0.0
220
0.0
230
1.0
 70
     8
 71
     3
 72
    10
 73
     6
 74
     0
 42
0.000000001
 43
0.00000001
 40
0.0
 40
0.0
 40
0.0
 40
0.0
 40
0.5
 40
0.5
 40
1.0
 40
1.0
 40
1.0
 40
1.0
 10
171.566677460067
 20
376.9805135843785
 30
0.0
 10
171.5133868222547
 20
376.9807977295002
 30
0.0
 10
171.4621798451695
 20
376.979961757661
 30
0.0
 10
171.3629342363121
 20
376.9782022640305
 30
0.0
 10
171.3152608035042
 20
376.9801280934806
 30
0.0
 10
171.2632978760512
 20
376.9712065393016
 30
0.0
  0
SPLINE
  5
1A8
330
1F
100
AcDbEntity
  8
0
  6
Continuous
 62
     8
370
    18
100
AcDbSpline
210
0.0
220
0.0
230
1.0
 70
     8
 71
     3
 72
    10
 73
     6
 74
     0
 42
0.000000001
 43
0.00000001
 40
0.0
 40
0.0
 40
0.0
 40
0.0
 40
0.5
 40
0.5
 40
1.0
 40
1.0
 40
1.0
 40
1.0
 10
216.6699850213926
 20
376.9712065393016
 30
0.0
 10
216.6180221035578
 20
376.9801280798283
 30
0.0
 10
216.5703486569583
 20
376.9782022640996
 30
0.0
 10
216.4711030504239
 20
376.9799617576986
 30
0.0
 10
216.4198960849814
 20
376.9807977295524
 30
0.0
 10
216.3666054373767
 20
376.9805135843785
 30
0.0
  0
SPLINE
  5
1A9
330
1F
100
AcDbEntity
  8
0
  6
Continuous
 62
     8
370
    18
100
AcDbSpline
210
0.0
220
0.0
230
1.0
 70
     8
 71
     3
 72
    12
 73
     8
 74
     0
 42
0.000000001
 43
0.00000001
 40
0.0
 40
0.0
 40
0.0
 40
0.0
 40
0.2500000000000001
 40
0.2500000000000001
 40
0.5000000000000001
 40
0.5000000000000001
 40
1.0
 40
1.0
 40
1.0
 40
1.0
 10
217.2007844641862
 20
376.999151316801
 30
0.0
 10
217.1526730001287
 20
376.9964095679208
 30
0.0
 10
217.1077028846745
 20
376.9915295307496
 30
0.0
 10
217.0199646593855
 20
376.9865826753657
 30
0.0
 10
216.9760802978344
 20
376.9851707719566
 30
0.0
 10
216.8446592593569
 20
376.9787965186243
 30
0.0
 10
216.756251311745
 20
376.9732376482496
 30
0.0
 10
216.6700485050879
 20
376.9710829216962
 30
0.0
  0
LWPOLYLINE
  5
1AA
330
1F
100
AcDbEntity
  8
0
  6
Continuous
 62
     8
370
    18
100
AcDbPolyline
 90
        3
 70
   128
 43
0.0
 10
217.2019364166
 20
376.9993696768
 10
217.4685535806
 20
345.9340732951
 10
217.7460243779
 20
313.604072522
  0
SPLINE
  5
1AB
330
1F
100
AcDbEntity
  8
0
  6
Continuous
 62
     8
370
    18
100
AcDbSpline
210
0.0
220
0.0
230
1.0
 70
     8
 71
     3
 72
    18
 73
    14
 74
     0
 42
0.000000001
 43
0.00000001
 40
0.0
 40
0.0
 40
0.0
 40
0.0
 40
0.0625000000000002
 40
0.0625000000000002
 40
0.1250000000000004
 40
0.1250000000000004
 40
0.2500000000000007
 40
0.2500000000000007
 40
0.5000000000000004
 40
0.5000000000000004
 40
0.7500000000000001
 40
0.7500000000000001
 40
1.0
 40
1.0
 40
1.0
 40
1.0
 10
170.7322006485722
 20
376.9993585721388
 30
0.0
 10
170.7213031239815
 20
375.6787207476269
 30
0.0
 10
170.7078368222212
 20
374.3575341293618
 30
0.0
 10
170.6854936596087
 20
371.7161413813421
 30
0.0
 10
170.6744213371847
 20
370.3954662130076
 30
0.0
 10
170.640935503845
 20
366.4333832674365
 30
0.0
 10
170.6182463269063
 20
363.7919165968891
 30
0.0
 10
170.5496815055572
 20
355.8674103440596
 30
0.0
 10
170.5049043376841
 20
350.5846054403899
 30
0.0
 10
170.4139991370169
 20
340.0187070341642
 30
0.0
 10
170.3682809275456
 20
334.7357010862949
 30
0.0
 10
170.2781016473091
 20
324.1699577657654
 30
0.0
 10
170.2343083254433
 20
318.8873630505642
 30
0.0
 10
170.1863924145041
 20
313.6038875855407
 30
0.0
  0
LWPOLYLINE
  5
1AC
330
1F
100
AcDbEntity
  8
0
  6
Continuous
 62
     8
370
    18
100
AcDbPolyline
 90
        5
 70
   128
 43
0.0
 10
170.7324975955
 20
376.99915361
 10
170.7324230897
 20
376.99915361
 10
170.7323485839
 20
376.9991610605
 10
170.7322740781
 20
376.9991610605
 10
170.7321995723
 20
376.9991685111
  0
SPLINE
  5
1AD
330
1F
100
AcDbEntity
  8
0
  6
Continuous
 62
     8
370
    18
100
AcDbSpline
210
0.0
220
0.0
230
1.0
 70
     8
 71
     3
 72
    12
 73
     8
 74
     0
 42
0.000000001
 43
0.00000001
 40
0.0
 40
0.0
 40
0.0
 40
0.0
 40
0.5000000000000001
 40
0.5000000000000001
 40
0.75
 40
0.75
 40
1.0
 40
1.0
 40
1.0
 40
1.0
 10
171.2632343923559
 20
376.9710829216962
 30
0.0
 10
171.17703159566
 20
376.9732376480005
 30
0.0
 10
171.0886236524696
 20
376.9787965177896
 30
0.0
 10
170.9572026216845
 20
376.9851707709545
 30
0.0
 10
170.9133182612299
 20
376.9865826746473
 30
0.0
 10
170.8255800433294
 20
376.9915295284385
 30
0.0
 10
170.7806099223624
 20
376.996409566504
 30
0.0
 10
170.732498433033
 20
376.9991513168137
 30
0.0
  0
LINE
  5
1AE
330
1F
100
AcDbEntity
  8
0
  6
Continuous
 62
     8
370
    18
100
AcDbLine
 10
216.3613544631
 20
412.1940795738
 30
0.0
 11
216.3469524908
 21
412.1606637199
 31
0.0
  0
LINE
  5
1AF
330
1F
100
AcDbEntity
  8
0
  6
Continuous
 62
     8
370
    18
100
AcDbLine
 10
171.5871294814
 20
412.1588085253
 30
0.0
 11
171.5719284344
 21
412.1940795738
 31
0.0
  0
CIRCLE
  5
1B0
330
1F
100
AcDbEntity
  8
0
  6
Continuous
 62
     8
370
    18
100
AcDbCircle
 10
193.9666414487
 20
393.6239755037
 30
0.0
 40
3.781418633081808
  0
SPLINE
  5
1B1
330
1F
100
AcDbEntity
  8
0
  6
Continuous
 62
     8
370
    18
100
AcDbSpline
210
0.0
220
0.0
230
1.0
 70
     8
 71
     3
 72
     8
 73
     4
 74
     0
 42
0.000000001
 43
0.00000001
 40
0.0000024790398112
 40
0.0000024790398112
 40
0.0000024790398112
 40
0.0000024790398112
 40
0.7671742739455352
 40
0.7671742739455352
 40
0.7671742739455352
 40
0.7671742739455352
 10
216.7493200051234
 20
400.9624857494899
 30
0.0
 10
216.9446244947464
 20
395.7044658641194
 30
0.0
 10
217.1002499809693
 20
390.1490086473612
 30
0.0
 10
217.162130311405
 20
383.8908294220201
 30
0.0
  0
SPLINE
  5
1B2
330
1F
100
AcDbEntity
  8
0
  6
Continuous
 62
     8
370
    18
100
AcDbSpline
210
0.0
220
0.0
230
1.0
 70
     8
 71
     3
 72
     8
 73
     4
 74
     0
 42
0.000000001
 43
0.00000001
 40
0.0000024790398112
 40
0.0000024790398112
 40
0.0000024790398112
 40
0.0000024790398112
 40
0.7671742739455352
 40
0.7671742739455352
 40
0.7671742739455352
 40
0.7671742739455352
 10
171.1839628923207
 20
400.9624857494899
 30
0.0
 10
170.9886584026977
 20
395.7044658641194
 30
0.0
 10
170.8330329164748
 20
390.1490086473612
 30
0.0
 10
170.7711525860392
 20
383.8908294220201
 30
0.0
  0
LINE
  5
1B3
330
1F
100
AcDbEntity
  8
0
  6
Continuous
 62
     8
370
    18
100
AcDbLine
 10
215.9171918261
 20
378.3827860315
 30
0.0
 11
215.9168919402
 21
378.3827860315
 31
0.0
  0
LINE
  5
1B4
330
1F
100
AcDbEntity
  8
0
  6
Continuous
 62
     8
370
    18
100
AcDbLine
 10
172.0160910714
 20
378.3827860315
 30
0.0
 11
172.0163909572
 21
378.3827860315
 31
0.0
  0
LINE
  5
1B5
330
1F
100
AcDbEntity
  8
0
  6
Continuous
 62
     7
370
    25
100
AcDbLine
 10
172.3574654984
 20
130.6597309604
 30
0.0
 11
172.3579199838
 21
130.6290718213
 31
0.0
  0
SPLINE
  5
1B6
330
1F
100
AcDbEntity
  8
0
  6
Continuous
 62
     7
370
    25
100
AcDbSpline
210
0.0
220
0.0
230
1.0
 70
     8
 71
     3
 72
    19
 73
    15
 74
     0
 42
0.000000001
 43
0.00000001
 40
0.0
 40
0.0
 40
0.0
 40
0.0
 40
0.1483681937035496
 40
0.2741040141981399
 40
0.3440957021455028
 40
0.4009015283608227
 40
0.4492744364677306
 40
0.4937152168491913
 40
0.5464489682286661
 40
0.6069891046455035
 40
0.6744969432886586
 40
0.7746320525069569
 40
0.883102731727242
 40
1.0
 40
1.0
 40
1.0
 40
1.0
 10
202.5833748134829
 20
117.8738864556126
 30
0.0
 10
203.6403809791567
 20
117.8759272495541
 30
0.0
 10
205.593155531513
 20
117.8796975307549
 30
0.0
 10
208.0338466938965
 20
118.2301647398622
 30
0.0
 10
209.7467829908612
 20
118.7969212483494
 30
0.0
 10
210.8703295773224
 20
119.3468123160086
 30
0.0
 10
211.7634886942456
 20
119.9321537383461
 30
0.0
 10
212.5605871597983
 20
120.5983585968947
 30
0.0
 10
213.3187245287041
 20
121.4322631303406
 30
0.0
 10
214.0405947555754
 20
122.5037721649826
 30
0.0
 10
214.7399248067623
 20
123.9772357472259
 30
0.0
 10
215.2621085990518
 20
125.8847807526466
 30
0.0
 10
215.5228699564251
 20
128.1938344371875
 30
0.0
 10
215.5478679451493
 20
129.798856724947
 30
0.0
 10
215.5608342814304
 20
130.631374050694
 30
0.0
  0
SPLINE
  5
1B7
330
1F
100
AcDbEntity
  8
0
  6
Continuous
 62
     7
370
    25
100
AcDbSpline
210
0.0
220
0.0
230
1.0
 70
     8
 71
     3
 72
    19
 73
    15
 74
     0
 42
0.000000001
 43
0.00000001
 40
0.0
 40
0.0
 40
0.0
 40
0.0
 40
0.148355245439006
 40
0.2742115756955786
 40
0.3443207468725774
 40
0.4012060670032605
 40
0.4496087136282077
 40
0.494044167031266
 40
0.5468194358484563
 40
0.6074670996472654
 40
0.6750003121119633
 40
0.7750996604341076
 40
0.8832796206672782
 40
1.0
 40
1.0
 40
1.0
 40
1.0
 10
172.3724486160137
 20
130.6313666001134
 30
0.0
 10
172.3904037374543
 20
129.5746773108452
 30
0.0
 10
172.423590984238
 20
127.6215516618434
 30
0.0
 10
172.8156722735595
 20
125.1855299224494
 30
0.0
 10
173.4135985140029
 20
123.4809173575329
 30
0.0
 10
173.9849321669652
 20
122.3663462753574
 30
0.0
 10
174.5875870510978
 20
121.4839215352875
 30
0.0
 10
175.2694035290632
 20
120.6995144620322
 30
0.0
 10
176.119009612143
 20
119.9574710612645
 30
0.0
 10
177.2051740664008
 20
119.2555424209914
 30
0.0
 10
178.6924124290046
 20
118.5842220540712
 30
0.0
 10
180.6069101376982
 20
118.0969525756075
 30
0.0
 10
182.9164384187602
 20
117.8753468427909
 30
0.0
 10
184.5184152164312
 20
117.8743854210909
 30
0.0
 10
185.3498205396392
 20
117.8738864556126
 30
0.0
  0
SPLINE
  5
1B8
330
1F
100
AcDbEntity
  8
0
  6
Continuous
 62
     7
370
    25
100
AcDbSpline
210
0.0
220
0.0
230
1.0
 70
     8
 71
     3
 72
    21
 73
    17
 74
     0
 42
0.000000001
 43
0.00000001
 40
0.0
 40
0.0
 40
0.0
 40
0.0
 40
0.0774355761869566
 40
0.1531113357801272
 40
0.2210231038864913
 40
0.2811709403317822
 40
0.3335548456072193
 40
0.3781747510498919
 40
0.415030587377747
 40
0.4491150552272428
 40
0.5062691321621641
 40
0.5772720364060162
 40
0.6621237721343683
 40
0.7608249352434638
 40
0.8734412959715786
 40
0.9999999999999999
 40
0.9999999999999999
 40
0.9999999999999999
 40
0.9999999999999999
 10
215.5612887668468
 20
130.6618469253354
 30
0.0
 10
215.5828620864417
 20
132.1163592472004
 30
0.0
 10
215.6255184459993
 20
134.9923283492026
 30
0.0
 10
215.6871025651201
 20
139.1439184406443
 30
0.0
 10
215.7438775704557
 20
142.9707835582967
 30
0.0
 10
215.7941601526241
 20
146.3601458599823
 30
0.0
 10
215.8379576953909
 20
149.3120049799702
 30
0.0
 10
215.8752622707576
 20
151.8263585333037
 30
0.0
 10
215.9074681227736
 20
153.9969845453207
 30
0.0
 10
215.9431636117125
 20
156.403046526686
 30
0.0
 10
215.9883720636362
 20
159.4505104444927
 30
0.0
 10
216.04772937291
 20
163.4515614086417
 30
0.0
 10
216.1186649181737
 20
168.2330141254576
 30
0.0
 10
216.2012236847291
 20
173.7961039237621
 30
0.0
 10
216.2951087721042
 20
180.1426394908076
 30
0.0
 10
216.3281658877052
 20
184.6355769363716
 30
0.0
 10
216.3456579524137
 20
187.0130001053386
 30
0.0
  0
LINE
  5
1B9
330
1F
100
AcDbEntity
  8
0
  6
Continuous
 62
     7
370
    25
100
AcDbLine
 10
215.5753629136
 20
130.6290718213
 30
0.0
 11
215.5758136737
 21
130.6595595971
 31
0.0
  0
SPLINE
  5
1BA
330
1F
100
AcDbEntity
  8
0
  6
Continuous
 62
     7
370
    25
100
AcDbSpline
210
0.0
220
0.0
230
1.0
 70
     8
 71
     3
 72
    15
 73
    11
 74
     0
 42
0.000000001
 43
0.00000001
 40
0.0
 40
0.0
 40
0.0
 40
0.0
 40
0.0840748071468004
 40
0.1798463571428323
 40
0.2872675152844281
 40
0.4063815900861703
 40
0.5372120723520479
 40
0.6797589531053937
 40
0.8340215568704813
 40
1.0
 40
1.0
 40
1.0
 40
1.0
 10
171.5876286703207
 20
187.0120613321834
 30
0.0
 10
171.5978825015271
 20
185.4327229675835
 30
0.0
 10
171.6198167081203
 20
182.0543238821923
 30
0.0
 10
171.6891873208863
 20
176.6583468596235
 30
0.0
 10
171.779513418022
 20
170.6044106253896
 30
0.0
 10
171.8789583892531
 20
163.8919383273038
 30
0.0
 10
171.9883959908853
 20
156.5196984070124
 30
0.0
 10
172.107564845019
 20
148.4872547361526
 30
0.0
 10
172.2365302125669
 20
139.794619525664
 30
0.0
 10
172.3257514548588
 20
133.7794680423883
 30
0.0
 10
172.3719941305973
 20
130.6618618264966
 30
0.0
  0
SPLINE
  5
1BB
330
1F
100
AcDbEntity
  8
0
  6
Continuous
 62
     7
370
    25
100
AcDbSpline
210
0.0
220
0.0
230
1.0
 70
     8
 71
     3
 72
    16
 73
    12
 74
     0
 42
0.000000001
 43
0.00000001
 40
0.0
 40
0.0
 40
0.0
 40
0.0
 40
0.0512575023037991
 40
0.1126798005465548
 40
0.1701299668277439
 40
0.2266090298880273
 40
0.2854466318359331
 40
0.4211630901461602
 40
0.6385033956886872
 40
0.846767754816484
 40
1.0
 40
1.0
 40
1.0
 40
1.0
 10
171.6731799620248
 20
200.9758244686
 30
0.0
 10
171.6658710348517
 20
200.9936382884667
 30
0.0
 10
171.6498037584713
 20
201.0327985592433
 30
0.0
 10
171.646662468785
 20
200.8346946151109
 30
0.0
 10
171.6453373564627
 20
200.4999805429324
 30
0.0
 10
171.6472734209217
 20
199.9924879861221
 30
0.0
 10
171.650199099552
 20
199.0667747679802
 30
0.0
 10
171.6577929437556
 20
197.2407724478118
 30
0.0
 10
171.7073971757435
 20
194.7105791724965
 30
0.0
 10
171.6237454698463
 20
192.1399770958133
 30
0.0
 10
171.588657023074
 20
190.6694995575706
 30
0.0
 10
171.5737836289264
 20
190.0461892083459
 30
0.0
  0
SPLINE
  5
1BC
330
1F
100
AcDbEntity
  8
0
  6
Continuous
 62
     7
370
    25
100
AcDbSpline
210
0.0
220
0.0
230
1.0
 70
     8
 71
     3
 72
    20
 73
    16
 74
     0
 42
0.000000001
 43
0.00000001
 40
0.0
 40
0.0
 40
0.0
 40
0.0
 40
0.0733576556922288
 40
0.1623191095661644
 40
0.2403073802330172
 40
0.3092798355246696
 40
0.3916822007218849
 40
0.4696367708462887
 40
0.5451762356268578
 40
0.658751032700825
 40
0.7794999329445489
 40
0.88817195295264
 40
0.9377172358592023
 40
0.9863796492816002
 40
1.0
 40
1.0
 40
1.0
 40
1.0
 10
216.3609521317341
 20
189.7948122069411
 30
0.0
 10
216.3530506346898
 20
190.0607735790214
 30
0.0
 10
216.3355669248798
 20
190.6492685723209
 30
0.0
 10
216.2414102059876
 20
191.6455926579285
 30
0.0
 10
216.1722102768075
 20
192.6824261773391
 30
0.0
 10
216.1469867515344
 20
193.7538539670637
 30
0.0
 10
216.2064043404152
 20
194.8517167390414
 30
0.0
 10
216.2532816467031
 20
195.9678190125695
 30
0.0
 10
216.2687276046754
 20
197.2423594497008
 30
0.0
 10
216.2659070418298
 20
198.6544814674745
 30
0.0
 10
216.2648029399126
 20
200.0085469313556
 30
0.0
 10
216.2887078885615
 20
200.8910064788773
 30
0.0
 10
216.2976474076791
 20
201.2317006092946
 30
0.0
 10
216.3043295053394
 20
201.3702672208657
 30
0.0
 10
216.2935359730986
 20
201.3191232180669
 30
0.0
 10
216.2911755817987
 20
201.3079387553208
 30
0.0
  0
SPLINE
  5
1BD
330
1F
100
AcDbEntity
  8
0
  6
Continuous
 62
     7
370
    25
100
AcDbSpline
210
0.0
220
0.0
230
1.0
 70
     8
 71
     3
 72
    22
 73
    18
 74
     0
 42
0.000000001
 43
0.00000001
 40
0.0
 40
0.0
 40
0.0
 40
0.0
 40
0.0368379349844001
 40
0.119070989900645
 40
0.1866133682434297
 40
0.2492281141243796
 40
0.3102789080407646
 40
0.3756039815886487
 40
0.4384318183909597
 40
0.5013618446541548
 40
0.562865433000494
 40
0.6265232617633253
 40
0.6908158566486964
 40
0.7604453980775651
 40
0.8410729454421734
 40
0.9497872612153938
 40
0.9999999999999999
 40
0.9999999999999999
 40
0.9999999999999999
 40
0.9999999999999999
 10
172.4385743814565
 20
91.61639385374114
 30
0.0
 10
172.4443902817037
 20
91.37740496819089
 30
0.0
 10
172.463188973864
 20
90.60492292787646
 30
0.0
 10
172.5483986683562
 20
89.39555212843455
 30
0.0
 10
172.7678582799442
 20
88.03236220203938
 30
0.0
 10
173.1150817476827
 20
86.83709504229502
 30
0.0
 10
173.6234691804481
 20
85.71621700144377
 30
0.0
 10
174.2988750252277
 20
84.68426287647662
 30
0.0
 10
175.1392102087777
 20
83.76531873625369
 30
0.0
 10
176.0952269921156
 20
83.0067475965871
 30
0.0
 10
177.1599050287717
 20
82.40120776336437
 30
0.0
 10
178.3067724361433
 20
81.94720570851531
 30
0.0
 10
179.5539839515434
 20
81.63703097110086
 30
0.0
 10
180.9347327205002
 20
81.44335897346807
 30
0.0
 10
182.6128206179011
 20
81.34043537894796
 30
0.0
 10
184.1660871392304
 20
81.27416233376881
 30
0.0
 10
185.1973232626107
 20
81.25570396800714
 30
0.0
 10
185.5231406020977
 20
81.24987207801861
 30
0.0
  0
LINE
  5
1BE
330
1F
100
AcDbEntity
  8
0
  6
Continuous
 62
     7
370
    25
100
AcDbLine
 10
172.4238389957
 20
92.1229513779
 30
0.0
 11
172.4385743815
 21
91.6163938537
 31
0.0
  0
SPLINE
  5
1BF
330
1F
100
AcDbEntity
  8
0
  6
Continuous
 62
     7
370
    25
100
AcDbSpline
210
0.0
220
0.0
230
1.0
 70
     8
 71
     3
 72
     9
 73
     5
 74
     0
 42
0.000000001
 43
0.00000001
 40
0.0
 40
0.0
 40
0.0
 40
0.0
 40
0.350654523968673
 40
1.0
 40
1.0
 40
1.0
 40
1.0
 10
215.5058657604314
 20
90.45020662696884
 30
0.0
 10
215.5266022227636
 20
90.64486382255396
 30
0.0
 10
215.5857386687946
 20
91.19998911619633
 30
0.0
 10
215.5874558721302
 20
91.75854770333302
 30
0.0
 10
215.5885709303476
 20
92.1212451949887
 30
0.0
  0
SPLINE
  5
1C0
330
1F
100
AcDbEntity
  8
0
  6
Continuous
 62
     7
370
    25
100
AcDbSpline
210
0.0
220
0.0
230
1.0
 70
     8
 71
     3
 72
    21
 73
    17
 74
     0
 42
0.000000001
 43
0.00000001
 40
0.0
 40
0.0
 40
0.0
 40
0.0
 40
0.0446274238146145
 40
0.1738421447602188
 40
0.2635029904247845
 40
0.3379453234753956
 40
0.4101958960430375
 40
0.4770996231338629
 40
0.5398542391752961
 40
0.6077271381827247
 40
0.6724291248793347
 40
0.7390883779173968
 40
0.807258188365135
 40
0.8720310460689176
 40
0.9444746001331212
 40
1.0
 40
1.0
 40
1.0
 40
1.0
 10
202.4104272800543
 20
81.22057639511154
 30
0.0
 10
202.6827704063372
 20
81.22261291285528
 30
0.0
 10
203.7436587377003
 20
81.23054598588863
 30
0.0
 10
205.3509908900955
 20
81.3056318900224
 30
0.0
 10
207.13408317681
 20
81.46545529079117
 30
0.0
 10
208.5628849720657
 20
81.67713186785845
 30
0.0
 10
209.8229434389926
 20
82.02508265883439
 30
0.0
 10
210.963089580544
 20
82.50144505645083
 30
0.0
 10
212.0031105982669
 20
83.11953834051403
 30
0.0
 10
212.920597693898
 20
83.88956967843556
 30
0.0
 10
213.7191472091307
 20
84.81242165475925
 30
0.0
 10
214.3733209274425
 20
85.84461630954769
 30
0.0
 10
214.8661816869165
 20
86.96438990967759
 30
0.0
 10
215.1967479703642
 20
88.1756511424474
 30
0.0
 10
215.4185785399896
 20
89.33316618963464
 30
0.0
 10
215.4794526435263
 20
90.11219013944928
 30
0.0
 10
215.5058657604315
 20
90.45020662696882
 30
0.0
  0
SPLINE
  5
1C1
330
1F
100
AcDbEntity
  8
0
  6
Continuous
 62
     7
370
    25
100
AcDbSpline
210
0.0
220
0.0
230
1.0
 70
     8
 71
     3
 72
     9
 73
     5
 74
     0
 42
0.000000001
 43
0.00000001
 40
0.0
 40
0.0
 40
0.0
 40
0.0
 40
0.2436392979067516
 40
1.0
 40
1.0
 40
1.0
 40
1.0
 10
185.5230688902594
 20
81.24619149120376
 30
0.0
 10
186.2086708003773
 20
81.23135263424464
 30
0.0
 10
189.0226746002907
 20
81.17044761158783
 30
0.0
 10
191.8374575887671
 20
81.17166156685097
 30
0.0
 10
193.9664488261713
 20
81.17257975490612
 30
0.0
  0
SPLINE
  5
1C2
330
1F
100
AcDbEntity
  8
0
  6
Continuous
 62
     7
370
    25
100
AcDbSpline
210
0.0
220
0.0
230
1.0
 70
     8
 71
     3
 72
    10
 73
     6
 74
     0
 42
0.000000001
 43
0.00000001
 40
0.0
 40
0.0
 40
0.0
 40
0.0
 40
0.2070507821701925
 40
0.8673249672119852
 40
1.0
 40
1.0
 40
1.0
 40
1.0
 10
193.9664862230728
 20
81.1698081389241
 30
0.0
 10
194.5492783058566
 20
81.17311794619052
 30
0.0
 10
196.9905640561146
 20
81.186982556837
 30
0.0
 10
199.8065325295717
 20
81.14950116349857
 30
0.0
 10
202.0370269706246
 20
81.23494919688358
 30
0.0
 10
202.4102298396685
 20
81.24924622924847
 30
0.0
  0
LWPOLYLINE
  5
1C3
330
1F
100
AcDbEntity
  8
0
  6
Continuous
 62
     7
370
    25
100
AcDbPolyline
 90
        3
 70
   128
 43
0.0
 10
171.6754449385
 20
139.4223662511
 10
171.7036099958
 20
137.4341713682
 10
172.1068912971
 20
109.076397349
  0
LWPOLYLINE
  5
1C4
330
1F
100
AcDbEntity
  8
0
  6
Continuous
 62
     7
370
    25
100
AcDbPolyline
 90
        3
 70
   128
 43
0.0
 10
215.8267995196
 20
109.0763228432
 10
215.9640149999
 20
118.7184842721
 10
216.2583017576
 20
139.4824551836
  0
SPLINE
  5
1C5
330
1F
100
AcDbEntity
  8
0
  6
Continuous
 62
     7
370
    25
100
AcDbSpline
210
0.0
220
0.0
230
1.0
 70
     8
 71
     3
 72
    10
 73
     6
 74
     0
 42
0.000000001
 43
0.00000001
 40
0.0
 40
0.0
 40
0.0
 40
0.0
 40
0.177855091524145
 40
0.6332742747135409
 40
1.0
 40
1.0
 40
1.0
 40
1.0
 10
170.67434022604
 20
201.643251669424
 30
0.0
 10
170.6703299695296
 20
201.653309958162
 30
0.0
 10
170.6560509727278
 20
201.6891236953501
 30
0.0
 10
170.6825752740308
 20
201.3536309866679
 30
0.0
 10
170.7174138557088
 20
200.7225087848447
 30
0.0
 10
170.732953943596
 20
200.4409905940466
 30
0.0
  0
SPLINE
  5
1C6
330
1F
100
AcDbEntity
  8
0
  6
Continuous
 62
     7
370
    25
100
AcDbSpline
210
0.0
220
0.0
230
1.0
 70
     8
 71
     3
 72
    12
 73
     8
 74
     0
 42
0.000000001
 43
0.00000001
 40
0.0
 40
0.0
 40
0.0
 40
0.0
 40
0.2451792721458625
 40
0.4854343929720538
 40
0.7013585422478039
 40
0.893074985674477
 40
1.0
 40
1.0
 40
1.0
 40
1.0
 10
217.0411323982336
 20
195.1359546229415
 30
0.0
 10
217.0470369625543
 20
195.5767207149701
 30
0.0
 10
217.0587275046288
 20
196.4494006052965
 30
0.0
 10
217.086041362989
 20
197.598202106199
 30
0.0
 10
217.1142771244096
 20
198.5503777778634
 30
0.0
 10
217.1394285502081
 20
199.2269822720514
 30
0.0
 10
217.1521301929779
 20
199.5108147627198
 30
0.0
 10
217.1566778647758
 20
199.6124376028948
 30
0.0
  0
LINE
  5
1C7
330
1F
100
AcDbEntity
  8
0
  6
Continuous
 62
     7
370
    25
100
AcDbLine
 10
191.9666413537
 20
249.4090477422
 30
0.0
 11
191.9666413537
 21
236.4090493366
 31
0.0
  0
LINE
  5
1C8
330
1F
100
AcDbEntity
  8
0
  6
Continuous
 62
     7
370
    25
100
AcDbLine
 10
195.9666415437
 20
236.4090493366
 30
0.0
 11
195.9666415437
 21
249.4090477422
 31
0.0
  0
LINE
  5
1C9
330
1F
100
AcDbEntity
  8
0
  6
Continuous
 62
     7
370
    25
100
AcDbLine
 10
195.9666415437
 20
232.6502779916
 30
0.0
 11
195.9666415437
 21
236.4090493366
 31
0.0
  0
LINE
  5
1CA
330
1F
100
AcDbEntity
  8
0
  6
Continuous
 62
     7
370
    25
100
AcDbLine
 10
191.9666413537
 20
236.4090493366
 30
0.0
 11
191.9666413537
 21
232.6502779916
 31
0.0
  0
LINE
  5
1CB
330
1F
100
AcDbEntity
  8
0
  6
Continuous
 62
     7
370
    25
100
AcDbLine
 10
191.9666413537
 20
232.6502779916
 30
0.0
 11
191.9666413537
 21
229.9064526752
 31
0.0
  0
LINE
  5
1CC
330
1F
100
AcDbEntity
  8
0
  6
Continuous
 62
     7
370
    25
100
AcDbLine
 10
195.9666415437
 20
229.9053816542
 30
0.0
 11
195.9666415437
 21
232.6502779916
 31
0.0
  0
SPLINE
  5
1CD
330
1F
100
AcDbEntity
  8
0
  6
Continuous
 62
     7
370
    25
100
AcDbSpline
210
0.0
220
0.0
230
1.0
 70
     8
 71
     3
 72
     8
 73
     4
 74
     0
 42
0.000000001
 43
0.00000001
 40
0.0
 40
0.0
 40
0.0
 40
0.0
 40
1.0
 40
1.0
 40
1.0
 40
1.0
 10
202.5774871961668
 20
117.8586805307883
 30
0.0
 10
199.7072039898046
 20
117.858566312753
 30
0.0
 10
196.8369261114874
 20
117.8585125882116
 30
0.0
 10
193.9666480124617
 20
117.8585128799678
 30
0.0
  0
SPLINE
  5
1CE
330
1F
100
AcDbEntity
  8
0
  6
Continuous
 62
     7
370
    25
100
AcDbSpline
210
0.0
220
0.0
230
1.0
 70
     8
 71
     3
 72
     8
 73
     4
 74
     0
 42
0.000000001
 43
0.00000001
 40
0.0
 40
0.0
 40
0.0
 40
0.0
 40
1.0
 40
1.0
 40
1.0
 40
1.0
 10
193.9666348849817
 20
117.8585128799678
 30
0.0
 10
191.0963568333522
 20
117.8585125882075
 30
0.0
 10
188.22607896034
 20
117.8585663127626
 30
0.0
 10
185.3557957012764
 20
117.8586805307884
 30
0.0
  0
SPLINE
  5
1CF
330
1F
100
AcDbEntity
  8
0
  6
Continuous
 62
     7
370
    25
100
AcDbSpline
210
0.0
220
0.0
230
1.0
 70
     8
 71
     3
 72
    10
 73
     6
 74
     0
 42
0.000000001
 43
0.00000001
 40
0.0
 40
0.0
 40
0.0
 40
0.0
 40
0.4329441417864291
 40
0.865888245829427
 40
1.0
 40
1.0
 40
1.0
 40
1.0
 10
215.5741577821829
 20
130.6585388675503
 30
0.0
 10
215.6656242093598
 20
136.9183168978984
 30
0.0
 10
215.8485570557397
 20
149.4378724128766
 30
0.0
 10
216.0847592258543
 20
163.8961537342533
 30
0.0
 10
216.1812878681445
 20
172.0953109545666
 30
0.0
 10
216.2041174101688
 20
174.0344556465917
 30
0.0
  0
LINE
  5
1D0
330
1F
100
AcDbEntity
  8
0
  6
Continuous
 62
     7
370
    25
100
AcDbLine
 10
216.3057954836
 20
182.4146228329
 30
0.0
 11
216.3615500408
 21
187.0099267408
 31
0.0
  0
LINE
  5
1D1
330
1F
100
AcDbEntity
  8
0
  6
Continuous
 62
     7
370
    25
100
AcDbLine
 10
171.5719284344
 20
187.0099435046
 30
0.0
 11
171.6095371026
 21
187.0130075559
 31
0.0
  0
LINE
  5
1D2
330
1F
100
AcDbEntity
  8
0
  6
Continuous
 62
     7
370
    25
100
AcDbLine
 10
171.6125657636
 20
197.0734995276
 30
0.0
 11
171.5719284344
 21
187.0099435046
 31
0.0
  0
LINE
  5
1D3
330
1F
100
AcDbEntity
  8
0
  6
Continuous
 62
     7
370
    25
100
AcDbLine
 10
216.3613544631
 20
187.0099435046
 30
0.0
 11
216.3207171339
 21
197.0734995276
 31
0.0
  0
SPLINE
  5
1D4
330
1F
100
AcDbEntity
  8
0
  6
Continuous
 62
     7
370
    25
100
AcDbSpline
210
0.0
220
0.0
230
1.0
 70
     8
 71
     3
 72
    38
 73
    34
 74
     0
 42
0.000000001
 43
0.00000001
 40
0.0
 40
0.0
 40
0.0
 40
0.0
 40
0.1250000000000003
 40
0.1250000000000003
 40
0.1875000000000004
 40
0.1875000000000004
 40
0.2500000000000006
 40
0.2500000000000006
 40
0.2812500000000007
 40
0.2812500000000007
 40
0.3125000000000009
 40
0.3125000000000009
 40
0.3750000000000011
 40
0.3750000000000011
 40
0.4375000000000014
 40
0.4375000000000014
 40
0.4687500000000016
 40
0.4687500000000016
 40
0.5000000000000019
 40
0.5000000000000019
 40
0.5625000000000021
 40
0.5625000000000021
 40
0.593750000000002
 40
0.593750000000002
 40
0.6250000000000019
 40
0.6250000000000019
 40
0.7500000000000012
 40
0.7500000000000012
 40
0.8125000000000009
 40
0.8125000000000009
 40
0.8750000000000006
 40
0.8750000000000006
 40
1.0
 40
1.0
 40
1.0
 40
1.0
 10
193.9666414487222
 20
228.1774897152328
 30
0.0
 10
192.3778677750323
 20
228.1775193313285
 30
0.0
 10
190.8052883319339
 20
228.0908061790969
 30
0.0
 10
188.4760159600984
 20
227.802204205815
 30
0.0
 10
187.7045344902974
 20
227.6795287180288
 30
0.0
 10
186.172321439875
 20
227.376597041782
 30
0.0
 10
185.4113467053223
 20
227.1976432829082
 30
0.0
 10
184.2791036277192
 20
226.8798318681449
 30
0.0
 10
183.9033333854487
 20
226.7650881828392
 30
0.0
 10
183.1556120440939
 20
226.5151439556998
 30
0.0
 10
182.7826011721979
 20
226.3795173586813
 30
0.0
 10
181.6775429917529
 20
225.940105809003
 30
0.0
 10
180.9674057340077
 20
225.606901031808
 30
0.0
 10
179.6042622150248
 20
224.853910219429
 30
0.0
 10
178.9515395087668
 20
224.4336944604814
 30
0.0
 10
178.0181249501383
 20
223.734159306961
 30
0.0
 10
177.713445501984
 20
223.4885449936777
 30
0.0
 10
177.1252684684951
 20
222.9786298402234
 30
0.0
 10
176.842586090296
 20
222.7151348588311
 30
0.0
 10
176.027410065263
 20
221.9000461486187
 30
0.0
 10
175.5273894370757
 20
221.3241466216723
 30
0.0
 10
174.8375572773985
 20
220.4152390176621
 30
0.0
 10
174.6177179305844
 20
220.1047065233394
 30
0.0
 10
174.1975982134839
 20
219.4690017951545
 30
0.0
 10
173.9966996921591
 20
219.1427298773727
 30
0.0
 10
173.0484635438848
 20
217.4914523371924
 30
0.0
 10
172.4680996226646
 20
216.1110342748273
 30
0.0
 10
171.7983618376769
 20
213.9734850100763
 30
0.0
 10
171.6090164550573
 20
213.249670746625
 30
0.0
 10
171.2899091527846
 20
211.7821851782375
 30
0.0
 10
171.16089026633
 20
211.0426195967731
 30
0.0
 10
170.8562097298769
 20
208.8212127811116
 30
0.0
 10
170.756918964302
 20
207.33139057989
 30
0.0
 10
170.7711525860379
 20
205.8318545060494
 30
0.0
  0
SPLINE
  5
1D5
330
1F
100
AcDbEntity
  8
0
  6
Continuous
 62
     7
370
    25
100
AcDbSpline
210
0.0
220
0.0
230
1.0
 70
     8
 71
     3
 72
    34
 73
    30
 74
     0
 42
0.000000001
 43
0.00000001
 40
0.0
 40
0.0
 40
0.0
 40
0.0
 40
0.125
 40
0.125
 40
0.2499999999999999
 40
0.2499999999999999
 40
0.2812499999999998
 40
0.2812499999999998
 40
0.3124999999999996
 40
0.3124999999999996
 40
0.3749999999999996
 40
0.3749999999999996
 40
0.4374999999999996
 40
0.4374999999999996
 40
0.4999999999999996
 40
0.4999999999999996
 40
0.6249999999999997
 40
0.6249999999999997
 40
0.6562499999999998
 40
0.6562499999999998
 40
0.6874999999999999
 40
0.6874999999999999
 40
0.7499999999999999
 40
0.7499999999999999
 40
0.8125
 40
0.8125
 40
0.875
 40
0.875
 40
1.0
 40
1.0
 40
1.0
 40
1.0
 10
217.1621303114037
 20
205.8318545060959
 30
0.0
 10
217.1763270506645
 20
207.3275049489494
 30
0.0
 10
217.0775223454262
 20
208.8053542762325
 30
0.0
 10
216.6798625447187
 20
211.7295389961579
 30
0.0
 10
216.3787319770082
 20
213.1755159337435
 30
0.0
 10
215.8285248631363
 20
214.9556093549675
 30
0.0
 10
215.7096525385523
 20
215.3102369074014
 30
0.0
 10
215.4525911177788
 20
216.016449041569
 30
0.0
 10
215.3139956677686
 20
216.3689800964804
 30
0.0
 10
214.8693932728605
 20
217.4145209870193
 30
0.0
 10
214.5363735197207
 20
218.0919048234232
 30
0.0
 10
213.7900684206448
 20
219.4036148653299
 30
0.0
 10
213.376884970295
 20
220.0379957316455
 30
0.0
 10
212.4603841769132
 20
221.2584060879578
 30
0.0
 10
211.9532078332839
 20
221.8478402273249
 30
0.0
 10
210.3299860794554
 20
223.4848747898452
 30
0.0
 10
209.1036627615524
 20
224.4159197700972
 30
0.0
 10
207.3876156603657
 20
225.3760859454198
 30
0.0
 10
207.035323451651
 20
225.5578391681341
 30
0.0
 10
206.3248316799021
 20
225.896158437592
 30
0.0
 10
205.9651782973753
 20
226.0535587262132
 30
0.0
 10
204.8739705738294
 20
226.4930826563649
 30
0.0
 10
204.130263119285
 20
226.7427813910822
 30
0.0
 10
202.6172548478475
 20
227.1738949275591
 30
0.0
 10
201.8486552293448
 20
227.3571805496989
 30
0.0
 10
200.2909771030743
 20
227.6691134435118
 30
0.0
 10
199.5047360911718
 20
227.7954246515245
 30
0.0
 10
197.143871188389
 20
228.0905733098398
 30
0.0
 10
195.5594275844172
 20
228.1775194059106
 30
0.0
 10
193.9666414487221
 20
228.1774897150193
 30
0.0
  0
SPLINE
  5
1D6
330
1F
100
AcDbEntity
  8
0
  6
Continuous
 62
     7
370
    25
100
AcDbSpline
210
0.0
220
0.0
230
1.0
 70
     8
 71
     3
 72
     9
 73
     5
 74
     0
 42
0.000000001
 43
0.00000001
 40
0.0
 40
0.0
 40
0.0
 40
0.0
 40
0.2969342099039197
 40
1.0
 40
1.0
 40
1.0
 40
1.0
 10
171.6476673114158
 20
199.8575020998888
 30
0.0
 10
171.5162073858477
 20
200.2968687049897
 30
0.0
 10
171.0734833035984
 20
201.7765453149807
 30
0.0
 10
170.9337013872762
 20
203.2581242889717
 30
0.0
 10
170.8354255038358
 20
204.2997717809104
 30
0.0
  0
SPLINE
  5
1D7
330
1F
100
AcDbEntity
  8
0
  6
Continuous
 62
     7
370
    25
100
AcDbSpline
210
0.0
220
0.0
230
1.0
 70
     8
 71
     3
 72
     8
 73
     4
 74
     0
 42
0.000000001
 43
0.00000001
 40
0.0
 40
0.0
 40
0.0
 40
0.0
 40
1.0
 40
1.0
 40
1.0
 40
1.0
 10
170.8354255917551
 20
204.2997716892621
 30
0.0
 10
170.7973893143819
 20
204.8098505885636
 30
0.0
 10
170.7760237378935
 20
205.3205470374826
 30
0.0
 10
170.7711525860377
 20
205.8318545060494
 30
0.0
  0
SPLINE
  5
1D8
330
1F
100
AcDbEntity
  8
0
  6
Continuous
 62
     7
370
    25
100
AcDbSpline
210
0.0
220
0.0
230
1.0
 70
     8
 71
     3
 72
     8
 73
     4
 74
     0
 42
0.000000001
 43
0.00000001
 40
0.0
 40
0.0
 40
0.0
 40
0.0
 40
1.0
 40
1.0
 40
1.0
 40
1.0
 10
217.1621303114052
 20
205.8318545060701
 30
0.0
 10
217.1572591595495
 20
205.3205470375082
 30
0.0
 10
217.1358935830619
 20
204.8098505885586
 30
0.0
 10
217.097857305689
 20
204.2997716892618
 30
0.0
  0
SPLINE
  5
1D9
330
1F
100
AcDbEntity
  8
0
  6
Continuous
 62
     7
370
    25
100
AcDbSpline
210
0.0
220
0.0
230
1.0
 70
     8
 71
     3
 72
    10
 73
     6
 74
     0
 42
0.000000001
 43
0.00000001
 40
0.0
 40
0.0
 40
0.0
 40
0.0
 40
0.4656915576692721
 40
0.9379454339967063
 40
1.0
 40
1.0
 40
1.0
 40
1.0
 10
217.0978573936083
 20
204.2997717809104
 30
0.0
 10
217.0202728787501
 20
203.5861810219225
 30
0.0
 10
216.8640105624989
 20
202.1489438998139
 30
0.0
 10
216.579453108805
 20
200.5854106055822
 30
0.0
 10
216.3017121079783
 20
199.7705001539756
 30
0.0
 10
216.2694552767135
 20
199.6758564792745
 30
0.0
  0
SPLINE
  5
1DA
330
1F
100
AcDbEntity
  8
0
  6
Continuous
 62
     7
370
    25
100
AcDbSpline
210
0.0
220
0.0
230
1.0
 70
     8
 71
     3
 72
    14
 73
    10
 74
     0
 42
0.000000001
 43
0.00000001
 40
0.0
 40
0.0
 40
0.0
 40
0.0
 40
0.25
 40
0.25
 40
0.5
 40
0.5
 40
0.75
 40
0.75
 40
1.0
 40
1.0
 40
1.0
 40
1.0
 10
215.826710553777
 20
109.0763847238081
 30
0.0
 10
215.8060645079978
 20
107.6634772702491
 30
0.0
 10
215.7840962030808
 20
106.2505932322411
 30
0.0
 10
215.7360816864516
 20
103.4249133093893
 30
0.0
 10
215.7101218586437
 20
102.012111371739
 30
0.0
 10
215.6566528375679
 20
99.18653744624154
 30
0.0
 10
215.6303516193783
 20
97.77374814232597
 30
0.0
 10
215.5807714429453
 20
94.94812071447554
 30
0.0
 10
215.5579546462214
 20
93.53524941428195
 30
0.0
 10
215.5114694310305
 20
92.1229735874867
 30
0.0
  0
SPLINE
  5
1DB
330
1F
100
AcDbEntity
  8
0
  6
Continuous
 62
     7
370
    25
100
AcDbSpline
210
0.0
220
0.0
230
1.0
 70
     8
 71
     3
 72
    14
 73
    10
 74
     0
 42
0.000000001
 43
0.00000001
 40
0.0
 40
0.0
 40
0.0
 40
0.0
 40
0.25
 40
0.25
 40
0.5
 40
0.5
 40
0.75
 40
0.75
 40
1.0
 40
1.0
 40
1.0
 40
1.0
 10
172.4218134664128
 20
92.1229735874869
 30
0.0
 10
172.375328251222
 20
93.53524941428215
 30
0.0
 10
172.3525114544981
 20
94.94812071447568
 30
0.0
 10
172.3029312780651
 20
97.77374814232613
 30
0.0
 10
172.2766300598755
 20
99.18653744624166
 30
0.0
 10
172.2231610387997
 20
102.0121113717391
 30
0.0
 10
172.1972012109919
 20
103.4249133093893
 30
0.0
 10
172.1491866943626
 20
106.2505932322412
 30
0.0
 10
172.1272183894456
 20
107.6634772702493
 30
0.0
 10
172.1065723436664
 20
109.0763847238083
 30
0.0
  0
SPLINE
  5
1DC
330
1F
100
AcDbEntity
  8
0
  6
Continuous
 62
     7
370
    25
100
AcDbSpline
210
0.0
220
0.0
230
1.0
 70
     8
 71
     3
 72
    10
 73
     6
 74
     0
 42
0.000000001
 43
0.00000001
 40
0.0
 40
0.0
 40
0.0
 40
0.0
 40
0.5
 40
0.5
 40
1.0
 40
1.0
 40
1.0
 40
1.0
 10
171.566677460067
 20
147.0763285693473
 30
0.0
 10
171.5133868222547
 20
150.7724621018684
 30
0.0
 10
171.4621798451695
 20
154.4686251626276
 30
0.0
 10
171.3629342363121
 20
161.8609931385556
 30
0.0
 10
171.3152608035042
 20
165.5572114872772
 30
0.0
 10
171.2632978760512
 20
169.2533530801591
 30
0.0
  0
LINE
  5
1DD
330
1F
100
AcDbEntity
  8
0
  6
Continuous
 62
     7
370
    25
100
AcDbLine
 10
171.6754393506
 20
139.424996306
 30
0.0
 11
171.5670017379
 21
147.0763290718
 31
0.0
  0
SPLINE
  5
1DE
330
1F
100
AcDbEntity
  8
0
  6
Continuous
 62
     7
370
    25
100
AcDbSpline
210
0.0
220
0.0
230
1.0
 70
     8
 71
     3
 72
    10
 73
     6
 74
     0
 42
0.000000001
 43
0.00000001
 40
0.0
 40
0.0
 40
0.0
 40
0.0
 40
0.5
 40
0.5
 40
1.0
 40
1.0
 40
1.0
 40
1.0
 10
216.6699850213926
 20
169.2533530801589
 30
0.0
 10
216.6180221035578
 20
165.5572121821788
 30
0.0
 10
216.5703486569583
 20
161.8609928252577
 30
0.0
 10
216.4711030504239
 20
154.4686250272385
 30
0.0
 10
216.4198960849814
 20
150.7724627810442
 30
0.0
 10
216.3666054373767
 20
147.0763285693472
 30
0.0
  0
LINE
  5
1DF
330
1F
100
AcDbEntity
  8
0
  6
Continuous
 62
     7
370
    25
100
AcDbLine
 10
216.3662811595
 20
147.0763290718
 30
0.0
 11
216.2587543803
 21
139.4891607061
 31
0.0
  0
SPLINE
  5
1E0
330
1F
100
AcDbEntity
  8
0
  6
Continuous
 62
     7
370
    25
100
AcDbSpline
210
0.0
220
0.0
230
1.0
 70
     8
 71
     3
 72
    12
 73
     8
 74
     0
 42
0.000000001
 43
0.00000001
 40
0.0
 40
0.0
 40
0.0
 40
0.0
 40
0.5000000000000001
 40
0.5000000000000001
 40
0.75
 40
0.75
 40
1.0
 40
1.0
 40
1.0
 40
1.0
 10
171.2632343923559
 20
169.2529722849669
 30
0.0
 10
171.17703159566
 20
175.3583963632187
 30
0.0
 10
171.0886236524696
 20
181.4637869843614
 30
0.0
 10
170.9572026216845
 20
190.6218911930898
 30
0.0
 10
170.9133182612299
 20
193.674592059183
 30
0.0
 10
170.8255800433294
 20
199.7799924814082
 30
0.0
 10
170.7806099223624
 20
202.8326746808611
 30
0.0
 10
170.732498433033
 20
205.8853129290615
 30
0.0
  0
SPLINE
  5
1E1
330
1F
100
AcDbEntity
  8
0
  6
Continuous
 62
     7
370
    25
100
AcDbSpline
210
0.0
220
0.0
230
1.0
 70
     8
 71
     3
 72
    12
 73
     8
 74
     0
 42
0.000000001
 43
0.00000001
 40
0.0
 40
0.0
 40
0.0
 40
0.0
 40
0.2500000000000001
 40
0.2500000000000001
 40
0.5000000000000001
 40
0.5000000000000001
 40
1.0
 40
1.0
 40
1.0
 40
1.0
 10
217.2007844641862
 20
205.8853129147928
 30
0.0
 10
217.1526730001287
 20
202.8326762698214
 30
0.0
 10
217.1077028846745
 20
199.7799946009289
 30
0.0
 10
217.0199646593855
 20
193.6745936786235
 30
0.0
 10
216.9760802978344
 20
190.6218927323138
 30
0.0
 10
216.8446592593569
 20
181.4637879847551
 30
0.0
 10
216.756251311745
 20
175.3583970687294
 30
0.0
 10
216.6700485050879
 20
169.2529722849662
 30
0.0
  0
SPLINE
  5
1E2
330
1F
100
AcDbEntity
  8
0
  6
Continuous
 62
     7
370
    25
100
AcDbSpline
210
0.0
220
0.0
230
1.0
 70
     8
 71
     3
 72
    27
 73
    23
 74
     0
 42
0.000000001
 43
0.00000001
 40
0.0
 40
0.0
 40
0.0
 40
0.0
 40
0.0081179579163803
 40
0.0558656612080626
 40
0.1039316294500505
 40
0.1529536358856528
 40
0.2022884912421021
 40
0.2522992837503428
 40
0.3026458630370564
 40
0.3540888137048964
 40
0.4059323151458896
 40
0.4554390995763735
 40
0.5053472677173453
 40
0.5565956892196883
 40
0.6083360742314909
 40
0.6529778691440967
 40
0.7438117311186242
 40
0.7900856916382604
 40
0.8349010257711036
 40
0.9257943003712549
 40
0.971923856390501
 40
1.0
 40
1.0
 40
1.0
 40
1.0
 10
217.2278793382503
 20
200.9670341804795
 30
0.0
 10
217.2579223378252
 20
201.0753536469511
 30
0.0
 10
217.4646703960455
 20
201.8207798586252
 30
0.0
 10
217.6903403446493
 20
203.2464182005887
 30
0.0
 10
217.9016996933704
 20
205.2406994521236
 30
0.0
 10
217.9381449952453
 20
207.2705101542281
 30
0.0
 10
217.8165408678483
 20
209.3228920513995
 30
0.0
 10
217.526944781423
 20
211.3774119257106
 30
0.0
 10
217.0644228641874
 20
213.4299375490335
 30
0.0
 10
216.4225831103708
 20
215.4605929199375
 30
0.0
 10
215.6083908976934
 20
217.4161705392919
 30
0.0
 10
214.6319603738327
 20
219.271806836215
 30
0.0
 10
213.4971999294861
 20
221.0255396055971
 30
0.0
 10
212.182257620994
 20
222.688605507334
 30
0.0
 10
210.7609892270646
 20
224.1624066656607
 30
0.0
 10
208.7972781047127
 20
225.8577399955197
 30
0.0
 10
206.6852155275571
 20
227.2519619076678
 30
0.0
 10
204.4253707033049
 20
228.3684515540964
 30
0.0
 10
202.0829285418813
 20
229.3046005327891
 30
0.0
 10
199.6399719504414
 20
229.9445456664243
 30
0.0
 10
197.3824903414357
 20
230.3333346890551
 30
0.0
 10
196.3552889606538
 20
230.3765434801245
 30
0.0
 10
195.966641543717
 20
230.3928917691283
 30
0.0
  0
SPLINE
  5
1E3
330
1F
100
AcDbEntity
  8
0
  6
Continuous
 62
     7
370
    25
100
AcDbSpline
210
0.0
220
0.0
230
1.0
 70
     8
 71
     3
 72
    13
 73
     9
 74
     0
 42
0.000000001
 43
0.00000001
 40
0.0
 40
0.0
 40
0.0
 40
0.0
 40
0.0403143173350425
 40
0.0906930303766365
 40
0.177494300414392
 40
0.4216045413773641
 40
0.7539795835494351
 40
1.0
 40
1.0
 40
1.0
 40
1.0
 10
193.9666402162177
 20
229.8680449322038
 30
0.0
 10
194.0532822692618
 20
229.868009883299
 30
0.0
 10
194.2481964056796
 20
229.8679310355946
 30
0.0
 10
194.5751622553252
 20
229.8672500122519
 30
0.0
 10
195.0971539463864
 20
229.8657387721668
 30
0.0
 10
195.5949708622881
 20
229.8667657162738
 30
0.0
 10
195.9265973615553
 20
229.8772304510667
 30
0.0
 10
195.932699204789
 20
229.898773760233
 30
0.0
 10
195.9352946228393
 20
229.9079372033648
 30
0.0
  0
SPLINE
  5
1E4
330
1F
100
AcDbEntity
  8
0
  6
Continuous
 62
     7
370
    25
100
AcDbSpline
210
0.0
220
0.0
230
1.0
 70
     8
 71
     3
 72
    25
 73
    21
 74
     0
 42
0.000000001
 43
0.00000001
 40
0.0
 40
0.0
 40
0.0
 40
0.0
 40
0.0109831008179828
 40
0.0707549723203692
 40
0.1322327330477482
 40
0.1943574500050265
 40
0.2458986808816648
 40
0.2978826713848018
 40
0.351355444681778
 40
0.4053798733563951
 40
0.450420783096207
 40
0.5421040020697222
 40
0.5888328876032032
 40
0.6335179882051007
 40
0.7241729847359066
 40
0.7702000795255617
 40
0.8193837924555355
 40
0.9192935395990014
 40
0.9701454655779276
 40
1.0
 40
1.0
 40
1.0
 40
1.0
 10
191.9666413537272
 20
230.4193916216664
 30
0.0
 10
191.8149370585549
 20
230.4135150297988
 30
0.0
 10
190.8376326175156
 20
230.3756570421665
 30
0.0
 10
189.0269298995489
 20
230.0826983747779
 30
0.0
 10
186.5565858218646
 20
229.5110173553949
 30
0.0
 10
184.2676365804585
 20
228.7058921271332
 30
0.0
 10
182.1890207134156
 20
227.740065931037
 30
0.0
 10
180.3121665069479
 20
226.6446143902959
 30
0.0
 10
178.5227190323641
 20
225.3516330605923
 30
0.0
 10
176.9456860604364
 20
223.9466414465628
 30
0.0
 10
175.1484003469535
 20
222.0147623481634
 30
0.0
 10
173.6691498770444
 20
219.937453767209
 30
0.0
 10
172.4702907288897
 20
217.7064039892134
 30
0.0
 10
171.461534883253
 20
215.3988202424889
 30
0.0
 10
170.7282039828109
 20
212.9898376305243
 30
0.0
 10
170.259440890519
 20
210.4624954611268
 30
0.0
 10
169.9707484764357
 20
207.7784429360381
 30
0.0
 10
170.019493380695
 20
205.003703099665
 30
0.0
 10
170.3370205757235
 20
202.5228114422112
 30
0.0
 10
170.6012648788113
 20
201.4386071627163
 30
0.0
 10
170.6990128236868
 20
201.0375436812811
 30
0.0
  0
SPLINE
  5
1E5
330
1F
100
AcDbEntity
  8
0
  6
Continuous
 62
     7
370
    25
100
AcDbSpline
210
0.0
220
0.0
230
1.0
 70
     8
 71
     3
 72
    15
 73
    11
 74
     0
 42
0.000000001
 43
0.00000001
 40
0.0
 40
0.0
 40
0.0
 40
0.0
 40
0.0072451350291925
 40
0.304318902019835
 40
0.6072840151202022
 40
0.7288465779899395
 40
0.8656252245855439
 40
0.9196491794197966
 40
0.9742591890780467
 40
1.0
 40
1.0
 40
1.0
 40
1.0
 10
191.96949283062
 20
229.9060093656354
 30
0.0
 10
191.9685465195773
 20
229.905672728944
 30
0.0
 10
191.9287984215354
 20
229.8915329085156
 30
0.0
 10
192.0692676476712
 20
229.87768654808
 30
0.0
 10
192.3470207459315
 20
229.8672887445836
 30
0.0
 10
192.7674548110573
 20
229.8658365778457
 30
0.0
 10
193.0993722358513
 20
229.8665385882121
 30
0.0
 10
193.4762517893214
 20
229.8675183984916
 30
0.0
 10
193.738985608709
 20
229.867989087707
 30
0.0
 10
193.9114060635949
 20
229.8680313827596
 30
0.0
 10
193.9666418694802
 20
229.8680449322038
 30
0.0
  0
LINE
  5
1E6
330
1F
100
AcDbEntity
  8
0
  6
Continuous
 62
     7
370
    25
100
AcDbLine
 10
191.9666413537
 20
249.4090477422
 30
0.0
 11
195.9666415437
 21
249.4090477422
 31
0.0
  0
SPLINE
  5
1E7
330
1F
100
AcDbEntity
  8
0
  6
Continuous
 62
     8
370
    18
100
AcDbSpline
210
0.0
220
0.0
230
1.0
 70
     8
 71
     3
 72
    18
 73
    14
 74
     0
 42
0.000000001
 43
0.00000001
 40
0.0
 40
0.0
 40
0.0
 40
0.0
 40
0.2499999999999998
 40
0.2499999999999998
 40
0.3749999999999999
 40
0.3749999999999999
 40
0.4999999999999999
 40
0.4999999999999999
 40
0.6249999999999999
 40
0.6249999999999999
 40
0.75
 40
0.75
 40
1.0
 40
1.0
 40
1.0
 40
1.0
 10
173.5638461335158
 20
130.6619914009525
 30
0.0
 10
173.5898584147183
 20
129.0445593854744
 30
0.0
 10
173.6217877623648
 20
127.4116939299602
 30
0.0
 10
174.1250474592655
 20
125.0296510833602
 30
0.0
 10
174.3826269245269
 20
124.2391206520785
 30
0.0
 10
175.1104374074297
 20
122.7740205589784
 30
0.0
 10
175.5909109084564
 20
122.0856402370184
 30
0.0
 10
176.754598941924
 20
120.9457820911219
 30
0.0
 10
177.4526376154032
 20
120.4790237832013
 30
0.0
 10
178.9296433733546
 20
119.7789325533487
 30
0.0
 10
179.7253609985595
 20
119.5346255167475
 30
0.0
 10
182.1197318147522
 20
119.0692605730109
 30
0.0
 10
183.7362272428435
 20
119.0618265420401
 30
0.0
 10
185.3474430386163
 20
119.058891836312
 30
0.0
  0
SPLINE
  5
1E8
330
1F
100
AcDbEntity
  8
0
  6
Continuous
 62
     8
370
    18
100
AcDbSpline
210
0.0
220
0.0
230
1.0
 70
     8
 71
     3
 72
    18
 73
    14
 74
     0
 42
0.000000001
 43
0.00000001
 40
0.0
 40
0.0
 40
0.0
 40
0.0
 40
0.2499999999999997
 40
0.2499999999999997
 40
0.3749999999999998
 40
0.3749999999999998
 40
0.4999999999999998
 40
0.4999999999999998
 40
0.6249999999999998
 40
0.6249999999999998
 40
0.7499999999999999
 40
0.7499999999999999
 40
1.0
 40
1.0
 40
1.0
 40
1.0
 10
202.585839858827
 20
119.0588918363118
 30
0.0
 10
204.2016912182145
 20
119.0618349853411
 30
0.0
 10
205.8436909477228
 20
119.0713258274749
 30
0.0
 10
208.2335778937233
 20
119.5415571079896
 30
0.0
 10
209.0277774874694
 20
119.7875642321156
 30
0.0
 10
210.5047291570718
 20
120.4933420774938
 30
0.0
 10
211.2012337710287
 20
120.9631268546988
 30
0.0
 10
212.3599062037094
 20
122.1077252460216
 30
0.0
 10
212.8351555284273
 20
122.7940455386267
 30
0.0
 10
213.5579691126979
 20
124.2587281892384
 30
0.0
 10
213.8127200244853
 20
125.0448572899819
 30
0.0
 10
214.3138652167281
 20
127.4351588866462
 30
0.0
 10
214.3435131416176
 20
129.0500721778191
 30
0.0
 10
214.3694367639275
 20
130.6619914009524
 30
0.0
  0
SPLINE
  5
1E9
330
1F
100
AcDbEntity
  8
0
  6
Continuous
 62
     8
370
    18
100
AcDbSpline
210
0.0
220
0.0
230
1.0
 70
     8
 71
     3
 72
     8
 73
     4
 74
     0
 42
0.000000001
 43
0.00000001
 40
0.0
 40
0.0
 40
0.0
 40
0.0
 40
1.0
 40
1.0
 40
1.0
 40
1.0
 10
185.3531401972897
 20
119.058882470735
 30
0.0
 10
188.2243445896945
 20
119.0558990745479
 30
0.0
 10
191.0954864884192
 20
119.054489573784
 30
0.0
 10
193.9666414487218
 20
119.0544964297483
 30
0.0
  0
SPLINE
  5
1EA
330
1F
100
AcDbEntity
  8
0
  6
Continuous
 62
     8
370
    18
100
AcDbSpline
210
0.0
220
0.0
230
1.0
 70
     8
 71
     3
 72
     8
 73
     4
 74
     0
 42
0.000000001
 43
0.00000001
 40
0.0
 40
0.0
 40
0.0
 40
0.0
 40
1.0
 40
1.0
 40
1.0
 40
1.0
 10
193.9666414487217
 20
119.0544964297484
 30
0.0
 10
196.837796456454
 20
119.0544895737868
 30
0.0
 10
199.7089383604474
 20
119.0558990744643
 30
0.0
 10
202.5801427001535
 20
119.0588824707349
 30
0.0
  0
SPLINE
  5
1EB
330
1F
100
AcDbEntity
  8
0
  6
Continuous
 62
     8
370
    18
100
AcDbSpline
210
0.0
220
0.0
230
1.0
 70
     8
 71
     3
 72
    10
 73
     6
 74
     0
 42
0.000000001
 43
0.00000001
 40
0.0
 40
0.0
 40
0.0
 40
0.0
 40
0.5
 40
0.5
 40
1.0
 40
1.0
 40
1.0
 40
1.0
 10
215.1501292962816
 20
187.0297254269416
 30
0.0
 10
215.154845019827
 20
190.1652557845969
 30
0.0
 10
215.1578840835207
 20
193.2980177850837
 30
0.0
 10
215.1026383897742
 20
199.5659018439509
 30
0.0
 10
215.061966707697
 20
202.6997753630916
 30
0.0
 10
215.0242200697258
 20
205.8332904976088
 30
0.0
  0
SPLINE
  5
1EC
330
1F
100
AcDbEntity
  8
0
  6
Continuous
 62
     8
370
    18
100
AcDbSpline
210
0.0
220
0.0
230
1.0
 70
     8
 71
     3
 72
    12
 73
     8
 74
     0
 42
0.000000001
 43
0.00000001
 40
0.0
 40
0.0
 40
0.0
 40
0.0
 40
0.5
 40
0.5
 40
0.75
 40
0.75
 40
1.0
 40
1.0
 40
1.0
 40
1.0
 10
214.3699242976731
 20
130.6925604105883
 30
0.0
 10
214.5080400064588
 20
140.0821940926483
 30
0.0
 10
214.6464469284126
 20
149.4718230454181
 30
0.0
 10
214.8543486130686
 20
163.5562617036486
 30
0.0
 10
214.9236772210594
 20
168.25107411845
 30
0.0
 10
215.0624645428236
 20
177.6406968205012
 30
0.0
 10
215.1280400502675
 20
182.3358784835414
 30
0.0
 10
215.1496574522088
 20
187.0316271469469
 30
0.0
  0
SPLINE
  5
1ED
330
1F
100
AcDbEntity
  8
0
  6
Continuous
 62
     8
370
    18
100
AcDbSpline
210
0.0
220
0.0
230
1.0
 70
     8
 71
     3
 72
    10
 73
     6
 74
     0
 42
0.000000001
 43
0.00000001
 40
0.0
 40
0.0
 40
0.0
 40
0.0
 40
0.5
 40
0.5
 40
1.0
 40
1.0
 40
1.0
 40
1.0
 10
172.9090628277183
 20
205.8332904976089
 30
0.0
 10
172.8713161899332
 20
202.6997753630834
 30
0.0
 10
172.8306445076182
 20
199.5659018439603
 30
0.0
 10
172.7753988139748
 20
193.2980177850749
 30
0.0
 10
172.7784378775896
 20
190.1652557846036
 30
0.0
 10
172.7831536011623
 20
187.0297254269417
 30
0.0
  0
SPLINE
  5
1EE
330
1F
100
AcDbEntity
  8
0
  6
Continuous
 62
     8
370
    18
100
AcDbSpline
210
0.0
220
0.0
230
1.0
 70
     8
 71
     3
 72
    12
 73
     8
 74
     0
 42
0.000000001
 43
0.00000001
 40
0.0
 40
0.0
 40
0.0
 40
0.0
 40
0.2500000000000002
 40
0.2500000000000002
 40
0.5000000000000001
 40
0.5000000000000001
 40
1.0
 40
1.0
 40
1.0
 40
1.0
 10
172.7836254452351
 20
187.031627146947
 30
0.0
 10
172.8052415450527
 20
182.3361613354233
 30
0.0
 10
172.8708140947375
 20
177.6409848309181
 30
0.0
 10
173.0096022737285
 20
168.2513045152152
 30
0.0
 10
173.0789313073863
 20
163.5564633054833
 30
0.0
 10
173.2868342707898
 20
149.4719382464448
 30
0.0
 10
173.4252420433438
 20
140.0822516935387
 30
0.0
 10
173.5633585997703
 20
130.6925604105884
 30
0.0
  0
LWPOLYLINE
  5
1EF
330
1F
100
AcDbEntity
  8
0
  6
Continuous
 62
     8
370
    18
100
AcDbPolyline
 90
        9
 70
   128
 43
0.0
 10
193.966634885
 20
117.8585159078
 10
193.9666361302
 20
117.8732382551
 10
193.9666373303
 20
117.9346086875
 10
193.9666384417
 20
118.0404143825
 10
193.9666394243
 20
118.1868108407
 10
193.9666402423
 20
118.3684932485
 10
193.9666408661
 20
118.5788827434
 10
193.9666412732
 20
118.8103424803
 10
193.9666414487
 20
119.0544980064
  0
SPLINE
  5
1F0
330
1F
100
AcDbEntity
  8
0
  6
Continuous
 62
     8
370
    18
100
AcDbSpline
210
0.0
220
0.0
230
1.0
 70
     8
 71
     3
 72
    14
 73
    10
 74
     0
 42
0.000000001
 43
0.00000001
 40
0.0
 40
0.0
 40
0.0
 40
0.0
 40
0.25
 40
0.25
 40
0.5
 40
0.5
 40
0.75
 40
0.75
 40
1.0
 40
1.0
 40
1.0
 40
1.0
 10
215.1496574522088
 20
187.0316271469469
 30
0.0
 10
215.2993859533181
 20
187.0308131132109
 30
0.0
 10
215.458906322716
 20
187.029621495968
 30
0.0
 10
215.7638852955382
 20
187.02649831291
 30
0.0
 10
215.9084173589503
 20
187.0245671661848
 30
0.0
 10
216.1437729259392
 20
187.0203527945551
 30
0.0
 10
216.233855710739
 20
187.0180828332595
 30
0.0
 10
216.345051623144
 20
187.0137538211063
 30
0.0
 10
216.3665786662389
 20
187.0117035304198
 30
0.0
 10
216.3615500651227
 20
187.0099265094332
 30
0.0
  0
SPLINE
  5
1F1
330
1F
100
AcDbEntity
  8
0
  6
Continuous
 62
     8
370
    18
100
AcDbSpline
210
0.0
220
0.0
230
1.0
 70
     8
 71
     3
 72
    13
 73
     9
 74
     0
 42
0.000000001
 43
0.00000001
 40
0.0
 40
0.0
 40
0.0
 40
0.0
 40
0.1303889908913214
 40
0.2777030010054639
 40
0.4280336394077366
 40
0.5783626449904811
 40
0.7256782126903764
 40
1.0
 40
1.0
 40
1.0
 40
1.0
 10
171.6095371025659
 20
187.0130075559192
 30
0.0
 10
171.616418341777
 20
187.0139329366718
 30
0.0
 10
171.6310740329246
 20
187.0159038163474
 30
0.0
 10
171.7475320847914
 20
187.0189490268908
 30
0.0
 10
171.8994700033047
 20
187.0219497746426
 30
0.0
 10
172.0946599560225
 20
187.0246416682554
 30
0.0
 10
172.3809992682631
 20
187.0276332858545
 30
0.0
 10
172.6246394829319
 20
187.0289003988334
 30
0.0
 10
172.7831544208385
 20
187.0297247961335
 30
0.0
  0
SPLINE
  5
1F2
330
1F
100
AcDbEntity
  8
0
  6
Continuous
 62
     8
370
    18
100
AcDbSpline
210
0.0
220
0.0
230
1.0
 70
     8
 71
     3
 72
    24
 73
    20
 74
     0
 42
0.000000001
 43
0.00000001
 40
0.0
 40
0.0
 40
0.0
 40
0.0
 40
0.1250000000000001
 40
0.1250000000000001
 40
0.2500000000000003
 40
0.2500000000000003
 40
0.3750000000000003
 40
0.3750000000000003
 40
0.5000000000000003
 40
0.5000000000000003
 40
0.6250000000000002
 40
0.6250000000000002
 40
0.7500000000000002
 40
0.7500000000000002
 40
0.8125000000000001
 40
0.8125000000000001
 40
0.8750000000000001
 40
0.8750000000000001
 40
1.0
 40
1.0
 40
1.0
 40
1.0
 10
193.9666411453628
 20
223.4294072359782
 30
0.0
 10
192.5951195337496
 20
223.4294026988588
 30
0.0
 10
191.2236403505165
 20
223.4261527386331
 30
0.0
 10
188.4811176086772
 20
223.4088684220901
 30
0.0
 10
187.1105088199921
 20
223.4161863499422
 30
0.0
 10
184.3558926311717
 20
223.2842095004319
 30
0.0
 10
182.9832709236926
 20
223.0983683929494
 30
0.0
 10
180.3509440923329
 20
222.2595429684652
 30
0.0
 10
179.1095867599579
 20
221.6171089713173
 30
0.0
 10
176.9058842499936
 20
219.9553014632902
 30
0.0
 10
175.938773515277
 20
218.940219038365
 30
0.0
 10
174.3867711906246
 20
216.6544602198599
 30
0.0
 10
173.8026532786076
 20
215.3742355266833
 30
0.0
 10
173.2824950804184
 20
213.370174473453
 30
0.0
 10
173.1649418903832
 20
212.6800412414842
 30
0.0
 10
173.0195142722388
 20
211.3060037956343
 30
0.0
 10
172.9896345502754
 20
210.6192645840784
 30
0.0
 10
172.9394389325622
 20
208.5640351191337
 30
0.0
 10
172.9288231560404
 20
207.2010445654442
 30
0.0
 10
172.9087075778471
 20
205.8332904976068
 30
0.0
  0
SPLINE
  5
1F3
330
1F
100
AcDbEntity
  8
0
  6
Continuous
 62
     8
370
    18
100
AcDbSpline
210
0.0
220
0.0
230
1.0
 70
     8
 71
     3
 72
    22
 73
    18
 74
     0
 42
0.000000001
 43
0.00000001
 40
0.0
 40
0.0
 40
0.0
 40
0.0
 40
0.1249999999999998
 40
0.1249999999999998
 40
0.2499999999999997
 40
0.2499999999999997
 40
0.3749999999999996
 40
0.3749999999999996
 40
0.4999999999999994
 40
0.4999999999999994
 40
0.6249999999999996
 40
0.6249999999999996
 40
0.7499999999999998
 40
0.7499999999999998
 40
0.8749999999999999
 40
0.8749999999999999
 40
1.0
 40
1.0
 40
1.0
 40
1.0
 10
215.024575319597
 20
205.8332904976066
 30
0.0
 10
215.0045473870598
 20
207.1950851204789
 30
0.0
 10
214.9936747071651
 20
208.552035200296
 30
0.0
 10
214.9279553745558
 20
211.2804861052342
 30
0.0
 10
214.8344338375471
 20
212.6531274813407
 30
0.0
 10
214.1308573569556
 20
215.3827151744263
 30
0.0
 10
213.5532900675311
 20
216.6477746626039
 30
0.0
 10
211.9692370624904
 20
218.9741033738976
 30
0.0
 10
211.0059296888103
 20
219.9794200406954
 30
0.0
 10
208.7534483387651
 20
221.6618237360232
 30
0.0
 10
207.5137823553623
 20
222.2926732857715
 30
0.0
 10
204.8328228891225
 20
223.1236159542453
 30
0.0
 10
203.4687483337866
 20
223.2936084787994
 30
0.0
 10
200.7491851982166
 20
223.4152250824518
 30
0.0
 10
199.3932996884068
 20
223.4093651149713
 30
0.0
 10
196.6807952279171
 20
223.426204705563
 30
0.0
 10
195.3239190929386
 20
223.4294027459986
 30
0.0
 10
193.9666417520814
 20
223.4294072359781
 30
0.0
  0
LINE
  5
1F4
330
1F
100
AcDbEntity
  8
0
  6
Continuous
 62
     8
370
    18
100
AcDbLine
 10
171.647937395
 20
205.8332571479
 30
0.0
 11
171.6125657636
 21
197.0734995276
 31
0.0
  0
LINE
  5
1F5
330
1F
100
AcDbEntity
  8
0
  6
Continuous
 62
     8
370
    18
100
AcDbLine
 10
216.3207171339
 20
197.0734995276
 30
0.0
 11
216.2853455025
 21
205.8332571479
 31
0.0
  0
SPLINE
  5
1F6
330
1F
100
AcDbEntity
  8
0
  6
Continuous
 62
     8
370
    18
100
AcDbSpline
210
0.0
220
0.0
230
1.0
 70
     8
 71
     3
 72
    24
 73
    20
 74
     0
 42
0.000000001
 43
0.00000001
 40
0.0
 40
0.0
 40
0.0
 40
0.0
 40
0.125
 40
0.125
 40
0.1875
 40
0.1875
 40
0.25
 40
0.25
 40
0.375
 40
0.375
 40
0.5
 40
0.5
 40
0.625
 40
0.625
 40
0.75
 40
0.75
 40
0.875
 40
0.875
 40
1.0
 40
1.0
 40
1.0
 40
1.0
 10
171.6477777973295
 20
205.8351708843831
 30
0.0
 10
171.6669988667088
 20
207.2175751450094
 30
0.0
 10
171.6797754373088
 20
208.5520844570847
 30
0.0
 10
171.7385762493036
 20
210.6568477444219
 30
0.0
 10
171.7719746390885
 20
211.376370983538
 30
0.0
 10
171.9330157402861
 20
212.8518021327992
 30
0.0
 10
172.0627783125152
 20
213.6047382369815
 30
0.0
 10
172.6380057608824
 20
215.8060368252992
 30
0.0
 10
173.2828800967877
 20
217.222626935779
 30
0.0
 10
174.9850971136555
 20
219.739613160649
 30
0.0
 10
176.0413763254525
 20
220.855336059845
 30
0.0
 10
178.4609143125555
 20
222.6928181682695
 30
0.0
 10
179.8294123579282
 20
223.4081312172241
 30
0.0
 10
182.7313968389477
 20
224.3456480233008
 30
0.0
 10
184.2275507800811
 20
224.5501846284046
 30
0.0
 10
187.0997242388452
 20
224.7079894685362
 30
0.0
 10
188.4556095341872
 20
224.7123764319573
 30
0.0
 10
191.2109736254373
 20
224.748228847378
 30
0.0
 10
192.5887897304494
 20
224.7566402241527
 30
0.0
 10
193.9666414487221
 20
224.7566409212027
 30
0.0
  0
LINE
  5
1F7
330
1F
100
AcDbEntity
  8
0
  6
Continuous
 62
     8
370
    18
100
AcDbLine
 10
193.9666414487
 20
224.7566411689
 30
0.0
 11
193.9666417521
 21
223.4294077799
 31
0.0
  0
SPLINE
  5
1F8
330
1F
100
AcDbEntity
  8
0
  6
Continuous
 62
     8
370
    18
100
AcDbSpline
210
0.0
220
0.0
230
1.0
 70
     8
 71
     3
 72
    22
 73
    18
 74
     0
 42
0.000000001
 43
0.00000001
 40
0.0
 40
0.0
 40
0.0
 40
0.0
 40
0.125
 40
0.125
 40
0.25
 40
0.25
 40
0.3749999999999999
 40
0.3749999999999999
 40
0.4999999999999999
 40
0.4999999999999999
 40
0.6249999999999999
 40
0.6249999999999999
 40
0.7499999999999999
 40
0.7499999999999999
 40
0.875
 40
0.875
 40
1.0
 40
1.0
 40
1.0
 40
1.0
 10
193.9666414487221
 20
224.7566409212027
 30
0.0
 10
195.3301889319481
 20
224.7566402313424
 30
0.0
 10
196.6933217877722
 20
224.7483987861603
 30
0.0
 10
199.4185370628411
 20
224.7133465517111
 30
0.0
 10
200.7597659163152
 20
224.7075142765705
 30
0.0
 10
203.5897075794756
 20
224.5607927027922
 30
0.0
 10
205.0742537403282
 20
224.3736072339624
 30
0.0
 10
208.0268339670183
 20
223.4454007297619
 30
0.0
 10
209.3950623217
 20
222.7424308580692
 30
0.0
 10
211.8685060457192
 20
220.8818401164755
 30
0.0
 10
212.9204966905519
 20
219.7769052158039
 30
0.0
 10
214.6578082881489
 20
217.215284854598
 30
0.0
 10
215.2955305970101
 20
215.8151627424693
 30
0.0
 10
216.0735916078206
 20
212.8173113593669
 30
0.0
 10
216.1762818214902
 20
211.3334349909984
 30
0.0
 10
216.2533512961582
 20
208.540373484584
 30
0.0
 10
216.2663686587619
 20
207.2114885877777
 30
0.0
 10
216.2855051001146
 20
205.8351708843828
 30
0.0
  0
SPLINE
  5
1F9
330
1F
100
AcDbEntity
  8
0
  6
Continuous
 62
     8
370
    18
100
AcDbSpline
210
0.0
220
0.0
230
1.0
 70
     8
 71
     3
 72
    36
 73
    32
 74
     0
 42
0.000000001
 43
0.00000001
 40
0.0
 40
0.0
 40
0.0
 40
0.0
 40
0.0625000000000007
 40
0.0625000000000007
 40
0.1250000000000014
 40
0.1250000000000014
 40
0.1875000000000021
 40
0.1875000000000021
 40
0.2500000000000027
 40
0.2500000000000027
 40
0.3125000000000034
 40
0.3125000000000034
 40
0.3437500000000028
 40
0.3437500000000028
 40
0.3750000000000023
 40
0.3750000000000023
 40
0.4375000000000031
 40
0.4375000000000031
 40
0.4687500000000028
 40
0.4687500000000028
 40
0.5000000000000026
 40
0.5000000000000026
 40
0.5625000000000021
 40
0.5625000000000021
 40
0.6250000000000017
 40
0.6250000000000017
 40
0.7500000000000011
 40
0.7500000000000011
 40
0.8750000000000007
 40
0.8750000000000007
 40
1.0
 40
1.0
 40
1.0
 40
1.0
 10
173.7038305794999
 20
92.16553155629062
 30
0.0
 10
173.7158560640192
 20
91.79109513934513
 30
0.0
 10
173.7297687389323
 20
91.41483091090858
 30
0.0
 10
173.7667268814724
 20
90.6652967677711
 30
0.0
 10
173.7898377107443
 20
90.29101998444662
 30
0.0
 10
173.8574921541426
 20
89.5447354510781
 30
0.0
 10
173.902093994675
 20
89.17273387227182
 30
0.0
 10
174.0301032360078
 20
88.43283949112049
 30
0.0
 10
174.1146896153083
 20
88.06237062503898
 30
0.0
 10
174.3380369335329
 20
87.34115361033227
 30
0.0
 10
174.4758504544231
 20
86.99220524315851
 30
0.0
 10
174.724757852183
 20
86.48760105768568
 30
0.0
 10
174.814722036097
 20
86.32251995337292
 30
0.0
 10
175.0091869189281
 20
85.99884211690787
 30
0.0
 10
175.1141404223827
 20
85.83970749867373
 30
0.0
 10
175.4457908749444
 20
85.3809030939197
 30
0.0
 10
175.6903965917162
 20
85.09726311150807
 30
0.0
 10
176.0933829157907
 20
84.70592336559405
 30
0.0
 10
176.2337427856717
 20
84.58118063115728
 30
0.0
 10
176.5266029764495
 20
84.34317670779171
 30
0.0
 10
176.6797232891104
 20
84.22955220374739
 30
0.0
 10
177.1488167671938
 20
83.91118949056911
 30
0.0
 10
177.4762384397362
 20
83.72687745390817
 30
0.0
 10
178.1570803991606
 20
83.40766658589993
 30
0.0
 10
178.5136014043955
 20
83.27232741458948
 30
0.0
 10
179.5950763657567
 20
82.94660290045293
 30
0.0
 10
180.3311477486332
 20
82.83042175461931
 30
0.0
 10
181.8148499550636
 20
82.67536671319822
 30
0.0
 10
182.5626407696963
 20
82.6353674497629
 30
0.0
 10
184.0589166647863
 20
82.57019398923586
 30
0.0
 10
184.8069926216172
 20
82.54751142923328
 30
0.0
 10
185.5560227066281
 20
82.52899177369629
 30
0.0
  0
SPLINE
  5
1FA
330
1F
100
AcDbEntity
  8
0
  6
Continuous
 62
     8
370
    18
100
AcDbSpline
210
0.0
220
0.0
230
1.0
 70
     8
 71
     3
 72
    30
 73
    26
 74
     0
 42
0.000000001
 43
0.00000001
 40
0.0
 40
0.0
 40
0.0
 40
0.0
 40
0.1250000000000004
 40
0.1250000000000004
 40
0.2500000000000008
 40
0.2500000000000008
 40
0.3750000000000012
 40
0.3750000000000012
 40
0.4375000000000011
 40
0.4375000000000011
 40
0.500000000000001
 40
0.500000000000001
 40
0.5625000000000009
 40
0.5625000000000009
 40
0.6250000000000008
 40
0.6250000000000008
 40
0.6875000000000007
 40
0.6875000000000007
 40
0.7500000000000004
 40
0.7500000000000004
 40
0.8750000000000002
 40
0.8750000000000002
 40
0.9375000000000001
 40
0.9375000000000001
 40
1.0
 40
1.0
 40
1.0
 40
1.0
 10
202.3772601908152
 20
82.52899177369626
 30
0.0
 10
203.1270543037835
 20
82.54753031473803
 30
0.0
 10
203.8780137243222
 20
82.57030532853095
 30
0.0
 10
205.3771090430784
 20
82.63569698652476
 30
0.0
 10
206.126151462537
 20
82.67571763970741
 30
0.0
 10
207.6189454555059
 20
82.83264176652773
 30
0.0
 10
208.3690610393728
 20
82.95339870594293
 30
0.0
 10
209.4428227635311
 20
83.2806141831282
 30
0.0
 10
209.7926429189774
 20
83.41436235964436
 30
0.0
 10
210.4744753127519
 20
83.7361136591597
 30
0.0
 10
210.8036321064154
 20
83.92305367483
 30
0.0
 10
211.4197858923479
 20
84.3435644830538
 30
0.0
 10
211.7090999120148
 20
84.57846585247847
 30
0.0
 10
212.2470299416094
 20
85.10173093211966
 30
0.0
 10
212.4958311805129
 20
85.39142722864719
 30
0.0
 10
212.9337951389555
 20
85.99935908116078
 30
0.0
 10
213.1260501009873
 20
86.32018069661143
 30
0.0
 10
213.4585241430892
 20
86.9946402993181
 30
0.0
 10
213.597972084713
 20
87.34910067206893
 30
0.0
 10
213.9294055910318
 20
88.4219274745295
 30
0.0
 10
214.0409507179674
 20
89.1628500109528
 30
0.0
 10
214.1432003439377
 20
90.28711807022965
 30
0.0
 10
214.1663994035497
 20
90.66247335681658
 30
0.0
 10
214.203475550602
 20
91.41369698504069
 30
0.0
 10
214.2174145653365
 20
91.7907132056865
 30
0.0
 10
214.2294523179436
 20
92.16553155629045
 30
0.0
  0
SPLINE
  5
1FB
330
1F
100
AcDbEntity
  8
0
  6
Continuous
 62
     8
370
    18
100
AcDbSpline
210
0.0
220
0.0
230
1.0
 70
     8
 71
     3
 72
    12
 73
     8
 74
     0
 42
0.000000001
 43
0.00000001
 40
0.0
 40
0.0
 40
0.0
 40
0.0
 40
0.5
 40
0.5
 40
0.75
 40
0.75
 40
1.0
 40
1.0
 40
1.0
 40
1.0
 10
173.3921842556736
 20
109.0951939485742
 30
0.0
 10
173.4334179424359
 20
106.273434314611
 30
0.0
 10
173.4819343949915
 20
103.4518009933711
 30
0.0
 10
173.5617042203274
 20
99.21947233365182
 30
0.0
 10
173.587763983351
 20
97.80868744892052
 30
0.0
 10
173.6365424546313
 20
94.98705629724743
 30
0.0
 10
173.6590179560943
 20
93.57620063829506
 30
0.0
 10
173.7042831018114
 20
92.16582252561679
 30
0.0
  0
LWPOLYLINE
  5
1FC
330
1F
100
AcDbEntity
  8
0
  6
Continuous
 62
     8
370
    18
100
AcDbPolyline
 90
        3
 70
   128
 43
0.0
 10
173.1763904768
 20
124.2600920096
 10
173.2434512901
 20
119.5455881253
 10
173.3922896761
 20
109.0946438208
  0
LWPOLYLINE
  5
1FD
330
1F
100
AcDbEntity
  8
0
  6
Continuous
 62
     8
370
    18
100
AcDbPolyline
 90
        3
 70
   128
 43
0.0
 10
214.5409932214
 20
109.0946438208
 10
214.6762976277
 20
118.5946109191
 10
214.757499643
 20
124.3036481038
  0
SPLINE
  5
1FE
330
1F
100
AcDbEntity
  8
0
  6
Continuous
 62
     8
370
    18
100
AcDbSpline
210
0.0
220
0.0
230
1.0
 70
     8
 71
     3
 72
    12
 73
     8
 74
     0
 42
0.000000001
 43
0.00000001
 40
0.0
 40
0.0
 40
0.0
 40
0.0
 40
0.25
 40
0.25
 40
0.5
 40
0.5
 40
1.0
 40
1.0
 40
1.0
 40
1.0
 10
214.228999795632
 20
92.16582252561663
 30
0.0
 10
214.2742649413491
 20
93.5762006382949
 30
0.0
 10
214.2967404428121
 20
94.98705629724722
 30
0.0
 10
214.3455189140923
 20
97.80868744892035
 30
0.0
 10
214.371578677116
 20
99.21947233365168
 30
0.0
 10
214.4513485024519
 20
103.451800993371
 30
0.0
 10
214.4998649550076
 20
106.2734343146108
 30
0.0
 10
214.5410986417699
 20
109.095193948574
 30
0.0
  0
SPLINE
  5
1FF
330
1F
100
AcDbEntity
  8
0
  6
Continuous
 62
     8
370
    18
100
AcDbSpline
210
0.0
220
0.0
230
1.0
 70
     8
 71
     3
 72
    10
 73
     6
 74
     0
 42
0.000000001
 43
0.00000001
 40
0.0
 40
0.0
 40
0.0
 40
0.0
 40
0.4999999999999998
 40
0.4999999999999998
 40
1.0
 40
1.0
 40
1.0
 40
1.0
 10
193.9666414487216
 20
82.45932163082256
 30
0.0
 10
195.3684898251241
 20
82.46032674066977
 30
0.0
 10
196.7703486879815
 20
82.45837862658816
 30
0.0
 10
199.5739788910025
 20
82.47626255560117
 30
0.0
 10
200.9758471866067
 20
82.49443247984918
 30
0.0
 10
202.3772601908152
 20
82.52900521413845
 30
0.0
  0
SPLINE
  5
200
330
1F
100
AcDbEntity
  8
0
  6
Continuous
 62
     8
370
    18
100
AcDbSpline
210
0.0
220
0.0
230
1.0
 70
     8
 71
     3
 72
    10
 73
     6
 74
     0
 42
0.000000001
 43
0.00000001
 40
0.0
 40
0.0
 40
0.0
 40
0.0
 40
0.5
 40
0.5
 40
1.0
 40
1.0
 40
1.0
 40
1.0
 10
185.556022706628
 20
82.52900521413851
 30
0.0
 10
186.9574121581316
 20
82.49443306035819
 30
0.0
 10
188.3592292273202
 20
82.47626341131763
 30
0.0
 10
191.1628431245949
 20
82.45837882891509
 30
0.0
 10
192.5647588785947
 20
82.46032676518624
 30
0.0
 10
193.9666414487216
 20
82.45932163082249
 30
0.0
  0
SPLINE
  5
201
330
1F
100
AcDbEntity
  8
0
  6
Continuous
 62
     8
370
    18
100
AcDbSpline
210
0.0
220
0.0
230
1.0
 70
     8
 71
     3
 72
    10
 73
     6
 74
     0
 42
0.000000001
 43
0.00000001
 40
0.0
 40
0.0
 40
0.0
 40
0.0
 40
0.4054745110357302
 40
0.8109464939049634
 40
1.0
 40
1.0
 40
1.0
 40
1.0
 10
171.5666776376821
 20
147.0763253465466
 30
0.0
 10
171.5859338814387
 20
147.0765767094804
 30
0.0
 10
171.6244462488876
 20
147.0770794337808
 30
0.0
 10
171.8493434087773
 20
147.0802640498736
 30
0.0
 10
172.0610561225235
 20
147.0832762777542
 30
0.0
 10
172.1283787715294
 20
147.0842341378503
 30
0.0
  0
SPLINE
  5
202
330
1F
100
AcDbEntity
  8
0
  6
Continuous
 62
     8
370
    18
100
AcDbSpline
210
0.0
220
0.0
230
1.0
 70
     8
 71
     3
 72
    10
 73
     6
 74
     0
 42
0.000000001
 43
0.00000001
 40
0.0
 40
0.0
 40
0.0
 40
0.0
 40
0.4145604672568942
 40
0.8291150465096248
 40
1.0
 40
1.0
 40
1.0
 40
1.0
 10
171.2632266658403
 20
169.2533510223203
 30
0.0
 10
171.2815518027506
 20
169.2536078105122
 30
0.0
 10
171.3182018162992
 20
169.254121383249
 30
0.0
 10
171.5359470213325
 20
169.2571887306654
 30
0.0
 10
171.7398219314171
 20
169.2600631628069
 30
0.0
 10
171.7993313300468
 20
169.2609021857552
 30
0.0
  0
SPLINE
  5
203
330
1F
100
AcDbEntity
  8
0
  6
Continuous
 62
     8
370
    18
100
AcDbSpline
210
0.0
220
0.0
230
1.0
 70
     8
 71
     3
 72
    10
 73
     6
 74
     0
 42
0.000000001
 43
0.00000001
 40
0.0
 40
0.0
 40
0.0
 40
0.0
 40
0.4196808832596092
 40
0.8393557536251075
 40
1.0
 40
1.0
 40
1.0
 40
1.0
 10
216.6699798631527
 20
169.2529747680001
 30
0.0
 10
216.6515818977342
 20
169.2532361204314
 30
0.0
 10
216.6147862304906
 20
169.2537588215494
 30
0.0
 10
216.4006008515726
 20
169.2567876264036
 30
0.0
 10
216.2013511439437
 20
169.2595987445919
 30
0.0
 10
216.1461947339632
 20
169.2603769198232
 30
0.0
  0
SPLINE
  5
204
330
1F
100
AcDbEntity
  8
0
  6
Continuous
 62
     8
370
    18
100
AcDbSpline
210
0.0
220
0.0
230
1.0
 70
     8
 71
     3
 72
    10
 73
     6
 74
     0
 42
0.000000001
 43
0.00000001
 40
0.0
 40
0.0
 40
0.0
 40
0.0
 40
0.4111373456818941
 40
0.8222758702157945
 40
1.0
 40
1.0
 40
1.0
 40
1.0
 10
216.3662886100866
 20
147.0765116110616
 30
0.0
 10
216.3469616937629
 20
147.0767860931201
 30
0.0
 10
216.3083078056994
 20
147.0773350580241
 30
0.0
 10
216.0875391253124
 20
147.0804664895184
 30
0.0
 10
215.8811722686926
 20
147.0833892691528
 30
0.0
 10
215.8188888656952
 20
147.0842713907533
 30
0.0
  0
LWPOLYLINE
  5
205
330
1F
100
AcDbEntity
  8
0
  6
Continuous
 62
     8
370
    18
100
AcDbPolyline
 90
        5
 70
   128
 43
0.0
 10
170.7324975955
 20
205.8853129575
 10
170.7324230897
 20
205.8900398852
 10
170.7323485839
 20
205.8947951019
 10
170.7322740781
 20
205.899550435
 10
170.7321995723
 20
205.9043056516
  0
LWPOLYLINE
  5
206
330
1F
100
AcDbEntity
  8
0
  6
Continuous
 62
     8
370
    18
100
AcDbPolyline
 90
        5
 70
   128
 43
0.0
 10
217.2010833251
 20
205.9043056516
 10
217.2010088193
 20
205.899550435
 10
217.2009343135
 20
205.8947951019
 10
217.2008598077
 20
205.8900398852
 10
217.2007853019
 20
205.8853129575
  0
ENDSEC
  0
SECTION
  2
OBJECTS
  0
DICTIONARY
  5
C
330
0
100
AcDbDictionary
281
     1
  3
ACAD_GROUP
350
D
  3
ACAD_LAYOUT
350
1A
  3
ACAD_MLINESTYLE
350
17
  3
ACAD_PLOTSETTINGS
350
19
  3
ACAD_PLOTSTYLENAME
350
E
  3
ACAD_SCALELIST
350
47
  0
DICTIONARY
  5
D
102
{ACAD_REACTORS
330
C
102
}
330
C
100
AcDbDictionary
281
     1
  0
DICTIONARY
  5
1A
102
{ACAD_REACTORS
330
C
102
}
330
C
100
AcDbDictionary
281
     1
  3
Layout1
350
1E
  3
Layout2
350
26
  3
Model
350
22
  0
DICTIONARY
  5
17
102
{ACAD_REACTORS
330
C
102
}
330
C
100
AcDbDictionary
281
     1
  3
Standard
350
18
  0
DICTIONARY
  5
19
102
{ACAD_REACTORS
330
C
102
}
330
C
100
AcDbDictionary
281
     1
  0
ACDBDICTIONARYWDFLT
  5
E
102
{ACAD_REACTORS
330
C
102
}
330
C
100
AcDbDictionary
281
     1
  3
Normal
350
F
100
AcDbDictionaryWithDefault
340
F
  0
DICTIONARY
  5
47
102
{ACAD_REACTORS
330
C
102
}
330
C
100
AcDbDictionary
281
     1
  3
A0
350
48
  3
A1
350
49
  3
A2
350
4A
  3
A3
350
4B
  3
A4
350
4C
  3
A5
350
4D
  3
A6
350
4E
  3
A7
350
4F
  3
A8
350
50
  3
A9
350
51
  3
B0
350
52
  3
B1
350
53
  3
B2
350
54
  3
B3
350
55
  3
B4
350
56
  3
B5
350
57
  3
B6
350
58
  3
B7
350
59
  3
B8
350
5A
  3
B9
350
5B
  3
C0
350
5C
  3
C1
350
5D
  3
C2
350
5E
  3
C3
350
5F
  3
C4
350
60
  3
C5
350
61
  3
C6
350
62
  3
C7
350
63
  3
C8
350
64
  3
C9
350
65
  3
D0
350
66
  3
D1
350
67
  3
D2
350
68
  0
LAYOUT
  5
1E
102
{ACAD_REACTORS
330
1A
102
}
330
1A
100
AcDbPlotSettings
  1

  2
none_device
  4

  6

 40
0.0
 41
0.0
 42
0.0
 43
0.0
 44
0.0
 45
0.0
 46
0.0
 47
0.0
 48
0.0
 49
0.0
140
0.0
141
0.0
142
1.0
143
1.0
 70
   688
 72
     1
 73
     0
 74
     5
  7

 75
    16
147
1.0
148
0.0
149
0.0
100
AcDbLayout
  1
Layout1
 70
     1
 71
     1
 10
0.0
 20
0.0
 11
420.0
 21
297.0
 12
0.0
 22
0.0
 32
0.0
 14
1.0000000000E+20
 24
1.0000000000E+20
 34
1.0000000000E+20
 15
-1.0000000000E+20
 25
-1.0000000000E+20
 35
-1.0000000000E+20
146
0.0
 13
0.0
 23
0.0
 33
0.0
 16
1.0
 26
0.0
 36
0.0
 17
0.0
 27
1.0
 37
0.0
 76
     0
330
1B
  0
LAYOUT
  5
26
102
{ACAD_REACTORS
330
1A
102
}
330
1A
100
AcDbPlotSettings
  1

  2
none_device
  4

  6

 40
0.0
 41
0.0
 42
0.0
 43
0.0
 44
0.0
 45
0.0
 46
0.0
 47
0.0
 48
0.0
 49
0.0
140
0.0
141
0.0
142
1.0
143
1.0
 70
   688
 72
     1
 73
     0
 74
     5
  7

 75
    16
147
1.0
148
0.0
149
0.0
100
AcDbLayout
  1
Layout2
 70
     1
 71
     2
 10
0.0
 20
0.0
 11
0.0
 21
0.0
 12
0.0
 22
0.0
 32
0.0
 14
0.0
 24
0.0
 34
0.0
 15
0.0
 25
0.0
 35
0.0
146
0.0
 13
0.0
 23
0.0
 33
0.0
 16
1.0
 26
0.0
 36
0.0
 17
0.0
 27
1.0
 37
0.0
 76
     0
330
23
  0
LAYOUT
  5
22
102
{ACAD_REACTORS
330
1A
102
}
330
1A
100
AcDbPlotSettings
  1

  2
none_device
  4
Letter_(8.50_x_11.00_Inches)
  6

 40
6.35
 41
6.35
 42
6.35000508
 43
6.35000508
 44
215.9
 45
279.4
 46
0.0
 47
0.0
 48
0.0
 49
0.0
140
0.0
141
0.0
142
1.0
143
1.0
 70
  1712
 72
     1
 73
     0
 74
     0
  7

 75
     0
147
1.0
148
0.0
149
0.0
100
AcDbLayout
  1
Model
 70
     1
 71
     0
 10
0.0
 20
0.0
 11
594.0
 21
841.0
 12
0.0
 22
0.0
 32
0.0
 14
0.0
 24
0.0
 34
0.0
 15
594.0
 25
841.0
 35
0.0
146
0.0
 13
0.0
 23
0.0
 33
0.0
 16
1.0
 26
0.0
 36
0.0
 17
0.0
 27
1.0
 37
0.0
 76
     0
330
1F
331
29
  0
MLINESTYLE
  5
18
102
{ACAD_REACTORS
330
17
102
}
330
17
100
AcDbMlineStyle
  2
Standard
 70
     0
  3

 62
   256
 51
90.0
 52
90.0
 71
     2
 49
0.5
 62
   256
  6
BYLAYER
 49
-0.5
 62
   256
  6
BYLAYER
  0
ACDBPLACEHOLDER
  5
F
102
{ACAD_REACTORS
330
E
102
}
330
E
  0
SCALE
  5
48
102
{ACAD_REACTORS
330
47
102
}
330
47
100
AcDbScale
 70
     0
300
1:1
140
1.0
141
1.0
290
     1
  0
SCALE
  5
49
102
{ACAD_REACTORS
330
47
102
}
330
47
100
AcDbScale
 70
     0
300
1:2
140
1.0
141
2.0
290
     0
  0
SCALE
  5
4A
102
{ACAD_REACTORS
330
47
102
}
330
47
100
AcDbScale
 70
     0
300
1:4
140
1.0
141
4.0
290
     0
  0
SCALE
  5
4B
102
{ACAD_REACTORS
330
47
102
}
330
47
100
AcDbScale
 70
     0
300
1:5
140
1.0
141
5.0
290
     0
  0
SCALE
  5
4C
102
{ACAD_REACTORS
330
47
102
}
330
47
100
AcDbScale
 70
     0
300
1:8
140
1.0
141
8.0
290
     0
  0
SCALE
  5
4D
102
{ACAD_REACTORS
330
47
102
}
330
47
100
AcDbScale
 70
     0
300
1:10
140
1.0
141
10.0
290
     0
  0
SCALE
  5
4E
102
{ACAD_REACTORS
330
47
102
}
330
47
100
AcDbScale
 70
     0
300
1:16
140
1.0
141
16.0
290
     0
  0
SCALE
  5
4F
102
{ACAD_REACTORS
330
47
102
}
330
47
100
AcDbScale
 70
     0
300
1:20
140
1.0
141
20.0
290
     0
  0
SCALE
  5
50
102
{ACAD_REACTORS
330
47
102
}
330
47
100
AcDbScale
 70
     0
300
1:30
140
1.0
141
30.0
290
     0
  0
SCALE
  5
51
102
{ACAD_REACTORS
330
47
102
}
330
47
100
AcDbScale
 70
     0
300
1:40
140
1.0
141
40.0
290
     0
  0
SCALE
  5
52
102
{ACAD_REACTORS
330
47
102
}
330
47
100
AcDbScale
 70
     0
300
1:50
140
1.0
141
50.0
290
     0
  0
SCALE
  5
53
102
{ACAD_REACTORS
330
47
102
}
330
47
100
AcDbScale
 70
     0
300
1:100
140
1.0
141
100.0
290
     0
  0
SCALE
  5
54
102
{ACAD_REACTORS
330
47
102
}
330
47
100
AcDbScale
 70
     0
300
2:1
140
2.0
141
1.0
290
     0
  0
SCALE
  5
55
102
{ACAD_REACTORS
330
47
102
}
330
47
100
AcDbScale
 70
     0
300
4:1
140
4.0
141
1.0
290
     0
  0
SCALE
  5
56
102
{ACAD_REACTORS
330
47
102
}
330
47
100
AcDbScale
 70
     0
300
8:1
140
8.0
141
1.0
290
     0
  0
SCALE
  5
57
102
{ACAD_REACTORS
330
47
102
}
330
47
100
AcDbScale
 70
     0
300
10:1
140
10.0
141
1.0
290
     0
  0
SCALE
  5
58
102
{ACAD_REACTORS
330
47
102
}
330
47
100
AcDbScale
 70
     0
300
100:1
140
100.0
141
1.0
290
     0
  0
SCALE
  5
59
102
{ACAD_REACTORS
330
47
102
}
330
47
100
AcDbScale
 70
     0
300
1/128" = 1'-0"
140
0.0078125
141
12.0
290
     0
  0
SCALE
  5
5A
102
{ACAD_REACTORS
330
47
102
}
330
47
100
AcDbScale
 70
     0
300
1/64" = 1'-0"
140
0.015625
141
12.0
290
     0
  0
SCALE
  5
5B
102
{ACAD_REACTORS
330
47
102
}
330
47
100
AcDbScale
 70
     0
300
1/32" = 1'-0"
140
0.03125
141
12.0
290
     0
  0
SCALE
  5
5C
102
{ACAD_REACTORS
330
47
102
}
330
47
100
AcDbScale
 70
     0
300
1/16" = 1'-0"
140
0.0625
141
12.0
290
     0
  0
SCALE
  5
5D
102
{ACAD_REACTORS
330
47
102
}
330
47
100
AcDbScale
 70
     0
300
3/32" = 1'-0"
140
0.09375
141
12.0
290
     0
  0
SCALE
  5
5E
102
{ACAD_REACTORS
330
47
102
}
330
47
100
AcDbScale
 70
     0
300
1/8" = 1'-0"
140
0.125
141
12.0
290
     0
  0
SCALE
  5
5F
102
{ACAD_REACTORS
330
47
102
}
330
47
100
AcDbScale
 70
     0
300
3/16" = 1'-0"
140
0.1875
141
12.0
290
     0
  0
SCALE
  5
60
102
{ACAD_REACTORS
330
47
102
}
330
47
100
AcDbScale
 70
     0
300
1/4" = 1'-0"
140
0.25
141
12.0
290
     0
  0
SCALE
  5
61
102
{ACAD_REACTORS
330
47
102
}
330
47
100
AcDbScale
 70
     0
300
3/8" = 1'-0"
140
0.375
141
12.0
290
     0
  0
SCALE
  5
62
102
{ACAD_REACTORS
330
47
102
}
330
47
100
AcDbScale
 70
     0
300
1/2" = 1'-0"
140
0.5
141
12.0
290
     0
  0
SCALE
  5
63
102
{ACAD_REACTORS
330
47
102
}
330
47
100
AcDbScale
 70
     0
300
3/4" = 1'-0"
140
0.75
141
12.0
290
     0
  0
SCALE
  5
64
102
{ACAD_REACTORS
330
47
102
}
330
47
100
AcDbScale
 70
     0
300
1" = 1'-0"
140
1.0
141
12.0
290
     0
  0
SCALE
  5
65
102
{ACAD_REACTORS
330
47
102
}
330
47
100
AcDbScale
 70
     0
300
1-1/2" = 1'-0"
140
1.5
141
12.0
290
     0
  0
SCALE
  5
66
102
{ACAD_REACTORS
330
47
102
}
330
47
100
AcDbScale
 70
     0
300
3" = 1'-0"
140
3.0
141
12.0
290
     0
  0
SCALE
  5
67
102
{ACAD_REACTORS
330
47
102
}
330
47
100
AcDbScale
 70
     0
300
6" = 1'-0"
140
6.0
141
12.0
290
     0
  0
SCALE
  5
68
102
{ACAD_REACTORS
330
47
102
}
330
47
100
AcDbScale
 70
     0
300
1'-0" = 1'-0"
140
12.0
141
12.0
290
     0
  0
ENDSEC
  0
EOF
