  0
SECTION
  2
HEADER
  9
$ACADVER
  1
AC1024
  9
$ACADMAINTVER
 70
     6
  9
$DWGCODEPAGE
  3
ANSI_1252
  9
$INSBASE
 10
0.0
 20
0.0
 30
0.0
  9
$EXTMIN
 10
0.0
 20
0.0
 30
0.0
  9
$EXTMAX
 10
594.0
 20
841.0
 30
0.0
  9
$LIMMIN
 10
0.0
 20
0.0
  9
$LIMMAX
 10
594.0
 20
841.0
  9
$ORTHOMODE
 70
     0
  9
$REGENMODE
 70
     1
  9
$FILLMODE
 70
     1
  9
$QTEXTMODE
 70
     0
  9
$MIRRTEXT
 70
     1
  9
$LTSCALE
 40
1.0
  9
$ATTMODE
 70
     1
  9
$TEXTSIZE
 40
10.0
  9
$TRACEWID
 40
1.0
  9
$TEXTSTYLE
  7
Standard
  9
$CLAYER
  8
0
  9
$CELTYPE
  6
ByLayer
  9
$CECOLOR
 62
   256
  9
$CELTSCALE
 40
1.0
  9
$DISPSILH
 70
     0
  9
$DIMSCALE
 40
1.0
  9
$DIMASZ
 40
2.5
  9
$DIMEXO
 40
0.0
  9
$DIMDLI
 40
3.75
  9
$DIMRND
 40
0.0
  9
$DIMDLE
 40
0.0
  9
$DIMEXE
 40
1.0
  9
$DIMTP
 40
0.0
  9
$DIMTM
 40
0.0
  9
$DIMTXT
 40
3.5
  9
$DIMCEN
 40
2.5
  9
$DIMTSZ
 40
0.0
  9
$DIMTOL
 70
     0
  9
$DIMLIM
 70
     0
  9
$DIMTIH
 70
     1
  9
$DIMTOH
 70
     1
  9
$DIMSE1
 70
     0
  9
$DIMSE2
 70
     0
  9
$DIMTAD
 70
     1
  9
$DIMZIN
 70
     0
  9
$DIMBLK
  1

  9
$DIMASO
 70
     1
  9
$DIMSHO
 70
     1
  9
$DIMPOST
  1

  9
$DIMAPOST
  1

  9
$DIMALT
 70
     0
  9
$DIMALTD
 70
     3
  9
$DIMALTF
 40
0.0393700787
  9
$DIMLFAC
 40
1.0
  9
$DIMTOFL
 70
     1
  9
$DIMTVP
 40
0.0
  9
$DIMTIX
 70
     0
  9
$DIMSOXD
 70
     0
  9
$DIMSAH
 70
     0
  9
$DIMBLK1
  1

  9
$DIMBLK2
  1

  9
$DIMSTYLE
  2
ISO-25
  9
$DIMCLRD
 70
     0
  9
$DIMCLRE
 70
     0
  9
$DIMCLRT
 70
     0
  9
$DIMTFAC
 40
1.0
  9
$DIMGAP
 40
1.5
  9
$DIMJUST
 70
     0
  9
$DIMSD1
 70
     0
  9
$DIMSD2
 70
     0
  9
$DIMTOLJ
 70
     0
  9
$DIMTZIN
 70
     0
  9
$DIMALTZ
 70
     0
  9
$DIMALTTZ
 70
     0
  9
$DIMUPT
 70
     0
  9
$DIMDEC
 70
     2
  9
$DIMTDEC
 70
     2
  9
$DIMALTU
 70
     2
  9
$DIMALTTD
 70
     3
  9
$DIMTXSTY
  7
Standard
  9
$DIMAUNIT
 70
     0
  9
$DIMADEC
 70
     2
  9
$DIMALTRND
 40
0.0
  9
$DIMAZIN
 70
     0
  9
$DIMDSEP
 70
    44
  9
$DIMATFIT
 70
     3
  9
$DIMFRAC
 70
     0
  9
$DIMLDRBLK
  1

  9
$DIMLUNIT
 70
     2
  9
$DIMLWD
 70
    -2
  9
$DIMLWE
 70
    -2
  9
$DIMTMOVE
 70
     0
  9
$DIMFXL
 40
1.0
  9
$DIMFXLON
 70
     0
  9
$DIMJOGANG
 40
0.7853981634
  9
$DIMTFILL
 70
     0
  9
$DIMTFILLCLR
 70
     0
  9
$DIMARCSYM
 70
     0
  9
$DIMLTYPE
  6

  9
$DIMLTEX1
  6

  9
$DIMLTEX2
  6

  9
$DIMTXTDIRECTION
 70
     0
  9
$LUNITS
 70
     2
  9
$LUPREC
 70
     2
  9
$SKETCHINC
 40
1.0
  9
$FILLETRAD
 40
10.0
  9
$AUNITS
 70
     0
  9
$AUPREC
 70
     2
  9
$MENU
  1
.
  9
$ELEVATION
 40
0.0
  9
$PELEVATION
 40
0.0
  9
$THICKNESS
 40
0.0
  9
$LIMCHECK
 70
     0
  9
$CHAMFERA
 40
10.0
  9
$CHAMFERB
 40
10.0
  9
$CHAMFERC
 40
20.0
  9
$CHAMFERD
 40
0.0
  9
$SKPOLY
 70
     0
  9
$TDCREATE
 40
2456300.457745139
  9
$TDUCREATE
 40
2456300.416078472
  9
$TDUPDATE
 40
2456300.457746586
  9
$TDUUPDATE
 40
2456300.416079919
  9
$TDINDWG
 40
0.0000000116
  9
$TDUSRTIMER
 40
0.0000000116
  9
$USRTIMER
 70
     1
  9
$ANGBASE
 50
0.0
  9
$ANGDIR
 70
     0
  9
$PDMODE
 70
     0
  9
$PDSIZE
 40
-1.0
  9
$PLINEWID
 40
0.0
  9
$SPLFRAME
 70
     0
  9
$SPLINETYPE
 70
     6
  9
$SPLINESEGS
 70
     8
  9
$HANDSEED
  5
1CA
  9
$SURFTAB1
 70
     6
  9
$SURFTAB2
 70
     6
  9
$SURFTYPE
 70
     6
  9
$SURFU
 70
     6
  9
$SURFV
 70
     6
  9
$UCSBASE
  2

  9
$UCSNAME
  2

  9
$UCSORG
 10
0.0
 20
0.0
 30
0.0
  9
$UCSXDIR
 10
1.0
 20
0.0
 30
0.0
  9
$UCSYDIR
 10
0.0
 20
1.0
 30
0.0
  9
$UCSORTHOREF
  2

  9
$UCSORTHOVIEW
 70
     0
  9
$UCSORGTOP
 10
0.0
 20
0.0
 30
0.0
  9
$UCSORGBOTTOM
 10
0.0
 20
0.0
 30
0.0
  9
$UCSORGLEFT
 10
0.0
 20
0.0
 30
0.0
  9
$UCSORGRIGHT
 10
0.0
 20
0.0
 30
0.0
  9
$UCSORGFRONT
 10
0.0
 20
0.0
 30
0.0
  9
$UCSORGBACK
 10
0.0
 20
0.0
 30
0.0
  9
$PUCSBASE
  2

  9
$PUCSNAME
  2

  9
$PUCSORG
 10
0.0
 20
0.0
 30
0.0
  9
$PUCSXDIR
 10
1.0
 20
0.0
 30
0.0
  9
$PUCSYDIR
 10
0.0
 20
1.0
 30
0.0
  9
$PUCSORTHOREF
  2

  9
$PUCSORTHOVIEW
 70
     0
  9
$PUCSORGTOP
 10
0.0
 20
0.0
 30
0.0
  9
$PUCSORGBOTTOM
 10
0.0
 20
0.0
 30
0.0
  9
$PUCSORGLEFT
 10
0.0
 20
0.0
 30
0.0
  9
$PUCSORGRIGHT
 10
0.0
 20
0.0
 30
0.0
  9
$PUCSORGFRONT
 10
0.0
 20
0.0
 30
0.0
  9
$PUCSORGBACK
 10
0.0
 20
0.0
 30
0.0
  9
$USERI1
 70
     0
  9
$USERI2
 70
     0
  9
$USERI3
 70
     0
  9
$USERI4
 70
     0
  9
$USERI5
 70
     0
  9
$USERR1
 40
0.0
  9
$USERR2
 40
0.0
  9
$USERR3
 40
0.0
  9
$USERR4
 40
0.0
  9
$USERR5
 40
0.0
  9
$WORLDVIEW
 70
     1
  9
$SHADEDGE
 70
     3
  9
$SHADEDIF
 70
    70
  9
$TILEMODE
 70
     1
  9
$MAXACTVP
 70
    64
  9
$PINSBASE
 10
0.0
 20
0.0
 30
0.0
  9
$PLIMCHECK
 70
     0
  9
$PEXTMIN
 10
1.0000000000E+20
 20
1.0000000000E+20
 30
1.0000000000E+20
  9
$PEXTMAX
 10
-1.0000000000E+20
 20
-1.0000000000E+20
 30
-1.0000000000E+20
  9
$PLIMMIN
 10
0.0
 20
0.0
  9
$PLIMMAX
 10
420.0
 20
297.0
  9
$UNITMODE
 70
     0
  9
$VISRETAIN
 70
     1
  9
$PLINEGEN
 70
     0
  9
$PSLTSCALE
 70
     1
  9
$TREEDEPTH
 70
  3020
  9
$CMLSTYLE
  2
Standard
  9
$CMLJUST
 70
     0
  9
$CMLSCALE
 40
20.0
  9
$PROXYGRAPHICS
 70
     1
  9
$MEASUREMENT
 70
     1
  9
$CELWEIGHT
370
    -1
  9
$ENDCAPS
280
     0
  9
$JOINSTYLE
280
     0
  9
$LWDISPLAY
290
     1
  9
$INSUNITS
 70
     4
  9
$HYPERLINKBASE
  1

  9
$STYLESHEET
  1

  9
$XEDIT
290
     1
  9
$CEPSNTYPE
380
     0
  9
$PSTYLEMODE
290
     1
  9
$FINGERPRINTGUID
  2
{EADBE645-EF2A-4F62-8B0F-36C221183148}
  9
$VERSIONGUID
  2
{FAEB1C32-E019-11D5-929B-00C0DF256EC4}
  9
$EXTNAMES
290
     1
  9
$PSVPSCALE
 40
0.0
  9
$OLESTARTUP
290
     0
  9
$SORTENTS
280
   127
  9
$INDEXCTL
280
     0
  9
$HIDETEXT
280
     1
  9
$XCLIPFRAME
280
     2
  9
$HALOGAP
280
     0
  9
$OBSCOLOR
 70
   257
  9
$OBSLTYPE
280
     0
  9
$INTERSECTIONDISPLAY
280
     0
  9
$INTERSECTIONCOLOR
 70
   257
  9
$DIMASSOC
280
     2
  9
$PROJECTNAME
  1

  9
$CAMERADISPLAY
290
     0
  9
$LENSLENGTH
 40
50.0
  9
$CAMERAHEIGHT
 40
0.0
  9
$STEPSPERSEC
 40
2.0
  9
$STEPSIZE
 40
6.0
  9
$3DDWFPREC
 40
2.0
  9
$PSOLWIDTH
 40
5.0
  9
$PSOLHEIGHT
 40
80.0
  9
$LOFTANG1
 40
1.5707963268
  9
$LOFTANG2
 40
1.5707963268
  9
$LOFTMAG1
 40
0.0
  9
$LOFTMAG2
 40
0.0
  9
$LOFTPARAM
 70
     7
  9
$LOFTNORMALS
280
     1
  9
$LATITUDE
 40
37.795
  9
$LONGITUDE
 40
-122.394
  9
$NORTHDIRECTION
 40
0.0
  9
$TIMEZONE
 70
 -8000
  9
$LIGHTGLYPHDISPLAY
280
     1
  9
$TILEMODELIGHTSYNCH
280
     1
  9
$SOLIDHIST
280
     1
  9
$SHOWHIST
280
     1
  9
$DWFFRAME
280
     2
  9
$DGNFRAME
280
     2
  9
$REALWORLDSCALE
290
     1
  9
$INTERFERECOLOR
 62
   256
  9
$CSHADOW
280
     0
  9
$SHADOWPLANELOCATION
 40
0.0
  0
ENDSEC
  0
SECTION
  2
CLASSES
  0
CLASS
  1
ACDBDICTIONARYWDFLT
  2
AcDbDictionaryWithDefault
  3
ObjectDBX Classes
 90
        0
 91
        4
280
     0
281
     0
  0
CLASS
  1
VISUALSTYLE
  2
AcDbVisualStyle
  3
ObjectDBX Classes
 90
     4095
 91
        4
280
     0
281
     0
  0
CLASS
  1
MATERIAL
  2
AcDbMaterial
  3
ObjectDBX Classes
 90
     1153
 91
        4
280
     0
281
     0
  0
ENDSEC
  0
SECTION
  2
TABLES
  0
TABLE
  2
VPORT
  5
8
330
0
100
AcDbSymbolTable
 70
     1
  0
VPORT
  5
29
330
8
100
AcDbSymbolTableRecord
100
AcDbViewportTableRecord
  2
*Active
 70
     0
 10
0.0
 20
0.0
 11
1.0
 21
1.0
 12
297.0
 22
420.5
 13
0.0
 23
0.0
 14
10.0
 24
10.0
 15
10.0
 25
10.0
 16
0.0
 26
0.0
 36
1.0
 17
0.0
 27
0.0
 37
0.0
 40
841.0
 41
0.7063020214
 42
50.0
 43
0.0
 44
0.0
 50
0.0
 51
0.0
 71
     0
 72
  2000
 73
     1
 74
     3
 75
     0
 76
     0
 77
     0
 78
     0
281
     0
 65
     1
110
0.0
120
0.0
130
0.0
111
1.0
121
0.0
131
0.0
112
0.0
122
1.0
132
0.0
 79
     0
146
0.0
 60
     3
 61
     5
292
     1
282
     1
141
0.0
142
0.0
 63
   250
  0
ENDTAB
  0
TABLE
  2
LTYPE
  5
5
330
0
100
AcDbSymbolTable
 70
     6
  0
LTYPE
  5
14
330
5
100
AcDbSymbolTableRecord
100
AcDbLinetypeTableRecord
  2
ByBlock
 70
     0
  3

 72
    65
 73
     0
 40
0.0
  0
LTYPE
  5
15
330
5
100
AcDbSymbolTableRecord
100
AcDbLinetypeTableRecord
  2
ByLayer
 70
     0
  3

 72
    65
 73
     0
 40
0.0
  0
LTYPE
  5
16
330
5
100
AcDbSymbolTableRecord
100
AcDbLinetypeTableRecord
  2
Continuous
 70
     0
  3
Solid line
 72
    65
 73
     0
 40
0.0
  0
LTYPE
  5
3F
330
5
100
AcDbSymbolTableRecord
100
AcDbLinetypeTableRecord
  2
HIDDEN
 70
     0
  3
Hidden __ __ __ __ __ __ __ __ __ __ __ __ __ __
 72
    65
 73
     2
 40
1.905
 49
1.27
 74
     0
 49
-0.635
 74
     0
  0
LTYPE
  5
40
330
5
100
AcDbSymbolTableRecord
100
AcDbLinetypeTableRecord
  2
PHANTOM
 70
     0
  3
Phantom ______  __  __  ______  __  __  ______
 72
    65
 73
     6
 40
12.7
 49
6.35
 74
     0
 49
-1.27
 74
     0
 49
1.27
 74
     0
 49
-1.27
 74
     0
 49
1.27
 74
     0
 49
-1.27
 74
     0
  0
LTYPE
  5
41
330
5
100
AcDbSymbolTableRecord
100
AcDbLinetypeTableRecord
  2
CENTER
 70
     0
  3
Center ____ _ ____ _ ____ _ ____ _ ____ _ ____
 72
    65
 73
     4
 40
10.16
 49
6.35
 74
     0
 49
-1.27
 74
     0
 49
1.27
 74
     0
 49
-1.27
 74
     0
  0
LTYPE
  5
42
330
5
100
AcDbSymbolTableRecord
100
AcDbLinetypeTableRecord
  2
CENTERX2
 70
     0
  3
Center (2x) ________  __  ________  __  _____
 72
    65
 73
     4
 40
20.32
 49
12.7
 74
     0
 49
-2.54
 74
     0
 49
2.54
 74
     0
 49
-2.54
 74
     0
  0
LTYPE
  5
43
330
5
100
AcDbSymbolTableRecord
100
AcDbLinetypeTableRecord
  2
DOT2
 70
     0
  3
Dot (.5x) ........................................
 72
    65
 73
     2
 40
0.635
 49
0.0
 74
     0
 49
-0.635
 74
     0
  0
ENDTAB
  0
TABLE
  2
LAYER
  5
2
330
0
100
AcDbSymbolTable
 70
     1
  0
LAYER
  5
10
330
2
100
AcDbSymbolTableRecord
100
AcDbLayerTableRecord
  2
0
 70
     0
 62
     7
  6
Continuous
370
    -3
390
F
347
3E
  0
ENDTAB
  0
TABLE
  2
STYLE
  5
3
330
0
100
AcDbSymbolTable
 70
     3
  0
STYLE
  5
11
330
3
100
AcDbSymbolTableRecord
100
AcDbTextStyleTableRecord
  2
Standard
 70
     0
 40
0.0
 41
1.0
 50
0.0
 71
     0
 42
10.0
  3
txt
  4

  0
STYLE
  5
47
330
3
100
AcDbSymbolTableRecord
100
AcDbTextStyleTableRecord
  2
SLDTEXTSTYLE0
 70
     0
 40
0.0
 41
0.96
 50
0.0
 71
     0
 42
0.2
  3
ISOCP3
  4

  0
STYLE
  5
5E
330
3
100
AcDbSymbolTableRecord
100
AcDbTextStyleTableRecord
  2
SLDTEXTSTYLE1
 70
     0
 40
0.0
 41
0.605
 50
0.0
 71
     0
 42
0.2
  3
TXT
  4

  0
ENDTAB
  0
TABLE
  2
VIEW
  5
6
330
0
100
AcDbSymbolTable
 70
     0
  0
ENDTAB
  0
TABLE
  2
UCS
  5
7
330
0
100
AcDbSymbolTable
 70
     0
  0
ENDTAB
  0
TABLE
  2
APPID
  5
9
330
0
100
AcDbSymbolTable
 70
     1
  0
APPID
  5
12
330
9
100
AcDbSymbolTableRecord
100
AcDbRegAppTableRecord
  2
ACAD
 70
     0
  0
ENDTAB
  0
TABLE
  2
DIMSTYLE
  5
A
330
0
100
AcDbSymbolTable
 70
     2
100
AcDbDimStyleTable
  0
DIMSTYLE
105
27
330
A
100
AcDbSymbolTableRecord
100
AcDbDimStyleTableRecord
  2
ISO-25
 70
     0
 41
2.5
 42
0.625
 43
3.75
 44
1.25
 73
     0
 74
     0
 77
     1
 78
     8
140
2.5
141
2.5
143
0.0393700787
147
0.625
171
     3
172
     1
178
     0
271
     2
272
     2
274
     3
278
    44
283
     0
284
     8
340
11
  0
DIMSTYLE
105
48
102
{ACAD_REACTORS
330
46
330
53
102
}
330
A
100
AcDbSymbolTableRecord
100
AcDbDimStyleTableRecord
  2
SLDDIMSTYLE0
 70
     0
 41
2.5
 44
0.0
 45
0.000000001
 73
     0
 74
     0
 77
     1
 78
    12
 79
     3
140
6.0
147
1.5
173
     1
178
     0
271
     2
272
     2
276
     2
284
    12
340
47
  0
ENDTAB
  0
TABLE
  2
BLOCK_RECORD
  5
1
330
0
100
AcDbSymbolTable
 70
     3
  0
BLOCK_RECORD
  5
1F
330
1
100
AcDbSymbolTableRecord
100
AcDbBlockTableRecord
  2
*Model_Space
340
22
 70
     0
280
     1
281
     0
  0
BLOCK_RECORD
  5
1B
330
1
100
AcDbSymbolTableRecord
100
AcDbBlockTableRecord
  2
*Paper_Space
340
1E
 70
     0
280
     1
281
     0
  0
BLOCK_RECORD
  5
23
330
1
100
AcDbSymbolTableRecord
100
AcDbBlockTableRecord
  2
*Paper_Space0
340
26
 70
     0
280
     1
281
     0
  0
BLOCK_RECORD
  5
49
330
1
100
AcDbSymbolTableRecord
100
AcDbBlockTableRecord
  2
_D
340
0
 70
     0
280
     1
281
     0
  0
BLOCK_RECORD
  5
54
330
1
100
AcDbSymbolTableRecord
100
AcDbBlockTableRecord
  2
_D_1
340
0
 70
     0
280
     1
281
     0
  0
ENDTAB
  0
ENDSEC
  0
SECTION
  2
BLOCKS
  0
BLOCK
  5
20
330
1F
100
AcDbEntity
  8
0
100
AcDbBlockBegin
  2
*Model_Space
 70
     0
 10
0.0
 20
0.0
 30
0.0
  3
*Model_Space
  1

  0
ENDBLK
  5
21
330
1F
100
AcDbEntity
  8
0
100
AcDbBlockEnd
  0
BLOCK
  5
1C
330
1B
100
AcDbEntity
 67
     1
  8
0
100
AcDbBlockBegin
  2
*Paper_Space
 70
     0
 10
0.0
 20
0.0
 30
0.0
  3
*Paper_Space
  1

  0
ENDBLK
  5
1D
330
1B
100
AcDbEntity
 67
     1
  8
0
100
AcDbBlockEnd
  0
BLOCK
  5
24
330
23
100
AcDbEntity
  8
0
100
AcDbBlockBegin
  2
*Paper_Space0
 70
     0
 10
0.0
 20
0.0
 30
0.0
  3
*Paper_Space0
  1

  0
ENDBLK
  5
25
330
23
100
AcDbEntity
  8
0
100
AcDbBlockEnd
  0
BLOCK
  5
4A
330
49
100
AcDbEntity
  8
0
100
AcDbBlockBegin
  2
_D
 70
     0
 10
0.0
 20
0.0
 30
0.0
  3
_D
  1

  0
SOLID
  5
4C
330
49
100
AcDbEntity
  8
0
  6
Continuous
 62
     7
370
     0
100
AcDbTrace
 10
42.7614395004
 20
152.0299240879
 30
0.0
 11
42.4614395004
 21
149.5299240879
 31
0.0
 12
43.0614395004
 22
149.5299240879
 32
0.0
 13
43.0614395004
 23
149.5299240879
 33
0.0
  0
SOLID
  5
4D
330
49
100
AcDbEntity
  8
0
  6
Continuous
 62
     7
370
     0
100
AcDbTrace
 10
42.7614395004
 20
52.0299240879
 30
0.0
 11
43.0614395004
 21
54.5299240879
 31
0.0
 12
42.4614395004
 22
54.5299240879
 32
0.0
 13
42.4614395004
 23
54.5299240879
 33
0.0
  0
LINE
  5
4E
330
49
100
AcDbEntity
  8
0
  6
Continuous
 62
     7
370
     0
100
AcDbLine
 10
56.6850079902
 20
152.0299240879
 30
0.0
 11
41.7614395004
 21
152.0299240879
 31
0.0
  0
LINE
  5
4F
330
49
100
AcDbEntity
  8
0
  6
Continuous
 62
     7
370
     0
100
AcDbLine
 10
56.6850079902
 20
52.0299240879
 30
0.0
 11
41.7614395004
 21
52.0299240879
 31
0.0
  0
LINE
  5
50
330
49
100
AcDbEntity
  8
0
  6
Continuous
 62
     7
370
     0
100
AcDbLine
 10
42.7614395004
 20
152.0299240879
 30
0.0
 11
42.7614395004
 21
52.0299240879
 31
0.0
  0
MTEXT
  5
51
330
49
100
AcDbEntity
  8
0
  6
Continuous
 62
     7
370
     0
100
AcDbMText
 10
35.0270332946
 20
91.6722208134
 30
0.1
 40
6.0
 41
0.0
 46
0.0
 71
     1
 72
     1
  1
100
  7
SLDTEXTSTYLE0
 11
-7.044195017643634E-15
 21
1.0
 31
0.0
 73
     1
 44
1.0
  0
MTEXT
  5
52
330
49
100
AcDbEntity
  8
0
  6
Continuous
 62
     7
370
     0
100
AcDbMText
 10
35.0270332946
 20
108.4388881795
 30
0.1
 40
6.0
 41
0.0
 46
0.0
 71
     1
 72
     1
  1
mm
  7
SLDTEXTSTYLE0
 11
-7.044195017643634E-15
 21
1.0
 31
0.0
 73
     1
 44
1.0
  0
ENDBLK
  5
4B
330
49
100
AcDbEntity
  8
0
100
AcDbBlockEnd
  0
BLOCK
  5
55
330
54
100
AcDbEntity
  8
0
100
AcDbBlockBegin
  2
_D_1
 70
     0
 10
0.0
 20
0.0
 30
0.0
  3
_D_1
  1

  0
SOLID
  5
57
330
54
100
AcDbEntity
  8
0
  6
Continuous
 62
     7
370
     0
100
AcDbTrace
 10
56.6850079902
 20
38.4602342313
 30
0.0
 11
59.1850079902
 21
38.1602342313
 31
0.0
 12
59.1850079902
 22
38.7602342313
 32
0.0
 13
59.1850079902
 23
38.7602342313
 33
0.0
  0
SOLID
  5
58
330
54
100
AcDbEntity
  8
0
  6
Continuous
 62
     7
370
     0
100
AcDbTrace
 10
156.6850079902
 20
38.4602342313
 30
0.0
 11
154.1850079902
 21
38.7602342313
 31
0.0
 12
154.1850079902
 22
38.1602342313
 32
0.0
 13
154.1850079902
 23
38.1602342313
 33
0.0
  0
LINE
  5
59
330
54
100
AcDbEntity
  8
0
  6
Continuous
 62
     7
370
     0
100
AcDbLine
 10
56.6850079902
 20
52.0299240879
 30
0.0
 11
56.6850079902
 21
37.4602342313
 31
0.0
  0
LINE
  5
5A
330
54
100
AcDbEntity
  8
0
  6
Continuous
 62
     7
370
     0
100
AcDbLine
 10
156.6850079902
 20
52.0299240879
 30
0.0
 11
156.6850079902
 21
37.4602342313
 31
0.0
  0
LINE
  5
5B
330
54
100
AcDbEntity
  8
0
  6
Continuous
 62
     7
370
     0
100
AcDbLine
 10
56.6850079902
 20
38.4602342313
 30
0.0
 11
156.6850079902
 21
38.4602342313
 31
0.0
  0
MTEXT
  5
5C
330
54
100
AcDbEntity
  8
0
  6
Continuous
 62
     7
370
     0
100
AcDbMText
 10
91.2668151533
 20
46.1946404371
 30
0.1
 40
6.0
 41
0.0
 46
0.0
 71
     1
 72
     1
  1
100
  7
SLDTEXTSTYLE0
 73
     1
 44
1.0
  0
MTEXT
  5
5D
330
54
100
AcDbEntity
  8
0
  6
Continuous
 62
     7
370
     0
100
AcDbMText
 10
108.0334825193
 20
46.1946404371
 30
0.1
 40
6.0
 41
0.0
 46
0.0
 71
     1
 72
     1
  1
mm
  7
SLDTEXTSTYLE0
 73
     1
 44
1.0
  0
ENDBLK
  5
56
330
54
100
AcDbEntity
  8
0
100
AcDbBlockEnd
  0
ENDSEC
  0
SECTION
  2
ENTITIES
  0
LINE
  5
44
330
1F
100
AcDbEntity
  8
0
  6
Continuous
 62
     7
370
     0
100
AcDbLine
 10
56.6850079902
 20
152.0299240879
 30
0.0
 11
56.6850079902
 21
52.0299240879
 31
0.0
  0
LINE
  5
45
330
1F
100
AcDbEntity
  8
0
  6
Continuous
 62
     7
370
     0
100
AcDbLine
 10
56.6850079902
 20
52.0299240879
 30
0.0
 11
156.6850079902
 21
52.0299240879
 31
0.0
  0
DIMENSION
  5
46
330
1F
100
AcDbEntity
  8
0
  6
Continuous
 62
     7
370
     0
100
AcDbDimension
280
     0
  2
_D
 10
42.7614395004
 20
52.0299240879
 30
0.0
 11
42.7614395004
 21
105.4472211621
 31
0.0
 70
   160
  1
<>mm
 71
     2
 42
-1.0
 73
     0
 74
     0
 75
     0
  3
SLDDIMSTYLE0
100
AcDbAlignedDimension
 13
56.6850079902
 23
152.0299240879
 33
0.0
 14
56.6850079902
 24
52.0299240879
 34
0.0
 50
90.0
100
AcDbRotatedDimension
  0
DIMENSION
  5
53
330
1F
100
AcDbEntity
  8
0
  6
Continuous
 62
     7
370
     0
100
AcDbDimension
280
     0
  2
_D_1
 10
156.6850079902
 20
38.4602342313
 30
0.0
 11
105.0418155019
 21
38.4602342313
 31
0.0
 70
   160
  1
<>mm
 71
     2
 42
-1.0
 73
     0
 74
     0
 75
     0
  3
SLDDIMSTYLE0
100
AcDbAlignedDimension
 13
56.6850079902
 23
52.0299240879
 33
0.0
 14
156.6850079902
 24
52.0299240879
 34
0.0
100
AcDbRotatedDimension
  0
MTEXT
  5
5F
330
1F
100
AcDbEntity
  8
0
  6
Continuous
 62
     7
370
     0
100
AcDbMText
 10
264.6272544641
 20
48.746901701
 30
0.0
 40
10.0
 41
0.0
 46
0.0
 71
     1
 72
     1
  1
42 852 05 78
  7
SLDTEXTSTYLE1
 73
     1
 44
1.0
  0
MTEXT
  5
60
330
1F
100
AcDbEntity
  8
0
  6
Continuous
 62
     7
370
     0
100
AcDbMText
 10
412.8252631579
 20
48.4342449499
 30
0.0
 40
10.0
 41
0.0
 46
0.0
 71
     1
 72
     1
  1
KLUDI GmbH & Co KG
  7
SLDTEXTSTYLE1
 73
     1
 44
1.0
  0
SPLINE
  5
61
330
1F
100
AcDbEntity
  8
0
  6
Continuous
 62
     7
370
    15
100
AcDbSpline
210
0.0
220
0.0
230
1.0
 70
     8
 71
     3
 72
     9
 73
     5
 74
     0
 42
0.00000001
 43
0.00000001
 12
1.0
 22
0.0
 32
0.0
 13
1.0
 23
0.0
 33
0.0
 40
0.0
 40
0.0
 40
0.0
 40
0.0
 40
0.4524797932523323
 40
1.0
 40
1.0
 40
1.0
 40
1.0
 10
252.169449155472
 20
471.0308726337175
 30
0.0
 10
252.1982896723736
 20
455.6766700262976
 30
0.0
 10
252.262028467634
 20
421.7432152369535
 30
0.0
 10
252.2021030631383
 20
387.8096719327356
 30
0.0
 10
252.1692926932794
 20
369.2303712871293
 30
0.0
  0
LINE
  5
62
330
1F
100
AcDbEntity
  8
0
  6
Continuous
 62
     7
370
    15
100
AcDbLine
 10
300.1634909709
 20
466.4508666303
 30
0.0
 11
300.1684605081
 21
471.0308726337
 31
0.0
  0
LINE
  5
63
330
1F
100
AcDbEntity
  8
0
  6
Continuous
 62
     7
370
    15
100
AcDbLine
 10
300.1697196563
 20
369.2303712871
 30
0.0
 11
300.1123911638
 21
412.0098430124
 31
0.0
  0
ARC
  5
64
330
1F
100
AcDbEntity
  8
0
  6
Continuous
 62
     7
370
    15
100
AcDbCircle
 10
299.9691681047
 20
471.0308712871
 30
0.0
 40
0.2000000000000455
100
AcDbArc
 50
359.1944860799
 51
90.0
  0
ARC
  5
65
330
1F
100
AcDbEntity
  8
0
  6
Continuous
 62
     7
370
    15
100
AcDbCircle
 10
252.3691681047
 20
471.0308712871
 30
0.0
 40
0.2000000000000683
100
AcDbArc
 50
90.0
 51
177.0218767457
  0
ARC
  5
66
330
1F
100
AcDbEntity
  8
0
  6
Continuous
 62
     7
370
    15
100
AcDbCircle
 10
259.6691681047
 20
479.9480345614
 30
0.0
 40
7.500000000000028
100
AcDbArc
 50
126.46923439
 51
180.0
  0
ARC
  5
67
330
1F
100
AcDbEntity
  8
0
  6
Continuous
 62
     7
370
    15
100
AcDbCircle
 10
292.6691681047
 20
479.9480345614
 30
0.0
 40
7.5
100
AcDbArc
 50
0.0
 51
53.53076561
  0
LINE
  5
68
330
1F
100
AcDbEntity
  8
0
  6
Continuous
 62
     7
370
    15
100
AcDbLine
 10
252.1691678961
 20
479.9480329659
 30
0.0
 11
252.1691678961
 21
471.4308719542
 31
0.0
  0
LINE
  5
69
330
1F
100
AcDbEntity
  8
0
  6
Continuous
 62
     7
370
    15
100
AcDbLine
 10
300.1691683133
 20
471.4308719542
 30
0.0
 11
300.1691683133
 21
479.9480329659
 31
0.0
  0
ARC
  5
6A
330
1F
100
AcDbEntity
  8
0
  6
Continuous
 62
     7
370
    15
100
AcDbCircle
 10
252.3691681047
 20
471.4308712871
 30
0.0
 40
0.2000000000000455
100
AcDbArc
 50
180.0
 51
270.0
  0
ARC
  5
6B
330
1F
100
AcDbEntity
  8
0
  6
Continuous
 62
     7
370
    15
100
AcDbCircle
 10
299.9691681047
 20
471.4308712871
 30
0.0
 40
0.2000000000000455
100
AcDbArc
 50
270.0
 51
0.0
  0
SPLINE
  5
6C
330
1F
100
AcDbEntity
  8
0
  6
Continuous
 62
     7
370
    15
100
AcDbSpline
210
0.0
220
0.0
230
1.0
 70
     8
 71
     3
 72
    13
 73
     9
 74
     0
 42
0.00000001
 43
0.00000001
 12
1.0
 22
0.0
 32
0.0
 13
1.0
 23
0.0
 33
0.0
 40
0.0
 40
0.0
 40
0.0
 40
0.0
 40
0.1928584300112953
 40
0.4334080345814935
 40
0.5694491484634748
 40
0.7119233818000109
 40
0.8568704462771665
 40
1.0
 40
1.0
 40
1.0
 40
1.0
 10
300.1094239701254
 20
411.9867126848916
 30
0.0
 10
300.1472906959348
 20
412.4150942251834
 30
0.0
 10
300.2323880557346
 20
413.3777900296551
 30
0.0
 10
300.8709180788927
 20
414.5180938533437
 30
0.0
 10
301.6875608790207
 20
415.3339095345081
 30
0.0
 10
302.4876749817705
 20
415.8363911015521
 30
0.0
 10
303.394439829176
 20
416.1678119325783
 30
0.0
 10
304.033632678416
 20
416.2094979718535
 30
0.0
 10
304.351212729953
 20
416.2302094903211
 30
0.0
  0
SPLINE
  5
6D
330
1F
100
AcDbEntity
  8
0
  6
Continuous
 62
     7
370
    15
100
AcDbSpline
210
0.0
220
0.0
230
1.0
 70
     8
 71
     3
 72
    13
 73
     9
 74
     0
 42
0.00000001
 43
0.00000001
 12
1.0
 22
0.0
 32
0.0
 13
1.0
 23
0.0
 33
0.0
 40
0.0
 40
0.0
 40
0.0
 40
0.0
 40
0.1431088384322714
 40
0.2880566989671052
 40
0.4305458522802559
 40
0.5666053792132532
 40
0.8071687420128433
 40
1.0
 40
1.0
 40
1.0
 40
1.0
 10
304.3958435703737
 20
462.2302021291475
 30
0.0
 10
304.07823548679
 20
462.250942534492
 30
0.0
 10
303.438937892563
 20
462.292689870046
 30
0.0
 10
302.5320748500878
 20
462.6245268626458
 30
0.0
 10
301.732013113595
 20
463.127671662916
 30
0.0
 10
300.9158279048319
 20
463.9444823475969
 30
0.0
 10
300.2784885093774
 20
465.0859231311509
 30
0.0
 10
300.1949944817421
 20
466.0489783130765
 30
0.0
 10
300.1578452934248
 20
466.4774726536493
 30
0.0
  0
LINE
  5
6E
330
1F
100
AcDbEntity
  8
0
  6
Continuous
 62
     7
370
    15
100
AcDbLine
 10
304.3275031198
 20
416.2303696778
 30
0.0
 11
328.9691715439
 21
416.2303696778
 31
0.0
  0
LINE
  5
6F
330
1F
100
AcDbEntity
  8
0
  6
Continuous
 62
     7
370
    15
100
AcDbLine
 10
328.9691715439
 20
462.2303734925
 30
0.0
 11
304.3700403471
 21
462.2303734925
 31
0.0
  0
ARC
  5
70
330
1F
100
AcDbEntity
  8
0
  6
Continuous
 62
     7
370
    15
100
AcDbCircle
 10
328.6691681047
 20
461.8303712871
 30
0.0
 40
0.5000006344811181
100
AcDbArc
 50
0.0000000001
 51
53.1298539429
  0
ARC
  5
71
330
1F
100
AcDbEntity
  8
0
  6
Continuous
 62
     7
370
    15
100
AcDbCircle
 10
328.6691681047
 20
416.6303712871
 30
0.0
 40
0.5000006344812091
100
AcDbArc
 50
306.8701460571
 51
359.9999999999
  0
LINE
  5
72
330
1F
100
AcDbEntity
  8
0
  6
Continuous
 62
     7
370
    15
100
AcDbLine
 10
341.4293474455
 20
462.3178582099
 30
0.0
 11
339.0691674252
 21
462.3178582099
 31
0.0
  0
LINE
  5
73
330
1F
100
AcDbEntity
  8
0
  6
Continuous
 62
     7
370
    15
100
AcDbLine
 10
331.1691678066
 20
461.2303714659
 30
0.0
 11
329.1691674788
 21
461.2303714659
 31
0.0
  0
LINE
  5
74
330
1F
100
AcDbEntity
  8
0
  6
Continuous
 62
     7
370
    15
100
AcDbLine
 10
329.1691674788
 20
417.2303717044
 30
0.0
 11
331.1691678066
 21
417.2303717044
 31
0.0
  0
ARC
  5
75
330
1F
100
AcDbEntity
  8
0
  6
Continuous
 62
     7
370
    15
100
AcDbCircle
 10
331.2426340097
 20
439.2302486223
 30
0.0
 40
22.00000000000003
100
AcDbArc
 50
269.8138864069
 51
302.7120497917
  0
ARC
  5
76
330
1F
100
AcDbEntity
  8
0
  6
Continuous
 62
     7
370
    15
100
AcDbCircle
 10
331.2426340097
 20
439.2302486223
 30
0.0
 40
21.99999999999998
100
AcDbArc
 50
69.1604878423
 51
90.1841840946
  0
LINE
  5
77
330
1F
100
AcDbEntity
  8
0
  6
Continuous
 62
     7
370
    15
100
AcDbLine
 10
297.1271018435
 20
485.9793524649
 30
0.0
 11
288.80163682
 21
492.1329583433
 31
0.0
  0
LINE
  5
78
330
1F
100
AcDbEntity
  8
0
  6
Continuous
 62
     7
370
    15
100
AcDbLine
 10
263.5366993894
 20
492.1329583433
 30
0.0
 11
255.2112343658
 21
485.9793524649
 31
0.0
  0
ARC
  5
79
330
1F
100
AcDbEntity
  8
0
  6
Continuous
 62
     7
370
    15
100
AcDbCircle
 10
237.7372784998
 20
439.3178571412
 30
0.0
 40
133.3306612430439
100
AcDbArc
 50
351.1727494786
 51
0.0
  0
SPLINE
  5
7A
330
1F
100
AcDbEntity
  8
0
  6
Continuous
 62
     7
370
    15
100
AcDbSpline
210
0.0
220
0.0
230
1.0
 70
     8
 71
     3
 72
    17
 73
    13
 74
     0
 42
0.00000001
 43
0.00000001
 12
1.0
 22
0.0
 32
0.0
 13
1.0
 23
0.0
 33
0.0
 40
0.0
 40
0.0
 40
0.0
 40
0.0
 40
0.1217804812468697
 40
0.2481150976174065
 40
0.3135443215605502
 40
0.3783961429046285
 40
0.4416434699213136
 40
0.5023243846981733
 40
0.6176580528101592
 40
0.7325804205244115
 40
0.8610183595621206
 40
1.0
 40
1.0
 40
1.0
 40
1.0
 10
371.067943324588
 20
439.3178563025216
 30
0.0
 10
371.0511211715158
 20
440.8471850218007
 30
0.0
 10
371.0168477796809
 20
443.9630336421049
 30
0.0
 10
370.8202724384783
 20
447.86720674896
 30
0.0
 10
370.6452341051478
 20
450.8780506242719
 30
0.0
 10
370.508661260042
 20
453.0146302624056
 30
0.0
 10
370.3781185626087
 20
454.9092475174328
 30
0.0
 10
370.2228791590693
 20
457.0424285388821
 30
0.0
 10
370.0467750355255
 20
459.3848405175269
 30
0.0
 10
369.8513216312724
 20
462.7247740840107
 30
0.0
 10
369.7036999682043
 20
466.7934739643914
 30
0.0
 10
369.680979476134
 20
469.6881383581954
 30
0.0
 10
369.6691713233215
 20
471.1925353315095
 30
0.0
  0
ARC
  5
7B
330
1F
100
AcDbEntity
  8
0
  6
Continuous
 62
     7
370
    15
100
AcDbCircle
 10
263.8338945544
 20
491.7308712871
 30
0.0
 40
0.4999999999999711
100
AcDbArc
 50
90.0
 51
126.46923439
  0
ARC
  5
7C
330
1F
100
AcDbEntity
  8
0
  6
Continuous
 62
     7
370
    15
100
AcDbCircle
 10
288.5044416549
 20
491.7308712871
 30
0.0
 40
0.4999999999999432
100
AcDbArc
 50
53.53076561
 51
90.0
  0
LINE
  5
7D
330
1F
100
AcDbEntity
  8
0
  6
Continuous
 62
     7
370
    15
100
AcDbLine
 10
477.86827599
 20
650.9098227527
 30
0.0
 11
482.9233161111
 21
593.1305255201
 31
0.0
  0
LINE
  5
7E
330
1F
100
AcDbEntity
  8
0
  6
Continuous
 62
     7
370
    15
100
AcDbLine
 10
506.8319908281
 20
595.2222611215
 30
0.0
 11
501.776950707
 21
653.0015583542
 31
0.0
  0
ARC
  5
7F
330
1F
100
AcDbEntity
  8
0
  6
Continuous
 62
     7
370
    15
100
AcDbCircle
 10
501.5580867542
 20
653.1861784049
 30
0.0
 40
0.1999999999999847
100
AcDbArc
 50
275.0
 51
6.111709777
  0
ARC
  5
80
330
1F
100
AcDbEntity
  8
0
  6
Continuous
 62
     7
370
    15
100
AcDbCircle
 10
491.3083438667
 20
652.0886781306
 30
0.0
 40
10.50833333333336
100
AcDbArc
 50
6.111709777
 51
23.6707473118
  0
ARC
  5
81
330
1F
100
AcDbEntity
  8
0
  6
Continuous
 62
     7
370
    15
100
AcDbCircle
 10
488.3363630174
 20
651.8286634981
 30
0.0
 40
10.50833333333329
100
AcDbArc
 50
166.3292526882
 51
183.888290223
  0
LINE
  5
82
330
1F
100
AcDbEntity
  8
0
  6
Continuous
 62
     7
370
    15
100
AcDbLine
 10
288.1191682939
 20
492.2308738735
 30
0.0
 11
288.1191682939
 21
492.4308698085
 31
0.0
  0
LINE
  5
83
330
1F
100
AcDbEntity
  8
0
  6
Continuous
 62
     7
370
    15
100
AcDbLine
 10
264.2191679154
 20
492.4308698085
 30
0.0
 11
264.2191679154
 21
492.2308738735
 31
0.0
  0
ARC
  5
84
330
1F
100
AcDbEntity
  8
0
  6
Continuous
 62
     7
370
    15
100
AcDbCircle
 10
500.749413312
 20
656.2272701425
 30
0.0
 40
0.1999999999999947
100
AcDbArc
 50
23.6707473118
 51
95.0
  0
ARC
  5
85
330
1F
100
AcDbEntity
  8
0
  6
Continuous
 62
     7
370
    15
100
AcDbCircle
 10
478.32006567
 20
654.2649564936
 30
0.0
 40
0.200000000000103
100
AcDbArc
 50
95.0
 51
166.3292526882
  0
ARC
  5
86
330
1F
100
AcDbEntity
  8
0
  6
Continuous
 62
     7
370
    15
100
AcDbCircle
 10
366.524239253
 20
419.3178571412
 30
0.0
 40
3.0
100
AcDbArc
 50
270.0
 51
351.1727494786
  0
LINE
  5
87
330
1F
100
AcDbEntity
  8
0
  6
Continuous
 62
     7
370
    15
100
AcDbLine
 10
344.0860829253
 20
416.3178581205
 30
0.0
 11
366.5242365499
 21
416.3178581205
 31
0.0
  0
LINE
  5
88
330
1F
100
AcDbEntity
  8
0
  6
Continuous
 62
     7
370
    15
100
AcDbLine
 10
474.8114666839
 20
697.323005965
 30
0.0
 11
478.5591683288
 21
654.4866378811
 31
0.0
  0
LINE
  5
89
330
1F
100
AcDbEntity
  8
0
  6
Continuous
 62
     7
370
    15
100
AcDbLine
 10
500.475453486
 20
656.4040596988
 30
0.0
 11
496.7277518411
 21
699.2404277828
 31
0.0
  0
LINE
  5
8A
330
1F
100
AcDbEntity
  8
0
  6
Continuous
 62
     7
370
    15
100
AcDbLine
 10
287.1691680451
 20
492.4308698085
 30
0.0
 11
287.1691680451
 21
689.130377343
 31
0.0
  0
LINE
  5
8B
330
1F
100
AcDbEntity
  8
0
  6
Continuous
 62
     7
370
    15
100
AcDbLine
 10
265.1691681643
 20
689.130377343
 30
0.0
 11
265.1691681643
 21
492.4308698085
 31
0.0
  0
ARC
  5
8C
330
1F
100
AcDbEntity
  8
0
  6
Continuous
 62
     7
370
    15
100
AcDbCircle
 10
381.1691681047
 20
689.1303712871
 30
0.0
 40
94.0
100
AcDbArc
 50
5.0
 51
180.0
  0
ARC
  5
8D
330
1F
100
AcDbEntity
  8
0
  6
Continuous
 62
     7
370
    15
100
AcDbCircle
 10
381.1691681047
 20
689.1303712871
 30
0.0
 40
116.0
100
AcDbArc
 50
5.0
 51
180.0
  0
SPLINE
  5
8E
330
1F
100
AcDbEntity
  8
0
  6
Continuous
 62
     7
370
    15
100
AcDbSpline
210
0.0
220
0.0
230
1.0
 70
     8
 71
     3
 72
    22
 73
    18
 74
     0
 42
0.00000001
 43
0.00000001
 12
1.0
 22
0.0
 32
0.0
 13
1.0
 23
0.0
 33
0.0
 40
0.0
 40
0.0
 40
0.0
 40
0.0
 40
0.1129516757774566
 40
0.1860759584975052
 40
0.256010264723929
 40
0.3156149207386077
 40
0.419674420254224
 40
0.5077504088775396
 40
0.5566049026039297
 40
0.5991293739334157
 40
0.657629189195284
 40
0.7168795557587155
 40
0.7911180540497774
 40
0.8958977746059459
 40
0.9513679900301732
 40
0.9750808376888248
 40
1.0
 40
1.0
 40
1.0
 40
1.0
 10
353.5933441419822
 20
471.5856205132226
 30
0.0
 10
353.5887431807832
 20
470.8031513243633
 30
0.0
 10
353.5811635830551
 20
469.5141159620316
 30
0.0
 10
353.2604230236017
 20
467.8144104857009
 30
0.0
 10
352.8239336521164
 20
466.5860735418084
 30
0.0
 10
352.1670144804631
 20
465.4290276006802
 30
0.0
 10
351.4578282804858
 20
464.5463495859299
 30
0.0
 10
350.7678590843335
 20
463.947760692236
 30
0.0
 10
350.1798190143463
 20
463.5778437049942
 30
0.0
 10
349.5859832052125
 20
463.288342527265
 30
0.0
 10
348.7916120237007
 20
463.0055244293823
 30
0.0
 10
347.6935996300319
 20
462.7415666149303
 30
0.0
 10
346.1306417922854
 20
462.5082171537489
 30
0.0
 10
344.3669538751249
 20
462.3857048953774
 30
0.0
 10
342.8860717041554
 20
462.3399172885073
 30
0.0
 10
342.0296297736247
 20
462.3240700506427
 30
0.0
 10
341.6240677568717
 20
462.3198199203284
 30
0.0
 10
341.4162567754013
 20
462.317642143033
 30
0.0
  0
SPLINE
  5
8F
330
1F
100
AcDbEntity
  8
0
  6
Continuous
 62
     7
370
    15
100
AcDbSpline
210
0.0
220
0.0
230
1.0
 70
     8
 71
     3
 72
     9
 73
     5
 74
     0
 42
0.00000001
 43
0.00000001
 12
1.0
 22
0.0
 32
0.0
 13
1.0
 23
0.0
 33
0.0
 40
0.0
 40
0.0
 40
0.0
 40
0.0
 40
0.2388422345509936
 40
1.0
 40
1.0
 40
1.0
 40
1.0
 10
353.6320424576027
 20
515.0870199706773
 30
0.0
 10
353.6081825626464
 20
514.8788736378831
 30
0.0
 10
353.508284422767
 20
514.0073932098697
 30
0.0
 10
353.5304079246056
 20
513.1255665367667
 30
0.0
 10
353.5472473998291
 20
512.4543573167542
 30
0.0
  0
LINE
  5
90
330
1F
100
AcDbEntity
  8
0
  6
Continuous
 62
     7
370
    15
100
AcDbLine
 10
369.6651182075
 20
471.3534902241
 30
0.0
 11
369.6679345269
 21
483.9976991918
 31
0.0
  0
SPLINE
  5
91
330
1F
100
AcDbEntity
  8
0
  6
Continuous
 62
     7
370
    15
100
AcDbSpline
210
0.0
220
0.0
230
1.0
 70
     8
 71
     3
 72
     9
 73
     5
 74
     0
 42
0.00000001
 43
0.00000001
 12
1.0
 22
0.0
 32
0.0
 13
1.0
 23
0.0
 33
0.0
 40
0.0
 40
0.0
 40
0.0
 40
0.0
 40
0.488258901879572
 40
1.0
 40
1.0
 40
1.0
 40
1.0
 10
369.6910164256317
 20
512.4542381074647
 30
0.0
 10
369.6994139220586
 20
513.1250209470322
 30
0.0
 10
369.7166127819148
 20
514.4988470810472
 30
0.0
 10
369.5434730104103
 20
515.8565202951025
 30
0.0
 10
369.4548702736122
 20
516.5512974765519
 30
0.0
  0
LINE
  5
92
330
1F
100
AcDbEntity
  8
0
  6
Continuous
 62
     7
370
    15
100
AcDbLine
 10
353.5704038043
 20
483.9967380669
 30
0.0
 11
353.5732201238
 21
471.3534902241
 31
0.0
  0
SPLINE
  5
93
330
1F
100
AcDbEntity
  8
0
  6
Continuous
 62
     7
370
    15
100
AcDbSpline
210
0.0
220
0.0
230
1.0
 70
     8
 71
     3
 72
    10
 73
     6
 74
     0
 42
0.00000001
 43
0.00000001
 12
1.0
 22
0.0
 32
0.0
 13
1.0
 23
0.0
 33
0.0
 40
0.0
 40
0.0
 40
0.0
 40
0.0
 40
0.0913965433434083
 40
0.7149939447804348
 40
1.0
 40
1.0
 40
1.0
 40
1.0
 10
354.8072299857361
 20
518.9440663364152
 30
0.0
 10
354.7681981730888
 20
518.8914533916294
 30
0.0
 10
354.4628528211126
 20
518.4798630232974
 30
0.0
 10
354.1258927728065
 20
517.8281712524168
 30
0.0
 10
353.9773747550929
 20
517.1987924517099
 30
0.0
 10
353.9307883877975
 20
517.0013721492509
 30
0.0
  0
SPLINE
  5
94
330
1F
100
AcDbEntity
  8
0
  6
Continuous
 62
     7
370
    15
100
AcDbSpline
210
0.0
220
0.0
230
1.0
 70
     8
 71
     3
 72
    10
 73
     6
 74
     0
 42
0.00000001
 43
0.00000001
 12
1.0
 22
0.0
 32
0.0
 13
1.0
 23
0.0
 33
0.0
 40
0.0
 40
0.0
 40
0.0
 40
0.0
 40
0.2462121625104592
 40
0.9306394885868884
 40
1.0
 40
1.0
 40
1.0
 40
1.0
 10
369.2808172602874
 20
517.1422328260163
 30
0.0
 10
369.2374685271103
 20
517.3000742746996
 30
0.0
 10
369.0736177958406
 20
517.89668771403
 30
0.0
 10
368.772366270594
 20
518.5101595907093
 30
0.0
 10
368.4590926068024
 20
518.9058395257235
 30
0.0
 10
368.4302664299232
 20
518.9422483947495
 30
0.0
  0
SPLINE
  5
95
330
1F
100
AcDbEntity
  8
0
  6
Continuous
 62
     7
370
    15
100
AcDbSpline
210
0.0
220
0.0
230
1.0
 70
     8
 71
     3
 72
    11
 73
     7
 74
     0
 42
0.00000001
 43
0.00000001
 12
1.0
 22
0.0
 32
0.0
 13
1.0
 23
0.0
 33
0.0
 40
0.0
 40
0.0
 40
0.0
 40
0.0
 40
0.0685438390723248
 40
0.4289097441958671
 40
0.8041687149275529
 40
1.0
 40
1.0
 40
1.0
 40
1.0
 10
368.432285537265
 20
518.9368541743974
 30
0.0
 10
368.3836121758052
 20
519.0161641425603
 30
0.0
 10
368.0790409802692
 20
519.5124424166893
 30
0.0
 10
367.3146323705839
 20
520.3147045685894
 30
0.0
 10
366.3115614879296
 20
521.1334954192068
 30
0.0
 10
365.5867070424996
 20
521.4653370159479
 30
0.0
 10
365.3381488223297
 20
521.5791280772904
 30
0.0
  0
SPLINE
  5
96
330
1F
100
AcDbEntity
  8
0
  6
Continuous
 62
     7
370
    15
100
AcDbSpline
210
0.0
220
0.0
230
1.0
 70
     8
 71
     3
 72
     9
 73
     5
 74
     0
 42
0.00000001
 43
0.00000001
 12
1.0
 22
0.0
 32
0.0
 13
1.0
 23
0.0
 33
0.0
 40
0.0
 40
0.0
 40
0.0
 40
0.0
 40
0.5614402165503837
 40
1.0
 40
1.0
 40
1.0
 40
1.0
 10
355.4921395082695
 20
519.8111947086076
 30
0.0
 10
355.3472998562726
 20
519.6600055826451
 30
0.0
 10
355.0893210942829
 20
519.3907175596186
 30
0.0
 10
354.9037680292639
 20
519.071055035119
 30
0.0
 10
354.8223919172508
 20
518.9308639075974
 30
0.0
  0
SPLINE
  5
97
330
1F
100
AcDbEntity
  8
0
  6
Continuous
 62
     7
370
    15
100
AcDbSpline
210
0.0
220
0.0
230
1.0
 70
     8
 71
     3
 72
     9
 73
     5
 74
     0
 42
0.00000001
 43
0.00000001
 12
1.0
 22
0.0
 32
0.0
 13
1.0
 23
0.0
 33
0.0
 40
0.0
 40
0.0
 40
0.0
 40
0.0
 40
0.3558909873606035
 40
0.9999999999999999
 40
0.9999999999999999
 40
0.9999999999999999
 40
0.9999999999999999
 10
356.7450365920288
 20
520.9200348165253
 30
0.0
 10
356.5794846343865
 20
520.8070833819465
 30
0.0
 10
356.1143086014951
 20
520.4897068857998
 30
0.0
 10
355.745487976902
 20
520.0709324304198
 30
0.0
 10
355.5079272885544
 20
519.8011960294465
 30
0.0
  0
SPLINE
  5
98
330
1F
100
AcDbEntity
  8
0
  6
Continuous
 62
     7
370
    15
100
AcDbSpline
210
0.0
220
0.0
230
1.0
 70
     8
 71
     3
 72
     9
 73
     5
 74
     0
 42
0.00000001
 43
0.00000001
 12
1.0
 22
0.0
 32
0.0
 13
1.0
 23
0.0
 33
0.0
 40
0.0
 40
0.0
 40
0.0
 40
0.0
 40
0.5318592708770387
 40
1.0
 40
1.0
 40
1.0
 40
1.0
 10
357.7473482985718
 20
521.5268846061448
 30
0.0
 10
357.557760232485
 20
521.4366237055752
 30
0.0
 10
357.201297392655
 20
521.2669154659861
 30
0.0
 10
356.8993885718377
 20
521.01966144008
 30
0.0
 10
356.7580527563316
 20
520.9039117601136
 30
0.0
  0
SPLINE
  5
99
330
1F
100
AcDbEntity
  8
0
  6
Continuous
 62
     7
370
    15
100
AcDbSpline
210
0.0
220
0.0
230
1.0
 70
     8
 71
     3
 72
     9
 73
     5
 74
     0
 42
0.00000001
 43
0.00000001
 12
1.0
 22
0.0
 32
0.0
 13
1.0
 23
0.0
 33
0.0
 40
0.0
 40
0.0
 40
0.0
 40
0.0
 40
0.2668274719139893
 40
1.0
 40
1.0
 40
1.0
 40
1.0
 10
359.6470079322082
 20
522.2189541366319
 30
0.0
 10
359.469776828505
 20
522.1804977331227
 30
0.0
 10
358.8055607249985
 20
522.0363731299351
 30
0.0
 10
358.1948894422552
 20
521.7441296958027
 30
0.0
 10
357.7471620340568
 20
521.5298648383836
 30
0.0
  0
SPLINE
  5
9A
330
1F
100
AcDbEntity
  8
0
  6
Continuous
 62
     7
370
    15
100
AcDbSpline
210
0.0
220
0.0
230
1.0
 70
     8
 71
     3
 72
     9
 73
     5
 74
     0
 42
0.00000001
 43
0.00000001
 12
1.0
 22
0.0
 32
0.0
 13
1.0
 23
0.0
 33
0.0
 40
0.0
 40
0.0
 40
0.0
 40
0.0
 40
0.3010217215571729
 40
1.0
 40
1.0
 40
1.0
 40
1.0
 10
365.3481475014908
 20
521.597009470723
 30
0.0
 10
365.1812729392965
 20
521.681494666017
 30
0.0
 10
364.6269124056743
 20
521.9621561241232
 30
0.0
 10
364.0150428018871
 20
522.109761273976
 30
0.0
 10
363.5873592396003
 20
522.2129340675095
 30
0.0
  0
SPLINE
  5
9B
330
1F
100
AcDbEntity
  8
0
  6
Continuous
 62
     7
370
    15
100
AcDbSpline
210
0.0
220
0.0
230
1.0
 70
     8
 71
     3
 72
     9
 73
     5
 74
     0
 42
0.00000001
 43
0.00000001
 12
1.0
 22
0.0
 32
0.0
 13
1.0
 23
0.0
 33
0.0
 40
0.0
 40
0.0
 40
0.0
 40
0.0
 40
0.2697284991458266
 40
1.0
 40
1.0
 40
1.0
 40
1.0
 10
361.6253829498512
 20
522.4461670425156
 30
0.0
 10
361.4453102377261
 20
522.4490394044825
 30
0.0
 10
360.7777029485619
 20
522.4596884904187
 30
0.0
 10
360.1233935076158
 20
522.3215823518809
 30
0.0
 10
359.645569970153
 20
522.2207273748139
 30
0.0
  0
SPLINE
  5
9C
330
1F
100
AcDbEntity
  8
0
  6
Continuous
 62
     7
370
    15
100
AcDbSpline
210
0.0
220
0.0
230
1.0
 70
     8
 71
     3
 72
     9
 73
     5
 74
     0
 42
0.00000001
 43
0.00000001
 12
1.0
 22
0.0
 32
0.0
 13
1.0
 23
0.0
 33
0.0
 40
0.0
 40
0.0
 40
0.0
 40
0.0
 40
0.2719165860978562
 40
1.0
 40
1.0
 40
1.0
 40
1.0
 10
363.5904810328705
 20
522.2194458749512
 30
0.0
 10
363.4162244282226
 20
522.2629767557611
 30
0.0
 10
362.7753786190407
 20
522.4230658530631
 30
0.0
 10
362.1096409900867
 20
522.4368564757607
 30
0.0
 10
361.6249284644348
 20
522.4468971994141
 30
0.0
  0
SPLINE
  5
9D
330
1F
100
AcDbEntity
  8
0
  6
Continuous
 62
     7
370
    15
100
AcDbSpline
210
0.0
220
0.0
230
1.0
 70
    24
 71
     3
 72
    37
 73
    33
 74
     0
 42
0.00000001
 43
0.00000001
 12
1.0
 22
0.0
 32
0.0
 13
1.0
 23
0.0
 33
0.0
 40
0.0
 40
0.0
 40
0.0
 40
0.0
 40
0.0045300001915616
 40
0.0318473147775035
 40
0.0596122028039467
 40
0.086504643398356
 40
0.1408122565022923
 40
0.1685528086272901
 40
0.1954361457031244
 40
0.2497202241892345
 40
0.2774486095479881
 40
0.3043397633040834
 40
0.358637358764939
 40
0.3863701946012139
 40
0.4132813574943999
 40
0.4676208750505042
 40
0.49537221749978
 40
0.5494029618342631
 40
0.5767344332533977
 40
0.6045252701800886
 40
0.6585664161293574
 40
0.6859246949856715
 40
0.713731466529978
 40
0.7406431976086706
 40
0.7677461030216746
 40
0.7950685318198114
 40
0.822838720139806
 40
0.8497293400424639
 40
0.9040325527028894
 40
0.9317705185588717
 40
0.965695696843432
 40
1.0
 40
1.0
 40
1.0
 40
1.0
 10
300.1578955848438
 20
369.2303712871295
 30
0.0
 10
300.161568752965
 20
369.2303712871295
 30
0.0
 10
300.187392270943
 20
369.2303712871295
 30
0.0
 10
300.0692567895447
 20
369.2303712871295
 30
0.0
 10
299.7948140324008
 20
369.2303712871295
 30
0.0
 10
299.1873168177157
 20
369.2303712871295
 30
0.0
 10
298.2546330177341
 20
369.2303712871295
 30
0.0
 10
297.0099061296966
 20
369.2303712871295
 30
0.0
 10
295.5706208351806
 20
369.2303712871295
 30
0.0
 10
293.8497972036024
 20
369.2303712871295
 30
0.0
 10
291.8842398799284
 20
369.2303712871295
 30
0.0
 10
289.770940993137
 20
369.2303712871295
 30
0.0
 10
287.4549471793042
 20
369.2303712871295
 30
0.0
 10
284.9889290866798
 20
369.2303712871295
 30
0.0
 10
282.4386339824471
 20
369.2303712871295
 30
0.0
 10
279.7853816399862
 20
369.2303712871295
 30
0.0
 10
276.4267190084565
 20
369.2303712871295
 30
0.0
 10
273.7152202830692
 20
369.2303712871295
 30
0.0
 10
271.0523639462803
 20
369.2303712871295
 30
0.0
 10
268.4374674171782
 20
369.2303712871295
 30
0.0
 10
265.9193683503182
 20
369.2303712871294
 30
0.0
 10
263.5596112869272
 20
369.2303712871294
 30
0.0
 10
261.8754989563934
 20
369.2303712871294
 30
0.0
 10
260.2986052084599
 20
369.2303712871294
 30
0.0
 10
258.8433657839355
 20
369.2303712871294
 30
0.0
 10
257.4967596597427
 20
369.2303712871294
 30
0.0
 10
256.2870263499572
 20
369.2303712871294
 30
0.0
 10
254.8670531992005
 20
369.2303712871294
 30
0.0
 10
253.7404363451548
 20
369.2303712871294
 30
0.0
 10
252.8938938712587
 20
369.2303712871294
 30
0.0
 10
252.3934263836198
 20
369.2303712871294
 30
0.0
 10
252.2619438266669
 20
369.2303712871294
 30
0.0
 10
252.1958372493011
 20
369.2303712871294
 30
0.0
  0
LINE
  5
9E
330
1F
100
AcDbEntity
  8
0
  6
Continuous
 62
     7
370
    15
100
AcDbLine
 10
252.3691675563
 20
471.2308685687
 30
0.0
 11
299.969168653
 21
471.2308685687
 31
0.0
  0
LINE
  5
9F
330
1F
100
AcDbEntity
  8
0
  6
Continuous
 62
     7
370
    15
100
AcDbLine
 10
329.1691674788
 20
416.6303727236
 30
0.0
 11
329.1691674788
 21
461.830374172
 31
0.0
  0
ELLIPSE
  5
A0
330
1F
100
AcDbEntity
  8
0
  6
Continuous
 62
     7
370
    15
100
AcDbEllipse
 10
339.0691681059
 20
439.3178571412
 30
0.0
 11
-5.086052913512618
 21
22.99253455008727
 31
0.0
210
0.0
220
0.0
230
1.0
 40
0.1152101629
 41
4.271159544277142
 42
5.192562116564321
  0
LINE
  5
A1
330
1F
100
AcDbEntity
  8
0
  6
Continuous
 62
     7
370
    15
100
AcDbLine
 10
339.0691674252
 20
450.4585604575
 30
0.0
 11
339.0691674252
 21
462.3178582099
 31
0.0
  0
ELLIPSE
  5
A2
330
1F
100
AcDbEntity
  8
0
  6
Continuous
 62
     7
370
    15
100
AcDbEllipse
 10
339.0691681059
 20
439.3178571412
 30
0.0
 11
-5.086052913512618
 21
22.99253455008727
 31
0.0
210
0.0
220
0.0
230
1.0
 40
0.1152101629
 41
3.621765789769455
 42
4.271159544277142
  0
ELLIPSE
  5
A3
330
1F
100
AcDbEntity
  8
0
  6
Continuous
 62
     7
370
    15
100
AcDbEllipse
 10
339.0691681059
 20
439.3178571412
 30
0.0
 11
-5.086052913512618
 21
22.99253455008727
 31
0.0
210
0.0
220
0.0
230
1.0
 40
0.1152101629
 41
2.972372035261636
 42
3.621765789769455
  0
ELLIPSE
  5
A4
330
1F
100
AcDbEntity
  8
0
  6
Continuous
 62
     7
370
    15
100
AcDbEllipse
 10
339.0691681059
 20
439.3178571412
 30
0.0
 11
-5.086052913512618
 21
22.99253455008727
 31
0.0
210
0.0
220
0.0
230
1.0
 40
0.1152101629
 41
2.547995732643144
 42
2.972372035261639
  0
LWPOLYLINE
  5
A5
330
1F
100
AcDbEntity
  8
0
  6
Continuous
 62
     7
370
    15
100
AcDbPolyline
 90
       16
 70
   128
 43
0.0
 10
339.0691674252
 20
449.2769058254
 10
339.7340721388
 20
446.7363845017
 10
340.3790092964
 20
444.088813236
 10
340.9922591348
 20
441.3822706249
 10
341.5626830359
 20
438.6659305003
 10
342.0799246927
 20
435.9891231563
 10
342.5345814724
 20
433.4004859832
 10
342.9183981319
 20
430.9470209685
 10
343.2244009276
 20
428.6733086612
 10
343.4470317264
 20
426.6206439045
 10
343.5822523136
 20
424.8263131287
 10
343.6275965471
 20
423.3229088989
 10
343.5822523136
 20
422.1377375927
 10
343.4470317264
 20
421.2923313883
 10
343.2244009276
 20
420.8020422068
 10
343.1318125625
 20
420.7195121255
  0
LINE
  5
A6
330
1F
100
AcDbEntity
  8
0
  6
Continuous
 62
     7
370
    15
100
AcDbLine
 10
339.0691674252
 20
450.4585604575
 30
0.0
 11
339.0691674252
 21
449.2769058254
 31
0.0
  0
LINE
  5
A7
330
1F
100
AcDbEntity
  8
0
  6
Continuous
 62
     7
370
    15
100
AcDbLine
 10
369.6535325546
 20
471.3532220032
 30
0.0
 11
369.6691713233
 21
471.1925353315
 31
0.0
  0
LINE
  5
A8
330
1F
100
AcDbEntity
  8
0
  6
Continuous
 62
     7
370
    15
100
AcDbLine
 10
263.8338946675
 20
492.2308738735
 30
0.0
 11
288.5044415419
 21
492.2308738735
 31
0.0
  0
LWPOLYLINE
  5
A9
330
1F
100
AcDbEntity
  8
0
  6
Continuous
 62
     7
370
    15
100
AcDbPolyline
 90
       20
 70
   128
 43
0.0
 10
501.776950707
 20
653.0015583542
 10
501.6737005611
 20
652.9925282505
 10
501.2214056154
 20
652.9529507663
 10
500.42276298
 20
652.8830643203
 10
499.3020466466
 20
652.7850146797
 10
497.8933057685
 20
652.6617820766
 10
496.2393364806
 20
652.5170619991
 10
494.3904003997
 20
652.3553247955
 10
492.4026749034
 20
652.1813984421
 10
490.3365394969
 20
652.0006473568
 10
488.2548025747
 20
651.8185253647
 10
486.2207046647
 20
651.6405458954
 10
484.2960557838
 20
651.4721627739
 10
482.5393131871
 20
651.3184721973
 10
481.0038826366
 20
651.1841531303
 10
479.7363898654
 20
651.0732586887
 10
478.7753692765
 20
650.9891863373
 10
478.1500122447
 20
650.9344692734
 10
477.8793326516
 20
650.9107764271
 10
477.86827599
 20
650.9098227527
  0
LWPOLYLINE
  5
AA
330
1F
100
AcDbEntity
  8
0
  6
Continuous
 62
     7
370
    15
100
AcDbPolyline
 90
       20
 70
   128
 43
0.0
 10
506.8319908281
 20
595.2222611215
 10
506.728725781
 20
595.2132310178
 10
506.2764457364
 20
595.1736535337
 10
505.4778031011
 20
595.1037819889
 10
504.3570867677
 20
595.0057323482
 10
502.9483309884
 20
594.882484844
 10
501.2943617006
 20
594.7377796676
 10
499.4454256196
 20
594.5760126617
 10
497.4577001233
 20
594.4021161106
 10
495.391579618
 20
594.2213501241
 10
493.3098426957
 20
594.039228132
 10
491.2757447858
 20
593.8612635639
 10
489.3510810037
 20
593.6928804424
 10
487.5943533082
 20
593.5391898658
 10
486.0589078565
 20
593.4048558977
 10
484.7914299865
 20
593.2939614561
 10
483.8304093976
 20
593.2098742035
 10
483.2050523658
 20
593.1551720407
 10
482.9343578716
 20
593.1314940956
 10
482.9233161111
 20
593.1305255201
  0
LWPOLYLINE
  5
AB
330
1F
100
AcDbEntity
  8
0
  6
Continuous
 62
     7
370
    15
100
AcDbPolyline
 90
       11
 70
   128
 43
0.0
 10
490.3276435037
 20
652.0028825309
 10
488.2809243102
 20
651.8238003757
 10
486.2810543676
 20
651.6488607433
 10
484.3887857099
 20
651.4833088424
 10
482.6616219182
 20
651.3321812656
 10
481.15201508
 20
651.2001271751
 10
479.9058607717
 20
651.0910804775
 10
478.9610228439
 20
651.0084386375
 10
478.3461860318
 20
650.9546454456
 10
478.0800512929
 20
650.9313400295
 10
478.0691883464
 20
650.9304161575
  0
LWPOLYLINE
  5
AC
330
1F
100
AcDbEntity
  8
0
  6
Continuous
 62
     7
370
    15
100
AcDbPolyline
 90
       10
 70
   128
 43
0.0
 10
501.57551681
 20
652.9869254139
 10
501.4739951987
 20
652.9780443218
 10
501.0293147464
 20
652.9391522911
 10
500.2441278596
 20
652.870457938
 10
499.1422614951
 20
652.7740474251
 10
497.7572283645
 20
652.6528711822
 10
496.1310944457
 20
652.5106246975
 10
494.3132719894
 20
652.3515697029
 10
492.3589846988
 20
652.1805937793
 10
490.3276435037
 20
652.0028825309
  0
LINE
  5
AD
330
1F
100
AcDbEntity
  8
0
  6
Continuous
 62
     7
370
    15
100
AcDbLine
 10
288.1191682939
 20
492.4308698085
 30
0.0
 11
264.2191679154
 21
492.4308698085
 31
0.0
  0
LWPOLYLINE
  5
AE
330
1F
100
AcDbEntity
  8
0
  6
Continuous
 62
     7
370
    15
100
AcDbPolyline
 90
       10
 70
   128
 43
0.0
 10
489.9994454284
 20
655.4875190761
 10
487.9910818238
 20
655.3118343857
 10
486.0317877431
 20
655.1404114273
 10
484.1845205922
 20
654.978793433
 10
482.5086465974
 20
654.8321660068
 10
481.0580334563
 20
654.7052677181
 10
479.8793218036
 20
654.6021516826
 10
479.0103605886
 20
654.5261259582
 10
478.4791192909
 20
654.4796343353
 10
478.3026299377
 20
654.4641967323
  0
LWPOLYLINE
  5
AF
330
1F
100
AcDbEntity
  8
0
  6
Continuous
 62
     7
370
    15
100
AcDbPolyline
 90
       10
 70
   128
 43
0.0
 10
500.7319769759
 20
656.4265008476
 10
500.6849340101
 20
656.4223881271
 10
500.3222248454
 20
656.3906486538
 10
499.6122441192
 20
656.3285406139
 10
498.577790608
 20
656.2380309608
 10
497.2521386047
 20
656.1220701244
 10
495.677875628
 20
655.9843237903
 10
493.9056060214
 20
655.8292921093
 10
491.9922969241
 20
655.6618924644
 10
489.9994454284
 20
655.4875190761
  0
SPLINE
  5
B0
330
1F
100
AcDbEntity
  8
0
  6
Continuous
 62
     7
370
    15
100
AcDbSpline
210
0.0
220
0.0
230
1.0
 70
     8
 71
     3
 72
    12
 73
     8
 74
     0
 42
0.00000001
 43
0.00000001
 12
1.0
 22
0.0
 32
0.0
 13
1.0
 23
0.0
 33
0.0
 40
0.895283275631381
 40
0.895283275631381
 40
0.895283275631381
 40
0.895283275631381
 40
0.9214624567598514
 40
0.947641637839901
 40
0.9738208189199504
 40
0.9912736063066502
 40
1.0
 40
1.0
 40
1.0
 40
1.0
 10
353.6295902707725
 20
471.813575599164
 30
0.0
 10
353.6177412170657
 20
471.7528168222908
 30
0.0
 10
353.599200973749
 20
471.6402681514764
 30
0.0
 10
353.5813486371688
 20
471.4849712432337
 30
0.0
 10
353.5724496405186
 20
471.3535641934619
 30
0.0
 10
353.5695296332048
 20
471.2568030609301
 30
0.0
 10
353.5691681061679
 20
471.2086046725895
 30
0.0
 10
353.5691681059228
 20
471.1925390035502
 30
0.0
  0
SPLINE
  5
B1
330
1F
100
AcDbEntity
  8
0
  6
Continuous
 62
     7
370
    15
100
AcDbSpline
210
0.0
220
0.0
230
1.0
 70
     8
 71
     3
 72
     8
 73
     4
 74
     0
 42
0.00000001
 43
0.00000001
 12
1.0
 22
0.0
 32
0.0
 13
1.0
 23
0.0
 33
0.0
 40
0.0
 40
0.0
 40
0.0
 40
0.0
 40
1.0
 40
1.0
 40
1.0
 40
1.0
 10
353.634705575331
 20
515.3380904619086
 30
0.0
 10
353.6613753780018
 20
515.8717441531471
 30
0.0
 10
353.7328050589796
 20
516.4199558666911
 30
0.0
 10
353.8808294876656
 20
516.9553006971247
 30
0.0
  0
SPLINE
  5
B2
330
1F
100
AcDbEntity
  8
0
  6
Continuous
 62
     7
370
    15
100
AcDbSpline
210
0.0
220
0.0
230
1.0
 70
     8
 71
     3
 72
    10
 73
     6
 74
     0
 42
0.00000001
 43
0.00000001
 12
1.0
 22
0.0
 32
0.0
 13
1.0
 23
0.0
 33
0.0
 40
0.0
 40
0.0
 40
0.0
 40
0.0
 40
0.5
 40
0.5
 40
1.0
 40
1.0
 40
1.0
 40
1.0
 10
369.3568940425374
 20
516.9576555737567
 30
0.0
 10
369.436763828962
 20
516.669749852852
 30
0.0
 10
369.4938187526529
 20
516.3780567073848
 30
0.0
 10
369.5745214977841
 20
515.7961481977326
 30
0.0
 10
369.5982221993563
 20
515.5042456301478
 30
0.0
 10
369.6087641497361
 20
515.2203635235084
 30
0.0
  0
LWPOLYLINE
  5
B3
330
1F
100
AcDbEntity
  8
0
  6
Continuous
 62
     8
370
     0
100
AcDbPolyline
 90
        3
 70
   128
 43
0.0
 10
254.3759385993
 20
471.0332493689
 10
254.4105111559
 20
471.0310961511
 10
254.4124352683
 20
471.0308726337
  0
SPLINE
  5
B4
330
1F
100
AcDbEntity
  8
0
  6
Continuous
 62
     8
370
     0
100
AcDbSpline
210
0.0
220
0.0
230
1.0
 70
     8
 71
     3
 72
    12
 73
     8
 74
     0
 42
0.00000001
 43
0.00000001
 12
1.0
 22
0.0
 32
0.0
 13
1.0
 23
0.0
 33
0.0
 40
0.0
 40
0.0
 40
0.0
 40
0.0
 40
0.3578100893087158
 40
0.5330891189120016
 40
0.705595783930281
 40
0.8759303255777154
 40
1.0
 40
1.0
 40
1.0
 40
1.0
 10
296.1761432637197
 20
462.3324613478403
 30
0.0
 10
296.9696519304712
 20
463.1628058369478
 30
0.0
 10
298.1518735856092
 20
464.3999079347311
 30
0.0
 10
299.229070458663
 20
465.5146757475671
 30
0.0
 10
299.8037903906352
 20
466.1097104528502
 30
0.0
 10
300.1191052219569
 20
466.4373438292873
 30
0.0
 10
300.1283716479852
 20
466.4468783394738
 30
0.0
 10
300.1322767634613
 20
466.45089643266
 30
0.0
  0
SPLINE
  5
B5
330
1F
100
AcDbEntity
  8
0
  6
Continuous
 62
     8
370
     0
100
AcDbSpline
210
0.0
220
0.0
230
1.0
 70
     8
 71
     3
 72
    30
 73
    26
 74
     0
 42
0.00000001
 43
0.00000001
 12
1.0
 22
0.0
 32
0.0
 13
1.0
 23
0.0
 33
0.0
 40
0.0
 40
0.0
 40
0.0
 40
0.0
 40
0.0070421175344909
 40
0.0398112234397084
 40
0.0728178256077046
 40
0.1063966840048493
 40
0.1405764509267059
 40
0.2105304817274801
 40
0.2821187480816992
 40
0.3550470305492742
 40
0.4039745058364982
 40
0.4540048641718111
 40
0.5065694442285646
 40
0.528352238267046
 40
0.5529812143960143
 40
0.5824961020077698
 40
0.6145162982257375
 40
0.6428616024430828
 40
0.6667792615634168
 40
0.7078097453237209
 40
0.7586250046608141
 40
0.8078777256219111
 40
0.8563820621325567
 40
0.928868525788391
 40
1.0
 40
1.0
 40
1.0
 40
1.0
 10
300.0870834042055
 20
412.0097871330003
 30
0.0
 10
300.0931120196693
 20
412.0034806567187
 30
0.0
 10
300.1271936089191
 20
411.9678282361033
 30
0.0
 10
299.9311737237334
 20
412.1703963238745
 30
0.0
 10
299.489488487963
 20
412.6290694951117
 30
0.0
 10
298.7760313325437
 20
413.3690152222936
 30
0.0
 10
297.519691380786
 20
414.6729555347938
 30
0.0
 10
295.4408114470159
 20
416.8483730449864
 30
0.0
 10
292.4050647882968
 20
420.0651171138891
 30
0.0
 10
289.4069035177155
 20
423.328229596934
 30
0.0
 10
286.6833667390737
 20
426.4525894110843
 30
0.0
 10
284.3153194751421
 20
429.3723076965652
 30
0.0
 10
282.5345430979726
 20
431.9854590094063
 30
0.0
 10
281.4412320568738
 20
434.2655922078977
 30
0.0
 10
280.8274585093949
 20
436.1160293181933
 30
0.0
 10
280.4832314484565
 20
438.3090884255453
 30
0.0
 10
280.5295710587959
 20
440.6263001935998
 30
0.0
 10
280.9506632711647
 20
442.7554530534117
 30
0.0
 10
281.7783130179967
 20
445.0010969491299
 30
0.0
 10
283.2514482685951
 20
447.5692517622757
 30
0.0
 10
285.3859164380173
 20
450.401912841766
 30
0.0
 10
287.7385313400403
 20
453.1910117033647
 30
0.0
 10
290.4202644869542
 20
456.2006203601169
 30
0.0
 10
293.3732929596034
 20
459.3840432515237
 30
0.0
 10
295.2477548122866
 20
461.3558564586684
 30
0.0
 10
296.1761432637197
 20
462.3324613478403
 30
0.0
  0
LINE
  5
B6
330
1F
100
AcDbEntity
  8
0
  6
Continuous
 62
     8
370
     0
100
AcDbLine
 10
252.1691678961
 20
479.9480329659
 30
0.0
 11
300.1691683133
 21
479.9480329659
 31
0.0
  0
LINE
  5
B7
330
1F
100
AcDbEntity
  8
0
  6
Continuous
 62
     8
370
     0
100
AcDbLine
 10
255.2112343658
 20
485.9793524649
 30
0.0
 11
297.1271018435
 21
485.9793524649
 31
0.0
  0
SPLINE
  5
B8
330
1F
100
AcDbEntity
  8
0
  6
Continuous
 62
     8
370
     0
100
AcDbSpline
210
0.0
220
0.0
230
1.0
 70
     8
 71
     3
 72
    58
 73
    54
 74
     0
 42
0.00000001
 43
0.00000001
 12
1.0
 22
0.0
 32
0.0
 13
1.0
 23
0.0
 33
0.0
 40
0.0
 40
0.0
 40
0.0
 40
0.0
 40
0.0253225892134069
 40
0.0520257606773216
 40
0.0801378677761682
 40
0.1179737534603216
 40
0.1388410376848715
 40
0.1497632695487696
 40
0.1553466822786224
 40
0.158168882485414
 40
0.1595877039787358
 40
0.16029901060517
 40
0.160655114299786
 40
0.1608332806206786
 40
0.1609224174124056
 40
0.1609669572506012
 40
0.1609892986928633
 40
0.1610003921198646
 40
0.1610059733206811
 40
0.1610087698776991
 40
0.1610101283519065
 40
0.1610108816648206
 40
0.1610112348706989
 40
0.1610114003551711
 40
0.1740366598598568
 40
0.2122125805510907
 40
0.2600534280534675
 40
0.2926412170439318
 40
0.3171724441802622
 40
0.3357005727576047
 40
0.3514476613759045
 40
0.3672021306439436
 40
0.3825943118043443
 40
0.4129929417220916
 40
0.4228641878282156
 40
0.4335710012479355
 40
0.4452065852067735
 40
0.4692996559289604
 40
0.500898196361967
 40
0.5325826454827919
 40
0.5701775273720907
 40
0.5990651868071178
 40
0.6430731765905486
 40
0.680079092361277
 40
0.7220523111723065
 40
0.7605856301940584
 40
0.8028163260080369
 40
0.8426966736374756
 40
0.8804266780073053
 40
0.9162424451454263
 40
0.9537831244171668
 40
0.9907071615142807
 40
1.0
 40
1.0
 40
1.0
 40
1.0
 10
300.4466465611679
 20
458.1190462615709
 30
0.0
 10
300.1688001829396
 20
457.8271683839699
 30
0.0
 10
299.5979593002422
 20
457.2274995081254
 30
0.0
 10
298.648942220041
 20
456.2259304917004
 30
0.0
 10
297.5029638950677
 20
455.0084960941115
 30
0.0
 10
296.3755381807852
 20
453.8020532386803
 30
0.0
 10
295.447624423669
 20
452.7940852648968
 30
0.0
 10
294.9435776502045
 20
452.2418384080685
 30
0.0
 10
294.6814778272497
 20
451.953346631862
 30
0.0
 10
294.5478813545406
 20
451.8059926172679
 30
0.0
 10
294.4804587568643
 20
451.7315146120499
 30
0.0
 10
294.4465810344112
 20
451.6940870269151
 30
0.0
 10
294.4296092750683
 20
451.675318971361
 30
0.0
 10
294.4211049049551
 20
451.6659313066477
 30
0.0
 10
294.4168610132483
 20
451.6612230218264
 30
0.0
 10
294.4147245788312
 20
451.6588818292292
 30
0.0
 10
294.4136698100295
 20
451.6576980668187
 30
0.0
 10
294.4131343300176
 20
451.6571134131506
 30
0.0
 10
294.4128662606263
 20
451.6568222644275
 30
0.0
 10
294.4127405823632
 20
451.6566690972444
 30
0.0
 10
294.4126654295961
 20
451.6566038674104
 30
0.0
 10
294.4126378152948
 20
451.6565588121313
 30
0.0
 10
294.4126197994506
 20
451.6565422934917
 30
0.0
 10
294.215825154035
 20
451.4579232093575
 30
0.0
 10
293.5506080682096
 20
450.6928268250718
 30
0.0
 10
292.1495090719627
 20
449.1331473395599
 30
0.0
 10
290.5181791293144
 20
447.1920746200904
 30
0.0
 10
289.1065675277314
 20
445.3793677847459
 30
0.0
 10
288.1415323052539
 20
444.0133324069549
 30
0.0
 10
287.4690331638984
 20
442.8899777972509
 30
0.0
 10
286.977034822519
 20
441.8843853863253
 30
0.0
 10
286.646293097413
 20
440.880235979669
 30
0.0
 10
286.4506150268157
 20
439.5067732006406
 30
0.0
 10
286.4939197778037
 20
438.2332655410942
 30
0.0
 10
286.777148208057
 20
437.1224838067422
 30
0.0
 10
287.0288624982364
 20
436.4448885520264
 30
0.0
 10
287.4725983162074
 20
435.5059131411548
 30
0.0
 10
288.2583827206145
 20
434.2275375319661
 30
0.0
 10
289.3823285695217
 20
432.6623352176713
 30
0.0
 10
290.7539231326754
 20
430.9463202943174
 30
0.0
 10
292.1138849125375
 20
429.3446916924068
 30
0.0
 10
293.6424685496478
 20
427.6067309334371
 30
0.0
 10
295.1433284589369
 20
425.9457301274032
 30
0.0
 10
296.7774389329425
 20
424.1827343676483
 30
0.0
 10
298.2676136334501
 20
422.5917916288927
 30
0.0
 10
299.7255424277749
 20
421.0522208673726
 30
0.0
 10
301.0291039079723
 20
419.6802635678025
 30
0.0
 10
302.1638901793394
 20
418.4949289711749
 30
0.0
 10
303.0607218539693
 20
417.5659232264148
 30
0.0
 10
303.7455479003596
 20
416.8585200897986
 30
0.0
 10
304.1749615053075
 20
416.4108860259732
 30
0.0
 10
304.3692320574374
 20
416.2115551937552
 30
0.0
 10
304.3343617618208
 20
416.2472317557557
 30
0.0
 10
304.3273503829462
 20
416.2544052508096
 30
0.0
  0
SPLINE
  5
B9
330
1F
100
AcDbEntity
  8
0
  6
Continuous
 62
     8
370
     0
100
AcDbSpline
210
0.0
220
0.0
230
1.0
 70
     8
 71
     3
 72
    13
 73
     9
 74
     0
 42
0.00000001
 43
0.00000001
 12
1.0
 22
0.0
 32
0.0
 13
1.0
 23
0.0
 33
0.0
 40
0.0
 40
0.0
 40
0.0
 40
0.0
 40
0.1245542324280634
 40
0.2948818501668097
 40
0.4586646292862188
 40
0.6300000322595856
 40
0.8100978538047122
 40
1.0
 40
1.0
 40
1.0
 40
1.0
 10
304.3700179953796
 20
462.2044976260881
 30
0.0
 10
304.366467469053
 20
462.2007705256038
 30
0.0
 10
304.3580616063867
 20
462.1919466240382
 30
0.0
 10
304.0490416275113
 20
461.8692754411206
 30
0.0
 10
303.5017957359905
 20
461.3050749646446
 30
0.0
 10
302.718401601637
 20
460.4950780134157
 30
0.0
 10
301.7098915172474
 20
459.4445773919916
 30
0.0
 10
300.8751016828026
 20
458.5686270012222
 30
0.0
 10
300.4466465611679
 20
458.1190462615709
 30
0.0
  0
LINE
  5
BA
330
1F
100
AcDbEntity
  8
0
  6
Continuous
 62
     8
370
     0
100
AcDbLine
 10
369.4887033601
 20
449.2284174469
 30
0.0
 11
369.4887033601
 21
433.3422447946
 31
0.0
  0
LINE
  5
BB
330
1F
100
AcDbEntity
  8
0
  6
Continuous
 62
     8
370
     0
100
AcDbLine
 10
366.5242365499
 20
432.600524595
 30
0.0
 11
366.5242365499
 21
450.4585604575
 31
0.0
  0
SPLINE
  5
BC
330
1F
100
AcDbEntity
  8
0
  6
Continuous
 62
     8
370
     0
100
AcDbSpline
210
0.0
220
0.0
230
1.0
 70
     8
 71
     3
 72
    18
 73
    14
 74
     0
 42
0.00000001
 43
0.00000001
 12
1.0
 22
0.0
 32
0.0
 13
1.0
 23
0.0
 33
0.0
 40
0.0
 40
0.0
 40
0.0
 40
0.0
 40
0.2500000000000017
 40
0.2500000000000017
 40
0.3750000000000015
 40
0.3750000000000015
 40
0.5000000000000013
 40
0.5000000000000013
 40
0.7500000000000013
 40
0.7500000000000013
 40
0.8750000000000007
 40
0.8750000000000007
 40
1.0
 40
1.0
 40
1.0
 40
1.0
 10
366.5242426237432
 20
450.4585627254702
 30
0.0
 10
366.5238514910905
 20
451.8145923070608
 30
0.0
 10
366.5239950057466
 20
453.0723990103066
 30
0.0
 10
366.5242745087042
 20
454.8177494890193
 30
0.0
 10
366.5245297876296
 20
455.3757913278238
 30
0.0
 10
366.5264433485674
 20
456.4432128051955
 30
0.0
 10
366.5280415541347
 20
456.9527677327775
 30
0.0
 10
366.5352909506569
 20
458.3737057150509
 30
0.0
 10
366.5437408180663
 20
459.1910454458179
 30
0.0
 10
366.5635969257058
 20
460.2227686014835
 30
0.0
 10
366.5713926486459
 20
460.5350482742948
 30
0.0
 10
366.5898350694172
 20
461.0861504062182
 30
0.0
 10
366.6004013060324
 20
461.3247691841991
 30
0.0
 10
366.6131076351647
 20
461.5263109479568
 30
0.0
  0
LINE
  5
BD
330
1F
100
AcDbEntity
  8
0
  6
Continuous
 62
     8
370
     0
100
AcDbLine
 10
366.5242365499
 20
419.1961105373
 30
0.0
 11
366.5242365499
 21
432.600524595
 31
0.0
  0
LINE
  5
BE
330
1F
100
AcDbEntity
  8
0
  6
Continuous
 62
     8
370
     0
100
AcDbLine
 10
369.4887033601
 20
433.3422447946
 30
0.0
 11
369.4887033601
 21
421.4179295507
 31
0.0
  0
LINE
  5
BF
330
1F
100
AcDbEntity
  8
0
  6
Continuous
 62
     8
370
     0
100
AcDbLine
 10
369.4887033601
 20
421.4179295507
 30
0.0
 11
369.4887033601
 21
418.8574890998
 31
0.0
  0
SPLINE
  5
C0
330
1F
100
AcDbEntity
  8
0
  6
Continuous
 62
     8
370
     0
100
AcDbSpline
210
0.0
220
0.0
230
1.0
 70
     8
 71
     3
 72
    20
 73
    16
 74
     0
 42
0.00000001
 43
0.00000001
 12
1.0
 22
0.0
 32
0.0
 13
1.0
 23
0.0
 33
0.0
 40
0.0
 40
0.0
 40
0.0
 40
0.0
 40
0.1250000000000003
 40
0.1250000000000003
 40
0.2500000000000006
 40
0.2500000000000006
 40
0.5
 40
0.5
 40
0.625
 40
0.625
 40
0.7499999999999998
 40
0.7499999999999998
 40
0.8749999999999999
 40
0.8749999999999999
 40
1.0
 40
1.0
 40
1.0
 40
1.0
 10
369.5702659457857
 20
459.0998737295832
 30
0.0
 10
369.5583695425726
 20
458.9151378561679
 30
0.0
 10
369.5488070798503
 20
458.6965858223624
 30
0.0
 10
369.532004956292
 20
458.1963293941022
 30
0.0
 10
369.5249198451962
 20
457.9144222926984
 30
0.0
 10
369.5067769299312
 20
456.9869450400105
 30
0.0
 10
369.4988921999882
 20
456.257254622182
 30
0.0
 10
369.4922359355518
 20
454.9920837783465
 30
0.0
 10
369.490780268978
 20
454.5390386917227
 30
0.0
 10
369.4890040366547
 20
453.5910134448721
 30
0.0
 10
369.4887567302227
 20
453.0957229944307
 30
0.0
 10
369.4885861551062
 20
452.0631265389072
 30
0.0
 10
369.4886023752067
 20
451.5258760714385
 30
0.0
 10
369.4886887256965
 20
450.4092055671529
 30
0.0
 10
369.4885395923675
 20
449.8283409349649
 30
0.0
 10
369.4887081763742
 20
449.2284227420351
 30
0.0
  0
LINE
  5
C1
330
1F
100
AcDbEntity
  8
0
  6
Continuous
 62
     8
370
     0
100
AcDbLine
 10
369.6087396641
 20
471.8135784772
 30
0.0
 11
369.6535325546
 21
471.3532220032
 31
0.0
  0
SPLINE
  5
C2
330
1F
100
AcDbEntity
  8
0
  6
Continuous
 62
     8
370
     0
100
AcDbSpline
210
0.0
220
0.0
230
1.0
 70
     8
 71
     3
 72
    30
 73
    26
 74
     0
 42
0.00000001
 43
0.00000001
 12
1.0
 22
0.0
 32
0.0
 13
1.0
 23
0.0
 33
0.0
 40
0.0
 40
0.0
 40
0.0
 40
0.0
 40
0.1249999999999982
 40
0.1249999999999982
 40
0.187499999999998
 40
0.187499999999998
 40
0.2499999999999977
 40
0.2499999999999977
 40
0.3124999999999974
 40
0.3124999999999974
 40
0.3749999999999972
 40
0.3749999999999972
 40
0.4999999999999976
 40
0.4999999999999976
 40
0.5624999999999977
 40
0.5624999999999977
 40
0.6249999999999978
 40
0.6249999999999978
 40
0.7499999999999982
 40
0.7499999999999982
 40
0.8124999999999986
 40
0.8124999999999986
 40
0.8749999999999989
 40
0.8749999999999989
 40
1.0
 40
1.0
 40
1.0
 40
1.0
 10
369.6087421186493
 20
471.8135806000889
 30
0.0
 10
369.6088562889749
 20
470.846238246853
 30
0.0
 10
369.6128987298418
 20
469.9011233947156
 30
0.0
 10
369.6213008966645
 20
468.5377048292835
 30
0.0
 10
369.6244659330207
 20
468.0922781519923
 30
0.0
 10
369.6304049153694
 20
467.2314629384451
 30
0.0
 10
369.6331771129069
 20
466.8150994445835
 30
0.0
 10
369.638053584795
 20
466.0151387142338
 30
0.0
 10
369.6401269425763
 20
465.6315897557584
 30
0.0
 10
369.6437845175853
 20
464.902847735908
 30
0.0
 10
369.6454209894425
 20
464.5568802608365
 30
0.0
 10
369.6512324974162
 20
463.5877344294337
 30
0.0
 10
369.6567784269354
 20
463.0519658240166
 30
0.0
 10
369.6614203725584
 20
462.3880134939588
 30
0.0
 10
369.6623840620781
 20
462.1891640879335
 30
0.0
 10
369.6625376821995
 20
461.8262776953005
 30
0.0
 10
369.6617395645753
 20
461.6619560034833
 30
0.0
 10
369.6566949771127
 20
461.2053798207259
 30
0.0
 10
369.6492176933554
 20
460.9458487403045
 30
0.0
 10
369.6346845100708
 20
460.5721289595245
 30
0.0
 10
369.629507243939
 20
460.4505085441454
 30
0.0
 10
369.6202172665671
 20
460.2013695464638
 30
0.0
 10
369.6160055234548
 20
460.0736126410226
 30
0.0
 10
369.6018850776592
 20
459.6772288460512
 30
0.0
 10
369.589429725113
 20
459.3969913406458
 30
0.0
 10
369.5702659490588
 20
459.0998737110125
 30
0.0
  0
LWPOLYLINE
  5
C3
330
1F
100
AcDbEntity
  8
0
  6
Continuous
 62
     8
370
     0
100
AcDbPolyline
 90
       11
 70
   128
 43
0.0
 10
490.3184345861
 20
652.2067304161
 10
488.2370403905
 20
652.0246382263
 10
486.2032703061
 20
651.8466885593
 10
484.2789343496
 20
651.6783352401
 10
482.5224897762
 20
651.5246744659
 10
480.9872976442
 20
651.3903553989
 10
479.7200283904
 20
651.2794907596
 10
478.7591568132
 20
651.1954184082
 10
478.1339189906
 20
651.1407311466
 10
477.8632691999
 20
651.1170383003
 10
477.8522125383
 20
651.116084626
  0
LWPOLYLINE
  5
C4
330
1F
100
AcDbEntity
  8
0
  6
Continuous
 62
     8
370
     0
100
AcDbPolyline
 90
       10
 70
   128
 43
0.0
 10
501.7569533487
 20
653.2074625995
 10
501.6537181039
 20
653.1984324959
 10
501.201497664
 20
653.158884814
 10
500.4029891391
 20
653.0890281704
 10
499.2824516196
 20
652.9909785297
 10
497.8739491601
 20
652.8677459266
 10
496.2202480932
 20
652.7230854538
 10
494.3716100354
 20
652.5613482502
 10
492.3842123647
 20
652.387451699
 10
490.3184345861
 20
652.2067304161
  0
LWPOLYLINE
  5
C5
330
1F
100
AcDbEntity
  8
0
  6
Continuous
 62
     8
370
     0
100
AcDbPolyline
 90
       10
 70
   128
 43
0.0
 10
490.0194129844
 20
655.3527827766
 10
487.9772535463
 20
655.1741178539
 10
485.9849682946
 20
654.9998338726
 10
484.1066024204
 20
654.8354740646
 10
482.4025354285
 20
654.686402848
 10
480.9275141855
 20
654.5573587921
 10
479.728954186
 20
654.4524844196
 10
478.8453749318
 20
654.3751771953
 10
478.3051929374
 20
654.327910712
 10
478.1257382531
 20
654.3122346904
  0
LWPOLYLINE
  5
C6
330
1F
100
AcDbEntity
  8
0
  6
Continuous
 62
     8
370
     0
100
AcDbPolyline
 90
       10
 70
   128
 43
0.0
 10
500.9325913091
 20
656.307559779
 10
500.8847436805
 20
656.3033874538
 10
500.5159250398
 20
656.2711115387
 10
499.7939935823
 20
656.2079604175
 10
498.7421355148
 20
656.115930846
 10
497.3941764732
 20
655.9980030563
 10
495.7934192319
 20
655.8579321411
 10
493.9913175006
 20
655.7002778557
 10
492.045806994
 20
655.5300767925
 10
490.0194129844
 20
655.3527827766
  0
LINE
  5
C7
330
1F
100
AcDbEntity
  8
0
  6
Continuous
 62
     8
370
     0
100
AcDbLine
 10
366.5242365499
 20
416.3178581205
 30
0.0
 11
366.5242365499
 21
419.1961105373
 31
0.0
  0
SPLINE
  5
C8
330
1F
100
AcDbEntity
  8
0
  6
Continuous
 62
     8
370
     0
100
AcDbSpline
210
0.0
220
0.0
230
1.0
 70
     8
 71
     3
 72
    14
 73
    10
 74
     0
 42
0.00000001
 43
0.00000001
 12
1.0
 22
0.0
 32
0.0
 13
1.0
 23
0.0
 33
0.0
 40
0.6042583100847686
 40
0.6042583100847686
 40
0.6042583100847686
 40
0.6042583100847686
 40
0.6770145513661534
 40
0.7133926720850947
 40
0.7497707928040362
 40
0.7861489135229777
 40
0.8225270342419189
 40
0.8589051549608604
 40
0.895283275631381
 40
0.895283275631381
 40
0.895283275631381
 40
0.895283275631381
 10
356.6162944383751
 20
473.1300526337207
 30
0.0
 10
356.158963293069
 20
473.1300526337207
 30
0.0
 10
355.5576720831182
 20
473.0577662933942
 30
0.0
 10
354.9041326185691
 20
472.8799378834085
 30
0.0
 10
354.4890121406184
 20
472.7123580893821
 30
0.0
 10
354.1498688292309
 20
472.5170846337234
 30
0.0
 10
353.8890915271787
 20
472.2992075187123
 30
0.0
 10
353.7090690772339
 20
472.0638167466286
 30
0.0
 10
353.6460555033875
 20
471.8980049062945
 30
0.0
 10
353.6295902707725
 20
471.813575599164
 30
0.0
  0
LINE
  5
C9
330
1F
100
AcDbEntity
  8
0
  6
Continuous
 62
     8
370
     0
100
AcDbLine
 10
366.6220403214
 20
473.1300513652
 30
0.0
 11
356.6162980099
 21
473.1300513652
 31
0.0
  0
SPLINE
  5
CA
330
1F
100
AcDbEntity
  8
0
  6
Continuous
 62
     8
370
     0
100
AcDbSpline
210
0.0
220
0.0
230
1.0
 70
     8
 71
     3
 72
    26
 73
    22
 74
     0
 42
0.00000001
 43
0.00000001
 12
1.0
 22
0.0
 32
0.0
 13
1.0
 23
0.0
 33
0.0
 40
0.0
 40
0.0
 40
0.0
 40
0.0
 40
0.1250000000000001
 40
0.1250000000000001
 40
0.2500000000000003
 40
0.2500000000000003
 40
0.3750000000000005
 40
0.3750000000000005
 40
0.5000000000000006
 40
0.5000000000000006
 40
0.6250000000000007
 40
0.6250000000000007
 40
0.6562500000000008
 40
0.6562500000000008
 40
0.6875000000000008
 40
0.6875000000000008
 40
0.7500000000000006
 40
0.7500000000000006
 40
0.8750000000000003
 40
0.8750000000000003
 40
1.0
 40
1.0
 40
1.0
 40
1.0
 10
366.6131015853419
 20
461.5263109479568
 30
0.0
 10
366.6311969328506
 20
461.7905686223077
 30
0.0
 10
366.6454690899999
 20
462.0388114941362
 30
0.0
 10
366.6671842238878
 20
462.5127201923956
 30
0.0
 10
366.675942873167
 20
462.7380743230809
 30
0.0
 10
366.6974603560307
 20
463.1943504440681
 30
0.0
 10
366.7094586995715
 20
463.4245786524376
 30
0.0
 10
366.7252195098384
 20
463.9543824994741
 30
0.0
 10
366.7293642113482
 20
464.2564791517058
 30
0.0
 10
366.7218819825821
 20
465.0246018749444
 30
0.0
 10
366.7093177170966
 20
465.494129926062
 30
0.0
 10
366.6910338338425
 20
466.2280529876712
 30
0.0
 10
366.6873571486601
 20
466.3825024582218
 30
0.0
 10
366.6802184602931
 20
466.7012491285149
 30
0.0
 10
366.6767059419159
 20
466.8658939450475
 30
0.0
 10
366.6668275006344
 20
467.3745486832814
 30
0.0
 10
366.6614203560497
 20
467.7333818977646
 30
0.0
 10
366.6477732065267
 20
468.8577762702281
 30
0.0
 10
366.640977198797
 20
469.6724913231518
 30
0.0
 10
366.6281235785966
 20
471.3650662460954
 30
0.0
 10
366.6218752115693
 20
472.2406829665292
 30
0.0
 10
366.6220389252935
 20
473.1300526337206
 30
0.0
  0
SPLINE
  5
CB
330
1F
100
AcDbEntity
  8
0
  6
Continuous
 62
     8
370
     0
100
AcDbSpline
210
0.0
220
0.0
230
1.0
 70
     8
 71
     3
 72
    14
 73
    10
 74
     0
 42
0.00000001
 43
0.00000001
 12
1.0
 22
0.0
 32
0.0
 13
1.0
 23
0.0
 33
0.0
 40
0.0
 40
0.0
 40
0.0
 40
0.0
 40
0.2499999999999993
 40
0.2499999999999993
 40
0.4999999999999996
 40
0.4999999999999996
 40
0.7499999999999998
 40
0.7499999999999998
 40
1.0
 40
1.0
 40
1.0
 40
1.0
 10
369.6087421100736
 20
471.8136532086068
 30
0.0
 10
369.5740243136631
 20
471.9916752093729
 30
0.0
 10
369.4707225408243
 20
472.1664991446752
 30
0.0
 10
369.1407463797922
 20
472.4864041873427
 30
0.0
 10
368.9141734609755
 20
472.6313869222525
 30
0.0
 10
368.3681154127851
 20
472.8720512370832
 30
0.0
 10
368.048798199086
 20
472.9676588114822
 30
0.0
 10
367.3602303076235
 20
473.0966569711953
 30
0.0
 10
366.9911913680485
 20
473.130007888908
 30
0.0
 10
366.6220389126178
 20
473.1299837361033
 30
0.0
  0
SPLINE
  5
CC
330
1F
100
AcDbEntity
  8
0
  6
Continuous
 62
     8
370
    15
100
AcDbSpline
210
0.0
220
0.0
230
1.0
 70
     8
 71
     3
 72
    24
 73
    20
 74
     0
 42
0.00000001
 43
0.00000001
 12
1.0
 22
0.0
 32
0.0
 13
1.0
 23
0.0
 33
0.0
 40
0.0
 40
0.0
 40
0.0
 40
0.0
 40
0.0312500000000002
 40
0.0312500000000002
 40
0.0625000000000005
 40
0.0625000000000005
 40
0.1250000000000008
 40
0.1250000000000008
 40
0.1875000000000011
 40
0.1875000000000011
 40
0.2500000000000014
 40
0.2500000000000014
 40
0.3125000000000017
 40
0.3125000000000017
 40
0.375000000000002
 40
0.375000000000002
 40
0.5000000000000014
 40
0.5000000000000014
 40
1.0
 40
1.0
 40
1.0
 40
1.0
 10
369.6087641497361
 20
515.2203635235084
 30
0.0
 10
369.6251093626562
 20
514.7807422517211
 30
0.0
 10
369.6299214609688
 20
514.3324190831942
 30
0.0
 10
369.6276589190836
 20
513.4267217069699
 30
0.0
 10
369.6205159316652
 20
512.9692051019508
 30
0.0
 10
369.60046664163
 20
511.5980857465668
 30
0.0
 10
369.595606929032
 20
510.690456948836
 30
0.0
 10
369.5970679411669
 20
508.8828574512395
 30
0.0
 10
369.602346746544
 20
507.9822535514938
 30
0.0
 10
369.6102079310747
 20
506.1791988603294
 30
0.0
 10
369.611807267998
 20
505.2760310054394
 30
0.0
 10
369.6117690440824
 20
503.4673184071364
 30
0.0
 10
369.6104364448858
 20
502.5619983909999
 30
0.0
 10
369.608628118455
 20
500.7519133267169
 30
0.0
 10
369.6086506657514
 20
499.8474803447613
 30
0.0
 10
369.609332266587
 20
497.1347947856239
 30
0.0
 10
369.6090666845884
 20
495.3261758285508
 30
0.0
 10
369.6079869106041
 20
486.2828733352891
 30
0.0
 10
369.6087162285169
 20
479.0482244986615
 30
0.0
 10
369.6087421190875
 20
471.813580597847
 30
0.0
  0
SPLINE
  5
CD
330
1F
100
AcDbEntity
  8
0
  6
Continuous
 62
     8
370
     0
100
AcDbSpline
210
0.0
220
0.0
230
1.0
 70
     8
 71
     3
 72
    20
 73
    16
 74
     0
 42
0.00000001
 43
0.00000001
 12
1.0
 22
0.0
 32
0.0
 13
1.0
 23
0.0
 33
0.0
 40
0.0
 40
0.0
 40
0.0
 40
0.0
 40
0.499999999999998
 40
0.499999999999998
 40
0.6249999999999977
 40
0.6249999999999977
 40
0.7499999999999974
 40
0.7499999999999974
 40
0.8124999999999981
 40
0.8124999999999981
 40
0.8749999999999987
 40
0.8749999999999987
 40
0.9374999999999993
 40
0.9374999999999993
 40
1.0
 40
1.0
 40
1.0
 40
1.0
 10
366.6220389292727
 20
473.1300526337207
 30
0.0
 10
366.6220129858887
 20
480.3489491297454
 30
0.0
 10
366.6212858694815
 20
487.5678453110006
 30
0.0
 10
366.6223562413199
 20
496.5914664311285
 30
0.0
 10
366.6226312337337
 20
498.3961906857324
 30
0.0
 10
366.6216543176286
 20
502.0056384285053
 30
0.0
 10
366.6253096474581
 20
503.8103643798834
 30
0.0
 10
366.6256125474452
 20
506.5174507067803
 30
0.0
 10
366.6239685702578
 20
507.4198119398641
 30
0.0
 10
366.6151909470825
 20
509.2245316504697
 30
0.0
 10
366.6091721324377
 20
510.1268988923206
 30
0.0
 10
366.606922647155
 20
511.9315964504676
 30
0.0
 10
366.6111595892959
 20
512.8339149273085
 30
0.0
 10
366.6409460032946
 20
514.6384314305618
 30
0.0
 10
366.6611863422771
 20
515.5408472984585
 30
0.0
 10
366.6239821577766
 20
516.4427073020023
 30
0.0
  0
LINE
  5
CE
330
1F
100
AcDbEntity
  8
0
  6
Continuous
 62
     8
370
     0
100
AcDbLine
 10
353.6295912166
 20
479.41155391
 30
0.0
 11
353.6295912166
 21
471.8135784772
 31
0.0
  0
LINE
  5
CF
330
1F
100
AcDbEntity
  8
0
  6
Continuous
 62
     8
370
    15
100
AcDbLine
 10
353.6295912166
 20
486.1684482005
 30
0.0
 11
353.6295912166
 21
479.41155391
 31
0.0
  0
LINE
  5
D0
330
1F
100
AcDbEntity
  8
0
  6
Continuous
 62
     8
370
     0
100
AcDbLine
 10
356.6162980099
 20
487.4848987367
 30
0.0
 11
356.6162980099
 21
473.1300513652
 31
0.0
  0
SPLINE
  5
D1
330
1F
100
AcDbEntity
  8
0
  6
Continuous
 62
     8
370
     0
100
AcDbSpline
210
0.0
220
0.0
230
1.0
 70
     8
 71
     3
 72
    22
 73
    18
 74
     0
 42
0.00000001
 43
0.00000001
 12
1.0
 22
0.0
 32
0.0
 13
1.0
 23
0.0
 33
0.0
 40
0.0
 40
0.0
 40
0.0
 40
0.0
 40
0.03125
 40
0.03125
 40
0.0624999999999999
 40
0.0624999999999999
 40
0.1249999999999998
 40
0.1249999999999998
 40
0.25
 40
0.25
 40
0.3750000000000002
 40
0.3750000000000002
 40
0.5000000000000003
 40
0.5000000000000003
 40
0.7500000000000008
 40
0.7500000000000008
 40
1.0
 40
1.0
 40
1.0
 40
1.0
 10
356.6187822883003
 20
516.536732787962
 30
0.0
 10
356.6027916232485
 20
516.234281973437
 30
0.0
 10
356.5973111650554
 20
515.9317397745663
 30
0.0
 10
356.5916008882735
 20
515.3266097234642
 30
0.0
 10
356.5931633677306
 20
515.0240062875259
 30
0.0
 10
356.6038827407284
 20
514.1161435331312
 30
0.0
 10
356.617363414002
 20
513.5108995532185
 30
0.0
 10
356.6353263886104
 20
511.6951546865248
 30
0.0
 10
356.6300928871146
 20
510.4846371957542
 30
0.0
 10
356.6173688249987
 20
508.0635994713267
 30
0.0
 10
356.6127144907788
 20
506.8530826843876
 30
0.0
 10
356.6129066230973
 20
504.4320606563347
 30
0.0
 10
356.6156516012928
 20
503.2215519634976
 30
0.0
 10
356.6174569820995
 20
499.5900226975974
 30
0.0
 10
356.6159116971163
 20
497.1690027753213
 30
0.0
 10
356.6164848282549
 20
492.3269634794513
 30
0.0
 10
356.6163522696306
 20
489.9059437714527
 30
0.0
 10
356.61629443609
 20
487.4849240693871
 30
0.0
  0
SPLINE
  5
D2
330
1F
100
AcDbEntity
  8
0
  6
Continuous
 62
     8
370
     0
100
AcDbSpline
210
0.0
220
0.0
230
1.0
 70
     8
 71
     3
 72
     8
 73
     4
 74
     0
 42
0.00000001
 43
0.00000001
 12
1.0
 22
0.0
 32
0.0
 13
1.0
 23
0.0
 33
0.0
 40
0.0
 40
0.0
 40
0.0
 40
0.0
 40
1.0
 40
1.0
 40
1.0
 40
1.0
 10
356.7835342069415
 20
517.6566289389741
 30
0.0
 10
356.6815295400246
 20
517.2886321368209
 30
0.0
 10
356.6387268976714
 20
516.9139693400452
 30
0.0
 10
356.6187822883003
 20
516.536732787962
 30
0.0
  0
SPLINE
  5
D3
330
1F
100
AcDbEntity
  8
0
  6
Continuous
 62
     8
370
     0
100
AcDbSpline
210
0.0
220
0.0
230
1.0
 70
     8
 71
     3
 72
     8
 73
     4
 74
     0
 42
0.00000001
 43
0.00000001
 12
1.0
 22
0.0
 32
0.0
 13
1.0
 23
0.0
 33
0.0
 40
0.0
 40
0.0
 40
0.0
 40
0.0
 40
1.0
 40
1.0
 40
1.0
 40
1.0
 10
357.2879119751227
 20
518.7286650645531
 30
0.0
 10
357.0619081907449
 20
518.3921614624705
 30
0.0
 10
356.8888553125054
 20
518.0365902801381
 30
0.0
 10
356.7835342069415
 20
517.6566289389741
 30
0.0
  0
SPLINE
  5
D4
330
1F
100
AcDbEntity
  8
0
  6
Continuous
 62
     8
370
     0
100
AcDbSpline
210
0.0
220
0.0
230
1.0
 70
     8
 71
     3
 72
     8
 73
     4
 74
     0
 42
0.00000001
 43
0.00000001
 12
1.0
 22
0.0
 32
0.0
 13
1.0
 23
0.0
 33
0.0
 40
0.0
 40
0.0
 40
0.0
 40
0.0
 40
1.0
 40
1.0
 40
1.0
 40
1.0
 10
357.7036126810759
 20
519.2597693761063
 30
0.0
 10
357.5509111680449
 20
519.0912022082041
 30
0.0
 10
357.4124551470409
 20
518.9141010123651
 30
0.0
 10
357.2879119751227
 20
518.7286650645531
 30
0.0
  0
SPLINE
  5
D5
330
1F
100
AcDbEntity
  8
0
  6
Continuous
 62
     8
370
     0
100
AcDbSpline
210
0.0
220
0.0
230
1.0
 70
     8
 71
     3
 72
     8
 73
     4
 74
     0
 42
0.00000001
 43
0.00000001
 12
1.0
 22
0.0
 32
0.0
 13
1.0
 23
0.0
 33
0.0
 40
0.0
 40
0.0
 40
0.0
 40
0.0
 40
1.0
 40
1.0
 40
1.0
 40
1.0
 10
358.4687678813743
 20
519.9370641472913
 30
0.0
 10
358.1850048752974
 20
519.7361248334181
 30
0.0
 10
357.930325670695
 20
519.5100377973432
 30
0.0
 10
357.7036126810759
 20
519.2597693761063
 30
0.0
  0
SPLINE
  5
D6
330
1F
100
AcDbEntity
  8
0
  6
Continuous
 62
     8
370
     0
100
AcDbSpline
210
0.0
220
0.0
230
1.0
 70
     8
 71
     3
 72
     8
 73
     4
 74
     0
 42
0.00000001
 43
0.00000001
 12
1.0
 22
0.0
 32
0.0
 13
1.0
 23
0.0
 33
0.0
 40
0.0
 40
0.0
 40
0.0
 40
0.0
 40
1.0
 40
1.0
 40
1.0
 40
1.0
 10
359.1027748196699
 20
520.3198083046125
 30
0.0
 10
358.8802955096813
 20
520.2063551930931
 30
0.0
 10
358.6689340380789
 20
520.0788065496745
 30
0.0
 10
358.4687678813743
 20
519.9370641472913
 30
0.0
  0
SPLINE
  5
D7
330
1F
100
AcDbEntity
  8
0
  6
Continuous
 62
     8
370
     0
100
AcDbSpline
210
0.0
220
0.0
230
1.0
 70
     8
 71
     3
 72
     8
 73
     4
 74
     0
 42
0.00000001
 43
0.00000001
 12
1.0
 22
0.0
 32
0.0
 13
1.0
 23
0.0
 33
0.0
 40
0.0
 40
0.0
 40
0.0
 40
0.0
 40
1.0
 40
1.0
 40
1.0
 40
1.0
 10
360.3247347966398
 20
520.7647123682298
 30
0.0
 10
359.8946062166702
 20
520.6643583708643
 30
0.0
 10
359.487350344255
 20
520.5159222258602
 30
0.0
 10
359.1027748196699
 20
520.3198083046125
 30
0.0
  0
SPLINE
  5
D8
330
1F
100
AcDbEntity
  8
0
  6
Continuous
 62
     8
370
     0
100
AcDbSpline
210
0.0
220
0.0
230
1.0
 70
     8
 71
     3
 72
     8
 73
     4
 74
     0
 42
0.00000001
 43
0.00000001
 12
1.0
 22
0.0
 32
0.0
 13
1.0
 23
0.0
 33
0.0
 40
0.0
 40
0.0
 40
0.0
 40
0.0
 40
1.0
 40
1.0
 40
1.0
 40
1.0
 10
361.6232328426847
 20
520.9137514248014
 30
0.0
 10
361.1829031771676
 20
520.9140640756805
 30
0.0
 10
360.7501337061594
 20
520.8639628785032
 30
0.0
 10
360.3247347966398
 20
520.7647123682298
 30
0.0
  0
SPLINE
  5
D9
330
1F
100
AcDbEntity
  8
0
  6
Continuous
 62
     8
370
     0
100
AcDbSpline
210
0.0
220
0.0
230
1.0
 70
     8
 71
     3
 72
     8
 73
     4
 74
     0
 42
0.00000001
 43
0.00000001
 12
1.0
 22
0.0
 32
0.0
 13
1.0
 23
0.0
 33
0.0
 40
0.0
 40
0.0
 40
0.0
 40
0.0
 40
1.0
 40
1.0
 40
1.0
 40
1.0
 10
362.912820536814
 20
520.7648948085385
 30
0.0
 10
362.4903344376062
 20
520.8634247011663
 30
0.0
 10
362.0605317992203
 20
520.9134409258412
 30
0.0
 10
361.6232328426847
 20
520.9137514248014
 30
0.0
  0
SPLINE
  5
DA
330
1F
100
AcDbEntity
  8
0
  6
Continuous
 62
     8
370
     0
100
AcDbSpline
210
0.0
220
0.0
230
1.0
 70
     8
 71
     3
 72
     8
 73
     4
 74
     0
 42
0.00000001
 43
0.00000001
 12
1.0
 22
0.0
 32
0.0
 13
1.0
 23
0.0
 33
0.0
 40
0.0
 40
0.0
 40
0.0
 40
0.0
 40
1.0
 40
1.0
 40
1.0
 40
1.0
 10
364.0447075765366
 20
520.3649818914732
 30
0.0
 10
363.6862794047224
 20
520.5391583836744
 30
0.0
 10
363.3090008583173
 20
520.6724998052184
 30
0.0
 10
362.912820536814
 20
520.7648948085385
 30
0.0
  0
SPLINE
  5
DB
330
1F
100
AcDbEntity
  8
0
  6
Continuous
 62
     8
370
     0
100
AcDbSpline
210
0.0
220
0.0
230
1.0
 70
     8
 71
     3
 72
    12
 73
     8
 74
     0
 42
0.00000001
 43
0.00000001
 12
1.0
 22
0.0
 32
0.0
 13
1.0
 23
0.0
 33
0.0
 40
0.0
 40
0.0
 40
0.0
 40
0.0
 40
0.5000000000000027
 40
0.5000000000000027
 40
0.7500000000000013
 40
0.7500000000000013
 40
1.0
 40
1.0
 40
1.0
 40
1.0
 10
365.9494937806181
 20
518.7286898275948
 30
0.0
 10
365.7203028712584
 20
519.0707954849289
 30
0.0
 10
365.4476427667303
 20
519.3811828378961
 30
0.0
 10
364.9677070545351
 20
519.7949968007827
 30
0.0
 10
364.7946774059966
 20
519.9247092233699
 30
0.0
 10
364.4326175083744
 20
520.1611787375069
 30
0.0
 10
364.243034928479
 20
520.268605643217
 30
0.0
 10
364.0447075765366
 20
520.3649818914732
 30
0.0
  0
SPLINE
  5
DC
330
1F
100
AcDbEntity
  8
0
  6
Continuous
 62
     8
370
     0
100
AcDbSpline
210
0.0
220
0.0
230
1.0
 70
     8
 71
     3
 72
     8
 73
     4
 74
     0
 42
0.00000001
 43
0.00000001
 12
1.0
 22
0.0
 32
0.0
 13
1.0
 23
0.0
 33
0.0
 40
0.0
 40
0.0
 40
0.0
 40
0.0
 40
1.0
 40
1.0
 40
1.0
 40
1.0
 10
366.4547212161474
 20
517.657056179642
 30
0.0
 10
366.3490857730033
 20
518.0369187407705
 30
0.0
 10
366.1750013971813
 20
518.3920820990697
 30
0.0
 10
365.9494937806181
 20
518.7286898275948
 30
0.0
  0
SPLINE
  5
DD
330
1F
100
AcDbEntity
  8
0
  6
Continuous
 62
     8
370
     0
100
AcDbSpline
210
0.0
220
0.0
230
1.0
 70
     8
 71
     3
 72
    10
 73
     6
 74
     0
 42
0.00000001
 43
0.00000001
 12
1.0
 22
0.0
 32
0.0
 13
1.0
 23
0.0
 33
0.0
 40
0.0
 40
0.0
 40
0.0
 40
0.0
 40
0.5
 40
0.5
 40
1.0
 40
1.0
 40
1.0
 40
1.0
 10
366.6239821577766
 20
516.4427073020023
 30
0.0
 10
366.6155481688177
 20
516.6471541247046
 30
0.0
 10
366.5999224173362
 20
516.8511074349403
 30
0.0
 10
366.5470537220041
 20
517.2563043296742
 30
0.0
 10
366.5101532443041
 20
517.4577239142828
 30
0.0
 10
366.4547212161474
 20
517.657056179642
 30
0.0
  0
SPLINE
  5
DE
330
1F
100
AcDbEntity
  8
0
  6
Continuous
 62
     8
370
    15
100
AcDbSpline
210
0.0
220
0.0
230
1.0
 70
     8
 71
     3
 72
    24
 73
    20
 74
     0
 42
0.00000001
 43
0.00000001
 12
1.0
 22
0.0
 32
0.0
 13
1.0
 23
0.0
 33
0.0
 40
0.0
 40
0.0
 40
0.0
 40
0.0
 40
0.2500000000000001
 40
0.2500000000000001
 40
0.5000000000000001
 40
0.5000000000000001
 40
0.6250000000000012
 40
0.6250000000000012
 40
0.7500000000000024
 40
0.7500000000000024
 40
0.8750000000000036
 40
0.8750000000000036
 40
0.9375000000000042
 40
0.9375000000000042
 40
0.9687500000000033
 40
0.9687500000000033
 40
0.9843750000000017
 40
0.9843750000000017
 40
1.0
 40
1.0
 40
1.0
 40
1.0
 10
353.6295912505234
 20
486.1684514652663
 30
0.0
 10
353.6296490799439
 20
488.5995961581851
 30
0.0
 10
353.6297807427297
 20
491.0307447976914
 30
0.0
 10
353.629202684889
 20
495.8930364067288
 30
0.0
 10
353.6306412000826
 20
498.3230277072014
 30
0.0
 10
353.6289256418196
 20
501.971319569297
 30
0.0
 10
353.6265209118043
 20
503.1886717463199
 30
0.0
 10
353.6265548721697
 20
505.6198247923078
 30
0.0
 10
353.6309419630921
 20
506.8322289599265
 30
0.0
 10
353.6421025346138
 20
509.2554520283344
 30
0.0
 10
353.6464110855387
 20
510.4678803456929
 30
0.0
 10
353.6288497824808
 20
512.3037961799782
 30
0.0
 10
353.616477018208
 20
512.920720674435
 30
0.0
 10
353.6088748288562
 20
513.8378721536254
 30
0.0
 10
353.6083393240373
 20
514.1420014684912
 30
0.0
 10
353.6131856398149
 20
514.5938804973139
 30
0.0
 10
353.6157395892554
 20
514.7437946315569
 30
0.0
 10
353.6231505935421
 20
515.0419707969285
 30
0.0
 10
353.6272766660051
 20
515.1894405100296
 30
0.0
 10
353.634705575331
 20
515.3380904619086
 30
0.0
  0
LINE
  5
DF
330
1F
100
AcDbEntity
  8
0
  6
Continuous
 62
     7
370
    15
100
AcDbLine
 10
154.4870822691
 20
651.9556756523
 30
0.0
 11
154.4870822691
 21
594.1763933208
 31
0.0
  0
LINE
  5
E0
330
1F
100
AcDbEntity
  8
0
  6
Continuous
 62
     7
370
    15
100
AcDbLine
 10
178.4870824777
 20
594.1763933208
 30
0.0
 11
178.4870824777
 21
651.9556756523
 31
0.0
  0
SPLINE
  5
E1
330
1F
100
AcDbEntity
  8
0
  6
Continuous
 62
     7
370
    15
100
AcDbSpline
210
0.0
220
0.0
230
1.0
 70
     8
 71
     3
 72
    10
 73
     6
 74
     0
 42
0.00000001
 43
0.00000001
 12
1.0
 22
0.0
 32
0.0
 13
1.0
 23
0.0
 33
0.0
 40
0.0
 40
0.0
 40
0.0
 40
0.0
 40
0.2967796112484623
 40
0.8345144681225772
 40
1.0
 40
1.0
 40
1.0
 40
1.0
 10
178.4438905307019
 20
652.1654541995744
 30
0.0
 10
178.4436025235437
 20
652.4885203471971
 30
0.0
 10
178.4427926763328
 20
653.3969499162554
 30
0.0
 10
178.2348969254816
 20
654.4821613993761
 30
0.0
 10
177.9561664257062
 20
655.1950625090606
 30
0.0
 10
177.890574093994
 20
655.3628261592606
 30
0.0
  0
SPLINE
  5
E2
330
1F
100
AcDbEntity
  8
0
  6
Continuous
 62
     7
370
    15
100
AcDbSpline
210
0.0
220
0.0
230
1.0
 70
     8
 71
     3
 72
    10
 73
     6
 74
     0
 42
0.00000001
 43
0.00000001
 12
1.0
 22
0.0
 32
0.0
 13
1.0
 23
0.0
 33
0.0
 40
0.0
 40
0.0
 40
0.0
 40
0.0
 40
0.0913989202057218
 40
0.6220625266401729
 40
1.0
 40
1.0
 40
1.0
 40
1.0
 10
155.066190753218
 20
655.3413982894639
 30
0.0
 10
155.0287975070792
 20
655.2500738807055
 30
0.0
 10
154.7742984701099
 20
654.6285184801785
 30
0.0
 10
154.5574925128402
 20
653.553915432388
 30
0.0
 10
154.5373135998236
 20
652.5734169789175
 30
0.0
 10
154.528920073148
 20
652.1655734088639
 30
0.0
  0
LINE
  5
E3
330
1F
100
AcDbEntity
  8
0
  6
Continuous
 62
     7
370
    15
100
AcDbLine
 10
155.487082433
 20
698.2817168739
 30
0.0
 11
155.487082433
 21
655.653994849
 31
0.0
  0
LINE
  5
E4
330
1F
100
AcDbEntity
  8
0
  6
Continuous
 62
     7
370
    15
100
AcDbLine
 10
177.4870823138
 20
655.653994849
 30
0.0
 11
177.4870823138
 21
698.2817168739
 31
0.0
  0
ARC
  5
E5
330
1F
100
AcDbEntity
  8
0
  6
Continuous
 62
     7
370
    15
100
AcDbCircle
 10
166.4870823734
 20
794.1303712871
 30
0.0
 40
11.00000000000003
100
AcDbArc
 50
0.0
 51
180.0
  0
LINE
  5
E6
330
1F
100
AcDbEntity
  8
0
  6
Continuous
 62
     7
370
    15
100
AcDbLine
 10
155.487082433
 20
794.1303666141
 30
0.0
 11
155.487082433
 21
698.2817168739
 31
0.0
  0
LINE
  5
E7
330
1F
100
AcDbEntity
  8
0
  6
Continuous
 62
     7
370
    15
100
AcDbLine
 10
177.4870823138
 20
698.2817168739
 30
0.0
 11
177.4870823138
 21
794.1303666141
 31
0.0
  0
SPLINE
  5
E8
330
1F
100
AcDbEntity
  8
0
  6
Continuous
 62
     7
370
    15
100
AcDbSpline
210
0.0
220
0.0
230
1.0
 70
     8
 71
     3
 72
     9
 73
     5
 74
     0
 42
0.00000001
 43
0.00000001
 12
1.0
 22
0.0
 32
0.0
 13
1.0
 23
0.0
 33
0.0
 40
0.0
 40
0.0
 40
0.0
 40
0.0
 40
0.4828780793108097
 40
0.9999999999999999
 40
0.9999999999999999
 40
0.9999999999999999
 40
0.9999999999999999
 10
213.207438122567
 20
520.9673012998322
 30
0.0
 10
213.0357046608489
 20
521.082397394589
 30
0.0
 10
212.6800590660787
 20
521.3207517529416
 30
0.0
 10
212.3079583477752
 20
521.532527103708
 30
0.0
 10
212.1155369096363
 20
521.6420407798508
 30
0.0
  0
SPLINE
  5
E9
330
1F
100
AcDbEntity
  8
0
  6
Continuous
 62
     7
370
    15
100
AcDbSpline
210
0.0
220
0.0
230
1.0
 70
     8
 71
     3
 72
     9
 73
     5
 74
     0
 42
0.00000001
 43
0.00000001
 12
1.0
 22
0.0
 32
0.0
 13
1.0
 23
0.0
 33
0.0
 40
0.0
 40
0.0
 40
0.0
 40
0.0
 40
0.5002973864594121
 40
1.0
 40
1.0
 40
1.0
 40
1.0
 10
212.1155369096363
 20
521.6420407798508
 30
0.0
 10
211.9204498963301
 20
521.7469659901537
 30
0.0
 10
211.5305077967184
 20
521.9566916716036
 30
0.0
 10
211.1263045842906
 20
522.1374103990122
 30
0.0
 10
210.9243231826389
 20
522.2277160194138
 30
0.0
  0
SPLINE
  5
EA
330
1F
100
AcDbEntity
  8
0
  6
Continuous
 62
     7
370
    15
100
AcDbSpline
210
0.0
220
0.0
230
1.0
 70
     8
 71
     3
 72
    21
 73
    17
 74
     0
 42
0.00000001
 43
0.00000001
 12
1.0
 22
0.0
 32
0.0
 13
1.0
 23
0.0
 33
0.0
 40
0.0
 40
0.0
 40
0.0
 40
0.0
 40
0.15715770657295
 40
0.2927662346006164
 40
0.3878008864126072
 40
0.4221561406159935
 40
0.4504451891723007
 40
0.5246960607922632
 40
0.6366195956208726
 40
0.7087200645497957
 40
0.7925931993028128
 40
0.9016027903083343
 40
0.9551900244204015
 40
0.9799754302485582
 40
0.9912035439923526
 40
0.9999999999999999
 40
0.9999999999999999
 40
0.9999999999999999
 40
0.9999999999999999
 10
176.2485322543347
 20
467.0946191456537
 30
0.0
 10
176.174027387631
 20
467.0260872106381
 30
0.0
 10
176.0352336258745
 20
466.8984203147416
 30
0.0
 10
175.5564888355622
 20
466.5204129570643
 30
0.0
 10
174.9258444447758
 20
466.0975295753995
 30
0.0
 10
174.2235656171418
 20
465.694576249065
 30
0.0
 10
173.2852297275739
 20
465.2041098760728
 30
0.0
 10
171.6937319649855
 20
464.5172247611069
 30
0.0
 10
169.7208066516556
 20
463.8750571660103
 30
0.0
 10
167.6109616750913
 20
463.2958999158421
 30
0.0
 10
165.4835597458267
 20
462.7663139766316
 30
0.0
 10
163.4602810962811
 20
462.2806064596235
 30
0.0
 10
161.9084022553904
 20
461.8874788294763
 30
0.0
 10
161.1644980693515
 20
461.6914763901935
 30
0.0
 10
160.792970625602
 20
461.5915360851203
 30
0.0
 10
160.6265878212065
 20
461.5462166092228
 30
0.0
 10
160.5534986593688
 20
461.5263085272531
 30
0.0
  0
LINE
  5
EB
330
1F
100
AcDbEntity
  8
0
  6
Continuous
 62
     7
370
    15
100
AcDbLine
 10
163.1857370959
 20
462.1970470455
 30
0.0
 11
163.3135860321
 21
462.2286375072
 31
0.0
  0
LINE
  5
EC
330
1F
100
AcDbEntity
  8
0
  6
Continuous
 62
     7
370
    15
100
AcDbLine
 10
187.6630443149
 20
448.7471918967
 30
0.0
 11
187.7038232052
 21
448.6230130699
 31
0.0
  0
SPLINE
  5
ED
330
1F
100
AcDbEntity
  8
0
  6
Continuous
 62
     7
370
    15
100
AcDbSpline
210
0.0
220
0.0
230
1.0
 70
     8
 71
     3
 72
    22
 73
    18
 74
     0
 42
0.00000001
 43
0.00000001
 12
1.0
 22
0.0
 32
0.0
 13
1.0
 23
0.0
 33
0.0
 40
0.0
 40
0.0
 40
0.0
 40
0.0
 40
0.011207143073435
 40
0.0199437690462166
 40
0.0352319251088303
 40
0.0617260353219139
 40
0.1065931167030712
 40
0.1794859012600153
 40
0.3142760838232116
 40
0.3824639475900358
 40
0.4347716935173432
 40
0.477992763875532
 40
0.5184521470396868
 40
0.5681997190041562
 40
0.6909572577377414
 40
0.8425692555876176
 40
1.0
 40
1.0
 40
1.0
 40
1.0
 10
188.5327356868351
 20
446.0351880099992
 30
0.0
 10
188.5060210449196
 20
446.1235156849783
 30
0.0
 10
188.4584807712723
 20
446.2806999681295
 30
0.0
 10
188.3737782754367
 20
446.5576498373475
 30
0.0
 10
188.2510343410985
 20
446.9542431148742
 30
0.0
 10
188.0373904739734
 20
447.631912981585
 30
0.0
 10
187.6747181973547
 20
448.7530186955893
 30
0.0
 10
187.0293377551293
 20
450.6939506340696
 30
0.0
 10
186.3381301516557
 20
452.7753988370618
 30
0.0
 10
185.7712969031686
 20
454.683062040762
 30
0.0
 10
185.4471481053293
 20
455.9087627079125
 30
0.0
 10
185.2170783322463
 20
456.9165558766924
 30
0.0
 10
185.0694868130783
 20
457.6404363689944
 30
0.0
 10
184.8976295519419
 20
458.5892299603681
 30
0.0
 10
184.7559125963511
 20
459.7353387558647
 30
0.0
 10
184.7305823032681
 20
461.0159414474215
 30
0.0
 10
184.8463758901366
 20
461.7575239942419
 30
0.0
 10
184.9053627812231
 20
462.1352966335039
 30
0.0
  0
SPLINE
  5
EE
330
1F
100
AcDbEntity
  8
0
  6
Continuous
 62
     7
370
    15
100
AcDbSpline
210
0.0
220
0.0
230
1.0
 70
     8
 71
     3
 72
     9
 73
     5
 74
     0
 42
0.00000001
 43
0.00000001
 12
1.0
 22
0.0
 32
0.0
 13
1.0
 23
0.0
 33
0.0
 40
0.0
 40
0.0
 40
0.0
 40
0.0
 40
0.4524797711149706
 40
1.0
 40
1.0
 40
1.0
 40
1.0
 10
142.487812321719
 20
471.0308726337175
 30
0.0
 10
142.5165207950112
 20
455.6766697158957
 30
0.0
 10
142.5799677712625
 20
421.7432125803716
 30
0.0
 10
142.519592882633
 20
387.8096714782452
 30
0.0
 10
142.4865364097917
 20
369.2303712871293
 30
0.0
  0
SPLINE
  5
EF
330
1F
100
AcDbEntity
  8
0
  6
Continuous
 62
     7
370
    15
100
AcDbSpline
210
0.0
220
0.0
230
1.0
 70
     8
 71
     3
 72
     9
 73
     5
 74
     0
 42
0.00000001
 43
0.00000001
 12
1.0
 22
0.0
 32
0.0
 13
1.0
 23
0.0
 33
0.0
 40
0.0
 40
0.0
 40
0.0
 40
0.0
 40
0.4524795055992589
 40
1.0
 40
1.0
 40
1.0
 40
1.0
 10
190.4876264744366
 20
369.2303712871293
 30
0.0
 10
190.458624703463
 20
384.5845761730392
 30
0.0
 10
190.3945294889512
 20
418.5180575703347
 30
0.0
 10
190.4538686217582
 20
452.4515759007124
 30
0.0
 10
190.4863580130899
 20
471.0308726337175
 30
0.0
  0
ARC
  5
F0
330
1F
100
AcDbEntity
  8
0
  6
Continuous
 62
     7
370
    15
100
AcDbCircle
 10
190.2870823734
 20
471.0308712871
 30
0.0
 40
0.2000000000000582
100
AcDbArc
 50
357.716942726
 51
90.0
  0
ARC
  5
F1
330
1F
100
AcDbEntity
  8
0
  6
Continuous
 62
     7
370
    15
100
AcDbCircle
 10
142.6870823734
 20
471.0308712871
 30
0.0
 40
0.2000000000000455
100
AcDbArc
 50
90.0
 51
178.9648833369
  0
ARC
  5
F2
330
1F
100
AcDbEntity
  8
0
  6
Continuous
 62
     7
370
    15
100
AcDbCircle
 10
149.9870823734
 20
479.9480345614
 30
0.0
 40
7.5
100
AcDbArc
 50
126.46923439
 51
180.0
  0
LINE
  5
F3
330
1F
100
AcDbEntity
  8
0
  6
Continuous
 62
     7
370
    15
100
AcDbLine
 10
187.6953984612
 20
485.7859949973
 30
0.0
 11
187.4450161123
 21
485.9793524649
 31
0.0
  0
LINE
  5
F4
330
1F
100
AcDbEntity
  8
0
  6
Continuous
 62
     7
370
    15
100
AcDbLine
 10
142.4870821648
 20
479.9480329659
 30
0.0
 11
142.4870821648
 21
471.4308719542
 31
0.0
  0
LINE
  5
F5
330
1F
100
AcDbEntity
  8
0
  6
Continuous
 62
     7
370
    15
100
AcDbLine
 10
190.4870825821
 20
471.4308719542
 30
0.0
 11
190.4870825821
 21
474.3198792842
 31
0.0
  0
ARC
  5
F6
330
1F
100
AcDbEntity
  8
0
  6
Continuous
 62
     7
370
    15
100
AcDbCircle
 10
142.6870823734
 20
471.4308712871
 30
0.0
 40
0.2000000000000455
100
AcDbArc
 50
180.0
 51
270.0
  0
ARC
  5
F7
330
1F
100
AcDbEntity
  8
0
  6
Continuous
 62
     7
370
    15
100
AcDbCircle
 10
190.2870823734
 20
471.4308712871
 30
0.0
 40
0.2000000000000455
100
AcDbArc
 50
270.0
 51
0.0
  0
LINE
  5
F8
330
1F
100
AcDbEntity
  8
0
  6
Continuous
 62
     7
370
    15
100
AcDbLine
 10
187.4450161123
 20
485.9793524649
 30
0.0
 11
179.1195510887
 21
492.1329583433
 31
0.0
  0
LINE
  5
F9
330
1F
100
AcDbEntity
  8
0
  6
Continuous
 62
     7
370
    15
100
AcDbLine
 10
153.8546136581
 20
492.1329583433
 30
0.0
 11
145.5291486346
 21
485.9793524649
 31
0.0
  0
ARC
  5
FA
330
1F
100
AcDbEntity
  8
0
  6
Continuous
 62
     7
370
    15
100
AcDbCircle
 10
154.1518088232
 20
491.7308712871
 30
0.0
 40
0.4999999999999881
100
AcDbArc
 50
90.0
 51
126.46923439
  0
ARC
  5
FB
330
1F
100
AcDbEntity
  8
0
  6
Continuous
 62
     7
370
    15
100
AcDbCircle
 10
178.8223559237
 20
491.7308712871
 30
0.0
 40
0.4999999999999881
100
AcDbArc
 50
53.53076561
 51
90.0
  0
LINE
  5
FC
330
1F
100
AcDbEntity
  8
0
  6
Continuous
 62
     7
370
    15
100
AcDbLine
 10
178.4370825627
 20
492.2308738735
 30
0.0
 11
178.4370825627
 21
492.4308698085
 31
0.0
  0
LINE
  5
FD
330
1F
100
AcDbEntity
  8
0
  6
Continuous
 62
     7
370
    15
100
AcDbLine
 10
154.5370821842
 20
492.4308698085
 30
0.0
 11
154.5370821842
 21
492.2308738735
 31
0.0
  0
LINE
  5
FE
330
1F
100
AcDbEntity
  8
0
  6
Continuous
 62
     7
370
    15
100
AcDbLine
 10
177.4870823138
 20
492.4308698085
 30
0.0
 11
177.4870823138
 21
593.7584008482
 31
0.0
  0
LINE
  5
FF
330
1F
100
AcDbEntity
  8
0
  6
Continuous
 62
     7
370
    15
100
AcDbLine
 10
155.487082433
 20
593.7584008482
 30
0.0
 11
155.487082433
 21
492.4308698085
 31
0.0
  0
LWPOLYLINE
  5
100
330
1F
100
AcDbEntity
  8
0
  6
Continuous
 62
     7
370
    15
100
AcDbPolyline
 90
       11
 70
   128
 43
0.0
 10
167.0029768139
 20
653.0005748775
 10
164.9132876192
 20
652.9925282505
 10
162.8714173567
 20
652.9529507663
 10
160.939407535
 20
652.8830643203
 10
159.1759608128
 20
652.7850146797
 10
157.6346582734
 20
652.6617820766
 10
156.3623328694
 20
652.5170619991
 10
155.3976428696
 20
652.3553247955
 10
154.7698997893
 20
652.1813984421
 10
154.498177115
 20
652.0006473568
 10
154.4870822691
 20
651.9556756523
  0
LWPOLYLINE
  5
101
330
1F
100
AcDbEntity
  8
0
  6
Continuous
 62
     7
370
    15
100
AcDbPolyline
 90
       10
 70
   128
 43
0.0
 10
178.4870824777
 20
651.9556756523
 10
178.3834337258
 20
652.0928557422
 10
177.929414902
 20
652.2708054092
 10
177.1277259105
 20
652.4391885307
 10
176.0027273559
 20
652.5928791073
 10
174.5886006393
 20
652.7272279766
 10
172.9283127935
 20
652.8381224182
 10
171.0723116995
 20
652.9221947696
 10
169.0769908019
 20
652.9769118335
 10
167.0029768139
 20
653.0005748775
  0
LWPOLYLINE
  5
102
330
1F
100
AcDbEntity
  8
0
  6
Continuous
 62
     7
370
    15
100
AcDbPolyline
 90
       37
 70
   128
 43
0.0
 10
167.0029768139
 20
595.2212925461
 10
164.9132876192
 20
595.2132310178
 10
162.8714173567
 20
595.1736535337
 10
160.939407535
 20
595.1037819889
 10
159.1759608128
 20
595.0057323482
 10
157.6346582734
 20
594.882484844
 10
156.3623328694
 20
594.7377796676
 10
155.3976428696
 20
594.5760126617
 10
154.7698997893
 20
594.4021161106
 10
154.498177115
 20
594.2213501241
 10
154.5907310211
 20
594.039228132
 10
155.0447498449
 20
593.8612635639
 10
155.8464388364
 20
593.6928804424
 10
156.971437391
 20
593.5391898658
 10
158.3855641075
 20
593.4048558977
 10
160.0458519534
 20
593.2939614561
 10
161.9018530474
 20
593.2098742035
 10
163.8971739449
 20
593.1551720407
 10
165.971187933
 20
593.1314940956
 10
168.0608771277
 20
593.1395556238
 10
170.1027473901
 20
593.1791182068
 10
172.0347572119
 20
593.2489897516
 10
173.7982039341
 20
593.3470393923
 10
175.3395064735
 20
593.4703017977
 10
176.6118318775
 20
593.6149920728
 10
177.5765218773
 20
593.7767590788
 10
178.2042649575
 20
593.9506705311
 10
178.4759876319
 20
594.1314216163
 10
178.3834337258
 20
594.3135585096
 10
177.929414902
 20
594.4915230777
 10
177.1277259105
 20
594.6599061992
 10
176.0027273559
 20
594.8135967758
 10
174.5886006393
 20
594.947930744
 10
172.9283127935
 20
595.0588251856
 10
171.0723116995
 20
595.142897537
 10
169.0769908019
 20
595.1976146009
 10
167.0029768139
 20
595.2212925461
  0
LINE
  5
103
330
1F
100
AcDbEntity
  8
0
  6
Continuous
 62
     7
370
    15
100
AcDbLine
 10
154.5001533815
 20
652.2067304161
 30
0.0
 11
154.4890752994
 21
652.1633978393
 31
0.0
  0
LWPOLYLINE
  5
104
330
1F
100
AcDbEntity
  8
0
  6
Continuous
 62
     7
370
    15
100
AcDbPolyline
 90
       19
 70
   128
 43
0.0
 10
178.4850875848
 20
652.1635170486
 10
178.3814723604
 20
652.2989089992
 10
177.9275289738
 20
652.4768586662
 10
177.1259722301
 20
652.6452119854
 10
176.0011590087
 20
652.7988727596
 10
174.5872651228
 20
652.9331918266
 10
172.9272510857
 20
653.0440564659
 10
171.0715559312
 20
653.1281288173
 10
169.0765637905
 20
653.1828160789
 10
167.0028917725
 20
653.2065089252
 10
164.913547109
 20
653.1984324959
 10
162.8720134032
 20
653.158884814
 10
160.9403216281
 20
653.0890281704
 10
159.1771659442
 20
652.9909785297
 10
157.6361176559
 20
652.8677459266
 10
156.3640017995
 20
652.7230854538
 10
155.3994710558
 20
652.5613482502
 10
154.7718313523
 20
652.387451699
 10
154.5001533815
 20
652.2067304161
  0
LWPOLYLINE
  5
105
330
1F
100
AcDbEntity
  8
0
  6
Continuous
 62
     7
370
    15
100
AcDbPolyline
 90
       11
 70
   128
 43
0.0
 10
167.7808484529
 20
652.9807265308
 10
166.9942951413
 20
652.9860015419
 10
164.9397719885
 20
652.9780443218
 10
162.9322632217
 20
652.9391522911
 10
161.0327656382
 20
652.870457938
 10
159.2989950442
 20
652.7740474251
 10
157.7836307698
 20
652.6528711822
 10
156.5327155405
 20
652.5106246975
 10
155.5842594244
 20
652.3515697029
 10
154.9670803361
 20
652.1805937793
 10
154.6999304556
 20
652.0028825309
  0
LINE
  5
106
330
1F
100
AcDbEntity
  8
0
  6
Continuous
 62
     7
370
    15
100
AcDbLine
 10
155.0506786444
 20
655.3527827766
 30
0.0
 11
155.0416392275
 21
655.326288512
 31
0.0
  0
LWPOLYLINE
  5
107
330
1F
100
AcDbEntity
  8
0
  6
Continuous
 62
     7
370
    15
100
AcDbPolyline
 90
       19
 70
   128
 43
0.0
 10
177.9289352708
 20
655.3397591617
 10
177.9215591961
 20
655.3565378692
 10
177.6422723197
 20
655.5337126758
 10
177.0044486039
 20
655.7037349251
 10
176.0285883211
 20
655.8610613849
 10
174.7460556217
 20
656.0006852653
 10
173.1980727055
 20
656.1181362179
 10
171.4343931527
 20
656.2095697429
 10
169.5117028431
 20
656.2720950153
 10
167.4917988713
 20
656.3037152794
 10
165.4396025698
 20
656.3033874538
 10
163.4210729972
 20
656.2711115387
 10
161.5010877141
 20
656.2079604175
 10
159.7413560376
 20
656.115930846
 10
158.1984381192
 20
655.9980030563
 10
156.9219236263
 20
655.8579321411
 10
155.9528415092
 20
655.7002778557
 10
155.3223379888
 20
655.5300767925
 10
155.0506786444
 20
655.3527827766
  0
LWPOLYLINE
  5
108
330
1F
100
AcDbEntity
  8
0
  6
Continuous
 62
     7
370
    15
100
AcDbPolyline
 90
       18
 70
   128
 43
0.0
 10
177.7282240801
 20
655.4982479122
 10
177.4576273748
 20
655.6654687431
 10
176.8303611317
 20
655.8326597717
 10
175.8706537076
 20
655.9873934295
 10
174.609349575
 20
656.1247225311
 10
173.0869896711
 20
656.2402065304
 10
171.3525033557
 20
656.3301499393
 10
169.4616382011
 20
656.3916321304
 10
167.4751684769
 20
656.4227159527
 10
165.4569407693
 20
656.4223881271
 10
163.4718228598
 20
656.3906486538
 10
161.5836177953
 20
656.3285406139
 10
159.8530136981
 20
656.2380309608
 10
158.335634973
 20
656.1220701244
 10
157.0802493953
 20
655.9843237903
 10
156.1272074469
 20
655.8292921093
 10
155.5071412587
 20
655.6618924644
 10
155.2399783396
 20
655.4875190761
  0
SPLINE
  5
109
330
1F
100
AcDbEntity
  8
0
  6
Continuous
 62
     7
370
    15
100
AcDbSpline
210
0.0
220
0.0
230
1.0
 70
     8
 71
     3
 72
    26
 73
    22
 74
     0
 42
0.00000001
 43
0.00000001
 12
1.0
 22
0.0
 32
0.0
 13
1.0
 23
0.0
 33
0.0
 40
0.0
 40
0.0
 40
0.0
 40
0.0
 40
0.1250000000000056
 40
0.1250000000000056
 40
0.2500000000000111
 40
0.2500000000000111
 40
0.3125000000000139
 40
0.3125000000000139
 40
0.3437500000000144
 40
0.3437500000000144
 40
0.375000000000015
 40
0.375000000000015
 40
0.500000000000012
 40
0.500000000000012
 40
0.625000000000009
 40
0.625000000000009
 40
0.750000000000006
 40
0.750000000000006
 40
0.875000000000003
 40
0.875000000000003
 40
1.0
 40
1.0
 40
1.0
 40
1.0
 10
187.6828480837782
 20
469.2550246046513
 30
0.0
 10
187.1901517707508
 20
468.3650971159532
 30
0.0
 10
186.7249673252405
 20
467.4591709216312
 30
0.0
 10
185.8909033587809
 20
465.6020340158707
 30
0.0
 10
185.5236732355284
 20
464.6534263151613
 30
0.0
 10
185.1084005981546
 20
463.1980648289821
 30
0.0
 10
184.9926536207788
 20
462.7068122722811
 30
0.0
 10
184.8610698958373
 20
461.9585682672526
 30
0.0
 10
184.8241787693742
 20
461.707268385348
 30
0.0
 10
184.7653756968596
 20
461.2006135065624
 30
0.0
 10
184.7434891451017
 20
460.9445630115385
 30
0.0
 10
184.6743506002259
 20
459.6721746623545
 30
0.0
 10
184.7494221488601
 20
458.6676562702621
 30
0.0
 10
185.0891230104527
 20
456.677985051021
 30
0.0
 10
185.3514043415055
 20
455.6899834403367
 30
0.0
 10
185.9444070779801
 20
453.744850888176
 30
0.0
 10
186.2748619311735
 20
452.7833957216278
 30
0.0
 10
186.9398824865716
 20
450.8617971941322
 30
0.0
 10
187.2751324840672
 20
449.9018682905848
 30
0.0
 10
187.9228733313963
 20
447.9746408256967
 30
0.0
 10
188.2355925535241
 20
447.0078651053046
 30
0.0
 10
188.5327349408426
 20
446.0351888056809
 30
0.0
  0
SPLINE
  5
10A
330
1F
100
AcDbEntity
  8
0
  6
Continuous
 62
     7
370
    15
100
AcDbSpline
210
0.0
220
0.0
230
1.0
 70
     8
 71
     3
 72
    26
 73
    22
 74
     0
 42
0.00000001
 43
0.00000001
 12
1.0
 22
0.0
 32
0.0
 13
1.0
 23
0.0
 33
0.0
 40
0.0
 40
0.0
 40
0.0
 40
0.0
 40
0.1250000000000001
 40
0.1250000000000001
 40
0.2500000000000003
 40
0.2500000000000003
 40
0.3750000000000005
 40
0.3750000000000005
 40
0.5000000000000006
 40
0.5000000000000006
 40
0.6250000000000007
 40
0.6250000000000007
 40
0.6562500000000008
 40
0.6562500000000008
 40
0.6875000000000008
 40
0.6875000000000008
 40
0.7500000000000006
 40
0.7500000000000006
 40
0.8750000000000003
 40
0.8750000000000003
 40
1.0
 40
1.0
 40
1.0
 40
1.0
 10
160.553498867161
 20
461.5263109479568
 30
0.0
 10
161.5349845693077
 20
461.7905686223077
 30
0.0
 10
162.5209206288253
 20
462.0388114941362
 30
0.0
 10
164.4980863975258
 20
462.5127201923956
 30
0.0
 10
165.489586060963
 20
462.7380743230809
 30
0.0
 10
167.4711524529655
 20
463.1943504440681
 30
0.0
 10
168.4614006165516
 20
463.4245786524376
 30
0.0
 10
170.4246888783935
 20
463.9543824994741
 30
0.0
 10
171.4012523931196
 20
464.2564791517058
 30
0.0
 10
173.2678470845945
 20
465.0246018749444
 30
0.0
 10
174.1590464745809
 20
465.494129926062
 30
0.0
 10
175.2007322233395
 20
466.2280529876712
 30
0.0
 10
175.4061251117057
 20
466.3825024582218
 30
0.0
 10
175.8043179408529
 20
466.7012491285149
 30
0.0
 10
175.9977208121182
 20
466.8658939450475
 30
0.0
 10
176.5620378580412
 20
467.3745486832814
 30
0.0
 10
176.9169535704471
 20
467.7333818977646
 30
0.0
 10
177.9300013124745
 20
468.8577762702281
 30
0.0
 10
178.5390611801199
 20
469.6724913231518
 30
0.0
 10
179.6703482088531
 20
471.3650662460954
 30
0.0
 10
180.1915416328609
 20
472.2406829665292
 30
0.0
 10
180.6839797628332
 20
473.1300526337206
 30
0.0
  0
SPLINE
  5
10B
330
1F
100
AcDbEntity
  8
0
  6
Continuous
 62
     7
370
    15
100
AcDbSpline
210
0.0
220
0.0
230
1.0
 70
     8
 71
     3
 72
    18
 73
    14
 74
     0
 42
0.00000001
 43
0.00000001
 12
1.0
 22
0.0
 32
0.0
 13
1.0
 23
0.0
 33
0.0
 40
0.0
 40
0.0
 40
0.0
 40
0.0
 40
0.2500000000000017
 40
0.2500000000000017
 40
0.3750000000000015
 40
0.3750000000000015
 40
0.5000000000000013
 40
0.5000000000000013
 40
0.7500000000000013
 40
0.7500000000000013
 40
0.8750000000000007
 40
0.8750000000000007
 40
1.0
 40
1.0
 40
1.0
 40
1.0
 10
146.4137738014717
 20
450.4585627254702
 30
0.0
 10
147.1645598423583
 20
451.8145923070608
 30
0.0
 10
148.0382316117259
 20
453.0723990103066
 30
0.0
 10
149.5255932923793
 20
454.8177494890193
 30
0.0
 10
150.0510834640491
 20
455.3757913278238
 30
0.0
 10
151.1629440242922
 20
456.4432128051955
 30
0.0
 10
151.7503884505423
 20
456.9527677327775
 30
0.0
 10
153.5649609592436
 20
458.3737057150509
 30
0.0
 10
154.8559685764885
 20
459.1910454458179
 30
0.0
 10
156.9140046542684
 20
460.2227686014835
 30
0.0
 10
157.6231838192873
 20
460.5350482742948
 30
0.0
 10
159.0695743297069
 20
461.0861504062182
 30
0.0
 10
159.8052683471202
 20
461.3247691841991
 30
0.0
 10
160.553498867161
 20
461.5263109479568
 30
0.0
  0
SPLINE
  5
10C
330
1F
100
AcDbEntity
  8
0
  6
Continuous
 62
     7
370
    15
100
AcDbSpline
210
0.0
220
0.0
230
1.0
 70
     8
 71
     3
 72
    18
 73
    14
 74
     0
 42
0.00000001
 43
0.00000001
 12
1.0
 22
0.0
 32
0.0
 13
1.0
 23
0.0
 33
0.0
 40
0.0
 40
0.0
 40
0.0
 40
0.0
 40
0.2499999999999989
 40
0.2499999999999989
 40
0.3749999999999983
 40
0.3749999999999983
 40
0.4999999999999977
 40
0.4999999999999977
 40
0.7499999999999988
 40
0.7499999999999988
 40
0.8749999999999993
 40
0.8749999999999993
 40
1.0
 40
1.0
 40
1.0
 40
1.0
 10
188.5327349698074
 20
446.0351887108301
 30
0.0
 10
188.9853884919474
 20
444.5528863071485
 30
0.0
 10
189.2820543465941
 20
443.0504621369628
 30
0.0
 10
189.5024880617466
 20
440.7679181720937
 30
0.0
 10
189.5382507746161
 20
440.0022140987573
 30
0.0
 10
189.5324656803496
 20
438.4608525277709
 30
0.0
 10
189.490297776632
 20
437.6843236996311
 30
0.0
 10
189.2500331942697
 20
435.3920608479285
 30
0.0
 10
188.9399146413433
 20
433.8957552873633
 30
0.0
 10
188.2505243383041
 20
431.6989585502309
 30
0.0
 10
187.9818706434557
 20
430.9720128431404
 30
0.0
 10
187.3722816610953
 20
429.5491092083515
 30
0.0
 10
187.0322362800192
 20
428.8543342781405
 30
0.0
 10
186.6567972494842
 20
428.1763037999552
 30
0.0
  0
SPLINE
  5
10D
330
1F
100
AcDbEntity
  8
0
  6
Continuous
 62
     7
370
    15
100
AcDbSpline
210
0.0
220
0.0
230
1.0
 70
    24
 71
     3
 72
    20
 73
    16
 74
     0
 42
0.00000001
 43
0.00000001
 12
1.0
 22
0.0
 32
0.0
 13
1.0
 23
0.0
 33
0.0
 40
0.0
 40
0.0
 40
0.0
 40
0.0
 40
0.0624999999999995
 40
0.0624999999999995
 40
0.124999999999999
 40
0.124999999999999
 40
0.1874999999999986
 40
0.1874999999999986
 40
0.2499999999999981
 40
0.2499999999999981
 40
0.3749999999999983
 40
0.3749999999999983
 40
0.4999999999999986
 40
0.4999999999999986
 40
1.0
 40
1.0
 40
1.0
 40
1.0
 10
211.6635672883221
 20
512.5677167181246
 30
0.0
 10
211.1642130239448
 20
511.6658097601203
 30
0.0
 10
210.6645505851165
 20
510.7633461939095
 30
0.0
 10
209.6653678708012
 20
508.9586758293092
 30
0.0
 10
209.1657682681296
 20
508.0563257544026
 30
0.0
 10
208.1665607698308
 20
506.2516106262972
 30
0.0
 10
207.6669532353165
 20
505.3492462253209
 30
0.0
 10
206.6677406890494
 20
503.5445219798451
 30
0.0
 10
206.1681365395153
 20
502.6421636926393
 30
0.0
 10
204.6693281392878
 20
499.9350961429788
 30
0.0
 10
203.6701244894103
 20
498.1303879656856
 30
0.0
 10
201.6717147875725
 20
494.5209672725865
 30
0.0
 10
200.6725100330009
 20
492.7162571000541
 30
0.0
 10
195.6764862230245
 20
483.6927061703521
 30
0.0
 10
191.6796671477936
 20
476.4738653773733
 30
0.0
 10
187.6828480837782
 20
469.2550246046513
 30
0.0
  0
SPLINE
  5
10E
330
1F
100
AcDbEntity
  8
0
  6
Continuous
 62
     7
370
    15
100
AcDbSpline
210
0.0
220
0.0
230
1.0
 70
    24
 71
     3
 72
    20
 73
    16
 74
     0
 42
0.00000001
 43
0.00000001
 12
1.0
 22
0.0
 32
0.0
 13
1.0
 23
0.0
 33
0.0
 40
0.0
 40
0.0
 40
0.0
 40
0.0
 40
0.499999999999998
 40
0.499999999999998
 40
0.6249999999999977
 40
0.6249999999999977
 40
0.7499999999999974
 40
0.7499999999999974
 40
0.8124999999999981
 40
0.8124999999999981
 40
0.8749999999999987
 40
0.8749999999999987
 40
0.9374999999999993
 40
0.9374999999999993
 40
1.0
 40
1.0
 40
1.0
 40
1.0
 10
180.6839797628332
 20
473.1300526337207
 30
0.0
 10
184.6808296788879
 20
480.3489491297454
 30
0.0
 10
188.6776794206657
 20
487.5678453110006
 30
0.0
 10
193.6737420926201
 20
496.5914664311285
 30
0.0
 10
194.6729546439409
 20
498.3961906857324
 30
0.0
 10
196.6713793222349
 20
502.0056384285053
 30
0.0
 10
197.6705928130003
 20
503.8103643798834
 30
0.0
 10
199.1694116095253
 20
506.5174507067803
 30
0.0
 10
199.6690173900888
 20
507.4198119398641
 30
0.0
 10
200.6682274255571
 20
509.2245316504697
 30
0.0
 10
201.1678365329643
 20
510.1268988923206
 30
0.0
 10
202.1670343033929
 20
511.9315964504676
 30
0.0
 10
202.6666164113233
 20
512.8339149273085
 30
0.0
 10
203.6657139380046
 20
514.6384314305618
 30
0.0
 10
204.1653499679485
 20
515.5408472984585
 30
0.0
 10
204.6646782352872
 20
516.4427073020023
 30
0.0
  0
SPLINE
  5
10F
330
1F
100
AcDbEntity
  8
0
  6
Continuous
 62
     7
370
    15
100
AcDbSpline
210
0.0
220
0.0
230
1.0
 70
    24
 71
     3
 72
    10
 73
     6
 74
     0
 42
0.00000001
 43
0.00000001
 12
1.0
 22
0.0
 32
0.0
 13
1.0
 23
0.0
 33
0.0
 40
0.0
 40
0.0
 40
0.0
 40
0.0
 40
0.5
 40
0.5
 40
1.0
 40
1.0
 40
1.0
 40
1.0
 10
212.3522235529692
 20
513.8115308217908
 30
0.0
 10
212.2392150295032
 20
513.6074208724049
 30
0.0
 10
212.1249893843717
 20
513.4011126229798
 30
0.0
 10
211.895200170564
 20
512.986079638199
 30
0.0
 10
211.7796113273178
 20
512.7773092532673
 30
0.0
 10
211.6635672883222
 20
512.5677167181249
 30
0.0
  0
SPLINE
  5
110
330
1F
100
AcDbEntity
  8
0
  6
Continuous
 62
     7
370
    15
100
AcDbSpline
210
0.0
220
0.0
230
1.0
 70
    24
 71
     3
 72
    10
 73
     6
 74
     0
 42
0.00000001
 43
0.00000001
 12
1.0
 22
0.0
 32
0.0
 13
1.0
 23
0.0
 33
0.0
 40
0.0
 40
0.0
 40
0.0
 40
0.0
 40
0.5
 40
0.5
 40
1.0
 40
1.0
 40
1.0
 40
1.0
 10
204.6646782352872
 20
516.4427073020023
 30
0.0
 10
204.7778732736986
 20
516.6471541247046
 30
0.0
 10
204.8907950715584
 20
516.8511074349403
 30
0.0
 10
205.1151383871322
 20
517.2563043296742
 30
0.0
 10
205.2266573499375
 20
517.4577239142828
 30
0.0
 10
205.3370206372497
 20
517.657056179642
 30
0.0
  0
ARC
  5
111
330
1F
100
AcDbEntity
  8
0
  6
Continuous
 62
     7
370
    15
100
AcDbCircle
 10
166.5355202238
 20
439.3178571412
 30
0.0
 40
23.00000000000004
100
AcDbArc
 50
285.0752769962
 51
331.025824338
  0
ARC
  5
112
330
1F
100
AcDbEntity
  8
0
  6
Continuous
 62
     7
370
    15
100
AcDbCircle
 10
166.5355202238
 20
439.3178571412
 30
0.0
 40
23.00000000000001
100
AcDbArc
 50
151.0282383184
 51
196.9811996406
  0
ARC
  5
113
330
1F
100
AcDbEntity
  8
0
  6
Continuous
 62
     7
370
    15
100
AcDbCircle
 10
166.5355202238
 20
439.3178571412
 30
0.0
 40
23.00000000000004
100
AcDbArc
 50
241.0282383184
 51
285.0752769962
  0
ARC
  5
114
330
1F
100
AcDbEntity
  8
0
  6
Continuous
 62
     7
370
    15
100
AcDbCircle
 10
166.5355202238
 20
439.3178571412
 30
0.0
 40
23.00000000000004
100
AcDbArc
 50
196.9811996406
 51
241.0282383184
  0
SPLINE
  5
115
330
1F
100
AcDbEntity
  8
0
  6
Continuous
 62
     7
370
    15
100
AcDbSpline
210
0.0
220
0.0
230
1.0
 70
    24
 71
     3
 72
     8
 73
     4
 74
     0
 42
0.00000001
 43
0.00000001
 12
1.0
 22
0.0
 32
0.0
 13
1.0
 23
0.0
 33
0.0
 40
0.0
 40
0.0
 40
0.0
 40
0.0
 40
1.0
 40
1.0
 40
1.0
 40
1.0
 10
205.3370206372497
 20
517.657056179642
 30
0.0
 10
205.5473372204552
 20
518.0369187407705
 30
0.0
 10
205.7439787209374
 20
518.3920820990697
 30
0.0
 10
205.9303466197208
 20
518.7286898275948
 30
0.0
  0
SPLINE
  5
116
330
1F
100
AcDbEntity
  8
0
  6
Continuous
 62
     7
370
    15
100
AcDbSpline
210
0.0
220
0.0
230
1.0
 70
    24
 71
     3
 72
     8
 73
     4
 74
     0
 42
0.00000001
 43
0.00000001
 12
1.0
 22
0.0
 32
0.0
 13
1.0
 23
0.0
 33
0.0
 40
0.0
 40
0.0
 40
0.0
 40
0.0
 40
1.0
 40
1.0
 40
1.0
 40
1.0
 10
212.924892907238
 20
514.8458555729671
 30
0.0
 10
212.7447124004869
 20
514.5204231809194
 30
0.0
 10
212.5548809145547
 20
514.17755970658
 30
0.0
 10
212.3522235529692
 20
513.8115308217908
 30
0.0
  0
SPLINE
  5
117
330
1F
100
AcDbEntity
  8
0
  6
Continuous
 62
     7
370
    15
100
AcDbSpline
210
0.0
220
0.0
230
1.0
 70
    24
 71
     3
 72
    12
 73
     8
 74
     0
 42
0.00000001
 43
0.00000001
 12
1.0
 22
0.0
 32
0.0
 13
1.0
 23
0.0
 33
0.0
 40
0.0
 40
0.0
 40
0.0
 40
0.0
 40
0.2499999999999946
 40
0.2499999999999946
 40
0.4999999999999892
 40
0.4999999999999892
 40
1.0
 40
1.0
 40
1.0
 40
1.0
 10
213.8352348222489
 20
516.4900664386439
 30
0.0
 10
213.7816699331147
 20
516.3933204014892
 30
0.0
 10
213.7219423548239
 20
516.2854436448694
 30
0.0
 10
213.590436284367
 20
516.0479244156849
 30
0.0
 10
213.5182677940927
 20
515.9175775494012
 30
0.0
 10
213.2879857130298
 20
515.5016543741514
 30
0.0
 10
213.115264641668
 20
515.1896948152411
 30
0.0
 10
212.924892907238
 20
514.8458555729671
 30
0.0
  0
SPLINE
  5
118
330
1F
100
AcDbEntity
  8
0
  6
Continuous
 62
     7
370
    15
100
AcDbSpline
210
0.0
220
0.0
230
1.0
 70
    24
 71
     3
 72
    12
 73
     8
 74
     0
 42
0.00000001
 43
0.00000001
 12
1.0
 22
0.0
 32
0.0
 13
1.0
 23
0.0
 33
0.0
 40
0.0
 40
0.0
 40
0.0
 40
0.0
 40
0.5000000000000027
 40
0.5000000000000027
 40
0.7500000000000013
 40
0.7500000000000013
 40
1.0
 40
1.0
 40
1.0
 40
1.0
 10
205.9303466197208
 20
518.7286898275948
 30
0.0
 10
206.1197585289441
 20
519.0707954849289
 30
0.0
 10
206.2916091249923
 20
519.3811828378961
 30
0.0
 10
206.5207234091128
 20
519.7949968007827
 30
0.0
 10
206.5925406301536
 20
519.9247092233699
 30
0.0
 10
206.7234655101887
 20
520.1611787375069
 30
0.0
 10
206.7829440218015
 20
520.268605643217
 30
0.0
 10
206.8363041717864
 20
520.3649818914732
 30
0.0
  0
SPLINE
  5
119
330
1F
100
AcDbEntity
  8
0
  6
Continuous
 62
     7
370
    15
100
AcDbSpline
210
0.0
220
0.0
230
1.0
 70
    24
 71
     3
 72
     8
 73
     4
 74
     0
 42
0.00000001
 43
0.00000001
 12
1.0
 22
0.0
 32
0.0
 13
1.0
 23
0.0
 33
0.0
 40
0.0
 40
0.0
 40
0.0
 40
0.0
 40
1.0
 40
1.0
 40
1.0
 40
1.0
 10
206.8363041717864
 20
520.3649818914732
 30
0.0
 10
206.9327395893902
 20
520.5391583836744
 30
0.0
 10
207.0065660599316
 20
520.6724998052184
 30
0.0
 10
207.0577219341662
 20
520.7648948085385
 30
0.0
  0
SPLINE
  5
11A
330
1F
100
AcDbEntity
  8
0
  6
Continuous
 62
     7
370
    15
100
AcDbSpline
210
0.0
220
0.0
230
1.0
 70
    24
 71
     3
 72
     8
 73
     4
 74
     0
 42
0.00000001
 43
0.00000001
 12
1.0
 22
0.0
 32
0.0
 13
1.0
 23
0.0
 33
0.0
 40
0.0
 40
0.0
 40
0.0
 40
0.0
 40
1.0
 40
1.0
 40
1.0
 40
1.0
 10
214.0564501939909
 20
516.8896138085667
 30
0.0
 10
214.0053098181663
 20
516.7972467976457
 30
0.0
 10
213.9315506468243
 20
516.6640269283153
 30
0.0
 10
213.8352348222489
 20
516.4900664386439
 30
0.0
  0
ARC
  5
11B
330
1F
100
AcDbEntity
  8
0
  6
Continuous
 62
     7
370
    15
100
AcDbCircle
 10
211.5144457079
 20
518.4918629044
 30
0.0
 40
2.999986132692843
100
AcDbArc
 50
331.02813462
 51
55.63191836
  0
SPLINE
  5
11C
330
1F
100
AcDbEntity
  8
0
  6
Continuous
 62
     7
370
    15
100
AcDbSpline
210
0.0
220
0.0
230
1.0
 70
    24
 71
     3
 72
     8
 73
     4
 74
     0
 42
0.00000001
 43
0.00000001
 12
1.0
 22
0.0
 32
0.0
 13
1.0
 23
0.0
 33
0.0
 40
0.0
 40
0.0
 40
0.0
 40
0.0
 40
1.0
 40
1.0
 40
1.0
 40
1.0
 10
214.1390068594835
 20
517.038723241186
 30
0.0
 10
214.1388256177337
 20
517.0383958920335
 30
0.0
 10
214.1110872598935
 20
516.9882963540414
 30
0.0
 10
214.0564501939909
 20
516.8896138085667
 30
0.0
  0
ARC
  5
11D
330
1F
100
AcDbEntity
  8
0
  6
Continuous
 62
     7
370
    15
100
AcDbCircle
 10
209.7647148936
 20
519.4606216686
 30
0.0
 40
2.999994405441863
100
AcDbArc
 50
66.4246911643
 51
151.0284117208
  0
SPLINE
  5
11E
330
1F
100
AcDbEntity
  8
0
  6
Continuous
 62
     7
370
    15
100
AcDbSpline
210
0.0
220
0.0
230
1.0
 70
    24
 71
     3
 72
     8
 73
     4
 74
     0
 42
0.00000001
 43
0.00000001
 12
1.0
 22
0.0
 32
0.0
 13
1.0
 23
0.0
 33
0.0
 40
0.0
 40
0.0
 40
0.0
 40
0.0
 40
1.0
 40
1.0
 40
1.0
 40
1.0
 10
207.0577219341662
 20
520.7648948085385
 30
0.0
 10
207.1122744815389
 20
520.8634247011663
 30
0.0
 10
207.1399667117162
 20
520.9134409258412
 30
0.0
 10
207.1401386241052
 20
520.9137514248014
 30
0.0
  0
ARC
  5
11F
330
1F
100
AcDbEntity
  8
0
  6
Continuous
 62
     7
370
    15
100
AcDbCircle
 10
166.4870823734
 20
439.2303712871
 30
0.0
 40
23.00000000000301
100
AcDbArc
 50
139.464251052
 51
337.0057162656
  0
ARC
  5
120
330
1F
100
AcDbEntity
  8
0
  6
Continuous
 62
     7
370
    15
100
AcDbCircle
 10
166.4870823734
 20
439.2303712871
 30
0.0
 40
23.00000000000305
100
AcDbArc
 50
104.739034227
 51
124.3519214818
  0
SPLINE
  5
121
330
1F
100
AcDbEntity
  8
0
  6
Continuous
 62
     7
370
    15
100
AcDbSpline
210
0.0
220
0.0
230
1.0
 70
    24
 71
     3
 72
    37
 73
    33
 74
     0
 42
0.00000001
 43
0.00000001
 12
1.0
 22
0.0
 32
0.0
 13
1.0
 23
0.0
 33
0.0
 40
0.0
 40
0.0
 40
0.0
 40
0.0
 40
0.021547264076393
 40
0.0746563861210397
 40
0.1015134850686003
 40
0.1288278391981707
 40
0.1819841614744758
 40
0.2088652486219063
 40
0.2362018833666655
 40
0.2627368942124287
 40
0.316347067283646
 40
0.3437227022428395
 40
0.3702622414715463
 40
0.3969909608824763
 40
0.4239343797218184
 40
0.4513195222202184
 40
0.504463074281666
 40
0.5313684667719963
 40
0.5587146836723192
 40
0.6118274909245625
 40
0.638691953579694
 40
0.6660142015434681
 40
0.7191077434406931
 40
0.7459594787859197
 40
0.773269743448037
 40
0.8263785115055892
 40
0.8532356080323709
 40
0.8805502560625568
 40
0.9336993881470472
 40
0.9605766645815929
 40
0.9879095401606431
 40
1.0
 40
1.0
 40
1.0
 40
1.0
 10
190.4728873633707
 20
369.2303712871294
 30
0.0
 10
190.4669905450332
 20
369.2303712871294
 30
0.0
 10
190.4465594060666
 20
369.2303712871295
 30
0.0
 10
190.0314714720908
 20
369.2303712871295
 30
0.0
 10
189.3002674159439
 20
369.2303712871295
 30
0.0
 10
188.3426670348637
 20
369.2303712871295
 30
0.0
 10
187.0693761106001
 20
369.2303712871295
 30
0.0
 10
185.5145863283876
 20
369.2303712871295
 30
0.0
 10
184.2078393620095
 20
369.2303712871295
 30
0.0
 10
182.2990139126471
 20
369.2303712871295
 30
0.0
 10
180.1546927327817
 20
369.2303712871295
 30
0.0
 10
177.8281898770552
 20
369.2303712871295
 30
0.0
 10
176.0013048251795
 20
369.2303712871295
 30
0.0
 10
174.1170300750561
 20
369.2303712871295
 30
0.0
 10
172.1584494099229
 20
369.2303712871295
 30
0.0
 10
169.508505179498
 20
369.2303712871295
 30
0.0
 10
166.8016663128424
 20
369.2303712871295
 30
0.0
 10
164.1061206212563
 20
369.2303712871295
 30
0.0
 10
161.4339505978428
 20
369.2303712871295
 30
0.0
 10
158.8197445047363
 20
369.2303712871295
 30
0.0
 10
156.3292621124702
 20
369.2303712871295
 30
0.0
 10
153.9360165198453
 20
369.2303712871295
 30
0.0
 10
151.7073088326821
 20
369.2303712871295
 30
0.0
 10
149.69930734991
 20
369.2303712871295
 30
0.0
 10
147.8524215656058
 20
369.2303712871295
 30
0.0
 10
146.259460262719
 20
369.2303712871295
 30
0.0
 10
144.957911038448
 20
369.2303712871295
 30
0.0
 10
143.8641875433155
 20
369.2303712871295
 30
0.0
 10
143.0826839075285
 20
369.2303712871295
 30
0.0
 10
142.645460836117
 20
369.2303712871295
 30
0.0
 10
142.4869736781586
 20
369.2303712871295
 30
0.0
 10
142.5025302458143
 20
369.2303712871295
 30
0.0
 10
142.5073011779154
 20
369.2303712871295
 30
0.0
  0
LINE
  5
122
330
1F
100
AcDbEntity
  8
0
  6
Continuous
 62
     7
370
    15
100
AcDbLine
 10
154.1518089362
 20
492.2308738735
 30
0.0
 11
178.8223558106
 21
492.2308738735
 31
0.0
  0
LINE
  5
123
330
1F
100
AcDbEntity
  8
0
  6
Continuous
 62
     7
370
    15
100
AcDbLine
 10
166.4870823734
 20
492.4308698085
 30
0.0
 11
154.5370821842
 21
492.4308698085
 31
0.0
  0
LINE
  5
124
330
1F
100
AcDbEntity
  8
0
  6
Continuous
 62
     7
370
    15
100
AcDbLine
 10
178.4370825627
 20
492.4308698085
 30
0.0
 11
166.4870823734
 21
492.4308698085
 31
0.0
  0
ARC
  5
125
330
1F
100
AcDbEntity
  8
0
  6
Continuous
 62
     8
370
     0
100
AcDbCircle
 10
166.5355202238
 20
439.3178571412
 30
0.0
 40
20.4603674947073
100
AcDbArc
 50
196.9811996406
 51
241.0282383184
  0
ARC
  5
126
330
1F
100
AcDbEntity
  8
0
  6
Continuous
 62
     8
370
     0
100
AcDbCircle
 10
166.5355202238
 20
439.3178571412
 30
0.0
 40
20.46036749470726
100
AcDbArc
 50
151.0282383184
 51
196.9811996406
  0
ARC
  5
127
330
1F
100
AcDbEntity
  8
0
  6
Continuous
 62
     8
370
     0
100
AcDbCircle
 10
166.5355202238
 20
439.3178571412
 30
0.0
 40
20.46036749470728
100
AcDbArc
 50
285.0752769962
 51
331.0282383184
  0
ARC
  5
128
330
1F
100
AcDbEntity
  8
0
  6
Continuous
 62
     8
370
     0
100
AcDbCircle
 10
166.5355202238
 20
439.3178571412
 30
0.0
 40
20.4603674947073
100
AcDbArc
 50
241.0282383184
 51
285.0752769962
  0
SPLINE
  5
129
330
1F
100
AcDbEntity
  8
0
  6
Continuous
 62
     8
370
     0
100
AcDbSpline
210
0.0
220
0.0
230
1.0
 70
     8
 71
     3
 72
    30
 73
    26
 74
     0
 42
0.00000001
 43
0.00000001
 12
1.0
 22
0.0
 32
0.0
 13
1.0
 23
0.0
 33
0.0
 40
0.0
 40
0.0
 40
0.0
 40
0.0
 40
0.1250000000000012
 40
0.1250000000000012
 40
0.1875000000000019
 40
0.1875000000000019
 40
0.2500000000000026
 40
0.2500000000000026
 40
0.3750000000000054
 40
0.3750000000000054
 40
0.4375000000000061
 40
0.4375000000000061
 40
0.5000000000000068
 40
0.5000000000000068
 40
0.6250000000000067
 40
0.6250000000000067
 40
0.6875000000000058
 40
0.6875000000000058
 40
0.750000000000005
 40
0.750000000000005
 40
0.8125000000000041
 40
0.8125000000000041
 40
0.8750000000000033
 40
0.8750000000000033
 40
1.0
 40
1.0
 40
1.0
 40
1.0
 10
186.1601208916499
 20
445.2520133885
 30
0.0
 10
185.8467209401281
 20
446.312281398802
 30
0.0
 10
185.5167102056396
 20
447.367255619739
 30
0.0
 10
184.9981430585081
 20
448.9421667586688
 30
0.0
 10
184.8209936725769
 20
449.4657576007476
 30
0.0
 10
184.4604397443451
 20
450.5109152204208
 30
0.0
 10
184.2772689027331
 20
451.0325564338119
 30
0.0
 10
183.7364469759322
 20
452.6002903560714
 30
0.0
 10
183.3860814177071
 20
453.6487483749609
 30
0.0
 10
182.926552374532
 20
455.2427713698617
 30
0.0
 10
182.7848955340965
 20
455.7785704487775
 30
0.0
 10
182.540239523141
 20
456.8529559183411
 30
0.0
 10
182.4370976683371
 20
457.3923064197912
 30
0.0
 10
182.2019678183729
 20
459.0187177659286
 30
0.0
 10
182.147870824568
 20
460.1145429185901
 30
0.0
 10
182.2491315528721
 20
461.7788221480943
 30
0.0
 10
182.3130140660565
 20
462.3286573031449
 30
0.0
 10
182.4938523219603
 20
463.4129265592629
 30
0.0
 10
182.6110154979793
 20
463.9484900225667
 30
0.0
 10
182.8911707491579
 20
465.0083551417078
 30
0.0
 10
183.0540953875884
 20
465.5326735023235
 30
0.0
 10
183.4191142770017
 20
466.5716858643514
 30
0.0
 10
183.6216858025567
 20
467.0874547098924
 30
0.0
 10
184.2746132138725
 20
468.6136985543062
 30
0.0
 10
184.7694002251793
 20
469.6045679156823
 30
0.0
 10
185.3051067248883
 20
470.5714966382752
 30
0.0
  0
SPLINE
  5
12A
330
1F
100
AcDbEntity
  8
0
  6
Continuous
 62
     8
370
     0
100
AcDbSpline
210
0.0
220
0.0
230
1.0
 70
     8
 71
     3
 72
    25
 73
    21
 74
     0
 42
0.00000001
 43
0.00000001
 12
1.0
 22
0.0
 32
0.0
 13
1.0
 23
0.0
 33
0.0
 40
0.0
 40
0.0
 40
0.0
 40
0.0
 40
0.0156249999999998
 40
0.0156249999999998
 40
0.0312499999999996
 40
0.0624999999999995
 40
0.0624999999999995
 40
0.1250000000000007
 40
0.1250000000000007
 40
0.2500000000000009
 40
0.2500000000000009
 40
0.3750000000000012
 40
0.3750000000000012
 40
0.5000000000000016
 40
0.5000000000000016
 40
0.7499999999999996
 40
0.7499999999999996
 40
0.8749999999999998
 40
0.8749999999999998
 40
1.0
 40
1.0
 40
1.0
 40
1.0
 10
184.43545361944
 20
429.4072915402682
 30
0.0
 10
184.4764638677274
 20
429.4814053352487
 30
0.0
 10
184.5181336343584
 20
429.5578185696776
 30
0.0
 10
184.5992780025034
 20
429.7088849878781
 30
0.0
 10
184.7194605963288
 20
429.9360225159652
 30
0.0
 10
184.8350599240476
 20
430.1647672270001
 30
0.0
 10
185.0601859312221
 20
430.6243861194841
 30
0.0
 10
185.2021605842861
 20
430.9336423955238
 30
0.0
 10
185.6040273113646
 20
431.8698472768299
 30
0.0
 10
185.8400610627313
 20
432.5051621603385
 30
0.0
 10
186.248774684619
 20
433.7980078745744
 30
0.0
 10
186.4213705980383
 20
434.4555681233706
 30
0.0
 10
186.702224395465
 20
435.7932492687778
 30
0.0
 10
186.8102397963368
 20
436.4743437690229
 30
0.0
 10
187.0300708299792
 20
438.5070090015889
 30
0.0
 10
187.0420843496438
 20
439.8626350121673
 30
0.0
 10
186.8625302808942
 20
441.8968236926802
 30
0.0
 10
186.768923285664
 20
442.5774448735576
 30
0.0
 10
186.5145830297385
 20
443.9261356245948
 30
0.0
 10
186.3548068929053
 20
444.5930567284158
 30
0.0
 10
186.1601208716026
 20
445.2520133825129
 30
0.0
  0
SPLINE
  5
12B
330
1F
100
AcDbEntity
  8
0
  6
Continuous
 62
     8
370
     0
100
AcDbSpline
210
0.0
220
0.0
230
1.0
 70
     8
 71
     3
 72
    20
 73
    16
 74
     0
 42
0.00000001
 43
0.00000001
 12
1.0
 22
0.0
 32
0.0
 13
1.0
 23
0.0
 33
0.0
 40
0.0
 40
0.0
 40
0.0
 40
0.0
 40
0.1250000000000003
 40
0.1250000000000003
 40
0.2500000000000006
 40
0.2500000000000006
 40
0.5
 40
0.5
 40
0.625
 40
0.625
 40
0.7499999999999998
 40
0.7499999999999998
 40
0.8749999999999999
 40
0.8749999999999999
 40
1.0
 40
1.0
 40
1.0
 40
1.0
 10
161.1493280987787
 20
459.0998737295832
 30
0.0
 10
160.4874989094638
 20
458.9151378561679
 30
0.0
 10
159.837448619748
 20
458.6965858223624
 30
0.0
 10
158.5593754549779
 20
458.1963293941022
 30
0.0
 10
157.9328317292242
 20
457.9144222926984
 30
0.0
 10
156.1134573576164
 20
456.9869450400105
 30
0.0
 10
154.9708766679674
 20
456.257254622182
 30
0.0
 10
153.3647773881472
 20
454.9920837783465
 30
0.0
 10
152.8448491524678
 20
454.5390386917227
 30
0.0
 10
151.8601691848903
 20
453.5910134448721
 30
0.0
 10
151.3944645003895
 20
453.0957229944307
 30
0.0
 10
150.5156501770406
 20
452.0631265389072
 30
0.0
 10
150.1024710504715
 20
451.5258760714385
 30
0.0
 10
149.3289007930719
 20
450.4092055671529
 30
0.0
 10
148.9679345135862
 20
449.8283409349649
 30
0.0
 10
148.6355868281129
 20
449.2284227420351
 30
0.0
  0
SPLINE
  5
12C
330
1F
100
AcDbEntity
  8
0
  6
Continuous
 62
     8
370
     0
100
AcDbSpline
210
0.0
220
0.0
230
1.0
 70
     8
 71
     3
 72
    30
 73
    26
 74
     0
 42
0.00000001
 43
0.00000001
 12
1.0
 22
0.0
 32
0.0
 13
1.0
 23
0.0
 33
0.0
 40
0.0
 40
0.0
 40
0.0
 40
0.0
 40
0.1249999999999982
 40
0.1249999999999982
 40
0.187499999999998
 40
0.187499999999998
 40
0.2499999999999977
 40
0.2499999999999977
 40
0.3124999999999974
 40
0.3124999999999974
 40
0.3749999999999972
 40
0.3749999999999972
 40
0.4999999999999976
 40
0.4999999999999976
 40
0.5624999999999977
 40
0.5624999999999977
 40
0.6249999999999978
 40
0.6249999999999978
 40
0.7499999999999982
 40
0.7499999999999982
 40
0.8124999999999986
 40
0.8124999999999986
 40
0.8749999999999989
 40
0.8749999999999989
 40
1.0
 40
1.0
 40
1.0
 40
1.0
 10
183.0617211217189
 20
471.8135806000889
 30
0.0
 10
182.5264895786912
 20
470.846238246853
 30
0.0
 10
181.9493912338141
 20
469.9011233947156
 30
0.0
 10
181.0024190221498
 20
468.5377048292835
 30
0.0
 10
180.6728125237781
 20
468.0922781519923
 30
0.0
 10
179.9859693461676
 20
467.2314629384451
 30
0.0
 10
179.6280750122019
 20
466.8150994445835
 30
0.0
 10
178.8785187552638
 20
466.0151387142338
 30
0.0
 10
178.486806892694
 20
465.6315897557584
 30
0.0
 10
177.663856941422
 20
464.902847735908
 30
0.0
 10
177.2317728311729
 20
464.5568802608365
 30
0.0
 10
175.8750211572481
 20
463.5877344294337
 30
0.0
 10
174.9175854470209
 20
463.0519658240166
 30
0.0
 10
173.4143890163587
 20
462.3880134939588
 30
0.0
 10
172.902541059852
 20
462.1891640879335
 30
0.0
 10
171.8621361759379
 20
461.8262776953005
 30
0.0
 10
171.3328556788232
 20
461.6619560034833
 30
0.0
 10
169.738005266218
 20
461.2053798207259
 30
0.0
 10
168.6634664281136
 20
460.9458487403045
 30
0.0
 10
167.0477487294541
 20
460.5721289595245
 30
0.0
 10
166.5084324460224
 20
460.4505085441454
 30
0.0
 10
165.4312818828305
 20
460.2013695464638
 30
0.0
 10
164.8935087421316
 20
460.0736126410226
 30
0.0
 10
163.2835182601277
 20
459.6772288460512
 30
0.0
 10
162.2142593342489
 20
459.3969913406458
 30
0.0
 10
161.1493281039011
 20
459.0998737110125
 30
0.0
  0
SPLINE
  5
12D
330
1F
100
AcDbEntity
  8
0
  6
Continuous
 62
     8
370
     0
100
AcDbSpline
210
0.0
220
0.0
230
1.0
 70
     8
 71
     3
 72
    24
 73
    20
 74
     0
 42
0.00000001
 43
0.00000001
 12
1.0
 22
0.0
 32
0.0
 13
1.0
 23
0.0
 33
0.0
 40
0.0
 40
0.0
 40
0.0
 40
0.0
 40
0.5000000000000013
 40
0.5000000000000013
 40
0.6250000000000013
 40
0.6250000000000013
 40
0.6875000000000013
 40
0.6875000000000013
 40
0.7500000000000014
 40
0.7500000000000014
 40
0.8125000000000014
 40
0.8125000000000014
 40
0.8750000000000016
 40
0.8750000000000016
 40
0.9375000000000016
 40
0.9375000000000016
 40
0.9687500000000008
 40
0.9687500000000008
 40
1.0
 40
1.0
 40
1.0
 40
1.0
 10
185.305106720834
 20
470.571496640525
 30
0.0
 10
189.3106756271537
 20
477.8061433013877
 30
0.0
 10
193.3162534171502
 20
485.0407850555811
 30
0.0
 10
198.32321030475
 20
494.0840957159018
 30
0.0
 10
199.3245265725377
 20
495.8927993194393
 30
0.0
 10
200.8260618156875
 20
498.606098283198
 30
0.0
 10
201.326942987237
 20
499.5103263112622
 30
0.0
 10
202.3309080647752
 20
501.3175599917939
 30
0.0
 10
202.8333936544232
 20
502.2208963301236
 30
0.0
 10
203.8348731738113
 20
504.0295137734582
 30
0.0
 10
204.3334582852167
 20
504.9350239374355
 30
0.0
 10
205.3246797603881
 20
506.7493616229206
 30
0.0
 10
205.8186161673392
 20
507.6574642237415
 30
0.0
 10
206.8180776952429
 20
509.4672068826488
 30
0.0
 10
207.3247510835615
 20
510.3682063775103
 30
0.0
 10
208.1023033247515
 20
511.7099246868481
 30
0.0
 10
208.3622860599187
 20
512.1567871909531
 30
0.0
 10
208.8656478166946
 20
513.0594356492448
 30
0.0
 10
209.1088700170131
 20
513.5154062667841
 30
0.0
 10
209.3377792123463
 20
513.9785055131237
 30
0.0
  0
LINE
  5
12E
330
1F
100
AcDbEntity
  8
0
  6
Continuous
 62
     8
370
     0
100
AcDbLine
 10
209.3377779239
 20
513.9785076883
 30
0.0
 11
209.3378040009
 21
513.9785523918
 31
0.0
  0
SPLINE
  5
12F
330
1F
100
AcDbEntity
  8
0
  6
Continuous
 62
     8
370
     0
100
AcDbSpline
210
0.0
220
0.0
230
1.0
 70
     8
 71
     3
 72
    24
 73
    20
 74
     0
 42
0.00000001
 43
0.00000001
 12
1.0
 22
0.0
 32
0.0
 13
1.0
 23
0.0
 33
0.0
 40
0.0
 40
0.0
 40
0.0
 40
0.0
 40
0.0312500000000002
 40
0.0312500000000002
 40
0.0625000000000005
 40
0.0625000000000005
 40
0.1250000000000008
 40
0.1250000000000008
 40
0.1875000000000011
 40
0.1875000000000011
 40
0.2500000000000014
 40
0.2500000000000014
 40
0.3125000000000017
 40
0.3125000000000017
 40
0.375000000000002
 40
0.375000000000002
 40
0.5000000000000014
 40
0.5000000000000014
 40
1.0
 40
1.0
 40
1.0
 40
1.0
 10
207.0948017105603
 20
515.2203635235084
 30
0.0
 10
206.823917284379
 20
514.7807422517211
 30
0.0
 10
206.5664526285757
 20
514.3324190831942
 30
0.0
 10
206.0685967081498
 20
513.4267217069699
 30
0.0
 10
205.827856448645
 20
512.9692051019508
 30
0.0
 10
205.1034055872763
 20
511.5980857465668
 30
0.0
 10
204.6087048734173
 20
510.690456948836
 30
0.0
 10
203.6053708389214
 20
508.8828574512395
 30
0.0
 10
203.0978898543344
 20
507.9822535514938
 30
0.0
 10
202.0862879906527
 20
506.1791988603294
 30
0.0
 10
201.5834715037374
 20
505.2760310054394
 30
0.0
 10
200.5821622062082
 20
503.4673184071364
 30
0.0
 10
200.0832581834763
 20
502.5619983909999
 30
0.0
 10
199.0844406813645
 20
500.7519133267169
 30
0.0
 10
198.5839296483876
 20
499.8474803447613
 30
0.0
 10
197.0812874795139
 20
497.1347947856239
 30
0.0
 10
196.0798190606621
 20
495.3261758285508
 30
0.0
 10
191.0728523104426
 20
486.2828733352891
 30
0.0
 10
187.0672911516553
 20
479.0482244986615
 30
0.0
 10
183.0617211257774
 20
471.813580597847
 30
0.0
  0
SPLINE
  5
130
330
1F
100
AcDbEntity
  8
0
  6
Continuous
 62
     8
370
     0
100
AcDbSpline
210
0.0
220
0.0
230
1.0
 70
     8
 71
     3
 72
     8
 73
     4
 74
     0
 42
0.00000001
 43
0.00000001
 12
1.0
 22
0.0
 32
0.0
 13
1.0
 23
0.0
 33
0.0
 40
0.0
 40
0.0
 40
0.0
 40
0.0
 40
1.0
 40
1.0
 40
1.0
 40
1.0
 10
213.0765045817707
 20
520.7307093148047
 30
0.0
 10
213.1636486309404
 20
520.8880653662222
 30
0.0
 10
213.2076706655608
 20
520.9676152044466
 30
0.0
 10
213.2079597393108
 20
520.9681371486668
 30
0.0
  0
SPLINE
  5
131
330
1F
100
AcDbEntity
  8
0
  6
Continuous
 62
     8
370
     0
100
AcDbSpline
210
0.0
220
0.0
230
1.0
 70
     8
 71
     3
 72
     8
 73
     4
 74
     0
 42
0.00000001
 43
0.00000001
 12
1.0
 22
0.0
 32
0.0
 13
1.0
 23
0.0
 33
0.0
 40
0.0
 40
0.0
 40
0.0
 40
0.0
 40
1.0
 40
1.0
 40
1.0
 40
1.0
 10
212.7222808195004
 20
520.0907866621782
 30
0.0
 10
212.8764230731717
 20
520.3694829642188
 30
0.0
 10
212.9945833370428
 20
520.5827840838748
 30
0.0
 10
213.0765045817706
 20
520.7307093148048
 30
0.0
  0
SPLINE
  5
132
330
1F
100
AcDbEntity
  8
0
  6
Continuous
 62
     8
370
     0
100
AcDbSpline
210
0.0
220
0.0
230
1.0
 70
     8
 71
     3
 72
    12
 73
     8
 74
     0
 42
0.00000001
 43
0.00000001
 12
1.0
 22
0.0
 32
0.0
 13
1.0
 23
0.0
 33
0.0
 40
0.0
 40
0.0
 40
0.0
 40
0.0
 40
0.5000000000000034
 40
0.5000000000000034
 40
0.7500000000000017
 40
0.7500000000000017
 40
1.0
 40
1.0
 40
1.0
 40
1.0
 10
211.2762107859823
 20
517.4792190103511
 30
0.0
 10
211.5767553402525
 20
518.0273711195144
 30
0.0
 10
211.852404087652
 20
518.5209031074611
 30
0.0
 10
212.2188261422251
 20
519.1807736626939
 30
0.0
 10
212.3335368683694
 20
519.3879116373192
 30
0.0
 10
212.5424162234503
 20
519.7654528536336
 30
0.0
 10
212.6372021925071
 20
519.9369605816522
 30
0.0
 10
212.7222808195003
 20
520.0907866621781
 30
0.0
  0
SPLINE
  5
133
330
1F
100
AcDbEntity
  8
0
  6
Continuous
 62
     8
370
     0
100
AcDbSpline
210
0.0
220
0.0
230
1.0
 70
     8
 71
     3
 72
     8
 73
     4
 74
     0
 42
0.00000001
 43
0.00000001
 12
1.0
 22
0.0
 32
0.0
 13
1.0
 23
0.0
 33
0.0
 40
0.0
 40
0.0
 40
0.0
 40
0.0
 40
1.0
 40
1.0
 40
1.0
 40
1.0
 10
210.3277222601307
 20
515.7669119154006
 30
0.0
 10
210.671397621389
 20
516.3668646309126
 30
0.0
 10
210.9802818647475
 20
516.9394851837601
 30
0.0
 10
211.2762107859823
 20
517.4792190103511
 30
0.0
  0
SPLINE
  5
134
330
1F
100
AcDbEntity
  8
0
  6
Continuous
 62
     8
370
     0
100
AcDbSpline
210
0.0
220
0.0
230
1.0
 70
     8
 71
     3
 72
     8
 73
     4
 74
     0
 42
0.00000001
 43
0.00000001
 12
1.0
 22
0.0
 32
0.0
 13
1.0
 23
0.0
 33
0.0
 40
0.0
 40
0.0
 40
0.0
 40
0.0
 40
1.0
 40
1.0
 40
1.0
 40
1.0
 10
209.3378057591941
 20
513.9785592873923
 30
0.0
 10
209.6436148216413
 20
514.5980137157637
 30
0.0
 10
209.9942773077466
 20
515.1848183840975
 30
0.0
 10
210.3277222601307
 20
515.7669119154006
 30
0.0
  0
SPLINE
  5
135
330
1F
100
AcDbEntity
  8
0
  6
Continuous
 62
     8
370
     0
100
AcDbSpline
210
0.0
220
0.0
230
1.0
 70
     8
 71
     3
 72
     8
 73
     4
 74
     0
 42
0.00000001
 43
0.00000001
 12
1.0
 22
0.0
 32
0.0
 13
1.0
 23
0.0
 33
0.0
 40
0.0
 40
0.0
 40
0.0
 40
0.0
 40
1.0
 40
1.0
 40
1.0
 40
1.0
 10
209.0397105341855
 20
518.7334145980486
 30
0.0
 10
208.728924873609
 20
518.177373778056
 30
0.0
 10
208.3957689974174
 20
517.591044964409
 30
0.0
 10
208.057911255008
 20
516.9576555737567
 30
0.0
  0
SPLINE
  5
136
330
1F
100
AcDbEntity
  8
0
  6
Continuous
 62
     8
370
     0
100
AcDbSpline
210
0.0
220
0.0
230
1.0
 70
     8
 71
     3
 72
    12
 73
     8
 74
     0
 42
0.00000001
 43
0.00000001
 12
1.0
 22
0.0
 32
0.0
 13
1.0
 23
0.0
 33
0.0
 40
0.0
 40
0.0
 40
0.0
 40
0.0
 40
0.2500000000000029
 40
0.2500000000000029
 40
0.5000000000000059
 40
0.5000000000000059
 40
1.0
 40
1.0
 40
1.0
 40
1.0
 10
210.4786743645679
 20
521.3327580613126
 30
0.0
 10
210.3937785732084
 20
521.1795849051523
 30
0.0
 10
210.2991189027908
 20
521.0089242574008
 30
0.0
 10
210.0909125227737
 20
520.6331490157805
 30
0.0
 10
209.9767873117234
 20
520.4269791402613
 30
0.0
 10
209.6138121928225
 20
519.7694856190865
 30
0.0
 10
209.343189903865
 20
519.276383399294
 30
0.0
 10
209.0397105341855
 20
518.7334145980486
 30
0.0
  0
SPLINE
  5
137
330
1F
100
AcDbEntity
  8
0
  6
Continuous
 62
     8
370
     0
100
AcDbSpline
210
0.0
220
0.0
230
1.0
 70
     8
 71
     3
 72
     8
 73
     4
 74
     0
 42
0.00000001
 43
0.00000001
 12
1.0
 22
0.0
 32
0.0
 13
1.0
 23
0.0
 33
0.0
 40
0.0
 40
0.0
 40
0.0
 40
0.0
 40
1.0
 40
1.0
 40
1.0
 40
1.0
 10
210.833342395561
 20
521.9731977522736
 30
0.0
 10
210.7514274477493
 20
521.8252109718052
 30
0.0
 10
210.633256120172
 20
521.6116620565704
 30
0.0
 10
210.4786743645678
 20
521.3327580613126
 30
0.0
  0
SPLINE
  5
138
330
1F
100
AcDbEntity
  8
0
  6
Continuous
 62
     8
370
     0
100
AcDbSpline
210
0.0
220
0.0
230
1.0
 70
     8
 71
     3
 72
     8
 73
     4
 74
     0
 42
0.00000001
 43
0.00000001
 12
1.0
 22
0.0
 32
0.0
 13
1.0
 23
0.0
 33
0.0
 40
0.0
 40
0.0
 40
0.0
 40
0.0
 40
1.0
 40
1.0
 40
1.0
 40
1.0
 10
210.9645743882279
 20
522.2102212964115
 30
0.0
 10
210.9643003300711
 20
522.2097261443931
 30
0.0
 10
210.9203188308449
 20
522.1303285687868
 30
0.0
 10
210.8333423955609
 20
521.9731977522737
 30
0.0
  0
SPLINE
  5
139
330
1F
100
AcDbEntity
  8
0
  6
Continuous
 62
     8
370
     0
100
AcDbSpline
210
0.0
220
0.0
230
1.0
 70
     8
 71
     3
 72
    10
 73
     6
 74
     0
 42
0.00000001
 43
0.00000001
 12
1.0
 22
0.0
 32
0.0
 13
1.0
 23
0.0
 33
0.0
 40
0.0
 40
0.0
 40
0.0
 40
0.0
 40
0.5
 40
0.5
 40
1.0
 40
1.0
 40
1.0
 40
1.0
 10
208.057911255008
 20
516.9576555737567
 30
0.0
 10
207.9043387791706
 20
516.669749852852
 30
0.0
 10
207.7516315816852
 20
516.3780567073848
 30
0.0
 10
207.434814736784
 20
515.7961481977326
 30
0.0
 10
207.2699204757595
 20
515.5042456301478
 30
0.0
 10
207.0948017105603
 20
515.2203635235084
 30
0.0
  0
SPLINE
  5
13A
330
1F
100
AcDbEntity
  8
0
  6
Continuous
 62
     8
370
     0
100
AcDbSpline
210
0.0
220
0.0
230
1.0
 70
     8
 71
     3
 72
    15
 73
    11
 74
     0
 42
0.00000001
 43
0.00000001
 12
1.0
 22
0.0
 32
0.0
 13
1.0
 23
0.0
 33
0.0
 40
0.0
 40
0.0
 40
0.0
 40
0.0
 40
0.2395051311704909
 40
0.3568305734398146
 40
0.4723002951371802
 40
0.5863160760195794
 40
0.6998462988334142
 40
0.8132627130863193
 40
0.9279948398884508
 40
1.0
 40
1.0
 40
1.0
 40
1.0
 10
153.2644764521087
 20
462.3324613478403
 30
0.0
 10
154.6095000486707
 20
463.163175579244
 30
0.0
 10
156.6134050961564
 20
464.4008285435365
 30
0.0
 10
159.7386864633221
 20
465.5130665823916
 30
0.0
 10
162.1518322460906
 20
466.1157400340131
 30
0.0
 10
164.6391090639599
 20
466.4470971822137
 30
0.0
 10
167.1525284829587
 20
466.5155383338366
 30
0.0
 10
169.6508577762079
 20
466.2989471675727
 30
0.0
 10
171.8028769216417
 20
465.9109263111649
 30
0.0
 10
173.0537030083471
 20
465.5029045701809
 30
0.0
 10
173.5360166058803
 20
465.345572998784
 30
0.0
  0
LWPOLYLINE
  5
13B
330
1F
100
AcDbEntity
  8
0
  6
Continuous
 62
     8
370
     0
100
AcDbPolyline
 90
       46
 70
   128
 43
0.0
 10
185.2698824369
 20
456.7003439572
 10
186.633208301
 20
454.772111347
 10
187.9482525402
 20
452.104825845
 10
188.9475467616
 20
449.2137621548
 10
189.6332888865
 20
445.9333832767
 10
189.8099943065
 20
444.4868605044
 10
189.9431548082
 20
442.7632953432
 10
190.0222538971
 20
440.5962418225
 10
190.0251819753
 20
438.1236772444
 10
189.9502812886
 20
435.8990009334
 10
189.8179142737
 20
434.1104592588
 10
189.4214372151
 20
431.3061389532
 10
188.6214646512
 20
428.1875792351
 10
187.5098212623
 20
425.3839257565
 10
186.0842327588
 20
422.791358402
 10
183.3101282828
 20
419.2285168376
 10
179.7834089958
 20
416.1868396607
 10
177.7497283184
 20
414.9125892129
 10
175.5599337631
 20
413.8390276041
 10
173.2387291268
 20
412.9944819417
 10
170.8173146472
 20
412.3958762195
 10
168.3563551634
 20
412.0616208222
 10
165.8582429519
 20
411.9954484906
 10
163.3539386094
 20
412.1996875313
 10
160.9011506663
 20
412.6710410621
 10
158.525211271
 20
413.3999686148
 10
156.2646818348
 20
414.3668863383
 10
152.202251833
 20
416.9186766651
 10
148.870100733
 20
420.1113324073
 10
146.2890147232
 20
423.7901944127
 10
144.990657922
 20
426.4589663055
 10
144.0017404967
 20
429.3659407106
 10
143.3209511452
 20
432.707522383
 10
143.1452552789
 20
434.2136647012
 10
143.0165632629
 20
436.00906091
 10
142.9454493337
 20
438.2499794867
 10
142.9526018911
 20
440.7122250107
 10
143.034614157
 20
442.8489919212
 10
143.1719916874
 20
444.572564533
 10
143.577459734
 20
447.3135288265
 10
144.3884833717
 20
450.3996561673
 10
145.5050832593
 20
453.1779031661
 10
146.935615223
 20
455.755103698
 10
149.7243917548
 20
459.3025858906
 10
153.2644764521
 20
462.3324613478
 10
153.2644764521
 20
462.3324613478
  0
LINE
  5
13C
330
1F
100
AcDbEntity
  8
0
  6
Continuous
 62
     8
370
     0
100
AcDbLine
 10
142.4870821648
 20
479.9480329659
 30
0.0
 11
184.5895326697
 21
479.9480329659
 31
0.0
  0
LINE
  5
13D
330
1F
100
AcDbEntity
  8
0
  6
Continuous
 62
     8
370
     0
100
AcDbLine
 10
145.5291486346
 20
485.9793524649
 30
0.0
 11
187.4450161123
 21
485.9793524649
 31
0.0
  0
LINE
  5
13E
330
1F
100
AcDbEntity
  8
0
  6
Continuous
 62
     7
370
    15
100
AcDbLine
 10
142.6870823734
 20
471.2308712871
 30
0.0
 11
179.5635503948
 21
471.2308712871
 31
0.0
  0
LINE
  5
13F
330
1F
100
AcDbEntity
  8
0
  6
Continuous
 62
     7
370
    15
100
AcDbLine
 10
190.2870823734
 20
471.2308712871
 30
0.0
 11
188.7768051244
 21
471.2308712871
 31
0.0
  0
LINE
  5
140
330
1F
100
AcDbEntity
  8
0
  6
Continuous
 62
     7
370
    15
100
AcDbLine
 10
155.487082433
 20
303.0492158759
 30
0.0
 11
155.487082433
 21
93.4487672675
 31
0.0
  0
LINE
  5
141
330
1F
100
AcDbEntity
  8
0
  6
Continuous
 62
     7
370
    15
100
AcDbLine
 10
177.4870823138
 20
93.4487672675
 30
0.0
 11
177.4870823138
 21
303.0492158759
 31
0.0
  0
LINE
  5
142
330
1F
100
AcDbEntity
  8
0
  6
Continuous
 62
     7
370
    15
100
AcDbLine
 10
155.487082433
 20
93.4487672675
 30
0.0
 11
155.487082433
 21
89.7010805238
 31
0.0
  0
LINE
  5
143
330
1F
100
AcDbEntity
  8
0
  6
Continuous
 62
     7
370
    15
100
AcDbLine
 10
177.4870823138
 20
89.7010805238
 30
0.0
 11
177.4870823138
 21
93.4487672675
 31
0.0
  0
SPLINE
  5
144
330
1F
100
AcDbEntity
  8
0
  6
Continuous
 62
     7
370
    15
100
AcDbSpline
210
0.0
220
0.0
230
1.0
 70
     8
 71
     3
 72
     9
 73
     5
 74
     0
 42
0.00000001
 43
0.00000001
 12
1.0
 22
0.0
 32
0.0
 13
1.0
 23
0.0
 33
0.0
 40
0.0
 40
0.0
 40
0.0
 40
0.0
 40
0.58811258913496
 40
1.0
 40
1.0
 40
1.0
 40
1.0
 10
178.3127668314541
 20
91.32904728534521
 30
0.0
 10
178.2129301853188
 20
91.8907822244969
 30
0.0
 10
178.0431724756903
 20
92.84593086360019
 30
0.0
 10
177.6493095107124
 20
93.73067518520925
 30
0.0
 10
177.4870823138321
 20
94.09509023311438
 30
0.0
  0
SPLINE
  5
145
330
1F
100
AcDbEntity
  8
0
  6
Continuous
 62
     7
370
    15
100
AcDbSpline
210
0.0
220
0.0
230
1.0
 70
     8
 71
     3
 72
     9
 73
     5
 74
     0
 42
0.00000001
 43
0.00000001
 12
1.0
 22
0.0
 32
0.0
 13
1.0
 23
0.0
 33
0.0
 40
0.0
 40
0.0
 40
0.0
 40
0.0
 40
0.0655389273349934
 40
1.0
 40
1.0
 40
1.0
 40
1.0
 10
155.4870824330414
 20
94.16935762050451
 30
0.0
 10
155.4706629330011
 20
94.13839623702258
 30
0.0
 10
155.2201324359677
 20
93.66598411889774
 30
0.0
 10
155.089484856781
 20
93.14274851894768
 30
0.0
 10
154.9673997797931
 20
92.65380521896185
 30
0.0
  0
LINE
  5
146
330
1F
100
AcDbEntity
  8
0
  6
Continuous
 62
     7
370
    15
100
AcDbLine
 10
154.4870822691
 20
89.3957706321
 30
0.0
 11
154.4870822691
 21
84.340730511
 31
0.0
  0
LINE
  5
147
330
1F
100
AcDbEntity
  8
0
  6
Continuous
 62
     7
370
    15
100
AcDbLine
 10
178.4870824777
 20
84.340730511
 30
0.0
 11
178.4870824777
 21
89.3957706321
 31
0.0
  0
SPLINE
  5
148
330
1F
100
AcDbEntity
  8
0
  6
Continuous
 62
     7
370
    15
100
AcDbSpline
210
0.0
220
0.0
230
1.0
 70
     8
 71
     3
 72
     9
 73
     5
 74
     0
 42
0.00000001
 43
0.00000001
 12
1.0
 22
0.0
 32
0.0
 13
1.0
 23
0.0
 33
0.0
 40
0.0
 40
0.0
 40
0.0
 40
0.0
 40
0.5318645416863855
 40
1.0
 40
1.0
 40
1.0
 40
1.0
 10
206.9791886025036
 20
209.5293568599492
 30
0.0
 10
207.3925945093752
 20
209.525555715692
 30
0.0
 10
208.1698711925714
 20
209.5184088879579
 30
0.0
 10
208.9331568376676
 20
209.580862194566
 30
0.0
 10
209.2904779129589
 20
209.6100988018781
 30
0.0
  0
SPLINE
  5
149
330
1F
100
AcDbEntity
  8
0
  6
Continuous
 62
     7
370
    15
100
AcDbSpline
210
0.0
220
0.0
230
1.0
 70
     8
 71
     3
 72
     9
 73
     5
 74
     0
 42
0.00000001
 43
0.00000001
 12
1.0
 22
0.0
 32
0.0
 13
1.0
 23
0.0
 33
0.0
 40
0.0
 40
0.0
 40
0.0
 40
0.0
 40
0.4887725233516655
 40
1.0
 40
1.0
 40
1.0
 40
1.0
 10
209.3822988682354
 20
225.582161747244
 30
0.0
 10
208.994355420453
 20
225.6141763380778
 30
0.0
 10
208.2006458127154
 20
225.6796763187523
 30
0.0
 10
207.3924548741991
 20
225.672704176052
 30
0.0
 10
206.9792854600513
 20
225.6691398251325
 30
0.0
  0
SPLINE
  5
14A
330
1F
100
AcDbEntity
  8
0
  6
Continuous
 62
     7
370
    15
100
AcDbSpline
210
0.0
220
0.0
230
1.0
 70
     8
 71
     3
 72
     9
 73
     5
 74
     0
 42
0.00000001
 43
0.00000001
 12
1.0
 22
0.0
 32
0.0
 13
1.0
 23
0.0
 33
0.0
 40
0.0
 40
0.0
 40
0.0
 40
0.0
 40
0.2696059700906718
 40
1.0
 40
1.0
 40
1.0
 40
1.0
 10
214.5076314919556
 20
217.5938354957372
 30
0.0
 10
214.5091430565481
 20
217.7462115490908
 30
0.0
 10
214.5147496259872
 20
218.3113921098268
 30
0.0
 10
214.4438759497799
 20
218.8659429308731
 30
0.0
 10
214.3921102398002
 20
219.2709835398466
 30
0.0
  0
SPLINE
  5
14B
330
1F
100
AcDbEntity
  8
0
  6
Continuous
 62
     7
370
    15
100
AcDbSpline
210
0.0
220
0.0
230
1.0
 70
     8
 71
     3
 72
     9
 73
     5
 74
     0
 42
0.00000001
 43
0.00000001
 12
1.0
 22
0.0
 32
0.0
 13
1.0
 23
0.0
 33
0.0
 40
0.0
 40
0.0
 40
0.0
 40
0.0
 40
0.2725585212634209
 40
1.0
 40
1.0
 40
1.0
 40
1.0
 10
214.4004921429718
 20
215.9228565323621
 30
0.0
 10
214.4212810743297
 20
216.0717958529554
 30
0.0
 10
214.4975543504745
 20
216.6182448133579
 30
0.0
 10
214.4978326775138
 20
217.1821556201739
 30
0.0
 10
214.4980351441467
 20
217.5923677313596
 30
0.0
  0
SPLINE
  5
14C
330
1F
100
AcDbEntity
  8
0
  6
Continuous
 62
     7
370
    15
100
AcDbSpline
210
0.0
220
0.0
230
1.0
 70
     8
 71
     3
 72
     9
 73
     5
 74
     0
 42
0.00000001
 43
0.00000001
 12
1.0
 22
0.0
 32
0.0
 13
1.0
 23
0.0
 33
0.0
 40
0.0
 40
0.0
 40
0.0
 40
0.0
 40
0.3033314950385408
 40
1.0
 40
1.0
 40
1.0
 40
1.0
 10
214.1007962637508
 20
214.3998684513837
 30
0.0
 10
214.1423873672208
 20
214.547448473759
 30
0.0
 10
214.2795017260995
 20
215.0339789685779
 30
0.0
 10
214.3432285318163
 20
215.5604656710329
 30
0.0
 10
214.3876249902809
 20
215.9272523749143
 30
0.0
  0
SPLINE
  5
14D
330
1F
100
AcDbEntity
  8
0
  6
Continuous
 62
     7
370
    15
100
AcDbSpline
210
0.0
220
0.0
230
1.0
 70
     8
 71
     3
 72
     9
 73
     5
 74
     0
 42
0.00000001
 43
0.00000001
 12
1.0
 22
0.0
 32
0.0
 13
1.0
 23
0.0
 33
0.0
 40
0.0
 40
0.0
 40
0.0
 40
0.0
 40
0.2665465471070736
 40
0.9999999999999999
 40
0.9999999999999999
 40
0.9999999999999999
 40
0.9999999999999999
 10
214.400257449683
 20
219.276243649748
 30
0.0
 10
214.3822238878359
 20
219.4279422958653
 30
0.0
 10
214.3145675552262
 20
219.9970685808005
 30
0.0
 10
214.16655814315
 20
220.5272947386489
 30
0.0
 10
214.0580001288021
 20
220.9161909449369
 30
0.0
  0
SPLINE
  5
14E
330
1F
100
AcDbEntity
  8
0
  6
Continuous
 62
     7
370
    15
100
AcDbSpline
210
0.0
220
0.0
230
1.0
 70
     8
 71
     3
 72
    11
 73
     7
 74
     0
 42
0.00000001
 43
0.00000001
 12
1.0
 22
0.0
 32
0.0
 13
1.0
 23
0.0
 33
0.0
 40
0.0
 40
0.0
 40
0.0
 40
0.0
 40
0.0716129391138019
 40
0.4286613142701649
 40
0.8401362923238428
 40
1.0
 40
1.0
 40
1.0
 40
1.0
 10
212.5967550092304
 20
211.3520221936971
 30
0.0
 10
212.6499357783354
 20
211.4104505013137
 30
0.0
 10
212.9682656592275
 20
211.7601911409729
 30
0.0
 10
213.4365585582495
 20
212.5747016390918
 30
0.0
 10
213.8850645662686
 20
213.5452393491916
 30
0.0
 10
214.0423831396619
 20
214.2224625230882
 30
0.0
 10
214.0864017420376
 20
214.4119532931119
 30
0.0
  0
SPLINE
  5
14F
330
1F
100
AcDbEntity
  8
0
  6
Continuous
 62
     7
370
    15
100
AcDbSpline
210
0.0
220
0.0
230
1.0
 70
     8
 71
     3
 72
     9
 73
     5
 74
     0
 42
0.00000001
 43
0.00000001
 12
1.0
 22
0.0
 32
0.0
 13
1.0
 23
0.0
 33
0.0
 40
0.0
 40
0.0
 40
0.0
 40
0.0
 40
0.5300954868696015
 40
1.0
 40
1.0
 40
1.0
 40
1.0
 10
214.066236745652
 20
220.9253849613935
 30
0.0
 10
214.0226169572071
 20
221.0940952288879
 30
0.0
 10
213.9403302946616
 20
221.4123591486407
 30
0.0
 10
213.80675540327
 20
221.6936162123598
 30
0.0
 10
213.7439879589641
 20
221.8257801759511
 30
0.0
  0
SPLINE
  5
150
330
1F
100
AcDbEntity
  8
0
  6
Continuous
 62
     7
370
    15
100
AcDbSpline
210
0.0
220
0.0
230
1.0
 70
     8
 71
     3
 72
     9
 73
     5
 74
     0
 42
0.00000001
 43
0.00000001
 12
1.0
 22
0.0
 32
0.0
 13
1.0
 23
0.0
 33
0.0
 40
0.0
 40
0.0
 40
0.0
 40
0.0
 40
0.3523015095149145
 40
1.0
 40
1.0
 40
1.0
 40
1.0
 10
213.7589040213192
 20
221.8389453518659
 30
0.0
 10
213.7008586829858
 20
221.9935194533965
 30
0.0
 10
213.5360982809842
 20
222.4322746030505
 30
0.0
 10
213.2953796012662
 20
222.8092746700691
 30
0.0
 10
213.1394664757813
 20
223.0534570443898
 30
0.0
  0
SPLINE
  5
151
330
1F
100
AcDbEntity
  8
0
  6
Continuous
 62
     7
370
    15
100
AcDbSpline
210
0.0
220
0.0
230
1.0
 70
     8
 71
     3
 72
     9
 73
     5
 74
     0
 42
0.00000001
 43
0.00000001
 12
1.0
 22
0.0
 32
0.0
 13
1.0
 23
0.0
 33
0.0
 40
0.0
 40
0.0
 40
0.0
 40
0.0
 40
0.541167892372956
 40
1.0
 40
1.0
 40
1.0
 40
1.0
 10
213.1519685500229
 20
223.0678739178449
 30
0.0
 10
213.0650070175698
 20
223.2189662751431
 30
0.0
 10
212.904314682199
 20
223.4981631000612
 30
0.0
 10
212.6870893765592
 20
223.7303250050683
 30
0.0
 10
212.5874194317425
 20
223.8368483412534
 30
0.0
  0
SPLINE
  5
152
330
1F
100
AcDbEntity
  8
0
  6
Continuous
 62
     7
370
    15
100
AcDbSpline
210
0.0
220
0.0
230
1.0
 70
     8
 71
     3
 72
    10
 73
     6
 74
     0
 42
0.00000001
 43
0.00000001
 12
1.0
 22
0.0
 32
0.0
 13
1.0
 23
0.0
 33
0.0
 40
0.0
 40
0.0
 40
0.0
 40
0.0
 40
0.3157982418152693
 40
0.843676361793176
 40
1.0
 40
1.0
 40
1.0
 40
1.0
 10
211.1038560979927
 20
210.146682165888
 30
0.0
 10
211.2898764197071
 20
210.2390796032059
 30
0.0
 10
211.7868422905159
 20
210.485925606234
 30
0.0
 10
212.2750944660406
 20
210.9341224672659
 30
0.0
 10
212.537265107944
 20
211.2804617835654
 30
0.0
 10
212.5971647911632
 20
211.3595919835836
 30
0.0
  0
SPLINE
  5
153
330
1F
100
AcDbEntity
  8
0
  6
Continuous
 62
     7
370
    15
100
AcDbSpline
210
0.0
220
0.0
230
1.0
 70
     8
 71
     3
 72
    10
 73
     6
 74
     0
 42
0.00000001
 43
0.00000001
 12
1.0
 22
0.0
 32
0.0
 13
1.0
 23
0.0
 33
0.0
 40
0.0
 40
0.0
 40
0.0
 40
0.0
 40
0.1034978524630283
 40
0.6627411020436276
 40
1.0
 40
1.0
 40
1.0
 40
1.0
 10
212.602428626355
 20
223.8430770266324
 30
0.0
 10
212.5628014768612
 20
223.8955429834456
 30
0.0
 10
212.3090518569286
 20
224.2315049885561
 30
0.0
 10
211.8270636929427
 20
224.6865350156054
 30
0.0
 10
211.3005520762822
 20
224.9527419144816
 30
0.0
 10
211.1024814658726
 20
225.0528874027997
 30
0.0
  0
SPLINE
  5
154
330
1F
100
AcDbEntity
  8
0
  6
Continuous
 62
     7
370
    15
100
AcDbSpline
210
0.0
220
0.0
230
1.0
 70
     8
 71
     3
 72
    10
 73
     6
 74
     0
 42
0.00000001
 43
0.00000001
 12
1.0
 22
0.0
 32
0.0
 13
1.0
 23
0.0
 33
0.0
 40
0.0
 40
0.0
 40
0.0
 40
0.0
 40
0.1229394994015849
 40
0.8001657356551758
 40
1.0
 40
1.0
 40
1.0
 40
1.0
 10
209.701299201783
 20
209.6629383194715
 30
0.0
 10
209.7539628318346
 20
209.6685056036576
 30
0.0
 10
210.0967300668376
 20
209.7047409069419
 30
0.0
 10
210.6254164487783
 20
209.838505850426
 30
0.0
 10
211.0136635041489
 20
210.0829358251335
 30
0.0
 10
211.1021238380039
 20
210.1386280882627
 30
0.0
  0
SPLINE
  5
155
330
1F
100
AcDbEntity
  8
0
  6
Continuous
 62
     7
370
    15
100
AcDbSpline
210
0.0
220
0.0
230
1.0
 70
     8
 71
     3
 72
    10
 73
     6
 74
     0
 42
0.00000001
 43
0.00000001
 12
1.0
 22
0.0
 32
0.0
 13
1.0
 23
0.0
 33
0.0
 40
0.0
 40
0.0
 40
0.0
 40
0.0
 40
0.2548486406089423
 40
0.8883685418300714
 40
1.0
 40
1.0
 40
1.0
 40
1.0
 10
211.1035245471561
 20
225.059019230631
 30
0.0
 10
210.9860298058638
 20
225.1283266857486
 30
0.0
 10
210.5764587296943
 20
225.3699232769394
 30
0.0
 10
210.0448618275252
 20
225.5026824963798
 30
0.0
 10
209.7183222989578
 20
225.5367957400055
 30
0.0
 10
209.6694032662475
 20
225.5419062602788
 30
0.0
  0
SPLINE
  5
156
330
1F
100
AcDbEntity
  8
0
  6
Continuous
 62
     7
370
    15
100
AcDbSpline
210
0.0
220
0.0
230
1.0
 70
     8
 71
     3
 72
    11
 73
     7
 74
     0
 42
0.00000001
 43
0.00000001
 12
1.0
 22
0.0
 32
0.0
 13
1.0
 23
0.0
 33
0.0
 40
0.0
 40
0.0
 40
0.0
 40
0.0
 40
0.0981194941588608
 40
0.326408306286354
 40
0.6268106605359791
 40
1.0
 40
1.0
 40
1.0
 40
1.0
 10
177.4870823138321
 20
208.6131813156873
 30
0.0
 10
177.7688541677938
 20
208.6345658519346
 30
0.0
 10
178.7062078955036
 20
208.70570452134
 30
0.0
 10
180.4167212829468
 20
208.8617018974068
 30
0.0
 10
182.9163116604713
 20
209.1192160276458
 30
0.0
 10
184.7667979178949
 20
209.3982536196283
 30
0.0
 10
185.7920209878052
 20
209.5528485405713
 30
0.0
  0
SPLINE
  5
157
330
1F
100
AcDbEntity
  8
0
  6
Continuous
 62
     7
370
    15
100
AcDbSpline
210
0.0
220
0.0
230
1.0
 70
     8
 71
     3
 72
    14
 73
    10
 74
     0
 42
0.00000001
 43
0.00000001
 12
1.0
 22
0.0
 32
0.0
 13
1.0
 23
0.0
 33
0.0
 40
0.0
 40
0.0
 40
0.0
 40
0.0
 40
0.1889043276877815
 40
0.2803594344379732
 40
0.3745288995750042
 40
0.475486470188573
 40
0.5863737782047931
 40
0.8414212966266187
 40
0.9999999999999999
 40
0.9999999999999999
 40
0.9999999999999999
 40
0.9999999999999999
 10
189.4870731049145
 20
292.7128503251344
 30
0.0
 10
189.4897190716793
 20
293.0285806759712
 30
0.0
 10
189.4936460423041
 20
293.4971669898952
 30
0.0
 10
189.5135553134588
 20
294.0779547120109
 30
0.0
 10
189.5291441614839
 20
294.4715627396739
 30
0.0
 10
189.5429870100895
 20
294.8185867575869
 30
0.0
 10
189.5527668987793
 20
295.2158319600485
 30
0.0
 10
189.5463985316023
 20
295.4849219150943
 30
0.0
 10
189.5023402341499
 20
295.4670464562616
 30
0.0
 10
189.4854488783443
 20
295.4601932469279
 30
0.0
  0
SPLINE
  5
158
330
1F
100
AcDbEntity
  8
0
  6
Continuous
 62
     7
370
    15
100
AcDbSpline
210
0.0
220
0.0
230
1.0
 70
     8
 71
     3
 72
    16
 73
    12
 74
     0
 42
0.00000001
 43
0.00000001
 12
1.0
 22
0.0
 32
0.0
 13
1.0
 23
0.0
 33
0.0
 40
0.0
 40
0.0
 40
0.0
 40
0.0
 40
0.0371259628375066
 40
0.2495136760366143
 40
0.3382685904080775
 40
0.4148785614611901
 40
0.4822223929148521
 40
0.5445773687675048
 40
0.6066037658592458
 40
0.6721557585180561
 40
0.9999999999999999
 40
0.9999999999999999
 40
0.9999999999999999
 40
0.9999999999999999
 10
143.2874067687357
 20
296.6068431887299
 30
0.0
 10
143.2840735348914
 20
296.613989217363
 30
0.0
 10
143.2616717608761
 20
296.6620157663609
 30
0.0
 10
143.2731097244467
 20
296.5121258779282
 30
0.0
 10
143.2984496173787
 20
296.2353419010749
 30
0.0
 10
143.3251702354562
 20
295.9772422617648
 30
0.0
 10
143.3556992785043
 20
295.6737402248278
 30
0.0
 10
143.387199513175
 20
295.3306266729453
 30
0.0
 10
143.4164157078786
 20
294.958665929107
 30
0.0
 10
143.4741778199521
 20
294.054826279348
 30
0.0
 10
143.4812165058406
 20
293.3269226046341
 30
0.0
 10
143.4870823287332
 20
292.7203102189571
 30
0.0
  0
LINE
  5
159
330
1F
100
AcDbEntity
  8
0
  6
Continuous
 62
     7
370
    15
100
AcDbLine
 10
143.5355204158
 20
237.3715283501
 30
0.0
 11
143.5355204158
 21
212.6941474307
 31
0.0
  0
LINE
  5
15A
330
1F
100
AcDbEntity
  8
0
  6
Continuous
 62
     7
370
    15
100
AcDbLine
 10
143.4870823287
 20
292.8385397572
 30
0.0
 11
143.4870823287
 21
250.2492124367
 31
0.0
  0
LINE
  5
15B
330
1F
100
AcDbEntity
  8
0
  6
Continuous
 62
     7
370
    15
100
AcDbLine
 10
189.4870824181
 20
250.2492124367
 30
0.0
 11
189.4870824181
 21
292.8385397572
 31
0.0
  0
ARC
  5
15C
330
1F
100
AcDbEntity
  8
0
  6
Continuous
 62
     7
370
    15
100
AcDbCircle
 10
189.0870823734
 20
250.5492158759
 30
0.0
 40
0.5000006344811011
100
AcDbArc
 50
270.0000000001
 51
323.1298539429
  0
ARC
  5
15D
330
1F
100
AcDbEntity
  8
0
  6
Continuous
 62
     7
370
    15
100
AcDbCircle
 10
143.8870823734
 20
250.5492158759
 30
0.0
 40
0.500000634481192
100
AcDbArc
 50
216.8701460571
 51
269.9999999999
  0
LINE
  5
15E
330
1F
100
AcDbEntity
  8
0
  6
Continuous
 62
     7
370
    15
100
AcDbLine
 10
180.2629730665
 20
236.6987260211
 30
0.0
 11
180.0977909007
 21
236.8634434569
 31
0.0
  0
LINE
  5
15F
330
1F
100
AcDbEntity
  8
0
  6
Continuous
 62
     7
370
    15
100
AcDbLine
 10
177.7973207646
 20
237.8492148745
 30
0.0
 11
177.6833445766
 21
237.8492148745
 31
0.0
  0
LINE
  5
160
330
1F
100
AcDbEntity
  8
0
  6
Continuous
 62
     7
370
    15
100
AcDbLine
 10
188.4870822542
 20
248.0492161739
 30
0.0
 11
188.4870822542
 21
250.0492165017
 31
0.0
  0
LINE
  5
161
330
1F
100
AcDbEntity
  8
0
  6
Continuous
 62
     7
370
    15
100
AcDbLine
 10
144.4870824926
 20
250.0492165017
 30
0.0
 11
144.4870824926
 21
248.0492161739
 31
0.0
  0
ARC
  5
162
330
1F
100
AcDbEntity
  8
0
  6
Continuous
 62
     7
370
    15
100
AcDbCircle
 10
166.4870823734
 20
247.9757499708
 30
0.0
 40
22.00000000000002
100
AcDbArc
 50
339.1604878423
 51
0.1972400509
  0
ARC
  5
163
330
1F
100
AcDbEntity
  8
0
  6
Continuous
 62
     7
370
    15
100
AcDbCircle
 10
166.4870823734
 20
247.9757499708
 30
0.0
 40
22.0
100
AcDbArc
 50
179.8014498138
 51
201.4408542378
  0
LINE
  5
164
330
1F
100
AcDbEntity
  8
0
  6
Continuous
 62
     7
370
    15
100
AcDbLine
 10
189.5355205052
 20
225.6492169726
 30
0.0
 11
189.5355205052
 21
240.1492165554
 31
0.0
  0
ARC
  5
165
330
1F
100
AcDbEntity
  8
0
  6
Continuous
 62
     7
370
    15
100
AcDbCircle
 10
146.5355202238
 20
212.6941447275
 30
0.0
 40
3.0
100
AcDbArc
 50
180.0
 51
261.1727494786
  0
ARC
  5
166
330
1F
100
AcDbEntity
  8
0
  6
Continuous
 62
     7
370
    15
100
AcDbCircle
 10
166.5355202238
 20
341.4811054807
 30
0.0
 40
133.3306612430439
100
AcDbArc
 50
261.1727494786
 51
265.2467379963
  0
ARC
  5
167
330
1F
100
AcDbEntity
  8
0
  6
Continuous
 62
     7
370
    15
100
AcDbCircle
 10
166.4870823734
 20
303.0492158759
 30
0.0
 40
11.00000000000003
100
AcDbArc
 50
0.0
 51
180.0
  0
ARC
  5
168
330
1F
100
AcDbEntity
  8
0
  6
Continuous
 62
     7
370
    15
100
AcDbCircle
 10
166.4646882176
 20
89.7205306682
 30
0.0
 40
10.97762301549397
100
AcDbArc
 50
180.1015166734
 51
270.1168824527
  0
ARC
  5
169
330
1F
100
AcDbEntity
  8
0
  6
Continuous
 62
     7
370
    15
100
AcDbCircle
 10
166.5077039316
 20
89.7223100355
 30
0.0
 40
10.97939890672646
100
AcDbArc
 50
269.8923867369
 51
359.8892141369
  0
ARC
  5
16A
330
1F
100
AcDbEntity
  8
0
  6
Continuous
 62
     7
370
    15
100
AcDbCircle
 10
166.4023591741
 20
89.4133178327
 30
0.0
 40
11.91327200575575
100
AcDbArc
 50
156.3807659626
 51
182.469762774
  0
ARC
  5
16B
330
1F
100
AcDbEntity
  8
0
  6
Continuous
 62
     7
370
    15
100
AcDbCircle
 10
166.4790392982
 20
89.4324741393
 30
0.0
 40
11.99071684303161
100
AcDbArc
 50
182.54542407
 51
23.3577670099
  0
ARC
  5
16C
330
1F
100
AcDbEntity
  8
0
  6
Continuous
 62
     7
370
    15
100
AcDbCircle
 10
166.4630411808
 20
89.4138846119
 30
0.0
 40
11.97357478364419
100
AcDbArc
 50
173.7758753297
 51
272.5845687438
  0
ARC
  5
16D
330
1F
100
AcDbEntity
  8
0
  6
Continuous
 62
     7
370
    15
100
AcDbCircle
 10
166.5171964844
 20
89.4105290292
 30
0.0
 40
11.96790213458359
100
AcDbArc
 50
272.3262900094
 51
6.2432467962
  0
ARC
  5
16E
330
1F
100
AcDbEntity
  8
0
  6
Continuous
 62
     7
370
    15
100
AcDbCircle
 10
166.4646208751
 20
84.3629040724
 30
0.0
 40
11.97755913049021
100
AcDbArc
 50
180.1060693751
 51
272.576144118
  0
ARC
  5
16F
330
1F
100
AcDbEntity
  8
0
  6
Continuous
 62
     7
370
    15
100
AcDbCircle
 10
166.5118671739
 20
84.3626105582
 30
0.0
 40
11.97523529249861
100
AcDbArc
 50
272.3503841409
 51
359.8953143693
  0
SPLINE
  5
170
330
1F
100
AcDbEntity
  8
0
  6
Continuous
 62
     7
370
    15
100
AcDbSpline
210
0.0
220
0.0
230
1.0
 70
     8
 71
     3
 72
    12
 73
     8
 74
     0
 42
0.00000001
 43
0.00000001
 12
1.0
 22
0.0
 32
0.0
 13
1.0
 23
0.0
 33
0.0
 40
0.895283275631381
 40
0.895283275631381
 40
0.895283275631381
 40
0.895283275631381
 40
0.9214624567598514
 40
0.947641637839901
 40
0.9738208189199504
 40
0.9912736063066502
 40
1.0
 40
1.0
 40
1.0
 40
1.0
 10
183.061730154131
 20
225.588793709789
 30
0.0
 10
183.1714694064636
 20
225.6006427634959
 30
0.0
 10
183.3747487945913
 20
225.6191830068126
 30
0.0
 10
183.6552377622288
 20
225.6370353433928
 30
0.0
 10
183.8925781455495
 20
225.6459343400429
 30
0.0
 10
184.0673429266285
 20
225.6488543473568
 30
0.0
 10
184.1543962771454
 20
225.6492158743937
 30
0.0
 10
184.1834132290874
 20
225.6492158746388
 30
0.0
  0
LINE
  5
171
330
1F
100
AcDbEntity
  8
0
  6
Continuous
 62
     7
370
    15
100
AcDbLine
 10
209.3378040009
 20
209.6096219647
 30
0.0
 11
209.3849102967
 21
209.6150310862
 31
0.0
  0
LINE
  5
172
330
1F
100
AcDbEntity
  8
0
  6
Continuous
 62
     7
370
    15
100
AcDbLine
 10
209.3377779239
 20
209.6096219647
 30
0.0
 11
209.3378040009
 21
209.6096219647
 31
0.0
  0
LWPOLYLINE
  5
173
330
1F
100
AcDbEntity
  8
0
  6
Continuous
 62
     7
370
    15
100
AcDbPolyline
 90
        4
 70
   128
 43
0.0
 10
209.2590103858
 20
209.6079753864
 10
209.3377518468
 20
209.6096145141
 10
209.3377779239
 20
209.6096219647
 10
209.3377779239
 20
209.6096219647
  0
LWPOLYLINE
  5
174
330
1F
100
AcDbEntity
  8
0
  6
Continuous
 62
     7
370
    15
100
AcDbPolyline
 90
        4
 70
   128
 43
0.0
 10
209.3824292534
 20
225.58463534
 10
209.3378040009
 20
225.5888076651
 10
209.3377779239
 20
225.5888151157
 10
209.3377779239
 20
225.5888151157
  0
ARC
  5
175
330
1F
100
AcDbEntity
  8
0
  6
Continuous
 62
     7
370
    15
100
AcDbCircle
 10
166.4870823734
 20
303.0492158759
 30
0.0
 40
11.95000000000002
100
AcDbArc
 50
336.9995950787
 51
203.0004049214
  0
ARC
  5
176
330
1F
100
AcDbEntity
  8
0
  6
Continuous
 62
     7
370
    15
100
AcDbCircle
 10
166.4870823734
 20
303.0492158759
 30
0.0
 40
24.0
100
AcDbArc
 50
90.0
 51
242.720387264
  0
ARC
  5
177
330
1F
100
AcDbEntity
  8
0
  6
Continuous
 62
     7
370
    15
100
AcDbCircle
 10
166.4870823734
 20
303.0492158759
 30
0.0
 40
24.0
100
AcDbArc
 50
297.279612736
 51
90.0
  0
SPLINE
  5
178
330
1F
100
AcDbEntity
  8
0
  6
Continuous
 62
     7
370
    15
100
AcDbSpline
210
0.0
220
0.0
230
1.0
 70
     8
 71
     3
 72
    10
 73
     6
 74
     0
 42
0.00000001
 43
0.00000001
 12
1.0
 22
0.0
 32
0.0
 13
1.0
 23
0.0
 33
0.0
 40
0.0
 40
0.0
 40
0.0
 40
0.0
 40
0.225599963028378
 40
0.6125989630587393
 40
1.0
 40
1.0
 40
1.0
 40
1.0
 10
177.4870823138321
 20
231.9770323264867
 30
0.0
 10
177.5368371175207
 20
231.983133009031
 30
0.0
 10
177.671942375242
 20
231.9996989328476
 30
0.0
 10
177.8936476309667
 20
232.011006047729
 30
0.0
 10
178.0653642376447
 20
232.0138175311249
 30
0.0
 10
178.1512671151126
 20
232.0152240026266
 30
0.0
  0
SPLINE
  5
179
330
1F
100
AcDbEntity
  8
0
  6
Continuous
 62
     7
370
    15
100
AcDbSpline
210
0.0
220
0.0
230
1.0
 70
     8
 71
     3
 72
    12
 73
     8
 74
     0
 42
0.00000001
 43
0.00000001
 12
1.0
 22
0.0
 32
0.0
 13
1.0
 23
0.0
 33
0.0
 40
0.0
 40
0.0
 40
0.0
 40
0.0
 40
0.2500000000000022
 40
0.2500000000000022
 40
0.5000000000000044
 40
0.5000000000000044
 40
1.0
 40
1.0
 40
1.0
 40
1.0
 10
178.151266677826
 20
232.0152216226849
 30
0.0
 10
178.3567976160836
 20
232.015209800322
 30
0.0
 10
178.5605078902165
 20
232.0042895579291
 30
0.0
 10
178.9654303739379
 20
231.9674820641947
 30
0.0
 10
179.1664266426949
 20
231.9403010080309
 30
0.0
 10
179.7634892829812
 20
231.823251527743
 30
0.0
 10
180.1538508000256
 20
231.699202768033
 30
0.0
 10
180.5399697053323
 20
231.5497346232468
 30
0.0
  0
SPLINE
  5
17A
330
1F
100
AcDbEntity
  8
0
  6
Continuous
 62
     7
370
    15
100
AcDbSpline
210
0.0
220
0.0
230
1.0
 70
     8
 71
     3
 72
    12
 73
     8
 74
     0
 42
0.00000001
 43
0.00000001
 12
1.0
 22
0.0
 32
0.0
 13
1.0
 23
0.0
 33
0.0
 40
0.0
 40
0.0
 40
0.0
 40
0.0
 40
0.2500000000000165
 40
0.2500000000000165
 40
0.500000000000033
 40
0.500000000000033
 40
1.0
 40
1.0
 40
1.0
 40
1.0
 10
180.5399697053323
 20
231.5497346232469
 30
0.0
 10
180.5715228232187
 20
231.5270187803403
 30
0.0
 10
180.6063382190943
 20
231.5298707385329
 30
0.0
 10
180.6635114520039
 20
231.5470158269966
 30
0.0
 10
180.6886479109336
 20
231.562476300419
 30
0.0
 10
180.7565162198309
 20
231.6170761331093
 30
0.0
 10
180.7926316686884
 20
231.6655425770281
 30
0.0
 10
180.8221067921907
 20
231.7199485889476
 30
0.0
  0
ELLIPSE
  5
17B
330
1F
100
AcDbEntity
  8
0
  6
Continuous
 62
     7
370
    15
100
AcDbEllipse
 10
166.5355202238
 20
240.1492158746
 30
0.0
 11
22.99148305090986
 21
2.913179197585208
 31
0.0
210
0.0
220
0.0
230
1.0
 40
0.214839203
 41
2.608725136856957
 42
3.114377768304128
  0
LINE
  5
17C
330
1F
100
AcDbEntity
  8
0
  6
Continuous
 62
     7
370
    15
100
AcDbLine
 10
146.4137746953
 20
240.1492165554
 30
0.0
 11
155.487082433
 21
240.1492165554
 31
0.0
  0
LINE
  5
17D
330
1F
100
AcDbEntity
  8
0
  6
Continuous
 62
     7
370
    15
100
AcDbLine
 10
177.4870823138
 20
240.1492165554
 30
0.0
 11
177.6762255468
 21
240.1492165554
 31
0.0
  0
LINE
  5
17E
330
1F
100
AcDbEntity
  8
0
  6
Continuous
 62
     7
370
    15
100
AcDbLine
 10
177.4870823138
 20
250.0492165017
 30
0.0
 11
189.0870830976
 21
250.0492165017
 31
0.0
  0
LINE
  5
17F
330
1F
100
AcDbEntity
  8
0
  6
Continuous
 62
     7
370
    15
100
AcDbLine
 10
143.8870816492
 20
250.0492165017
 30
0.0
 11
155.487082433
 21
250.0492165017
 31
0.0
  0
LWPOLYLINE
  5
180
330
1F
100
AcDbEntity
  8
0
  6
Continuous
 62
     7
370
    15
100
AcDbPolyline
 90
        9
 70
   128
 43
0.0
 10
177.4870823138
 20
237.5676797855
 10
178.0882128515
 20
237.6306371916
 10
179.0969199502
 20
237.4505641091
 10
180.009560194
 20
236.9275109995
 10
180.7392151096
 20
236.1112849939
 10
181.2163931318
 20
235.0796254504
 10
181.3956494444
 20
233.9307831753
 10
181.2599110418
 20
232.7741773951
 10
180.822106544
 20
231.719950043
  0
LWPOLYLINE
  5
181
330
1F
100
AcDbEntity
  8
0
  6
Continuous
 62
     7
370
    15
100
AcDbPolyline
 90
        9
 70
   128
 43
0.0
 10
180.5399698206
 20
231.5497340787
 10
181.0565856286
 20
232.5399236906
 10
181.2701481395
 20
233.6666824448
 10
181.15838198
 20
234.8124848831
 10
180.7329435834
 20
235.8578087914
 10
180.038212333
 20
236.6936149228
 10
179.146653507
 20
237.2327240336
 10
178.1512671151
 20
237.4188991416
 10
177.4870823138
 20
237.3372333277
  0
ARC
  5
182
330
1F
100
AcDbEntity
  8
0
  6
Continuous
 62
     7
370
    15
100
AcDbCircle
 10
177.7768700154
 20
234.6151638785
 30
0.0
 40
3.231320909285927
100
AcDbArc
 50
44.0891864477
 51
95.1452486027
  0
LINE
  5
183
330
1F
100
AcDbEntity
  8
0
  6
Continuous
 62
     7
370
    15
100
AcDbLine
 10
189.5355205052
 20
240.1492165554
 30
0.0
 11
177.6762255468
 21
240.1492165554
 31
0.0
  0
SPLINE
  5
184
330
1F
100
AcDbEntity
  8
0
  6
Continuous
 62
     8
370
    15
100
AcDbSpline
210
0.0
220
0.0
230
1.0
 70
     8
 71
     3
 72
     8
 73
     4
 74
     0
 42
0.00000001
 43
0.00000001
 12
1.0
 22
0.0
 32
0.0
 13
1.0
 23
0.0
 33
0.0
 40
0.0
 40
0.0
 40
0.0
 40
0.0
 40
1.0
 40
1.0
 40
1.0
 40
1.0
 10
210.833202856806
 20
219.6632603544793
 30
0.0
 10
210.9208094711582
 20
218.98493599095
 30
0.0
 10
210.9648503247785
 20
218.2948215868567
 30
0.0
 10
210.964574388228
 20
217.5927271201201
 30
0.0
  0
SPLINE
  5
185
330
1F
100
AcDbEntity
  8
0
  6
Continuous
 62
     8
370
     0
100
AcDbSpline
210
0.0
220
0.0
230
1.0
 70
     8
 71
     3
 72
     8
 73
     4
 74
     0
 42
0.00000001
 43
0.00000001
 12
1.0
 22
0.0
 32
0.0
 13
1.0
 23
0.0
 33
0.0
 40
0.0
 40
0.0
 40
0.0
 40
0.0
 40
1.0
 40
1.0
 40
1.0
 40
1.0
 10
207.1401386241052
 20
217.5951511378769
 30
0.0
 10
207.1403117279364
 20
218.035480803394
 30
0.0
 10
207.1125724514634
 20
218.4682502744022
 30
0.0
 10
207.0576209233631
 20
218.8936491839217
 30
0.0
  0
SPLINE
  5
186
330
1F
100
AcDbEntity
  8
0
  6
Continuous
 62
     8
370
    15
100
AcDbSpline
210
0.0
220
0.0
230
1.0
 70
     8
 71
     3
 72
     8
 73
     4
 74
     0
 42
0.00000001
 43
0.00000001
 12
1.0
 22
0.0
 32
0.0
 13
1.0
 23
0.0
 33
0.0
 40
0.0
 40
0.0
 40
0.0
 40
0.0
 40
1.0
 40
1.0
 40
1.0
 40
1.0
 10
210.9645743882279
 20
217.5927271201199
 30
0.0
 10
210.9643003300711
 20
216.8954120490696
 30
0.0
 10
210.9203188308449
 20
216.2099801943453
 30
0.0
 10
210.8333423955609
 20
215.5362513314692
 30
0.0
  0
SPLINE
  5
187
330
1F
100
AcDbEntity
  8
0
  6
Continuous
 62
     8
370
     0
100
AcDbSpline
210
0.0
220
0.0
230
1.0
 70
     8
 71
     3
 72
     8
 73
     4
 74
     0
 42
0.00000001
 43
0.00000001
 12
1.0
 22
0.0
 32
0.0
 13
1.0
 23
0.0
 33
0.0
 40
0.0
 40
0.0
 40
0.0
 40
0.0
 40
1.0
 40
1.0
 40
1.0
 40
1.0
 10
207.0577219341662
 20
216.3055634437476
 30
0.0
 10
207.1122744815389
 20
216.7280495429553
 30
0.0
 10
207.1399667117162
 20
217.1578521813413
 30
0.0
 10
207.1401386241052
 20
217.5951511378769
 30
0.0
  0
SPLINE
  5
188
330
1F
100
AcDbEntity
  8
0
  6
Continuous
 62
     8
370
    15
100
AcDbSpline
210
0.0
220
0.0
230
1.0
 70
     8
 71
     3
 72
     8
 73
     4
 74
     0
 42
0.00000001
 43
0.00000001
 12
1.0
 22
0.0
 32
0.0
 13
1.0
 23
0.0
 33
0.0
 40
0.0
 40
0.0
 40
0.0
 40
0.0
 40
1.0
 40
1.0
 40
1.0
 40
1.0
 10
209.0397105341855
 20
210.6921434700645
 30
0.0
 10
208.728924873609
 20
210.3190780595772
 30
0.0
 10
208.3957689974174
 20
210.0372025817191
 30
0.0
 10
208.057911255008
 20
209.8614899380242
 30
0.0
  0
SPLINE
  5
189
330
1F
100
AcDbEntity
  8
0
  6
Continuous
 62
     8
370
    15
100
AcDbSpline
210
0.0
220
0.0
230
1.0
 70
     8
 71
     3
 72
    12
 73
     8
 74
     0
 42
0.00000001
 43
0.00000001
 12
1.0
 22
0.0
 32
0.0
 13
1.0
 23
0.0
 33
0.0
 40
0.0
 40
0.0
 40
0.0
 40
0.0
 40
0.2500000000000029
 40
0.2500000000000029
 40
0.5000000000000059
 40
0.5000000000000059
 40
1.0
 40
1.0
 40
1.0
 40
1.0
 10
210.4786743645679
 20
213.7234071730223
 30
0.0
 10
210.3937785732084
 20
213.408138015532
 30
0.0
 10
210.2991189027908
 20
213.1067363473724
 30
0.0
 10
210.0909125227737
 20
212.5311374200824
 30
0.0
 10
209.9767873117234
 20
212.2560712071297
 30
0.0
 10
209.6138121928225
 20
211.4919477067139
 30
0.0
 10
209.343189903865
 20
211.0564384488414
 30
0.0
 10
209.0397105341855
 20
210.6921434700645
 30
0.0
  0
SPLINE
  5
18A
330
1F
100
AcDbEntity
  8
0
  6
Continuous
 62
     8
370
    15
100
AcDbSpline
210
0.0
220
0.0
230
1.0
 70
     8
 71
     3
 72
     8
 73
     4
 74
     0
 42
0.00000001
 43
0.00000001
 12
1.0
 22
0.0
 32
0.0
 13
1.0
 23
0.0
 33
0.0
 40
0.0
 40
0.0
 40
0.0
 40
0.0
 40
1.0
 40
1.0
 40
1.0
 40
1.0
 10
210.833342395561
 20
215.5362513314692
 30
0.0
 10
210.7514274477493
 20
214.9017292972932
 30
0.0
 10
210.633256120172
 20
214.2974622477475
 30
0.0
 10
210.4786743645678
 20
213.7234071730223
 30
0.0
  0
SPLINE
  5
18B
330
1F
100
AcDbEntity
  8
0
  6
Continuous
 62
     8
370
    15
100
AcDbSpline
210
0.0
220
0.0
230
1.0
 70
     8
 71
     3
 72
     8
 73
     4
 74
     0
 42
0.00000001
 43
0.00000001
 12
1.0
 22
0.0
 32
0.0
 13
1.0
 23
0.0
 33
0.0
 40
0.0
 40
0.0
 40
0.0
 40
0.0
 40
1.0
 40
1.0
 40
1.0
 40
1.0
 10
210.4388854736564
 20
221.6196741407965
 30
0.0
 10
210.612791048524
 20
221.003965744609
 30
0.0
 10
210.7442652550222
 20
220.3518903462882
 30
0.0
 10
210.8332028568059
 20
219.6632603544793
 30
0.0
  0
SPLINE
  5
18C
330
1F
100
AcDbEntity
  8
0
  6
Continuous
 62
     8
370
    15
100
AcDbSpline
210
0.0
220
0.0
230
1.0
 70
     8
 71
     3
 72
     8
 73
     4
 74
     0
 42
0.00000001
 43
0.00000001
 12
1.0
 22
0.0
 32
0.0
 13
1.0
 23
0.0
 33
0.0
 40
0.0
 40
0.0
 40
0.0
 40
0.0
 40
1.0
 40
1.0
 40
1.0
 40
1.0
 10
210.1015987422956
 20
222.6286907115954
 30
0.0
 10
210.2264161917379
 20
222.3101166671785
 30
0.0
 10
210.3388760943243
 20
221.9737548802962
 30
0.0
 10
210.4388854736564
 20
221.6196741407965
 30
0.0
  0
SPLINE
  5
18D
330
1F
100
AcDbEntity
  8
0
  6
Continuous
 62
     8
370
    15
100
AcDbSpline
210
0.0
220
0.0
230
1.0
 70
     8
 71
     3
 72
     8
 73
     4
 74
     0
 42
0.00000001
 43
0.00000001
 12
1.0
 22
0.0
 32
0.0
 13
1.0
 23
0.0
 33
0.0
 40
0.0
 40
0.0
 40
0.0
 40
0.0
 40
1.0
 40
1.0
 40
1.0
 40
1.0
 10
209.5017807570125
 20
223.8556047133498
 30
0.0
 10
209.7237227641574
 20
223.4921703863373
 30
0.0
 10
209.9233893098117
 20
223.0835381701294
 30
0.0
 10
210.1015987422954
 20
222.6286907115955
 30
0.0
  0
SPLINE
  5
18E
330
1F
100
AcDbEntity
  8
0
  6
Continuous
 62
     8
370
    15
100
AcDbSpline
210
0.0
220
0.0
230
1.0
 70
     8
 71
     3
 72
     8
 73
     4
 74
     0
 42
0.00000001
 43
0.00000001
 12
1.0
 22
0.0
 32
0.0
 13
1.0
 23
0.0
 33
0.0
 40
0.0
 40
0.0
 40
0.0
 40
0.0
 40
1.0
 40
1.0
 40
1.0
 40
1.0
 10
209.0402763337345
 20
224.5054929764046
 30
0.0
 10
209.2022984499032
 20
224.3109017127968
 30
0.0
 10
209.3559742556138
 20
224.094365677944
 30
0.0
 10
209.5017807570126
 20
223.8556047133497
 30
0.0
  0
SPLINE
  5
18F
330
1F
100
AcDbEntity
  8
0
  6
Continuous
 62
     8
370
    15
100
AcDbSpline
210
0.0
220
0.0
230
1.0
 70
     8
 71
     3
 72
     8
 73
     4
 74
     0
 42
0.00000001
 43
0.00000001
 12
1.0
 22
0.0
 32
0.0
 13
1.0
 23
0.0
 33
0.0
 40
0.0
 40
0.0
 40
0.0
 40
0.0
 40
1.0
 40
1.0
 40
1.0
 40
1.0
 10
208.0567071944151
 20
225.337554492896
 30
0.0
 10
208.3951796270495
 20
225.1618933462051
 30
0.0
 10
208.7282703441768
 20
224.8802173732768
 30
0.0
 10
209.0402763337344
 20
224.5054929764046
 30
0.0
  0
SPLINE
  5
190
330
1F
100
AcDbEntity
  8
0
  6
Continuous
 62
     8
370
     0
100
AcDbSpline
210
0.0
220
0.0
230
1.0
 70
     8
 71
     3
 72
     8
 73
     4
 74
     0
 42
0.00000001
 43
0.00000001
 12
1.0
 22
0.0
 32
0.0
 13
1.0
 23
0.0
 33
0.0
 40
0.0
 40
0.0
 40
0.0
 40
0.0
 40
1.0
 40
1.0
 40
1.0
 40
1.0
 10
207.1666144744558
 20
225.5836784052306
 30
0.0
 10
207.488464132304
 20
225.5570086025598
 30
0.0
 10
207.7714865328717
 20
225.4855789215819
 30
0.0
 10
208.0567071944151
 20
225.337554492896
 30
0.0
  0
SPLINE
  5
191
330
1F
100
AcDbEntity
  8
0
  6
Continuous
 62
     8
370
    15
100
AcDbSpline
210
0.0
220
0.0
230
1.0
 70
     8
 71
     3
 72
    24
 73
    20
 74
     0
 42
0.00000001
 43
0.00000001
 12
1.0
 22
0.0
 32
0.0
 13
1.0
 23
0.0
 33
0.0
 40
0.0
 40
0.0
 40
0.0
 40
0.0
 40
0.2500000000000001
 40
0.2500000000000001
 40
0.5000000000000001
 40
0.5000000000000001
 40
0.6250000000000012
 40
0.6250000000000012
 40
0.7500000000000024
 40
0.7500000000000024
 40
0.8750000000000036
 40
0.8750000000000036
 40
0.9375000000000042
 40
0.9375000000000042
 40
0.9687500000000033
 40
0.9687500000000033
 40
0.9843750000000017
 40
0.9843750000000017
 40
1.0
 40
1.0
 40
1.0
 40
1.0
 10
191.0095098252015
 20
225.5887927300381
 30
0.0
 10
192.3555523704858
 20
225.5887349006177
 30
0.0
 10
193.7015878250926
 20
225.5886032378319
 30
0.0
 10
196.3936687639591
 20
225.5891812956725
 30
0.0
 10
197.7417964679202
 20
225.587742780479
 30
0.0
 10
199.7580134789781
 20
225.589458338742
 30
0.0
 10
200.4278126149369
 20
225.5918630687573
 30
0.0
 10
201.7738550910639
 20
225.5918291083919
 30
0.0
 10
202.452641612959
 20
225.5874420174695
 30
0.0
 10
203.8130961452154
 20
225.5762814459478
 30
0.0
 10
204.4918386663936
 20
225.5719728950228
 30
0.0
 10
205.4785601224874
 20
225.5895341980807
 30
0.0
 10
205.7985604464002
 20
225.6019069623536
 30
0.0
 10
206.2932208950468
 20
225.6095091517053
 30
0.0
 10
206.4608510827214
 20
225.6100446565242
 30
0.0
 10
206.7197473735689
 20
225.6051983407466
 30
0.0
 10
206.8072758616716
 20
225.6026443913061
 30
0.0
 10
206.9851830753162
 20
225.5952333870195
 30
0.0
 10
207.0769628203271
 20
225.5911073145564
 30
0.0
 10
207.1666144744557
 20
225.5836784052306
 30
0.0
  0
LINE
  5
192
330
1F
100
AcDbEntity
  8
0
  6
Continuous
 62
     8
370
    15
100
AcDbLine
 10
191.0095191562
 20
225.588792764
 30
0.0
 11
187.2684634291
 21
225.588792764
 31
0.0
  0
LINE
  5
193
330
1F
100
AcDbEntity
  8
0
  6
Continuous
 62
     8
370
    15
100
AcDbLine
 10
187.2684634291
 20
225.588792764
 30
0.0
 11
183.061729651
 21
225.588792764
 31
0.0
  0
SPLINE
  5
194
330
1F
100
AcDbEntity
  8
0
  6
Continuous
 62
     8
370
     0
100
AcDbSpline
210
0.0
220
0.0
230
1.0
 70
     8
 71
     3
 72
     8
 73
     4
 74
     0
 42
0.00000001
 43
0.00000001
 12
1.0
 22
0.0
 32
0.0
 13
1.0
 23
0.0
 33
0.0
 40
0.683857501898526
 40
0.683857501898526
 40
0.683857501898526
 40
0.683857501898526
 40
1.0
 40
1.0
 40
1.0
 40
1.0
 10
183.0617211257774
 20
209.609641861474
 30
0.0
 10
183.4341408624025
 20
209.56942849927
 30
0.0
 10
183.8084503975824
 20
209.5492158746393
 30
0.0
 10
184.1834139233057
 20
209.5492158746393
 30
0.0
  0
SPLINE
  5
195
330
1F
100
AcDbEntity
  8
0
  6
Continuous
 62
     8
370
    15
100
AcDbSpline
210
0.0
220
0.0
230
1.0
 70
     8
 71
     3
 72
    24
 73
    20
 74
     0
 42
0.00000001
 43
0.00000001
 12
1.0
 22
0.0
 32
0.0
 13
1.0
 23
0.0
 33
0.0
 40
0.0
 40
0.0
 40
0.0
 40
0.0
 40
0.0312500000000002
 40
0.0312500000000002
 40
0.0625000000000005
 40
0.0625000000000005
 40
0.1250000000000008
 40
0.1250000000000008
 40
0.1875000000000011
 40
0.1875000000000011
 40
0.2500000000000014
 40
0.2500000000000014
 40
0.3125000000000017
 40
0.3125000000000017
 40
0.375000000000002
 40
0.375000000000002
 40
0.5000000000000014
 40
0.5000000000000014
 40
1.0
 40
1.0
 40
1.0
 40
1.0
 10
207.0948017105603
 20
209.6096198308255
 30
0.0
 10
206.823917284379
 20
209.5932746179053
 30
0.0
 10
206.5664526285757
 20
209.5884625195927
 30
0.0
 10
206.0685967081498
 20
209.5907250614779
 30
0.0
 10
205.827856448645
 20
209.5978680488963
 30
0.0
 10
205.1034055872763
 20
209.6179173389316
 30
0.0
 10
204.6087048734173
 20
209.6227770515295
 30
0.0
 10
203.6053708389214
 20
209.6213160393947
 30
0.0
 10
203.0978898543344
 20
209.6160372340176
 30
0.0
 10
202.0862879906527
 20
209.6081760494868
 30
0.0
 10
201.5834715037374
 20
209.6065767125636
 30
0.0
 10
200.5821622062082
 20
209.6066149364791
 30
0.0
 10
200.0832581834763
 20
209.6079475356758
 30
0.0
 10
199.0844406813645
 20
209.6097558621066
 30
0.0
 10
198.5839296483876
 20
209.6097333148101
 30
0.0
 10
197.0812874795139
 20
209.6090517139746
 30
0.0
 10
196.0798190606621
 20
209.6093172959731
 30
0.0
 10
191.0728523104426
 20
209.6103970699574
 30
0.0
 10
187.0672911516553
 20
209.6096677520446
 30
0.0
 10
183.0617211257774
 20
209.609641861474
 30
0.0
  0
SPLINE
  5
196
330
1F
100
AcDbEntity
  8
0
  6
Continuous
 62
     8
370
    15
100
AcDbSpline
210
0.0
220
0.0
230
1.0
 70
     8
 71
     3
 72
    10
 73
     6
 74
     0
 42
0.00000001
 43
0.00000001
 12
1.0
 22
0.0
 32
0.0
 13
1.0
 23
0.0
 33
0.0
 40
0.0
 40
0.0
 40
0.0
 40
0.0
 40
0.5
 40
0.5
 40
1.0
 40
1.0
 40
1.0
 40
1.0
 10
208.057911255008
 20
209.8614899380242
 30
0.0
 10
207.9043387791706
 20
209.7816201515996
 30
0.0
 10
207.7516315816852
 20
209.7245652279087
 30
0.0
 10
207.434814736784
 20
209.6438624827775
 30
0.0
 10
207.2699204757595
 20
209.6201617812052
 30
0.0
 10
207.0948017105603
 20
209.6096198308255
 30
0.0
  0
SPLINE
  5
197
330
1F
100
AcDbEntity
  8
0
  6
Continuous
 62
     8
370
     0
100
AcDbSpline
210
0.0
220
0.0
230
1.0
 70
     8
 71
     3
 72
     8
 73
     4
 74
     0
 42
0.00000001
 43
0.00000001
 12
1.0
 22
0.0
 32
0.0
 13
1.0
 23
0.0
 33
0.0
 40
0.0
 40
0.0
 40
0.0
 40
0.0
 40
1.0
 40
1.0
 40
1.0
 40
1.0
 10
206.8363041717864
 20
215.1736764040249
 30
0.0
 10
206.9327395893902
 20
215.5321045758392
 30
0.0
 10
207.0065660599316
 20
215.9093831222443
 30
0.0
 10
207.0577219341662
 20
216.3055634437476
 30
0.0
  0
SPLINE
  5
198
330
1F
100
AcDbEntity
  8
0
  6
Continuous
 62
     8
370
     0
100
AcDbSpline
210
0.0
220
0.0
230
1.0
 70
     8
 71
     3
 72
     8
 73
     4
 74
     0
 42
0.00000001
 43
0.00000001
 12
1.0
 22
0.0
 32
0.0
 13
1.0
 23
0.0
 33
0.0
 40
0.0
 40
0.0
 40
0.0
 40
0.0
 40
1.0
 40
1.0
 40
1.0
 40
1.0
 10
207.0576209233631
 20
218.8936491839217
 30
0.0
 10
207.002058433145
 20
219.3237777638913
 30
0.0
 10
206.9198745434015
 20
219.7310336363066
 30
0.0
 10
206.8112931403979
 20
220.1156091608916
 30
0.0
  0
SPLINE
  5
199
330
1F
100
AcDbEntity
  8
0
  6
Continuous
 62
     8
370
     0
100
AcDbSpline
210
0.0
220
0.0
230
1.0
 70
     8
 71
     3
 72
     8
 73
     4
 74
     0
 42
0.00000001
 43
0.00000001
 12
1.0
 22
0.0
 32
0.0
 13
1.0
 23
0.0
 33
0.0
 40
0.0
 40
0.0
 40
0.0
 40
0.0
 40
1.0
 40
1.0
 40
1.0
 40
1.0
 10
211.277128927735
 20
224.5151020655761
 30
0.0
 10
210.9817806904551
 20
224.8744414822825
 30
0.0
 10
210.6716848679417
 20
225.14758547101
 30
0.0
 10
210.3276535653575
 20
225.3225788414271
 30
0.0
  0
SPLINE
  5
19A
330
1F
100
AcDbEntity
  8
0
  6
Continuous
 62
     8
370
     0
100
AcDbSpline
210
0.0
220
0.0
230
1.0
 70
     8
 71
     3
 72
     8
 73
     4
 74
     0
 42
0.00000001
 43
0.00000001
 12
1.0
 22
0.0
 32
0.0
 13
1.0
 23
0.0
 33
0.0
 40
0.0
 40
0.0
 40
0.0
 40
0.0
 40
1.0
 40
1.0
 40
1.0
 40
1.0
 10
211.7442996256318
 20
223.8535594860888
 30
0.0
 10
211.5954736794275
 20
224.0970869427536
 30
0.0
 10
211.4395296724763
 20
224.3175150089346
 30
0.0
 10
211.277128927735
 20
224.5151020655761
 30
0.0
  0
SPLINE
  5
19B
330
1F
100
AcDbEntity
  8
0
  6
Continuous
 62
     8
370
     0
100
AcDbSpline
210
0.0
220
0.0
230
1.0
 70
     8
 71
     3
 72
     8
 73
     4
 74
     0
 42
0.00000001
 43
0.00000001
 12
1.0
 22
0.0
 32
0.0
 13
1.0
 23
0.0
 33
0.0
 40
0.0
 40
0.0
 40
0.0
 40
0.0
 40
1.0
 40
1.0
 40
1.0
 40
1.0
 10
212.3449189951748
 20
222.6289535186729
 30
0.0
 10
212.1668496180262
 20
223.0828333767391
 30
0.0
 10
211.9660520187064
 20
223.4907007395327
 30
0.0
 10
211.7442996256319
 20
223.8535594860887
 30
0.0
  0
SPLINE
  5
19C
330
1F
100
AcDbEntity
  8
0
  6
Continuous
 62
     8
370
     0
100
AcDbSpline
210
0.0
220
0.0
230
1.0
 70
     8
 71
     3
 72
     8
 73
     4
 74
     0
 42
0.00000001
 43
0.00000001
 12
1.0
 22
0.0
 32
0.0
 13
1.0
 23
0.0
 33
0.0
 40
0.0
 40
0.0
 40
0.0
 40
0.0
 40
1.0
 40
1.0
 40
1.0
 40
1.0
 10
212.6825434809127
 20
221.6187961833281
 30
0.0
 10
212.5825165822527
 20
221.9732953934085
 30
0.0
 10
212.4700384239689
 20
222.3100374338765
 30
0.0
 10
212.3449189951748
 20
222.6289535186729
 30
0.0
  0
SPLINE
  5
19D
330
1F
100
AcDbEntity
  8
0
  6
Continuous
 62
     8
370
     0
100
AcDbSpline
210
0.0
220
0.0
230
1.0
 70
     8
 71
     3
 72
     8
 73
     4
 74
     0
 42
0.00000001
 43
0.00000001
 12
1.0
 22
0.0
 32
0.0
 13
1.0
 23
0.0
 33
0.0
 40
0.0
 40
0.0
 40
0.0
 40
0.0
 40
1.0
 40
1.0
 40
1.0
 40
1.0
 10
213.0764383985229
 20
219.6644235278626
 30
0.0
 10
212.987511923237
 20
220.3522979649735
 30
0.0
 10
212.8561033883703
 20
221.0036931368515
 30
0.0
 10
212.6825434809127
 20
221.6187961833281
 30
0.0
  0
SPLINE
  5
19E
330
1F
100
AcDbEntity
  8
0
  6
Continuous
 62
     8
370
     0
100
AcDbSpline
210
0.0
220
0.0
230
1.0
 70
     8
 71
     3
 72
     8
 73
     4
 74
     0
 42
0.00000001
 43
0.00000001
 12
1.0
 22
0.0
 32
0.0
 13
1.0
 23
0.0
 33
0.0
 40
0.0
 40
0.0
 40
0.0
 40
0.0
 40
1.0
 40
1.0
 40
1.0
 40
1.0
 10
213.2079597393109
 20
217.5923853895511
 30
0.0
 10
213.2082508062963
 20
218.2950040440503
 30
0.0
 10
213.1641922081166
 20
218.9856200311014
 30
0.0
 10
213.0764383985229
 20
219.6644235278626
 30
0.0
  0
SPLINE
  5
19F
330
1F
100
AcDbEntity
  8
0
  6
Continuous
 62
     8
370
     0
100
AcDbSpline
210
0.0
220
0.0
230
1.0
 70
     8
 71
     3
 72
     8
 73
     4
 74
     0
 42
0.00000001
 43
0.00000001
 12
1.0
 22
0.0
 32
0.0
 13
1.0
 23
0.0
 33
0.0
 40
0.0
 40
0.0
 40
0.0
 40
0.0
 40
1.0
 40
1.0
 40
1.0
 40
1.0
 10
213.0765045817707
 20
215.5345187032723
 30
0.0
 10
213.1636486309404
 20
216.2086827194267
 30
0.0
 10
213.2076706655608
 20
216.8945782884733
 30
0.0
 10
213.2079597393108
 20
217.592385389551
 30
0.0
  0
SPLINE
  5
1A0
330
1F
100
AcDbEntity
  8
0
  6
Continuous
 62
     8
370
     0
100
AcDbSpline
210
0.0
220
0.0
230
1.0
 70
     8
 71
     3
 72
     8
 73
     4
 74
     0
 42
0.00000001
 43
0.00000001
 12
1.0
 22
0.0
 32
0.0
 13
1.0
 23
0.0
 33
0.0
 40
0.0
 40
0.0
 40
0.0
 40
0.0
 40
1.0
 40
1.0
 40
1.0
 40
1.0
 10
212.7222808195004
 20
213.7237770587225
 30
0.0
 10
212.8764230731717
 20
214.2971932995367
 30
0.0
 10
212.9945833370428
 20
214.9007593602029
 30
0.0
 10
213.0765045817706
 20
215.5345187032723
 30
0.0
  0
SPLINE
  5
1A1
330
1F
100
AcDbEntity
  8
0
  6
Continuous
 62
     8
370
     0
100
AcDbSpline
210
0.0
220
0.0
230
1.0
 70
     8
 71
     3
 72
    12
 73
     8
 74
     0
 42
0.00000001
 43
0.00000001
 12
1.0
 22
0.0
 32
0.0
 13
1.0
 23
0.0
 33
0.0
 40
0.0
 40
0.0
 40
0.0
 40
0.0
 40
0.5000000000000034
 40
0.5000000000000034
 40
0.7500000000000017
 40
0.7500000000000017
 40
1.0
 40
1.0
 40
1.0
 40
1.0
 10
211.2762107859823
 20
210.6840027698594
 30
0.0
 10
211.5767553402525
 20
211.0484851041536
 30
0.0
 10
211.852404087652
 20
211.484834738812
 30
0.0
 10
212.2188261422251
 20
212.2512303824601
 30
0.0
 10
212.3335368683694
 20
212.5272230389938
 30
0.0
 10
212.5424162234503
 20
213.1047794912404
 30
0.0
 10
212.6372021925071
 20
213.4072806711185
 30
0.0
 10
212.7222808195003
 20
213.7237770587223
 30
0.0
  0
SPLINE
  5
1A2
330
1F
100
AcDbEntity
  8
0
  6
Continuous
 62
     8
370
     0
100
AcDbSpline
210
0.0
220
0.0
230
1.0
 70
     8
 71
     3
 72
     8
 73
     4
 74
     0
 42
0.00000001
 43
0.00000001
 12
1.0
 22
0.0
 32
0.0
 13
1.0
 23
0.0
 33
0.0
 40
0.0
 40
0.0
 40
0.0
 40
0.0
 40
1.0
 40
1.0
 40
1.0
 40
1.0
 10
210.3277222601307
 20
209.8758686438222
 30
0.0
 10
210.671397621389
 20
210.0511203083395
 30
0.0
 10
210.9802818647475
 20
210.3251179973213
 30
0.0
 10
211.2762107859823
 20
210.6840027698594
 30
0.0
  0
SPLINE
  5
1A3
330
1F
100
AcDbEntity
  8
0
  6
Continuous
 62
     8
370
     0
100
AcDbSpline
210
0.0
220
0.0
230
1.0
 70
     8
 71
     3
 72
    11
 73
     7
 74
     0
 42
0.00000001
 43
0.00000001
 12
1.0
 22
0.0
 32
0.0
 13
1.0
 23
0.0
 33
0.0
 40
0.0
 40
0.0
 40
0.0
 40
0.0
 40
0.2087144943772483
 40
0.4706048374011994
 40
0.7348124684277841
 40
1.0
 40
1.0
 40
1.0
 40
1.0
 10
209.3849102967346
 20
209.6150310862332
 30
0.0
 10
209.4467846391899
 20
209.6210420493935
 30
0.0
 10
209.5862975415272
 20
209.6345954365172
 30
0.0
 10
209.8193420863693
 20
209.6835955430367
 30
0.0
 10
210.0745565255877
 20
209.7585282197774
 30
0.0
 10
210.2432292162842
 20
209.8367068124555
 30
0.0
 10
210.3277216666305
 20
209.875868462351
 30
0.0
  0
SPLINE
  5
1A4
330
1F
100
AcDbEntity
  8
0
  6
Continuous
 62
     8
370
     0
100
AcDbSpline
210
0.0
220
0.0
230
1.0
 70
     8
 71
     3
 72
    12
 73
     8
 74
     0
 42
0.00000001
 43
0.00000001
 12
1.0
 22
0.0
 32
0.0
 13
1.0
 23
0.0
 33
0.0
 40
0.0
 40
0.0
 40
0.0
 40
0.0
 40
0.260484145263532
 40
0.5222638105140356
 40
0.7857476615585917
 40
0.9179560049034874
 40
1.0
 40
1.0
 40
1.0
 40
1.0
 10
210.3276546114052
 20
225.3225760686666
 30
0.0
 10
210.2444872840233
 20
225.3610790641277
 30
0.0
 10
210.0777389958893
 20
225.4382765500069
 30
0.0
 10
209.8233323668849
 20
225.5140749184746
 30
0.0
 10
209.6158436808183
 20
225.55649245653
 30
0.0
 10
209.4694612644278
 20
225.5771203434266
 30
0.0
 10
209.4065282822333
 20
225.5825544491088
 30
0.0
 10
209.3824292533958
 20
225.5846353400022
 30
0.0
  0
SPLINE
  5
1A5
330
1F
100
AcDbEntity
  8
0
  6
Continuous
 62
     8
370
     0
100
AcDbSpline
210
0.0
220
0.0
230
1.0
 70
     8
 71
     3
 72
    12
 73
     8
 74
     0
 42
0.00000001
 43
0.00000001
 12
1.0
 22
0.0
 32
0.0
 13
1.0
 23
0.0
 33
0.0
 40
0.0
 40
0.0
 40
0.0
 40
0.0
 40
0.5000000000000027
 40
0.5000000000000027
 40
0.7500000000000013
 40
0.7500000000000013
 40
1.0
 40
1.0
 40
1.0
 40
1.0
 10
205.9303466197208
 20
213.2688901999434
 30
0.0
 10
206.1197585289441
 20
213.4980811093032
 30
0.0
 10
206.2916091249923
 20
213.7707412138313
 30
0.0
 10
206.5207234091128
 20
214.2506769260264
 30
0.0
 10
206.5925406301536
 20
214.423706574565
 30
0.0
 10
206.7234655101887
 20
214.7857664721871
 30
0.0
 10
206.7829440218015
 20
214.9753490520826
 30
0.0
 10
206.8363041717864
 20
215.1736764040249
 30
0.0
  0
SPLINE
  5
1A6
330
1F
100
AcDbEntity
  8
0
  6
Continuous
 62
     8
370
     0
100
AcDbSpline
210
0.0
220
0.0
230
1.0
 70
     8
 71
     3
 72
     8
 73
     4
 74
     0
 42
0.00000001
 43
0.00000001
 12
1.0
 22
0.0
 32
0.0
 13
1.0
 23
0.0
 33
0.0
 40
0.0
 40
0.0
 40
0.0
 40
0.0
 40
1.0
 40
1.0
 40
1.0
 40
1.0
 10
206.8112931403979
 20
220.1156091608916
 30
0.0
 10
206.7484781298901
 20
220.3380884708803
 30
0.0
 10
206.6778589175186
 20
220.5494499424827
 30
0.0
 10
206.5993811184009
 20
220.7496160991872
 30
0.0
  0
LINE
  5
1A7
330
1F
100
AcDbEntity
  8
0
  6
Continuous
 62
     8
370
     0
100
AcDbLine
 10
188.631753903
 20
222.6020859707
 30
0.0
 11
180.683979299
 21
222.6020859707
 31
0.0
  0
SPLINE
  5
1A8
330
1F
100
AcDbEntity
  8
0
  6
Continuous
 62
     8
370
     0
100
AcDbSpline
210
0.0
220
0.0
230
1.0
 70
     8
 71
     3
 72
    22
 73
    18
 74
     0
 42
0.00000001
 43
0.00000001
 12
1.0
 22
0.0
 32
0.0
 13
1.0
 23
0.0
 33
0.0
 40
0.0
 40
0.0
 40
0.0
 40
0.0
 40
0.03125
 40
0.03125
 40
0.0624999999999999
 40
0.0624999999999999
 40
0.1249999999999998
 40
0.1249999999999998
 40
0.25
 40
0.25
 40
0.3750000000000002
 40
0.3750000000000002
 40
0.5000000000000003
 40
0.5000000000000003
 40
0.7500000000000008
 40
0.7500000000000008
 40
1.0
 40
1.0
 40
1.0
 40
1.0
 10
204.7167368505994
 20
222.5996016922612
 30
0.0
 10
204.5492804376545
 20
222.6155923573131
 30
0.0
 10
204.3817734284012
 20
222.6210728155061
 30
0.0
 10
204.0467341332289
 20
222.626783092288
 30
0.0
 10
203.8791932191579
 20
222.625220612831
 30
0.0
 10
203.3765414391123
 20
222.6145012398331
 30
0.0
 10
203.0414390655513
 20
222.6010205665595
 30
0.0
 10
202.0361247876673
 20
222.5830575919512
 30
0.0
 10
201.3659036902971
 20
222.588291093447
 30
0.0
 10
200.0254599769164
 20
222.6010151555629
 30
0.0
 10
199.3552392692327
 20
222.6056694897827
 30
0.0
 10
198.0148042463843
 20
222.6054773574642
 30
0.0
 10
197.3445880201213
 20
222.6027323792688
 30
0.0
 10
195.3339375765867
 20
222.6009269984621
 30
0.0
 10
193.9935037196327
 20
222.6024722834452
 30
0.0
 10
191.3126363095115
 20
222.6018991523066
 30
0.0
 10
189.9722025711958
 20
222.602031710931
 30
0.0
 10
188.631768836165
 20
222.6020895444715
 30
0.0
  0
SPLINE
  5
1A9
330
1F
100
AcDbEntity
  8
0
  6
Continuous
 62
     8
370
     0
100
AcDbSpline
210
0.0
220
0.0
230
1.0
 70
     8
 71
     3
 72
     8
 73
     4
 74
     0
 42
0.00000001
 43
0.00000001
 12
1.0
 22
0.0
 32
0.0
 13
1.0
 23
0.0
 33
0.0
 40
0.0
 40
0.0
 40
0.0
 40
0.0
 40
1.0
 40
1.0
 40
1.0
 40
1.0
 10
205.3367840890697
 20
222.43484977362
 30
0.0
 10
205.1330371606292
 20
222.536854440537
 30
0.0
 10
204.9255995046569
 20
222.5796570828902
 30
0.0
 10
204.7167368505994
 20
222.5996016922612
 30
0.0
  0
SPLINE
  5
1AA
330
1F
100
AcDbEntity
  8
0
  6
Continuous
 62
     8
370
     0
100
AcDbSpline
210
0.0
220
0.0
230
1.0
 70
     8
 71
     3
 72
     8
 73
     4
 74
     0
 42
0.00000001
 43
0.00000001
 12
1.0
 22
0.0
 32
0.0
 13
1.0
 23
0.0
 33
0.0
 40
0.0
 40
0.0
 40
0.0
 40
0.0
 40
1.0
 40
1.0
 40
1.0
 40
1.0
 10
205.9303329092927
 20
221.9304720054388
 30
0.0
 10
205.7440226616702
 20
222.1564757898167
 30
0.0
 10
205.5471553633179
 20
222.3295286680562
 30
0.0
 10
205.3367840890697
 20
222.43484977362
 30
0.0
  0
SPLINE
  5
1AB
330
1F
100
AcDbEntity
  8
0
  6
Continuous
 62
     8
370
     0
100
AcDbSpline
210
0.0
220
0.0
230
1.0
 70
     8
 71
     3
 72
     8
 73
     4
 74
     0
 42
0.00000001
 43
0.00000001
 12
1.0
 22
0.0
 32
0.0
 13
1.0
 23
0.0
 33
0.0
 40
0.0
 40
0.0
 40
0.0
 40
0.0
 40
1.0
 40
1.0
 40
1.0
 40
1.0
 10
206.2243867476068
 20
221.5147712994857
 30
0.0
 10
206.1310570162205
 20
221.6674728125166
 30
0.0
 10
206.0330022927441
 20
221.8059288335207
 30
0.0
 10
205.9303329092927
 20
221.9304720054388
 30
0.0
  0
SPLINE
  5
1AC
330
1F
100
AcDbEntity
  8
0
  6
Continuous
 62
     8
370
     0
100
AcDbSpline
210
0.0
220
0.0
230
1.0
 70
     8
 71
     3
 72
     8
 73
     4
 74
     0
 42
0.00000001
 43
0.00000001
 12
1.0
 22
0.0
 32
0.0
 13
1.0
 23
0.0
 33
0.0
 40
0.0
 40
0.0
 40
0.0
 40
0.0
 40
1.0
 40
1.0
 40
1.0
 40
1.0
 10
206.5993811184009
 20
220.7496160991872
 30
0.0
 10
206.488128064665
 20
221.0333791052642
 30
0.0
 10
206.362951598753
 20
221.2880583098665
 30
0.0
 10
206.2243867476068
 20
221.5147712994857
 30
0.0
  0
SPLINE
  5
1AD
330
1F
100
AcDbEntity
  8
0
  6
Continuous
 62
     8
370
     0
100
AcDbSpline
210
0.0
220
0.0
230
1.0
 70
     8
 71
     3
 72
     8
 73
     4
 74
     0
 42
0.00000001
 43
0.00000001
 12
1.0
 22
0.0
 32
0.0
 13
1.0
 23
0.0
 33
0.0
 40
0.0
 40
0.0
 40
0.0
 40
0.0
 40
1.0
 40
1.0
 40
1.0
 40
1.0
 10
205.3370206372497
 20
212.7636627644142
 30
0.0
 10
205.5473372204552
 20
212.8692982075583
 30
0.0
 10
205.7439787209374
 20
213.0433825833802
 30
0.0
 10
205.9303466197208
 20
213.2688901999434
 30
0.0
  0
SPLINE
  5
1AE
330
1F
100
AcDbEntity
  8
0
  6
Continuous
 62
     8
370
     0
100
AcDbSpline
210
0.0
220
0.0
230
1.0
 70
     8
 71
     3
 72
    10
 73
     6
 74
     0
 42
0.00000001
 43
0.00000001
 12
1.0
 22
0.0
 32
0.0
 13
1.0
 23
0.0
 33
0.0
 40
0.0
 40
0.0
 40
0.0
 40
0.0
 40
0.5
 40
0.5
 40
1.0
 40
1.0
 40
1.0
 40
1.0
 10
204.6646782352872
 20
212.594401822785
 30
0.0
 10
204.7778732736986
 20
212.6028358117439
 30
0.0
 10
204.8907950715584
 20
212.6184615632253
 30
0.0
 10
205.1151383871322
 20
212.6713302585574
 30
0.0
 10
205.2266573499375
 20
212.7082307362574
 30
0.0
 10
205.3370206372497
 20
212.7636627644142
 30
0.0
  0
SPLINE
  5
1AF
330
1F
100
AcDbEntity
  8
0
  6
Continuous
 62
     8
370
     0
100
AcDbSpline
210
0.0
220
0.0
230
1.0
 70
     8
 71
     3
 72
    20
 73
    16
 74
     0
 42
0.00000001
 43
0.00000001
 12
1.0
 22
0.0
 32
0.0
 13
1.0
 23
0.0
 33
0.0
 40
0.0
 40
0.0
 40
0.0
 40
0.0
 40
0.499999999999998
 40
0.499999999999998
 40
0.6249999999999977
 40
0.6249999999999977
 40
0.7499999999999974
 40
0.7499999999999974
 40
0.8124999999999981
 40
0.8124999999999981
 40
0.8749999999999987
 40
0.8749999999999987
 40
0.9374999999999993
 40
0.9374999999999993
 40
1.0
 40
1.0
 40
1.0
 40
1.0
 10
180.6839797628332
 20
212.5963450512889
 30
0.0
 10
184.6808296788879
 20
212.5963709946729
 30
0.0
 10
188.6776794206657
 20
212.59709811108
 30
0.0
 10
193.6737420926201
 20
212.5960277392417
 30
0.0
 10
194.6729546439409
 20
212.5957527468278
 30
0.0
 10
196.6713793222349
 20
212.596729662933
 30
0.0
 10
197.6705928130003
 20
212.5930743331035
 30
0.0
 10
199.1694116095253
 20
212.5927714331164
 30
0.0
 10
199.6690173900888
 20
212.5944154103038
 30
0.0
 10
200.6682274255571
 20
212.603193033479
 30
0.0
 10
201.1678365329643
 20
212.6092118481238
 30
0.0
 10
202.1670343033929
 20
212.6114613334066
 30
0.0
 10
202.6666164113233
 20
212.6072243912656
 30
0.0
 10
203.6657139380046
 20
212.577437977267
 30
0.0
 10
204.1653499679485
 20
212.5571976382844
 30
0.0
 10
204.6646782352872
 20
212.594401822785
 30
0.0
  0
LINE
  5
1B0
330
1F
100
AcDbEntity
  8
0
  6
Continuous
 62
     8
370
    15
100
AcDbLine
 10
180.683979299
 20
212.5963436592
 30
0.0
 11
180.683979299
 21
222.6020859707
 31
0.0
  0
LWPOLYLINE
  5
1B1
330
1F
100
AcDbEntity
  8
0
  6
Continuous
 62
     8
370
     0
100
AcDbPolyline
 90
        3
 70
   128
 43
0.0
 10
210.3277216666
 20
209.8758684624
 10
210.7910136693
 20
209.9752070534
 10
211.1182208174
 20
210.1137655008
  0
LWPOLYLINE
  5
1B2
330
1F
100
AcDbEntity
  8
0
  6
Continuous
 62
     8
370
     0
100
AcDbPolyline
 90
        3
 70
   128
 43
0.0
 10
210.3276546114
 20
225.3225760687
 10
210.7909689658
 20
225.223230027
 10
211.1166673713
 20
225.0854687918
  0
SPLINE
  5
1B3
330
1F
100
AcDbEntity
  8
0
  6
Continuous
 62
     8
370
    15
100
AcDbSpline
210
0.0
220
0.0
230
1.0
 70
     8
 71
     3
 72
    14
 73
    10
 74
     0
 42
0.00000001
 43
0.00000001
 12
1.0
 22
0.0
 32
0.0
 13
1.0
 23
0.0
 33
0.0
 40
0.0
 40
0.0
 40
0.0
 40
0.0
 40
0.2499999999999993
 40
0.2499999999999993
 40
0.4999999999999996
 40
0.4999999999999996
 40
0.7499999999999998
 40
0.7499999999999998
 40
1.0
 40
1.0
 40
1.0
 40
1.0
 10
183.0617612959818
 20
209.609641870488
 30
0.0
 10
182.7402393247755
 20
209.6443596668984
 30
0.0
 10
182.4244826309111
 20
209.7476614397373
 30
0.0
 10
181.8466672267575
 20
210.0776376007693
 30
0.0
 10
181.584786197694
 20
210.304210519586
 30
0.0
 10
181.1500501398101
 20
210.8502685677765
 30
0.0
 10
180.9773287945764
 20
211.1695857814756
 30
0.0
 10
180.7442453801337
 20
211.8581536729381
 30
0.0
 10
180.6839549852805
 20
212.2271926125131
 30
0.0
 10
180.6839416146603
 20
212.5963450679438
 30
0.0
  0
ARC
  5
1B4
330
1F
100
AcDbEntity
  8
0
  6
Continuous
 62
     8
370
     0
100
AcDbCircle
 10
166.4870823734
 20
303.0492158759
 30
0.0
 40
20.95793295812687
100
AcDbArc
 50
90.0
 51
238.3411189868
  0
ARC
  5
1B5
330
1F
100
AcDbEntity
  8
0
  6
Continuous
 62
     8
370
     0
100
AcDbCircle
 10
166.4870823734
 20
303.0492158759
 30
0.0
 40
20.9579329581269
100
AcDbArc
 50
301.6588810132
 51
90.0
  0
SPLINE
  5
1B6
330
1F
100
AcDbEntity
  8
0
  6
Continuous
 62
     8
370
    15
100
AcDbSpline
210
0.0
220
0.0
230
1.0
 70
     8
 71
     3
 72
    14
 73
    10
 74
     0
 42
0.00000001
 43
0.00000001
 12
1.0
 22
0.0
 32
0.0
 13
1.0
 23
0.0
 33
0.0
 40
0.6042583100847686
 40
0.6042583100847686
 40
0.6042583100847686
 40
0.6042583100847686
 40
0.6770145513661534
 40
0.7133926720850947
 40
0.7497707928040362
 40
0.7861489135229777
 40
0.8225270342419189
 40
0.8589051549608604
 40
0.895283275631381
 40
0.895283275631381
 40
0.895283275631381
 40
0.895283275631381
 10
180.6839797628332
 20
222.6020895421865
 30
0.0
 10
180.6839797628332
 20
223.0594206874926
 30
0.0
 10
180.8145394835766
 20
223.6607118974433
 30
0.0
 10
181.1357236442784
 20
224.3142513619925
 30
0.0
 10
181.4383973031121
 20
224.7293718399431
 30
0.0
 10
181.7910897720384
 20
225.0685151513307
 30
0.0
 10
182.1846077612429
 20
225.3292924533829
 30
0.0
 10
182.6097579809112
 20
225.5093149033277
 30
0.0
 10
182.9092384563673
 20
225.5723284771741
 30
0.0
 10
183.061730154131
 20
225.588793709789
 30
0.0
  0
SPLINE
  5
1B7
330
1F
100
AcDbEntity
  8
0
  6
Continuous
 62
     8
370
     0
100
AcDbSpline
210
0.0
220
0.0
230
1.0
 70
     8
 71
     3
 72
    14
 73
    10
 74
     0
 42
0.00000001
 43
0.00000001
 12
1.0
 22
0.0
 32
0.0
 13
1.0
 23
0.0
 33
0.0
 40
0.0
 40
0.0
 40
0.0
 40
0.0
 40
0.0000065580338323
 40
0.210234169559646
 40
0.4211656387493637
 40
0.5858127243426084
 40
0.7511823600196573
 40
0.9194831425825216
 40
1.0
 40
1.0
 40
1.0
 40
1.0
 10
183.0617203378046
 20
209.6096443164617
 30
0.0
 10
183.0617110245876
 20
209.6096443164621
 30
0.0
 10
182.7631525702663
 20
209.609644330265
 30
0.0
 10
182.1111034802706
 20
209.6069641128576
 30
0.0
 10
181.1360247539916
 20
209.5983336807628
 30
0.0
 10
180.1466939242599
 20
209.5890920037361
 30
0.0
 10
179.1523952859492
 20
209.5817460216148
 30
0.0
 10
178.2685002359644
 20
209.5771330285017
 30
0.0
 10
177.6781261185866
 20
209.5747496449699
 30
0.0
 10
177.4870823138321
 20
209.5739783871442
 30
0.0
  0
LWPOLYLINE
  5
1B8
330
1F
100
AcDbEntity
  8
0
  6
Continuous
 62
     8
370
     0
100
AcDbPolyline
 90
        8
 70
   128
 43
0.0
 10
177.4870823138
 20
212.5640602935
 10
178.2105830499
 20
212.5734331239
 10
178.8265327924
 20
212.5806452859
 10
179.4398711064
 20
212.5875594247
 10
180.0213442185
 20
212.5931920636
 10
180.683950428
 20
212.5963436592
 10
180.683979299
 20
212.5963436592
 10
180.683979299
 20
212.5963436592
  0
SPLINE
  5
1B9
330
1F
100
AcDbEntity
  8
0
  6
Continuous
 62
     8
370
     0
100
AcDbSpline
210
0.0
220
0.0
230
1.0
 70
     8
 71
     3
 72
    24
 73
    20
 74
     0
 42
0.00000001
 43
0.00000001
 12
1.0
 22
0.0
 32
0.0
 13
1.0
 23
0.0
 33
0.0
 40
0.0
 40
0.0
 40
0.0
 40
0.0
 40
0.00703125
 40
0.0140625
 40
0.03515625
 40
0.05712890625
 40
0.09375
 40
0.11572265625
 40
0.15234375
 40
0.25
 40
0.2639692276392359
 40
0.2849230690980898
 40
0.3125
 40
0.435546875
 40
0.4833984375
 40
0.5859375
 40
0.640625
 40
0.6884765625
 40
0.6968964418971928
 40
0.6968964418971928
 40
0.6968964418971928
 40
0.6968964418971928
 10
184.1834132290874
 20
225.6492158746388
 30
0.0
 10
184.1456445377495
 20
225.6524290852404
 30
0.0
 10
184.0701057666372
 20
225.6588555064436
 30
0.0
 10
183.8837259708876
 20
225.6773875586294
 30
0.0
 10
183.6235471536046
 20
225.7091379785486
 30
0.0
 10
183.2236534058297
 20
225.7730324926229
 30
0.0
 10
182.8385738456798
 20
225.8555009051052
 30
0.0
 10
182.406717378378
 20
225.9734686663669
 30
0.0
 10
181.7365898521964
 20
226.2000191382632
 30
0.0
 10
181.1862836913945
 20
226.4842557885077
 30
0.0
 10
180.7609564394882
 20
226.7852265817683
 30
0.0
 10
180.5693765430722
 20
226.9342824408623
 30
0.0
 10
180.0721790421062
 20
227.3724159661728
 30
0.0
 10
179.5750839043984
 20
227.9905650434361
 30
0.0
 10
179.0023039912178
 20
229.0333965338808
 30
0.0
 10
178.6441308892743
 20
229.9461331324527
 30
0.0
 10
178.3549035039735
 20
231.0053034613619
 30
0.0
 10
178.2216684355223
 20
231.6319060216999
 30
0.0
 10
178.160309758852
 20
231.9650307794949
 30
0.0
 10
178.1512666782174
 20
232.0152216183405
 30
0.0
  0
SPLINE
  5
1BA
330
1F
100
AcDbEntity
  8
0
  6
Continuous
 62
     8
370
     0
100
AcDbSpline
210
0.0
220
0.0
230
1.0
 70
     8
 71
     3
 72
    11
 73
     7
 74
     0
 42
0.00000001
 43
0.00000001
 12
1.0
 22
0.0
 32
0.0
 13
1.0
 23
0.0
 33
0.0
 40
0.9620154054580337
 40
0.9620154054580337
 40
0.9620154054580337
 40
0.9620154054580337
 40
0.96484375
 40
0.9859375
 40
0.99296875
 40
1.0
 40
1.0
 40
1.0
 40
1.0
 10
177.6833446862246
 20
237.8492158746393
 30
0.0
 10
177.6829903743307
 20
237.8741074900186
 30
0.0
 10
177.6801072876191
 20
238.0850413716163
 30
0.0
 10
177.677620760894
 20
238.3623766347755
 30
0.0
 10
177.6763664333417
 20
238.6830630834738
 30
0.0
 10
177.6762258073508
 20
238.8357165466353
 30
0.0
 10
177.6762258073508
 20
238.8777189030797
 30
0.0
  0
LWPOLYLINE
  5
1BB
330
1F
100
AcDbEntity
  8
0
  6
Continuous
 62
     8
370
     0
100
AcDbPolyline
 90
        6
 70
   128
 43
0.0
 10
155.487082433
 20
209.7146826017
 10
152.9190293514
 20
209.72723683
 10
150.5819777959
 20
209.7297551263
 10
148.6356160604
 20
209.7296731699
 10
148.6355862581
 20
209.7296731699
 10
148.6355862581
 20
209.7296731699
  0
SPLINE
  5
1BC
330
1F
100
AcDbEntity
  8
0
  6
Continuous
 62
     8
370
     0
100
AcDbSpline
210
0.0
220
0.0
230
1.0
 70
    24
 71
     3
 72
     8
 73
     4
 74
     0
 42
0.00000001
 43
0.00000001
 12
1.0
 22
0.0
 32
0.0
 13
1.0
 23
0.0
 33
0.0
 40
0.0
 40
0.0
 40
0.0
 40
0.0
 40
1.0
 40
1.0
 40
1.0
 40
1.0
 10
177.6762258073508
 20
238.8777189030797
 30
0.0
 10
179.722131604893
 20
238.8777189030797
 30
0.0
 10
181.5936561688801
 20
238.8777189030797
 30
0.0
 10
183.2049319386947
 20
238.8777189030797
 30
0.0
  0
SPLINE
  5
1BD
330
1F
100
AcDbEntity
  8
0
  6
Continuous
 62
     8
370
     0
100
AcDbSpline
210
0.0
220
0.0
230
1.0
 70
     8
 71
     3
 72
    33
 73
    29
 74
     0
 42
0.00000001
 43
0.00000001
 12
1.0
 22
0.0
 32
0.0
 13
1.0
 23
0.0
 33
0.0
 40
0.0
 40
0.0
 40
0.0
 40
0.0
 40
0.020456760733087
 40
0.0409182738974842
 40
0.0614036136729252
 40
0.0819317878222834
 40
0.1025216854798769
 40
0.123192026566724
 40
0.1439613134874584
 40
0.1648477856931222
 40
0.1858693776084062
 40
0.2070436803256287
 40
0.2283879073653091
 40
0.2499188646996951
 40
0.3120578843211758
 40
0.3746191326213819
 40
0.4373825376537459
 40
0.4998445290051709
 40
0.5625934670470006
 40
0.6241389632430623
 40
0.6877989915781368
 40
0.7494335200504457
 40
0.8131038056629617
 40
0.8746418930649092
 40
0.9064248608784282
 40
0.9378052310756887
 40
0.9689425223732916
 40
1.0
 40
1.0
 40
1.0
 40
1.0
 10
183.2049319386947
 20
238.8777189030797
 30
0.0
 10
183.2768208972337
 20
238.8767952334608
 30
0.0
 10
183.4206155152618
 20
238.8749476796397
 30
0.0
 10
183.6322118192793
 20
238.8599944380572
 30
0.0
 10
183.8406955403043
 20
238.8361224878625
 30
0.0
 10
184.0457502699841
 20
238.8024571158631
 30
0.0
 10
184.2474204715381
 20
238.7592335459942
 30
0.0
 10
184.4456547137298
 20
238.7063889904431
 30
0.0
 10
184.640428414638
 20
238.64394082125
 30
0.0
 10
184.8317108129362
 20
238.571885279615
 30
0.0
 10
185.019473908595
 20
238.490222960641
 30
0.0
 10
185.2036899111855
 20
238.3989586714336
 30
0.0
 10
185.3843324612685
 20
238.2980759815874
 30
0.0
 10
185.6720916828628
 20
238.1185767043551
 30
0.0
 10
186.0498593588831
 20
237.8306546713335
 30
0.0
 10
186.4888908990843
 20
237.3918617966405
 30
0.0
 10
186.883822594702
 20
236.8870426700873
 30
0.0
 10
187.2345826568595
 20
236.3180710877241
 30
0.0
 10
187.5401824802194
 20
235.6928094537611
 30
0.0
 10
187.8054745951341
 20
235.0038737547657
 30
0.0
 10
188.0283011204901
 20
234.2614794860064
 30
0.0
 10
188.2124747412913
 20
233.4529369144809
 30
0.0
 10
188.354725639531
 20
232.600190218126
 30
0.0
 10
188.4402916470291
 20
231.8432023864849
 30
0.0
 10
188.488224808266
 20
231.2243041509653
 30
0.0
 10
188.5138914840793
 20
230.7488619866936
 30
0.0
 10
188.5298049350519
 20
230.2720691965001
 30
0.0
 10
188.5317591081667
 20
229.9534730245761
 30
0.0
 10
188.5327349408426
 20
229.794379363604
 30
0.0
  0
LINE
  5
1BE
330
1F
100
AcDbEntity
  8
0
  6
Continuous
 62
     8
370
     0
100
AcDbLine
 10
188.5327356868
 20
229.79437729
 30
0.0
 11
188.5327356868
 21
225.6492169726
 31
0.0
  0
SPLINE
  5
1BF
330
1F
100
AcDbEntity
  8
0
  6
Continuous
 62
     8
370
     0
100
AcDbSpline
210
0.0
220
0.0
230
1.0
 70
     8
 71
     3
 72
     9
 73
     5
 74
     0
 42
0.00000001
 43
0.00000001
 12
1.0
 22
0.0
 32
0.0
 13
1.0
 23
0.0
 33
0.0
 40
0.0
 40
0.0
 40
0.0
 40
0.0
 40
0.7152803528802425
 40
1.0
 40
1.0
 40
1.0
 40
1.0
 10
184.2935844325388
 20
209.5850350487501
 30
0.0
 10
183.9310256631589
 20
209.5751058270797
 30
0.0
 10
183.4241492084653
 20
209.5612242467589
 30
0.0
 10
183.0135376798294
 20
209.5577262433567
 30
0.0
 10
182.8966285102928
 20
209.5567302930623
 30
0.0
  0
SPLINE
  5
1C0
330
1F
100
AcDbEntity
  8
0
  6
Continuous
 62
     8
370
     0
100
AcDbSpline
210
0.0
220
0.0
230
1.0
 70
     8
 71
     3
 72
    11
 73
     7
 74
     0
 42
0.00000001
 43
0.00000001
 12
1.0
 22
0.0
 32
0.0
 13
1.0
 23
0.0
 33
0.0
 40
0.0
 40
0.0
 40
0.0
 40
0.0
 40
0.2529031709837508
 40
0.6617051968983431
 40
0.8306491754263433
 40
1.0
 40
1.0
 40
1.0
 40
1.0
 10
182.5477010571325
 20
209.5791490900785
 30
0.0
 10
182.6557717427819
 20
209.5810750197922
 30
0.0
 10
182.9385318760313
 20
209.5861140934246
 30
0.0
 10
183.4762501786785
 20
209.5949699632637
 30
0.0
 10
184.0170444993094
 20
209.6025373738544
 30
0.0
 10
184.2990666089361
 20
209.6044532810259
 30
0.0
 10
184.4402472489441
 20
209.6054123866826
 30
0.0
  0
SPLINE
  5
1C1
330
1F
100
AcDbEntity
  8
0
  6
Continuous
 62
     8
370
     0
100
AcDbSpline
210
0.0
220
0.0
230
1.0
 70
     8
 71
     3
 72
    39
 73
    35
 74
     0
 42
0.00000001
 43
0.00000001
 12
1.0
 22
0.0
 32
0.0
 13
1.0
 23
0.0
 33
0.0
 40
0.0
 40
0.0
 40
0.0
 40
0.0
 40
0.0645638383193644
 40
0.1326476835565511
 40
0.2043238270287056
 40
0.3007922404833728
 40
0.3539965930669052
 40
0.3818445041238825
 40
0.3960802741599749
 40
0.4032759079208266
 40
0.4068934116731827
 40
0.4087069973866166
 40
0.4096149385600231
 40
0.4100692010147479
 40
0.4102964689833142
 40
0.4104100301554279
 40
0.4104669931007994
 40
0.410495277500206
 40
0.4105095076306287
 40
0.4105166378831333
 40
0.4105201015221928
 40
0.4105220222094011
 40
0.4105229227621461
 40
0.4105233446902759
 40
0.4437332483711777
 40
0.5410686334074257
 40
0.6630462367707294
 40
0.7461338200282879
 40
0.8086799589423562
 40
0.8559202742097455
 40
0.8960699001024377
 40
0.9362383440975145
 40
0.9754830788064094
 40
1.0
 40
1.0
 40
1.0
 40
1.0
 10
153.3638932743037
 20
278.7717374193937
 30
0.0
 10
152.9604100400166
 20
279.0495837976219
 30
0.0
 10
152.1314457501713
 20
279.6204246803193
 30
0.0
 10
150.9660813281054
 20
280.5694417605205
 30
0.0
 10
149.7175069789681
 20
281.7154200854938
 30
0.0
 10
148.6673574907599
 20
282.8428457997763
 30
0.0
 10
147.9053403343753
 20
283.7707595568926
 30
0.0
 10
147.5194697899244
 20
284.2748063303571
 30
0.0
 10
147.3260997806074
 20
284.5369061533119
 30
0.0
 10
147.2293945602555
 20
284.670502626021
 30
0.0
 10
147.1810632267695
 20
284.7379252236973
 30
0.0
 10
147.1568979259712
 20
284.7718029461503
 30
0.0
 10
147.1448171637951
 20
284.7887747054933
 30
0.0
 10
147.1387761475682
 20
284.7972790756065
 30
0.0
 10
147.1357590867771
 20
284.8015229673132
 30
0.0
 10
147.1342458397347
 20
284.8036594017304
 30
0.0
 10
147.1334924443488
 20
284.804714170532
 30
0.0
 10
147.13311460379
 20
284.805249650544
 30
0.0
 10
147.1329259733958
 20
284.8055177199352
 30
0.0
 10
147.1328320445896
 20
284.8056433981984
 30
0.0
 10
147.1327821347479
 20
284.8057185509655
 30
0.0
 10
147.1327629748232
 20
284.8057461652667
 30
0.0
 10
147.1327474345754
 20
284.805764181111
 30
0.0
 10
147.0423109683201
 20
285.0025588264608
 30
0.0
 10
146.4780803546385
 20
285.6677772026081
 30
0.0
 10
145.7104582230778
 20
287.068859073902
 30
0.0
 10
144.8678249175223
 20
288.7002676558304
 30
0.0
 10
144.3064722806994
 20
290.1116799003406
 30
0.0
 10
143.9783937522839
 20
291.0771893041731
 30
0.0
 10
143.772750977172
 20
291.7484780563461
 30
0.0
 10
143.6327086460983
 20
292.2440921141176
 30
0.0
 10
143.5420164797248
 20
292.5618855990634
 30
0.0
 10
143.4833775723922
 20
292.7329449997077
 30
0.0
 10
143.500362548756
 20
292.6858332991324
 30
0.0
 10
143.5068934225405
 20
292.6677184331685
 30
0.0
  0
SPLINE
  5
1C2
330
1F
100
AcDbEntity
  8
0
  6
Continuous
 62
     8
370
     0
100
AcDbSpline
210
0.0
220
0.0
230
1.0
 70
     8
 71
     3
 72
    23
 73
    19
 74
     0
 42
0.00000001
 43
0.00000001
 12
1.0
 22
0.0
 32
0.0
 13
1.0
 23
0.0
 33
0.0
 40
0.0
 40
0.0
 40
0.0
 40
0.0
 40
0.0535571549877582
 40
0.0762477316326736
 40
0.1010275960562614
 40
0.1280851192116317
 40
0.1839828023632246
 40
0.2569134849027521
 40
0.3313039015885385
 40
0.4194023428861212
 40
0.4844742820317704
 40
0.5713863422915971
 40
0.6519881150522852
 40
0.7263152926914171
 40
0.794414422810775
 40
0.856345409502641
 40
0.9529049582985164
 40
1.0
 40
1.0
 40
1.0
 40
1.0
 10
189.4703372382486
 20
292.6666706952721
 30
0.0
 10
189.4673889639806
 20
292.6630521568413
 30
0.0
 10
189.4631915934291
 20
292.657900551099
 30
0.0
 10
189.3803835981014
 20
292.3742401320052
 30
0.0
 10
189.3060759800579
 20
292.1106845504557
 30
0.0
 10
189.172518139413
 20
291.6500089121761
 30
0.0
 10
188.9299100267062
 20
290.8548436243653
 30
0.0
 10
188.5184167059418
 20
289.7186097559542
 30
0.0
 10
187.9241345142706
 20
288.3320360416931
 30
0.0
 10
187.2234101258298
 20
286.9677988694667
 30
0.0
 10
186.358700567343
 20
285.5280553741459
 30
0.0
 10
185.3930622614427
 20
284.1577305154705
 30
0.0
 10
184.2416478339643
 20
282.7697776263365
 30
0.0
 10
183.0521684438723
 20
281.530417637857
 30
0.0
 10
181.8546135393897
 20
280.4372868550191
 30
0.0
 10
180.4051892110202
 20
279.2922074012868
 30
0.0
 10
178.985272482497
 20
278.3134846085528
 30
0.0
 10
177.8569772785389
 20
277.7424395468504
 30
0.0
 10
177.4870823138321
 20
277.5552308339149
 30
0.0
  0
SPLINE
  5
1C3
330
1F
100
AcDbEntity
  8
0
  6
Continuous
 62
     8
370
     0
100
AcDbSpline
210
0.0
220
0.0
230
1.0
 70
     8
 71
     3
 72
     9
 73
     5
 74
     0
 42
0.00000001
 43
0.00000001
 12
1.0
 22
0.0
 32
0.0
 13
1.0
 23
0.0
 33
0.0
 40
0.0
 40
0.0
 40
0.0
 40
0.0
 40
0.0025243042750125
 40
1.0
 40
1.0
 40
1.0
 40
1.0
 10
155.4870824330414
 20
277.5220012444526
 30
0.0
 10
155.4851251981373
 20
277.5228988448341
 30
0.0
 10
154.7097690243748
 20
277.8784821199189
 30
0.0
 10
154.0359807259982
 20
278.3256741940886
 30
0.0
 10
153.3638932743037
 20
278.7717374193937
 30
0.0
  0
LINE
  5
1C4
330
1F
100
AcDbEntity
  8
0
  6
Continuous
 62
     8
370
     0
100
AcDbLine
 10
177.6762255468
 20
238.8777153719
 30
0.0
 11
177.6762255468
 21
240.1492165554
 31
0.0
  0
SPLINE
  5
1C5
330
1F
100
AcDbEntity
  8
0
  6
Continuous
 62
     8
370
     0
100
AcDbSpline
210
0.0
220
0.0
230
1.0
 70
     8
 71
     3
 72
    11
 73
     7
 74
     0
 42
0.00000001
 43
0.00000001
 12
1.0
 22
0.0
 32
0.0
 13
1.0
 23
0.0
 33
0.0
 40
0.0
 40
0.0
 40
0.0
 40
0.0
 40
0.295650992513611
 40
0.5998736989783268
 40
0.8955540029531456
 40
1.0
 40
1.0
 40
1.0
 40
1.0
 10
146.4137746953333
 20
212.6941399801046
 30
0.0
 10
147.0837588852718
 20
212.6943017487841
 30
0.0
 10
148.4431519008624
 20
212.6946299762504
 30
0.0
 10
151.1550798175956
 20
212.6928699559393
 30
0.0
 10
153.5343831286915
 20
212.6855912798918
 30
0.0
 10
155.0828754907336
 20
212.6702496670038
 30
0.0
 10
155.4870824330414
 20
212.6662450063497
 30
0.0
  0
LINE
  5
1C6
330
1F
100
AcDbEntity
  8
0
  6
Continuous
 62
     8
370
     0
100
AcDbLine
 10
143.5355204158
 20
212.6941474307
 30
0.0
 11
146.4137746953
 21
212.6941474307
 31
0.0
  0
LINE
  5
1C7
330
1F
100
AcDbEntity
  8
0
  6
Continuous
 62
     8
370
     0
100
AcDbLine
 10
148.6355937087
 20
209.7296806205
 30
0.0
 11
146.0751532578
 21
209.7296806205
 31
0.0
  0
ENDSEC
  0
SECTION
  2
OBJECTS
  0
DICTIONARY
  5
C
330
0
100
AcDbDictionary
281
     1
  3
ACAD_GROUP
350
D
  3
ACAD_LAYOUT
350
1A
  3
ACAD_MATERIAL
350
3B
  3
ACAD_MLEADERSTYLE
350
1C9
  3
ACAD_MLINESTYLE
350
17
  3
ACAD_PLOTSETTINGS
350
19
  3
ACAD_PLOTSTYLENAME
350
E
  3
ACAD_TABLESTYLE
350
1C8
  3
ACAD_VISUALSTYLE
350
2A
  0
DICTIONARY
  5
D
102
{ACAD_REACTORS
330
C
102
}
330
C
100
AcDbDictionary
281
     1
  0
DICTIONARY
  5
1A
102
{ACAD_REACTORS
330
C
102
}
330
C
100
AcDbDictionary
281
     1
  3
Layout1
350
1E
  3
Layout2
350
26
  3
Model
350
22
  0
DICTIONARY
  5
3B
102
{ACAD_REACTORS
330
C
102
}
330
C
100
AcDbDictionary
281
     1
  3
ByBlock
350
3D
  3
ByLayer
350
3C
  3
Global
350
3E
  0
DICTIONARY
  5
1C9
102
{ACAD_REACTORS
330
C
102
}
330
C
100
AcDbDictionary
281
     1
  0
DICTIONARY
  5
17
102
{ACAD_REACTORS
330
C
102
}
330
C
100
AcDbDictionary
281
     1
  3
Standard
350
18
  0
DICTIONARY
  5
19
102
{ACAD_REACTORS
330
C
102
}
330
C
100
AcDbDictionary
281
     1
  0
ACDBDICTIONARYWDFLT
  5
E
102
{ACAD_REACTORS
330
C
102
}
330
C
100
AcDbDictionary
281
     1
  3
Normal
350
F
100
AcDbDictionaryWithDefault
340
F
  0
DICTIONARY
  5
1C8
102
{ACAD_REACTORS
330
C
102
}
330
C
100
AcDbDictionary
281
     1
  0
DICTIONARY
  5
2A
102
{ACAD_REACTORS
330
C
102
}
330
C
100
AcDbDictionary
281
     1
  3
2dWireframe
350
2F
  3
3D Hidden
350
31
  3
3dWireframe
350
30
  3
Basic
350
32
  3
Brighten
350
36
  3
ColorChange
350
3A
  3
Conceptual
350
34
  3
Dim
350
35
  3
Facepattern
350
39
  3
Flat
350
2B
  3
FlatWithEdges
350
2C
  3
Gouraud
350
2D
  3
GouraudWithEdges
350
2E
  3
Linepattern
350
38
  3
Realistic
350
33
  3
Thicken
350
37
  0
LAYOUT
  5
1E
102
{ACAD_REACTORS
330
1A
102
}
330
1A
100
AcDbPlotSettings
  1

  2
none_device
  4

  6

 40
0.0
 41
0.0
 42
0.0
 43
0.0
 44
0.0
 45
0.0
 46
0.0
 47
0.0
 48
0.0
 49
0.0
140
0.0
141
0.0
142
1.0
143
1.0
 70
   688
 72
     0
 73
     0
 74
     5
  7

 75
    16
 76
     0
 77
     2
 78
   300
147
1.0
148
0.0
149
0.0
100
AcDbLayout
  1
Layout1
 70
     1
 71
     1
 10
0.0
 20
0.0
 11
420.0
 21
297.0
 12
0.0
 22
0.0
 32
0.0
 14
1.0000000000E+20
 24
1.0000000000E+20
 34
1.0000000000E+20
 15
-1.0000000000E+20
 25
-1.0000000000E+20
 35
-1.0000000000E+20
146
0.0
 13
0.0
 23
0.0
 33
0.0
 16
1.0
 26
0.0
 36
0.0
 17
0.0
 27
1.0
 37
0.0
 76
     0
330
1B
  0
LAYOUT
  5
26
102
{ACAD_REACTORS
330
1A
102
}
330
1A
100
AcDbPlotSettings
  1

  2
none_device
  4

  6

 40
0.0
 41
0.0
 42
0.0
 43
0.0
 44
0.0
 45
0.0
 46
0.0
 47
0.0
 48
0.0
 49
0.0
140
0.0
141
0.0
142
1.0
143
1.0
 70
   688
 72
     0
 73
     0
 74
     5
  7

 75
    16
 76
     0
 77
     2
 78
   300
147
1.0
148
0.0
149
0.0
100
AcDbLayout
  1
Layout2
 70
     1
 71
     2
 10
0.0
 20
0.0
 11
0.0
 21
0.0
 12
0.0
 22
0.0
 32
0.0
 14
0.0
 24
0.0
 34
0.0
 15
0.0
 25
0.0
 35
0.0
146
0.0
 13
0.0
 23
0.0
 33
0.0
 16
1.0
 26
0.0
 36
0.0
 17
0.0
 27
1.0
 37
0.0
 76
     0
330
23
  0
LAYOUT
  5
22
102
{ACAD_REACTORS
330
1A
102
}
330
1A
100
AcDbPlotSettings
  1

  2
none_device
  4

  6

 40
0.0
 41
0.0
 42
0.0
 43
0.0
 44
0.0
 45
0.0
 46
0.0
 47
0.0
 48
0.0
 49
0.0
140
0.0
141
0.0
142
1.0
143
1.0
 70
  1712
 72
     0
 73
     0
 74
     0
  7

 75
     0
 76
     0
 77
     2
 78
   300
147
1.0
148
0.0
149
0.0
100
AcDbLayout
  1
Model
 70
     1
 71
     0
 10
0.0
 20
0.0
 11
594.0
 21
841.0
 12
0.0
 22
0.0
 32
0.0
 14
0.0
 24
0.0
 34
0.0
 15
594.0
 25
841.0
 35
0.0
146
0.0
 13
0.0
 23
0.0
 33
0.0
 16
1.0
 26
0.0
 36
0.0
 17
0.0
 27
1.0
 37
0.0
 76
     0
330
1F
331
29
  0
MATERIAL
  5
3D
102
{ACAD_REACTORS
330
3B
102
}
330
3B
100
AcDbMaterial
  1
ByBlock
 72
     1
 94
      127
  0
MATERIAL
  5
3C
102
{ACAD_REACTORS
330
3B
102
}
330
3B
100
AcDbMaterial
  1
ByLayer
 72
     1
 94
      127
  0
MATERIAL
  5
3E
102
{ACAD_REACTORS
330
3B
102
}
330
3B
100
AcDbMaterial
  1
Global
 72
     1
 94
      127
  0
MLINESTYLE
  5
18
102
{ACAD_REACTORS
330
17
102
}
330
17
100
AcDbMlineStyle
  2
Standard
 70
     0
  3

 62
   256
 51
90.0
 52
90.0
 71
     2
 49
0.5
 62
   256
  6
BYLAYER
 49
-0.5
 62
   256
  6
BYLAYER
  0
ACDBPLACEHOLDER
  5
F
102
{ACAD_REACTORS
330
E
102
}
330
E
  0
VISUALSTYLE
  5
2F
102
{ACAD_REACTORS
330
2A
102
}
330
2A
100
AcDbVisualStyle
  2
2dWireframe
 70
     4
177
     2
291
     0
 71
     0
176
     1
 72
     2
176
     1
 73
     0
176
     1
 90
        0
176
     1
 40
-0.6
176
     1
 41
-30.0
176
     1
 62
     5
 63
     7
421
 16777215
176
     1
 74
     1
176
     1
 91
        4
176
     1
 64
     7
176
     1
 65
   257
176
     1
 75
     1
176
     1
175
     1
176
     1
 42
1.0
176
     1
 92
        0
176
     1
 66
   257
176
     1
 43
1.0
176
     1
 76
     1
176
     1
 77
     6
176
     1
 78
     2
176
     1
 67
     7
176
     1
 79
     5
176
     1
170
     0
176
     1
171
     0
176
     1
290
     0
176
     1
 93
        1
176
     1
 44
0.0
176
     1
173
     0
176
     1
  0
VISUALSTYLE
  5
31
102
{ACAD_REACTORS
330
2A
102
}
330
2A
100
AcDbVisualStyle
  2
3D Hidden
 70
     6
177
     2
291
     0
 71
     1
176
     1
 72
     2
176
     1
 73
     2
176
     1
 90
        0
176
     1
 40
-0.6
176
     1
 41
-30.0
176
     1
 62
     5
 63
     7
421
 16777215
176
     1
 74
     2
176
     1
 91
        2
176
     1
 64
     7
176
     1
 65
   257
176
     1
 75
     2
176
     1
175
     1
176
     1
 42
40.0
176
     1
 92
        0
176
     1
 66
   257
176
     1
 43
1.0
176
     1
 76
     1
176
     1
 77
     6
176
     1
 78
     2
176
     1
 67
     7
176
     1
 79
     3
176
     1
170
     0
176
     1
171
     0
176
     1
290
     0
176
     1
 93
        1
176
     1
 44
0.0
176
     1
173
     0
176
     1
  0
VISUALSTYLE
  5
30
102
{ACAD_REACTORS
330
2A
102
}
330
2A
100
AcDbVisualStyle
  2
3dWireframe
 70
     5
177
     2
291
     0
 71
     0
176
     1
 72
     2
176
     1
 73
     0
176
     1
 90
        0
176
     1
 40
-0.6
176
     1
 41
-30.0
176
     1
 62
     5
 63
     7
421
 16777215
176
     1
 74
     1
176
     1
 91
        4
176
     1
 64
     7
176
     1
 65
   257
176
     1
 75
     1
176
     1
175
     1
176
     1
 42
1.0
176
     1
 92
        0
176
     1
 66
   257
176
     1
 43
1.0
176
     1
 76
     1
176
     1
 77
     6
176
     1
 78
     2
176
     1
 67
     7
176
     1
 79
     5
176
     1
170
     0
176
     1
171
     0
176
     1
290
     0
176
     1
 93
        1
176
     1
 44
0.0
176
     1
173
     0
176
     1
  0
VISUALSTYLE
  5
32
102
{ACAD_REACTORS
330
2A
102
}
330
2A
100
AcDbVisualStyle
  2
Basic
 70
     7
177
     2
291
     1
 71
     1
176
     1
 72
     0
176
     1
 73
     1
176
     1
 90
        0
176
     1
 40
-0.6
176
     1
 41
-30.0
176
     1
 62
     5
 63
     7
421
 16777215
176
     1
 74
     0
176
     1
 91
        4
176
     1
 64
     7
176
     1
 65
   257
176
     1
 75
     1
176
     1
175
     1
176
     1
 42
1.0
176
     1
 92
        8
176
     1
 66
     7
176
     1
 43
1.0
176
     1
 76
     1
176
     1
 77
     6
176
     1
 78
     2
176
     1
 67
     7
176
     1
 79
     5
176
     1
170
     0
176
     1
171
     0
176
     1
290
     0
176
     1
 93
        1
176
     1
 44
0.0
176
     1
173
     0
176
     1
  0
VISUALSTYLE
  5
36
102
{ACAD_REACTORS
330
2A
102
}
330
2A
100
AcDbVisualStyle
  2
Brighten
 70
    12
177
     2
291
     1
 71
     2
176
     1
 72
     2
176
     1
 73
     0
176
     1
 90
        0
176
     1
 40
-0.6
176
     1
 41
-30.0
176
     1
 62
     5
 63
     7
421
 16777215
176
     1
 74
     1
176
     1
 91
        4
176
     1
 64
     7
176
     1
 65
   257
176
     1
 75
     1
176
     1
175
     1
176
     1
 42
1.0
176
     1
 92
        8
176
     1
 66
     7
176
     1
 43
1.0
176
     1
 76
     1
176
     1
 77
     6
176
     1
 78
     2
176
     1
 67
     7
176
     1
 79
     5
176
     1
170
     0
176
     1
171
     0
176
     1
290
     0
176
     1
 93
        1
176
     1
 44
50.0
176
     1
173
     0
176
     1
  0
VISUALSTYLE
  5
3A
102
{ACAD_REACTORS
330
2A
102
}
330
2A
100
AcDbVisualStyle
  2
ColorChange
 70
    16
177
     2
291
     1
 71
     2
176
     1
 72
     2
176
     1
 73
     3
176
     1
 90
        0
176
     1
 40
-0.6
176
     1
 41
-30.0
176
     1
 62
     5
 63
     8
421
  8421504
176
     1
 74
     1
176
     1
 91
        4
176
     1
 64
     7
176
     1
 65
   257
176
     1
 75
     1
176
     1
175
     1
176
     1
 42
1.0
176
     1
 92
        8
176
     1
 66
     8
424
  8421504
176
     1
 43
1.0
176
     1
 76
     1
176
     1
 77
     6
176
     1
 78
     2
176
     1
 67
     7
176
     1
 79
     5
176
     1
170
     0
176
     1
171
     0
176
     1
290
     0
176
     1
 93
        1
176
     1
 44
0.0
176
     1
173
     0
176
     1
  0
VISUALSTYLE
  5
34
102
{ACAD_REACTORS
330
2A
102
}
330
2A
100
AcDbVisualStyle
  2
Conceptual
 70
     9
177
     2
291
     0
 71
     3
176
     1
 72
     2
176
     1
 73
     0
176
     1
 90
        0
176
     1
 40
-0.6
176
     1
 41
-30.0
176
     1
 62
     5
 63
     7
421
 16777215
176
     1
 74
     2
176
     1
 91
        2
176
     1
 64
     7
176
     1
 65
   257
176
     1
 75
     1
176
     1
175
     1
176
     1
 42
40.0
176
     1
 92
        8
176
     1
 66
     7
176
     1
 43
1.0
176
     1
 76
     1
176
     1
 77
     6
176
     1
 78
     2
176
     1
 67
     7
176
     1
 79
     3
176
     1
170
     0
176
     1
171
     0
176
     1
290
     0
176
     1
 93
        1
176
     1
 44
0.0
176
     1
173
     0
176
     1
  0
VISUALSTYLE
  5
35
102
{ACAD_REACTORS
330
2A
102
}
330
2A
100
AcDbVisualStyle
  2
Dim
 70
    11
177
     2
291
     1
 71
     2
176
     1
 72
     2
176
     1
 73
     0
176
     1
 90
        0
176
     1
 40
-0.6
176
     1
 41
-30.0
176
     1
 62
     5
 63
     7
421
 16777215
176
     1
 74
     1
176
     1
 91
        4
176
     1
 64
     7
176
     1
 65
   257
176
     1
 75
     1
176
     1
175
     1
176
     1
 42
1.0
176
     1
 92
        8
176
     1
 66
     7
176
     1
 43
1.0
176
     1
 76
     1
176
     1
 77
     6
176
     1
 78
     2
176
     1
 67
     7
176
     1
 79
     5
176
     1
170
     0
176
     1
171
     0
176
     1
290
     0
176
     1
 93
        1
176
     1
 44
-50.0
176
     1
173
     0
176
     1
  0
VISUALSTYLE
  5
39
102
{ACAD_REACTORS
330
2A
102
}
330
2A
100
AcDbVisualStyle
  2
Facepattern
 70
    15
177
     2
291
     1
 71
     2
176
     1
 72
     2
176
     1
 73
     0
176
     1
 90
        0
176
     1
 40
-0.6
176
     1
 41
-30.0
176
     1
 62
     5
 63
     7
421
 16777215
176
     1
 74
     1
176
     1
 91
        4
176
     1
 64
     7
176
     1
 65
   257
176
     1
 75
     1
176
     1
175
     1
176
     1
 42
1.0
176
     1
 92
        8
176
     1
 66
     7
176
     1
 43
1.0
176
     1
 76
     1
176
     1
 77
     6
176
     1
 78
     2
176
     1
 67
     7
176
     1
 79
     5
176
     1
170
     0
176
     1
171
     0
176
     1
290
     0
176
     1
 93
        1
176
     1
 44
0.0
176
     1
173
     0
176
     1
  0
VISUALSTYLE
  5
2B
102
{ACAD_REACTORS
330
2A
102
}
330
2A
100
AcDbVisualStyle
  2
Flat
 70
     0
177
     2
291
     1
 71
     2
176
     1
 72
     1
176
     1
 73
     1
176
     1
 90
        2
176
     1
 40
-0.6
176
     1
 41
30.0
176
     1
 62
     5
 63
     7
421
 16777215
176
     1
 74
     0
176
     1
 91
        4
176
     1
 64
     7
176
     1
 65
   257
176
     1
 75
     1
176
     1
175
     1
176
     1
 42
1.0
176
     1
 92
        8
176
     1
 66
     7
176
     1
 43
1.0
176
     1
 76
     1
176
     1
 77
     6
176
     1
 78
     2
176
     1
 67
     7
176
     1
 79
     5
176
     1
170
     0
176
     1
171
     0
176
     1
290
     0
176
     1
 93
       13
176
     1
 44
0.0
176
     1
173
     0
176
     1
  0
VISUALSTYLE
  5
2C
102
{ACAD_REACTORS
330
2A
102
}
330
2A
100
AcDbVisualStyle
  2
FlatWithEdges
 70
     1
177
     2
291
     1
 71
     2
176
     1
 72
     1
176
     1
 73
     1
176
     1
 90
        2
176
     1
 40
-0.6
176
     1
 41
30.0
176
     1
 62
     5
 63
     7
421
 16777215
176
     1
 74
     1
176
     1
 91
        4
176
     1
 64
     7
176
     1
 65
   257
176
     1
 75
     1
176
     1
175
     1
176
     1
 42
1.0
176
     1
 92
        0
176
     1
 66
   257
176
     1
 43
1.0
176
     1
 76
     1
176
     1
 77
     6
176
     1
 78
     2
176
     1
 67
     7
176
     1
 79
     5
176
     1
170
     0
176
     1
171
     0
176
     1
290
     0
176
     1
 93
       13
176
     1
 44
0.0
176
     1
173
     0
176
     1
  0
VISUALSTYLE
  5
2D
102
{ACAD_REACTORS
330
2A
102
}
330
2A
100
AcDbVisualStyle
  2
Gouraud
 70
     2
177
     2
291
     1
 71
     2
176
     1
 72
     2
176
     1
 73
     1
176
     1
 90
        2
176
     1
 40
-0.6
176
     1
 41
30.0
176
     1
 62
     5
 63
     7
421
 16777215
176
     1
 74
     0
176
     1
 91
        4
176
     1
 64
     7
176
     1
 65
   257
176
     1
 75
     1
176
     1
175
     1
176
     1
 42
1.0
176
     1
 92
        0
176
     1
 66
     7
176
     1
 43
1.0
176
     1
 76
     1
176
     1
 77
     6
176
     1
 78
     2
176
     1
 67
     7
176
     1
 79
     5
176
     1
170
     0
176
     1
171
     0
176
     1
290
     0
176
     1
 93
       13
176
     1
 44
0.0
176
     1
173
     0
176
     1
  0
VISUALSTYLE
  5
2E
102
{ACAD_REACTORS
330
2A
102
}
330
2A
100
AcDbVisualStyle
  2
GouraudWithEdges
 70
     3
177
     2
291
     1
 71
     2
176
     1
 72
     2
176
     1
 73
     1
176
     1
 90
        2
176
     1
 40
-0.6
176
     1
 41
30.0
176
     1
 62
     5
 63
     7
421
 16777215
176
     1
 74
     1
176
     1
 91
        4
176
     1
 64
     7
176
     1
 65
   257
176
     1
 75
     1
176
     1
175
     1
176
     1
 42
1.0
176
     1
 92
        0
176
     1
 66
   257
176
     1
 43
1.0
176
     1
 76
     1
176
     1
 77
     6
176
     1
 78
     2
176
     1
 67
     7
176
     1
 79
     5
176
     1
170
     0
176
     1
171
     0
176
     1
290
     0
176
     1
 93
       13
176
     1
 44
0.0
176
     1
173
     0
176
     1
  0
VISUALSTYLE
  5
38
102
{ACAD_REACTORS
330
2A
102
}
330
2A
100
AcDbVisualStyle
  2
Linepattern
 70
    14
177
     2
291
     1
 71
     2
176
     1
 72
     2
176
     1
 73
     0
176
     1
 90
        0
176
     1
 40
-0.6
176
     1
 41
-30.0
176
     1
 62
     5
 63
     7
421
 16777215
176
     1
 74
     1
176
     1
 91
        4
176
     1
 64
     7
176
     1
 65
   257
176
     1
 75
     7
176
     1
175
     7
176
     1
 42
1.0
176
     1
 92
        8
176
     1
 66
     7
176
     1
 43
1.0
176
     1
 76
     1
176
     1
 77
     6
176
     1
 78
     2
176
     1
 67
     7
176
     1
 79
     5
176
     1
170
     0
176
     1
171
     0
176
     1
290
     0
176
     1
 93
        1
176
     1
 44
0.0
176
     1
173
     0
176
     1
  0
VISUALSTYLE
  5
33
102
{ACAD_REACTORS
330
2A
102
}
330
2A
100
AcDbVisualStyle
  2
Realistic
 70
     8
177
     2
291
     0
 71
     2
176
     1
 72
     2
176
     1
 73
     0
176
     1
 90
        0
176
     1
 40
-0.6
176
     1
 41
-30.0
176
     1
 62
     5
 63
     7
421
 16777215
176
     1
 74
     1
176
     1
 91
        0
176
     1
 64
     7
176
     1
 65
   257
176
     1
 75
     1
176
     1
175
     1
176
     1
 42
1.0
176
     1
 92
        8
176
     1
 66
     8
424
  7895160
176
     1
 43
1.0
176
     1
 76
     1
176
     1
 77
     6
176
     1
 78
     2
176
     1
 67
     7
176
     1
 79
     5
176
     1
170
     0
176
     1
171
     0
176
     1
290
     0
176
     1
 93
       13
176
     1
 44
0.0
176
     1
173
     0
176
     1
  0
VISUALSTYLE
  5
37
102
{ACAD_REACTORS
330
2A
102
}
330
2A
100
AcDbVisualStyle
  2
Thicken
 70
    13
177
     2
291
     1
 71
     2
176
     1
 72
     2
176
     1
 73
     0
176
     1
 90
        0
176
     1
 40
-0.6
176
     1
 41
-30.0
176
     1
 62
     5
 63
     7
421
 16777215
176
     1
 74
     1
176
     1
 91
        4
176
     1
 64
     7
176
     1
 65
   257
176
     1
 75
     1
176
     1
175
     1
176
     1
 42
1.0
176
     1
 92
       12
176
     1
 66
     7
176
     1
 43
1.0
176
     1
 76
     1
176
     1
 77
     6
176
     1
 78
     2
176
     1
 67
     7
176
     1
 79
     5
176
     1
170
     0
176
     1
171
     0
176
     1
290
     0
176
     1
 93
        1
176
     1
 44
0.0
176
     1
173
     0
176
     1
  0
ENDSEC
  0
EOF
