  0
SECTION
  2
HEADER
  9
$ACADVER
  1
AC1015
  9
$ACADMAINTVER
 70
     6
  9
$DWGCODEPAGE
  3
ANSI_1252
  9
$INSBASE
 10
0.0
 20
0.0
 30
0.0
  9
$EXTMIN
 10
0.0
 20
0.0
 30
0.0
  9
$EXTMAX
 10
841.0
 20
594.0
 30
0.0
  9
$LIMMIN
 10
0.0
 20
0.0
  9
$LIMMAX
 10
841.0
 20
594.0
  9
$ORTHOMODE
 70
     0
  9
$REGENMODE
 70
     1
  9
$FILLMODE
 70
     1
  9
$QTEXTMODE
 70
     0
  9
$MIRRTEXT
 70
     1
  9
$LTSCALE
 40
1.0
  9
$ATTMODE
 70
     1
  9
$TEXTSIZE
 40
10.0
  9
$TRACEWID
 40
1.0
  9
$TEXTSTYLE
  7
Standard
  9
$CLAYER
  8
0
  9
$CELTYPE
  6
ByLayer
  9
$CECOLOR
 62
   256
  9
$CELTSCALE
 40
1.0
  9
$DISPSILH
 70
     0
  9
$DIMSCALE
 40
1.0
  9
$DIMASZ
 40
2.5
  9
$DIMEXO
 40
0.0
  9
$DIMDLI
 40
3.75
  9
$DIMRND
 40
0.0
  9
$DIMDLE
 40
0.0
  9
$DIMEXE
 40
1.0
  9
$DIMTP
 40
0.0
  9
$DIMTM
 40
0.0
  9
$DIMTXT
 40
3.5
  9
$DIMCEN
 40
2.5
  9
$DIMTSZ
 40
0.0
  9
$DIMTOL
 70
     0
  9
$DIMLIM
 70
     0
  9
$DIMTIH
 70
     1
  9
$DIMTOH
 70
     1
  9
$DIMSE1
 70
     0
  9
$DIMSE2
 70
     0
  9
$DIMTAD
 70
     1
  9
$DIMZIN
 70
     0
  9
$DIMBLK
  1

  9
$DIMASO
 70
     1
  9
$DIMSHO
 70
     1
  9
$DIMPOST
  1

  9
$DIMAPOST
  1

  9
$DIMALT
 70
     0
  9
$DIMALTD
 70
     3
  9
$DIMALTF
 40
0.0393700787
  9
$DIMLFAC
 40
1.0
  9
$DIMTOFL
 70
     1
  9
$DIMTVP
 40
0.0
  9
$DIMTIX
 70
     0
  9
$DIMSOXD
 70
     0
  9
$DIMSAH
 70
     0
  9
$DIMBLK1
  1

  9
$DIMBLK2
  1

  9
$DIMSTYLE
  2
ISO-25
  9
$DIMCLRD
 70
     0
  9
$DIMCLRE
 70
     0
  9
$DIMCLRT
 70
     0
  9
$DIMTFAC
 40
1.0
  9
$DIMGAP
 40
1.5
  9
$DIMJUST
 70
     0
  9
$DIMSD1
 70
     0
  9
$DIMSD2
 70
     0
  9
$DIMTOLJ
 70
     0
  9
$DIMTZIN
 70
     0
  9
$DIMALTZ
 70
     0
  9
$DIMALTTZ
 70
     0
  9
$DIMUPT
 70
     0
  9
$DIMDEC
 70
     2
  9
$DIMTDEC
 70
     2
  9
$DIMALTU
 70
     2
  9
$DIMALTTD
 70
     3
  9
$DIMTXSTY
  7
Standard
  9
$DIMAUNIT
 70
     0
  9
$DIMADEC
 70
     2
  9
$DIMALTRND
 40
0.0
  9
$DIMAZIN
 70
     0
  9
$DIMDSEP
 70
    44
  9
$DIMATFIT
 70
     3
  9
$DIMFRAC
 70
     0
  9
$DIMLDRBLK
  1

  9
$DIMLUNIT
 70
     2
  9
$DIMLWD
 70
    -2
  9
$DIMLWE
 70
    -2
  9
$DIMTMOVE
 70
     0
  9
$LUNITS
 70
     2
  9
$LUPREC
 70
     2
  9
$SKETCHINC
 40
1.0
  9
$FILLETRAD
 40
10.0
  9
$AUNITS
 70
     0
  9
$AUPREC
 70
     2
  9
$MENU
  1
.
  9
$ELEVATION
 40
0.0
  9
$PELEVATION
 40
0.0
  9
$THICKNESS
 40
0.0
  9
$LIMCHECK
 70
     0
  9
$CHAMFERA
 40
0.0
  9
$CHAMFERB
 40
0.0
  9
$CHAMFERC
 40
0.0
  9
$CHAMFERD
 40
0.0
  9
$SKPOLY
 70
     0
  9
$TDCREATE
 40
2458866.371478518
  9
$TDUCREATE
 40
2458866.329811852
  9
$TDUPDATE
 40
2458866.371480509
  9
$TDUUPDATE
 40
2458866.329813843
  9
$TDINDWG
 40
0.0000000116
  9
$TDUSRTIMER
 40
0.0000000116
  9
$USRTIMER
 70
     1
  9
$ANGBASE
 50
0.0
  9
$ANGDIR
 70
     0
  9
$PDMODE
 70
     0
  9
$PDSIZE
 40
-1.0
  9
$PLINEWID
 40
0.0
  9
$SPLFRAME
 70
     0
  9
$SPLINETYPE
 70
     6
  9
$SPLINESEGS
 70
     8
  9
$HANDSEED
  5
26D
  9
$SURFTAB1
 70
     6
  9
$SURFTAB2
 70
     6
  9
$SURFTYPE
 70
     6
  9
$SURFU
 70
     6
  9
$SURFV
 70
     6
  9
$UCSBASE
  2

  9
$UCSNAME
  2

  9
$UCSORG
 10
0.0
 20
0.0
 30
0.0
  9
$UCSXDIR
 10
1.0
 20
0.0
 30
0.0
  9
$UCSYDIR
 10
0.0
 20
1.0
 30
0.0
  9
$UCSORTHOREF
  2

  9
$UCSORTHOVIEW
 70
     0
  9
$UCSORGTOP
 10
0.0
 20
0.0
 30
0.0
  9
$UCSORGBOTTOM
 10
0.0
 20
0.0
 30
0.0
  9
$UCSORGLEFT
 10
0.0
 20
0.0
 30
0.0
  9
$UCSORGRIGHT
 10
0.0
 20
0.0
 30
0.0
  9
$UCSORGFRONT
 10
0.0
 20
0.0
 30
0.0
  9
$UCSORGBACK
 10
0.0
 20
0.0
 30
0.0
  9
$PUCSBASE
  2

  9
$PUCSNAME
  2

  9
$PUCSORG
 10
0.0
 20
0.0
 30
0.0
  9
$PUCSXDIR
 10
1.0
 20
0.0
 30
0.0
  9
$PUCSYDIR
 10
0.0
 20
1.0
 30
0.0
  9
$PUCSORTHOREF
  2

  9
$PUCSORTHOVIEW
 70
     0
  9
$PUCSORGTOP
 10
0.0
 20
0.0
 30
0.0
  9
$PUCSORGBOTTOM
 10
0.0
 20
0.0
 30
0.0
  9
$PUCSORGLEFT
 10
0.0
 20
0.0
 30
0.0
  9
$PUCSORGRIGHT
 10
0.0
 20
0.0
 30
0.0
  9
$PUCSORGFRONT
 10
0.0
 20
0.0
 30
0.0
  9
$PUCSORGBACK
 10
0.0
 20
0.0
 30
0.0
  9
$USERI1
 70
     0
  9
$USERI2
 70
     0
  9
$USERI3
 70
     0
  9
$USERI4
 70
     0
  9
$USERI5
 70
     0
  9
$USERR1
 40
0.0
  9
$USERR2
 40
0.0
  9
$USERR3
 40
0.0
  9
$USERR4
 40
0.0
  9
$USERR5
 40
0.0
  9
$WORLDVIEW
 70
     1
  9
$SHADEDGE
 70
     3
  9
$SHADEDIF
 70
    70
  9
$TILEMODE
 70
     1
  9
$MAXACTVP
 70
    64
  9
$PINSBASE
 10
0.0
 20
0.0
 30
0.0
  9
$PLIMCHECK
 70
     0
  9
$PEXTMIN
 10
1.0000000000E+20
 20
1.0000000000E+20
 30
1.0000000000E+20
  9
$PEXTMAX
 10
-1.0000000000E+20
 20
-1.0000000000E+20
 30
-1.0000000000E+20
  9
$PLIMMIN
 10
0.0
 20
0.0
  9
$PLIMMAX
 10
420.0
 20
297.0
  9
$UNITMODE
 70
     0
  9
$VISRETAIN
 70
     1
  9
$PLINEGEN
 70
     0
  9
$PSLTSCALE
 70
     1
  9
$TREEDEPTH
 70
  3020
  9
$CMLSTYLE
  2
Standard
  9
$CMLJUST
 70
     0
  9
$CMLSCALE
 40
20.0
  9
$PROXYGRAPHICS
 70
     1
  9
$MEASUREMENT
 70
     1
  9
$CELWEIGHT
370
    -1
  9
$ENDCAPS
280
     0
  9
$JOINSTYLE
280
     0
  9
$LWDISPLAY
290
     1
  9
$INSUNITS
 70
     4
  9
$HYPERLINKBASE
  1

  9
$STYLESHEET
  1

  9
$XEDIT
290
     1
  9
$CEPSNTYPE
380
     0
  9
$PSTYLEMODE
290
     1
  9
$FINGERPRINTGUID
  2
{6f70e67b-98c5-4a76-95e0-34dd9242afec}
  9
$VERSIONGUID
  2
{FAEB1C32-E019-11D5-929B-00C0DF256EC4}
  9
$EXTNAMES
290
     1
  9
$PSVPSCALE
 40
0.0
  9
$OLESTARTUP
290
     0
  0
ENDSEC
  0
SECTION
  2
CLASSES
  0
CLASS
  1
ACDBDICTIONARYWDFLT
  2
AcDbDictionaryWithDefault
  3
ObjectDBX Classes
 90
        0
280
     0
281
     0
  0
CLASS
  1
VISUALSTYLE
  2
AcDbVisualStyle
  3
ObjectDBX Classes
 90
     4095
280
     0
281
     0
  0
CLASS
  1
MATERIAL
  2
AcDbMaterial
  3
ObjectDBX Classes
 90
     1153
280
     0
281
     0
  0
CLASS
  1
SCALE
  2
AcDbScale
  3
ObjectDBX Classes
 90
     1153
280
     0
281
     0
  0
CLASS
  1
TABLESTYLE
  2
AcDbTableStyle
  3
ObjectDBX Classes
 90
     4095
280
     0
281
     0
  0
CLASS
  1
MLEADERSTYLE
  2
AcDbMLeaderStyle
  3
ACDB_MLEADERSTYLE_CLASS
 90
     4095
280
     0
281
     0
  0
CLASS
  1
SUN
  2
AcDbSun
  3
SCENEOE
 90
     1153
280
     0
281
     0
  0
CLASS
  1
ACDBPLACEHOLDER
  2
AcDbPlaceHolder
  3
ObjectDBX Classes
 90
        0
280
     0
281
     0
  0
CLASS
  1
LAYOUT
  2
AcDbLayout
  3
ObjectDBX Classes
 90
        0
280
     0
281
     0
  0
ENDSEC
  0
SECTION
  2
TABLES
  0
TABLE
  2
VPORT
  5
8
330
0
100
AcDbSymbolTable
 70
     1
  0
VPORT
  5
29
330
8
100
AcDbSymbolTableRecord
100
AcDbViewportTableRecord
  2
*Active
 70
     0
 10
0.0
 20
0.0
 11
1.0
 21
1.0
 12
420.5
 22
297.0
 13
0.0
 23
0.0
 14
10.0
 24
10.0
 15
10.0
 25
10.0
 16
0.0
 26
0.0
 36
1.0
 17
0.0
 27
0.0
 37
0.0
 40
594.0
 41
1.4158249158
 42
50.0
 43
0.0
 44
0.0
 50
0.0
 51
0.0
 71
     0
 72
  2000
 73
     1
 74
     3
 75
     0
 76
     0
 77
     0
 78
     0
281
     0
 65
     1
110
0.0
120
0.0
130
0.0
111
1.0
121
0.0
131
0.0
112
0.0
122
1.0
132
0.0
 79
     0
146
0.0
  0
ENDTAB
  0
TABLE
  2
LTYPE
  5
5
330
0
100
AcDbSymbolTable
 70
     6
  0
LTYPE
  5
14
330
5
100
AcDbSymbolTableRecord
100
AcDbLinetypeTableRecord
  2
ByBlock
 70
     0
  3

 72
    65
 73
     0
 40
0.0
  0
LTYPE
  5
15
330
5
100
AcDbSymbolTableRecord
100
AcDbLinetypeTableRecord
  2
ByLayer
 70
     0
  3

 72
    65
 73
     0
 40
0.0
  0
LTYPE
  5
16
330
5
100
AcDbSymbolTableRecord
100
AcDbLinetypeTableRecord
  2
Continuous
 70
     0
  3
Solid line
 72
    65
 73
     0
 40
0.0
  0
LTYPE
  5
6E
330
5
100
AcDbSymbolTableRecord
100
AcDbLinetypeTableRecord
  2
HIDDEN
 70
     0
  3
Hidden __ __ __ __ __ __ __ __ __ __ __ __ __ __
 72
    65
 73
     2
 40
1.905
 49
1.27
 74
     0
 49
-0.635
 74
     0
  0
LTYPE
  5
6F
330
5
100
AcDbSymbolTableRecord
100
AcDbLinetypeTableRecord
  2
PHANTOM
 70
     0
  3
Phantom ______  __  __  ______  __  __  ______
 72
    65
 73
     6
 40
12.7
 49
6.35
 74
     0
 49
-1.27
 74
     0
 49
1.27
 74
     0
 49
-1.27
 74
     0
 49
1.27
 74
     0
 49
-1.27
 74
     0
  0
LTYPE
  5
70
330
5
100
AcDbSymbolTableRecord
100
AcDbLinetypeTableRecord
  2
CENTER
 70
     0
  3
Center ____ _ ____ _ ____ _ ____ _ ____ _ ____
 72
    65
 73
     4
 40
10.16
 49
6.35
 74
     0
 49
-1.27
 74
     0
 49
1.27
 74
     0
 49
-1.27
 74
     0
  0
LTYPE
  5
71
330
5
100
AcDbSymbolTableRecord
100
AcDbLinetypeTableRecord
  2
CENTERX2
 70
     0
  3
Center (2x) ________  __  ________  __  _____
 72
    65
 73
     4
 40
20.32
 49
12.7
 74
     0
 49
-2.54
 74
     0
 49
2.54
 74
     0
 49
-2.54
 74
     0
  0
LTYPE
  5
72
330
5
100
AcDbSymbolTableRecord
100
AcDbLinetypeTableRecord
  2
DOT2
 70
     0
  3
Dot (.5x) ........................................
 72
    65
 73
     2
 40
0.635
 49
0.0
 74
     0
 49
-0.635
 74
     0
  0
ENDTAB
  0
TABLE
  2
LAYER
  5
2
330
0
100
AcDbSymbolTable
 70
     1
  0
LAYER
  5
10
330
2
100
AcDbSymbolTableRecord
100
AcDbLayerTableRecord
  2
0
 70
     0
 62
     7
  6
Continuous
370
    -3
390
F
  0
ENDTAB
  0
TABLE
  2
STYLE
  5
3
330
0
100
AcDbSymbolTable
 70
     3
  0
STYLE
  5
11
330
3
100
AcDbSymbolTableRecord
100
AcDbTextStyleTableRecord
  2
Standard
 70
     0
 40
0.0
 41
1.0
 50
0.0
 71
     0
 42
10.0
  3
txt
  4

  0
STYLE
  5
76
330
3
100
AcDbSymbolTableRecord
100
AcDbTextStyleTableRecord
  2
SLDTEXTSTYLE0
 70
     0
 40
0.0
 41
0.96
 50
0.0
 71
     0
 42
10.0
  3
ISOCP3
  4

  0
STYLE
  5
8D
330
3
100
AcDbSymbolTableRecord
100
AcDbTextStyleTableRecord
  2
SLDTEXTSTYLE1
 70
     0
 40
0.0
 41
0.605
 50
0.0
 71
     0
 42
10.0
  3
TXT
  4

  0
ENDTAB
  0
TABLE
  2
VIEW
  5
6
330
0
100
AcDbSymbolTable
 70
     0
  0
ENDTAB
  0
TABLE
  2
UCS
  5
7
330
0
100
AcDbSymbolTable
 70
     0
  0
ENDTAB
  0
TABLE
  2
APPID
  5
9
330
0
100
AcDbSymbolTable
 70
     1
  0
APPID
  5
12
330
9
100
AcDbSymbolTableRecord
100
AcDbRegAppTableRecord
  2
ACAD
 70
     0
  0
ENDTAB
  0
TABLE
  2
DIMSTYLE
  5
A
330
0
100
AcDbSymbolTable
 70
     2
100
AcDbDimStyleTable
  0
DIMSTYLE
105
27
330
A
100
AcDbSymbolTableRecord
100
AcDbDimStyleTableRecord
  2
ISO-25
 70
     0
 41
2.5
 42
0.625
 43
3.75
 44
1.25
 73
     0
 74
     0
 77
     1
 78
     8
140
2.5
141
2.5
143
0.0393700787
147
0.625
171
     3
172
     1
178
     0
271
     2
272
     2
274
     3
278
    44
283
     0
284
     8
340
11
  0
DIMSTYLE
105
77
102
{ACAD_REACTORS
330
75
330
82
102
}
330
A
100
AcDbSymbolTableRecord
100
AcDbDimStyleTableRecord
  2
SLDDIMSTYLE0
 70
     0
 41
2.5
 44
0.0
 45
0.000000001
 73
     0
 74
     0
 77
     1
 78
    12
 79
     3
140
6.0
147
1.5
173
     1
178
     0
271
     2
272
     2
276
     2
284
    12
340
76
  0
ENDTAB
  0
TABLE
  2
BLOCK_RECORD
  5
1
330
0
100
AcDbSymbolTable
 70
     3
  0
BLOCK_RECORD
  5
1F
330
1
100
AcDbSymbolTableRecord
100
AcDbBlockTableRecord
  2
*Model_Space
340
22
  0
BLOCK_RECORD
  5
1B
330
1
100
AcDbSymbolTableRecord
100
AcDbBlockTableRecord
  2
*Paper_Space
340
1E
  0
BLOCK_RECORD
  5
23
330
1
100
AcDbSymbolTableRecord
100
AcDbBlockTableRecord
  2
*Paper_Space0
340
26
  0
BLOCK_RECORD
  5
78
330
1
100
AcDbSymbolTableRecord
100
AcDbBlockTableRecord
  2
_D
340
0
  0
BLOCK_RECORD
  5
83
330
1
100
AcDbSymbolTableRecord
100
AcDbBlockTableRecord
  2
_D_1
340
0
  0
ENDTAB
  0
ENDSEC
  0
SECTION
  2
BLOCKS
  0
BLOCK
  5
20
330
1F
100
AcDbEntity
  8
0
100
AcDbBlockBegin
  2
*Model_Space
 70
     0
 10
0.0
 20
0.0
 30
0.0
  3
*Model_Space
  1

  0
ENDBLK
  5
21
330
1F
100
AcDbEntity
  8
0
100
AcDbBlockEnd
  0
BLOCK
  5
1C
330
1B
100
AcDbEntity
 67
     1
  8
0
100
AcDbBlockBegin
  2
*Paper_Space
 70
     0
 10
0.0
 20
0.0
 30
0.0
  3
*Paper_Space
  1

  0
ENDBLK
  5
1D
330
1B
100
AcDbEntity
 67
     1
  8
0
100
AcDbBlockEnd
  0
BLOCK
  5
24
330
23
100
AcDbEntity
  8
0
100
AcDbBlockBegin
  2
*Paper_Space0
 70
     0
 10
0.0
 20
0.0
 30
0.0
  3
*Paper_Space0
  1

  0
ENDBLK
  5
25
330
23
100
AcDbEntity
  8
0
100
AcDbBlockEnd
  0
BLOCK
  5
79
330
78
100
AcDbEntity
  8
0
100
AcDbBlockBegin
  2
_D
 70
     0
 10
0.0
 20
0.0
 30
0.0
  3
_D
  1

  0
SOLID
  5
7B
330
78
100
AcDbEntity
  8
0
  6
Continuous
 62
     7
370
    18
100
AcDbTrace
 10
42.7614395004
 20
152.0299240879
 30
0.0
 11
42.4614395004
 21
149.5299240879
 31
0.0
 12
43.0614395004
 22
149.5299240879
 32
0.0
 13
43.0614395004
 23
149.5299240879
 33
0.0
  0
SOLID
  5
7C
330
78
100
AcDbEntity
  8
0
  6
Continuous
 62
     7
370
    18
100
AcDbTrace
 10
42.7614395004
 20
52.0299240879
 30
0.0
 11
43.0614395004
 21
54.5299240879
 31
0.0
 12
42.4614395004
 22
54.5299240879
 32
0.0
 13
42.4614395004
 23
54.5299240879
 33
0.0
  0
LINE
  5
7D
330
78
100
AcDbEntity
  8
0
  6
Continuous
 62
     7
370
     0
100
AcDbLine
 10
56.6850079902
 20
152.0299240879
 30
0.0
 11
41.7614395004
 21
152.0299240879
 31
0.0
  0
LINE
  5
7E
330
78
100
AcDbEntity
  8
0
  6
Continuous
 62
     7
370
     0
100
AcDbLine
 10
56.6850079902
 20
52.0299240879
 30
0.0
 11
41.7614395004
 21
52.0299240879
 31
0.0
  0
LINE
  5
7F
330
78
100
AcDbEntity
  8
0
  6
Continuous
 62
     7
370
     0
100
AcDbLine
 10
42.7614395004
 20
152.0299240879
 30
0.0
 11
42.7614395004
 21
52.0299240879
 31
0.0
  0
MTEXT
  5
80
330
78
100
AcDbEntity
  8
0
  6
Continuous
 62
     7
370
    18
100
AcDbMText
 10
35.0270332946
 20
94.3680541463
 30
0.0
 40
6.0
 41
0.0
 71
     1
 72
     1
  1
100
  7
SLDTEXTSTYLE0
 11
-7.044195017643634E-15
 21
1.0
 31
0.0
 73
     1
 44
1.0
  0
MTEXT
  5
81
330
78
100
AcDbEntity
  8
0
  6
Continuous
 62
     7
370
    18
100
AcDbMText
 10
35.0270332946
 20
105.7430548466
 30
0.0
 40
6.0
 41
0.0
 71
     1
 72
     1
  1
mm
  7
SLDTEXTSTYLE0
 11
-7.044195017643634E-15
 21
1.0
 31
0.0
 73
     1
 44
1.0
  0
ENDBLK
  5
7A
330
78
100
AcDbEntity
  8
0
100
AcDbBlockEnd
  0
BLOCK
  5
84
330
83
100
AcDbEntity
  8
0
100
AcDbBlockBegin
  2
_D_1
 70
     0
 10
0.0
 20
0.0
 30
0.0
  3
_D_1
  1

  0
SOLID
  5
86
330
83
100
AcDbEntity
  8
0
  6
Continuous
 62
     7
370
    18
100
AcDbTrace
 10
56.6850079902
 20
38.4602342313
 30
0.0
 11
59.1850079902
 21
38.1602342313
 31
0.0
 12
59.1850079902
 22
38.7602342313
 32
0.0
 13
59.1850079902
 23
38.7602342313
 33
0.0
  0
SOLID
  5
87
330
83
100
AcDbEntity
  8
0
  6
Continuous
 62
     7
370
    18
100
AcDbTrace
 10
156.6850079902
 20
38.4602342313
 30
0.0
 11
154.1850079902
 21
38.7602342313
 31
0.0
 12
154.1850079902
 22
38.1602342313
 32
0.0
 13
154.1850079902
 23
38.1602342313
 33
0.0
  0
LINE
  5
88
330
83
100
AcDbEntity
  8
0
  6
Continuous
 62
     7
370
     0
100
AcDbLine
 10
56.6850079902
 20
52.0299240879
 30
0.0
 11
56.6850079902
 21
37.4602342313
 31
0.0
  0
LINE
  5
89
330
83
100
AcDbEntity
  8
0
  6
Continuous
 62
     7
370
     0
100
AcDbLine
 10
156.6850079902
 20
52.0299240879
 30
0.0
 11
156.6850079902
 21
37.4602342313
 31
0.0
  0
LINE
  5
8A
330
83
100
AcDbEntity
  8
0
  6
Continuous
 62
     7
370
     0
100
AcDbLine
 10
56.6850079902
 20
38.4602342313
 30
0.0
 11
156.6850079902
 21
38.4602342313
 31
0.0
  0
MTEXT
  5
8B
330
83
100
AcDbEntity
  8
0
  6
Continuous
 62
     7
370
    18
100
AcDbMText
 10
93.9626484861
 20
46.1946404371
 30
0.0
 40
6.0
 41
0.0
 71
     1
 72
     1
  1
100
  7
SLDTEXTSTYLE0
 73
     1
 44
1.0
  0
MTEXT
  5
8C
330
83
100
AcDbEntity
  8
0
  6
Continuous
 62
     7
370
    18
100
AcDbMText
 10
105.3376491864
 20
46.1946404371
 30
0.0
 40
6.0
 41
0.0
 71
     1
 72
     1
  1
mm
  7
SLDTEXTSTYLE0
 73
     1
 44
1.0
  0
ENDBLK
  5
85
330
83
100
AcDbEntity
  8
0
100
AcDbBlockEnd
  0
ENDSEC
  0
SECTION
  2
ENTITIES
  0
LINE
  5
73
330
1F
100
AcDbEntity
  8
0
  6
Continuous
 62
     7
370
    18
100
AcDbLine
 10
56.6850079902
 20
152.0299240879
 30
0.0
 11
56.6850079902
 21
52.0299240879
 31
0.0
  0
LINE
  5
74
330
1F
100
AcDbEntity
  8
0
  6
Continuous
 62
     7
370
    18
100
AcDbLine
 10
56.6850079902
 20
52.0299240879
 30
0.0
 11
156.6850079902
 21
52.0299240879
 31
0.0
  0
DIMENSION
  5
75
330
1F
100
AcDbEntity
  8
0
  6
Continuous
 62
     7
370
    18
100
AcDbDimension
  2
_D
 10
42.7614395004
 20
52.0299240879
 30
0.0
 11
42.7614395004
 21
105.4472211621
 31
0.0
 70
   160
  1
<>mm
 71
     2
 42
-1.0
  3
SLDDIMSTYLE0
100
AcDbAlignedDimension
 13
56.6850079902
 23
152.0299240879
 33
0.0
 14
56.6850079902
 24
52.0299240879
 34
0.0
 50
90.0
100
AcDbRotatedDimension
  0
DIMENSION
  5
82
330
1F
100
AcDbEntity
  8
0
  6
Continuous
 62
     7
370
    18
100
AcDbDimension
  2
_D_1
 10
156.6850079902
 20
38.4602342313
 30
0.0
 11
105.0418155019
 21
38.4602342313
 31
0.0
 70
   160
  1
<>mm
 71
     2
 42
-1.0
  3
SLDDIMSTYLE0
100
AcDbAlignedDimension
 13
56.6850079902
 23
52.0299240879
 33
0.0
 14
156.6850079902
 24
52.0299240879
 34
0.0
100
AcDbRotatedDimension
  0
MTEXT
  5
8E
330
1F
100
AcDbEntity
  8
0
  6
Continuous
 62
     7
370
     0
100
AcDbMText
 10
664.658399795
 20
48.4342449499
 30
0.0
 40
10.0
 41
0.0
 71
     1
 72
     1
  1
KLUDI GmbH & Co KG
  7
SLDTEXTSTYLE1
 73
     1
 44
1.0
  0
MTEXT
  5
8F
330
1F
100
AcDbEntity
  8
0
  6
Continuous
 62
     7
370
     0
100
AcDbMText
 10
349.0758972247
 20
48.4342449499
 30
0.0
 40
10.0
 41
0.0
 71
     1
 72
     1
  1
48 245 05 65
  7
SLDTEXTSTYLE1
 73
     1
 44
1.0
  0
LINE
  5
90
330
1F
100
AcDbEntity
  8
0
  6
Continuous
 62
     7
370
    25
100
AcDbLine
 10
150.1155125011
 20
467.7709601122
 30
0.0
 11
150.1155125011
 21
470.9719468271
 31
0.0
  0
LINE
  5
91
330
1F
100
AcDbEntity
  8
0
  6
Continuous
 62
     7
370
    25
100
AcDbLine
 10
126.1155125011
 20
470.9719468271
 30
0.0
 11
126.1155125011
 21
467.7709601122
 31
0.0
  0
LINE
  5
92
330
1F
100
AcDbEntity
  8
0
  6
Continuous
 62
     7
370
    25
100
AcDbLine
 10
127.1155125011
 20
463.5329066986
 30
0.0
 11
127.6410725207
 21
463.2483614886
 31
0.0
  0
LINE
  5
93
330
1F
100
AcDbEntity
  8
0
  6
Continuous
 62
     7
370
    25
100
AcDbLine
 10
148.5899524814
 20
463.2483614886
 30
0.0
 11
149.1155125011
 21
463.5329066986
 31
0.0
  0
SPLINE
  5
94
330
1F
100
AcDbEntity
  8
0
  6
Continuous
 62
     7
370
    25
100
AcDbSpline
210
0.0
220
0.0
230
1.0
 70
     8
 71
     3
 72
    16
 73
    12
 74
     0
 42
0.000000001
 43
0.00000001
 40
0.0
 40
0.0
 40
0.0
 40
0.0
 40
0.0692138995062831
 40
0.1657272924406982
 40
0.2598187456610172
 40
0.3511305675839902
 40
0.5394855491065697
 40
0.7591099281482826
 40
0.8829019263619047
 40
0.9988106198986366
 40
0.9999999999999999
 40
0.9999999999999999
 40
0.9999999999999999
 40
0.9999999999999999
 10
150.0240536254881
 20
470.3324541246252
 30
0.0
 10
150.3098463902419
 20
470.4573735329992
 30
0.0
 10
150.9941549097685
 20
470.7564833284418
 30
0.0
 10
152.0697497745404
 20
471.3370802870901
 30
0.0
 10
153.1613838145724
 20
471.9574330539655
 30
0.0
 10
154.4844709890035
 20
472.7451063410378
 30
0.0
 10
155.8553722073549
 20
473.6011539883942
 30
0.0
 10
156.6907746025111
 20
474.1488648218328
 30
0.0
 10
157.0540597857137
 20
474.4053208844954
 30
0.0
 10
157.2647572604648
 20
474.5434499769908
 30
0.0
 10
157.1729535160441
 20
474.5025764804275
 30
0.0
 10
157.1720210536777
 20
474.5021613230985
 30
0.0
  0
SPLINE
  5
95
330
1F
100
AcDbEntity
  8
0
  6
Continuous
 62
     7
370
    25
100
AcDbSpline
210
0.0
220
0.0
230
1.0
 70
     8
 71
     3
 72
    16
 73
    12
 74
     0
 42
0.000000001
 43
0.00000001
 40
0.0
 40
0.0
 40
0.0
 40
0.0
 40
0.0011893801013714
 40
0.1170980736381023
 40
0.2408900718517306
 40
0.4605144508934432
 40
0.6488694324160232
 40
0.7401812543389863
 40
0.8342727075593007
 40
0.9307861004937124
 40
1.0
 40
1.0
 40
1.0
 40
1.0
 10
119.0590039484797
 20
474.5021613230985
 30
0.0
 10
119.0580714861133
 20
474.5025764804276
 30
0.0
 10
118.9662677416929
 20
474.5434499769907
 30
0.0
 10
119.1769652164436
 20
474.4053208844954
 30
0.0
 10
119.5402503996464
 20
474.1488648218328
 30
0.0
 10
120.3756527948025
 20
473.6011539883941
 30
0.0
 10
121.7465540131539
 20
472.7451063410379
 30
0.0
 10
123.0696411875851
 20
471.9574330539655
 30
0.0
 10
124.1612752276171
 20
471.3370802870901
 30
0.0
 10
125.2368700923891
 20
470.7564833284418
 30
0.0
 10
125.9211786119156
 20
470.4573735329992
 30
0.0
 10
126.2069713766695
 20
470.3324541246251
 30
0.0
  0
SPLINE
  5
96
330
1F
100
AcDbEntity
  8
0
  6
Continuous
 62
     7
370
    25
100
AcDbSpline
210
0.0
220
0.0
230
1.0
 70
     8
 71
     3
 72
    26
 73
    22
 74
     0
 42
0.000000001
 43
0.00000001
 40
0.0
 40
0.0
 40
0.0
 40
0.0
 40
0.0625
 40
0.0625
 40
0.125
 40
0.125
 40
0.1875
 40
0.1875
 40
0.2500000000000001
 40
0.2500000000000001
 40
0.3750000000000001
 40
0.3750000000000001
 40
0.5000000000000002
 40
0.5000000000000002
 40
0.5625000000000001
 40
0.5625000000000001
 40
0.6250000000000001
 40
0.6250000000000001
 40
0.75
 40
0.75
 40
1.0
 40
1.0
 40
1.0
 40
1.0
 10
269.857367206975
 20
468.4485615260758
 30
0.0
 10
269.7593920291596
 20
468.1646452702145
 30
0.0
 10
269.6468883326225
 20
467.8564425563131
 30
0.0
 10
269.3905253480195
 20
467.1564051065162
 30
0.0
 10
269.246711135588
 20
466.7647085103481
 30
0.0
 10
268.9308132616034
 20
465.8833873579168
 30
0.0
 10
268.7587746756844
 20
465.3939009413809
 30
0.0
 10
268.3934564733261
 20
464.3190469066531
 30
0.0
 10
268.2002219325211
 20
463.7338174281883
 30
0.0
 10
267.6030844029746
 20
461.8556750850509
 30
0.0
 10
267.1819399994515
 20
460.4387676712741
 30
0.0
 10
266.3797566431948
 20
457.4688123409672
 30
0.0
 10
266.0001601107589
 20
455.9201848957097
 30
0.0
 10
265.510064595404
 20
453.6440736093419
 30
0.0
 10
265.3595973939424
 20
452.8927311494491
 30
0.0
 10
265.0866532065507
 20
451.4175674641675
 30
0.0
 10
264.9641293858255
 20
450.6936992312872
 30
0.0
 10
264.6344110054195
 20
448.565450051707
 30
0.0
 10
264.4647577230542
 20
447.2046357173148
 30
0.0
 10
264.0691159572804
 20
443.2664266376619
 30
0.0
 10
263.9557009060722
 20
440.8317511899926
 30
0.0
 10
263.9005184168697
 20
438.4345905122393
 30
0.0
  0
SPLINE
  5
97
330
1F
100
AcDbEntity
  8
0
  6
Continuous
 62
     7
370
    25
100
AcDbSpline
210
0.0
220
0.0
230
1.0
 70
     8
 71
     3
 72
    26
 73
    22
 74
     0
 42
0.000000001
 43
0.00000001
 40
0.0
 40
0.0
 40
0.0
 40
0.0
 40
0.0625000000000002
 40
0.0625000000000002
 40
0.1250000000000003
 40
0.1250000000000003
 40
0.1875000000000006
 40
0.1875000000000006
 40
0.2500000000000008
 40
0.2500000000000008
 40
0.3750000000000009
 40
0.3750000000000009
 40
0.5000000000000011
 40
0.5000000000000011
 40
0.5625000000000011
 40
0.5625000000000011
 40
0.6250000000000013
 40
0.6250000000000013
 40
0.7500000000000011
 40
0.7500000000000011
 40
1.0
 40
1.0
 40
1.0
 40
1.0
 10
226.3736577951825
 20
468.4485615260758
 30
0.0
 10
226.4716329729978
 20
468.1646452702146
 30
0.0
 10
226.584136669535
 20
467.8564425563131
 30
0.0
 10
226.8404996541379
 20
467.1564051065162
 30
0.0
 10
226.9843138665694
 20
466.7647085103481
 30
0.0
 10
227.3002117405541
 20
465.8833873579168
 30
0.0
 10
227.472250326473
 20
465.3939009413809
 30
0.0
 10
227.8375685288313
 20
464.3190469066531
 30
0.0
 10
228.0308030696364
 20
463.7338174281883
 30
0.0
 10
228.6279405991829
 20
461.8556750850509
 30
0.0
 10
229.049085002706
 20
460.4387676712741
 30
0.0
 10
229.8512683589628
 20
457.4688123409672
 30
0.0
 10
230.2308648913986
 20
455.9201848957097
 30
0.0
 10
230.7209604067535
 20
453.6440736093419
 30
0.0
 10
230.8714276082152
 20
452.8927311494491
 30
0.0
 10
231.1443717956069
 20
451.4175674641675
 30
0.0
 10
231.266895616332
 20
450.6936992312872
 30
0.0
 10
231.596613996738
 20
448.565450051707
 30
0.0
 10
231.7662672791033
 20
447.2046357173148
 30
0.0
 10
232.161909044877
 20
443.2664266376619
 30
0.0
 10
232.2753240960853
 20
440.8317511899926
 30
0.0
 10
232.3305065852878
 20
438.4345905122393
 30
0.0
  0
LINE
  5
98
330
1F
100
AcDbEntity
  8
0
  6
Continuous
 62
     7
370
    25
100
AcDbLine
 10
263.8416584358
 20
433.1416419468
 30
0.0
 11
263.6295757748
 21
392.6372075039
 31
0.0
  0
SPLINE
  5
99
330
1F
100
AcDbEntity
  8
0
  6
Continuous
 62
     7
370
    18
100
AcDbSpline
210
0.0
220
0.0
230
1.0
 70
     8
 71
     3
 72
    33
 73
    29
 74
     0
 42
0.000000001
 43
0.00000001
 40
0.0
 40
0.0
 40
0.0
 40
0.0
 40
0.0011022252076022
 40
0.0033462776865647
 40
0.0078741665370921
 40
0.0147743779941043
 40
0.0240678807597497
 40
0.0357627772515243
 40
0.0498630307615356
 40
0.0663708721993102
 40
0.0852876806938279
 40
0.1066143680384939
 40
0.1303515683235141
 40
0.1564997402756997
 40
0.1850592264459133
 40
0.2160302893751669
 40
0.249413134706636
 40
0.2852079265160317
 40
0.3234147978054605
 40
0.3640338578828683
 40
0.4070651976739247
 40
0.4525088936245313
 40
0.5003650106200109
 40
0.6527203040448759
 40
0.7788343731726591
 40
0.878722526151275
 40
0.9524164163061224
 40
1.0
 40
1.0
 40
1.0
 40
1.0
 10
237.6989655644794
 20
391.4013446062201
 30
0.0
 10
237.6994068694651
 20
391.4005772399835
 30
0.0
 10
237.7007466401548
 20
391.3982475704229
 30
0.0
 10
237.6931140481308
 20
391.3966702035249
 30
0.0
 10
237.6854388668905
 20
391.3947655253166
 30
0.0
 10
237.6704783321809
 20
391.3930360167539
 30
0.0
 10
237.6516707858571
 20
391.3912408996601
 30
0.0
 10
237.6274275239558
 20
391.3895343796779
 30
0.0
 10
237.5983685325175
 20
391.3878736525103
 30
0.0
 10
237.5642641877663
 20
391.3862827248452
 30
0.0
 10
237.5251929498557
 20
391.38475759356
 30
0.0
 10
237.4811280460279
 20
391.3833020470964
 30
0.0
 10
237.432077879293
 20
391.3819163432667
 30
0.0
 10
237.3780396143165
 20
391.3806013535657
 30
0.0
 10
237.3190140383834
 20
391.379357442751
 30
0.0
 10
237.2550008475796
 20
391.378184940429
 30
0.0
 10
237.186000094349
 20
391.3770840554778
 30
0.0
 10
237.112011736189
 20
391.3760549726667
 30
0.0
 10
237.0330357663977
 20
391.3750977283407
 30
0.0
 10
236.949072177085
 20
391.3742127623727
 30
0.0
 10
236.8601209476014
 20
391.3733987309128
 30
0.0
 10
236.7661821315257
 20
391.3726614331918
 30
0.0
 10
236.5969120544206
 20
391.3714915398809
 30
0.0
 10
236.3720560863631
 20
391.3707385518491
 30
0.0
 10
236.1113204752414
 20
391.371842971591
 30
0.0
 10
235.9048834268399
 20
391.3759905009231
 30
0.0
 10
235.7524575983971
 20
391.380543242173
 30
0.0
 10
235.6692962812629
 20
391.3889768544178
 30
0.0
 10
235.6366676869464
 20
391.3922858076912
 30
0.0
  0
SPLINE
  5
9A
330
1F
100
AcDbEntity
  8
0
  6
Continuous
 62
     7
370
    25
100
AcDbSpline
210
0.0
220
0.0
230
1.0
 70
     8
 71
     3
 72
    22
 73
    18
 74
     0
 42
0.000000001
 43
0.00000001
 40
0.0
 40
0.0
 40
0.0
 40
0.0
 40
0.125
 40
0.125
 40
0.25
 40
0.25
 40
0.375
 40
0.375
 40
0.5
 40
0.5
 40
0.625
 40
0.625
 40
0.75
 40
0.75
 40
0.875
 40
0.875
 40
1.0
 40
1.0
 40
1.0
 40
1.0
 10
263.6295757748429
 20
392.6372075038752
 30
0.0
 10
263.6285893496495
 20
392.4488158908962
 30
0.0
 10
263.6270585634577
 20
392.2593947119918
 30
0.0
 10
263.599545117438
 20
391.8772142298539
 30
0.0
 10
263.5736780295597
 20
391.6848952601875
 30
0.0
 10
263.4853443412993
 20
391.3133044491812
 30
0.0
 10
263.4229933128668
 20
391.1344729414084
 30
0.0
 10
263.2570613150161
 20
390.8098158778275
 30
0.0
 10
263.1535959175475
 20
390.6644306555868
 30
0.0
 10
262.9048548050437
 20
390.4169885506762
 30
0.0
 10
262.7589298346286
 20
390.3142858032509
 30
0.0
 10
262.4334084074272
 20
390.1500559725976
 30
0.0
 10
262.2542528833027
 20
390.0886421541641
 30
0.0
 10
261.8822046539744
 20
390.0022553128065
 30
0.0
 10
261.6897528814324
 20
389.9773955546772
 30
0.0
 10
261.3074335787218
 20
389.9518835689867
 30
0.0
 10
261.1180069812148
 20
389.9513446062201
 30
0.0
 10
260.9296127857748
 20
389.9513446062201
 30
0.0
  0
SPLINE
  5
9B
330
1F
100
AcDbEntity
  8
0
  6
Continuous
 62
     7
370
    25
100
AcDbSpline
210
0.0
220
0.0
230
1.0
 70
     8
 71
     3
 72
    22
 73
    18
 74
     0
 42
0.000000001
 43
0.00000001
 40
0.0
 40
0.0
 40
0.0
 40
0.0
 40
0.125
 40
0.125
 40
0.25
 40
0.25
 40
0.375
 40
0.375
 40
0.5
 40
0.5
 40
0.625
 40
0.625
 40
0.75
 40
0.75
 40
0.875
 40
0.875
 40
1.0
 40
1.0
 40
1.0
 40
1.0
 10
232.6014492273146
 20
392.6372075038752
 30
0.0
 10
232.6024356525079
 20
392.4488158908962
 30
0.0
 10
232.6039664386998
 20
392.2593947119918
 30
0.0
 10
232.6314798847195
 20
391.8772142298539
 30
0.0
 10
232.6573469725977
 20
391.6848952601875
 30
0.0
 10
232.7456806608581
 20
391.3133044491812
 30
0.0
 10
232.8080316892907
 20
391.1344729414084
 30
0.0
 10
232.9739636871414
 20
390.8098158778275
 30
0.0
 10
233.07742908461
 20
390.6644306555868
 30
0.0
 10
233.3261701971138
 20
390.4169885506762
 30
0.0
 10
233.4720951675289
 20
390.3142858032509
 30
0.0
 10
233.7976165947303
 20
390.1500559725976
 30
0.0
 10
233.9767721188548
 20
390.0886421541641
 30
0.0
 10
234.3488203481831
 20
390.0022553128065
 30
0.0
 10
234.5412721207251
 20
389.9773955546772
 30
0.0
 10
234.9235914234357
 20
389.9518835689867
 30
0.0
 10
235.1130180209426
 20
389.9513446062201
 30
0.0
 10
235.3014122163827
 20
389.9513446062201
 30
0.0
  0
SPLINE
  5
9C
330
1F
100
AcDbEntity
  8
0
  6
Continuous
 62
     7
370
    25
100
AcDbSpline
210
0.0
220
0.0
230
1.0
 70
     8
 71
     3
 72
    10
 73
     6
 74
     0
 42
0.000000001
 43
0.00000001
 40
0.0
 40
0.0
 40
0.0
 40
0.0
 40
0.5
 40
0.5
 40
1.0
 40
1.0
 40
1.0
 40
1.0
 10
232.3305065852878
 20
438.4345905122393
 30
0.0
 10
232.3509145433781
 20
437.5480564802629
 30
0.0
 10
232.3632456649879
 20
436.6666591733227
 30
0.0
 10
232.3801624126245
 20
434.9042919475817
 30
0.0
 10
232.3847507159102
 20
434.0231963958857
 30
0.0
 10
232.3893665663827
 20
433.1416419468167
 30
0.0
  0
SPLINE
  5
9D
330
1F
100
AcDbEntity
  8
0
  6
Continuous
 62
     7
370
    25
100
AcDbSpline
210
0.0
220
0.0
230
1.0
 70
     8
 71
     3
 72
    10
 73
     6
 74
     0
 42
0.000000001
 43
0.00000001
 40
0.0
 40
0.0
 40
0.0
 40
0.0
 40
0.5
 40
0.5
 40
1.0
 40
1.0
 40
1.0
 40
1.0
 10
263.9005184168697
 20
438.4345905122393
 30
0.0
 10
263.8801104587794
 20
437.5480564802628
 30
0.0
 10
263.8677793371696
 20
436.6666591733227
 30
0.0
 10
263.850862589533
 20
434.9042919475817
 30
0.0
 10
263.8462742862473
 20
434.0231963958857
 30
0.0
 10
263.8416584357748
 20
433.1416419468167
 30
0.0
  0
LINE
  5
9E
330
1F
100
AcDbEntity
  8
0
  6
Continuous
 62
     7
370
    25
100
AcDbLine
 10
232.3893665664
 20
433.1416419468
 30
0.0
 11
232.6014492273
 21
392.6372075039
 31
0.0
  0
LINE
  5
9F
330
1F
100
AcDbEntity
  8
0
  6
Continuous
 62
     7
370
    25
100
AcDbLine
 10
260.9296127858
 20
389.9513446062
 30
0.0
 11
235.3014122164
 21
389.9513446062
 31
0.0
  0
ARC
  5
A0
330
1F
100
AcDbEntity
  8
0
  6
Continuous
 62
     7
370
    25
100
AcDbCircle
 10
248.1155125011
 20
475.9513446062
 30
0.0
 40
23.0
100
AcDbArc
 50
340.9612250536
 51
199.0387749464
  0
ELLIPSE
  5
A1
330
1F
100
AcDbEntity
  8
0
  6
Continuous
 62
     7
370
    25
100
AcDbEllipse
 10
215.8684265629
 20
508.1984305444
 30
0.0
 11
1.979953267625262
 21
-1.979953267625262
 31
0.0
210
0.0
220
0.0
230
1.0
 40
0.9999725851
 41
2.356208197850949
 42
3.926977109328651
  0
ELLIPSE
  5
A2
330
1F
100
AcDbEntity
  8
0
  6
Continuous
 62
     7
370
    25
100
AcDbEllipse
 10
280.3625984393
 20
508.1984305444
 30
0.0
 11
-1.979953267625262
 21
-1.979953267625262
 31
0.0
210
0.0
220
0.0
230
1.0
 40
0.9999725851
 41
2.356208197850949
 42
3.926977109328651
  0
ELLIPSE
  5
A3
330
1F
100
AcDbEntity
  8
0
  6
Continuous
 62
     7
370
    25
100
AcDbEllipse
 10
280.3625984393
 20
443.704258668
 30
0.0
 11
-1.979953267625262
 21
1.979953267625262
 31
0.0
210
0.0
220
0.0
230
1.0
 40
0.9999725851
 41
2.356208197850956
 42
3.926977109328624
  0
ELLIPSE
  5
A4
330
1F
100
AcDbEntity
  8
0
  6
Continuous
 62
     7
370
    25
100
AcDbEllipse
 10
215.8684265629
 20
443.704258668
 30
0.0
 11
1.979953267625262
 21
1.979953267625262
 31
0.0
210
0.0
220
0.0
230
1.0
 40
0.9999725851
 41
2.356208197850973
 42
3.926977109328648
  0
LINE
  5
A5
330
1F
100
AcDbEntity
  8
0
  6
Continuous
 62
     7
370
    25
100
AcDbLine
 10
215.8683497989
 20
510.9984689267
 30
0.0
 11
280.3626752032
 21
510.9984689267
 31
0.0
  0
LINE
  5
A6
330
1F
100
AcDbEntity
  8
0
  6
Continuous
 62
     7
370
    25
100
AcDbLine
 10
283.1626368215
 20
508.1985073084
 30
0.0
 11
283.1626368215
 21
443.7041819041
 31
0.0
  0
LINE
  5
A7
330
1F
100
AcDbEntity
  8
0
  6
Continuous
 62
     7
370
    25
100
AcDbLine
 10
280.3626752032
 20
440.9042202858
 30
0.0
 11
264.0116797732
 21
440.9042202858
 31
0.0
  0
LINE
  5
A8
330
1F
100
AcDbEntity
  8
0
  6
Continuous
 62
     7
370
    25
100
AcDbLine
 10
232.219345229
 20
440.9042202858
 30
0.0
 11
215.8683497989
 21
440.9042202858
 31
0.0
  0
LINE
  5
A9
330
1F
100
AcDbEntity
  8
0
  6
Continuous
 62
     7
370
    25
100
AcDbLine
 10
213.0683881806
 20
443.7041819041
 30
0.0
 11
213.0683881806
 21
508.1985073084
 31
0.0
  0
SPLINE
  5
AA
330
1F
100
AcDbEntity
  8
0
  6
Continuous
 62
     7
370
    25
100
AcDbSpline
210
0.0
220
0.0
230
1.0
 70
     8
 71
     3
 72
    18
 73
    14
 74
     0
 42
0.000000001
 43
0.00000001
 40
-0.0000021263989564
 40
-0.0000021263989564
 40
-0.0000021263989564
 40
-0.0000021263989564
 40
0.0
 40
0.0
 40
0.0
 40
0.4275885759528201
 40
0.4413627440184678
 40
0.4674703602842568
 40
0.5038751990645237
 40
0.5336694441824861
 40
0.5666506397578235
 40
0.5795963365626782
 40
1.0
 40
1.0
 40
1.0
 40
1.0
 10
150.6155125010823
 20
470.9719391848574
 30
0.0
 10
150.6155125010823
 20
470.9719417322577
 30
0.0
 10
150.6155125010823
 20
470.971944279658
 30
0.0
 10
150.6155125010823
 20
470.9719468270583
 30
0.0
 10
150.6155125010823
 20
471.4841927870047
 30
0.0
 10
149.5584706714366
 20
471.9704071392046
 30
0.0
 10
147.6629036525883
 20
472.3729592848981
 30
0.0
 10
147.3423030067686
 20
472.4369627868776
 30
0.0
 10
146.9336644343971
 20
472.5110908046523
 30
0.0
 10
146.4720582676826
 20
472.5867869407109
 30
0.0
 10
146.1039278532887
 20
472.6416117795364
 30
0.0
 10
143.7690522924376
 20
472.9653565661779
 30
0.0
 10
141.0158511520514
 20
473.1425490478941
 30
0.0
 10
138.1155125010788
 20
473.1425490478941
 30
0.0
  0
SPLINE
  5
AB
330
1F
100
AcDbEntity
  8
0
  6
Continuous
 62
     7
370
    25
100
AcDbSpline
210
0.0
220
0.0
230
1.0
 70
     8
 71
     3
 72
    18
 73
    14
 74
     0
 42
0.000000001
 43
0.00000001
 40
-0.000002126398921
 40
-0.000002126398921
 40
-0.000002126398921
 40
-0.000002126398921
 40
0.0
 40
0.0
 40
0.0
 40
0.4275885759528201
 40
0.4413627440184678
 40
0.4674703602842568
 40
0.5038751990645237
 40
0.5336694441824861
 40
0.5666506397578235
 40
0.5795963365626782
 40
1.0
 40
1.0
 40
1.0
 40
1.0
 10
125.6155125010752
 20
470.9719391848575
 30
0.0
 10
125.6155125010752
 20
470.9719417322578
 30
0.0
 10
125.6155125010752
 20
470.971944279658
 30
0.0
 10
125.6155125010752
 20
470.9719468270583
 30
0.0
 10
125.6155125010752
 20
471.4841927870047
 30
0.0
 10
126.6725543307209
 20
471.9704071392046
 30
0.0
 10
128.5681213495693
 20
472.3729592848982
 30
0.0
 10
128.8887219953889
 20
472.4369627868776
 30
0.0
 10
129.2973605677604
 20
472.5110908046523
 30
0.0
 10
129.7589667344749
 20
472.5867869407109
 30
0.0
 10
130.1270971488688
 20
472.6416117795364
 30
0.0
 10
132.4619727097198
 20
472.9653565661779
 30
0.0
 10
135.2151738501061
 20
473.1425490478941
 30
0.0
 10
138.1155125010788
 20
473.1425490478941
 30
0.0
  0
SPLINE
  5
AC
330
1F
100
AcDbEntity
  8
0
  6
Continuous
 62
     7
370
    25
100
AcDbSpline
210
0.0
220
0.0
230
1.0
 70
     8
 71
     3
 72
     8
 73
     4
 74
     0
 42
0.000000001
 43
0.00000001
 40
0.0
 40
0.0
 40
0.0
 40
0.0
 40
1.0
 40
1.0
 40
1.0
 40
1.0
 10
138.115512501079
 20
489.2013446062202
 30
0.0
 10
131.2160440097713
 20
489.2013446062202
 30
0.0
 10
124.3166189282332
 20
488.9896026213195
 30
0.0
 10
117.4301804478841
 20
488.5659498259432
 30
0.0
  0
SPLINE
  5
AD
330
1F
100
AcDbEntity
  8
0
  6
Continuous
 62
     7
370
    25
100
AcDbSpline
210
0.0
220
0.0
230
1.0
 70
     8
 71
     3
 72
     8
 73
     4
 74
     0
 42
0.000000001
 43
0.00000001
 40
0.0
 40
0.0
 40
0.0
 40
0.0
 40
1.0
 40
1.0
 40
1.0
 40
1.0
 10
138.115512501079
 20
489.2013446062202
 30
0.0
 10
145.0149944593269
 20
489.2013446062202
 30
0.0
 10
151.9144341925345
 20
488.9896008914662
 30
0.0
 10
158.8008445542733
 20
488.5659498259432
 30
0.0
  0
LWPOLYLINE
  5
AE
330
1F
100
AcDbEntity
  8
0
  6
Continuous
 62
     7
370
    25
100
AcDbPolyline
 90
       10
 70
   128
 43
0.0
 10
138.1155125011
 20
473.0557249591
 10
140.1992906331
 20
473.024067687
 10
142.219754221
 20
472.9300577611
 10
144.1155125011
 20
472.7765516252
 10
145.8289638173
 20
472.5682134858
 10
147.3080458185
 20
472.3113735916
 10
148.5078173465
 20
472.0138358931
 10
149.3918239505
 20
471.6846409224
 10
149.9332055372
 20
471.3337911023
 10
150.1155125011
 20
470.9719468271
  0
LWPOLYLINE
  5
AF
330
1F
100
AcDbEntity
  8
0
  6
Continuous
 62
     7
370
    25
100
AcDbPolyline
 90
       10
 70
   128
 43
0.0
 10
126.1155125011
 20
470.9719468271
 10
126.2978194649
 20
471.3337911023
 10
126.8392010516
 20
471.6846409224
 10
127.7232076557
 20
472.0138358931
 10
128.9229791837
 20
472.3113735916
 10
130.4020611848
 20
472.5682134858
 10
132.1155125011
 20
472.7765516252
 10
134.0112707812
 20
472.9300577611
 10
136.0317343691
 20
473.024067687
 10
138.1155125011
 20
473.0557249591
  0
LWPOLYLINE
  5
B0
330
1F
100
AcDbEntity
  8
0
  6
Continuous
 62
     7
370
    25
100
AcDbPolyline
 90
       14
 70
   128
 43
0.0
 10
149.1155125011
 20
465.2330955259
 10
148.0898249606
 20
465.55885632
 10
146.7474985722
 20
465.8478385022
 10
145.1311460654
 20
466.0908682085
 10
143.2920792474
 20
466.2802303563
 10
141.2886800869
 20
466.4099135624
 10
139.1845473537
 20
466.4758009777
 10
137.0464776484
 20
466.4758009777
 10
134.9423449152
 20
466.4099135624
 10
132.9389457547
 20
466.2802303563
 10
131.0998789367
 20
466.0908682085
 10
129.48352643
 20
465.8478385022
 10
128.1412000415
 20
465.55885632
 10
127.1155125011
 20
465.2330955259
  0
SPLINE
  5
B1
330
1F
100
AcDbEntity
  8
0
  6
Continuous
 62
     7
370
    25
100
AcDbSpline
210
0.0
220
0.0
230
1.0
 70
    24
 71
     3
 72
    10
 73
     6
 74
     0
 42
0.000000001
 43
0.00000001
 40
0.0
 40
0.0
 40
0.0
 40
0.0
 40
0.5
 40
0.5
 40
1.0
 40
1.0
 40
1.0
 40
1.0
 10
149.1155125010787
 20
463.8317291001957
 30
0.0
 10
149.1155125010788
 20
463.9719282718139
 30
0.0
 10
149.1155125010787
 20
464.1659293744123
 30
0.0
 10
149.1155125010787
 20
464.6400479570686
 30
0.0
 10
149.1155125010787
 20
464.9201104663608
 30
0.0
 10
149.1155125010787
 20
465.2330955259181
 30
0.0
  0
LWPOLYLINE
  5
B2
330
1F
100
AcDbEntity
  8
0
  6
Continuous
 62
     7
370
    25
100
AcDbPolyline
 90
       19
 70
   128
 43
0.0
 10
149.1155125011
 20
463.8317291002
 10
148.9483977842
 20
464.1634196859
 10
148.4521313297
 20
464.4850320209
 10
147.6417919427
 20
464.7867940774
 10
146.5420013754
 20
465.0595369677
 10
145.1861762076
 20
465.2949735374
 10
143.6155125011
 20
465.4859501652
 10
141.8777340777
 20
465.626664123
 10
140.0256424554
 20
465.7128398885
 10
138.1155125011
 20
465.7418590545
 10
136.2053825467
 20
465.7128398885
 10
134.3532909245
 20
465.626664123
 10
132.6155125011
 20
465.4859501652
 10
131.0448487945
 20
465.2949735373
 10
129.6890236268
 20
465.0595369677
 10
128.5892330594
 20
464.7867940774
 10
127.7788936724
 20
464.4850320209
 10
127.2826272179
 20
464.1634196859
 10
127.1155125011
 20
463.8317291002
  0
SPLINE
  5
B3
330
1F
100
AcDbEntity
  8
0
  6
Continuous
 62
     7
370
    25
100
AcDbSpline
210
0.0
220
0.0
230
1.0
 70
    24
 71
     3
 72
    10
 73
     6
 74
     0
 42
0.000000001
 43
0.00000001
 40
0.0
 40
0.0
 40
0.0
 40
0.0
 40
0.5
 40
0.5
 40
1.0
 40
1.0
 40
1.0
 40
1.0
 10
127.1155125010788
 20
463.8317291001957
 30
0.0
 10
127.1155125010788
 20
463.9719282718139
 30
0.0
 10
127.1155125010788
 20
464.1659293744123
 30
0.0
 10
127.1155125010788
 20
464.6400479570686
 30
0.0
 10
127.1155125010787
 20
464.9201104663608
 30
0.0
 10
127.1155125010788
 20
465.2330955259181
 30
0.0
  0
LINE
  5
B4
330
1F
100
AcDbEntity
  8
0
  6
Continuous
 62
     7
370
    25
100
AcDbLine
 10
149.1155125011
 20
465.2330955259
 30
0.0
 11
149.1155125011
 21
468.6037475167
 31
0.0
  0
LINE
  5
B5
330
1F
100
AcDbEntity
  8
0
  6
Continuous
 62
     7
370
    25
100
AcDbLine
 10
127.1155125011
 20
465.2330955259
 30
0.0
 11
127.1155125011
 21
468.6037475167
 31
0.0
  0
LWPOLYLINE
  5
B6
330
1F
100
AcDbEntity
  8
0
  6
Continuous
 62
     7
370
    25
100
AcDbPolyline
 90
        9
 70
   128
 43
0.0
 10
127.1155125011
 20
466.9381727078
 10
126.681497431
 20
467.1385540618
 10
126.3681723766
 20
467.3456106822
 10
126.178844593
 20
467.5571570141
 10
126.1155125011
 20
467.7709601122
 10
126.178844593
 20
467.9847632104
 10
126.3681723766
 20
468.1963095423
 10
126.681497431
 20
468.4033661627
 10
127.1155125011
 20
468.6037475167
  0
LWPOLYLINE
  5
B7
330
1F
100
AcDbEntity
  8
0
  6
Continuous
 62
     7
370
    25
100
AcDbPolyline
 90
        9
 70
   128
 43
0.0
 10
149.1155125011
 20
468.6037475167
 10
149.5495275711
 20
468.4033661627
 10
149.8628526255
 20
468.1963095423
 10
150.0521804091
 20
467.9847632104
 10
150.1155125011
 20
467.7709601122
 10
150.0521804091
 20
467.5571570141
 10
149.8628526255
 20
467.3456106822
 10
149.5495275711
 20
467.1385540618
 10
149.1155125011
 20
466.9381727078
  0
LWPOLYLINE
  5
B8
330
1F
100
AcDbEntity
  8
0
  6
Continuous
 62
     7
370
    25
100
AcDbPolyline
 90
       19
 70
   128
 43
0.0
 10
127.1155125011
 20
463.8317291002
 10
127.2826272179
 20
463.5000385145
 10
127.7788936724
 20
463.1784261794
 10
128.5892330594
 20
462.876664123
 10
129.6890236268
 20
462.6039212327
 10
131.0448487945
 20
462.368484663
 10
132.6155125011
 20
462.1775080352
 10
134.3532909245
 20
462.0367940774
 10
136.2053825467
 20
461.9506183119
 10
138.1155125011
 20
461.9215991459
 10
140.0256424554
 20
461.9506183119
 10
141.8777340777
 20
462.0367940774
 10
143.6155125011
 20
462.1775080352
 10
145.1861762076
 20
462.368484663
 10
146.5420013754
 20
462.6039212327
 10
147.6417919427
 20
462.876664123
 10
148.4521313297
 20
463.1784261794
 10
148.9483977842
 20
463.5000385145
 10
149.1155125011
 20
463.8317291002
  0
SPLINE
  5
B9
330
1F
100
AcDbEntity
  8
0
  6
Continuous
 62
     7
370
    25
100
AcDbSpline
210
0.0
220
0.0
230
1.0
 70
     8
 71
     3
 72
     9
 73
     5
 74
     0
 42
0.000000001
 43
0.00000001
 40
0.0
 40
0.0
 40
0.0
 40
0.0
 40
0.6311139725179138
 40
1.0
 40
1.0
 40
1.0
 40
1.0
 10
125.6144919393447
 20
470.971937990261
 30
0.0
 10
125.6403724192714
 20
470.8478836354992
 30
0.0
 10
125.6813800360469
 20
470.6513195279628
 30
0.0
 10
125.9985229218066
 20
470.4630422544379
 30
0.0
 10
126.1155125010787
 20
470.393589398942
 30
0.0
  0
SPLINE
  5
BA
330
1F
100
AcDbEntity
  8
0
  6
Continuous
 62
     7
370
    25
100
AcDbSpline
210
0.0
220
0.0
230
1.0
 70
     8
 71
     3
 72
     9
 73
     5
 74
     0
 42
0.000000001
 43
0.00000001
 40
0.0
 40
0.0
 40
0.0
 40
0.0
 40
0.6311139725179289
 40
1.0
 40
1.0
 40
1.0
 40
1.0
 10
150.6165330628129
 20
470.971937990261
 30
0.0
 10
150.5906525828862
 20
470.8478836354992
 30
0.0
 10
150.5496449661106
 20
470.6513195279629
 30
0.0
 10
150.2325020803509
 20
470.4630422544379
 30
0.0
 10
150.1155125010787
 20
470.393589398942
 30
0.0
  0
LINE
  5
BB
330
1F
100
AcDbEntity
  8
0
  6
Continuous
 62
     7
370
    25
100
AcDbLine
 10
116.4053018442
 20
487.4790354418
 30
0.0
 11
116.4053018442
 21
475.5963519157
 31
0.0
  0
LINE
  5
BC
330
1F
100
AcDbEntity
  8
0
  6
Continuous
 62
     7
370
    25
100
AcDbLine
 10
159.825723158
 20
487.4790354418
 30
0.0
 11
159.825723158
 21
475.5963519157
 31
0.0
  0
SPLINE
  5
BD
330
1F
100
AcDbEntity
  8
0
  6
Continuous
 62
     7
370
    25
100
AcDbSpline
210
0.0
220
0.0
230
1.0
 70
     8
 71
     3
 72
    10
 73
     6
 74
     0
 42
0.000000001
 43
0.00000001
 40
0.0
 40
0.0
 40
0.0
 40
0.0
 40
0.0982821540821104
 40
0.5696101828623004
 40
1.0
 40
1.0
 40
1.0
 40
1.0
 10
116.9133446978827
 20
474.5091923895549
 30
0.0
 10
117.2366289866044
 20
474.2393531487178
 30
0.0
 10
119.1102755762126
 20
472.6754560124364
 30
0.0
 10
122.396364534893
 20
469.9179740889354
 30
0.0
 10
125.5908059878278
 20
467.7404501365843
 30
0.0
 10
127.1155125010788
 20
466.701118221498
 30
0.0
  0
SPLINE
  5
BE
330
1F
100
AcDbEntity
  8
0
  6
Continuous
 62
     7
370
    25
100
AcDbSpline
210
0.0
220
0.0
230
1.0
 70
     8
 71
     3
 72
    10
 73
     6
 74
     0
 42
0.000000001
 43
0.00000001
 40
0.0
 40
0.0
 40
0.0
 40
0.0
 40
0.0982821540819236
 40
0.5696101828621066
 40
1.0
 40
1.0
 40
1.0
 40
1.0
 10
159.3176803042748
 20
474.5091923895549
 30
0.0
 10
158.9943960155537
 20
474.2393531487184
 30
0.0
 10
157.1207494259461
 20
472.6754560124375
 30
0.0
 10
153.8346604672657
 20
469.9179740889363
 30
0.0
 10
150.6402190143304
 20
467.7404501365847
 30
0.0
 10
149.1155125010787
 20
466.7011182214979
 30
0.0
  0
SPLINE
  5
BF
330
1F
100
AcDbEntity
  8
0
  6
Continuous
 62
     7
370
    25
100
AcDbSpline
210
0.0
220
0.0
230
1.0
 70
     8
 71
     3
 72
    10
 73
     6
 74
     0
 42
0.000000001
 43
0.00000001
 40
0.0
 40
0.0
 40
0.0
 40
0.0
 40
0.4999999999999999
 40
0.4999999999999999
 40
1.0
 40
1.0
 40
1.0
 40
1.0
 10
116.4053018441688
 20
475.5963519156974
 30
0.0
 10
116.4053018441377
 20
475.3885981841456
 30
0.0
 10
116.4518770503588
 20
475.1817406398533
 30
0.0
 10
116.6256107636386
 20
474.8102259143795
 30
0.0
 10
116.7539003056087
 20
474.6425176357627
 30
0.0
 10
116.913333413503
 20
474.5091788962864
 30
0.0
  0
SPLINE
  5
C0
330
1F
100
AcDbEntity
  8
0
  6
Continuous
 62
     7
370
    25
100
AcDbSpline
210
0.0
220
0.0
230
1.0
 70
     8
 71
     3
 72
    10
 73
     6
 74
     0
 42
0.000000001
 43
0.00000001
 40
0.0
 40
0.0
 40
0.0
 40
0.0
 40
0.5
 40
0.5
 40
1.0
 40
1.0
 40
1.0
 40
1.0
 10
159.8257231579887
 20
475.5963519156973
 30
0.0
 10
159.8257231580199
 20
475.3885981839545
 30
0.0
 10
159.7791479522088
 20
475.1817406419309
 30
0.0
 10
159.6054142410871
 20
474.8102259186705
 30
0.0
 10
159.4771247011492
 20
474.6425176396101
 30
0.0
 10
159.3176915886545
 20
474.5091788962864
 30
0.0
  0
SPLINE
  5
C1
330
1F
100
AcDbEntity
  8
0
  6
Continuous
 62
     7
370
    25
100
AcDbSpline
210
0.0
220
0.0
230
1.0
 70
     8
 71
     3
 72
    12
 73
     8
 74
     0
 42
0.000000001
 43
0.00000001
 40
0.0
 40
0.0
 40
0.0
 40
0.0
 40
0.2500000000000043
 40
0.2500000000000043
 40
0.5000000000000087
 40
0.5000000000000087
 40
1.0
 40
1.0
 40
1.0
 40
1.0
 10
116.4053164457492
 20
487.4790353663863
 30
0.0
 10
116.4060302870545
 20
487.6172486872677
 30
0.0
 10
116.4325807890446
 20
487.7524356182923
 30
0.0
 10
116.5346697574654
 20
488.0076222378848
 30
0.0
 10
116.6095054800581
 20
488.124650015892
 30
0.0
 10
116.8910613958447
 20
488.4234130994344
 30
0.0
 10
117.1543146911785
 20
488.5482916639691
 30
0.0
 10
117.4301806618703
 20
488.565946482295
 30
0.0
  0
SPLINE
  5
C2
330
1F
100
AcDbEntity
  8
0
  6
Continuous
 62
     7
370
    25
100
AcDbSpline
210
0.0
220
0.0
230
1.0
 70
     8
 71
     3
 72
    12
 73
     8
 74
     0
 42
0.000000001
 43
0.00000001
 40
0.0
 40
0.0
 40
0.0
 40
0.0
 40
0.4999999999999989
 40
0.4999999999999989
 40
0.7499999999999994
 40
0.7499999999999994
 40
1.0
 40
1.0
 40
1.0
 40
1.0
 10
158.8008443402884
 20
488.5659464823125
 30
0.0
 10
159.0741625319308
 20
488.5484547180318
 30
0.0
 10
159.3386392478122
 20
488.4249224427015
 30
0.0
 10
159.6224730282808
 20
488.1235861384922
 30
0.0
 10
159.6965148027429
 20
488.0072849534517
 30
0.0
 10
159.7984202046809
 20
487.7524340022256
 30
0.0
 10
159.8249975258713
 20
487.6167045435535
 30
0.0
 10
159.8257085564235
 20
487.4790353663863
 30
0.0
  0
ELLIPSE
  5
C3
330
1F
100
AcDbEntity
  8
0
  6
Continuous
 62
     7
370
    25
100
AcDbEllipse
 10
170.3625984393
 20
508.1984305444
 30
0.0
 11
-1.979953267625262
 21
-1.979953267625262
 31
0.0
210
0.0
220
0.0
230
1.0
 40
0.9999725851
 41
2.356208197850953
 42
3.926977109328638
  0
ELLIPSE
  5
C4
330
1F
100
AcDbEntity
  8
0
  6
Continuous
 62
     7
370
    25
100
AcDbEllipse
 10
105.8684265629
 20
443.704258668
 30
0.0
 11
1.979953267625248
 21
1.979953267625206
 31
0.0
210
0.0
220
0.0
230
1.0
 40
0.9999725851
 41
2.356208197850991
 42
3.926977109328641
  0
ELLIPSE
  5
C5
330
1F
100
AcDbEntity
  8
0
  6
Continuous
 62
     7
370
    25
100
AcDbEllipse
 10
105.8684265629
 20
508.1984305444
 30
0.0
 11
1.979953267625248
 21
-1.979953267625262
 31
0.0
210
0.0
220
0.0
230
1.0
 40
0.9999725851
 41
2.356208197850971
 42
3.926977109328651
  0
ELLIPSE
  5
C6
330
1F
100
AcDbEntity
  8
0
  6
Continuous
 62
     7
370
    25
100
AcDbEllipse
 10
170.3625984393
 20
443.704258668
 30
0.0
 11
-1.979953267625234
 21
1.979953267625206
 31
0.0
210
0.0
220
0.0
230
1.0
 40
0.9999725851
 41
2.356208197850977
 42
3.926977109328609
  0
LINE
  5
C7
330
1F
100
AcDbEntity
  8
0
  6
Continuous
 62
     7
370
    25
100
AcDbLine
 10
170.3626752032
 20
440.9042202858
 30
0.0
 11
105.8683497989
 21
440.9042202858
 31
0.0
  0
LINE
  5
C8
330
1F
100
AcDbEntity
  8
0
  6
Continuous
 62
     7
370
    25
100
AcDbLine
 10
103.0683881806
 20
443.7041819041
 30
0.0
 11
103.0683881806
 21
508.1985073084
 31
0.0
  0
LINE
  5
C9
330
1F
100
AcDbEntity
  8
0
  6
Continuous
 62
     7
370
    25
100
AcDbLine
 10
105.8683497989
 20
510.9984689267
 30
0.0
 11
170.3626752032
 21
510.9984689267
 31
0.0
  0
LINE
  5
CA
330
1F
100
AcDbEntity
  8
0
  6
Continuous
 62
     7
370
    25
100
AcDbLine
 10
173.1626368215
 20
508.1985073084
 30
0.0
 11
173.1626368215
 21
443.7041819041
 31
0.0
  0
LINE
  5
CB
330
1F
100
AcDbEntity
  8
0
  6
Continuous
 62
     8
370
    18
100
AcDbLine
 10
262.4509024545
 20
438.4679605812
 30
0.0
 11
263.9005184169
 21
438.4345905122
 31
0.0
  0
SPLINE
  5
CC
330
1F
100
AcDbEntity
  8
0
  6
Continuous
 62
     8
370
    18
100
AcDbSpline
210
0.0
220
0.0
230
1.0
 70
     8
 71
     3
 72
    26
 73
    22
 74
     0
 42
0.000000001
 43
0.00000001
 40
0.0
 40
0.0
 40
0.0
 40
0.0
 40
0.03125
 40
0.03125
 40
0.0625
 40
0.0625
 40
0.1249999999999998
 40
0.1249999999999998
 40
0.2499999999999998
 40
0.2499999999999998
 40
0.3749999999999998
 40
0.3749999999999998
 40
0.4999999999999999
 40
0.4999999999999999
 40
0.6249999999999999
 40
0.6249999999999999
 40
0.75
 40
0.75
 40
0.875
 40
0.875
 40
1.0
 40
1.0
 40
1.0
 40
1.0
 10
268.4866850624859
 20
468.9215630681229
 30
0.0
 10
268.3803511135557
 20
468.6134244423565
 30
0.0
 10
268.2680257718395
 20
468.3078421409578
 30
0.0
 10
268.044197731794
 20
467.6966577504555
 30
0.0
 10
267.9322433291486
 20
467.3912302965986
 30
0.0
 10
267.6006735443214
 20
466.4736482332722
 30
0.0
 10
267.3852366929079
 20
465.8602425256917
 30
0.0
 10
266.7593787704674
 20
464.0133910673335
 30
0.0
 10
266.3681662900514
 20
462.7737807920182
 30
0.0
 10
265.6332182172343
 20
460.2793221362177
 30
0.0
 10
265.2891905950468
 20
459.0236226174371
 30
0.0
 10
264.6527068808811
 20
456.5007189893858
 30
0.0
 10
264.3604994802594
 20
455.2340796010309
 30
0.0
 10
263.8369866765017
 20
452.6886925753685
 30
0.0
 10
263.6064015669249
 20
451.4098003683823
 30
0.0
 10
263.2109163979267
 20
448.838753686635
 30
0.0
 10
263.0456291543336
 20
447.5465302119505
 30
0.0
 10
262.7787299405801
 20
444.9600522918956
 30
0.0
 10
262.6771068435788
 20
443.6644368123409
 30
0.0
 10
262.5281671339153
 20
441.0690167849464
 30
0.0
 10
262.4808570695194
 20
439.7692071613301
 30
0.0
 10
262.4509024544521
 20
438.4679605812281
 30
0.0
  0
LINE
  5
CD
330
1F
100
AcDbEntity
  8
0
  6
Continuous
 62
     8
370
    18
100
AcDbLine
 10
268.4866850625
 20
468.9215630681
 30
0.0
 11
269.857367207
 21
468.4485615261
 31
0.0
  0
SPLINE
  5
CE
330
1F
100
AcDbEntity
  8
0
  6
Continuous
 62
     8
370
    18
100
AcDbSpline
210
0.0
220
0.0
230
1.0
 70
     8
 71
     3
 72
    76
 73
    72
 74
     0
 42
0.000000001
 43
0.00000001
 40
0.0
 40
0.0
 40
0.0
 40
0.0
 40
0.0120137268138276
 40
0.0240277284369771
 40
0.0300343935474349
 40
0.0420498415374643
 40
0.0540647652889037
 40
0.0600733853516352
 40
0.0780941738746051
 40
0.0901030089836483
 40
0.0961102872076126
 40
0.1087092472856003
 40
0.127607783595368
 40
0.1339073903357031
 40
0.1465005981786807
 40
0.1591022030160882
 40
0.1654035403997383
 40
0.1780018593890987
 40
0.1968999898404123
 40
0.2078067359049068
 40
0.2187137003604951
 40
0.2405294099086834
 40
0.262343584064141
 40
0.2787016978337694
 40
0.2900033343415448
 40
0.2958544548877142
 40
0.3075559000464889
 40
0.3309561223300356
 40
0.342653620032073
 40
0.3543448869550275
 40
0.366038579571502
 40
0.3777358389022862
 40
0.4144260418953497
 40
0.4235994327324246
 40
0.4327735563618263
 40
0.4511220902439312
 40
0.4878051045139205
 40
0.4939166015516415
 40
0.5061390165305513
 40
0.5244820813031172
 40
0.5305972811395739
 40
0.5428289114880758
 40
0.5581192835353442
 40
0.5672910295218724
 40
0.5764587321733525
 40
0.5856300564026483
 40
0.6039742526809634
 40
0.6477919263635477
 40
0.6668970274698869
 40
0.673265551619676
 40
0.6987419384935764
 40
0.7242118943847157
 40
0.7287254682140972
 40
0.7377495670679439
 40
0.7603296305930313
 40
0.7693636273796343
 40
0.7829157801399999
 40
0.7919492388107721
 40
0.7964657201295855
 40
0.8092950643988129
 40
0.8285388529296822
 40
0.8349533649880023
 40
0.8477842020137275
 40
0.8606150349726087
 40
0.8734446511329422
 40
0.8926849574807731
 40
0.9075675846013153
 40
0.9160357217179345
 40
0.9499083619532694
 40
0.9749541477803163
 40
1.0
 40
1.0
 40
1.0
 40
1.0
 10
227.7443399942345
 20
468.9215629296785
 30
0.0
 10
227.7856294055018
 20
468.8035985377045
 30
0.0
 10
227.8682091725156
 20
468.5676670553669
 30
0.0
 10
227.9753513221275
 20
468.2741535032646
 30
0.0
 10
228.0827649854791
 20
467.9807273906299
 30
0.0
 10
228.1902937096411
 20
467.6873319181865
 30
0.0
 10
228.2974721208795
 20
467.39378681356
 30
0.0
 10
228.4253976237643
 20
467.0413093797297
 30
0.0
 10
228.5522168616052
 20
466.6884976761404
 30
0.0
 10
228.6773576404243
 20
466.335103063037
 30
0.0
 10
228.782808049728
 20
466.0345739848382
 30
0.0
 10
228.9108594962152
 20
465.6660177203081
 30
0.0
 10
229.038020516304
 20
465.2939356866856
 30
0.0
 10
229.1635072417483
 20
464.9213519141446
 30
0.0
 10
229.2670413596494
 20
464.6104989409678
 30
0.0
 10
229.3693438572805
 20
464.2992196362523
 30
0.0
 10
229.4706792149137
 20
463.9875690114637
 30
0.0
 10
229.5911131300509
 20
463.6132501836008
 30
0.0
 10
229.7240765081557
 20
463.1926371621956
 30
0.0
 10
229.8498162412178
 20
462.788201661552
 30
0.0
 10
229.9830681229397
 20
462.3543194634165
 30
0.0
 10
230.1468397680854
 20
461.8111121092489
 30
0.0
 10
230.3229905952344
 20
461.2124212357021
 30
0.0
 10
230.4654002356823
 20
460.7178299152283
 30
0.0
 10
230.5604701116765
 20
460.3824248887326
 30
0.0
 10
230.6415605475994
 20
460.093411455393
 30
0.0
 10
230.7555268950249
 20
459.6828998512521
 30
0.0
 10
230.8831915532318
 20
459.2130731871596
 30
0.0
 10
231.0082005652575
 20
458.742647062286
 30
0.0
 10
231.1006026615878
 20
458.3895698221996
 30
0.0
 10
231.1916164006624
 20
458.0361345392914
 30
0.0
 10
231.345128745792
 20
457.4302473817
 30
0.0
 10
231.4875131282384
 20
456.8485879060864
 30
0.0
 10
231.6192136969443
 20
456.2913760824249
 30
0.0
 10
231.7058262554005
 20
455.9195768828657
 30
0.0
 10
231.8542263021299
 20
455.2683280284165
 30
0.0
 10
231.9894223753406
 20
454.6467582256682
 30
0.0
 10
232.1066142761401
 20
454.0865367540008
 30
0.0
 10
232.1834859844859
 20
453.7128040629182
 30
0.0
 10
232.2580647935385
 20
453.3385650343913
 30
0.0
 10
232.3308294657947
 20
452.9638753846087
 30
0.0
 10
232.3962705325421
 20
452.6201154745139
 30
0.0
 10
232.465597756236
 20
452.2447313601882
 30
0.0
 10
232.5274263185011
 20
451.9003821604159
 30
0.0
 10
232.576975226157
 20
451.6185053185743
 30
0.0
 10
232.64166949714
 20
451.2424079184326
 30
0.0
 10
232.763439403016
 20
450.5103739231034
 30
0.0
 10
232.8917465750684
 20
449.6746827025034
 30
0.0
 10
232.9921543481171
 20
448.960858679026
 30
0.0
 10
233.063316597752
 20
448.4356178323238
 30
0.0
 10
233.1396118548649
 20
447.8442542860348
 30
0.0
 10
233.2076205727172
 20
447.2713092238569
 30
0.0
 10
233.2530624348273
 20
446.8680602845823
 30
0.0
 10
233.2941187219548
 20
446.4945722021696
 30
0.0
 10
233.3376654862729
 20
446.0740502121889
 30
0.0
 10
233.3832037739953
 20
445.6063919490146
 30
0.0
 10
233.4136628415001
 20
445.2788607576737
 30
0.0
 10
233.4385693828368
 20
444.9980160803426
 30
0.0
 10
233.4621219408257
 20
444.7246015813218
 30
0.0
 10
233.4935693459651
 20
444.3452551808557
 30
0.0
 10
233.5242973283943
 20
443.9460404392594
 30
0.0
 10
233.5531986092931
 20
443.5466774384664
 30
0.0
 10
233.5761538526284
 20
443.2137741678704
 30
0.0
 10
233.6019102706776
 20
442.8141724704825
 30
0.0
 10
233.6299155208162
 20
442.3479032803045
 30
0.0
 10
233.6565790247066
 20
441.8601748441019
 30
0.0
 10
233.6783590559797
 20
441.41762874145
 30
0.0
 10
233.7055342665963
 20
440.8229467420638
 30
0.0
 10
233.7330588477721
 20
440.1224449855214
 30
0.0
 10
233.7609074298171
 20
439.2493913230863
 30
0.0
 10
233.7737175453807
 20
438.7284377983879
 30
0.0
 10
233.7801226116518
 20
438.4679606907967
 30
0.0
  0
LINE
  5
CF
330
1F
100
AcDbEntity
  8
0
  6
Continuous
 62
     8
370
    18
100
AcDbLine
 10
233.7801225477
 20
438.4679605812
 30
0.0
 11
232.3305065853
 21
438.4345905122
 31
0.0
  0
LINE
  5
D0
330
1F
100
AcDbEntity
  8
0
  6
Continuous
 62
     8
370
    18
100
AcDbLine
 10
227.7443399397
 20
468.9215630681
 30
0.0
 11
226.3736577952
 21
468.4485615261
 31
0.0
  0
LINE
  5
D1
330
1F
100
AcDbEntity
  8
0
  6
Continuous
 62
     8
370
    18
100
AcDbLine
 10
263.6295757748
 20
392.6372075039
 30
0.0
 11
262.1795956511
 21
392.6447996514
 31
0.0
  0
LINE
  5
D2
330
1F
100
AcDbEntity
  8
0
  6
Continuous
 62
     8
370
    18
100
AcDbLine
 10
262.1904454119
 20
394.7169324005
 30
0.0
 11
262.1795956511
 21
392.6447996514
 31
0.0
  0
LINE
  5
D3
330
1F
100
AcDbEntity
  8
0
  6
Continuous
 62
     8
370
    18
100
AcDbLine
 10
262.2322333796
 20
402.6977734008
 30
0.0
 11
262.1904454119
 21
394.7169324005
 31
0.0
  0
LINE
  5
D4
330
1F
100
AcDbEntity
  8
0
  6
Continuous
 62
     8
370
    18
100
AcDbLine
 10
262.281743902
 20
412.1535002436
 30
0.0
 11
262.2322333796
 21
402.6977734008
 31
0.0
  0
LINE
  5
D5
330
1F
100
AcDbEntity
  8
0
  6
Continuous
 62
     8
370
    18
100
AcDbLine
 10
262.3279538311
 20
420.9788659492
 30
0.0
 11
262.281743902
 21
412.1535002436
 31
0.0
  0
LINE
  5
D6
330
1F
100
AcDbEntity
  8
0
  6
Continuous
 62
     8
370
    18
100
AcDbLine
 10
262.391678312
 20
433.1492340944
 30
0.0
 11
262.3279538311
 21
420.9788659492
 31
0.0
  0
LINE
  5
D7
330
1F
100
AcDbEntity
  8
0
  6
Continuous
 62
     8
370
    18
100
AcDbLine
 10
262.3916783118
 20
433.1492340944
 30
0.0
 11
263.8416584358
 21
433.1416419468
 31
0.0
  0
SPLINE
  5
D8
330
1F
100
AcDbEntity
  8
0
  6
Continuous
 62
     8
370
    18
100
AcDbSpline
210
0.0
220
0.0
230
1.0
 70
     8
 71
     3
 72
    22
 73
    18
 74
     0
 42
0.000000001
 43
0.00000001
 40
0.0
 40
0.0
 40
0.0
 40
0.0
 40
0.125
 40
0.125
 40
0.2499999999999999
 40
0.2499999999999999
 40
0.3749999999999999
 40
0.3749999999999999
 40
0.5
 40
0.5
 40
0.6250000000000001
 40
0.6250000000000001
 40
0.75
 40
0.75
 40
0.875
 40
0.875
 40
1.0
 40
1.0
 40
1.0
 40
1.0
 10
248.1155125010787
 20
497.5013446062201
 30
0.0
 10
249.8243248109789
 20
497.5013446062201
 30
0.0
 10
251.5330461618155
 20
497.2971405198936
 30
0.0
 10
254.8544249256443
 20
496.4917827428447
 30
0.0
 10
256.466905543619
 20
495.8906719208383
 30
0.0
 10
259.5049676185482
 20
494.3253167308757
 30
0.0
 10
260.9303873612641
 20
493.3611556858458
 30
0.0
 10
263.5140192299094
 20
491.1239689682949
 30
0.0
 10
264.67209383065
 20
489.8510623798931
 30
0.0
 10
266.655776959892
 20
487.0680497524286
 30
0.0
 10
267.4812798981192
 20
485.558091851474
 30
0.0
 10
268.7532868152305
 20
482.3860016187272
 30
0.0
 10
269.1997230859423
 20
480.7240381354129
 30
0.0
 10
269.688410232511
 20
477.341532715662
 30
0.0
 10
269.7306350958417
 20
475.6211708279785
 30
0.0
 10
269.4084780255311
 20
472.2187639058255
 30
0.0
 10
269.044113240119
 20
470.5368999794542
 30
0.0
 10
268.4866850624729
 20
468.9215630680848
 30
0.0
  0
SPLINE
  5
D9
330
1F
100
AcDbEntity
  8
0
  6
Continuous
 62
     8
370
    18
100
AcDbSpline
210
0.0
220
0.0
230
1.0
 70
     8
 71
     3
 72
     8
 73
     4
 74
     0
 42
0.000000001
 43
0.00000001
 40
0.0
 40
0.0
 40
0.0
 40
0.0
 40
1.0
 40
1.0
 40
1.0
 40
1.0
 10
262.4509024544521
 20
438.4679605812282
 30
0.0
 10
262.4101024403843
 20
436.6955833146579
 30
0.0
 10
262.4009634870777
 20
434.9225557031901
 30
0.0
 10
262.3916783120159
 20
433.1492340943538
 30
0.0
  0
SPLINE
  5
DA
330
1F
100
AcDbEntity
  8
0
  6
Continuous
 62
     8
370
    18
100
AcDbSpline
210
0.0
220
0.0
230
1.0
 70
     8
 71
     3
 72
    32
 73
    28
 74
     0
 42
0.000000001
 43
0.00000001
 40
0.0
 40
0.0
 40
0.0
 40
0.0
 40
0.2499999999998689
 40
0.2499999999998689
 40
0.3749999999998129
 40
0.3749999999998129
 40
0.4374999999997848
 40
0.4374999999997848
 40
0.4687499999997708
 40
0.4687499999997708
 40
0.4843749999997756
 40
0.4843749999997756
 40
0.4921874999997805
 40
0.4921874999997805
 40
0.4999999999997854
 40
0.4999999999997854
 40
0.5156249999997864
 40
0.5156249999997864
 40
0.5312499999997874
 40
0.5312499999997874
 40
0.5624999999997978
 40
0.5624999999997978
 40
0.6249999999998247
 40
0.6249999999998247
 40
0.7499999999998825
 40
0.7499999999998825
 40
1.0
 40
1.0
 40
1.0
 40
1.0
 10
262.1795956510841
 20
392.6447996514308
 30
0.0
 10
262.1786621202771
 20
392.4665100298027
 30
0.0
 10
262.1785964436686
 20
392.2870120043622
 30
0.0
 10
262.1530363703849
 20
392.0156733137802
 30
0.0
 10
262.1403033648274
 20
391.9250275033347
 30
0.0
 10
262.1083502310331
 20
391.7902855758518
 30
0.0
 10
262.0955368498222
 20
391.7453310368305
 30
0.0
 10
262.0705147393606
 20
391.6786164659475
 30
0.0
 10
262.0612629185367
 20
391.6565498994581
 30
0.0
 10
262.0444951984595
 20
391.623315872156
 30
0.0
 10
262.0384423555678
 20
391.6122185606213
 30
0.0
 10
262.0277908293127
 20
391.5953036124254
 30
0.0
 10
262.0240143976804
 20
391.5896426568977
 30
0.0
 10
262.0148856204014
 20
391.5775652339277
 30
0.0
 10
262.008160666839
 20
391.5697645062678
 30
0.0
 10
261.9874228958415
 20
391.5515394844426
 30
0.0
 10
261.9769829676119
 20
391.5455703954959
 30
0.0
 10
261.9545440817114
 20
391.5324997961488
 30
0.0
 10
261.9434126994463
 20
391.5267763923426
 30
0.0
 10
261.910202634139
 20
391.5109520435415
 30
0.0
 10
261.8881692976734
 20
391.5021411361338
 30
0.0
 10
261.8217334690397
 20
391.478365493688
 30
0.0
 10
261.777017778645
 20
391.4661519284113
 30
0.0
 10
261.6419132665933
 20
391.4356209694095
 30
0.0
 10
261.5523568450012
 20
391.4238606361637
 30
0.0
 10
261.2841686935483
 20
391.400538377421
 30
0.0
 10
261.1062858150589
 20
391.4013446062201
 30
0.0
 10
260.9296127857748
 20
391.4013446062201
 30
0.0
  0
LINE
  5
DB
330
1F
100
AcDbEntity
  8
0
  6
Continuous
 62
     8
370
    18
100
AcDbLine
 10
260.9296127858
 20
391.4013446062
 30
0.0
 11
260.5936291503
 21
391.4013446062
 31
0.0
  0
SPLINE
  5
DC
330
1F
100
AcDbEntity
  8
0
  6
Continuous
 62
     8
370
    18
100
AcDbSpline
210
0.0
220
0.0
230
1.0
 70
     8
 71
     3
 72
    30
 73
    26
 74
     0
 42
0.000000001
 43
0.00000001
 40
0.0
 40
0.0
 40
0.0
 40
0.0
 40
0.0039062500000007
 40
0.0039062500000007
 40
0.0078125000000015
 40
0.0078125000000015
 40
0.0156250000000028
 40
0.0156250000000028
 40
0.0312500000000073
 40
0.0312500000000073
 40
0.0625000000000176
 40
0.0625000000000176
 40
0.1250000000000181
 40
0.1250000000000181
 40
0.2500000000000184
 40
0.2500000000000184
 40
0.5000000000000191
 40
0.5000000000000191
 40
0.7500000000000197
 40
0.7500000000000197
 40
0.87500000000002
 40
0.87500000000002
 40
0.93750000000001
 40
0.93750000000001
 40
1.0
 40
1.0
 40
1.0
 40
1.0
 10
258.5320594215429
 20
391.4013446062194
 30
0.0
 10
258.5297600817438
 20
391.3998499858149
 30
0.0
 10
258.5352981523312
 20
391.3986153104503
 30
0.0
 10
258.5405811959602
 20
391.3975909700665
 30
0.0
 10
258.5432439385772
 20
391.3972098501459
 30
0.0
 10
258.551249045744
 20
391.3961707295967
 30
0.0
 10
258.5566061739412
 20
391.3956429685496
 30
0.0
 10
258.5726797367312
 20
391.3942056099972
 30
0.0
 10
258.5834130669711
 20
391.3934674961598
 30
0.0
 10
258.6156292835096
 20
391.391455842799
 30
0.0
 10
258.6371229746853
 20
391.3904179471871
 30
0.0
 10
258.7016096997608
 20
391.3875944768933
 30
0.0
 10
258.7446178672852
 20
391.3861412476334
 30
0.0
 10
258.8736599458216
 20
391.3822247031141
 30
0.0
 10
258.9597024557482
 20
391.3802620862747
 30
0.0
 10
259.2178368289862
 20
391.3752356874546
 30
0.0
 10
259.3899450064096
 20
391.3730958168584
 30
0.0
 10
259.7341939812546
 20
391.3709392169728
 30
0.0
 10
259.9063211748629
 20
391.3708971114609
 30
0.0
 10
260.1644641885998
 20
391.3737817940664
 30
0.0
 10
260.250505866217
 20
391.3752175956814
 30
0.0
 10
260.3795486361336
 20
391.3789343563643
 30
0.0
 10
260.4225635397503
 20
391.3804241195544
 30
0.0
 10
260.5085626730237
 20
391.3845514121954
 30
0.0
 10
260.5517110910483
 20
391.386122190576
 30
0.0
 10
260.5942827896322
 20
391.3922750305502
 30
0.0
  0
LINE
  5
DD
330
1F
100
AcDbEntity
  8
0
  6
Continuous
 62
     8
370
    18
100
AcDbLine
 10
258.5320594294
 20
391.4013446062
 30
0.0
 11
248.1155125011
 21
391.4013446062
 31
0.0
  0
SPLINE
  5
DE
330
1F
100
AcDbEntity
  8
0
  6
Continuous
 62
     8
370
    18
100
AcDbSpline
210
0.0
220
0.0
230
1.0
 70
     8
 71
     3
 72
     8
 73
     4
 74
     0
 42
0.000000001
 43
0.00000001
 40
0.0
 40
0.0
 40
0.0
 40
0.0
 40
1.0
 40
1.0
 40
1.0
 40
1.0
 10
237.698976645382
 20
391.4013446062235
 30
0.0
 10
241.1711552877548
 20
391.4013456582041
 30
0.0
 10
244.6433338804588
 20
391.401344515442
 30
0.0
 10
248.1155124990819
 20
391.4013445179836
 30
0.0
  0
SPLINE
  5
DF
330
1F
100
AcDbEntity
  8
0
  6
Continuous
 62
     8
370
    18
100
AcDbSpline
210
0.0
220
0.0
230
1.0
 70
     8
 71
     3
 72
     8
 73
     4
 74
     0
 42
0.000000001
 43
0.00000001
 40
0.0
 40
0.0
 40
0.0
 40
0.0
 40
1.0
 40
1.0
 40
1.0
 40
1.0
 10
235.3014122218397
 20
391.4013448473528
 30
0.0
 10
235.413164112935
 20
391.4013447447206
 30
0.0
 10
235.524916004458
 20
391.401344660988
 30
0.0
 10
235.6366678963562
 20
391.401344593831
 30
0.0
  0
SPLINE
  5
E0
330
1F
100
AcDbEntity
  8
0
  6
Continuous
 62
     8
370
    18
100
AcDbSpline
210
0.0
220
0.0
230
1.0
 70
     8
 71
     3
 72
    65
 73
    61
 74
     0
 42
0.000000001
 43
0.00000001
 40
0.0
 40
0.0
 40
0.0
 40
0.0
 40
0.0736009204000092
 40
0.109945565631164
 40
0.1212862601636843
 40
0.144729967496404
 40
0.177565220060077
 40
0.1887427819135232
 40
0.2113286776030285
 40
0.2453600270328467
 40
0.2578026169907324
 40
0.2781513817048292
 40
0.2982917367168759
 40
0.3047468691803636
 40
0.3176269731291493
 40
0.3308350752169645
 40
0.337475203233592
 40
0.3508335864992291
 40
0.3696657571255475
 40
0.375879549819978
 40
0.4144224611570724
 40
0.4336827034564359
 40
0.4400137019390569
 40
0.4542886908007221
 40
0.4680724228400474
 40
0.4716378705826636
 40
0.4787792274295042
 40
0.4891332323055267
 40
0.4962812527550092
 40
0.5010230063869364
 40
0.5055238467257059
 40
0.5103425544878815
 40
0.5242854779167162
 40
0.5312951544158138
 40
0.5336794594170418
 40
0.5427739500528267
 40
0.5524753314277085
 40
0.5571527220455365
 40
0.5660635876331795
 40
0.575835560680308
 40
0.5806196600018931
 40
0.594585827475784
 40
0.6042073906695432
 40
0.6091971594419745
 40
0.6315105644765033
 40
0.6508302706896819
 40
0.6618527436503612
 40
0.6832316438346234
 40
0.7022493963614818
 40
0.7128992916283152
 40
0.735565720266949
 40
0.7568029796461188
 40
0.7780000468964814
 40
0.8300077725270915
 40
0.8494456879107178
 40
0.8554657939435715
 40
0.8807402375200114
 40
0.932617526752878
 40
0.9588115898516343
 40
1.0
 40
1.0
 40
1.0
 40
1.0
 10
234.0514294201549
 20
392.6447999861286
 30
0.0
 10
234.0516806463932
 20
392.5905522063546
 30
0.0
 10
234.0520559298913
 20
392.5095164964874
 30
0.0
 10
234.05343627868
 20
392.4201307388975
 30
0.0
 10
234.0546514678272
 20
392.3677186780954
 30
0.0
 10
234.0561201360085
 20
392.3179003633248
 30
0.0
 10
234.0581885314139
 20
392.268221676526
 30
0.0
 10
234.0608185064906
 20
392.2192050247102
 30
0.0
 10
234.0639794675733
 20
392.1693352463183
 30
0.0
 10
234.068158160553
 20
392.1186001279182
 30
0.0
 10
234.0730638197064
 20
392.0695925080363
 30
0.0
 10
234.0774802607994
 20
392.0308274752535
 30
0.0
 10
234.0820613567353
 20
391.9965288089798
 30
0.0
 10
234.0863242933325
 20
391.9677469596483
 30
0.0
 10
234.090095139674
 20
391.9440580432519
 30
0.0
 10
234.0942577117371
 20
391.9202961557526
 30
0.0
 10
234.0987850442353
 20
391.8962432016856
 30
0.0
 10
234.1044443888768
 20
391.8681866951482
 30
0.0
 10
234.1106631559983
 20
391.8405675536231
 30
0.0
 10
234.121811382552
 20
391.7950455305462
 30
0.0
 10
234.1347089380332
 20
391.7496046743668
 30
0.0
 10
234.1504318137049
 20
391.7050080698743
 30
0.0
 10
234.161161581261
 20
391.6776526169782
 30
0.0
 10
234.1711836473877
 20
391.6543612976624
 30
0.0
 10
234.1813440190957
 20
391.6333747587942
 30
0.0
 10
234.1896667000535
 20
391.6173570544282
 30
0.0
 10
234.1971721195457
 20
391.6037655724266
 30
0.0
 10
234.2070658428347
 20
391.5884924976003
 30
0.0
 10
234.2173922606028
 20
391.5757191172434
 30
0.0
 10
234.2258581323758
 20
391.567086797737
 30
0.0
 10
234.2335469235722
 20
391.5601295955979
 30
0.0
 10
234.2469000892083
 20
391.5493623492856
 30
0.0
 10
234.262877276918
 20
391.5389667625761
 30
0.0
 10
234.2780149664116
 20
391.5307954258565
 30
0.0
 10
234.2901892639452
 20
391.5246722034065
 30
0.0
 10
234.3043690204341
 20
391.518129498839
 30
0.0
 10
234.320323056187
 20
391.5114320006589
 30
0.0
 10
234.3362603345245
 20
391.5050558671231
 30
0.0
 10
234.3522905555993
 20
391.4987702667102
 30
0.0
 10
234.3685544402094
 20
391.4928774319569
 30
0.0
 10
234.3884403468379
 20
391.4860590634155
 30
0.0
 10
234.4083687167181
 20
391.4797096478119
 30
0.0
 10
234.4285903453076
 20
391.4738120200527
 30
0.0
 10
234.4548186443312
 20
391.4665482282429
 30
0.0
 10
234.4881611241599
 20
391.4581948867115
 30
0.0
 10
234.5260957221069
 20
391.4499775276631
 30
0.0
 10
234.5635075804412
 20
391.4426524024095
 30
0.0
 10
234.6008525764666
 20
391.4361680634154
 30
0.0
 10
234.6380678376531
 20
391.4306170173562
 30
0.0
 10
234.6763064838384
 20
391.4255440069927
 30
0.0
 10
234.7162516632329
 20
391.4209153368226
 30
0.0
 10
234.7640158620065
 20
391.4163160109879
 30
0.0
 10
234.8334038876314
 20
391.4107442570588
 30
0.0
 10
234.9015990010185
 20
391.4070186756168
 30
0.0
 10
234.9586570569639
 20
391.4049242932392
 30
0.0
 10
234.9960319008669
 20
391.4037690356804
 30
0.0
 10
235.0573183157735
 20
391.4023250177548
 30
0.0
 10
235.1334888381664
 20
391.401554961468
 30
0.0
 10
235.221389401446
 20
391.4013093057916
 30
0.0
 10
235.2710540572764
 20
391.4013314032687
 30
0.0
 10
235.3014122218797
 20
391.401344910638
 30
0.0
  0
LINE
  5
E1
330
1F
100
AcDbEntity
  8
0
  6
Continuous
 62
     8
370
    18
100
AcDbLine
 10
234.0407195243
 20
394.6902072037
 30
0.0
 11
234.0514293511
 21
392.6447996514
 31
0.0
  0
LINE
  5
E2
330
1F
100
AcDbEntity
  8
0
  6
Continuous
 62
     8
370
    18
100
AcDbLine
 10
233.9987931157
 20
402.6974882346
 30
0.0
 11
234.0407195243
 21
394.6902072037
 31
0.0
  0
LINE
  5
E3
330
1F
100
AcDbEntity
  8
0
  6
Continuous
 62
     8
370
    18
100
AcDbLine
 10
233.9494428421
 20
412.1226100861
 30
0.0
 11
233.9987931157
 21
402.6974882346
 31
0.0
  0
LINE
  5
E4
330
1F
100
AcDbEntity
  8
0
  6
Continuous
 62
     8
370
    18
100
AcDbLine
 10
233.9030751767
 20
420.9781009404
 30
0.0
 11
233.9494428421
 21
412.1226100861
 31
0.0
  0
LINE
  5
E5
330
1F
100
AcDbEntity
  8
0
  6
Continuous
 62
     8
370
    18
100
AcDbLine
 10
233.8393466901
 20
433.1492340944
 30
0.0
 11
233.9030751767
 21
420.9781009404
 31
0.0
  0
SPLINE
  5
E6
330
1F
100
AcDbEntity
  8
0
  6
Continuous
 62
     8
370
    18
100
AcDbSpline
210
0.0
220
0.0
230
1.0
 70
     8
 71
     3
 72
    12
 73
     8
 74
     0
 42
0.000000001
 43
0.00000001
 40
0.0
 40
0.0
 40
0.0
 40
0.0
 40
0.1999975920943962
 40
0.3999984185385638
 40
0.6000006442684411
 40
0.8000011564343161
 40
1.0
 40
1.0
 40
1.0
 40
1.0
 10
233.7801226116518
 20
438.4679606907968
 30
0.0
 10
233.7875523142079
 20
438.1134331249954
 30
0.0
 10
233.8024118394727
 20
437.4043722599929
 30
0.0
 10
233.8165847646637
 20
436.3406317742626
 30
0.0
 10
233.8267611076955
 20
435.2768479357813
 30
0.0
 10
233.8337758858034
 20
434.2130415268682
 30
0.0
 10
233.8374897980483
 20
433.5038354318106
 30
0.0
 10
233.8393467464245
 20
433.149233863511
 30
0.0
  0
SPLINE
  5
E7
330
1F
100
AcDbEntity
  8
0
  6
Continuous
 62
     8
370
    18
100
AcDbSpline
210
0.0
220
0.0
230
1.0
 70
     8
 71
     3
 72
    51
 73
    47
 74
     0
 42
0.000000001
 43
0.00000001
 40
0.0
 40
0.0
 40
0.0
 40
0.0
 40
0.0111189929145188
 40
0.0222379110812344
 40
0.0333566993725728
 40
0.0444753232805977
 40
0.0555937678797674
 40
0.0667120362993462
 40
0.0778301477218843
 40
0.0889481349251572
 40
0.1000660413859342
 40
0.111183917965005
 40
0.1223018191940017
 40
0.133419799185693
 40
0.1445379071905726
 40
0.1556561828237136
 40
0.1667746509869882
 40
0.1778933165128417
 40
0.1890121585585014
 40
0.2001311247769052
 40
0.2112501393363745
 40
0.2223692414445271
 40
0.2334885229430041
 40
0.2446080332717422
 40
0.2557277842901109
 40
0.2668477568826937
 40
0.2779679076917931
 40
0.2890881759264603
 40
0.3002084901978879
 40
0.3113287753310945
 40
0.3224489591030684
 40
0.3335689788578169
 40
0.344688787959447
 40
0.3558083620344693
 40
0.3669277048418074
 40
0.3780468539124224
 40
0.3891658858621596
 40
0.481727857883761
 40
0.5742896889455461
 40
0.6668473400757634
 40
0.7594048639978321
 40
0.8519911994212405
 40
0.9445774152997182
 40
0.9630484488824157
 40
0.9815289726133803
 40
1.0
 40
1.0
 40
1.0
 40
1.0
 10
248.1155125014596
 20
497.5013443542572
 30
0.0
 10
247.9636184112717
 20
497.5004160662737
 30
0.0
 10
247.6598312520089
 20
497.4985594965469
 30
0.0
 10
247.204356865457
 20
497.4835509743423
 30
0.0
 10
246.7492951787576
 20
497.459607505625
 30
0.0
 10
246.2948508671568
 20
497.4258649615591
 30
0.0
 10
245.8412274488275
 20
497.382575812306
 30
0.0
 10
245.3886273445486
 20
497.3296974013331
 30
0.0
 10
244.9372519281347
 20
497.2672704061197
 30
0.0
 10
244.4873015792464
 20
497.1953176296349
 30
0.0
 10
244.038975735467
 20
497.1138713157856
 30
0.0
 10
243.5924729444853
 20
497.0229660276491
 30
0.0
 10
243.1479909161589
 20
496.9226407528564
 30
0.0
 10
242.7057265745545
 20
496.8129385364418
 30
0.0
 10
242.265876109834
 20
496.6939067762925
 30
0.0
 10
241.8286350304528
 20
496.5655973401626
 30
0.0
 10
241.3941982139789
 20
496.428066733263
 30
0.0
 10
240.9627599628583
 20
496.2813762413966
 30
0.0
 10
240.5345140414859
 20
496.1255921207074
 30
0.0
 10
240.1096536043684
 20
495.9607855544162
 30
0.0
 10
239.6883690451213
 20
495.7870324390954
 30
0.0
 10
239.2708479998555
 20
495.6044100655097
 30
0.0
 10
238.8572751753567
 20
495.4129983402527
 30
0.0
 10
238.4478337122289
 20
495.2128816300598
 30
0.0
 10
238.0427062940118
 20
495.0041488107771
 30
0.0
 10
237.6420748032986
 20
494.7868932034798
 30
0.0
 10
237.2461200042449
 20
494.5612123919184
 30
0.0
 10
236.8550212119418
 20
494.3272080688356
 30
0.0
 10
236.468955967442
 20
494.0849858778068
 30
0.0
 10
236.088099702873
 20
493.8346552452612
 30
0.0
 10
235.7126254400551
 20
493.5763292573724
 30
0.0
 10
235.3427033643394
 20
493.3101243682624
 30
0.0
 10
234.978500862776
 20
493.0361607384968
 30
0.0
 10
234.6201808309851
 20
492.7545602194513
 30
0.0
 10
234.2679064451689
 20
492.4654531257452
 30
0.0
 10
233.9218217863821
 20
492.1689522337806
 30
0.0
 10
232.752733880882
 20
491.1237459996951
 30
0.0
 10
230.9289218027072
 20
489.1370409532941
 30
0.0
 10
228.8837449546714
 20
485.9199137059558
 30
0.0
 10
227.4337083788071
 20
482.3933407436174
 30
0.0
 10
226.6245072049433
 20
478.6667780874388
 30
0.0
 10
226.4813602268085
 20
474.8566370608697
 30
0.0
 10
226.8679323832878
 20
472.0849222957333
 30
0.0
 10
227.2970722213874
 20
470.368161235404
 30
0.0
 10
227.504633644517
 20
469.6397916416737
 30
0.0
 10
227.6644516991773
 20
469.160931528241
 30
0.0
 10
227.7443401903292
 20
468.9215630037256
 30
0.0
  0
LINE
  5
E8
330
1F
100
AcDbEntity
  8
0
  6
Continuous
 62
     8
370
    18
100
AcDbLine
 10
260.9296127858
 20
389.9513446062
 30
0.0
 11
260.9296127858
 21
391.4013446062
 31
0.0
  0
LINE
  5
E9
330
1F
100
AcDbEntity
  8
0
  6
Continuous
 62
     8
370
    18
100
AcDbLine
 10
235.3014122164
 20
389.9513446062
 30
0.0
 11
235.3014122164
 21
391.4013446062
 31
0.0
  0
LINE
  5
EA
330
1F
100
AcDbEntity
  8
0
  6
Continuous
 62
     8
370
    18
100
AcDbLine
 10
232.6014492273
 20
392.6372075039
 30
0.0
 11
234.0514293511
 21
392.6447996514
 31
0.0
  0
LINE
  5
EB
330
1F
100
AcDbEntity
  8
0
  6
Continuous
 62
     8
370
    18
100
AcDbLine
 10
233.8393466904
 20
433.1492340944
 30
0.0
 11
232.3893665664
 21
433.1416419468
 31
0.0
  0
LINE
  5
EC
330
1F
100
AcDbEntity
  8
0
  6
Continuous
 62
     8
370
    18
100
AcDbLine
 10
260.3121352807
 20
391.4013446062
 30
0.0
 11
258.5320594294
 21
391.4013446062
 31
0.0
  0
LINE
  5
ED
330
1F
100
AcDbEntity
  8
0
  6
Continuous
 62
     8
370
    18
100
AcDbLine
 10
260.5936291503
 20
391.4013446062
 30
0.0
 11
260.3121352807
 21
391.4013446062
 31
0.0
  0
LINE
  5
EE
330
1F
100
AcDbEntity
  8
0
  6
Continuous
 62
     8
370
    18
100
AcDbLine
 10
283.122283707
 20
508.1581541938
 30
0.0
 11
283.122283707
 21
443.7445350186
 31
0.0
  0
LINE
  5
EF
330
1F
100
AcDbEntity
  8
0
  6
Continuous
 62
     8
370
    18
100
AcDbLine
 10
281.822301527
 20
443.7445350186
 30
0.0
 11
283.122283707
 21
443.7445350186
 31
0.0
  0
LINE
  5
F0
330
1F
100
AcDbEntity
  8
0
  6
Continuous
 62
     8
370
    18
100
AcDbLine
 10
281.822301527
 20
443.7445350186
 30
0.0
 11
281.822301527
 21
508.1581541938
 31
0.0
  0
LINE
  5
F1
330
1F
100
AcDbEntity
  8
0
  6
Continuous
 62
     8
370
    18
100
AcDbLine
 10
281.822301527
 20
508.1581541938
 30
0.0
 11
283.122283707
 21
508.1581541938
 31
0.0
  0
ELLIPSE
  5
F2
330
1F
100
AcDbEntity
  8
0
  6
Continuous
 62
     8
370
    18
100
AcDbEllipse
 10
280.3222809651
 20
508.1581130703
 30
0.0
 11
-1.060689250513519
 21
-1.060689250513519
 31
0.0
210
0.0
220
0.0
230
1.0
 40
0.9999725851
 41
2.356208197850987
 42
3.926977109328613
  0
ELLIPSE
  5
F3
330
1F
100
AcDbEntity
  8
0
  6
Continuous
 62
     8
370
    18
100
AcDbEllipse
 10
280.3222809651
 20
443.7445761422
 30
0.0
 11
-1.060689250513519
 21
1.060689250513519
 31
0.0
210
0.0
220
0.0
230
1.0
 40
0.9999725851
 41
2.356208197850987
 42
3.926977109328575
  0
LINE
  5
F4
330
1F
100
AcDbEntity
  8
0
  6
Continuous
 62
     8
370
    18
100
AcDbLine
 10
215.9087029135
 20
442.2445555803
 30
0.0
 11
232.1590149354
 21
442.2445555803
 31
0.0
  0
LINE
  5
F5
330
1F
100
AcDbEntity
  8
0
  6
Continuous
 62
     8
370
    18
100
AcDbLine
 10
264.0720100668
 20
442.2445555803
 30
0.0
 11
280.3223220887
 21
442.2445555803
 31
0.0
  0
ELLIPSE
  5
F6
330
1F
100
AcDbEntity
  8
0
  6
Continuous
 62
     8
370
    18
100
AcDbEllipse
 10
215.908744037
 20
443.7445761422
 30
0.0
 11
1.060689250513519
 21
1.060689250513576
 31
0.0
210
0.0
220
0.0
230
1.0
 40
0.9999725851
 41
2.356208197850934
 42
3.926977109328613
  0
LINE
  5
F7
330
1F
100
AcDbEntity
  8
0
  6
Continuous
 62
     8
370
    18
100
AcDbLine
 10
214.4087234751
 20
508.1581541938
 30
0.0
 11
214.4087234751
 21
443.7445350186
 31
0.0
  0
ELLIPSE
  5
F8
330
1F
100
AcDbEntity
  8
0
  6
Continuous
 62
     8
370
    18
100
AcDbEllipse
 10
215.908744037
 20
508.1581130703
 30
0.0
 11
1.060689250513519
 21
-1.060689250513519
 31
0.0
210
0.0
220
0.0
230
1.0
 40
0.9999725851
 41
2.356208197850947
 42
3.926977109328653
  0
LINE
  5
F9
330
1F
100
AcDbEntity
  8
0
  6
Continuous
 62
     8
370
    18
100
AcDbLine
 10
280.3223220887
 20
509.6581336322
 30
0.0
 11
215.9087029135
 21
509.6581336322
 31
0.0
  0
LINE
  5
FA
330
1F
100
AcDbEntity
  8
0
  6
Continuous
 62
     8
370
    18
100
AcDbLine
 10
213.1087412952
 20
443.7445350186
 30
0.0
 11
213.1087412952
 21
508.1581541938
 31
0.0
  0
LINE
  5
FB
330
1F
100
AcDbEntity
  8
0
  6
Continuous
 62
     8
370
    18
100
AcDbLine
 10
214.4087234751
 20
508.1581541938
 30
0.0
 11
213.1087412952
 21
508.1581541938
 31
0.0
  0
LINE
  5
FC
330
1F
100
AcDbEntity
  8
0
  6
Continuous
 62
     8
370
    18
100
AcDbLine
 10
214.4087234751
 20
443.7445350186
 30
0.0
 11
213.1087412952
 21
443.7445350186
 31
0.0
  0
ARC
  5
FD
330
1F
100
AcDbEntity
  8
0
  6
Continuous
 62
     8
370
    18
100
AcDbCircle
 10
215.908744037
 20
443.7445761422
 30
0.0
 40
2.800002742134363
100
AcDbArc
 50
180.0008415011
 51
269.9991584989
  0
LINE
  5
FE
330
1F
100
AcDbEntity
  8
0
  6
Continuous
 62
     8
370
    18
100
AcDbLine
 10
215.9087029135
 20
442.2445555803
 30
0.0
 11
215.9087029135
 21
440.9445734003
 31
0.0
  0
LINE
  5
FF
330
1F
100
AcDbEntity
  8
0
  6
Continuous
 62
     8
370
    18
100
AcDbLine
 10
215.9087029135
 20
510.9581158121
 30
0.0
 11
280.3223220887
 21
510.9581158121
 31
0.0
  0
LINE
  5
100
330
1F
100
AcDbEntity
  8
0
  6
Continuous
 62
     8
370
    18
100
AcDbLine
 10
280.3223220887
 20
509.6581336322
 30
0.0
 11
280.3223220887
 21
510.9581158121
 31
0.0
  0
LINE
  5
101
330
1F
100
AcDbEntity
  8
0
  6
Continuous
 62
     8
370
    18
100
AcDbLine
 10
215.9087029135
 20
509.6581336322
 30
0.0
 11
215.9087029135
 21
510.9581158121
 31
0.0
  0
ARC
  5
102
330
1F
100
AcDbEntity
  8
0
  6
Continuous
 62
     8
370
    18
100
AcDbCircle
 10
280.3222809651
 20
508.1581130703
 30
0.0
 40
2.800002742134363
100
AcDbArc
 50
0.0008415011
 51
89.9991584989
  0
ARC
  5
103
330
1F
100
AcDbEntity
  8
0
  6
Continuous
 62
     8
370
    18
100
AcDbCircle
 10
280.3222809651
 20
443.7445761422
 30
0.0
 40
2.800002742134419
100
AcDbArc
 50
270.0008415011
 51
359.9991584989
  0
LINE
  5
104
330
1F
100
AcDbEntity
  8
0
  6
Continuous
 62
     8
370
    18
100
AcDbLine
 10
280.3223220887
 20
442.2445555803
 30
0.0
 11
280.3223220887
 21
440.9445734003
 31
0.0
  0
LINE
  5
105
330
1F
100
AcDbEntity
  8
0
  6
Continuous
 62
     8
370
    18
100
AcDbLine
 10
280.3223220887
 20
440.9445734003
 30
0.0
 11
264.0134961211
 21
440.9445734003
 31
0.0
  0
LINE
  5
106
330
1F
100
AcDbEntity
  8
0
  6
Continuous
 62
     8
370
    18
100
AcDbLine
 10
232.217528881
 20
440.9445734003
 30
0.0
 11
215.9087029135
 21
440.9445734003
 31
0.0
  0
ARC
  5
107
330
1F
100
AcDbEntity
  8
0
  6
Continuous
 62
     8
370
    18
100
AcDbCircle
 10
215.908744037
 20
508.1581130703
 30
0.0
 40
2.800002742134363
100
AcDbArc
 50
90.0008415011
 51
179.9991584989
  0
LINE
  5
108
330
1F
100
AcDbEntity
  8
0
  6
Continuous
 62
     8
370
    18
100
AcDbLine
 10
215.8683497989
 20
510.9984689267
 30
0.0
 11
215.9087029135
 21
510.9581158121
 31
0.0
  0
LINE
  5
109
330
1F
100
AcDbEntity
  8
0
  6
Continuous
 62
     8
370
    18
100
AcDbLine
 10
213.1087412952
 20
508.1581541938
 30
0.0
 11
213.0683881806
 21
508.1985073084
 31
0.0
  0
LINE
  5
10A
330
1F
100
AcDbEntity
  8
0
  6
Continuous
 62
     8
370
    18
100
AcDbLine
 10
283.1626368215
 20
508.1985073084
 30
0.0
 11
283.122283707
 21
508.1581541938
 31
0.0
  0
LINE
  5
10B
330
1F
100
AcDbEntity
  8
0
  6
Continuous
 62
     8
370
    18
100
AcDbLine
 10
280.3223220887
 20
510.9581158121
 30
0.0
 11
280.3626752032
 21
510.9984689267
 31
0.0
  0
LINE
  5
10C
330
1F
100
AcDbEntity
  8
0
  6
Continuous
 62
     8
370
    18
100
AcDbLine
 10
280.3626752032
 20
440.9042202858
 30
0.0
 11
280.3223220887
 21
440.9445734003
 31
0.0
  0
LINE
  5
10D
330
1F
100
AcDbEntity
  8
0
  6
Continuous
 62
     8
370
    18
100
AcDbLine
 10
283.122283707
 20
443.7445350186
 30
0.0
 11
283.1626368215
 21
443.7041819041
 31
0.0
  0
LINE
  5
10E
330
1F
100
AcDbEntity
  8
0
  6
Continuous
 62
     8
370
    18
100
AcDbLine
 10
213.0683881806
 20
443.7041819041
 30
0.0
 11
213.1087412952
 21
443.7445350186
 31
0.0
  0
LINE
  5
10F
330
1F
100
AcDbEntity
  8
0
  6
Continuous
 62
     8
370
    18
100
AcDbLine
 10
215.9087029135
 20
440.9445734003
 30
0.0
 11
215.8683497989
 21
440.9042202858
 31
0.0
  0
LINE
  5
110
330
1F
100
AcDbEntity
  8
0
  6
Continuous
 62
     8
370
    18
100
AcDbLine
 10
116.46774172
 20
476.9187317534
 30
0.0
 11
116.46774172
 21
487.435682639
 31
0.0
  0
LINE
  5
111
330
1F
100
AcDbEntity
  8
0
  6
Continuous
 62
     8
370
    18
100
AcDbLine
 10
159.7632832821
 20
476.9187317534
 30
0.0
 11
159.7632832821
 21
487.4431697555
 31
0.0
  0
ARC
  5
112
330
1F
100
AcDbEntity
  8
0
  6
Continuous
 62
     8
370
    18
100
AcDbCircle
 10
117.530102408
 20
487.4431221693
 30
0.0
 40
1.062360687932079
100
AcDbArc
 50
90.1832736746
 51
179.9999132138
  0
SPLINE
  5
113
330
1F
100
AcDbEntity
  8
0
  6
Continuous
 62
     8
370
    18
100
AcDbSpline
210
0.0
220
0.0
230
1.0
 70
     8
 71
     3
 72
    17
 73
    13
 74
     0
 42
0.000000001
 43
0.00000001
 40
0.0
 40
0.0
 40
0.0
 40
0.0
 40
0.1013633771746835
 40
0.1844909747203543
 40
0.2495775742541656
 40
0.3463583534454858
 40
0.428817821113922
 40
0.500488805030313
 40
0.6111399394795666
 40
0.7503099099639923
 40
0.8546743891839632
 40
1.0
 40
1.0
 40
1.0
 40
1.0
 10
117.5267042097509
 20
488.5054774222979
 30
0.0
 10
117.5277654551066
 20
488.5052123843078
 30
0.0
 10
117.5296970224591
 20
488.5047299899905
 30
0.0
 10
117.5467471728578
 20
488.5041568732321
 30
0.0
 10
117.583283351233
 20
488.5036605813239
 30
0.0
 10
117.6576358676824
 20
488.5032696734185
 30
0.0
 10
117.7894204781921
 20
488.5029858444861
 30
0.0
 10
118.0078555384874
 20
488.502845283447
 30
0.0
 10
118.4012868375938
 20
488.5029945866096
 30
0.0
 10
118.881701747698
 20
488.5033435018722
 30
0.0
 10
119.4192337340821
 20
488.5038535044065
 30
0.0
 10
119.7652495643761
 20
488.5042106775505
 30
0.0
 10
119.9666390623824
 20
488.5044185608722
 30
0.0
  0
SPLINE
  5
114
330
1F
100
AcDbEntity
  8
0
  6
Continuous
 62
     8
370
    25
100
AcDbSpline
210
0.0
220
0.0
230
1.0
 70
     8
 71
     3
 72
    15
 73
    11
 74
     0
 42
0.000000001
 43
0.00000001
 40
0.0
 40
0.0
 40
0.0
 40
0.0
 40
0.10248248676296
 40
0.2388236764944113
 40
0.3951006587700924
 40
0.4976047488058976
 40
0.6038706316132232
 40
0.7581901384682623
 40
0.9007298936205071
 40
1.0
 40
1.0
 40
1.0
 40
1.0
 10
119.9525646094446
 20
475.9778113274673
 30
0.0
 10
119.7949112089622
 20
475.980266057946
 30
0.0
 10
119.4275180483911
 20
475.9859865256691
 30
0.0
 10
118.8211103043571
 20
476.0022267671329
 30
0.0
 10
118.2318634136549
 20
476.0171511624696
 30
0.0
 10
117.7486485094713
 20
476.0243097633391
 30
0.0
 10
117.4315044976268
 20
476.0101515926341
 30
0.0
 10
117.2520011799088
 20
475.9866813812396
 30
0.0
 10
117.1874990717288
 20
475.9618190031323
 30
0.0
 10
117.1799522922852
 20
475.9508928796457
 30
0.0
 10
117.1768541159186
 20
475.9464073825118
 30
0.0
  0
ARC
  5
115
330
1F
100
AcDbEntity
  8
0
  6
Continuous
 62
     8
370
    25
100
AcDbCircle
 10
117.4826942619
 20
476.9141834369
 30
0.0
 40
1.014952553699076
100
AcDbArc
 50
180.0087420688
 51
252.4622304746
  0
ARC
  5
116
330
1F
100
AcDbEntity
  8
0
  6
Continuous
 62
     8
370
    25
100
AcDbCircle
 10
158.7483307402
 20
476.9141834369
 30
0.0
 40
1.014952553698977
100
AcDbArc
 50
287.5377695254
 51
359.9912579312
  0
SPLINE
  5
117
330
1F
100
AcDbEntity
  8
0
  6
Continuous
 62
     8
370
    25
100
AcDbSpline
210
0.0
220
0.0
230
1.0
 70
     8
 71
     3
 72
    18
 73
    14
 74
     0
 42
0.000000001
 43
0.00000001
 40
0.0
 40
0.0
 40
0.0
 40
0.0
 40
0.2499999999999981
 40
0.2499999999999981
 40
0.3749999999999971
 40
0.3749999999999971
 40
0.4999999999999961
 40
0.4999999999999961
 40
0.6249999999999951
 40
0.6249999999999951
 40
0.7499999999999942
 40
0.7499999999999942
 40
1.0
 40
1.0
 40
1.0
 40
1.0
 10
159.0541708862389
 20
475.9464073825119
 30
0.0
 10
159.0466307897615
 20
475.9551144444303
 30
0.0
 10
159.0343725170147
 20
475.9702842025852
 30
0.0
 10
158.9252297144824
 20
475.9933046091168
 30
0.0
 10
158.8748464268828
 20
476.0009249961377
 30
0.0
 10
158.717862606624
 20
476.0142702817612
 30
0.0
 10
158.6083298551617
 20
476.0198913358782
 30
0.0
 10
158.3011436126083
 20
476.0226817754918
 30
0.0
 10
158.1177328401445
 20
476.0197323125527
 30
0.0
 10
157.7519911867091
 20
476.0115491543731
 30
0.0
 10
157.5636418308345
 20
476.0062374552999
 30
0.0
 10
157.0023738151718
 20
475.9911119667754
 30
0.0
 10
156.6341302576982
 20
475.9818941144675
 30
0.0
 10
156.2784603927128
 20
475.9778113274674
 30
0.0
  0
SPLINE
  5
118
330
1F
100
AcDbEntity
  8
0
  6
Continuous
 62
     8
370
    18
100
AcDbSpline
210
0.0
220
0.0
230
1.0
 70
     8
 71
     3
 72
     8
 73
     4
 74
     0
 42
0.000000001
 43
0.00000001
 40
0.0
 40
0.0
 40
0.0
 40
0.0
 40
1.0
 40
1.0
 40
1.0
 40
1.0
 10
119.9666390623824
 20
488.5044185608722
 30
0.0
 10
126.0162635694133
 20
488.510693865439
 30
0.0
 10
132.0658880764329
 20
488.5106215839544
 30
0.0
 10
138.1155125834528
 20
488.5106118852071
 30
0.0
  0
SPLINE
  5
119
330
1F
100
AcDbEntity
  8
0
  6
Continuous
 62
     8
370
    18
100
AcDbSpline
210
0.0
220
0.0
230
1.0
 70
     8
 71
     3
 72
    17
 73
    13
 74
     0
 42
0.000000001
 43
0.00000001
 40
0.0
 40
0.0
 40
0.0
 40
0.0
 40
0.1014221813722769
 40
0.1845838270053718
 40
0.2496794023070991
 40
0.346493716766813
 40
0.4289771292931668
 40
0.5006612644417938
 40
0.6112884877235074
 40
0.7504117062930595
 40
0.8547533127487842
 40
1.0
 40
1.0
 40
1.0
 40
1.0
 10
156.2643858707354
 20
488.5044181264776
 30
0.0
 10
156.4049085916927
 20
488.5042732579723
 30
0.0
 10
156.6606536492781
 20
488.5040096037821
 30
0.0
 10
157.0063281159383
 20
488.5036661014652
 30
0.0
 10
157.3441315922448
 20
488.5033573584594
 30
0.0
 10
157.6759288817653
 20
488.5031071949523
 30
0.0
 10
157.9999367149765
 20
488.502921927483
 30
0.0
 10
158.3016455622508
 20
488.5028557149005
 30
0.0
 10
158.536351132224
 20
488.5030979793319
 30
0.0
 10
158.6538933073497
 20
488.5036354287427
 30
0.0
 10
158.699504363992
 20
488.5044539870694
 30
0.0
 10
158.7025489863848
 20
488.505100411115
 30
0.0
 10
158.7043207895006
 20
488.5054765944279
 30
0.0
  0
ARC
  5
11A
330
1F
100
AcDbEntity
  8
0
  6
Continuous
 62
     8
370
    18
100
AcDbCircle
 10
158.7009225971
 20
487.4431213443
 30
0.0
 40
1.062360685034744
100
AcDbArc
 50
0.0000867825
 51
89.8167266378
  0
SPLINE
  5
11B
330
1F
100
AcDbEntity
  8
0
  6
Continuous
 62
     8
370
    18
100
AcDbSpline
210
0.0
220
0.0
230
1.0
 70
     8
 71
     3
 72
     8
 73
     4
 74
     0
 42
0.000000001
 43
0.00000001
 40
0.0
 40
0.0
 40
0.0
 40
0.0
 40
1.0
 40
1.0
 40
1.0
 40
1.0
 10
138.1155125834528
 20
488.5106118852071
 30
0.0
 10
144.1651370125507
 20
488.5106206491947
 30
0.0
 10
150.2147614416486
 20
488.5106930393181
 30
0.0
 10
156.2643858707354
 20
488.5044181264776
 30
0.0
  0
SPLINE
  5
11C
330
1F
100
AcDbEntity
  8
0
  6
Continuous
 62
     8
370
    25
100
AcDbSpline
210
0.0
220
0.0
230
1.0
 70
     8
 71
     3
 72
    12
 73
     8
 74
     0
 42
0.000000001
 43
0.00000001
 40
0.0
 40
0.0
 40
0.0
 40
0.0
 40
0.2499999999999997
 40
0.2499999999999997
 40
0.4999999999999994
 40
0.4999999999999994
 40
1.0
 40
1.0
 40
1.0
 40
1.0
 10
156.2784603927119
 20
475.9778113274674
 30
0.0
 10
154.7444475292121
 20
475.9602022143989
 30
0.0
 10
153.2411519440726
 20
475.9694964481282
 30
0.0
 10
150.2163293079106
 20
475.9638008881533
 30
0.0
 10
148.7038666032408
 20
475.9611306342618
 30
0.0
 10
144.1662875508347
 20
475.9542642245775
 30
0.0
 10
141.1405630427452
 20
475.9513104737263
 30
0.0
 10
138.1155125010787
 20
475.9513104983942
 30
0.0
  0
SPLINE
  5
11D
330
1F
100
AcDbEntity
  8
0
  6
Continuous
 62
     8
370
    25
100
AcDbSpline
210
0.0
220
0.0
230
1.0
 70
     8
 71
     3
 72
    16
 73
    12
 74
     0
 42
0.000000001
 43
0.00000001
 40
0.0
 40
0.0
 40
0.0
 40
0.0
 40
0.237077181085075
 40
0.4996869929446803
 40
0.5946279517368557
 40
0.699540982840362
 40
0.8009646074506522
 40
0.8817948095758572
 40
0.9419599926250767
 40
0.9813843223822942
 40
1.0
 40
1.0
 40
1.0
 40
1.0
 10
138.1155125010788
 20
475.9513104983942
 30
0.0
 10
136.6801650731342
 20
475.9517346150821
 30
0.0
 10
133.6548868206349
 20
475.9526285247847
 30
0.0
 10
130.0548075840205
 20
475.9571537481802
 30
0.0
 10
127.2548979268283
 20
475.9616612524806
 30
0.0
 10
125.4308624141303
 20
475.9649004201588
 30
0.0
 10
123.692263812961
 20
475.9681241733428
 30
0.0
 10
122.2245693604716
 20
475.9708614390043
 30
0.0
 10
121.132273532016
 20
475.9735294285896
 30
0.0
 10
120.4165713511215
 20
475.9751058227189
 30
0.0
 10
120.0652477055044
 20
475.9771543011269
 30
0.0
 10
119.9525646094456
 20
475.9778113274674
 30
0.0
  0
SPLINE
  5
11E
330
1F
100
AcDbEntity
  8
0
  6
Continuous
 62
     8
370
    18
100
AcDbSpline
210
0.0
220
0.0
230
1.0
 70
     8
 71
     3
 72
    12
 73
     8
 74
     0
 42
0.000000001
 43
0.00000001
 40
0.0
 40
0.0
 40
0.0
 40
0.0
 40
0.5000000000000022
 40
0.5000000000000022
 40
0.7500000000000011
 40
0.7500000000000011
 40
1.0
 40
1.0
 40
1.0
 40
1.0
 10
159.1805404286673
 20
475.7261569832663
 30
0.0
 10
159.1675782065031
 20
475.7529167059024
 30
0.0
 10
159.1465659944019
 20
475.7870538822531
 30
0.0
 10
159.1133093326343
 20
475.8439380530338
 30
0.0
 10
159.1019921698509
 20
475.8637561830761
 30
0.0
 10
159.0803152023354
 20
475.9036906135574
 30
0.0
 10
159.0867885835839
 20
475.9087417486135
 30
0.0
 10
159.0541708862388
 20
475.9464073825121
 30
0.0
  0
SPLINE
  5
11F
330
1F
100
AcDbEntity
  8
0
  6
Continuous
 62
     8
370
    18
100
AcDbSpline
210
0.0
220
0.0
230
1.0
 70
     8
 71
     3
 72
    16
 73
    12
 74
     0
 42
0.000000001
 43
0.00000001
 40
0.0
 40
0.0
 40
0.0
 40
0.0
 40
0.1116636678600935
 40
0.2231664293871218
 40
0.3345174844646761
 40
0.4457264132192126
 40
0.5568034000425819
 40
0.6677590547864268
 40
0.7786039559590059
 40
0.8893480445928373
 40
1.0
 40
1.0
 40
1.0
 40
1.0
 10
159.1770660763306
 20
475.7237555812009
 30
0.0
 10
158.8653000199501
 20
475.5347801633067
 30
0.0
 10
158.2422171592498
 20
475.1571016393819
 30
0.0
 10
157.3017624277004
 20
474.6017752848769
 30
0.0
 10
156.3579192102603
 20
474.0552066102584
 30
0.0
 10
155.4102219347096
 20
473.5181522396231
 30
0.0
 10
154.4588098687862
 20
472.9903677798652
 30
0.0
 10
153.5037204994282
 20
472.471749326448
 30
0.0
 10
152.5449063834293
 20
471.9623732771643
 30
0.0
 10
151.5828113729515
 20
471.4613413601408
 30
0.0
 10
150.9379701006585
 20
471.1347477833842
 30
0.0
 10
150.6156836387864
 20
470.9715189504208
 30
0.0
  0
SPLINE
  5
120
330
1F
100
AcDbEntity
  8
0
  6
Continuous
 62
     8
370
    18
100
AcDbSpline
210
0.0
220
0.0
230
1.0
 70
     8
 71
     3
 72
     8
 73
     4
 74
     0
 42
0.000000001
 43
0.00000001
 40
0.066051788496381
 40
0.066051788496381
 40
0.066051788496381
 40
0.066051788496381
 40
1.0
 40
1.0
 40
1.0
 40
1.0
 10
117.0540270763055
 20
475.7238673526699
 30
0.0
 10
119.8442494200333
 20
474.0226173982055
 30
0.0
 10
122.694343329958
 20
472.4407308459064
 30
0.0
 10
125.6155125010788
 20
470.9719468270566
 30
0.0
  0
SPLINE
  5
121
330
1F
100
AcDbEntity
  8
0
  6
Continuous
 62
     8
370
    18
100
AcDbSpline
210
0.0
220
0.0
230
1.0
 70
     8
 71
     3
 72
    17
 73
    13
 74
     0
 42
0.000000001
 43
0.00000001
 40
0.0
 40
0.0
 40
0.0
 40
0.0
 40
0.0117953204103733
 40
0.0430807758439715
 40
0.093855055084766
 40
0.1640517278709969
 40
0.226673090047167
 40
0.2862408455259102
 40
0.3959126070769364
 40
0.5003028279328415
 40
0.7502095136946998
 40
1.0
 40
1.0
 40
1.0
 40
1.0
 10
117.1768541159188
 20
475.9464073825121
 30
0.0
 10
117.1738544994098
 20
475.945334710367
 30
0.0
 10
117.1628988151263
 20
475.9414169237681
 30
0.0
 10
117.1589535850922
 20
475.9339129459914
 30
0.0
 10
117.1549427959452
 20
475.9212555900403
 30
0.0
 10
117.1490899707081
 20
475.9059528169756
 30
0.0
 10
117.1428424405899
 20
475.8898201178981
 30
0.0
 10
117.1331924616698
 20
475.871093848352
 30
0.0
 10
117.1207793347018
 20
475.8494808677068
 30
0.0
 10
117.1001888852793
 20
475.8135844889833
 30
0.0
 10
117.0730533011534
 20
475.7694760434238
 30
0.0
 10
117.0580063163705
 20
475.7405944312778
 30
0.0
 10
117.0504845734902
 20
475.7261569832663
 30
0.0
  0
SPLINE
  5
122
330
1F
100
AcDbEntity
  8
0
  6
Continuous
 62
     8
370
    18
100
AcDbSpline
210
0.0
220
0.0
230
1.0
 70
     8
 71
     3
 72
    27
 73
    23
 74
     0
 42
0.000000001
 43
0.00000001
 40
0.0
 40
0.0
 40
0.0
 40
0.0
 40
0.0117653501344899
 40
0.0448758823004691
 40
0.0713443537434275
 40
0.150741957081668
 40
0.2561962770531896
 40
0.3628621851138955
 40
0.4429086499397538
 40
0.5229543729529432
 40
0.5763216849268457
 40
0.6031532128095802
 40
0.6299836863968051
 40
0.6836430986591272
 40
0.723550065790669
 40
0.7501548028434415
 40
0.763457131821508
 40
0.8429063662426732
 40
0.8693329470471917
 40
0.8957591861467001
 40
0.9478793308939382
 40
1.0
 40
1.0
 40
1.0
 40
1.0
 10
158.7052045559313
 20
488.5071936401632
 30
0.0
 10
158.63609603587
 20
488.5075697357963
 30
0.0
 10
158.3724994767553
 20
488.5090042552265
 30
0.0
 10
157.9481368452236
 20
488.5114377458741
 30
0.0
 10
157.1104027875571
 20
488.5164475354941
 30
0.0
 10
155.8058184520416
 20
488.5247211112121
 30
0.0
 10
153.9377593067331
 20
488.536907690724
 30
0.0
 10
151.996288672165
 20
488.5490380181191
 30
0.0
 10
150.1755824914245
 20
488.559433086177
 30
0.0
 10
148.689457610907
 20
488.567041902552
 30
0.0
 10
147.5582030872474
 20
488.5721856040798
 30
0.0
 10
146.7970290493797
 20
488.5753671673597
 30
0.0
 10
146.0302627372499
 20
488.5783798489127
 30
0.0
 10
145.1644504615949
 20
488.5814483176946
 30
0.0
 10
144.2947691136313
 20
488.5841257596722
 30
0.0
 10
143.7148765072285
 20
488.5857162760689
 30
0.0
 10
142.8458697040997
 20
488.587923178777
 30
0.0
 10
141.9738372240155
 20
488.5897230855942
 30
0.0
 10
141.0026011340746
 20
488.5911919920438
 30
0.0
 10
140.2308419616134
 20
488.5921410436438
 30
0.0
 10
139.2684545313454
 20
488.5929658764269
 30
0.0
 10
138.4998278009503
 20
488.5930871086417
 30
0.0
 10
138.115512502555
 20
488.5931477250541
 30
0.0
  0
LINE
  5
123
330
1F
100
AcDbEntity
  8
0
  6
Continuous
 62
     8
370
    18
100
AcDbLine
 10
158.7043207895
 20
488.5054765944
 30
0.0
 11
158.7048416155
 21
488.5071955987
 31
0.0
  0
LINE
  5
124
330
1F
100
AcDbEntity
  8
0
  6
Continuous
 62
     8
370
    18
100
AcDbLine
 10
117.5261833743
 20
488.5071964308
 30
0.0
 11
117.5267042098
 21
488.5054774223
 31
0.0
  0
SPLINE
  5
125
330
1F
100
AcDbEntity
  8
0
  6
Continuous
 62
     8
370
    18
100
AcDbSpline
210
0.0
220
0.0
230
1.0
 70
     8
 71
     3
 72
    29
 73
    25
 74
     0
 42
0.000000001
 43
0.00000001
 40
0.0
 40
0.0
 40
0.0
 40
0.0
 40
0.0123228845376739
 40
0.0457284022488474
 40
0.0723317643278598
 40
0.1521336915921105
 40
0.2306340341431044
 40
0.2568028195188884
 40
0.4156599515746463
 40
0.4687484369876266
 40
0.5218356448551652
 40
0.5882987451593781
 40
0.6150534766404503
 40
0.6284308080533738
 40
0.7086404725164195
 40
0.735349254863144
 40
0.7487032994096527
 40
0.7887646392601708
 40
0.8550324919641641
 40
0.868287167615418
 40
0.9073522403979618
 40
0.9473970600018813
 40
0.973698449124413
 40
1.0
 40
1.0
 40
1.0
 40
1.0
 10
117.5273015480174
 20
488.5072024652493
 30
0.0
 10
117.5996859516754
 20
488.5075966046858
 30
0.0
 10
117.8682937696664
 20
488.5090591978508
 30
0.0
 10
118.2986545626073
 20
488.5115306921964
 30
0.0
 10
119.1417002315351
 20
488.5165788118309
 30
0.0
 10
120.2837174766172
 20
488.5238277568594
 30
0.0
 10
121.4600167194945
 20
488.5314720275984
 30
0.0
 10
123.1717420061802
 20
488.5424556047467
 30
0.0
 10
124.7693886843805
 20
488.5523159941011
 30
0.0
 10
126.5959393272681
 20
488.5622199055046
 30
0.0
 10
127.8007655376404
 20
488.5682578532027
 30
0.0
 10
128.834768705002
 20
488.5729116006585
 30
0.0
 10
129.5943591267579
 20
488.5760018554026
 30
0.0
 10
130.4547559932513
 20
488.5793391477732
 30
0.0
 10
131.3215556496042
 20
488.5823140859649
 30
0.0
 10
132.1937797450978
 20
488.5848369635293
 30
0.0
 10
132.7761728746688
 20
488.5864033538473
 30
0.0
 10
133.6486100187059
 20
488.5885128915808
 30
0.0
 10
134.5246480202146
 20
488.5901502346823
 30
0.0
 10
135.3953766216997
 20
488.5914153743655
 30
0.0
 10
136.0745895735013
 20
488.5922179519308
 30
0.0
 10
136.8509453671867
 20
488.5928075622846
 30
0.0
 10
137.5337886865382
 20
488.5931011737855
 30
0.0
 10
137.9216041653904
 20
488.5931322079327
 30
0.0
 10
138.1155125010792
 20
488.5931477250541
 30
0.0
  0
SPLINE
  5
126
330
1F
100
AcDbEntity
  8
0
  6
Continuous
 62
     8
370
    18
100
AcDbSpline
210
0.0
220
0.0
230
1.0
 70
     8
 71
     3
 72
    11
 73
     7
 74
     0
 42
0.000000001
 43
0.00000001
 40
0.0
 40
0.0
 40
0.0
 40
0.0
 40
0.4022371812388782
 40
0.7037011773803079
 40
0.9030951424435054
 40
1.0
 40
1.0
 40
1.0
 40
1.0
 10
117.5176444003314
 20
488.5133909044738
 30
0.0
 10
117.5186426053986
 20
488.5126769180137
 30
0.0
 10
117.5203889334703
 20
488.5114278213709
 30
0.0
 10
117.5146367891423
 20
488.5096826888458
 30
0.0
 10
117.5152664464552
 20
488.5083805659084
 30
0.0
 10
117.5229511198309
 20
488.5072372082757
 30
0.0
 10
117.5254644007554
 20
488.5068632718978
 30
0.0
  0
SPLINE
  5
127
330
1F
100
AcDbEntity
  8
0
  6
Continuous
 62
     8
370
    18
100
AcDbSpline
210
0.0
220
0.0
230
1.0
 70
     8
 71
     3
 72
    10
 73
     6
 74
     0
 42
0.000000001
 43
0.00000001
 40
0.0
 40
0.0
 40
0.0
 40
0.0
 40
0.5
 40
0.5
 40
1.0
 40
1.0
 40
1.0
 40
1.0
 10
117.5060203595153
 20
488.5220655261209
 30
0.0
 10
117.5070466217563
 20
488.5205875671509
 30
0.0
 10
117.5083044335274
 20
488.5191069976074
 30
0.0
 10
117.5118774001755
 20
488.5161976353049
 30
0.0
 10
117.5144414732014
 20
488.5147795031131
 30
0.0
 10
117.5176444003314
 20
488.5133909044738
 30
0.0
  0
SPLINE
  5
128
330
1F
100
AcDbEntity
  8
0
  6
Continuous
 62
     8
370
    18
100
AcDbSpline
210
0.0
220
0.0
230
1.0
 70
     8
 71
     3
 72
    16
 73
    12
 74
     0
 42
0.000000001
 43
0.00000001
 40
0.0
 40
0.0
 40
0.0
 40
0.0
 40
0.25
 40
0.25
 40
0.5
 40
0.5
 40
0.75
 40
0.75
 40
0.875
 40
0.875
 40
1.0
 40
1.0
 40
1.0
 40
1.0
 10
117.4301804478842
 20
488.5659498259432
 30
0.0
 10
117.4354797424454
 20
488.5660300300415
 30
0.0
 10
117.4405487660658
 20
488.5679701552593
 30
0.0
 10
117.4516908970567
 20
488.5633029099133
 30
0.0
 10
117.4578301917409
 20
488.5560152124282
 30
0.0
 10
117.4699561232272
 20
488.5464689209883
 30
0.0
 10
117.4761643205974
 20
488.5416428832514
 30
0.0
 10
117.4862470697731
 20
488.5342740077737
 30
0.0
 10
117.4897384554391
 20
488.5318757742012
 30
0.0
 10
117.4972829308516
 20
488.52701363646
 30
0.0
 10
117.5013074866706
 20
488.5245558226424
 30
0.0
 10
117.5060203595153
 20
488.5220655261209
 30
0.0
  0
SPLINE
  5
129
330
1F
100
AcDbEntity
  8
0
  6
Continuous
 62
     8
370
    18
100
AcDbSpline
210
0.0
220
0.0
230
1.0
 70
     8
 71
     3
 72
    16
 73
    12
 74
     0
 42
0.000000001
 43
0.00000001
 40
0.0
 40
0.0
 40
0.0
 40
0.0
 40
0.1250000000000002
 40
0.1250000000000002
 40
0.2500000000000003
 40
0.2500000000000003
 40
0.5000000000000002
 40
0.5000000000000002
 40
0.7500000000000001
 40
0.7500000000000001
 40
1.0
 40
1.0
 40
1.0
 40
1.0
 10
158.7250046426422
 20
488.5220655261209
 30
0.0
 10
158.7297175154868
 20
488.5245558226424
 30
0.0
 10
158.7337420713058
 20
488.52701363646
 30
0.0
 10
158.7412865467185
 20
488.5318757742012
 30
0.0
 10
158.7447779323844
 20
488.5342740077737
 30
0.0
 10
158.7548606815601
 20
488.5416428832513
 30
0.0
 10
158.7610688789302
 20
488.5464689209883
 30
0.0
 10
158.7731948104166
 20
488.5560152124282
 30
0.0
 10
158.7793341051008
 20
488.5633029099133
 30
0.0
 10
158.7904762360916
 20
488.5679701552593
 30
0.0
 10
158.795545259712
 20
488.5660300300415
 30
0.0
 10
158.8008445542733
 20
488.5659498259432
 30
0.0
  0
SPLINE
  5
12A
330
1F
100
AcDbEntity
  8
0
  6
Continuous
 62
     8
370
    18
100
AcDbSpline
210
0.0
220
0.0
230
1.0
 70
     8
 71
     3
 72
    10
 73
     6
 74
     0
 42
0.000000001
 43
0.00000001
 40
0.0
 40
0.0
 40
0.0
 40
0.0
 40
0.5
 40
0.5
 40
1.0
 40
1.0
 40
1.0
 40
1.0
 10
158.7133806018261
 20
488.5133909044738
 30
0.0
 10
158.7165835289561
 20
488.5147795031131
 30
0.0
 10
158.719147601982
 20
488.5161976353049
 30
0.0
 10
158.72272056863
 20
488.5191069976074
 30
0.0
 10
158.7239783804012
 20
488.5205875671509
 30
0.0
 10
158.7250046426422
 20
488.5220655261209
 30
0.0
  0
SPLINE
  5
12B
330
1F
100
AcDbEntity
  8
0
  6
Continuous
 62
     8
370
    18
100
AcDbSpline
210
0.0
220
0.0
230
1.0
 70
     8
 71
     3
 72
    11
 73
     7
 74
     0
 42
0.000000001
 43
0.00000001
 40
0.0
 40
0.0
 40
0.0
 40
0.0
 40
0.0969048698289236
 40
0.2962988390594259
 40
0.5977628312206779
 40
1.0
 40
1.0
 40
1.0
 40
1.0
 10
158.7055606000969
 20
488.5068632703102
 30
0.0
 10
158.7080738825426
 20
488.5072372069139
 30
0.0
 10
158.7157585600225
 20
488.5083805651554
 30
0.0
 10
158.7163882190463
 20
488.5096826884301
 30
0.0
 10
158.7106360685721
 20
488.5114278211745
 30
0.0
 10
158.7123823967218
 20
488.5126769179457
 30
0.0
 10
158.7133806018261
 20
488.5133909044738
 30
0.0
  0
LINE
  5
12C
330
1F
100
AcDbEntity
  8
0
  6
Continuous
 62
     8
370
    18
100
AcDbLine
 10
116.4629213039
 20
476.7724062014
 30
0.0
 11
116.46774172
 21
476.9140285775
 31
0.0
  0
LINE
  5
12D
330
1F
100
AcDbEntity
  8
0
  6
Continuous
 62
     8
370
    18
100
AcDbLine
 10
116.4629213029
 20
487.4468267075
 30
0.0
 11
116.4629213039
 21
476.7749397879
 31
0.0
  0
LINE
  5
12E
330
1F
100
AcDbEntity
  8
0
  6
Continuous
 62
     8
370
    18
100
AcDbLine
 10
116.467521576
 20
487.4434928252
 30
0.0
 11
116.4629213029
 21
487.4468267075
 31
0.0
  0
LINE
  5
12F
330
1F
100
AcDbEntity
  8
0
  6
Continuous
 62
     8
370
    18
100
AcDbLine
 10
116.46774172
 20
487.4431237785
 30
0.0
 11
116.4675210473
 21
487.44454405
 31
0.0
  0
LINE
  5
130
330
1F
100
AcDbEntity
  8
0
  6
Continuous
 62
     8
370
    18
100
AcDbLine
 10
159.7681036992
 20
487.4468267074
 30
0.0
 11
159.7681036983
 21
476.7749397879
 31
0.0
  0
LINE
  5
131
330
1F
100
AcDbEntity
  8
0
  6
Continuous
 62
     8
370
    18
100
AcDbLine
 10
159.7681036983
 20
476.7724062014
 30
0.0
 11
159.7632832821
 21
476.9140285775
 31
0.0
  0
LINE
  5
132
330
1F
100
AcDbEntity
  8
0
  6
Continuous
 62
     8
370
    18
100
AcDbLine
 10
159.7635039541
 20
487.4445432296
 30
0.0
 11
159.7632832821
 21
487.4431229534
 31
0.0
  0
LINE
  5
133
330
1F
100
AcDbEntity
  8
0
  6
Continuous
 62
     8
370
    18
100
AcDbLine
 10
159.7681036992
 20
487.4468267074
 30
0.0
 11
159.7635034256
 21
487.4434928244
 31
0.0
  0
SPLINE
  5
134
330
1F
100
AcDbEntity
  8
0
  6
Continuous
 62
     8
370
    18
100
AcDbSpline
210
0.0
220
0.0
230
1.0
 70
     8
 71
     3
 72
    10
 73
     6
 74
     0
 42
0.000000001
 43
0.00000001
 40
0.0
 40
0.0
 40
0.0
 40
0.0
 40
0.5
 40
0.5
 40
1.0
 40
1.0
 40
1.0
 40
1.0
 10
116.4629213038732
 20
476.7724062013776
 30
0.0
 10
116.4629218864638
 20
476.5724185820221
 30
0.0
 10
116.5152357852239
 20
476.3587484143833
 30
0.0
 10
116.7244899759283
 20
475.9861382722387
 30
0.0
 10
116.8797141371856
 20
475.8302541395156
 30
0.0
 10
117.0504845734902
 20
475.7261569832663
 30
0.0
  0
SPLINE
  5
135
330
1F
100
AcDbEntity
  8
0
  6
Continuous
 62
     8
370
    18
100
AcDbSpline
210
0.0
220
0.0
230
1.0
 70
     8
 71
     3
 72
    10
 73
     6
 74
     0
 42
0.000000001
 43
0.00000001
 40
0.0
 40
0.0
 40
0.0
 40
0.0
 40
0.5
 40
0.5
 40
1.0
 40
1.0
 40
1.0
 40
1.0
 10
159.180595505474
 20
475.7259076649909
 30
0.0
 10
159.351355552781
 20
475.8300229147317
 30
0.0
 10
159.506564550418
 20
475.9859181529252
 30
0.0
 10
159.7157973771205
 20
476.3585377896662
 30
0.0
 10
159.7681059035471
 20
476.5722074311935
 30
0.0
 10
159.7681064341619
 20
476.7721971611426
 30
0.0
  0
SPLINE
  5
136
330
1F
100
AcDbEntity
  8
0
  6
Continuous
 62
     8
370
    18
100
AcDbSpline
210
0.0
220
0.0
230
1.0
 70
     8
 71
     3
 72
    14
 73
    10
 74
     0
 42
0.000000001
 43
0.00000001
 40
0.0
 40
0.0
 40
0.0
 40
0.0
 40
0.25
 40
0.25
 40
0.5
 40
0.5
 40
0.75
 40
0.75
 40
1.0
 40
1.0
 40
1.0
 40
1.0
 10
117.5254629676598
 20
488.5071922103089
 30
0.0
 10
117.4004019409588
 20
488.5066366153623
 30
0.0
 10
117.265630321582
 20
488.4832775223711
 30
0.0
 10
117.004939128196
 20
488.378928858094
 30
0.0
 10
116.8798244274239
 20
488.2975979315107
 30
0.0
 10
116.6734257050982
 20
488.0900174073925
 30
0.0
 10
116.5928321482948
 20
487.9644648276864
 30
0.0
 10
116.489992803333
 20
487.7032914991304
 30
0.0
 10
116.4675212713542
 20
487.5685223516562
 30
0.0
 10
116.4675212012559
 20
487.4434953943851
 30
0.0
  0
SPLINE
  5
137
330
1F
100
AcDbEntity
  8
0
  6
Continuous
 62
     8
370
    18
100
AcDbSpline
210
0.0
220
0.0
230
1.0
 70
     8
 71
     3
 72
    14
 73
    10
 74
     0
 42
0.000000001
 43
0.00000001
 40
0.0
 40
0.0
 40
0.0
 40
0.0
 40
0.25
 40
0.25
 40
0.5
 40
0.5
 40
0.75
 40
0.75
 40
1.0
 40
1.0
 40
1.0
 40
1.0
 10
158.7048397790562
 20
488.5068671762352
 30
0.0
 10
158.8298107712346
 20
488.5062275875992
 30
0.0
 10
158.9644052889197
 20
488.4830179823174
 30
0.0
 10
159.224905569435
 20
488.378938557704
 30
0.0
 10
159.3499785937684
 20
488.2978117371926
 30
0.0
 10
159.5564930177415
 20
488.0906418394967
 30
0.0
 10
159.6372446716234
 20
487.9652881158157
 30
0.0
 10
159.7405170855677
 20
487.7043505546757
 30
0.0
 10
159.7633795549943
 20
487.5695659631633
 30
0.0
 10
159.7635029828274
 20
487.4445425419284
 30
0.0
  0
ARC
  5
138
330
1F
100
AcDbEntity
  8
0
  6
Continuous
 62
     8
370
    18
100
AcDbCircle
 10
117.529552078
 20
487.446826599
 30
0.0
 40
1.066630775113003
100
AcDbArc
 50
90.6396532551
 51
179.9999941758
  0
ARC
  5
139
330
1F
100
AcDbEntity
  8
0
  6
Continuous
 62
     8
370
    18
100
AcDbCircle
 10
158.7014729242
 20
487.4468265991
 30
0.0
 40
1.06663077500969
100
AcDbArc
 50
0.0000058172
 51
89.3603467476
  0
LINE
  5
13A
330
1F
100
AcDbEntity
  8
0
  6
Continuous
 62
     8
370
    18
100
AcDbLine
 10
150.1155125011
 20
470.9719468271
 30
0.0
 11
150.6155125011
 21
470.9719468271
 31
0.0
  0
LINE
  5
13B
330
1F
100
AcDbEntity
  8
0
  6
Continuous
 62
     8
370
    18
100
AcDbLine
 10
126.1155125011
 20
470.9719468271
 30
0.0
 11
125.6155125011
 21
470.9719468271
 31
0.0
  0
SPLINE
  5
13C
330
1F
100
AcDbEntity
  8
0
  6
Continuous
 62
     8
370
    18
100
AcDbSpline
210
0.0
220
0.0
230
1.0
 70
     8
 71
     3
 72
     8
 73
     4
 74
     0
 42
0.000000001
 43
0.00000001
 40
0.0
 40
0.0
 40
0.0
 40
0.0
 40
1.0
 40
1.0
 40
1.0
 40
1.0
 10
159.1544193760288
 20
475.6150548502679
 30
0.0
 10
159.1447711476978
 20
475.6717376113138
 30
0.0
 10
159.2246974629716
 20
475.657246589977
 30
0.0
 10
159.180595505474
 20
475.7259076649909
 30
0.0
  0
LINE
  5
13D
330
1F
100
AcDbEntity
  8
0
  6
Continuous
 62
     8
370
    18
100
AcDbLine
 10
157.1360128413
 20
474.5810207728
 30
0.0
 11
159.1590624875
 21
475.61762581
 31
0.0
  0
LINE
  5
13E
330
1F
100
AcDbEntity
  8
0
  6
Continuous
 62
     8
370
    18
100
AcDbLine
 10
119.3302346913
 20
474.4604933995
 30
0.0
 11
117.0719625147
 21
475.61762581
 31
0.0
  0
SPLINE
  5
13F
330
1F
100
AcDbEntity
  8
0
  6
Continuous
 62
     8
370
    18
100
AcDbSpline
210
0.0
220
0.0
230
1.0
 70
     8
 71
     3
 72
    13
 73
     9
 74
     0
 42
0.000000001
 43
0.00000001
 40
0.0
 40
0.0
 40
0.0
 40
0.0
 40
0.1073716779534739
 40
0.2265434756302797
 40
0.3575160807849816
 40
0.5002903411992965
 40
0.8124436841281637
 40
1.0
 40
1.0
 40
1.0
 40
1.0
 10
117.0504294966835
 20
475.7259076649909
 30
0.0
 10
117.0461920221253
 20
475.7181612277495
 30
0.0
 10
117.0372513756475
 20
475.7018170218111
 30
0.0
 10
117.033932803369
 20
475.683927774729
 30
0.0
 10
117.0369708296186
 20
475.6701755155257
 30
0.0
 10
117.0525166844669
 20
475.6586550543743
 30
0.0
 10
117.0744184077761
 20
475.6494679339432
 30
0.0
 10
117.0760087294803
 20
475.6244462520855
 30
0.0
 10
117.0766056258472
 20
475.6150548497313
 30
0.0
  0
LINE
  5
140
330
1F
100
AcDbEntity
  8
0
  6
Continuous
 62
     8
370
    18
100
AcDbLine
 10
116.4556366673
 20
476.6418790354
 30
0.0
 11
116.462918568
 21
476.7721971611
 31
0.0
  0
LINE
  5
141
330
1F
100
AcDbEntity
  8
0
  6
Continuous
 62
     8
370
    18
100
AcDbLine
 10
116.4556366672
 20
476.6419261486
 30
0.0
 11
116.45562185
 21
487.4511782983
 31
0.0
  0
LINE
  5
142
330
1F
100
AcDbEntity
  8
0
  6
Continuous
 62
     8
370
    18
100
AcDbLine
 10
116.4629213029
 20
487.4468267075
 30
0.0
 11
116.4556218499
 21
487.4512420268
 31
0.0
  0
SPLINE
  5
143
330
1F
100
AcDbEntity
  8
0
  6
Continuous
 62
     8
370
    18
100
AcDbSpline
210
0.0
220
0.0
230
1.0
 70
     8
 71
     3
 72
     8
 73
     4
 74
     0
 42
0.000000001
 43
0.00000001
 40
0.0
 40
0.0
 40
0.0
 40
0.0
 40
1.0
 40
1.0
 40
1.0
 40
1.0
 10
159.7681064341619
 20
476.7721971611426
 30
0.0
 10
159.7705336692619
 20
476.7269924292499
 30
0.0
 10
159.7729610720498
 20
476.6942614892394
 30
0.0
 10
159.775388334902
 20
476.6418790353714
 30
0.0
  0
LINE
  5
144
330
1F
100
AcDbEntity
  8
0
  6
Continuous
 62
     8
370
    18
100
AcDbLine
 10
159.7754031523
 20
487.4512420268
 30
0.0
 11
159.7681036992
 21
487.4468267074
 31
0.0
  0
LINE
  5
145
330
1F
100
AcDbEntity
  8
0
  6
Continuous
 62
     8
370
    18
100
AcDbLine
 10
159.775388335
 20
476.6419261486
 30
0.0
 11
159.7754031523
 21
487.4512420268
 31
0.0
  0
SPLINE
  5
146
330
1F
100
AcDbEntity
  8
0
  6
Continuous
 62
     8
370
    18
100
AcDbSpline
210
0.0
220
0.0
230
1.0
 70
     8
 71
     3
 72
    10
 73
     6
 74
     0
 42
0.000000001
 43
0.00000001
 40
0.0
 40
0.0
 40
0.0
 40
0.0
 40
0.5
 40
0.5
 40
1.0
 40
1.0
 40
1.0
 40
1.0
 10
159.1543802537381
 20
475.6151817393186
 30
0.0
 10
159.331507969057
 20
475.7080548647445
 30
0.0
 10
159.4965106169322
 20
475.857546415441
 30
0.0
 10
159.7196123231426
 20
476.2264287979443
 30
0.0
 10
159.7753879729645
 20
476.4419780434068
 30
0.0
 10
159.7753883350279
 20
476.6419732617639
 30
0.0
  0
SPLINE
  5
147
330
1F
100
AcDbEntity
  8
0
  6
Continuous
 62
     8
370
    18
100
AcDbSpline
210
0.0
220
0.0
230
1.0
 70
     8
 71
     3
 72
    10
 73
     6
 74
     0
 42
0.000000001
 43
0.00000001
 40
0.0
 40
0.0
 40
0.0
 40
0.0
 40
0.5
 40
0.5
 40
1.0
 40
1.0
 40
1.0
 40
1.0
 10
116.4556366727695
 20
476.641973383477
 30
0.0
 10
116.4556370146787
 20
476.4419654918488
 30
0.0
 10
116.5113795893185
 20
476.2264062960592
 30
0.0
 10
116.7344591474792
 20
475.8574841347668
 30
0.0
 10
116.8994571747841
 20
475.7079677866195
 30
0.0
 10
117.0765880110321
 20
475.6150720117079
 30
0.0
  0
ARC
  5
148
330
1F
100
AcDbEntity
  8
0
  6
Continuous
 62
     8
370
    18
100
AcDbCircle
 10
117.5266440461
 20
487.4512419139
 30
0.0
 40
1.071022196260307
100
AcDbArc
 50
91.1033601762
 51
179.999993964
  0
ARC
  5
149
330
1F
100
AcDbEntity
  8
0
  6
Continuous
 62
     8
370
    18
100
AcDbCircle
 10
158.704380956
 20
487.4512419139
 30
0.0
 40
1.071022196260648
100
AcDbArc
 50
0.000006036
 51
88.8966398238
  0
SPLINE
  5
14A
330
1F
100
AcDbEntity
  8
0
  6
Continuous
 62
     8
370
    18
100
AcDbSpline
210
0.0
220
0.0
230
1.0
 70
     8
 71
     3
 72
    11
 73
     7
 74
     0
 42
0.000000001
 43
0.00000001
 40
0.0
 40
0.0
 40
0.0
 40
0.0
 40
0.2536467682205594
 40
0.5048623551939138
 40
0.7536467645434924
 40
0.9999999999999999
 40
0.9999999999999999
 40
0.9999999999999999
 40
0.9999999999999999
 10
116.4053018441688
 20
475.5963519156971
 30
0.0
 10
116.4095576039217
 20
475.6814290949072
 30
0.0
 10
116.4180283323567
 20
475.8507679962881
 30
0.0
 10
116.4306732282586
 20
476.1109097977612
 30
0.0
 10
116.4431957441598
 20
476.3735037643417
 30
0.0
 10
116.4515032897581
 20
476.5527768453657
 30
0.0
 10
116.4556366671296
 20
476.6419732617638
 30
0.0
  0
LINE
  5
14B
330
1F
100
AcDbEntity
  8
0
  6
Continuous
 62
     8
370
    18
100
AcDbLine
 10
116.4556218499
 20
487.4512420268
 30
0.0
 11
116.4053018442
 21
487.4790354418
 31
0.0
  0
SPLINE
  5
14C
330
1F
100
AcDbEntity
  8
0
  6
Continuous
 62
     8
370
    18
100
AcDbSpline
210
0.0
220
0.0
230
1.0
 70
     8
 71
     3
 72
    10
 73
     6
 74
     0
 42
0.000000001
 43
0.00000001
 40
0.0
 40
0.0
 40
0.0
 40
0.0
 40
0.5
 40
0.5
 40
1.0
 40
1.0
 40
1.0
 40
1.0
 10
159.7753883350279
 20
476.6419732617639
 30
0.0
 10
159.7837774747081
 20
476.4597770291202
 30
0.0
 10
159.7921666150754
 20
476.2809455189887
 30
0.0
 10
159.808944893928
 20
475.9267977833363
 30
0.0
 10
159.8173340115196
 20
475.7629988198727
 30
0.0
 10
159.825723157989
 20
475.5963519156921
 30
0.0
  0
LINE
  5
14D
330
1F
100
AcDbEntity
  8
0
  6
Continuous
 62
     8
370
    18
100
AcDbLine
 10
159.825723158
 20
487.4790354418
 30
0.0
 11
159.7754031523
 21
487.4512420268
 31
0.0
  0
SPLINE
  5
14E
330
1F
100
AcDbEntity
  8
0
  6
Continuous
 62
     8
370
    18
100
AcDbSpline
210
0.0
220
0.0
230
1.0
 70
     8
 71
     3
 72
    16
 73
    12
 74
     0
 42
0.000000001
 43
0.00000001
 40
0.0
 40
0.0
 40
0.0
 40
0.0
 40
0.2043305143287009
 40
0.3999970928128101
 40
0.4676106263371814
 40
0.5412573150862265
 40
0.6209364174699814
 40
0.7066486244032987
 40
0.7983981664851023
 40
0.896182267338816
 40
0.9999999999999999
 40
0.9999999999999999
 40
0.9999999999999999
 40
0.9999999999999999
 10
117.0766426341575
 20
475.6151718069837
 30
0.0
 10
117.0592592060866
 20
475.532694086159
 30
0.0
 10
117.0252294346924
 20
475.3712358298625
 30
0.0
 10
116.9863414052161
 20
475.1894137517731
 30
0.0
 10
116.9613979611346
 20
475.058315675609
 30
0.0
 10
116.948366667133
 20
474.9703878043707
 30
0.0
 10
116.9366055203313
 20
474.8744847813986
 30
0.0
 10
116.9280348646632
 20
474.7899814431112
 30
0.0
 10
116.9216022162765
 20
474.7042733408136
 30
0.0
 10
116.9164315024683
 20
474.6093633834038
 30
0.0
 10
116.9143939594618
 20
474.5432423541522
 30
0.0
 10
116.9133446976994
 20
474.5091923893357
 30
0.0
  0
SPLINE
  5
14F
330
1F
100
AcDbEntity
  8
0
  6
Continuous
 62
     8
370
    18
100
AcDbSpline
210
0.0
220
0.0
230
1.0
 70
     8
 71
     3
 72
    14
 73
    10
 74
     0
 42
0.000000001
 43
0.00000001
 40
0.0
 40
0.0
 40
0.0
 40
0.0
 40
0.25
 40
0.25
 40
0.375
 40
0.375
 40
0.5
 40
0.5
 40
1.0
 40
1.0
 40
1.0
 40
1.0
 10
159.3176915886545
 20
474.5091788962864
 30
0.0
 10
159.3155147872476
 20
474.5915677762668
 30
0.0
 10
159.3132558052011
 20
474.6740283486475
 30
0.0
 10
159.3103495618669
 20
474.7973334952356
 30
0.0
 10
159.3088739999676
 20
474.838807606029
 30
0.0
 10
159.2977936514304
 20
474.9278526544547
 30
0.0
 10
159.288156904822
 20
474.9754803858709
 30
0.0
 10
159.2387371156732
 20
475.2156546499776
 30
0.0
 10
159.1976577812899
 20
475.4118734511528
 30
0.0
 10
159.154382367986
 20
475.61517180705
 30
0.0
  0
ELLIPSE
  5
150
330
1F
100
AcDbEntity
  8
0
  6
Continuous
 62
     8
370
    18
100
AcDbEllipse
 10
105.908744037
 20
508.1581130703
 30
0.0
 11
1.060689250513533
 21
-1.060689250513519
 31
0.0
210
0.0
220
0.0
230
1.0
 40
0.9999725851
 41
2.356208197850943
 42
3.926977109328653
  0
LINE
  5
151
330
1F
100
AcDbEntity
  8
0
  6
Continuous
 62
     8
370
    18
100
AcDbLine
 10
170.3223220887
 20
509.6581336322
 30
0.0
 11
105.9087029135
 21
509.6581336322
 31
0.0
  0
ELLIPSE
  5
152
330
1F
100
AcDbEntity
  8
0
  6
Continuous
 62
     8
370
    18
100
AcDbEllipse
 10
170.3222809651
 20
508.1581130703
 30
0.0
 11
-1.060689250513491
 21
-1.060689250513519
 31
0.0
210
0.0
220
0.0
230
1.0
 40
0.9999725851
 41
2.35620819785098
 42
3.926977109328574
  0
LINE
  5
153
330
1F
100
AcDbEntity
  8
0
  6
Continuous
 62
     8
370
    18
100
AcDbLine
 10
171.822301527
 20
443.7445350186
 30
0.0
 11
171.822301527
 21
508.1581541938
 31
0.0
  0
ELLIPSE
  5
154
330
1F
100
AcDbEntity
  8
0
  6
Continuous
 62
     8
370
    18
100
AcDbEllipse
 10
170.3222809651
 20
443.7445761422
 30
0.0
 11
-1.060689250513519
 21
1.060689250513519
 31
0.0
210
0.0
220
0.0
230
1.0
 40
0.9999725851
 41
2.356208197850967
 42
3.926977109328633
  0
LINE
  5
155
330
1F
100
AcDbEntity
  8
0
  6
Continuous
 62
     8
370
    18
100
AcDbLine
 10
105.9087029135
 20
442.2445555803
 30
0.0
 11
170.3223220887
 21
442.2445555803
 31
0.0
  0
ELLIPSE
  5
156
330
1F
100
AcDbEntity
  8
0
  6
Continuous
 62
     8
370
    18
100
AcDbEllipse
 10
105.908744037
 20
443.7445761422
 30
0.0
 11
1.060689250513533
 21
1.060689250513576
 31
0.0
210
0.0
220
0.0
230
1.0
 40
0.9999725851
 41
2.356208197850934
 42
3.926977109328617
  0
LINE
  5
157
330
1F
100
AcDbEntity
  8
0
  6
Continuous
 62
     8
370
    18
100
AcDbLine
 10
104.4087234751
 20
508.1581541938
 30
0.0
 11
104.4087234751
 21
443.7445350186
 31
0.0
  0
LINE
  5
158
330
1F
100
AcDbEntity
  8
0
  6
Continuous
 62
     8
370
    18
100
AcDbLine
 10
105.9087029135
 20
442.2445555803
 30
0.0
 11
105.9087029135
 21
440.9445734003
 31
0.0
  0
ARC
  5
159
330
1F
100
AcDbEntity
  8
0
  6
Continuous
 62
     8
370
    18
100
AcDbCircle
 10
105.908744037
 20
443.7445761422
 30
0.0
 40
2.800002742134363
100
AcDbArc
 50
180.0008415011
 51
269.9991584989
  0
LINE
  5
15A
330
1F
100
AcDbEntity
  8
0
  6
Continuous
 62
     8
370
    18
100
AcDbLine
 10
104.4087234751
 20
443.7445350186
 30
0.0
 11
103.1087412952
 21
443.7445350186
 31
0.0
  0
ARC
  5
15B
330
1F
100
AcDbEntity
  8
0
  6
Continuous
 62
     8
370
    18
100
AcDbCircle
 10
170.3222809651
 20
508.1581130703
 30
0.0
 40
2.800002742134391
100
AcDbArc
 50
0.0008415011
 51
89.9991584989
  0
LINE
  5
15C
330
1F
100
AcDbEntity
  8
0
  6
Continuous
 62
     8
370
    18
100
AcDbLine
 10
171.822301527
 20
508.1581541938
 30
0.0
 11
173.122283707
 21
508.1581541938
 31
0.0
  0
LINE
  5
15D
330
1F
100
AcDbEntity
  8
0
  6
Continuous
 62
     8
370
    18
100
AcDbLine
 10
170.3223220887
 20
509.6581336322
 30
0.0
 11
170.3223220887
 21
510.9581158121
 31
0.0
  0
LINE
  5
15E
330
1F
100
AcDbEntity
  8
0
  6
Continuous
 62
     8
370
    18
100
AcDbLine
 10
103.1087412952
 20
443.7445350186
 30
0.0
 11
103.1087412952
 21
508.1581541938
 31
0.0
  0
LINE
  5
15F
330
1F
100
AcDbEntity
  8
0
  6
Continuous
 62
     8
370
    18
100
AcDbLine
 10
104.4087234751
 20
508.1581541938
 30
0.0
 11
103.1087412952
 21
508.1581541938
 31
0.0
  0
LINE
  5
160
330
1F
100
AcDbEntity
  8
0
  6
Continuous
 62
     8
370
    18
100
AcDbLine
 10
173.122283707
 20
508.1581541938
 30
0.0
 11
173.122283707
 21
443.7445350186
 31
0.0
  0
LINE
  5
161
330
1F
100
AcDbEntity
  8
0
  6
Continuous
 62
     8
370
    18
100
AcDbLine
 10
171.822301527
 20
443.7445350186
 30
0.0
 11
173.122283707
 21
443.7445350186
 31
0.0
  0
ARC
  5
162
330
1F
100
AcDbEntity
  8
0
  6
Continuous
 62
     8
370
    18
100
AcDbCircle
 10
170.3222809651
 20
443.7445761422
 30
0.0
 40
2.800002742134419
100
AcDbArc
 50
270.0008415011
 51
359.9991584989
  0
LINE
  5
163
330
1F
100
AcDbEntity
  8
0
  6
Continuous
 62
     8
370
    18
100
AcDbLine
 10
170.3223220887
 20
442.2445555803
 30
0.0
 11
170.3223220887
 21
440.9445734003
 31
0.0
  0
LINE
  5
164
330
1F
100
AcDbEntity
  8
0
  6
Continuous
 62
     8
370
    18
100
AcDbLine
 10
170.3223220887
 20
440.9445734003
 30
0.0
 11
105.9087029135
 21
440.9445734003
 31
0.0
  0
LINE
  5
165
330
1F
100
AcDbEntity
  8
0
  6
Continuous
 62
     8
370
    18
100
AcDbLine
 10
105.9087029135
 20
510.9581158121
 30
0.0
 11
170.3223220887
 21
510.9581158121
 31
0.0
  0
LINE
  5
166
330
1F
100
AcDbEntity
  8
0
  6
Continuous
 62
     8
370
    18
100
AcDbLine
 10
105.9087029135
 20
509.6581336322
 30
0.0
 11
105.9087029135
 21
510.9581158121
 31
0.0
  0
ARC
  5
167
330
1F
100
AcDbEntity
  8
0
  6
Continuous
 62
     8
370
    18
100
AcDbCircle
 10
105.908744037
 20
508.1581130703
 30
0.0
 40
2.800002742134363
100
AcDbArc
 50
90.0008415011
 51
179.9991584989
  0
LINE
  5
168
330
1F
100
AcDbEntity
  8
0
  6
Continuous
 62
     8
370
    18
100
AcDbLine
 10
173.1626368215
 20
508.1985073084
 30
0.0
 11
173.122283707
 21
508.1581541938
 31
0.0
  0
LINE
  5
169
330
1F
100
AcDbEntity
  8
0
  6
Continuous
 62
     8
370
    18
100
AcDbLine
 10
170.3223220887
 20
510.9581158121
 30
0.0
 11
170.3626752032
 21
510.9984689267
 31
0.0
  0
LINE
  5
16A
330
1F
100
AcDbEntity
  8
0
  6
Continuous
 62
     8
370
    18
100
AcDbLine
 10
103.0683881806
 20
443.7041819041
 30
0.0
 11
103.1087412952
 21
443.7445350186
 31
0.0
  0
LINE
  5
16B
330
1F
100
AcDbEntity
  8
0
  6
Continuous
 62
     8
370
    18
100
AcDbLine
 10
105.9087029135
 20
440.9445734003
 30
0.0
 11
105.8683497989
 21
440.9042202858
 31
0.0
  0
LINE
  5
16C
330
1F
100
AcDbEntity
  8
0
  6
Continuous
 62
     8
370
    18
100
AcDbLine
 10
105.8683497989
 20
510.9984689267
 30
0.0
 11
105.9087029135
 21
510.9581158121
 31
0.0
  0
LINE
  5
16D
330
1F
100
AcDbEntity
  8
0
  6
Continuous
 62
     8
370
    18
100
AcDbLine
 10
103.1087412952
 20
508.1581541938
 30
0.0
 11
103.0683881806
 21
508.1985073084
 31
0.0
  0
LINE
  5
16E
330
1F
100
AcDbEntity
  8
0
  6
Continuous
 62
     8
370
    18
100
AcDbLine
 10
170.3626752032
 20
440.9042202858
 30
0.0
 11
170.3223220887
 21
440.9445734003
 31
0.0
  0
LINE
  5
16F
330
1F
100
AcDbEntity
  8
0
  6
Continuous
 62
     8
370
    18
100
AcDbLine
 10
173.122283707
 20
443.7445350186
 30
0.0
 11
173.1626368215
 21
443.7041819041
 31
0.0
  0
ARC
  5
170
330
1F
100
AcDbEntity
  8
0
  6
Continuous
 62
     7
370
    25
100
AcDbCircle
 10
447.9854255418
 20
497.4513446062
 30
0.0
 40
1.5
100
AcDbArc
 50
0.0
 51
90.0
  0
LINE
  5
171
330
1F
100
AcDbEntity
  8
0
  6
Continuous
 62
     7
370
    25
100
AcDbLine
 10
447.9854255418
 20
498.9513446062
 30
0.0
 11
424.8652234303
 21
498.9513446062
 31
0.0
  0
ARC
  5
172
330
1F
100
AcDbEntity
  8
0
  6
Continuous
 62
     7
370
    25
100
AcDbCircle
 10
424.8652234303
 20
498.7513446062
 30
0.0
 40
0.2000000000000214
100
AcDbArc
 50
103.55047681
 51
163.0
  0
LINE
  5
173
330
1F
100
AcDbEntity
  8
0
  6
Continuous
 62
     7
370
    25
100
AcDbLine
 10
409.1087049635
 20
498.5013446062
 30
0.0
 11
382.5854255418
 21
498.5013446062
 31
0.0
  0
LINE
  5
174
330
1F
100
AcDbEntity
  8
0
  6
Continuous
 62
     7
370
    25
100
AcDbLine
 10
382.5854255418
 20
453.4013446062
 30
0.0
 11
409.1087049635
 21
453.4013446062
 31
0.0
  0
ARC
  5
175
330
1F
100
AcDbEntity
  8
0
  6
Continuous
 62
     7
370
    25
100
AcDbCircle
 10
409.1087049635
 20
497.8013446062
 30
0.0
 40
0.7000000000000455
100
AcDbArc
 50
41.0
 51
90.0
  0
ARC
  5
176
330
1F
100
AcDbEntity
  8
0
  6
Continuous
 62
     7
370
    25
100
AcDbCircle
 10
409.1087049635
 20
454.1013446062
 30
0.0
 40
0.7000000000000247
100
AcDbArc
 50
270.0
 51
319.0
  0
LINE
  5
177
330
1F
100
AcDbEntity
  8
0
  6
Continuous
 62
     7
370
    25
100
AcDbLine
 10
409.6370016696
 20
453.6421032859
 30
0.0
 11
409.6985055438
 21
453.7128553997
 31
0.0
  0
LINE
  5
178
330
1F
100
AcDbEntity
  8
0
  6
Continuous
 62
     7
370
    25
100
AcDbLine
 10
409.6985055438
 20
498.1898338127
 30
0.0
 11
409.6370016696
 21
498.2605859265
 31
0.0
  0
ARC
  5
179
330
1F
100
AcDbEntity
  8
0
  6
Continuous
 62
     7
370
    25
100
AcDbCircle
 10
410.22680225
 20
498.649075133
 30
0.0
 40
0.7000000000000447
100
AcDbArc
 50
221.0
 51
269.1898025957
  0
ARC
  5
17A
330
1F
100
AcDbEntity
  8
0
  6
Continuous
 62
     7
370
    25
100
AcDbCircle
 10
410.22680225
 20
453.2536140794
 30
0.0
 40
0.7000000000000247
100
AcDbArc
 50
90.8101974043
 51
139.0
  0
ARC
  5
17B
330
1F
100
AcDbEntity
  8
0
  6
Continuous
 62
     7
370
    25
100
AcDbCircle
 10
409.9058210482
 20
475.9513446062
 30
0.0
 40
22.00000000000004
100
AcDbArc
 50
270.8101974043
 51
290.7087921947
  0
ARC
  5
17C
330
1F
100
AcDbEntity
  8
0
  6
Continuous
 62
     7
370
    25
100
AcDbCircle
 10
409.9058210482
 20
475.9513446062
 30
0.0
 40
22.00000000000002
100
AcDbArc
 50
53.2347662918
 51
89.1898025957
  0
SPLINE
  5
17D
330
1F
100
AcDbEntity
  8
0
  6
Continuous
 62
     7
370
    25
100
AcDbSpline
210
0.0
220
0.0
230
1.0
 70
     8
 71
     3
 72
    12
 73
     8
 74
     0
 42
0.000000001
 43
0.00000001
 40
0.0
 40
0.0
 40
0.0
 40
0.0
 40
0.1824825749424523
 40
0.3894111168434991
 40
0.5903262631253621
 40
0.7852310807052757
 40
1.0
 40
1.0
 40
1.0
 40
1.0
 10
449.4845919768075
 20
392.8949410072962
 30
0.0
 10
449.5365895854163
 20
397.1479129711276
 30
0.0
 10
449.6475505735979
 20
406.2235990351915
 30
0.0
 10
449.672821032332
 20
419.9842416682033
 30
0.0
 10
449.7122058409004
 20
434.0351329958779
 30
0.0
 10
449.7081146620475
 20
448.2698249545086
 30
0.0
 10
449.772409705265
 20
457.8211198590123
 30
0.0
 10
449.8061159834688
 20
462.828327057977
 30
0.0
  0
LINE
  5
17E
330
1F
100
AcDbEntity
  8
0
  6
Continuous
 62
     7
370
    25
100
AcDbLine
 10
449.6637793908
 20
489.1343427404
 30
0.0
 11
449.4845919768
 21
496.9477860217
 31
0.0
  0
LINE
  5
17F
330
1F
100
AcDbEntity
  8
0
  6
Continuous
 62
     7
370
    25
100
AcDbLine
 10
417.8854255418
 20
452.9513446062
 30
0.0
 11
422.1494663211
 21
452.9513446062
 31
0.0
  0
ARC
  5
180
330
1F
100
AcDbEntity
  8
0
  6
Continuous
 62
     7
370
    25
100
AcDbCircle
 10
417.8854255418
 20
453.1513446062
 30
0.0
 40
0.1999999999999886
100
AcDbArc
 50
180.0
 51
270.0
  0
LINE
  5
181
330
1F
100
AcDbEntity
  8
0
  6
Continuous
 62
     7
370
    25
100
AcDbLine
 10
424.6854255418
 20
452.9526636352
 30
0.0
 11
424.6854255418
 21
452.8013446062
 31
0.0
  0
LINE
  5
182
330
1F
100
AcDbEntity
  8
0
  6
Continuous
 62
     7
370
    25
100
AcDbLine
 10
424.6854255418
 20
452.8013446062
 30
0.0
 11
424.9040069087
 21
452.2007972363
 31
0.0
  0
ARC
  5
183
330
1F
100
AcDbEntity
  8
0
  6
Continuous
 62
     7
370
    25
100
AcDbCircle
 10
425.0919454328
 20
452.269201265
 30
0.0
 40
0.2000000000000553
100
AcDbArc
 50
200.0
 51
270.0
  0
LINE
  5
184
330
1F
100
AcDbEntity
  8
0
  6
Continuous
 62
     7
370
    25
100
AcDbLine
 10
425.0919454328
 20
452.069201265
 30
0.0
 11
432.1213300875
 21
452.069201265
 31
0.0
  0
SPLINE
  5
185
330
1F
100
AcDbEntity
  8
0
  6
Continuous
 62
     7
370
    25
100
AcDbSpline
210
0.0
220
0.0
230
1.0
 70
     8
 71
     3
 72
    14
 73
    10
 74
     0
 42
0.000000001
 43
0.00000001
 40
0.0
 40
0.0
 40
0.0
 40
0.0
 40
0.0669023712017643
 40
0.2244746826392392
 40
0.3685867132433283
 40
0.5036129374855164
 40
0.6326475496213362
 40
0.7577039076579142
 40
1.0
 40
1.0
 40
1.0
 40
1.0
 10
432.8468723807327
 20
451.7324816729189
 30
0.0
 10
433.2537071719805
 20
451.6113601664204
 30
0.0
 10
434.6187426559475
 20
451.2049663235165
 30
0.0
 10
436.6686381273877
 20
450.0335940621139
 30
0.0
 10
438.8770610290558
 20
448.3587241271974
 30
0.0
 10
440.6483839341515
 20
446.4545109782093
 30
0.0
 10
442.0307156121937
 20
444.4059904319929
 30
0.0
 10
443.4430670463298
 20
441.577427144406
 30
0.0
 10
443.9490416897452
 20
439.2933946329266
 30
0.0
 10
444.2827693640737
 20
437.7869063769118
 30
0.0
  0
SPLINE
  5
186
330
1F
100
AcDbEntity
  8
0
  6
Continuous
 62
     7
370
    25
100
AcDbSpline
210
0.0
220
0.0
230
1.0
 70
     8
 71
     3
 72
     9
 73
     5
 74
     0
 42
0.000000001
 43
0.00000001
 40
0.0
 40
0.0
 40
0.0
 40
0.0
 40
0.4847805314217543
 40
1.0
 40
1.0
 40
1.0
 40
1.0
 10
443.9453336524577
 20
439.4785686284483
 30
0.0
 10
444.0680452996144
 20
438.9200662304399
 30
0.0
 10
444.3211735487971
 20
437.7679935670216
 30
0.0
 10
444.4368526112432
 20
436.5875395029369
 30
0.0
 10
444.4964527163223
 20
435.9793465873582
 30
0.0
  0
LINE
  5
187
330
1F
100
AcDbEntity
  8
0
  6
Continuous
 62
     7
370
    25
100
AcDbLine
 10
432.8587842234
 20
451.7286365429
 30
0.0
 11
434.0570177358
 21
451.3418480405
 31
0.0
  0
LINE
  5
188
330
1F
100
AcDbEntity
  8
0
  6
Continuous
 62
     7
370
    25
100
AcDbLine
 10
443.5682716868
 20
440.3519871674
 30
0.0
 11
444.2827693616
 21
437.7869063922
 31
0.0
  0
SPLINE
  5
189
330
1F
100
AcDbEntity
  8
0
  6
Continuous
 62
     7
370
    25
100
AcDbSpline
210
0.0
220
0.0
230
1.0
 70
     8
 71
     3
 72
    10
 73
     6
 74
     0
 42
0.000000001
 43
0.00000001
 40
0.0
 40
0.0
 40
0.0
 40
0.0
 40
0.0960509596471334
 40
0.7406065804544439
 40
1.0
 40
1.0
 40
1.0
 40
1.0
 10
584.991983630707
 20
468.5633321232865
 30
0.0
 10
585.1763457802908
 20
468.5711400865965
 30
0.0
 10
586.5978809910814
 20
468.6313438474811
 30
0.0
 10
588.406107648471
 20
468.7503390523244
 30
0.0
 10
590.0636099259123
 20
468.7888626248043
 30
0.0
 10
590.5392398170421
 20
468.7999171873433
 30
0.0
  0
LINE
  5
18A
330
1F
100
AcDbEntity
  8
0
  6
Continuous
 62
     7
370
    25
100
AcDbLine
 10
623.5928119022
 20
488.5100588744
 30
0.0
 11
613.2317779627
 21
488.5935757541
 31
0.0
  0
SPLINE
  5
18B
330
1F
100
AcDbEntity
  8
0
  6
Continuous
 62
     7
370
    25
100
AcDbSpline
210
0.0
220
0.0
230
1.0
 70
     8
 71
     3
 72
     9
 73
     5
 74
     0
 42
0.000000001
 43
0.00000001
 40
0.0
 40
0.0
 40
0.0
 40
0.0
 40
0.3570874845785417
 40
1.0
 40
1.0
 40
1.0
 40
1.0
 10
613.4969492007097
 20
488.5803873742186
 30
0.0
 10
610.2483111666442
 20
488.5955342405936
 30
0.0
 10
601.150714150888
 20
488.6379520430345
 30
0.0
 10
592.0521005099394
 20
488.664549854537
 30
0.0
 10
586.2024879271892
 20
488.6816499204348
 30
0.0
  0
LINE
  5
18C
330
1F
100
AcDbEntity
  8
0
  6
Continuous
 62
     7
370
    25
100
AcDbLine
 10
623.8261402789
 20
488.4662633313
 30
0.0
 11
623.5313717288
 21
488.5106112945
 31
0.0
  0
SPLINE
  5
18D
330
1F
100
AcDbEntity
  8
0
  6
Continuous
 62
     7
370
    25
100
AcDbSpline
210
0.0
220
0.0
230
1.0
 70
     8
 71
     3
 72
    10
 73
     6
 74
     0
 42
0.000000001
 43
0.00000001
 40
0.0
 40
0.0
 40
0.0
 40
0.0
 40
0.2824779102191433
 40
0.6515666140217696
 40
1.0
 40
1.0
 40
1.0
 40
1.0
 10
624.587261117125
 20
487.4331730810109
 30
0.0
 10
624.5755977115901
 20
487.5443234192366
 30
0.0
 10
624.5486947737768
 20
487.80070399593
 30
0.0
 10
624.4662337566438
 20
487.9324186633466
 30
0.0
 10
624.4881071408817
 20
487.8889532922244
 30
0.0
 10
624.4987289983009
 20
487.8678462257681
 30
0.0
  0
LINE
  5
18E
330
1F
100
AcDbEntity
  8
0
  6
Continuous
 62
     7
370
    25
100
AcDbLine
 10
615.6519946865
 20
466.4840862535
 30
0.0
 11
614.4932374752
 21
473.0557249591
 31
0.0
  0
LINE
  5
18F
330
1F
100
AcDbEntity
  8
0
  6
Continuous
 62
     7
370
    25
100
AcDbLine
 10
590.8578514029
 20
468.8881686951
 30
0.0
 11
592.0166086142
 21
462.3165299895
 31
0.0
  0
LINE
  5
190
330
1F
100
AcDbEntity
  8
0
  6
Continuous
 62
     7
370
    25
100
AcDbLine
 10
614.7674427556
 20
465.7418590545
 30
0.0
 11
615.6519946865
 21
466.4840862535
 31
0.0
  0
LINE
  5
191
330
1F
100
AcDbEntity
  8
0
  6
Continuous
 62
     7
370
    25
100
AcDbLine
 10
592.0166086142
 20
462.3165299895
 30
0.0
 11
593.1016721893
 21
461.9215991459
 31
0.0
  0
LINE
  5
192
330
1F
100
AcDbEntity
  8
0
  6
Continuous
 62
     7
370
    25
100
AcDbLine
 10
594.4259794031
 20
488.6545462126
 30
0.0
 11
586.4660695794
 21
488.6807721345
 31
0.0
  0
SPLINE
  5
193
330
1F
100
AcDbEntity
  8
0
  6
Continuous
 62
     7
370
    25
100
AcDbSpline
210
0.0
220
0.0
230
1.0
 70
    24
 71
     3
 72
    11
 73
     7
 74
     0
 42
0.000000001
 43
0.00000001
 40
0.0
 40
0.0
 40
0.0
 40
0.0
 40
0.1444779698918126
 40
0.4476967350843662
 40
0.7509155002769198
 40
0.9999999999999999
 40
0.9999999999999999
 40
0.9999999999999999
 40
0.9999999999999999
 10
449.4845919768075
 20
497.1836298169618
 30
0.0
 10
449.4845919768075
 20
497.1142348122818
 30
0.0
 10
449.4845919768075
 20
496.8991991424862
 30
0.0
 10
449.4845919768075
 20
495.2342557772908
 30
0.0
 10
449.4845919768075
 20
492.6248916520469
 30
0.0
 10
449.4845919768075
 20
490.2196770698791
 30
0.0
 10
449.4845919768075
 20
489.134943900653
 30
0.0
  0
LINE
  5
194
330
1F
100
AcDbEntity
  8
0
  6
Continuous
 62
     7
370
    25
100
AcDbLine
 10
424.8652234303
 20
498.9513446062
 30
0.0
 11
421.924848038
 21
489.2494457169
 31
0.0
  0
LINE
  5
195
330
1F
100
AcDbEntity
  8
0
  6
Continuous
 62
     7
370
    25
100
AcDbLine
 10
421.7442031007
 20
489.2270078128
 30
0.0
 11
424.6739624306
 21
498.8098187885
 31
0.0
  0
LINE
  5
196
330
1F
100
AcDbEntity
  8
0
  6
Continuous
 62
     7
370
    25
100
AcDbLine
 10
417.6854255418
 20
462.7000155856
 30
0.0
 11
417.6854255418
 21
462.0730837367
 31
0.0
  0
SPLINE
  5
197
330
1F
100
AcDbEntity
  8
0
  6
Continuous
 62
     7
370
    18
100
AcDbSpline
210
0.0
220
0.0
230
1.0
 70
     8
 71
     3
 72
    11
 73
     7
 74
     0
 42
0.000000001
 43
0.00000001
 40
0.0
 40
0.0
 40
0.0
 40
0.0
 40
0.1598002497799386
 40
0.372495165882452
 40
0.6879114238560532
 40
1.0
 40
1.0
 40
1.0
 40
1.0
 10
449.4845245788647
 20
462.8185304330369
 30
0.0
 10
449.4845564192922
 20
461.5570274264664
 30
0.0
 10
449.4846306394847
 20
458.6164577318583
 30
0.0
 10
449.4847379589593
 20
453.0843790504829
 30
0.0
 10
449.484379166539
 20
446.2212450246861
 30
0.0
 10
449.4845952815929
 20
441.0432357425122
 30
0.0
 10
449.4847027660867
 20
438.4679606907967
 30
0.0
  0
SPLINE
  5
198
330
1F
100
AcDbEntity
  8
0
  6
Continuous
 62
     7
370
    25
100
AcDbSpline
210
0.0
220
0.0
230
1.0
 70
     8
 71
     3
 72
    12
 73
     8
 74
     0
 42
0.000000001
 43
0.00000001
 40
0.0
 40
0.0
 40
0.0
 40
0.0
 40
0.5
 40
0.5
 40
0.75
 40
0.75
 40
1.0
 40
1.0
 40
1.0
 40
1.0
 10
449.6652056268409
 20
414.8250277957149
 30
0.0
 10
449.6478886586505
 20
410.9209951449285
 30
0.0
 10
449.6301814265695
 20
407.0169653708139
 30
0.0
 10
449.6128064643827
 20
401.1608529996162
 30
0.0
 10
449.6080298835393
 20
399.2088080603507
 30
0.0
 10
449.5766609557526
 20
395.3048789878745
 30
0.0
 10
449.5495316886514
 20
393.3529988123527
 30
0.0
 10
449.4845018696002
 20
391.4013980053488
 30
0.0
  0
SPLINE
  5
199
330
1F
100
AcDbEntity
  8
0
  6
Continuous
 62
     7
370
    25
100
AcDbSpline
210
0.0
220
0.0
230
1.0
 70
    24
 71
     3
 72
     8
 73
     4
 74
     0
 42
0.000000001
 43
0.00000001
 40
0.0
 40
0.0
 40
0.0
 40
0.0
 40
1.0
 40
1.0
 40
1.0
 40
1.0
 10
449.4845919802983
 20
391.4013446062235
 30
0.0
 10
449.4852302321113
 20
391.4013452191016
 30
0.0
 10
449.4844703404691
 20
391.4013444894193
 30
0.0
 10
449.4845277318048
 20
391.4013445445291
 30
0.0
  0
SPLINE
  5
19A
330
1F
100
AcDbEntity
  8
0
  6
Continuous
 62
     7
370
    25
100
AcDbSpline
210
0.0
220
0.0
230
1.0
 70
     8
 71
     3
 72
    33
 73
    29
 74
     0
 42
0.000000001
 43
0.00000001
 40
0.0
 40
0.0
 40
0.0
 40
0.0
 40
0.0011022252076022
 40
0.0033462776865647
 40
0.0078741665370921
 40
0.0147743779941043
 40
0.0240678807597497
 40
0.0357627772515243
 40
0.0498630307615356
 40
0.0663708721993102
 40
0.0852876806938279
 40
0.1066143680384939
 40
0.1303515683235141
 40
0.1564997402756997
 40
0.1850592264459133
 40
0.2160302893751669
 40
0.249413134706636
 40
0.2852079265160317
 40
0.3234147978054605
 40
0.3640338578828683
 40
0.4070651976739247
 40
0.4525088936245313
 40
0.5003650106200109
 40
0.6527203040448759
 40
0.7788343731726591
 40
0.878722526151275
 40
0.9524164163061224
 40
1.0
 40
1.0
 40
1.0
 40
1.0
 10
449.4845919768075
 20
391.4013446062201
 30
0.0
 10
449.4845659225748
 20
391.4005772399835
 30
0.0
 10
449.484486823769
 20
391.3982475704229
 30
0.0
 10
449.4844283138768
 20
391.3966702035249
 30
0.0
 10
449.4843589605014
 20
391.3947655253166
 30
0.0
 10
449.4842919418366
 20
391.3930360167539
 30
0.0
 10
449.4842213488762
 20
391.3912408996601
 30
0.0
 10
449.4841517800534
 20
391.3895343796779
 30
0.0
 10
449.4840823963848
 20
391.3878736525103
 30
0.0
 10
449.4840141280433
 20
391.3862827248452
 30
0.0
 10
449.4839471195376
 20
391.38475759356
 30
0.0
 10
449.4838817086856
 20
391.3833020470964
 30
0.0
 10
449.4838181228616
 20
391.3819163432667
 30
0.0
 10
449.4837565931841
 20
391.3806013535657
 30
0.0
 10
449.4836973250331
 20
391.379357442751
 30
0.0
 10
449.4836405114137
 20
391.378184940429
 30
0.0
 10
449.4835863307779
 20
391.3770840554778
 30
0.0
 10
449.4835349505469
 20
391.3760549726667
 30
0.0
 10
449.4834865209396
 20
391.3750977283407
 30
0.0
 10
449.4834412020509
 20
391.3742127623727
 30
0.0
 10
449.4833990554391
 20
391.3733987309128
 30
0.0
 10
449.4833604860968
 20
391.3726614331918
 30
0.0
 10
449.4832988339737
 20
391.3714915398809
 30
0.0
 10
449.4832570099131
 20
391.3707385518491
 30
0.0
 10
449.4833205858516
 20
391.371842971591
 30
0.0
 10
449.4835278454776
 20
391.3759905009231
 30
0.0
 10
449.4837700180122
 20
391.380543242173
 30
0.0
 10
449.484123682327
 20
391.3889768544178
 30
0.0
 10
449.4842624435907
 20
391.3922858076912
 30
0.0
  0
SPLINE
  5
19B
330
1F
100
AcDbEntity
  8
0
  6
Continuous
 62
     7
370
    25
100
AcDbSpline
210
0.0
220
0.0
230
1.0
 70
    24
 71
     3
 72
     8
 73
     4
 74
     0
 42
0.000000001
 43
0.00000001
 40
0.0
 40
0.0
 40
0.0
 40
0.0
 40
1.0
 40
1.0
 40
1.0
 40
1.0
 10
449.4848430925828
 20
391.4013448473528
 30
0.0
 10
449.4847362113511
 20
391.4013447447206
 30
0.0
 10
449.4846490121935
 20
391.401344660988
 30
0.0
 10
449.4845790747748
 20
391.401344593831
 30
0.0
  0
LINE
  5
19C
330
1F
100
AcDbEntity
  8
0
  6
Continuous
 62
     7
370
    25
100
AcDbLine
 10
417.6854255418
 20
453.1513446062
 30
0.0
 11
417.6854255418
 21
462.0730837367
 31
0.0
  0
SPLINE
  5
19D
330
1F
100
AcDbEntity
  8
0
  6
Continuous
 62
     7
370
    25
100
AcDbSpline
210
0.0
220
0.0
230
1.0
 70
    24
 71
     3
 72
     8
 73
     4
 74
     0
 42
0.000000001
 43
0.00000001
 40
0.0
 40
0.0
 40
0.0
 40
0.0
 40
1.0
 40
1.0
 40
1.0
 40
1.0
 10
444.5839137625945
 20
433.1390240020881
 30
0.0
 10
444.5733002570223
 20
434.6592719910714
 30
0.0
 10
444.5626867317744
 20
436.1795227983476
 30
0.0
 10
444.5520766628394
 20
437.6992785333151
 30
0.0
  0
LINE
  5
19E
330
1F
100
AcDbEntity
  8
0
  6
Continuous
 62
     7
370
    25
100
AcDbLine
 10
444.8666926538
 20
392.6345895592
 30
0.0
 11
444.5839137626
 21
433.1390240021
 31
0.0
  0
LINE
  5
19F
330
1F
100
AcDbEntity
  8
0
  6
Continuous
 62
     7
370
    25
100
AcDbLine
 10
447.9854255418
 20
389.9513446062
 30
0.0
 11
446.3749899509
 21
389.9513446062
 31
0.0
  0
ARC
  5
1A0
330
1F
100
AcDbEntity
  8
0
  6
Continuous
 62
     7
370
    25
100
AcDbCircle
 10
446.3749899509
 20
391.4513446062
 30
0.0
 40
1.50000000000004
100
AcDbArc
 50
180.4
 51
270.0
  0
SPLINE
  5
1A1
330
1F
100
AcDbEntity
  8
0
  6
Continuous
 62
     7
370
    25
100
AcDbSpline
210
0.0
220
0.0
230
1.0
 70
    24
 71
     3
 72
    26
 73
    22
 74
     0
 42
0.000000001
 43
0.00000001
 40
0.0
 40
0.0
 40
0.0
 40
0.0
 40
0.2500000000000512
 40
0.2500000000000512
 40
0.3750000000000825
 40
0.3750000000000825
 40
0.4375000000000934
 40
0.4375000000000934
 40
0.4687500000000955
 40
0.4687500000000955
 40
0.5000000000000976
 40
0.5000000000000976
 40
0.5312500000000997
 40
0.5312500000000997
 40
0.5625000000001017
 40
0.5625000000001017
 40
0.625000000000091
 40
0.625000000000091
 40
0.7500000000000672
 40
0.7500000000000672
 40
1.0
 40
1.0
 40
1.0
 40
1.0
 10
444.8750265048799
 20
391.4408727157731
 30
0.0
 10
444.8750265048799
 20
391.4408727157731
 30
0.0
 10
444.8750319607808
 20
391.4400912282314
 30
0.0
 10
444.8748664584681
 20
391.4637973031436
 30
0.0
 10
444.8747824005525
 20
391.4758375170286
 30
0.0
 10
444.8745718862344
 20
391.505990982028
 30
0.0
 10
444.8744873214732
 20
391.5181037950117
 30
0.0
 10
444.8743252561981
 20
391.541317558533
 30
0.0
 10
444.8742655323157
 20
391.5498722355403
 30
0.0
 10
444.8741261553358
 20
391.569836192981
 30
0.0
 10
444.8740558561158
 20
391.5799056509049
 30
0.0
 10
444.87382039671
 20
391.6136321784608
 30
0.0
 10
444.8736789508615
 20
391.6338924746692
 30
0.0
 10
444.8733982649121
 20
391.674097122158
 30
0.0
 10
444.873254645313
 20
391.6946687801466
 30
0.0
 10
444.8728179466225
 20
391.7572202436035
 30
0.0
 10
444.8725185738463
 20
391.8001015383923
 30
0.0
 10
444.8716087845656
 20
391.9304171362697
 30
0.0
 10
444.8709980651233
 20
392.0178948313327
 30
0.0
 10
444.8691598233723
 20
392.2811992886789
 30
0.0
 10
444.8679260526641
 20
392.4579210537229
 30
0.0
 10
444.866692653784
 20
392.6345895591754
 30
0.0
  0
ARC
  5
1A2
330
1F
100
AcDbEntity
  8
0
  6
Continuous
 62
     7
370
    25
100
AcDbCircle
 10
447.9854255418
 20
391.4513446062
 30
0.0
 40
1.500000000000014
100
AcDbArc
 50
270.0
 51
358.0897868283
  0
SPLINE
  5
1A3
330
1F
100
AcDbEntity
  8
0
  6
Continuous
 62
     7
370
    25
100
AcDbSpline
210
0.0
220
0.0
230
1.0
 70
     8
 71
     3
 72
     8
 73
     4
 74
     0
 42
0.000000001
 43
0.00000001
 40
0.0
 40
0.0
 40
0.0
 40
0.0
 40
1.0
 40
1.0
 40
1.0
 40
1.0
 10
430.6690761455516
 20
452.6913560550695
 30
0.0
 10
430.5563963669135
 20
452.7287398047369
 30
0.0
 10
430.4393104056548
 20
452.7655291290131
 30
0.0
 10
430.3175443664045
 20
452.8013446062201
 30
0.0
  0
SPLINE
  5
1A4
330
1F
100
AcDbEntity
  8
0
  6
Continuous
 62
     7
370
    25
100
AcDbSpline
210
0.0
220
0.0
230
1.0
 70
     8
 71
     3
 72
    17
 73
    13
 74
     0
 42
0.000000001
 43
0.00000001
 40
0.0
 40
0.0
 40
0.0
 40
0.0
 40
0.2500000000000021
 40
0.2500000000000021
 40
0.3750000000000028
 40
0.3750000000000028
 40
0.5000000000000037
 40
0.6250000000000044
 40
0.6250000000000044
 40
0.7500000000000052
 40
0.7500000000000052
 40
1.0
 40
1.0
 40
1.0
 40
1.0
 10
430.3175443664045
 20
452.80134460622
 30
0.0
 10
430.0283756136357
 20
452.8805832844428
 30
0.0
 10
429.7278695522893
 20
452.9505694782222
 30
0.0
 10
429.259341844586
 20
453.0384651259261
 30
0.0
 10
429.0990521796756
 20
453.0650726416227
 30
0.0
 10
428.7779855969007
 20
453.1112495216868
 30
0.0
 10
428.4576117193864
 20
453.1503330938873
 30
0.0
 10
428.1386376676367
 20
453.1757813830494
 30
0.0
 10
427.8204274249857
 20
453.1946662478073
 30
0.0
 10
427.6609059574768
 20
453.2008057255889
 30
0.0
 10
427.1967622681731
 20
453.2097159614755
 30
0.0
 10
426.9025072624938
 20
453.2033779777108
 30
0.0
 10
426.623624510443
 20
453.1884949132163
 30
0.0
  0
SPLINE
  5
1A5
330
1F
100
AcDbEntity
  8
0
  6
Continuous
 62
     7
370
    25
100
AcDbSpline
210
0.0
220
0.0
230
1.0
 70
     8
 71
     3
 72
    16
 73
    12
 74
     0
 42
0.000000001
 43
0.00000001
 40
0.0
 40
0.0
 40
0.0
 40
0.0
 40
0.2499999999999978
 40
0.2499999999999978
 40
0.3749999999999967
 40
0.3749999999999967
 40
0.4999999999999956
 40
0.4999999999999956
 40
0.7499999999999978
 40
0.7499999999999978
 40
1.0
 40
1.0
 40
1.0
 40
1.0
 10
424.685425541751
 20
452.9526636351902
 30
0.0
 10
424.685425541751
 20
452.952663330614
 30
0.0
 10
424.7297667808906
 20
452.9605821094241
 30
0.0
 10
424.8608935085509
 20
452.9826335745191
 30
0.0
 10
424.9160255471954
 20
452.9917562821967
 30
0.0
 10
425.0456322025422
 20
453.0124431419729
 30
0.0
 10
425.1201579862877
 20
453.0240195878121
 30
0.0
 10
425.3723593224498
 20
453.061396307986
 30
0.0
 10
425.5819518650235
 20
453.0904431190245
 30
0.0
 10
426.058744157585
 20
453.1453227449911
 30
0.0
 10
426.3277209109954
 20
453.1714581363415
 30
0.0
 10
426.6248178019967
 20
453.1882984591361
 30
0.0
  0
LINE
  5
1A6
330
1F
100
AcDbEntity
  8
0
  6
Continuous
 62
     7
370
    25
100
AcDbLine
 10
424.6854255418
 20
452.8013446062
 30
0.0
 11
430.3175443664
 21
452.8013446062
 31
0.0
  0
SPLINE
  5
1A7
330
1F
100
AcDbEntity
  8
0
  6
Continuous
 62
     7
370
    25
100
AcDbSpline
210
0.0
220
0.0
230
1.0
 70
     8
 71
     3
 72
    10
 73
     6
 74
     0
 42
0.000000001
 43
0.00000001
 40
0.0
 40
0.0
 40
0.0
 40
0.0
 40
0.5
 40
0.5
 40
1.0
 40
1.0
 40
1.0
 40
1.0
 10
430.6676893728373
 20
452.6919694398925
 30
0.0
 10
430.9262921560147
 20
452.6063506773129
 30
0.0
 10
431.1564454305853
 20
452.5193526643113
 30
0.0
 10
431.5661961519169
 20
452.3518157119581
 30
0.0
 10
431.7464814289268
 20
452.2707841573782
 30
0.0
 10
431.8948408846044
 20
452.2007972362988
 30
0.0
  0
SPLINE
  5
1A8
330
1F
100
AcDbEntity
  8
0
  6
Continuous
 62
     7
370
    25
100
AcDbSpline
210
0.0
220
0.0
230
1.0
 70
     8
 71
     3
 72
    16
 73
    12
 74
     0
 42
0.000000001
 43
0.00000001
 40
0.0
 40
0.0
 40
0.0
 40
0.0
 40
0.5000000000000012
 40
0.5000000000000012
 40
0.7500000000000001
 40
0.7500000000000001
 40
0.8750000000000104
 40
0.8750000000000104
 40
0.9375000000000052
 40
0.9375000000000052
 40
1.0
 40
1.0
 40
1.0
 40
1.0
 10
431.8948408846043
 20
452.2007972362989
 30
0.0
 10
431.9703775537994
 20
452.1651636537853
 30
0.0
 10
432.0284496382291
 20
452.1346445461523
 30
0.0
 10
432.0877248730379
 20
452.0990578022563
 30
0.0
 10
432.1029171959818
 20
452.0888538589973
 30
0.0
 10
432.1155745946989
 20
452.0772719754281
 30
0.0
 10
432.1181598430019
 20
452.0740175479908
 30
0.0
 10
432.1175432541895
 20
452.0706603738172
 30
0.0
 10
432.1166060158936
 20
452.0697902667983
 30
0.0
 10
432.1117142605921
 20
452.0690096602439
 30
0.0
 10
432.1083478615863
 20
452.068902876367
 30
0.0
 10
432.0992949958315
 20
452.0706221602339
 30
0.0
  0
SPLINE
  5
1A9
330
1F
100
AcDbEntity
  8
0
  6
Continuous
 62
     7
370
    25
100
AcDbSpline
210
0.0
220
0.0
230
1.0
 70
     8
 71
     3
 72
     8
 73
     4
 74
     0
 42
0.000000001
 43
0.00000001
 40
0.0
 40
0.0
 40
0.0
 40
0.0
 40
1.0
 40
1.0
 40
1.0
 40
1.0
 10
432.0102792724912
 20
452.0706221602341
 30
0.0
 10
432.3218666378443
 20
451.9789923787374
 30
0.0
 10
432.6302662718041
 20
451.8796928616073
 30
0.0
 10
432.935425541751
 20
451.7725969738719
 30
0.0
  0
SPLINE
  5
1AA
330
1F
100
AcDbEntity
  8
0
  6
Continuous
 62
     7
370
    25
100
AcDbSpline
210
0.0
220
0.0
230
1.0
 70
     8
 71
     3
 72
     8
 73
     4
 74
     0
 42
0.000000001
 43
0.00000001
 40
0.0
 40
0.0
 40
0.0
 40
0.0
 40
1.0
 40
1.0
 40
1.0
 40
1.0
 10
422.1491808624098
 20
452.9514395714901
 30
0.0
 10
422.9113259211749
 20
452.9531588986279
 30
0.0
 10
423.6735806421905
 20
452.9564780170275
 30
0.0
 10
424.435425541751
 20
452.9538185167171
 30
0.0
  0
SPLINE
  5
1AB
330
1F
100
AcDbEntity
  8
0
  6
Continuous
 62
     7
370
    25
100
AcDbSpline
210
0.0
220
0.0
230
1.0
 70
     8
 71
     3
 72
     8
 73
     4
 74
     0
 42
0.000000001
 43
0.00000001
 40
0.0
 40
0.0
 40
0.0
 40
0.0
 40
1.0
 40
1.0
 40
1.0
 40
1.0
 10
424.435425541751
 20
452.9538185167432
 30
0.0
 10
424.5187653207973
 20
452.9535275885408
 30
0.0
 10
424.6020991304072
 20
452.953149576111
 30
0.0
 10
424.685425541751
 20
452.9526636351902
 30
0.0
  0
LINE
  5
1AC
330
1F
100
AcDbEntity
  8
0
  6
Continuous
 62
     7
370
    25
100
AcDbLine
 10
373.5854255418
 20
510.9984689267
 30
0.0
 11
381.2922322947
 21
510.9581158121
 31
0.0
  0
LINE
  5
1AD
330
1F
100
AcDbEntity
  8
0
  6
Continuous
 62
     7
370
    25
100
AcDbLine
 10
373.5854255418
 20
508.1985073084
 30
0.0
 11
373.5854255418
 21
510.9984689267
 31
0.0
  0
LINE
  5
1AE
330
1F
100
AcDbEntity
  8
0
  6
Continuous
 62
     7
370
    25
100
AcDbLine
 10
381.2922322947
 20
440.9445734003
 30
0.0
 11
373.5854255418
 21
440.9042202858
 31
0.0
  0
LINE
  5
1AF
330
1F
100
AcDbEntity
  8
0
  6
Continuous
 62
     7
370
    25
100
AcDbLine
 10
373.5854255418
 20
440.9042202858
 30
0.0
 11
373.5854255418
 21
443.7041819041
 31
0.0
  0
LINE
  5
1B0
330
1F
100
AcDbEntity
  8
0
  6
Continuous
 62
     7
370
    25
100
AcDbLine
 10
373.5854255418
 20
443.7041819041
 30
0.0
 11
373.5854255418
 21
508.1985073084
 31
0.0
  0
LINE
  5
1B1
330
1F
100
AcDbEntity
  8
0
  6
Continuous
 62
     7
370
    25
100
AcDbLine
 10
382.5854255418
 20
508.1581541938
 30
0.0
 11
382.5854255418
 21
443.7445350186
 31
0.0
  0
ARC
  5
1B2
330
1F
100
AcDbEntity
  8
0
  6
Continuous
 62
     7
370
    25
100
AcDbCircle
 10
381.2854255418
 20
442.2445555803
 30
0.0
 40
1.299999999999987
100
AcDbArc
 50
270.3
 51
0.0
  0
LINE
  5
1B3
330
1F
100
AcDbEntity
  8
0
  6
Continuous
 62
     7
370
    25
100
AcDbLine
 10
382.5854255418
 20
443.7445350186
 30
0.0
 11
382.5854255418
 21
442.2445555803
 31
0.0
  0
ARC
  5
1B4
330
1F
100
AcDbEntity
  8
0
  6
Continuous
 62
     7
370
    25
100
AcDbCircle
 10
381.2854255418
 20
509.6581336322
 30
0.0
 40
1.299999999999987
100
AcDbArc
 50
0.0
 51
89.7
  0
LINE
  5
1B5
330
1F
100
AcDbEntity
  8
0
  6
Continuous
 62
     7
370
    25
100
AcDbLine
 10
382.5854255418
 20
509.6581336322
 30
0.0
 11
382.5854255418
 21
508.1581541938
 31
0.0
  0
LINE
  5
1B6
330
1F
100
AcDbEntity
  8
0
  6
Continuous
 62
     7
370
    25
100
AcDbLine
 10
624.5872611171
 20
487.437453199
 30
0.0
 11
624.5872611171
 21
476.9415729337
 31
0.0
  0
SPLINE
  5
1B7
330
1F
100
AcDbEntity
  8
0
  6
Continuous
 62
     7
370
    25
100
AcDbSpline
210
0.0
220
0.0
230
1.0
 70
     8
 71
     3
 72
    27
 73
    23
 74
     0
 42
0.000000001
 43
0.00000001
 40
-0.2542154615671169
 40
-0.2542154615671169
 40
-0.2542154615671169
 40
-0.2542154615671169
 40
-0.15
 40
-0.15
 40
-0.15
 40
0.0
 40
0.0
 40
0.0
 40
0.0293308144230906
 40
0.0586616288461812
 40
0.0879924432692718
 40
0.1173232576923624
 40
0.1173232576923624
 40
0.1606756052632727
 40
0.2040279528341829
 40
0.2473803004050932
 40
0.2907326479760034
 40
0.2907326479760034
 40
0.4680494859820026
 40
0.6453663239880018
 40
0.8226831619940008
 40
0.9999999649831142
 40
0.9999999649831142
 40
0.9999999649831142
 40
0.9999999649831142
 10
382.585425541751
 20
462.70134460622
 30
0.0
 10
387.9150178377193
 20
462.70134460622
 30
0.0
 10
393.2446101336876
 20
462.70134460622
 30
0.0
 10
398.5742024296559
 20
462.70134460622
 30
0.0
 10
406.2452219921456
 20
462.70134460622
 30
0.0
 10
413.9162415546352
 20
462.70134460622
 30
0.0
 10
421.587261117125
 20
462.70134460622
 30
0.0
 10
423.0872427919468
 20
462.70134460622
 30
0.0
 10
426.087206141587
 20
462.70134460622
 30
0.0
 10
430.5871717811947
 20
462.70134460622
 30
0.0
 10
435.0871786520535
 20
462.7013446062201
 30
0.0
 10
438.0872244654254
 20
462.70134460622
 30
0.0
 10
441.804387084219
 20
462.7013446062201
 30
0.0
 10
446.2387124582986
 20
462.7259232044873
 30
0.0
 10
452.8894796486387
 20
462.8365271922762
 30
0.0
 10
459.5385817797023
 20
463.0208524783911
 30
0.0
 10
463.9695838433892
 20
463.1928644118757
 30
0.0
 10
475.2437700258006
 20
463.6931264304966
 30
0.0
 10
493.3622672350795
 20
464.497086542707
 30
0.0
 10
520.5398900143309
 20
465.7030212516859
 30
0.0
 10
547.7174307714865
 20
466.9089523211533
 30
0.0
 10
565.8357639357665
 20
467.7129051543029
 30
0.0
 10
574.8949305179078
 20
468.1148815708779
 30
0.0
  0
SPLINE
  5
1B8
330
1F
100
AcDbEntity
  8
0
  6
Continuous
 62
     7
370
    25
100
AcDbSpline
210
0.0
220
0.0
230
1.0
 70
     8
 71
     3
 72
     8
 73
     4
 74
     0
 42
0.000000001
 43
0.00000001
 40
0.0727793026364925
 40
0.0727793026364925
 40
0.0727793026364925
 40
0.0727793026364925
 40
1.0
 40
1.0
 40
1.0
 40
1.0
 10
623.8966346997702
 20
475.9513104983942
 30
0.0
 10
620.9613798910518
 20
474.8987413301103
 30
0.0
 10
617.9957473454205
 20
473.9639843405373
 30
0.0
 10
614.9856413517331
 20
473.1425490478931
 30
0.0
  0
SPLINE
  5
1B9
330
1F
100
AcDbEntity
  8
0
  6
Continuous
 62
     7
370
    25
100
AcDbSpline
210
0.0
220
0.0
230
1.0
 70
    24
 71
     3
 72
    18
 73
    14
 74
     0
 42
0.000000001
 43
0.00000001
 40
-0.000002126398921
 40
-0.000002126398921
 40
-0.000002126398921
 40
-0.000002126398921
 40
0.0
 40
0.0
 40
0.0
 40
0.4275885759528201
 40
0.4413627440184678
 40
0.4674703602842568
 40
0.5038751990645237
 40
0.5336694441824861
 40
0.5666506397578235
 40
0.5795963365626782
 40
1.0
 40
1.0
 40
1.0
 40
1.0
 10
602.6755010980058
 20
470.9719391848575
 30
0.0
 10
602.6755155450306
 20
470.9719417322578
 30
0.0
 10
602.6755299920555
 20
470.971944279658
 30
0.0
 10
602.6755444390803
 20
470.9719468270583
 30
0.0
 10
605.5806356388994
 20
471.4841927870047
 30
0.0
 10
608.3380942549712
 20
471.9704071392046
 30
0.0
 10
610.6210809202928
 20
472.3729592848982
 30
0.0
 10
610.9840628174608
 20
472.4369627868776
 30
0.0
 10
611.4044636969913
 20
472.5110908046523
 30
0.0
 10
611.8337578172356
 20
472.5867869407109
 30
0.0
 10
612.1446849289308
 20
472.6416117795364
 30
0.0
 10
613.9807328516081
 20
472.9653565661779
 30
0.0
 10
614.9856413517367
 20
473.1425490478941
 30
0.0
 10
614.9856413517368
 20
473.1425490478941
 30
0.0
  0
SPLINE
  5
1BA
330
1F
100
AcDbEntity
  8
0
  6
Continuous
 62
     7
370
    25
100
AcDbSpline
210
0.0
220
0.0
230
1.0
 70
    24
 71
     3
 72
    16
 73
    12
 74
     0
 42
0.000000001
 43
0.00000001
 40
0.0
 40
0.0
 40
0.0
 40
0.0
 40
0.117135090759372
 40
0.237601086115657
 40
0.3547982901767281
 40
0.4754836478614587
 40
0.5911275690761837
 40
0.7100970292795818
 40
0.8259647078090769
 40
0.9451850720792205
 40
1.0
 40
1.0
 40
1.0
 40
1.0
 10
602.6754943231223
 20
470.971937990261
 30
0.0
 10
601.9845698586507
 20
470.8501093655431
 30
0.0
 10
600.5830734998905
 20
470.602987744129
 30
0.0
 10
598.5502465819613
 20
470.2445455113877
 30
0.0
 10
596.618302172792
 20
469.9038915868223
 30
0.0
 10
594.8859371244862
 20
469.5984288883697
 30
0.0
 10
593.3741542311949
 20
469.3318607753089
 30
0.0
 10
592.1344369553767
 20
469.1132651711318
 30
0.0
 10
591.2154404406847
 20
468.9512212904145
 30
0.0
 10
590.6446345886743
 20
468.8505728179589
 30
0.0
 10
590.5639545875215
 20
468.836346756952
 30
0.0
 10
590.538543256336
 20
468.8318660536483
 30
0.0
  0
LWPOLYLINE
  5
1BB
330
1F
100
AcDbEntity
  8
0
  6
Continuous
 62
     7
370
    25
100
AcDbPolyline
 90
        3
 70
   128
 43
0.0
 10
574.8949298045
 20
468.114687852
 10
582.6301891177
 20
468.4581390321
 10
585.3513972959
 20
468.5788979417
  0
LINE
  5
1BC
330
1F
100
AcDbEntity
  8
0
  6
Continuous
 62
     7
370
    25
100
AcDbLine
 10
590.0016066075
 20
468.7852600312
 30
0.0
 11
590.3654477527
 21
468.8014061902
 31
0.0
  0
LWPOLYLINE
  5
1BD
330
1F
100
AcDbEntity
  8
0
  6
Continuous
 62
     7
370
    25
100
AcDbPolyline
 90
        3
 70
   128
 43
0.0
 10
613.2932191215
 20
488.5928771035
 10
602.7924899586
 20
488.6274460137
 10
594.4259794031
 20
488.6545462126
  0
SPLINE
  5
1BE
330
1F
100
AcDbEntity
  8
0
  6
Continuous
 62
     7
370
    25
100
AcDbSpline
210
0.0
220
0.0
230
1.0
 70
     8
 71
     3
 72
    16
 73
    12
 74
     0
 42
0.000000001
 43
0.00000001
 40
0.0
 40
0.0
 40
0.0
 40
0.0
 40
0.0321661184605248
 40
0.0828017397943783
 40
0.1327759010320003
 40
0.182500747649388
 40
0.2324877990091063
 40
0.3704486503825067
 40
0.508028451770842
 40
0.7539188332900415
 40
1.0
 40
1.0
 40
1.0
 40
1.0
 10
588.9171187764781
 20
488.6727025600841
 30
0.0
 10
586.7048251571408
 20
488.6800344722782
 30
0.0
 10
581.0099583412417
 20
488.6989082162904
 30
0.0
 10
571.8780134773962
 20
488.7297174440188
 30
0.0
 10
561.5384290288084
 20
488.7643790167355
 30
0.0
 10
551.2434505739621
 20
488.7986720378698
 30
0.0
 10
534.8969927060982
 20
488.8509593302434
 30
0.0
 10
512.5081427318098
 20
488.9301354893577
 30
0.0
 10
476.6455727487179
 20
489.0350180338776
 30
0.0
 10
433.346937780568
 20
489.2330326466065
 30
0.0
 10
399.5103035387385
 20
489.2119100167812
 30
0.0
 10
382.585425541751
 20
489.2013446062202
 30
0.0
  0
ARC
  5
1BF
330
1F
100
AcDbEntity
  8
0
  6
Continuous
 62
     7
370
    25
100
AcDbCircle
 10
623.54472932
 20
476.9326540425
 30
0.0
 40
1.042531797086231
100
AcDbArc
 50
289.7276052245
 51
359.9999999315
  0
ARC
  5
1C0
330
1F
100
AcDbEntity
  8
0
  6
Continuous
 62
     7
370
    25
100
AcDbCircle
 10
623.5217969365
 20
487.4451908314
 30
0.0
 40
1.065464180575869
100
AcDbArc
 50
19.8483732748
 51
73.3806362405
  0
LINE
  5
1C1
330
1F
100
AcDbEntity
  8
0
  6
Continuous
 62
     7
370
    25
100
AcDbLine
 10
624.5872611171
 20
487.4444212786
 30
0.0
 11
624.5872611171
 21
487.4420979895
 31
0.0
  0
LINE
  5
1C2
330
1F
100
AcDbEntity
  8
0
  6
Continuous
 62
     7
370
    25
100
AcDbLine
 10
615.6519946865
 20
466.4840862535
 30
0.0
 11
608.5572737166
 21
465.2330955259
 31
0.0
  0
LINE
  5
1C3
330
1F
100
AcDbEntity
  8
0
  6
Continuous
 62
     7
370
    25
100
AcDbLine
 10
608.5572737166
 20
465.2330955259
 30
0.0
 11
607.9629368281
 21
468.6037475167
 31
0.0
  0
LINE
  5
1C4
330
1F
100
AcDbEntity
  8
0
  6
Continuous
 62
     7
370
    25
100
AcDbLine
 10
598.5169926955
 20
466.9381727078
 30
0.0
 11
607.9629368281
 21
468.6037475167
 31
0.0
  0
LINE
  5
1C5
330
1F
100
AcDbEntity
  8
0
  6
Continuous
 62
     7
370
    25
100
AcDbLine
 10
598.5169926955
 20
466.9381727078
 30
0.0
 11
599.111329584
 21
463.5675207171
 31
0.0
  0
LINE
  5
1C6
330
1F
100
AcDbEntity
  8
0
  6
Continuous
 62
     7
370
    25
100
AcDbLine
 10
599.111329584
 20
463.5675207171
 30
0.0
 11
592.0166086142
 21
462.3165299895
 31
0.0
  0
SPLINE
  5
1C7
330
1F
100
AcDbEntity
  8
0
  6
Continuous
 62
     7
370
    25
100
AcDbSpline
210
0.0
220
0.0
230
1.0
 70
     8
 71
     3
 72
    10
 73
     6
 74
     0
 42
0.000000001
 43
0.00000001
 40
0.0
 40
0.0
 40
0.0
 40
0.0
 40
0.5
 40
0.5
 40
1.0
 40
1.0
 40
1.0
 40
1.0
 10
603.9345574724588
 20
463.8317291001957
 30
0.0
 10
604.7296664855824
 20
463.9719282718139
 30
0.0
 10
605.5248960078084
 20
464.1659293744123
 30
0.0
 10
607.0674709511145
 20
464.6400479570686
 30
0.0
 10
607.8196766704018
 20
464.9201104663608
 30
0.0
 10
608.5572737166373
 20
465.2330955259181
 30
0.0
  0
SPLINE
  5
1C8
330
1F
100
AcDbEntity
  8
0
  6
Continuous
 62
     7
370
    25
100
AcDbSpline
210
0.0
220
0.0
230
1.0
 70
     8
 71
     3
 72
     8
 73
     4
 74
     0
 42
0.000000001
 43
0.00000001
 40
0.0
 40
0.0
 40
0.0
 40
0.0
 40
1.0
 40
1.0
 40
1.0
 40
1.0
 10
599.1113295840398
 20
463.5675207170764
 30
0.0
 10
600.7314384852036
 20
463.4828128187863
 30
0.0
 10
602.3406273327197
 20
463.5506762111952
 30
0.0
 10
603.9345574724588
 20
463.8317291001957
 30
0.0
  0
LINE
  5
1C9
330
1F
100
AcDbEntity
  8
0
  6
Continuous
 62
     7
370
    25
100
AcDbLine
 10
614.7674427556
 20
465.7418590545
 30
0.0
 11
603.9345574725
 21
463.8317291002
 31
0.0
  0
LINE
  5
1CA
330
1F
100
AcDbEntity
  8
0
  6
Continuous
 62
     7
370
    25
100
AcDbLine
 10
603.9345574725
 20
463.8317291002
 30
0.0
 11
593.1016721893
 21
461.9215991459
 31
0.0
  0
LINE
  5
1CB
330
1F
100
AcDbEntity
  8
0
  6
Continuous
 62
     7
370
    25
100
AcDbLine
 10
624.5872611171
 20
487.4444147222
 30
0.0
 11
624.5872611171
 21
487.4451908314
 31
0.0
  0
LINE
  5
1CC
330
1F
100
AcDbEntity
  8
0
  6
Continuous
 62
     8
370
    18
100
AcDbLine
 10
447.9854255418
 20
489.1631036037
 30
0.0
 11
447.9854255418
 21
498.9513446062
 31
0.0
  0
LINE
  5
1CD
330
1F
100
AcDbEntity
  8
0
  6
Continuous
 62
     8
370
    18
100
AcDbLine
 10
431.7650255448
 20
461.990283928
 30
0.0
 11
431.7226563293
 21
461.9513446062
 31
0.0
  0
LINE
  5
1CE
330
1F
100
AcDbEntity
  8
0
  6
Continuous
 62
     8
370
    18
100
AcDbLine
 10
417.8854255418
 20
461.9513446062
 30
0.0
 11
417.8854255418
 21
462.6543228321
 31
0.0
  0
LWPOLYLINE
  5
1CF
330
1F
100
AcDbEntity
  8
0
  6
Continuous
 62
     8
370
    18
100
AcDbPolyline
 90
        9
 70
   128
 43
0.0
 10
417.6854255418
 20
462.0730837367
 10
417.6892684857
 20
462.0493336105
 10
417.7006496352
 20
462.0264961884
 10
417.7191316193
 20
462.0054490996
 10
417.7440041855
 20
461.987001172
 10
417.7743114951
 20
461.9718613491
 10
417.8088888553
 20
461.9606114457
 10
417.8464074773
 20
461.9536837895
 10
417.8854255418
 20
461.9513446062
  0
LINE
  5
1D0
330
1F
100
AcDbEntity
  8
0
  6
Continuous
 62
     8
370
    18
100
AcDbLine
 10
409.6370016696
 20
498.2605859265
 30
0.0
 11
409.6370016696
 21
489.2262728672
 31
0.0
  0
LINE
  5
1D1
330
1F
100
AcDbEntity
  8
0
  6
Continuous
 62
     8
370
    18
100
AcDbLine
 10
409.6370016696
 20
462.6098944503
 30
0.0
 11
409.6370016696
 21
453.6421032859
 31
0.0
  0
SPLINE
  5
1D2
330
1F
100
AcDbEntity
  8
0
  6
Continuous
 62
     8
370
    18
100
AcDbSpline
210
0.0
220
0.0
230
1.0
 70
    24
 71
     3
 72
    12
 73
     8
 74
     0
 42
0.000000001
 43
0.00000001
 40
0.0
 40
0.0
 40
0.0
 40
0.0
 40
0.1875405445591645
 40
0.3885623503682962
 40
0.5903154570214119
 40
0.7947998536847719
 40
0.9999999999999999
 40
0.9999999999999999
 40
0.9999999999999999
 40
0.9999999999999999
 10
447.9854255417351
 20
462.7728634444151
 30
0.0
 10
447.9854255417345
 20
461.2917479321208
 30
0.0
 10
447.985425541733
 20
458.2230476359963
 30
0.0
 10
447.9854255417307
 20
453.4737011141729
 30
0.0
 10
447.9854255417291
 20
448.5308679021585
 30
0.0
 10
447.9854255417318
 20
443.5069390222762
 30
0.0
 10
447.985425541736
 20
440.1273414857866
 30
0.0
 10
447.9854255417381
 20
438.4345905122393
 30
0.0
  0
LINE
  5
1D3
330
1F
100
AcDbEntity
  8
0
  6
Continuous
 62
     8
370
    18
100
AcDbLine
 10
409.6985055438
 20
498.1898338127
 30
0.0
 11
409.6985055438
 21
489.2208636245
 31
0.0
  0
LINE
  5
1D4
330
1F
100
AcDbEntity
  8
0
  6
Continuous
 62
     8
370
    18
100
AcDbLine
 10
409.6985055438
 20
462.6106527588
 30
0.0
 11
409.6985055438
 21
453.7128553997
 31
0.0
  0
SPLINE
  5
1D5
330
1F
100
AcDbEntity
  8
0
  6
Continuous
 62
     8
370
    18
100
AcDbSpline
210
0.0
220
0.0
230
1.0
 70
     8
 71
     3
 72
    65
 73
    61
 74
     0
 42
0.000000001
 43
0.00000001
 40
0.0
 40
0.0
 40
0.0
 40
0.0
 40
0.0736009204000092
 40
0.109945565631164
 40
0.1212862601636843
 40
0.144729967496404
 40
0.177565220060077
 40
0.1887427819135232
 40
0.2113286776030285
 40
0.2453600270328467
 40
0.2578026169907324
 40
0.2781513817048292
 40
0.2982917367168759
 40
0.3047468691803636
 40
0.3176269731291493
 40
0.3308350752169645
 40
0.337475203233592
 40
0.3508335864992291
 40
0.3696657571255475
 40
0.375879549819978
 40
0.4144224611570724
 40
0.4336827034564359
 40
0.4400137019390569
 40
0.4542886908007221
 40
0.4680724228400474
 40
0.4716378705826636
 40
0.4787792274295042
 40
0.4891332323055267
 40
0.4962812527550092
 40
0.5010230063869364
 40
0.5055238467257059
 40
0.5103425544878815
 40
0.5242854779167162
 40
0.5312951544158138
 40
0.5336794594170418
 40
0.5427739500528267
 40
0.5524753314277085
 40
0.5571527220455365
 40
0.5660635876331795
 40
0.575835560680308
 40
0.5806196600018931
 40
0.594585827475784
 40
0.6042073906695432
 40
0.6091971594419745
 40
0.6315105644765033
 40
0.6508302706896819
 40
0.6618527436503612
 40
0.6832316438346234
 40
0.7022493963614818
 40
0.7128992916283152
 40
0.735565720266949
 40
0.7568029796461188
 40
0.7780000468964814
 40
0.8300077725270915
 40
0.8494456879107178
 40
0.8554657939435715
 40
0.8807402375200114
 40
0.932617526752878
 40
0.9588115898516343
 40
1.0
 40
1.0
 40
1.0
 40
1.0
 10
449.484938354788
 20
392.6447999861286
 30
0.0
 10
449.4849495666114
 20
392.5905522063546
 30
0.0
 10
449.4849663149112
 20
392.5095164964874
 30
0.0
 10
449.4850284124431
 20
392.4201307388975
 30
0.0
 10
449.4850728032151
 20
392.3677186780954
 30
0.0
 10
449.4851201138301
 20
392.3179003633248
 30
0.0
 10
449.4851716201392
 20
392.268221676526
 30
0.0
 10
449.4852204364475
 20
392.2192050247102
 30
0.0
 10
449.4852664916631
 20
392.1693352463183
 30
0.0
 10
449.4853013813261
 20
392.1186001279182
 30
0.0
 10
449.4853156166465
 20
392.0695925080363
 30
0.0
 10
449.4853146665636
 20
392.0308274752535
 30
0.0
 10
449.4852978972666
 20
391.9965288089798
 30
0.0
 10
449.4852734909403
 20
391.9677469596483
 30
0.0
 10
449.4852469571148
 20
391.9440580432519
 30
0.0
 10
449.4852107549334
 20
391.9202961557526
 30
0.0
 10
449.4851660542467
 20
391.8962432016856
 30
0.0
 10
449.485103915969
 20
391.8681866951482
 30
0.0
 10
449.48502576116
 20
391.8405675536231
 30
0.0
 10
449.4848726343832
 20
391.7950455305462
 30
0.0
 10
449.4846774225472
 20
391.7496046743668
 30
0.0
 10
449.4844329582211
 20
391.7050080698743
 30
0.0
 10
449.4842717566379
 20
391.6776526169782
 30
0.0
 10
449.4841291623341
 20
391.6543612976624
 30
0.0
 10
449.483992655497
 20
391.6333747587942
 30
0.0
 10
449.4838844125343
 20
391.6173570544282
 30
0.0
 10
449.4837935575638
 20
391.6037655724266
 30
0.0
 10
449.483706904194
 20
391.5884924976003
 30
0.0
 10
449.483663784354
 20
391.5757191172434
 30
0.0
 10
449.4836587162279
 20
391.567086797737
 30
0.0
 10
449.4836675311983
 20
391.5601295955979
 30
0.0
 10
449.4837024019382
 20
391.5493623492856
 30
0.0
 10
449.483778993684
 20
391.5389667625761
 30
0.0
 10
449.4838701888631
 20
391.5307954258565
 30
0.0
 10
449.4839472053951
 20
391.5246722034065
 30
0.0
 10
449.4840413456819
 20
391.518129498839
 30
0.0
 10
449.4841462681811
 20
391.5114320006589
 30
0.0
 10
449.4842461629896
 20
391.5050558671231
 30
0.0
 10
449.48433785144
 20
391.4987702667102
 30
0.0
 10
449.484427141116
 20
391.4928774319569
 30
0.0
 10
449.4845315606036
 20
391.4860590634155
 30
0.0
 10
449.4846302078614
 20
391.4797096478119
 30
0.0
 10
449.4847222373857
 20
391.4738120200527
 30
0.0
 10
449.4848345283785
 20
391.4665482282429
 30
0.0
 10
449.4849607029846
 20
391.4581948867115
 30
0.0
 10
449.485075689526
 20
391.4499775276631
 30
0.0
 10
449.4851685492758
 20
391.4426524024095
 30
0.0
 10
449.4852418874137
 20
391.4361680634154
 30
0.0
 10
449.4852931606662
 20
391.4306170173562
 30
0.0
 10
449.48533140296
 20
391.4255440069927
 30
0.0
 10
449.4853546991078
 20
391.4209153368226
 30
0.0
 10
449.485360173153
 20
391.4163160109879
 30
0.0
 10
449.4853397786263
 20
391.4107442570588
 30
0.0
 10
449.4852834595246
 20
391.4070186756168
 30
0.0
 10
449.4852218057247
 20
391.4049242932392
 30
0.0
 10
449.4851794421116
 20
391.4037690356804
 30
0.0
 10
449.4851077579489
 20
391.4023250177548
 30
0.0
 10
449.4850168132986
 20
391.401554961468
 30
0.0
 10
449.4849208014143
 20
391.4013093057916
 30
0.0
 10
449.484872574248
 20
391.4013314032687
 30
0.0
 10
449.4848430947675
 20
391.401344910638
 30
0.0
  0
LINE
  5
1D6
330
1F
100
AcDbEntity
  8
0
  6
Continuous
 62
     8
370
    18
100
AcDbLine
 10
449.4845919768
 20
394.6902072037
 30
0.0
 11
449.4845919768
 21
392.6447996514
 31
0.0
  0
LINE
  5
1D7
330
1F
100
AcDbEntity
  8
0
  6
Continuous
 62
     8
370
    18
100
AcDbLine
 10
449.4845919768
 20
402.6974882346
 30
0.0
 11
449.4845919768
 21
394.6902072037
 31
0.0
  0
LINE
  5
1D8
330
1F
100
AcDbEntity
  8
0
  6
Continuous
 62
     8
370
    18
100
AcDbLine
 10
449.4845919768
 20
412.1226100861
 30
0.0
 11
449.4845919768
 21
402.6974882346
 31
0.0
  0
LINE
  5
1D9
330
1F
100
AcDbEntity
  8
0
  6
Continuous
 62
     8
370
    18
100
AcDbLine
 10
449.4845919768
 20
420.9781009404
 30
0.0
 11
449.4845919768
 21
412.1226100861
 31
0.0
  0
LINE
  5
1DA
330
1F
100
AcDbEntity
  8
0
  6
Continuous
 62
     8
370
    18
100
AcDbLine
 10
449.4845919768
 20
433.1492340944
 30
0.0
 11
449.4845919768
 21
420.9781009404
 31
0.0
  0
SPLINE
  5
1DB
330
1F
100
AcDbEntity
  8
0
  6
Continuous
 62
     8
370
    18
100
AcDbSpline
210
0.0
220
0.0
230
1.0
 70
     8
 71
     3
 72
    12
 73
     8
 74
     0
 42
0.000000001
 43
0.00000001
 40
0.0
 40
0.0
 40
0.0
 40
0.0
 40
0.1999975920943962
 40
0.3999984185385638
 40
0.6000006442684411
 40
0.8000011564343161
 40
1.0
 40
1.0
 40
1.0
 40
1.0
 10
449.4847027660867
 20
438.4679606907968
 30
0.0
 10
449.4846745267109
 20
438.1134331249954
 30
0.0
 10
449.4846180475026
 20
437.4043722599929
 30
0.0
 10
449.4845153671217
 20
436.3406317742626
 30
0.0
 10
449.4844230336246
 20
435.2768479357813
 30
0.0
 10
449.4843519339749
 20
434.2130415268682
 30
0.0
 10
449.4843502448637
 20
433.5038354318106
 30
0.0
 10
449.4843494003116
 20
433.149233863511
 30
0.0
  0
LINE
  5
1DC
330
1F
100
AcDbEntity
  8
0
  6
Continuous
 62
     8
370
    18
100
AcDbLine
 10
417.8854255418
 20
461.9513446062
 30
0.0
 11
417.8854255418
 21
452.9513446062
 31
0.0
  0
SPLINE
  5
1DD
330
1F
100
AcDbEntity
  8
0
  6
Continuous
 62
     8
370
    18
100
AcDbSpline
210
0.0
220
0.0
230
1.0
 70
     8
 71
     3
 72
     8
 73
     4
 74
     0
 42
0.000000001
 43
0.00000001
 40
0.0
 40
0.0
 40
0.0
 40
0.0
 40
1.0
 40
1.0
 40
1.0
 40
1.0
 10
425.6132532399024
 20
453.2080702826073
 30
0.0
 10
425.6014144633859
 20
453.2081333288716
 30
0.0
 10
425.5895720569123
 20
453.2081923139265
 30
0.0
 10
425.5777262375533
 20
453.2082474806328
 30
0.0
  0
LINE
  5
1DE
330
1F
100
AcDbEntity
  8
0
  6
Continuous
 62
     8
370
    18
100
AcDbLine
 10
425.5777262402
 20
453.2082985801
 30
0.0
 11
425.5664219417
 21
453.208296691
 31
0.0
  0
SPLINE
  5
1DF
330
1F
100
AcDbEntity
  8
0
  6
Continuous
 62
     8
370
    18
100
AcDbSpline
210
0.0
220
0.0
230
1.0
 70
     8
 71
     3
 72
    13
 73
     9
 74
     0
 42
0.000000001
 43
0.00000001
 40
0.0
 40
0.0
 40
0.0
 40
0.0
 40
0.1496444354135264
 40
0.3003652451011883
 40
0.4513211805314964
 40
0.6023551285471364
 40
0.8023358987253553
 40
0.9999999999999999
 40
0.9999999999999999
 40
0.9999999999999999
 40
0.9999999999999999
 10
425.566421938522
 20
453.2082962723716
 30
0.0
 10
425.5053829096565
 20
453.2083389733616
 30
0.0
 10
425.3828658055942
 20
453.2084246824847
 30
0.0
 10
425.1993600586696
 20
453.206132628434
 30
0.0
 10
425.0163984190366
 20
453.2022974428706
 30
0.0
 10
424.8154602290677
 20
453.1962959232083
 30
0.0
 10
424.5984709115255
 20
453.1879268855355
 30
0.0
 10
424.4456582519098
 20
453.1801181288949
 30
0.0
 10
424.3696970634354
 20
453.1762364973835
 30
0.0
  0
SPLINE
  5
1E0
330
1F
100
AcDbEntity
  8
0
  6
Continuous
 62
     8
370
    18
100
AcDbSpline
210
0.0
220
0.0
230
1.0
 70
     8
 71
     3
 72
    14
 73
    10
 74
     0
 42
0.000000001
 43
0.00000001
 40
0.0
 40
0.0
 40
0.0
 40
0.0
 40
0.0604455328729223
 40
0.1205325426810541
 40
0.3254544369031089
 40
0.5250477427040179
 40
0.6880784828206421
 40
0.8452635252345049
 40
1.0
 40
1.0
 40
1.0
 40
1.0
 10
424.3696970634354
 20
453.1762364973835
 30
0.0
 10
424.3373408292524
 20
453.1744551179966
 30
0.0
 10
424.2728202767433
 20
453.1709029251912
 30
0.0
 10
424.1013010224041
 20
453.1605857648854
 30
0.0
 10
423.8634507034967
 20
453.1442129466773
 30
0.0
 10
423.5896817167175
 20
453.1218217925656
 30
0.0
 10
423.3552124089133
 20
453.1001169569839
 30
0.0
 10
423.1540556808993
 20
453.0797619037294
 30
0.0
 10
423.0346467022464
 20
453.0664842392969
 30
0.0
 10
422.9754108900486
 20
453.0598975215674
 30
0.0
  0
SPLINE
  5
1E1
330
1F
100
AcDbEntity
  8
0
  6
Continuous
 62
     8
370
    18
100
AcDbSpline
210
0.0
220
0.0
230
1.0
 70
     8
 71
     3
 72
    16
 73
    12
 74
     0
 42
0.000000001
 43
0.00000001
 40
0.0
 40
0.0
 40
0.0
 40
0.0
 40
0.0543222321392904
 40
0.1080400237400461
 40
0.2724667967926664
 40
0.3261498288371663
 40
0.5439239005558254
 40
0.65416663812296
 40
0.7632295150524853
 40
0.8818548516472055
 40
1.0
 40
1.0
 40
1.0
 40
1.0
 10
422.9754108900486
 20
453.0598975215674
 30
0.0
 10
422.9471990214351
 20
453.0566679864637
 30
0.0
 10
422.8910891961439
 20
453.0502448511186
 30
0.0
 10
422.7577473692604
 20
453.0343897073988
 30
0.0
 10
422.6378361358356
 20
453.0192905124974
 30
0.0
 10
422.4696884187676
 20
452.9971973882303
 30
0.0
 10
422.3485117068475
 20
452.9803797387322
 30
0.0
 10
422.2489640701367
 20
452.966080066534
 30
0.0
 10
422.193018004753
 20
452.9578947460575
 30
0.0
 10
422.1563834705852
 20
452.9524748100483
 30
0.0
 10
422.151768917187
 20
452.951784613741
 30
0.0
 10
422.1494663198175
 20
452.9514402154723
 30
0.0
  0
SPLINE
  5
1E2
330
1F
100
AcDbEntity
  8
0
  6
Continuous
 62
     8
370
    18
100
AcDbSpline
210
0.0
220
0.0
230
1.0
 70
     8
 71
     3
 72
    27
 73
    23
 74
     0
 42
0.000000001
 43
0.00000001
 40
0.0
 40
0.0
 40
0.0
 40
0.0
 40
0.0498821332506078
 40
0.0998289399242264
 40
0.2436417881098738
 40
0.3282627716557444
 40
0.3665817328128282
 40
0.3836733781954887
 40
0.3912405806403902
 40
0.397206783780348
 40
0.3972877686024242
 40
0.397956513002749
 40
0.3998415493944656
 40
0.4070158699735903
 40
0.4349647302923557
 40
0.510936478241391
 40
0.5914796873715146
 40
0.6525190580509036
 40
0.7038238770396348
 40
0.821448054166602
 40
0.9415016799806815
 40
0.9999999999999999
 40
0.9999999999999999
 40
0.9999999999999999
 40
0.9999999999999999
 10
431.1976524062322
 20
452.5702682851356
 30
0.0
 10
431.564948715837
 20
452.4748481950651
 30
0.0
 10
432.3000175438222
 20
452.2838843004106
 30
0.0
 10
434.0560259157446
 20
451.6896020253973
 30
0.0
 10
435.9838601967812
 20
450.7810665798334
 30
0.0
 10
437.6642568647453
 20
449.6362262956064
 30
0.0
 10
438.4895473658178
 20
448.9623516978127
 30
0.0
 10
438.8482626881424
 20
448.6449145437346
 30
0.0
 10
439.019945117273
 20
448.4875191899332
 30
0.0
 10
439.0955649725833
 20
448.4167916221041
 30
0.0
 10
439.1327334408157
 20
448.3817598686919
 30
0.0
 10
439.1473129747242
 20
448.3680141745413
 30
0.0
 10
439.2010457881383
 20
448.3171584500496
 30
0.0
 10
439.4041944906828
 20
448.1223548846711
 30
0.0
 10
439.9989873793127
 20
447.5220337902895
 30
0.0
 10
440.9101178700936
 20
446.4512865166233
 30
0.0
 10
441.8372016824236
 20
445.0764646437711
 30
0.0
 10
442.5350551492496
 20
443.7844363488036
 30
0.0
 10
443.2524275475467
 20
442.1876751797987
 30
0.0
 10
443.9227675357811
 20
440.0893961868873
 30
0.0
 10
444.3790007345429
 20
437.8724398993519
 30
0.0
 10
444.4443278680933
 20
436.5151215020277
 30
0.0
 10
444.4657307575803
 20
436.0704282470527
 30
0.0
  0
SPLINE
  5
1E3
330
1F
100
AcDbEntity
  8
0
  6
Continuous
 62
     8
370
    18
100
AcDbSpline
210
0.0
220
0.0
230
1.0
 70
     8
 71
     3
 72
    22
 73
    18
 74
     0
 42
0.000000001
 43
0.00000001
 40
0.0
 40
0.0
 40
0.0
 40
0.0
 40
0.125
 40
0.125
 40
0.25
 40
0.25
 40
0.375
 40
0.375
 40
0.5
 40
0.5
 40
0.625
 40
0.625
 40
0.75
 40
0.75
 40
0.875
 40
0.875
 40
1.0
 40
1.0
 40
1.0
 40
1.0
 10
426.1732101380024
 20
453.2018148227199
 30
0.0
 10
426.3560956189248
 20
453.2182895595691
 30
0.0
 10
426.5482154065419
 20
453.2316292462821
 30
0.0
 10
426.9509028823941
 20
453.2492933872292
 30
0.0
 10
427.1636232214675
 20
453.2535812316616
 30
0.0
 10
427.596502882952
 20
453.2501486113291
 30
0.0
 10
427.816307747906
 20
453.2425559705107
 30
0.0
 10
428.2624115458956
 20
453.214118156622
 30
0.0
 10
428.4908690509047
 20
453.1929817284894
 30
0.0
 10
428.9428771184234
 20
453.1373196522097
 30
0.0
 10
429.1656440571176
 20
453.1030463375056
 30
0.0
 10
429.6049863732694
 20
453.0221909100212
 30
0.0
 10
429.8233366021269
 20
452.9751415836407
 30
0.0
 10
430.2439949481462
 20
452.8718532771416
 30
0.0
 10
430.4459206003709
 20
452.815858819077
 30
0.0
 10
430.8341013645954
 20
452.6972808015905
 30
0.0
 10
431.0212373816972
 20
452.6343557266936
 30
0.0
 10
431.1982149352208
 20
452.5701316939792
 30
0.0
  0
SPLINE
  5
1E4
330
1F
100
AcDbEntity
  8
0
  6
Continuous
 62
     8
370
    18
100
AcDbSpline
210
0.0
220
0.0
230
1.0
 70
     8
 71
     3
 72
     9
 73
     5
 74
     0
 42
0.000000001
 43
0.00000001
 40
0.0
 40
0.0
 40
0.0
 40
0.0
 40
0.499916509682789
 40
1.0
 40
1.0
 40
1.0
 40
1.0
 10
425.6117626925865
 20
453.2077599270076
 30
0.0
 10
425.705374025076
 20
453.2074986117277
 30
0.0
 10
425.8926279578357
 20
453.206975893884
 30
0.0
 10
426.0798509417264
 20
453.203531612763
 30
0.0
 10
426.173478064978
 20
453.2018091846383
 30
0.0
  0
SPLINE
  5
1E5
330
1F
100
AcDbEntity
  8
0
  6
Continuous
 62
     8
370
    18
100
AcDbSpline
210
0.0
220
0.0
230
1.0
 70
    24
 71
     3
 72
    10
 73
     6
 74
     0
 42
0.000000001
 43
0.00000001
 40
0.0
 40
0.0
 40
0.0
 40
0.0
 40
0.5
 40
0.5
 40
1.0
 40
1.0
 40
1.0
 40
1.0
 10
447.9854255417445
 20
438.4345905122393
 30
0.0
 10
447.9854255417446
 20
437.5480564802629
 30
0.0
 10
447.9854255417445
 20
436.6666591733227
 30
0.0
 10
447.9854255417446
 20
434.9042919475817
 30
0.0
 10
447.9854255417446
 20
434.0231963958857
 30
0.0
 10
447.9854255417446
 20
433.1416419468167
 30
0.0
  0
LINE
  5
1E6
330
1F
100
AcDbEntity
  8
0
  6
Continuous
 62
     8
370
    18
100
AcDbLine
 10
447.9854255418
 20
433.1416419468
 30
0.0
 11
447.9854255418
 21
392.6372075039
 31
0.0
  0
SPLINE
  5
1E7
330
1F
100
AcDbEntity
  8
0
  6
Continuous
 62
     8
370
    18
100
AcDbSpline
210
0.0
220
0.0
230
1.0
 70
    24
 71
     3
 72
    22
 73
    18
 74
     0
 42
0.000000001
 43
0.00000001
 40
0.0
 40
0.0
 40
0.0
 40
0.0
 40
0.125
 40
0.125
 40
0.25
 40
0.25
 40
0.375
 40
0.375
 40
0.5
 40
0.5
 40
0.625
 40
0.625
 40
0.75
 40
0.75
 40
0.875
 40
0.875
 40
1.0
 40
1.0
 40
1.0
 40
1.0
 10
447.985425541751
 20
392.6372075038752
 30
0.0
 10
447.985425541751
 20
392.4488158908962
 30
0.0
 10
447.985425541751
 20
392.2593947119918
 30
0.0
 10
447.985425541751
 20
391.8772142298539
 30
0.0
 10
447.985425541751
 20
391.6848952601875
 30
0.0
 10
447.985425541751
 20
391.3133044491812
 30
0.0
 10
447.985425541751
 20
391.1344729414084
 30
0.0
 10
447.985425541751
 20
390.8098158778275
 30
0.0
 10
447.985425541751
 20
390.6644306555868
 30
0.0
 10
447.985425541751
 20
390.4169885506762
 30
0.0
 10
447.985425541751
 20
390.3142858032509
 30
0.0
 10
447.985425541751
 20
390.1500559725976
 30
0.0
 10
447.985425541751
 20
390.0886421541641
 30
0.0
 10
447.985425541751
 20
390.0022553128065
 30
0.0
 10
447.985425541751
 20
389.9773955546772
 30
0.0
 10
447.985425541751
 20
389.9518835689867
 30
0.0
 10
447.985425541751
 20
389.9513446062201
 30
0.0
 10
447.985425541751
 20
389.9513446062201
 30
0.0
  0
SPLINE
  5
1E8
330
1F
100
AcDbEntity
  8
0
  6
Continuous
 62
     8
370
    18
100
AcDbSpline
210
0.0
220
0.0
230
1.0
 70
     8
 71
     3
 72
     9
 73
     5
 74
     0
 42
0.000000001
 43
0.00000001
 40
0.0
 40
0.0
 40
0.0
 40
0.0
 40
0.4999483729612128
 40
0.9999999999999999
 40
0.9999999999999999
 40
0.9999999999999999
 40
0.9999999999999999
 10
426.1734780436951
 20
453.2018091850831
 30
0.0
 10
426.2486088666024
 20
453.2000692631889
 30
0.0
 10
426.3988860291468
 20
453.1965890600554
 30
0.0
 10
426.5491060617848
 20
453.1911778903785
 30
0.0
 10
426.6242238335192
 20
453.1884720261774
 30
0.0
  0
SPLINE
  5
1E9
330
1F
100
AcDbEntity
  8
0
  6
Continuous
 62
     8
370
    18
100
AcDbSpline
210
0.0
220
0.0
230
1.0
 70
     8
 71
     3
 72
     9
 73
     5
 74
     0
 42
0.000000001
 43
0.00000001
 40
0.0
 40
0.0
 40
0.0
 40
0.0
 40
0.4999715866144808
 40
1.0
 40
1.0
 40
1.0
 40
1.0
 10
430.6683505871043
 20
452.6915124440396
 30
0.0
 10
430.7567589184818
 20
452.672163498823
 30
0.0
 10
430.9335856297277
 20
452.6334634091887
 30
0.0
 10
431.1096268319079
 20
452.5913341198133
 30
0.0
 10
431.1976524349245
 20
452.5702682780899
 30
0.0
  0
LINE
  5
1EA
330
1F
100
AcDbEntity
  8
0
  6
Continuous
 62
     8
370
    18
100
AcDbLine
 10
424.9040069087
 20
452.2007972363
 30
0.0
 11
431.8948408846
 21
452.2007972363
 31
0.0
  0
LINE
  5
1EB
330
1F
100
AcDbEntity
  8
0
  6
Continuous
 62
     8
370
    18
100
AcDbLine
 10
432.9354255418
 20
451.7725969738
 30
0.0
 11
433.3730592204
 21
451.5626291213
 31
0.0
  0
LINE
  5
1EC
330
1F
100
AcDbEntity
  8
0
  6
Continuous
 62
     8
370
    18
100
AcDbLine
 10
444.223249553
 20
438.0005853478
 30
0.0
 11
444.4584086753
 21
436.0616372943
 31
0.0
  0
SPLINE
  5
1ED
330
1F
100
AcDbEntity
  8
0
  6
Continuous
 62
     8
370
    18
100
AcDbSpline
210
0.0
220
0.0
230
1.0
 70
     8
 71
     3
 72
    16
 73
    12
 74
     0
 42
0.000000001
 43
0.00000001
 40
0.0
 40
0.0
 40
0.0
 40
0.0
 40
0.2499999999999992
 40
0.2499999999999992
 40
0.3749999999999987
 40
0.3749999999999987
 40
0.4999999999999981
 40
0.4999999999999981
 40
0.7499999999999991
 40
0.7499999999999991
 40
1.0
 40
1.0
 40
1.0
 40
1.0
 10
432.9354255417511
 20
451.7725969737631
 30
0.0
 10
432.9354255417511
 20
451.7725976188423
 30
0.0
 10
432.8944013720935
 20
451.7959402319415
 30
0.0
 10
432.7745170307616
 20
451.8614783813688
 30
0.0
 10
432.724264036486
 20
451.8886584888586
 30
0.0
 10
432.606657976338
 20
451.9507966983414
 30
0.0
 10
432.5392508250232
 20
451.9857887362112
 30
0.0
 10
432.3121273902823
 20
452.1002700424854
 30
0.0
 10
432.1251137420171
 20
452.1903525451032
 30
0.0
 10
431.700531164993
 20
452.3772917868366
 30
0.0
 10
431.4625490958144
 20
452.4745576075079
 30
0.0
 10
431.197154777655
 20
452.5706735925882
 30
0.0
  0
SPLINE
  5
1EE
330
1F
100
AcDbEntity
  8
0
  6
Continuous
 62
     8
370
    18
100
AcDbSpline
210
0.0
220
0.0
230
1.0
 70
     8
 71
     3
 72
    16
 73
    12
 74
     0
 42
0.000000001
 43
0.00000001
 40
0.0
 40
0.0
 40
0.0
 40
0.0
 40
0.2500000000000003
 40
0.2500000000000003
 40
0.5000000000000007
 40
0.5000000000000007
 40
0.6250000000000009
 40
0.6250000000000009
 40
0.750000000000001
 40
0.750000000000001
 40
1.0
 40
1.0
 40
1.0
 40
1.0
 10
426.1737333429487
 20
453.2011890633119
 30
0.0
 10
425.903724143151
 20
453.1762485290355
 30
0.0
 10
425.6621821829668
 20
453.1463444630271
 30
0.0
 10
425.2334326616422
 20
453.0878490650593
 30
0.0
 10
425.0462407057948
 20
453.058904055424
 30
0.0
 10
424.8216494639496
 20
453.0222400683426
 30
0.0
 10
424.7554502434101
 20
453.0110256559446
 30
0.0
 10
424.6405874606384
 20
452.9911382735232
 30
0.0
 10
424.591708733513
 20
452.982425591471
 30
0.0
 10
424.4746938104273
 20
452.9612837245029
 30
0.0
 10
424.4354255417501
 20
452.9538183237817
 30
0.0
 10
424.4354255417509
 20
452.9538185167171
 30
0.0
  0
SPLINE
  5
1EF
330
1F
100
AcDbEntity
  8
0
  6
Continuous
 62
     8
370
    18
100
AcDbSpline
210
0.0
220
0.0
230
1.0
 70
     8
 71
     3
 72
    24
 73
    20
 74
     0
 42
0.000000001
 43
0.00000001
 40
0.0
 40
0.0
 40
0.0
 40
0.0
 40
0.0039062499999821
 40
0.0039062499999821
 40
0.0078124999999641
 40
0.0078124999999641
 40
0.0156249999999654
 40
0.0156249999999654
 40
0.0312499999999631
 40
0.0312499999999631
 40
0.0624999999999616
 40
0.0624999999999616
 40
0.1249999999999566
 40
0.1249999999999566
 40
0.2499999999999464
 40
0.2499999999999464
 40
0.499999999999964
 40
0.499999999999964
 40
1.0
 40
1.0
 40
1.0
 40
1.0
 10
449.4845919768072
 20
391.4013446062194
 30
0.0
 10
449.4845653885009
 20
391.4005474002926
 30
0.0
 10
449.4845248153769
 20
391.3993683320651
 30
0.0
 10
449.4844964223734
 20
391.3985557804063
 30
0.0
 10
449.4844861387706
 20
391.3982654606254
 30
0.0
 10
449.4844580682935
 20
391.397476607429
 30
0.0
 10
449.4844438570502
 20
391.3970839584179
 30
0.0
 10
449.4844048541583
 20
391.3960135033723
 30
0.0
 10
449.4843845800468
 20
391.3954693336877
 30
0.0
 10
449.4843288261093
 20
391.3939867609048
 30
0.0
 10
449.4842993108625
 20
391.3932248674536
 30
0.0
 10
449.4842178386538
 20
391.391148511605
 30
0.0
 10
449.4841741030284
 20
391.3900772014381
 30
0.0
 10
449.4840531088638
 20
391.3871636559972
 30
0.0
 10
449.4839875382148
 20
391.3856654553589
 30
0.0
 10
449.4838072936756
 20
391.3816355112975
 30
0.0
 10
449.4837110816808
 20
391.3796276643223
 30
0.0
 10
449.4834619610644
 20
391.3745435509854
 30
0.0
 10
449.4833502492766
 20
391.3724634455494
 30
0.0
 10
449.4833068595008
 20
391.3716479442119
 30
0.0
  0
LINE
  5
1F0
330
1F
100
AcDbEntity
  8
0
  6
Continuous
 62
     8
370
    18
100
AcDbLine
 10
432.8824402486
 20
451.8019203124
 30
0.0
 11
432.9354255418
 21
451.7725969738
 31
0.0
  0
SPLINE
  5
1F1
330
1F
100
AcDbEntity
  8
0
  6
Continuous
 62
     8
370
    18
100
AcDbSpline
210
0.0
220
0.0
230
1.0
 70
     8
 71
     3
 72
    11
 73
     7
 74
     0
 42
0.000000001
 43
0.00000001
 40
0.0
 40
0.0
 40
0.0
 40
0.0
 40
0.2536467682205594
 40
0.5048623551939138
 40
0.7536467645434924
 40
0.9999999999999999
 40
0.9999999999999999
 40
0.9999999999999999
 40
0.9999999999999999
 10
382.585425541751
 20
475.5963519156971
 30
0.0
 10
398.84123000144
 20
475.6814290949072
 30
0.0
 10
431.1970285107824
 20
475.8507679962881
 30
0.0
 10
479.496971910961
 20
476.1109097977612
 30
0.0
 10
527.3294581533032
 20
476.3735037643417
 30
0.0
 10
559.0619441546214
 20
476.5527768453657
 30
0.0
 10
574.8502823622013
 20
476.6419732617638
 30
0.0
  0
LINE
  5
1F2
330
1F
100
AcDbEntity
  8
0
  6
Continuous
 62
     8
370
    18
100
AcDbLine
 10
574.7936846461
 20
487.4512420268
 30
0.0
 11
382.5854255418
 21
487.4790354418
 31
0.0
  0
LINE
  5
1F3
330
1F
100
AcDbEntity
  8
0
  6
Continuous
 62
     8
370
    18
100
AcDbLine
 10
602.6755444391
 20
476.7724062014
 30
0.0
 11
621.088177415
 21
476.9140285775
 31
0.0
  0
LINE
  5
1F4
330
1F
100
AcDbEntity
  8
0
  6
Continuous
 62
     8
370
    18
100
AcDbLine
 10
620.2472890723
 20
487.4434928252
 30
0.0
 11
602.6755407068
 21
487.4468267075
 31
0.0
  0
LINE
  5
1F5
330
1F
100
AcDbEntity
  8
0
  6
Continuous
 62
     8
370
    18
100
AcDbLine
 10
621.088177415
 20
487.4431237785
 30
0.0
 11
620.2452698567
 21
487.44454405
 31
0.0
  0
SPLINE
  5
1F6
330
1F
100
AcDbEntity
  8
0
  6
Continuous
 62
     8
370
    18
100
AcDbSpline
210
0.0
220
0.0
230
1.0
 70
     8
 71
     3
 72
    16
 73
    12
 74
     0
 42
0.000000001
 43
0.00000001
 40
0.0
 40
0.0
 40
0.0
 40
0.0
 40
0.092133332425557
 40
0.208869908138041
 40
0.328695226088915
 40
0.4260794043084373
 40
0.5031619528113273
 40
0.6144194675182162
 40
0.7938082844378737
 40
0.9056699020004798
 40
1.0
 40
1.0
 40
1.0
 40
1.0
 10
621.0881774149717
 20
476.9140285775432
 30
0.0
 10
621.2669023291124
 20
476.916092844144
 30
0.0
 10
621.6720787773722
 20
476.9207726181622
 30
0.0
 10
622.3088840745297
 20
476.9343847596941
 30
0.0
 10
622.9420168771458
 20
476.9480147750956
 30
0.0
 10
623.4599557762914
 20
476.9575486418756
 30
0.0
 10
623.8943872337895
 20
476.963703074234
 30
0.0
 10
624.3107945039387
 20
476.959752415277
 30
0.0
 10
624.5248927326749
 20
476.9512393023963
 30
0.0
 10
624.5867354124374
 20
476.9432157765664
 30
0.0
 10
624.5870961048947
 20
476.9420886018826
 30
0.0
 10
624.587261117125
 20
476.9415729337429
 30
0.0
  0
SPLINE
  5
1F7
330
1F
100
AcDbEntity
  8
0
  6
Continuous
 62
     8
370
    18
100
AcDbSpline
210
0.0
220
0.0
230
1.0
 70
     8
 71
     3
 72
    22
 73
    18
 74
     0
 42
0.000000001
 43
0.00000001
 40
0.0
 40
0.0
 40
0.0
 40
0.0
 40
0.125
 40
0.125
 40
0.25
 40
0.25
 40
0.375
 40
0.375
 40
0.5
 40
0.5
 40
0.625
 40
0.625
 40
0.75
 40
0.75
 40
0.875
 40
0.875
 40
1.0
 40
1.0
 40
1.0
 40
1.0
 10
624.587261117125
 20
487.4420979895347
 30
0.0
 10
624.587261117125
 20
487.4421407307411
 30
0.0
 10
624.5865543400834
 20
487.4421834719477
 30
0.0
 10
624.553242288567
 20
487.4422689543608
 30
0.0
 10
624.520786287106
 20
487.4423116955673
 30
0.0
 10
624.4080651241804
 20
487.4423971779803
 30
0.0
 10
624.3279492357298
 20
487.4424399191868
 30
0.0
 10
624.1137951805971
 20
487.4425254015999
 30
0.0
 10
623.9799062869289
 20
487.4425681428064
 30
0.0
 10
623.6574124570658
 20
487.4426536252195
 30
0.0
 10
623.4679625027088
 20
487.4426963664259
 30
0.0
 10
623.0449754953332
 20
487.4427818488389
 30
0.0
 10
622.8120134705822
 20
487.4428245900455
 30
0.0
 10
622.3280337258914
 20
487.4429100724585
 30
0.0
 10
622.0775910342196
 20
487.442952813665
 30
0.0
 10
621.5799928778692
 20
487.443038296078
 30
0.0
 10
621.333412441459
 20
487.4430810372845
 30
0.0
 10
621.0881774149719
 20
487.4431237784911
 30
0.0
  0
LINE
  5
1F8
330
1F
100
AcDbEntity
  8
0
  6
Continuous
 62
     8
370
    18
100
AcDbLine
 10
574.8502828556
 20
476.6418790354
 30
0.0
 11
602.6650941568
 21
476.7721971611
 31
0.0
  0
LINE
  5
1F9
330
1F
100
AcDbEntity
  8
0
  6
Continuous
 62
     8
370
    18
100
AcDbLine
 10
602.6755407068
 20
487.4468267075
 30
0.0
 11
574.7936846461
 21
487.4512420268
 31
0.0
  0
SPLINE
  5
1FA
330
1F
100
AcDbEntity
  8
0
  6
Continuous
 62
     8
370
    18
100
AcDbSpline
210
0.0
220
0.0
230
1.0
 70
     8
 71
     3
 72
    16
 73
    12
 74
     0
 42
0.000000001
 43
0.00000001
 40
0.0
 40
0.0
 40
0.0
 40
0.0
 40
0.2043305143287009
 40
0.3999970928128101
 40
0.4676106263371814
 40
0.5412573150862265
 40
0.6209364174699814
 40
0.7066486244032987
 40
0.7983981664851023
 40
0.896182267338816
 40
0.9999999999999999
 40
0.9999999999999999
 40
0.9999999999999999
 40
0.9999999999999999
 10
574.8556545409875
 20
475.6151718069837
 30
0.0
 10
561.760142992453
 20
475.532694086159
 30
0.0
 10
536.1243902243476
 20
475.3712358298625
 30
0.0
 10
506.1552523765752
 20
475.1894137517731
 30
0.0
 10
484.5616299267651
 20
475.058315675609
 30
0.0
 10
470.4016482145625
 20
474.9703878043707
 30
0.0
 10
455.0817250924226
 20
474.8744847813986
 30
0.0
 10
438.6014822159764
 20
474.7899814431112
 30
0.0
 10
420.9608621548378
 20
474.7042733408136
 30
0.0
 10
402.1598677693388
 20
474.6093633834038
 30
0.0
 10
389.2391387315355
 20
474.5432423541522
 30
0.0
 10
382.5854254708615
 20
474.5091923893357
 30
0.0
  0
SPLINE
  5
1FB
330
1F
100
AcDbEntity
  8
0
  6
Continuous
 62
     8
370
    18
100
AcDbSpline
210
0.0
220
0.0
230
1.0
 70
     8
 71
     3
 72
    16
 73
    12
 74
     0
 42
0.000000001
 43
0.00000001
 40
0.0
 40
0.0
 40
0.0
 40
0.0
 40
0.25
 40
0.25
 40
0.5
 40
0.5
 40
0.75
 40
0.75
 40
0.875
 40
0.875
 40
1.0
 40
1.0
 40
1.0
 40
1.0
 10
382.585425541751
 20
488.5659498259432
 30
0.0
 10
398.6035917457893
 20
488.5660300300415
 30
0.0
 10
414.622224338818
 20
488.5679701552593
 30
0.0
 10
446.6572401719383
 20
488.5633029099133
 30
0.0
 10
462.6735677885105
 20
488.5560152124282
 30
0.0
 10
494.7099958953067
 20
488.5464689209883
 30
0.0
 10
510.7237111624183
 20
488.5416428832514
 30
0.0
 10
534.7534442461136
 20
488.5342740077737
 30
0.0
 10
542.7645197250667
 20
488.5318757742012
 30
0.0
 10
558.7778942349721
 20
488.52701363646
 30
0.0
 10
566.781491017846
 20
488.5245558226424
 30
0.0
 10
574.7937492076247
 20
488.5220655261209
 30
0.0
  0
LWPOLYLINE
  5
1FC
330
1F
100
AcDbEntity
  8
0
  6
Continuous
 62
     8
370
    18
100
AcDbPolyline
 90
        9
 70
   128
 43
0.0
 10
574.7937492076
 20
488.5220655261
 10
574.7937955098
 20
488.4980150043
 10
574.7938271415
 20
488.4347147911
 10
574.7938429166
 20
488.3345383846
 10
574.7938422437
 20
488.201241989
 10
574.7938251478
 20
488.0398236724
 10
574.7937922702
 20
487.8563359591
 10
574.7937448435
 20
487.6576588855
 10
574.7936846461
 20
487.4512420268
  0
SPLINE
  5
1FD
330
1F
100
AcDbEntity
  8
0
  6
Continuous
 62
     8
370
    18
100
AcDbSpline
210
0.0
220
0.0
230
1.0
 70
     8
 71
     3
 72
    13
 73
     9
 74
     0
 42
0.000000001
 43
0.00000001
 40
0.0
 40
0.0
 40
0.0
 40
0.0
 40
0.1073716779534739
 40
0.2265434756302797
 40
0.3575160807849816
 40
0.5002903411992965
 40
0.8124436841281637
 40
1.0
 40
1.0
 40
1.0
 40
1.0
 10
602.6755439852768
 20
475.7259076649909
 30
0.0
 10
601.6798810818892
 20
475.7181612277495
 30
0.0
 10
599.5791321787444
 20
475.7018170218111
 30
0.0
 10
596.263782465277
 20
475.683927774729
 30
0.0
 10
592.6201117212639
 20
475.6701755155257
 30
0.0
 10
587.1868546626526
 20
475.6586550543743
 30
0.0
 10
581.2288693432746
 20
475.6494679339432
 30
0.0
 10
576.5949208923519
 20
475.6244462520855
 30
0.0
 10
574.8556583344077
 20
475.6150548497313
 30
0.0
  0
SPLINE
  5
1FE
330
1F
100
AcDbEntity
  8
0
  6
Continuous
 62
     8
370
    18
100
AcDbSpline
210
0.0
220
0.0
230
1.0
 70
     8
 71
     3
 72
    10
 73
     6
 74
     0
 42
0.000000001
 43
0.00000001
 40
0.0
 40
0.0
 40
0.0
 40
0.0
 40
0.5
 40
0.5
 40
1.0
 40
1.0
 40
1.0
 40
1.0
 10
574.7937492076246
 20
488.5220655261209
 30
0.0
 10
579.4430536195997
 20
488.5205875671509
 30
0.0
 10
584.0948951880703
 20
488.5191069976074
 30
0.0
 10
593.3923910395913
 20
488.5161976353049
 30
0.0
 10
598.0362199174252
 20
488.5147795031131
 30
0.0
 10
602.675592647133
 20
488.5133909044738
 30
0.0
  0
LWPOLYLINE
  5
1FF
330
1F
100
AcDbEntity
  8
0
  6
Continuous
 62
     8
370
    18
100
AcDbPolyline
 90
        9
 70
   128
 43
0.0
 10
602.6755926471
 20
488.5133909045
 10
602.6756398346
 20
488.4908797549
 10
602.6756728283
 20
488.4288127242
 10
602.675690378
 20
488.3295413365
 10
602.6756918189
 20
488.196826672
 10
602.6756770964
 20
488.0356968714
 10
602.6756467683
 20
487.8522566352
 10
602.6756019836
 20
487.6534559361
 10
602.6755407068
 20
487.4468267075
  0
SPLINE
  5
200
330
1F
100
AcDbEntity
  8
0
  6
Continuous
 62
     8
370
    18
100
AcDbSpline
210
0.0
220
0.0
230
1.0
 70
     8
 71
     3
 72
    17
 73
    13
 74
     0
 42
0.000000001
 43
0.00000001
 40
0.0
 40
0.0
 40
0.0
 40
0.0
 40
0.1013633771746835
 40
0.1844909747203543
 40
0.2495775742541656
 40
0.3463583534454858
 40
0.428817821113922
 40
0.500488805030313
 40
0.6111399394795666
 40
0.7503099099639923
 40
0.8546743891839632
 40
1.0
 40
1.0
 40
1.0
 40
1.0
 10
621.0899609064892
 20
488.5054774222979
 30
0.0
 10
621.230401745078
 20
488.5052123843078
 30
0.0
 10
621.4860174114456
 20
488.5047299899905
 30
0.0
 10
621.8315451674165
 20
488.5041568732321
 30
0.0
 10
622.1692287523144
 20
488.5036605813239
 30
0.0
 10
622.5009038674483
 20
488.5032696734185
 30
0.0
 10
622.8247549658689
 20
488.5029858444861
 30
0.0
 10
623.1263183253312
 20
488.502845283447
 30
0.0
 10
623.3608289450127
 20
488.5029945866096
 30
0.0
 10
623.4781859662606
 20
488.5033435018722
 30
0.0
 10
623.523603824891
 20
488.5038535044065
 30
0.0
 10
623.5265498594941
 20
488.5042106775505
 30
0.0
 10
623.5282645221712
 20
488.5044185608722
 30
0.0
  0
ARC
  5
201
330
1F
100
AcDbEntity
  8
0
  6
Continuous
 62
     8
370
    18
100
AcDbCircle
 10
623.5249350434
 20
487.4420977047
 30
0.0
 40
1.062326073744354
100
AcDbArc
 50
0.0000153641
 51
89.8204267035
  0
SPLINE
  5
202
330
1F
100
AcDbEntity
  8
0
  6
Continuous
 62
     8
370
    18
100
AcDbSpline
210
0.0
220
0.0
230
1.0
 70
     8
 71
     3
 72
    17
 73
    13
 74
     0
 42
0.000000001
 43
0.00000001
 40
0.0
 40
0.0
 40
0.0
 40
0.0
 40
0.0117953204103733
 40
0.0430807758439715
 40
0.093855055084766
 40
0.1640517278709969
 40
0.226673090047167
 40
0.2862408455259102
 40
0.3959126070769364
 40
0.5003028279328415
 40
0.7502095136946998
 40
1.0
 40
1.0
 40
1.0
 40
1.0
 10
621.117653386793
 20
475.9464073825121
 30
0.0
 10
621.045248246356
 20
475.945334710367
 30
0.0
 10
620.7807984886048
 20
475.9414169237681
 30
0.0
 10
620.204096993187
 20
475.9339129459914
 30
0.0
 10
619.2687565267055
 20
475.9212555900403
 30
0.0
 10
618.1408301627944
 20
475.9059528169756
 30
0.0
 10
616.9589103303639
 20
475.8898201178981
 30
0.0
 10
615.5344702806182
 20
475.871093848352
 30
0.0
 10
613.853426748688
 20
475.8494808677068
 30
0.0
 10
611.0030226063718
 20
475.8135844889833
 30
0.0
 10
607.291760141254
 20
475.7694760434238
 30
0.0
 10
604.2217038091286
 20
475.7405944312778
 30
0.0
 10
602.6870325981354
 20
475.7261569832663
 30
0.0
  0
SPLINE
  5
203
330
1F
100
AcDbEntity
  8
0
  6
Continuous
 62
     8
370
    18
100
AcDbSpline
210
0.0
220
0.0
230
1.0
 70
     8
 71
     3
 72
    15
 73
    11
 74
     0
 42
0.000000001
 43
0.00000001
 40
0.0
 40
0.0
 40
0.0
 40
0.0
 40
0.10248248676296
 40
0.2388236764944113
 40
0.3951006587700924
 40
0.4976047488058976
 40
0.6038706316132232
 40
0.7581901384682623
 40
0.9007298936205071
 40
1.0
 40
1.0
 40
1.0
 40
1.0
 10
623.8724651845504
 20
475.9778113274673
 30
0.0
 10
623.8699299751504
 20
475.980266057946
 30
0.0
 10
623.8640219605356
 20
475.9859865256691
 30
0.0
 10
623.8050340683039
 20
476.0022267671329
 30
0.0
 10
623.631953296479
 20
476.0171511624696
 30
0.0
 10
623.3243269502085
 20
476.0243097633391
 30
0.0
 10
622.8494197262044
 20
476.0101515926341
 30
0.0
 10
622.2493669291362
 20
475.9866813812396
 30
0.0
 10
621.6421712580303
 20
475.9618190031323
 30
0.0
 10
621.2703124397207
 20
475.9508928796457
 30
0.0
 10
621.1176533867858
 20
475.9464073825118
 30
0.0
  0
ARC
  5
204
330
1F
100
AcDbEntity
  8
0
  6
Continuous
 62
     8
370
    18
100
AcDbCircle
 10
623.5800893285
 20
476.941611811
 30
0.0
 40
1.00717178939523
100
AcDbArc
 50
286.8755539481
 51
359.9977883562
  0
LINE
  5
205
330
1F
100
AcDbEntity
  8
0
  6
Continuous
 62
     8
370
    18
100
AcDbLine
 10
620.2472686059
 20
488.5071964308
 30
0.0
 11
621.0899609065
 21
488.5054774223
 31
0.0
  0
SPLINE
  5
206
330
1F
100
AcDbEntity
  8
0
  6
Continuous
 62
     8
370
    18
100
AcDbSpline
210
0.0
220
0.0
230
1.0
 70
     8
 71
     3
 72
    11
 73
     7
 74
     0
 42
0.000000001
 43
0.00000001
 40
0.0
 40
0.0
 40
0.0
 40
0.0
 40
0.4022371812388782
 40
0.7037011773803079
 40
0.9030951424435054
 40
1.0
 40
1.0
 40
1.0
 40
1.0
 10
602.6755926471332
 20
488.5133909044738
 30
0.0
 10
605.0316620527842
 20
488.5126769180137
 30
0.0
 10
609.1535306717914
 20
488.5114278213709
 30
0.0
 10
614.4433244506091
 20
488.5096826888458
 30
0.0
 10
617.9446768449155
 20
488.5083805659084
 30
0.0
 10
619.6802048626218
 20
488.5072372082757
 30
0.0
 10
620.2478112197925
 20
488.5068632718978
 30
0.0
  0
SPLINE
  5
207
330
1F
100
AcDbEntity
  8
0
  6
Continuous
 62
     8
370
    18
100
AcDbSpline
210
0.0
220
0.0
230
1.0
 70
     8
 71
     3
 72
    16
 73
    12
 74
     0
 42
0.000000001
 43
0.00000001
 40
0.0
 40
0.0
 40
0.0
 40
0.0
 40
0.237077181085075
 40
0.4996869929446803
 40
0.5946279517368557
 40
0.699540982840362
 40
0.8009646074506522
 40
0.8817948095758572
 40
0.9419599926250767
 40
0.9813843223822942
 40
1.0
 40
1.0
 40
1.0
 40
1.0
 10
623.8966346997702
 20
475.9513104983942
 30
0.0
 10
623.8964553716893
 20
475.9517346150821
 30
0.0
 10
623.8960774023329
 20
475.9526285247847
 30
0.0
 10
623.8916609949783
 20
475.9571537481802
 30
0.0
 10
623.8880715019617
 20
475.9616612524806
 30
0.0
 10
623.8856138036606
 20
475.9649004201588
 30
0.0
 10
623.8826013030061
 20
475.9681241733428
 30
0.0
 10
623.8807678613431
 20
475.9708614390043
 30
0.0
 10
623.878765348884
 20
475.9735294285896
 30
0.0
 10
623.8819416490384
 20
475.9751058227189
 30
0.0
 10
623.8747665247303
 20
475.9771543011269
 30
0.0
 10
623.8724651845508
 20
475.9778113274674
 30
0.0
  0
LINE
  5
208
330
1F
100
AcDbEntity
  8
0
  6
Continuous
 62
     8
370
    18
100
AcDbLine
 10
623.5282645222
 20
488.5044185609
 30
0.0
 11
623.5312490118
 21
488.5103452254
 31
0.0
  0
SPLINE
  5
209
330
1F
100
AcDbEntity
  8
0
  6
Continuous
 62
     8
370
    18
100
AcDbSpline
210
0.0
220
0.0
230
1.0
 70
     8
 71
     3
 72
    29
 73
    25
 74
     0
 42
0.000000001
 43
0.00000001
 40
0.0
 40
0.0
 40
0.0
 40
0.0
 40
0.0123228845376739
 40
0.0457284022488474
 40
0.0723317643278598
 40
0.1521336915921105
 40
0.2306340341431044
 40
0.2568028195188884
 40
0.4156599515746463
 40
0.4687484369876266
 40
0.5218356448551652
 40
0.5882987451593781
 40
0.6150534766404503
 40
0.6284308080533738
 40
0.7086404725164195
 40
0.735349254863144
 40
0.7487032994096527
 40
0.7887646392601708
 40
0.8550324919641641
 40
0.868287167615418
 40
0.9073522403979618
 40
0.9473970600018813
 40
0.973698449124413
 40
1.0
 40
1.0
 40
1.0
 40
1.0
 10
620.2464168950639
 20
488.5072024652493
 30
0.0
 10
620.1915171178985
 20
488.5075966046858
 30
0.0
 10
619.9877921632486
 20
488.5090591978508
 30
0.0
 10
619.6728133604421
 20
488.5115306921964
 30
0.0
 10
619.0797441750183
 20
488.5165788118309
 30
0.0
 10
618.334166721559
 20
488.5238277568594
 30
0.0
 10
617.6502901190516
 20
488.5314720275984
 30
0.0
 10
616.7314478096966
 20
488.5424556047467
 30
0.0
 10
615.9940444982783
 20
488.5523159941011
 30
0.0
 10
615.2996904733127
 20
488.5622199055046
 30
0.0
 10
614.8886249254346
 20
488.5682578532027
 30
0.0
 10
614.5803274175607
 20
488.5729116006585
 30
0.0
 10
614.3787129727724
 20
488.5760018554026
 30
0.0
 10
614.1622842994094
 20
488.5793391477732
 30
0.0
 10
613.9721874169255
 20
488.5823140859649
 30
0.0
 10
613.812535626729
 20
488.5848369635293
 30
0.0
 10
613.7137347305344
 20
488.5864033538473
 30
0.0
 10
613.5812545031448
 20
488.5885128915808
 30
0.0
 10
613.4792223233084
 20
488.5901502346823
 30
0.0
 10
613.4005690794086
 20
488.5914153743655
 30
0.0
 10
613.3507591114015
 20
488.5922179519308
 30
0.0
 10
613.3142424594432
 20
488.5928075622846
 30
0.0
 10
613.2960926295565
 20
488.5931011737855
 30
0.0
 10
613.2941778685985
 20
488.5931322079327
 30
0.0
 10
613.2932204851755
 20
488.5931477250541
 30
0.0
  0
LINE
  5
20A
330
1F
100
AcDbEntity
  8
0
  6
Continuous
 62
     7
370
    25
100
AcDbLine
 10
225.1155125011
 20
295.2951917693
 30
0.0
 11
225.1155125011
 21
265.3742080087
 31
0.0
  0
LINE
  5
20B
330
1F
100
AcDbEntity
  8
0
  6
Continuous
 62
     7
370
    25
100
AcDbLine
 10
271.1155125011
 20
265.3742080087
 30
0.0
 11
271.1155125011
 21
295.2951917693
 31
0.0
  0
ARC
  5
20C
330
1F
100
AcDbEntity
  8
0
  6
Continuous
 62
     7
370
    25
100
AcDbCircle
 10
269.6155125011
 20
265.3742080087
 30
0.0
 40
1.500000000000057
100
AcDbArc
 50
270.0
 51
0.0
  0
ARC
  5
20D
330
1F
100
AcDbEntity
  8
0
  6
Continuous
 62
     7
370
    25
100
AcDbCircle
 10
226.6155125011
 20
265.3742080087
 30
0.0
 40
1.500000000000057
100
AcDbArc
 50
180.0
 51
270.0
  0
LINE
  5
20E
330
1F
100
AcDbEntity
  8
0
  6
Continuous
 62
     7
370
    25
100
AcDbLine
 10
270.6655125011
 20
304.250928587
 30
0.0
 11
270.6655125011
 21
330.7742080087
 31
0.0
  0
LINE
  5
20F
330
1F
100
AcDbEntity
  8
0
  6
Continuous
 62
     7
370
    25
100
AcDbLine
 10
225.5655125011
 20
330.7742080087
 30
0.0
 11
225.5655125011
 21
304.250928587
 31
0.0
  0
ARC
  5
210
330
1F
100
AcDbEntity
  8
0
  6
Continuous
 62
     7
370
    25
100
AcDbCircle
 10
269.9655125011
 20
304.250928587
 30
0.0
 40
0.700000000000062
100
AcDbArc
 50
311.0
 51
0.0
  0
ARC
  5
211
330
1F
100
AcDbEntity
  8
0
  6
Continuous
 62
     7
370
    25
100
AcDbCircle
 10
226.2655125011
 20
304.250928587
 30
0.0
 40
0.7000000000000434
100
AcDbArc
 50
180.0
 51
229.0
  0
LINE
  5
212
330
1F
100
AcDbEntity
  8
0
  6
Continuous
 62
     7
370
    25
100
AcDbLine
 10
225.8062711808
 20
303.7226318809
 30
0.0
 11
225.8770232946
 21
303.6611280067
 31
0.0
  0
LINE
  5
213
330
1F
100
AcDbEntity
  8
0
  6
Continuous
 62
     7
370
    25
100
AcDbLine
 10
270.3540017076
 20
303.6611280067
 30
0.0
 11
270.4247538214
 21
303.7226318809
 31
0.0
  0
SPLINE
  5
214
330
1F
100
AcDbEntity
  8
0
  6
Continuous
 62
     7
370
    25
100
AcDbSpline
210
0.0
220
0.0
230
1.0
 70
     8
 71
     3
 72
     9
 73
     5
 74
     0
 42
0.000000001
 43
0.00000001
 40
0.0
 40
0.0
 40
0.0
 40
0.0
 40
0.5077362314477948
 40
1.0
 40
1.0
 40
1.0
 40
1.0
 10
247.9822088052514
 20
263.4911976128675
 30
0.0
 10
251.6310122886837
 20
263.5098413262917
 30
0.0
 10
258.8174277095958
 20
263.5465606153035
 30
0.0
 10
266.0006120803208
 20
263.765805187245
 30
0.0
 10
269.5366334888591
 20
263.8737313464634
 30
0.0
  0
SPLINE
  5
215
330
1F
100
AcDbEntity
  8
0
  6
Continuous
 62
     7
370
    25
100
AcDbSpline
210
0.0
220
0.0
230
1.0
 70
     8
 71
     3
 72
     9
 73
     5
 74
     0
 42
0.000000001
 43
0.00000001
 40
0.0
 40
0.0
 40
0.0
 40
0.0
 40
0.4922627289381516
 40
1.0
 40
1.0
 40
1.0
 40
1.0
 10
226.6944358041629
 20
263.8737284627207
 30
0.0
 10
230.2304424820115
 20
263.7658021751697
 30
0.0
 10
237.413612098521
 20
263.5465568795044
 30
0.0
 10
244.6000128466819
 20
263.5098367076611
 30
0.0
 10
248.24881635131
 20
263.4911925078163
 30
0.0
  0
ARC
  5
216
330
1F
100
AcDbEntity
  8
0
  6
Continuous
 62
     7
370
    25
100
AcDbCircle
 10
270.8132430279
 20
303.1328313005
 30
0.0
 40
0.6999999999999879
100
AcDbArc
 50
131.0
 51
179.1898025957
  0
ARC
  5
217
330
1F
100
AcDbEntity
  8
0
  6
Continuous
 62
     7
370
    25
100
AcDbCircle
 10
225.4177819743
 20
303.1328313005
 30
0.0
 40
0.6999999999999879
100
AcDbArc
 50
0.8101974043
 51
49.0
  0
ARC
  5
218
330
1F
100
AcDbEntity
  8
0
  6
Continuous
 62
     7
370
    25
100
AcDbCircle
 10
248.1155125011
 20
303.4538125023
 30
0.0
 40
22.00000000000001
100
AcDbArc
 50
338.8075570324
 51
359.1898025957
  0
ARC
  5
219
330
1F
100
AcDbEntity
  8
0
  6
Continuous
 62
     7
370
    25
100
AcDbCircle
 10
248.1155125011
 20
303.4538125023
 30
0.0
 40
22.00000000000001
100
AcDbArc
 50
180.8101974043
 51
201.2068581261
  0
LINE
  5
21A
330
1F
100
AcDbEntity
  8
0
  6
Continuous
 62
     7
370
    25
100
AcDbLine
 10
213.0683881806
 20
339.7742080087
 30
0.0
 11
215.8683497989
 21
339.7742080087
 31
0.0
  0
LINE
  5
21B
330
1F
100
AcDbEntity
  8
0
  6
Continuous
 62
     7
370
    25
100
AcDbLine
 10
213.1087412952
 20
332.0674012558
 30
0.0
 11
213.0683881806
 21
339.7742080087
 31
0.0
  0
LINE
  5
21C
330
1F
100
AcDbEntity
  8
0
  6
Continuous
 62
     7
370
    25
100
AcDbLine
 10
283.1626368215
 20
339.7742080087
 30
0.0
 11
283.122283707
 21
332.0674012558
 31
0.0
  0
LINE
  5
21D
330
1F
100
AcDbEntity
  8
0
  6
Continuous
 62
     7
370
    25
100
AcDbLine
 10
280.3626752032
 20
339.7742080087
 30
0.0
 11
283.1626368215
 21
339.7742080087
 31
0.0
  0
LINE
  5
21E
330
1F
100
AcDbEntity
  8
0
  6
Continuous
 62
     7
370
    25
100
AcDbLine
 10
215.8683497989
 20
339.7742080087
 30
0.0
 11
280.3626752032
 21
339.7742080087
 31
0.0
  0
LINE
  5
21F
330
1F
100
AcDbEntity
  8
0
  6
Continuous
 62
     7
370
    25
100
AcDbLine
 10
280.3223220887
 20
330.7742080087
 30
0.0
 11
215.9087029135
 21
330.7742080087
 31
0.0
  0
ARC
  5
220
330
1F
100
AcDbEntity
  8
0
  6
Continuous
 62
     7
370
    25
100
AcDbCircle
 10
214.4087234751
 20
332.0742080087
 30
0.0
 40
1.299999999999987
100
AcDbArc
 50
180.3
 51
270.0
  0
LINE
  5
221
330
1F
100
AcDbEntity
  8
0
  6
Continuous
 62
     7
370
    25
100
AcDbLine
 10
215.9087029135
 20
330.7742080087
 30
0.0
 11
214.4087234751
 21
330.7742080087
 31
0.0
  0
ARC
  5
222
330
1F
100
AcDbEntity
  8
0
  6
Continuous
 62
     7
370
    25
100
AcDbCircle
 10
281.822301527
 20
332.0742080087
 30
0.0
 40
1.299999999999987
100
AcDbArc
 50
270.0
 51
359.7
  0
LINE
  5
223
330
1F
100
AcDbEntity
  8
0
  6
Continuous
 62
     7
370
    25
100
AcDbLine
 10
281.822301527
 20
330.7742080087
 30
0.0
 11
280.3223220887
 21
330.7742080087
 31
0.0
  0
LWPOLYLINE
  5
224
330
1F
100
AcDbEntity
  8
0
  6
Continuous
 62
     7
370
    25
100
AcDbPolyline
 90
       21
 70
   128
 43
0.0
 10
268.1391546405
 20
294.800303128
 10
267.2770970468
 20
294.0466631654
 10
266.0848002752
 20
293.3325341022
 10
264.5828128928
 20
292.6702235527
 10
262.7970208109
 20
292.0711460684
 10
260.7582011559
 20
291.5456264142
 10
258.5014918427
 20
291.102721627
 10
256.0657859924
 20
290.7500649228
 10
253.4930616311
 20
290.4937341422
 10
250.8276582224
 20
290.3381470029
 10
248.1155125011
 20
290.2859849619
 10
245.4033667798
 20
290.3381470029
 10
242.7379633711
 20
290.4937341422
 10
240.1652390098
 20
290.7500649228
 10
237.7295331595
 20
291.102721627
 10
235.4728238463
 20
291.5456264142
 10
233.4340041913
 20
292.0711460684
 10
231.6482121094
 20
292.6702235527
 10
230.146224727
 20
293.3325341022
 10
228.9539279554
 20
294.0466631654
 10
228.0918703617
 20
294.800303128
  0
SPLINE
  5
225
330
1F
100
AcDbEntity
  8
0
  6
Continuous
 62
     7
370
    25
100
AcDbSpline
210
0.0
220
0.0
230
1.0
 70
     8
 71
     3
 72
     8
 73
     4
 74
     0
 42
0.000000001
 43
0.00000001
 40
0.0
 40
0.0
 40
0.0
 40
0.0
 40
1.0
 40
1.0
 40
1.0
 40
1.0
 10
225.31401406891
 20
295.4742080087368
 30
0.0
 10
225.244405615059
 20
295.4742080087368
 30
0.0
 10
225.1931005199846
 20
295.4725035379398
 30
0.0
 10
225.160089504454
 20
295.4452827733348
 30
0.0
  0
SPLINE
  5
226
330
1F
100
AcDbEntity
  8
0
  6
Continuous
 62
     7
370
    25
100
AcDbSpline
210
0.0
220
0.0
230
1.0
 70
     8
 71
     3
 72
     9
 73
     5
 74
     0
 42
0.000000001
 43
0.00000001
 40
0.0
 40
0.0
 40
0.0
 40
0.0
 40
0.0527685715705329
 40
1.0
 40
1.0
 40
1.0
 40
1.0
 10
225.1202728186132
 20
295.2951917692537
 30
0.0
 10
225.1187331907146
 20
295.2900369630093
 30
0.0
 10
225.0895562042466
 20
295.1923499100732
 30
0.0
 10
225.1922895815534
 20
294.8927924333648
 30
0.0
 10
225.2896018652871
 20
294.6090421768055
 30
0.0
  0
SPLINE
  5
227
330
1F
100
AcDbEntity
  8
0
  6
Continuous
 62
     7
370
    25
100
AcDbSpline
210
0.0
220
0.0
230
1.0
 70
     8
 71
     3
 72
     8
 73
     4
 74
     0
 42
0.000000001
 43
0.00000001
 40
0.0
 40
0.0
 40
0.0
 40
0.0
 40
1.0
 40
1.0
 40
1.0
 40
1.0
 10
270.9170109332474
 20
295.4742080087368
 30
0.0
 10
270.9866193870985
 20
295.4742080087368
 30
0.0
 10
271.0379244821729
 20
295.4725035379398
 30
0.0
 10
271.0709354977034
 20
295.4452827733348
 30
0.0
  0
SPLINE
  5
228
330
1F
100
AcDbEntity
  8
0
  6
Continuous
 62
     7
370
    25
100
AcDbSpline
210
0.0
220
0.0
230
1.0
 70
     8
 71
     3
 72
     9
 73
     5
 74
     0
 42
0.000000001
 43
0.00000001
 40
0.0
 40
0.0
 40
0.0
 40
0.0
 40
0.0527685715705329
 40
1.0
 40
1.0
 40
1.0
 40
1.0
 10
271.1107521835443
 20
295.2951917692537
 30
0.0
 10
271.1122918114429
 20
295.2900369630093
 30
0.0
 10
271.141468797911
 20
295.1923499100732
 30
0.0
 10
271.0387354206042
 20
294.8927924333648
 30
0.0
 10
270.9414231368704
 20
294.6090421768055
 30
0.0
  0
SPLINE
  5
229
330
1F
100
AcDbEntity
  8
0
  6
Continuous
 62
     7
370
    25
100
AcDbSpline
210
0.0
220
0.0
230
1.0
 70
    24
 71
     3
 72
    14
 73
    10
 74
     0
 42
0.000000001
 43
0.00000001
 40
0.0
 40
0.0
 40
0.0
 40
0.0
 40
0.1514428949419808
 40
0.3028857898839619
 40
0.4543286848259427
 40
0.6057715797679235
 40
0.7572144747099047
 40
0.9086573696518853
 40
1.0
 40
1.0
 40
1.0
 40
1.0
 10
248.1155125010787
 20
263.8750415736802
 30
0.0
 10
249.8242413050139
 20
263.8750415736802
 30
0.0
 10
253.2416989128844
 20
263.8750415736802
 30
0.0
 10
258.0801051097634
 20
263.8750415736802
 30
0.0
 10
262.3535001345637
 20
263.8750415736802
 30
0.0
 10
265.8391141255024
 20
263.8750415736802
 30
0.0
 10
268.2736557350523
 20
263.8750415736802
 30
0.0
 10
269.5720260520707
 20
263.8750415736803
 30
0.0
 10
269.5340452106838
 20
263.8750415736802
 30
0.0
 10
269.5197557675592
 20
263.8750415736802
 30
0.0
  0
SPLINE
  5
22A
330
1F
100
AcDbEntity
  8
0
  6
Continuous
 62
     7
370
    25
100
AcDbSpline
210
0.0
220
0.0
230
1.0
 70
    24
 71
     3
 72
    14
 73
    10
 74
     0
 42
0.000000001
 43
0.00000001
 40
0.0
 40
0.0
 40
0.0
 40
0.0
 40
0.1514428949419806
 40
0.3028857898839616
 40
0.4543286848259426
 40
0.6057715797679236
 40
0.7572144747099047
 40
0.9086573696518856
 40
1.0
 40
1.0
 40
1.0
 40
1.0
 10
248.1155125010787
 20
263.8750415736802
 30
0.0
 10
246.4067836971435
 20
263.8750415736802
 30
0.0
 10
242.9893260892731
 20
263.8750415736803
 30
0.0
 10
238.1509198923941
 20
263.8750415736802
 30
0.0
 10
233.8775248675938
 20
263.8750415736803
 30
0.0
 10
230.3919108766551
 20
263.8750415736802
 30
0.0
 10
227.9573692671051
 20
263.8750415736803
 30
0.0
 10
226.6589989500867
 20
263.8750415736803
 30
0.0
 10
226.6969797914737
 20
263.8750415736802
 30
0.0
 10
226.7112692345983
 20
263.8750415736802
 30
0.0
  0
SPLINE
  5
22B
330
1F
100
AcDbEntity
  8
0
  6
Continuous
 62
     7
370
    25
100
AcDbSpline
210
0.0
220
0.0
230
1.0
 70
     8
 71
     3
 72
     9
 73
     5
 74
     0
 42
0.000000001
 43
0.00000001
 40
0.0
 40
0.0
 40
0.0
 40
0.0
 40
0.5209423051212168
 40
0.9999999999999999
 40
0.9999999999999999
 40
0.9999999999999999
 40
0.9999999999999999
 10
228.0918703616708
 20
294.800303127996
 30
0.0
 10
227.968001078478
 20
294.9501532698189
 30
0.0
 10
227.7302218043145
 20
295.2378053578715
 30
0.0
 10
227.6480132992152
 20
295.4141491844515
 30
0.0
 10
227.6086306822628
 20
295.4986280515191
 30
0.0
  0
SPLINE
  5
22C
330
1F
100
AcDbEntity
  8
0
  6
Continuous
 62
     7
370
    25
100
AcDbSpline
210
0.0
220
0.0
230
1.0
 70
     8
 71
     3
 72
     9
 73
     5
 74
     0
 42
0.000000001
 43
0.00000001
 40
0.0
 40
0.0
 40
0.0
 40
0.0
 40
0.0381178047125273
 40
1.0
 40
1.0
 40
1.0
 40
1.0
 10
268.6235275788122
 20
295.5004050338763
 30
0.0
 10
268.6233934692801
 20
295.4966568270148
 30
0.0
 10
268.6198751782028
 20
295.3983246462979
 30
0.0
 10
268.3748449012224
 20
295.0935043468241
 30
0.0
 10
268.1391546404886
 20
294.8003031279982
 30
0.0
  0
SPLINE
  5
22D
330
1F
100
AcDbEntity
  8
0
  6
Continuous
 62
     7
370
    25
100
AcDbSpline
210
0.0
220
0.0
230
1.0
 70
     8
 71
     3
 72
    14
 73
    10
 74
     0
 42
0.000000001
 43
0.00000001
 40
0.0
 40
0.0
 40
0.0
 40
0.0
 40
0.25
 40
0.25
 40
0.5
 40
0.5
 40
0.75
 40
0.75
 40
1.0
 40
1.0
 40
1.0
 40
1.0
 10
225.4880880447288
 20
294.8003031279965
 30
0.0
 10
225.4298787289963
 20
294.9441242180771
 30
0.0
 10
225.3864625528073
 20
295.0875973498569
 30
0.0
 10
225.3287845429742
 20
295.3327009468906
 30
0.0
 10
225.314465862182
 20
295.4355395232997
 30
0.0
 10
225.3166781060001
 20
295.5827130443801
 30
0.0
 10
225.333209979019
 20
295.6267291039046
 30
0.0
 10
225.3985113081048
 20
295.672795299208
 30
0.0
 10
225.4473503570737
 20
295.6742080087368
 30
0.0
 10
225.5122879683202
 20
295.6742080087368
 30
0.0
  0
LINE
  5
22E
330
1F
100
AcDbEntity
  8
0
  6
Continuous
 62
     7
370
    25
100
AcDbLine
 10
226.1177135891
 20
295.6742080087
 30
0.0
 11
225.5122879683
 21
295.6742080087
 31
0.0
  0
SPLINE
  5
22F
330
1F
100
AcDbEntity
  8
0
  6
Continuous
 62
     7
370
    25
100
AcDbSpline
210
0.0
220
0.0
230
1.0
 70
     8
 71
     3
 72
    14
 73
    10
 74
     0
 42
0.000000001
 43
0.00000001
 40
0.0
 40
0.0
 40
0.0
 40
0.0
 40
0.2500000000000001
 40
0.2500000000000001
 40
0.5000000000000001
 40
0.5000000000000001
 40
0.75
 40
0.75
 40
1.0
 40
1.0
 40
1.0
 40
1.0
 10
270.7429369574287
 20
294.8003031279965
 30
0.0
 10
270.8011462731612
 20
294.9441242180771
 30
0.0
 10
270.8445624493501
 20
295.0875973498569
 30
0.0
 10
270.9022404591831
 20
295.3327009468906
 30
0.0
 10
270.9165591399755
 20
295.4355395232997
 30
0.0
 10
270.9143468961574
 20
295.5827130443801
 30
0.0
 10
270.8978150231385
 20
295.6267291039046
 30
0.0
 10
270.8325136940527
 20
295.672795299208
 30
0.0
 10
270.7836746450838
 20
295.6742080087368
 30
0.0
 10
270.7187370338373
 20
295.6742080087368
 30
0.0
  0
LINE
  5
230
330
1F
100
AcDbEntity
  8
0
  6
Continuous
 62
     7
370
    25
100
AcDbLine
 10
270.1133114131
 20
295.6742080087
 30
0.0
 11
270.7187370338
 21
295.6742080087
 31
0.0
  0
LINE
  5
231
330
1F
100
AcDbEntity
  8
0
  6
Continuous
 62
     7
370
    25
100
AcDbLine
 10
227.5369373822
 20
295.6742080087
 30
0.0
 11
226.1177135891
 21
295.6742080087
 31
0.0
  0
LINE
  5
232
330
1F
100
AcDbEntity
  8
0
  6
Continuous
 62
     7
370
    25
100
AcDbLine
 10
268.69408762
 20
295.6742080087
 30
0.0
 11
270.1133114131
 21
295.6742080087
 31
0.0
  0
LINE
  5
233
330
1F
100
AcDbEntity
  8
0
  6
Continuous
 62
     7
370
    25
100
AcDbLine
 10
105.8683497989
 20
339.7742080087
 30
0.0
 11
170.3626752032
 21
339.7742080087
 31
0.0
  0
LINE
  5
234
330
1F
100
AcDbEntity
  8
0
  6
Continuous
 62
     7
370
    25
100
AcDbLine
 10
103.1087412952
 20
332.0674012558
 30
0.0
 11
103.0683881806
 21
339.7742080087
 31
0.0
  0
LINE
  5
235
330
1F
100
AcDbEntity
  8
0
  6
Continuous
 62
     7
370
    25
100
AcDbLine
 10
103.0683881806
 20
339.7742080087
 30
0.0
 11
105.8683497989
 21
339.7742080087
 31
0.0
  0
LINE
  5
236
330
1F
100
AcDbEntity
  8
0
  6
Continuous
 62
     7
370
    25
100
AcDbLine
 10
173.1626368215
 20
339.7742080087
 30
0.0
 11
173.122283707
 21
332.0674012558
 31
0.0
  0
LINE
  5
237
330
1F
100
AcDbEntity
  8
0
  6
Continuous
 62
     7
370
    25
100
AcDbLine
 10
170.3626752032
 20
339.7742080087
 30
0.0
 11
173.1626368215
 21
339.7742080087
 31
0.0
  0
LINE
  5
238
330
1F
100
AcDbEntity
  8
0
  6
Continuous
 62
     7
370
    25
100
AcDbLine
 10
170.3223220887
 20
330.7742080087
 30
0.0
 11
105.9087029135
 21
330.7742080087
 31
0.0
  0
LINE
  5
239
330
1F
100
AcDbEntity
  8
0
  6
Continuous
 62
     7
370
    25
100
AcDbLine
 10
105.9087029135
 20
330.7742080087
 30
0.0
 11
104.4087234751
 21
330.7742080087
 31
0.0
  0
ARC
  5
23A
330
1F
100
AcDbEntity
  8
0
  6
Continuous
 62
     7
370
    25
100
AcDbCircle
 10
104.4087234751
 20
332.0742080087
 30
0.0
 40
1.299999999999987
100
AcDbArc
 50
180.3
 51
270.0
  0
ARC
  5
23B
330
1F
100
AcDbEntity
  8
0
  6
Continuous
 62
     7
370
    25
100
AcDbCircle
 10
171.822301527
 20
332.0742080087
 30
0.0
 40
1.300000000000015
100
AcDbArc
 50
270.0
 51
359.7
  0
LINE
  5
23C
330
1F
100
AcDbEntity
  8
0
  6
Continuous
 62
     7
370
    25
100
AcDbLine
 10
171.822301527
 20
330.7742080087
 30
0.0
 11
170.3223220887
 21
330.7742080087
 31
0.0
  0
LINE
  5
23D
330
1F
100
AcDbEntity
  8
0
  6
Continuous
 62
     7
370
    25
100
AcDbLine
 10
116.4556218499
 20
138.5659489044
 30
0.0
 11
116.4053018442
 21
330.7742080087
 31
0.0
  0
LINE
  5
23E
330
1F
100
AcDbEntity
  8
0
  6
Continuous
 62
     7
370
    25
100
AcDbLine
 10
159.825723158
 20
330.7742080087
 30
0.0
 11
159.7754031523
 21
138.5659489044
 31
0.0
  0
LINE
  5
23F
330
1F
100
AcDbEntity
  8
0
  6
Continuous
 62
     7
370
    25
100
AcDbLine
 10
116.4629213029
 20
110.6840928437
 30
0.0
 11
116.4556218499
 21
138.5659489044
 31
0.0
  0
LINE
  5
240
330
1F
100
AcDbEntity
  8
0
  6
Continuous
 62
     7
370
    25
100
AcDbLine
 10
159.7754031523
 20
138.5659489044
 30
0.0
 11
159.7681036992
 21
110.6840926485
 31
0.0
  0
LINE
  5
241
330
1F
100
AcDbEntity
  8
0
  6
Continuous
 62
     7
370
    25
100
AcDbLine
 10
138.1155124991
 20
88.7723724334
 30
0.0
 11
119.9677416001
 21
88.7723724334
 31
0.0
  0
LINE
  5
242
330
1F
100
AcDbEntity
  8
0
  6
Continuous
 62
     7
370
    25
100
AcDbLine
 10
116.467521576
 20
93.1123444782
 30
0.0
 11
116.4629213029
 21
110.6840928437
 31
0.0
  0
LINE
  5
243
330
1F
100
AcDbEntity
  8
0
  6
Continuous
 62
     7
370
    25
100
AcDbLine
 10
116.46774172
 20
92.2714561355
 30
0.0
 11
116.4675210473
 21
93.1143636938
 31
0.0
  0
LINE
  5
244
330
1F
100
AcDbEntity
  8
0
  6
Continuous
 62
     7
370
    25
100
AcDbLine
 10
159.7681036992
 20
110.6840926485
 30
0.0
 11
159.7635034256
 21
93.1123423608
 31
0.0
  0
SPLINE
  5
245
330
1F
100
AcDbEntity
  8
0
  6
Continuous
 62
     7
370
    25
100
AcDbSpline
210
0.0
220
0.0
230
1.0
 70
     8
 71
     3
 72
    22
 73
    18
 74
     0
 42
0.000000001
 43
0.00000001
 40
0.0
 40
0.0
 40
0.0
 40
0.0
 40
0.125
 40
0.125
 40
0.25
 40
0.25
 40
0.375
 40
0.375
 40
0.5
 40
0.5
 40
0.625
 40
0.625
 40
0.75
 40
0.75
 40
0.875
 40
0.875
 40
1.0
 40
1.0
 40
1.0
 40
1.0
 10
119.967741600081
 20
88.77237243336286
 30
0.0
 10
119.7225065651898
 20
88.77237243336286
 30
0.0
 10
119.4759259352955
 20
88.77307921040445
 30
0.0
 10
118.9783190408179
 20
88.80639126192078
 30
0.0
 10
118.727867843602
 20
88.8388472633818
 30
0.0
 10
118.2438585719933
 20
88.9515684263073
 30
0.0
 10
118.0108755649678
 20
89.031684314758
 30
0.0
 10
117.5878324776948
 20
89.24583836989075
 30
0.0
 10
117.3983474648144
 20
89.37972726355895
 30
0.0
 10
117.0757691952105
 20
89.70222109342204
 30
0.0
 10
116.9418306990707
 20
89.8916710477789
 30
0.0
 10
116.727565898857
 20
90.31465805515457
 30
0.0
 10
116.6473890183439
 20
90.54762007990553
 30
0.0
 10
116.5345411459517
 20
91.03159982459638
 30
0.0
 10
116.5020195776336
 20
91.28204251626829
 30
0.0
 10
116.46857725408
 20
91.77964067261851
 30
0.0
 10
116.4678059224054
 20
92.02622110902875
 30
0.0
 10
116.4677417200241
 20
92.27145613551593
 30
0.0
  0
LINE
  5
246
330
1F
100
AcDbEntity
  8
0
  6
Continuous
 62
     7
370
    25
100
AcDbLine
 10
156.2632834021
 20
88.7723724334
 30
0.0
 11
138.1155124991
 21
88.7723724334
 31
0.0
  0
LINE
  5
247
330
1F
100
AcDbEntity
  8
0
  6
Continuous
 62
     7
370
    25
100
AcDbLine
 10
159.7635039541
 20
93.1143611234
 30
0.0
 11
159.7632832821
 21
92.2714561355
 31
0.0
  0
SPLINE
  5
248
330
1F
100
AcDbEntity
  8
0
  6
Continuous
 62
     7
370
    25
100
AcDbSpline
210
0.0
220
0.0
230
1.0
 70
     8
 71
     3
 72
    22
 73
    18
 74
     0
 42
0.000000001
 43
0.00000001
 40
0.0
 40
0.0
 40
0.0
 40
0.0
 40
0.125
 40
0.125
 40
0.25
 40
0.25
 40
0.375
 40
0.375
 40
0.5
 40
0.5
 40
0.625
 40
0.625
 40
0.75
 40
0.75
 40
0.875
 40
0.875
 40
1.0
 40
1.0
 40
1.0
 40
1.0
 10
159.7632832821334
 20
92.27145613551605
 30
0.0
 10
159.7632190797521
 20
92.02622110902884
 30
0.0
 10
159.7624477480775
 20
91.77964067261846
 30
0.0
 10
159.7290054245239
 20
91.28204251626826
 30
0.0
 10
159.6964838562058
 20
91.03159982459636
 30
0.0
 10
159.5836359838137
 20
90.54762007990553
 30
0.0
 10
159.5034591033005
 20
90.3146580551546
 30
0.0
 10
159.2891943030868
 20
89.89167104777893
 30
0.0
 10
159.155255806947
 20
89.702221093422
 30
0.0
 10
158.832677537343
 20
89.37972726355892
 30
0.0
 10
158.6431925244627
 20
89.24583836989072
 30
0.0
 10
158.2201494371897
 20
89.03168431475811
 30
0.0
 10
157.9871664301642
 20
88.95156842630728
 30
0.0
 10
157.5031571585555
 20
88.83884726338177
 30
0.0
 10
157.2527059613396
 20
88.8063912619207
 30
0.0
 10
156.755099066862
 20
88.77307921040433
 30
0.0
 10
156.5085184369678
 20
88.77237243336278
 30
0.0
 10
156.2632834020765
 20
88.77237243336286
 30
0.0
  0
SPLINE
  5
249
330
1F
100
AcDbEntity
  8
0
  6
Continuous
 62
     8
370
    18
100
AcDbSpline
210
0.0
220
0.0
230
1.0
 70
     8
 71
     3
 72
    28
 73
    24
 74
     0
 42
0.000000001
 43
0.00000001
 40
0.0
 40
0.0
 40
0.0
 40
0.0
 40
0.1249999999999999
 40
0.1249999999999999
 40
0.2499999999999998
 40
0.2499999999999998
 40
0.3749999999999997
 40
0.3749999999999997
 40
0.4999999999999997
 40
0.4999999999999997
 40
0.6249999999999996
 40
0.6249999999999996
 40
0.6874999999999996
 40
0.6874999999999996
 40
0.7187499999999998
 40
0.7187499999999998
 40
0.7499999999999999
 40
0.7499999999999999
 40
0.8750000000000003
 40
0.8750000000000003
 40
0.9375000000000002
 40
0.9375000000000002
 40
1.0
 40
1.0
 40
1.0
 40
1.0
 10
226.1003388821794
 20
294.8003064986967
 30
0.0
 10
226.2699254909445
 20
294.4017072213146
 30
0.0
 10
226.5514199276067
 20
294.0129496920999
 30
0.0
 10
227.333243290831
 20
293.2546800607373
 30
0.0
 10
227.8335146255017
 20
292.8848886532597
 30
0.0
 10
229.0637037958253
 20
292.1666083975166
 30
0.0
 10
229.775903326344
 20
291.8284440615206
 30
0.0
 10
231.3899844653266
 20
291.1930889133266
 30
0.0
 10
232.293356885309
 20
290.895433236865
 30
0.0
 10
234.2980954468762
 20
290.3461013350812
 30
0.0
 10
235.3694662218627
 20
290.1020690056325
 30
0.0
 10
237.0789110444718
 20
289.7814765626754
 30
0.0
 10
237.6659482330019
 20
289.6822583337285
 30
0.0
 10
238.5729297757426
 20
289.5451628627244
 30
0.0
 10
238.8796633488782
 20
289.501420616277
 30
0.0
 10
239.5021060180816
 20
289.4179208598718
 30
0.0
 10
239.8186062172307
 20
289.3780784767766
 30
0.0
 10
241.4079517744642
 20
289.1909206788551
 30
0.0
 10
242.7090727092519
 20
289.0781212367365
 30
0.0
 10
244.7051661386478
 20
288.9642441227446
 30
0.0
 10
245.3779925648251
 20
288.9355800972672
 30
0.0
 10
246.7387577612921
 20
288.8970768083586
 30
0.0
 10
247.4277762658687
 20
288.8873002181917
 30
0.0
 10
248.1156843216974
 20
288.8867937804363
 30
0.0
  0
SPLINE
  5
24A
330
1F
100
AcDbEntity
  8
0
  6
Continuous
 62
     8
370
    18
100
AcDbSpline
210
0.0
220
0.0
230
1.0
 70
     8
 71
     3
 72
    28
 73
    24
 74
     0
 42
0.000000001
 43
0.00000001
 40
0.0
 40
0.0
 40
0.0
 40
0.0
 40
0.1249999999999989
 40
0.1249999999999989
 40
0.2499999999999977
 40
0.2499999999999977
 40
0.3749999999999966
 40
0.3749999999999966
 40
0.4999999999999954
 40
0.4999999999999954
 40
0.6249999999999943
 40
0.6249999999999943
 40
0.6874999999999944
 40
0.6874999999999944
 40
0.718749999999995
 40
0.718749999999995
 40
0.7499999999999956
 40
0.7499999999999956
 40
0.8749999999999978
 40
0.8749999999999978
 40
0.9374999999999989
 40
0.9374999999999989
 40
1.0
 40
1.0
 40
1.0
 40
1.0
 10
270.1306861199781
 20
294.8003064986967
 30
0.0
 10
269.961099511213
 20
294.4017072213146
 30
0.0
 10
269.6796050745508
 20
294.0129496920999
 30
0.0
 10
268.8977817113264
 20
293.2546800607373
 30
0.0
 10
268.3975103766558
 20
292.8848886532597
 30
0.0
 10
267.1673212063321
 20
292.1666083975166
 30
0.0
 10
266.4551216758135
 20
291.8284440615207
 30
0.0
 10
264.8410405368309
 20
291.1930889133266
 30
0.0
 10
263.9376681168486
 20
290.895433236865
 30
0.0
 10
261.9329295552812
 20
290.3461013350812
 30
0.0
 10
260.8615587802948
 20
290.1020690056325
 30
0.0
 10
259.1521139576857
 20
289.7814765626754
 30
0.0
 10
258.5650767691556
 20
289.6822583337285
 30
0.0
 10
257.6580952264148
 20
289.5451628627243
 30
0.0
 10
257.3513616532794
 20
289.5014206162771
 30
0.0
 10
256.728918984076
 20
289.4179208598719
 30
0.0
 10
256.4124187849268
 20
289.3780784767767
 30
0.0
 10
254.8230732276933
 20
289.1909206788551
 30
0.0
 10
253.5219522929055
 20
289.0781212367365
 30
0.0
 10
251.5258588635097
 20
288.9642441227446
 30
0.0
 10
250.8530324373324
 20
288.9355800972672
 30
0.0
 10
249.4922672408654
 20
288.8970768083586
 30
0.0
 10
248.8032487362889
 20
288.8873002181917
 30
0.0
 10
248.11534068046
 20
288.8867937804363
 30
0.0
  0
ELLIPSE
  5
24B
330
1F
100
AcDbEntity
  8
0
  6
Continuous
 62
     8
370
    18
100
AcDbEllipse
 10
248.1155125011
 20
295.6563306086
 30
0.0
 11
22.79999999999995
 21
0.0
 31
0.0
210
0.0
220
0.0
230
1.0
 40
0.3057306815
 41
3.264707808340332
 42
6.160070152429138
  0
ELLIPSE
  5
24C
330
1F
100
AcDbEntity
  8
0
  6
Continuous
 62
     8
370
    25
100
AcDbEllipse
 10
248.1155125011
 20
295.4650696574
 30
0.0
 11
23.0
 21
0.0
 31
0.0
210
0.0
220
0.0
230
1.0
 40
0.3030721538
 41
3.264707808340116
 42
6.160070152429355
  0
ARC
  5
24D
330
1F
100
AcDbEntity
  8
0
  6
Continuous
 62
     8
370
    18
100
AcDbCircle
 10
270.7382080281
 20
294.5967729024
 30
0.0
 40
0.2035851554459869
100
AcDbArc
 50
3.4550843066
 51
88.6689989205
  0
ARC
  5
24E
330
1F
100
AcDbEntity
  8
0
  6
Continuous
 62
     8
370
    18
100
AcDbCircle
 10
225.492816974
 20
294.5967729024
 30
0.0
 40
0.2035851554459869
100
AcDbArc
 50
91.3310010795
 51
176.5449156934
  0
LINE
  5
24F
330
1F
100
AcDbEntity
  8
0
  6
Continuous
 62
     8
370
    25
100
AcDbLine
 10
259.8694410153
 20
303.7226318809
 30
0.0
 11
225.8062711808
 21
303.7226318809
 31
0.0
  0
LINE
  5
250
330
1F
100
AcDbEntity
  8
0
  6
Continuous
 62
     8
370
    25
100
AcDbLine
 10
270.4247538214
 20
303.7226318809
 30
0.0
 11
259.8694410153
 21
303.7226318809
 31
0.0
  0
LINE
  5
251
330
1F
100
AcDbEntity
  8
0
  6
Continuous
 62
     8
370
    25
100
AcDbLine
 10
259.8321642977
 20
303.6611280067
 30
0.0
 11
225.8770232946
 21
303.6611280067
 31
0.0
  0
LINE
  5
252
330
1F
100
AcDbEntity
  8
0
  6
Continuous
 62
     8
370
    25
100
AcDbLine
 10
270.3540017076
 20
303.6611280067
 30
0.0
 11
259.8321642977
 21
303.6611280067
 31
0.0
  0
SPLINE
  5
253
330
1F
100
AcDbEntity
  8
0
  6
Continuous
 62
     8
370
    18
100
AcDbSpline
210
0.0
220
0.0
230
1.0
 70
    24
 71
     3
 72
    12
 73
     8
 74
     0
 42
0.000000001
 43
0.00000001
 40
0.0
 40
0.0
 40
0.0
 40
0.0
 40
0.5
 40
0.5
 40
0.75
 40
0.75
 40
1.0
 40
1.0
 40
1.0
 40
1.0
 10
248.1155125010788
 20
263.8750326296974
 30
0.0
 10
248.1155125010788
 20
263.7181963472135
 30
0.0
 10
248.1155125010787
 20
263.6065181297361
 30
0.0
 10
248.1155125010787
 20
263.515699809291
 30
0.0
 10
248.1155125010787
 20
263.4983734295765
 30
0.0
 10
248.1155125010787
 20
263.4868601187624
 30
0.0
 10
248.1155125010788
 20
263.4928265949003
 30
0.0
 10
248.1155125010788
 20
263.5047340186818
 30
0.0
  0
SPLINE
  5
254
330
1F
100
AcDbEntity
  8
0
  6
Continuous
 62
     8
370
    18
100
AcDbSpline
210
0.0
220
0.0
230
1.0
 70
     8
 71
     3
 72
    14
 73
    10
 74
     0
 42
0.000000001
 43
0.00000001
 40
0.0
 40
0.0
 40
0.0
 40
0.0
 40
0.25
 40
0.25
 40
0.5
 40
0.5
 40
0.75
 40
0.75
 40
1.0
 40
1.0
 40
1.0
 40
1.0
 10
226.1177135890576
 20
295.6742080087367
 30
0.0
 10
226.0506002060649
 20
295.6742080087366
 30
0.0
 10
226.0001308605958
 20
295.6728007536659
 30
0.0
 10
225.9328906689392
 20
295.6267034789441
 30
0.0
 10
225.916096403078
 20
295.5826698332683
 30
0.0
 10
225.9151621418151
 20
295.4353022442499
 30
0.0
 10
225.9309883106572
 20
295.3325089618649
 30
0.0
 10
225.9928324432551
 20
295.0874619493597
 30
0.0
 10
226.0390145541443
 20
294.9444442523808
 30
0.0
 10
226.1003388821794
 20
294.8003064986967
 30
0.0
  0
SPLINE
  5
255
330
1F
100
AcDbEntity
  8
0
  6
Continuous
 62
     8
370
    18
100
AcDbSpline
210
0.0
220
0.0
230
1.0
 70
     8
 71
     3
 72
    14
 73
    10
 74
     0
 42
0.000000001
 43
0.00000001
 40
0.0
 40
0.0
 40
0.0
 40
0.0
 40
0.2500000000000001
 40
0.2500000000000001
 40
0.5000000000000001
 40
0.5000000000000001
 40
0.75
 40
0.75
 40
1.0
 40
1.0
 40
1.0
 40
1.0
 10
270.1133114130999
 20
295.6742080087367
 30
0.0
 10
270.1804247960926
 20
295.6742080087366
 30
0.0
 10
270.2308941415617
 20
295.6728007536659
 30
0.0
 10
270.2981343332182
 20
295.6267034789441
 30
0.0
 10
270.3149285990795
 20
295.5826698332683
 30
0.0
 10
270.3158628603423
 20
295.43530224425
 30
0.0
 10
270.3000366915002
 20
295.3325089618649
 30
0.0
 10
270.2381925589024
 20
295.0874619493597
 30
0.0
 10
270.1920104480132
 20
294.9444442523808
 30
0.0
 10
270.1306861199781
 20
294.8003064986967
 30
0.0
  0
SPLINE
  5
256
330
1F
100
AcDbEntity
  8
0
  6
Continuous
 62
     8
370
    18
100
AcDbSpline
210
0.0
220
0.0
230
1.0
 70
     8
 71
     3
 72
    11
 73
     7
 74
     0
 42
0.000000001
 43
0.00000001
 40
0.0
 40
0.0
 40
0.0
 40
0.0
 40
0.4022371812388782
 40
0.7037011773803079
 40
0.9030951424435054
 40
1.0
 40
1.0
 40
1.0
 40
1.0
 10
117.5176444003314
 20
110.6840409033547
 30
0.0
 10
117.5186426053986
 20
108.3279714977035
 30
0.0
 10
117.5203889334703
 20
104.2061028786964
 30
0.0
 10
117.5146367891423
 20
98.91630909987867
 30
0.0
 10
117.5152664464552
 20
95.41495670557227
 30
0.0
 10
117.5229511198309
 20
93.67942868786591
 30
0.0
 10
117.5254644007554
 20
93.11182233069523
 30
0.0
  0
SPLINE
  5
257
330
1F
100
AcDbEntity
  8
0
  6
Continuous
 62
     8
370
    18
100
AcDbSpline
210
0.0
220
0.0
230
1.0
 70
     8
 71
     3
 72
    10
 73
     6
 74
     0
 42
0.000000001
 43
0.00000001
 40
0.0
 40
0.0
 40
0.0
 40
0.0
 40
0.5
 40
0.5
 40
1.0
 40
1.0
 40
1.0
 40
1.0
 10
117.5060203595153
 20
138.5658843428632
 30
0.0
 10
117.5070466217563
 20
133.9165799308881
 30
0.0
 10
117.5083044335274
 20
129.2647383624176
 30
0.0
 10
117.5118774001755
 20
119.9672425108965
 30
0.0
 10
117.5144414732014
 20
115.3234136330625
 30
0.0
 10
117.5176444003314
 20
110.6840409033548
 30
0.0
  0
SPLINE
  5
258
330
1F
100
AcDbEntity
  8
0
  6
Continuous
 62
     8
370
    18
100
AcDbSpline
210
0.0
220
0.0
230
1.0
 70
     8
 71
     3
 72
    16
 73
    12
 74
     0
 42
0.000000001
 43
0.00000001
 40
0.0
 40
0.0
 40
0.0
 40
0.0
 40
0.25
 40
0.25
 40
0.5
 40
0.5
 40
0.75
 40
0.75
 40
0.875
 40
0.875
 40
1.0
 40
1.0
 40
1.0
 40
1.0
 10
117.4301804478842
 20
330.7742080087368
 30
0.0
 10
117.4354797424454
 20
314.7560418046984
 30
0.0
 10
117.4405487660658
 20
298.7374092116698
 30
0.0
 10
117.4516908970567
 20
266.7023933785495
 30
0.0
 10
117.4578301917409
 20
250.6860657619773
 30
0.0
 10
117.4699561232272
 20
218.6496376551811
 30
0.0
 10
117.4761643205974
 20
202.6359223880695
 30
0.0
 10
117.4862470697731
 20
178.6061893043742
 30
0.0
 10
117.4897384554391
 20
170.595113825421
 30
0.0
 10
117.4972829308516
 20
154.5817393155156
 30
0.0
 10
117.5013074866706
 20
146.5781425326419
 30
0.0
 10
117.5060203595153
 20
138.5658843428631
 30
0.0
  0
SPLINE
  5
259
330
1F
100
AcDbEntity
  8
0
  6
Continuous
 62
     8
370
    18
100
AcDbSpline
210
0.0
220
0.0
230
1.0
 70
     8
 71
     3
 72
    16
 73
    12
 74
     0
 42
0.000000001
 43
0.00000001
 40
0.0
 40
0.0
 40
0.0
 40
0.0
 40
0.1250000000000002
 40
0.1250000000000002
 40
0.2500000000000003
 40
0.2500000000000003
 40
0.5000000000000002
 40
0.5000000000000002
 40
0.7500000000000001
 40
0.7500000000000001
 40
1.0
 40
1.0
 40
1.0
 40
1.0
 10
158.7250046426422
 20
138.5658843428631
 30
0.0
 10
158.7297175154868
 20
146.578142532642
 30
0.0
 10
158.7337420713058
 20
154.5817393155154
 30
0.0
 10
158.7412865467185
 20
170.595113825421
 30
0.0
 10
158.7447779323844
 20
178.6061893043744
 30
0.0
 10
158.7548606815601
 20
202.6359223880689
 30
0.0
 10
158.7610688789302
 20
218.6496376551811
 30
0.0
 10
158.7731948104166
 20
250.6860657619774
 30
0.0
 10
158.7793341051008
 20
266.7023933785496
 30
0.0
 10
158.7904762360916
 20
298.7374092116697
 30
0.0
 10
158.795545259712
 20
314.7560418046984
 30
0.0
 10
158.8008445542733
 20
330.7742080087368
 30
0.0
  0
SPLINE
  5
25A
330
1F
100
AcDbEntity
  8
0
  6
Continuous
 62
     8
370
    18
100
AcDbSpline
210
0.0
220
0.0
230
1.0
 70
     8
 71
     3
 72
    10
 73
     6
 74
     0
 42
0.000000001
 43
0.00000001
 40
0.0
 40
0.0
 40
0.0
 40
0.0
 40
0.5
 40
0.5
 40
1.0
 40
1.0
 40
1.0
 40
1.0
 10
158.7133806018261
 20
110.6840409033547
 30
0.0
 10
158.7165835289561
 20
115.3234136330624
 30
0.0
 10
158.719147601982
 20
119.9672425108964
 30
0.0
 10
158.72272056863
 20
129.2647383624174
 30
0.0
 10
158.7239783804012
 20
133.9165799308879
 30
0.0
 10
158.7250046426422
 20
138.5658843428631
 30
0.0
  0
SPLINE
  5
25B
330
1F
100
AcDbEntity
  8
0
  6
Continuous
 62
     8
370
    18
100
AcDbSpline
210
0.0
220
0.0
230
1.0
 70
     8
 71
     3
 72
    11
 73
     7
 74
     0
 42
0.000000001
 43
0.00000001
 40
0.0
 40
0.0
 40
0.0
 40
0.0
 40
0.0969048698289236
 40
0.2962988390594259
 40
0.5977628312206779
 40
1.0
 40
1.0
 40
1.0
 40
1.0
 10
158.7055606000969
 20
93.11182021301134
 30
0.0
 10
158.7080738825426
 20
93.67942671046673
 30
0.0
 10
158.7157585600225
 20
95.41495503361011
 30
0.0
 10
158.7163882190463
 20
98.91630792286549
 30
0.0
 10
158.7106360685721
 20
104.206102267287
 30
0.0
 10
158.7123823967218
 20
108.3279712867442
 30
0.0
 10
158.7133806018261
 20
110.6840409033547
 30
0.0
  0
LINE
  5
25C
330
1F
100
AcDbEntity
  8
0
  6
Continuous
 62
     8
370
    18
100
AcDbLine
 10
158.7043207895
 20
92.2696726953
 30
0.0
 11
158.7048416155
 21
93.1123623184
 31
0.0
  0
SPLINE
  5
25D
330
1F
100
AcDbEntity
  8
0
  6
Continuous
 62
     8
370
    18
100
AcDbSpline
210
0.0
220
0.0
230
1.0
 70
     8
 71
     3
 72
    17
 73
    13
 74
     0
 42
0.000000001
 43
0.00000001
 40
0.0
 40
0.0
 40
0.0
 40
0.0
 40
0.1014221813722769
 40
0.1845838270053718
 40
0.2496794023070991
 40
0.346493716766813
 40
0.4289771292931668
 40
0.5006612644417938
 40
0.6112884877235074
 40
0.7504117062930595
 40
0.8547533127487842
 40
1.0
 40
1.0
 40
1.0
 40
1.0
 10
156.2643858707354
 20
89.83136924792457
 30
0.0
 10
156.4049085916927
 20
89.83239124636391
 30
0.0
 10
156.6606536492781
 20
89.83425123774416
 30
0.0
 10
157.0063281159383
 20
89.85118846771803
 30
0.0
 10
157.3441315922448
 20
89.8876013529675
 30
0.0
 10
157.6759288817653
 20
89.96182801595809
 30
0.0
 10
157.9999367149765
 20
90.09348182138677
 30
0.0
 10
158.3016455622508
 20
90.31174623337742
 30
0.0
 10
158.536351132224
 20
90.7049691289706
 30
0.0
 10
158.6538933073497
 20
91.18521048199271
 30
0.0
 10
158.699504363992
 20
91.72251923727801
 30
0.0
 10
158.7025489863848
 20
92.06839309485915
 30
0.0
 10
158.7043207895006
 20
92.26967269525358
 30
0.0
  0
SPLINE
  5
25E
330
1F
100
AcDbEntity
  8
0
  6
Continuous
 62
     8
370
    18
100
AcDbSpline
210
0.0
220
0.0
230
1.0
 70
     8
 71
     3
 72
     8
 73
     4
 74
     0
 42
0.000000001
 43
0.00000001
 40
0.0
 40
0.0
 40
0.0
 40
0.0
 40
1.0
 40
1.0
 40
1.0
 40
1.0
 10
138.1155125834528
 20
89.82825025685956
 30
0.0
 10
144.1651370125507
 20
89.82927626381776
 30
0.0
 10
150.2147614416486
 20
89.83030185168379
 30
0.0
 10
156.2643858707354
 20
89.8313692479244
 30
0.0
  0
SPLINE
  5
25F
330
1F
100
AcDbEntity
  8
0
  6
Continuous
 62
     8
370
    18
100
AcDbSpline
210
0.0
220
0.0
230
1.0
 70
     8
 71
     3
 72
     8
 73
     4
 74
     0
 42
0.000000001
 43
0.00000001
 40
0.0
 40
0.0
 40
0.0
 40
0.0
 40
1.0
 40
1.0
 40
1.0
 40
1.0
 10
119.9666390623824
 20
89.83136902831667
 30
0.0
 10
126.0162635694133
 20
89.83030170174469
 30
0.0
 10
132.0658880764329
 20
89.82927618541181
 30
0.0
 10
138.1155125834528
 20
89.8282502568595
 30
0.0
  0
SPLINE
  5
260
330
1F
100
AcDbEntity
  8
0
  6
Continuous
 62
     8
370
    18
100
AcDbSpline
210
0.0
220
0.0
230
1.0
 70
     8
 71
     3
 72
    17
 73
    13
 74
     0
 42
0.000000001
 43
0.00000001
 40
0.0
 40
0.0
 40
0.0
 40
0.0
 40
0.1013633771746835
 40
0.1844909747203543
 40
0.2495775742541656
 40
0.3463583534454858
 40
0.428817821113922
 40
0.500488805030313
 40
0.6111399394795666
 40
0.7503099099639923
 40
0.8546743891839632
 40
1.0
 40
1.0
 40
1.0
 40
1.0
 10
117.5267042097509
 20
92.2696726439986
 30
0.0
 10
117.5277654551066
 20
92.12923180540986
 30
0.0
 10
117.5296970224591
 20
91.87361613904221
 30
0.0
 10
117.5467471728578
 20
91.52808838307133
 30
0.0
 10
117.583283351233
 20
91.19040479817345
 30
0.0
 10
117.6576358676824
 20
90.85872968303948
 30
0.0
 10
117.7894204781921
 20
90.53487858461895
 30
0.0
 10
118.0078555384874
 20
90.23331522515652
 30
0.0
 10
118.4012868375938
 20
89.99880460547496
 30
0.0
 10
118.881701747698
 20
89.88144758422717
 30
0.0
 10
119.4192337340821
 20
89.83602972559676
 30
0.0
 10
119.7652495643761
 20
89.83308369099355
 30
0.0
 10
119.9666390623824
 20
89.83136902831659
 30
0.0
  0
LINE
  5
261
330
1F
100
AcDbEntity
  8
0
  6
Continuous
 62
     8
370
    18
100
AcDbLine
 10
117.5261833743
 20
93.1123649446
 30
0.0
 11
117.5267042098
 21
92.269672644
 31
0.0
  0
LWPOLYLINE
  5
262
330
1F
100
AcDbEntity
  8
0
  6
Continuous
 62
     8
370
    18
100
AcDbPolyline
 90
        9
 70
   128
 43
0.0
 10
117.5060203595
 20
138.5658843429
 10
117.30002842
 20
138.5658380407
 10
117.102533633
 20
138.565806409
 10
116.9209412426
 20
138.5657906339
 10
116.7620602185
 20
138.5657913068
 10
116.631847947
 20
138.5658084026
 10
116.5351868541
 20
138.5658412803
 10
116.4757013341
 20
138.565888707
 10
116.4556218499
 20
138.5659489044
  0
LWPOLYLINE
  5
263
330
1F
100
AcDbEntity
  8
0
  6
Continuous
 62
     8
370
    18
100
AcDbPolyline
 90
        9
 70
   128
 43
0.0
 10
158.7250046426
 20
138.5658843429
 10
158.9309965822
 20
138.5658380406
 10
159.1284913692
 20
138.5658064089
 10
159.3100837595
 20
138.5657906336
 10
159.4689647837
 20
138.5657913064
 10
159.5991770552
 20
138.565808402
 10
159.6958381481
 20
138.5658412794
 10
159.7553236681
 20
138.5658887058
 10
159.7754031523
 20
138.5659489044
  0
LWPOLYLINE
  5
264
330
1F
100
AcDbEntity
  8
0
  6
Continuous
 62
     8
370
    18
100
AcDbPolyline
 90
        9
 70
   128
 43
0.0
 10
117.5176444003
 20
110.6840409034
 10
117.311253615
 20
110.6839937158
 10
117.1131334671
 20
110.6839607222
 10
116.9307901052
 20
110.6839431725
 10
116.7711319447
 20
110.6839417316
 10
116.6402079305
 20
110.6839564541
 10
116.5429783611
 20
110.6839867822
 10
116.4831269585
 20
110.6840315669
 10
116.4629213029
 20
110.6840928437
  0
LWPOLYLINE
  5
265
330
1F
100
AcDbEntity
  8
0
  6
Continuous
 62
     8
370
    18
100
AcDbPolyline
 90
        9
 70
   128
 43
0.0
 10
158.7133806018
 20
110.6840409034
 10
158.9197713872
 20
110.6839937158
 10
159.117891535
 20
110.6839607222
 10
159.3002348969
 20
110.6839431725
 10
159.4598930574
 20
110.6839417316
 10
159.5908170716
 20
110.6839564541
 10
159.6880466411
 20
110.6839867822
 10
159.7478980437
 20
110.6840315669
 10
159.7681036992
 20
110.6840926485
  0
ARC
  5
266
330
1F
100
AcDbEntity
  8
0
  6
Continuous
 62
     8
370
    18
100
AcDbCircle
 10
374.7850692864
 20
89.5671655573
 30
0.0
 40
254.8185671910311
100
AcDbArc
 50
179.9405940207
 51
180.1787089768
  0
LWPOLYLINE
  5
267
330
1F
100
AcDbEntity
  8
0
  6
Continuous
 62
     8
370
    18
100
AcDbPolyline
 90
        9
 70
   128
 43
0.0
 10
138.1155125835
 20
89.8282502569
 10
138.1155125817
 20
89.6217543913
 10
138.115512577
 20
89.4234678892
 10
138.1155125693
 20
89.2409240214
 10
138.1155125591
 20
89.0810579672
 10
138.1155125466
 20
88.9499433338
 10
138.1155125324
 20
88.8525614085
 10
138.115512517
 20
88.792611911
 10
138.1155124991
 20
88.7723724334
  0
SPLINE
  5
268
330
1F
100
AcDbEntity
  8
0
  6
Continuous
 62
     8
370
    18
100
AcDbSpline
210
0.0
220
0.0
230
1.0
 70
     8
 71
     3
 72
    14
 73
    10
 74
     0
 42
0.000000001
 43
0.00000001
 40
0.0
 40
0.0
 40
0.0
 40
0.0
 40
0.25
 40
0.25
 40
0.5
 40
0.5
 40
0.75
 40
0.75
 40
1.0
 40
1.0
 40
1.0
 40
1.0
 10
117.5254629676598
 20
93.11177473784727
 30
0.0
 10
117.4004019409588
 20
93.11174318679896
 30
0.0
 10
117.265630321582
 20
93.11175792910595
 30
0.0
 10
117.004939128196
 20
93.11191315162992
 30
0.0
 10
116.8798244274239
 20
93.11205457360289
 30
0.0
 10
116.6734257050982
 20
93.11244508945387
 30
0.0
 10
116.5928321482948
 20
93.11269287137378
 30
0.0
 10
116.489992803333
 20
93.11322527244317
 30
0.0
 10
116.4675212713542
 20
93.1135080087182
 30
0.0
 10
116.4675212012559
 20
93.11377576429994
 30
0.0
  0
ARC
  5
269
330
1F
100
AcDbEntity
  8
0
  6
Continuous
 62
     8
370
    18
100
AcDbCircle
 10
117.2268295587
 20
228.6013335127
 30
0.0
 40
136.3319906699232
100
AcDbArc
 50
269.6809791014
 51
270.1260273957
  0
SPLINE
  5
26A
330
1F
100
AcDbEntity
  8
0
  6
Continuous
 62
     8
370
    18
100
AcDbSpline
210
0.0
220
0.0
230
1.0
 70
     8
 71
     3
 72
    14
 73
    10
 74
     0
 42
0.000000001
 43
0.00000001
 40
0.0
 40
0.0
 40
0.0
 40
0.0
 40
0.25
 40
0.25
 40
0.5
 40
0.5
 40
0.75
 40
0.75
 40
1.0
 40
1.0
 40
1.0
 40
1.0
 10
158.7048397790562
 20
93.11210843144718
 30
0.0
 10
158.8298107712346
 20
93.11207619473983
 30
0.0
 10
158.9644052889197
 20
93.11205839904724
 30
0.0
 10
159.224905569435
 20
93.11206841167527
 30
0.0
 10
159.3499785937684
 20
93.1120966311322
 30
0.0
 10
159.5564930177415
 20
93.11219824551695
 30
0.0
 10
159.6372446716234
 20
93.11227130299862
 30
0.0
 10
159.7405170855677
 20
93.11244035028962
 30
0.0
 10
159.7633795549943
 20
93.11253565003896
 30
0.0
 10
159.7635029828274
 20
93.11262956773395
 30
0.0
  0
ARC
  5
26B
330
1F
100
AcDbEntity
  8
0
  6
Continuous
 62
     8
370
    18
100
AcDbCircle
 10
-98.5694946524
 20
89.5671650842
 30
0.0
 40
254.8340174825682
100
AcDbArc
 50
359.8213019645
 51
0.0594025334
  0
ARC
  5
26C
330
1F
100
AcDbEntity
  8
0
  6
Continuous
 62
     8
370
    18
100
AcDbCircle
 10
159.004196063
 20
228.6048833066
 30
0.0
 40
136.3355404053275
100
AcDbArc
 50
269.873975624
 51
270.3190123318
  0
ENDSEC
  0
SECTION
  2
OBJECTS
  0
DICTIONARY
  5
C
330
0
100
AcDbDictionary
281
     1
  3
ACAD_GROUP
350
D
  3
ACAD_LAYOUT
350
1A
  3
ACAD_MLINESTYLE
350
17
  3
ACAD_PLOTSETTINGS
350
19
  3
ACAD_PLOTSTYLENAME
350
E
  3
ACAD_SCALELIST
350
47
  0
DICTIONARY
  5
D
102
{ACAD_REACTORS
330
C
102
}
330
C
100
AcDbDictionary
281
     1
  0
DICTIONARY
  5
1A
102
{ACAD_REACTORS
330
C
102
}
330
C
100
AcDbDictionary
281
     1
  3
Layout1
350
1E
  3
Layout2
350
26
  3
Model
350
22
  0
DICTIONARY
  5
17
102
{ACAD_REACTORS
330
C
102
}
330
C
100
AcDbDictionary
281
     1
  3
Standard
350
18
  0
DICTIONARY
  5
19
102
{ACAD_REACTORS
330
C
102
}
330
C
100
AcDbDictionary
281
     1
  0
ACDBDICTIONARYWDFLT
  5
E
102
{ACAD_REACTORS
330
C
102
}
330
C
100
AcDbDictionary
281
     1
  3
Normal
350
F
100
AcDbDictionaryWithDefault
340
F
  0
DICTIONARY
  5
47
102
{ACAD_REACTORS
330
C
102
}
330
C
100
AcDbDictionary
281
     1
  3
A0
350
48
  3
A1
350
49
  3
A2
350
4A
  3
A3
350
4B
  3
A4
350
4C
  3
A5
350
4D
  3
A6
350
4E
  3
A7
350
4F
  3
A8
350
50
  3
A9
350
51
  3
B0
350
52
  3
B1
350
53
  3
B2
350
54
  3
B3
350
55
  3
B4
350
56
  3
B5
350
57
  3
B6
350
58
  3
B7
350
59
  3
B8
350
5A
  3
B9
350
5B
  3
C0
350
5C
  3
C1
350
5D
  3
C2
350
5E
  3
C3
350
5F
  3
C4
350
60
  3
C5
350
61
  3
C6
350
62
  3
C7
350
63
  3
C8
350
64
  3
C9
350
65
  3
D0
350
66
  3
D1
350
67
  3
D2
350
68
  0
LAYOUT
  5
1E
102
{ACAD_REACTORS
330
1A
102
}
330
1A
100
AcDbPlotSettings
  1

  2
none_device
  4

  6

 40
0.0
 41
0.0
 42
0.0
 43
0.0
 44
0.0
 45
0.0
 46
0.0
 47
0.0
 48
0.0
 49
0.0
140
0.0
141
0.0
142
1.0
143
1.0
 70
   688
 72
     1
 73
     0
 74
     5
  7

 75
    16
147
1.0
148
0.0
149
0.0
100
AcDbLayout
  1
Layout1
 70
     1
 71
     1
 10
0.0
 20
0.0
 11
420.0
 21
297.0
 12
0.0
 22
0.0
 32
0.0
 14
1.0000000000E+20
 24
1.0000000000E+20
 34
1.0000000000E+20
 15
-1.0000000000E+20
 25
-1.0000000000E+20
 35
-1.0000000000E+20
146
0.0
 13
0.0
 23
0.0
 33
0.0
 16
1.0
 26
0.0
 36
0.0
 17
0.0
 27
1.0
 37
0.0
 76
     0
330
1B
  0
LAYOUT
  5
26
102
{ACAD_REACTORS
330
1A
102
}
330
1A
100
AcDbPlotSettings
  1

  2
none_device
  4

  6

 40
0.0
 41
0.0
 42
0.0
 43
0.0
 44
0.0
 45
0.0
 46
0.0
 47
0.0
 48
0.0
 49
0.0
140
0.0
141
0.0
142
1.0
143
1.0
 70
   688
 72
     1
 73
     0
 74
     5
  7

 75
    16
147
1.0
148
0.0
149
0.0
100
AcDbLayout
  1
Layout2
 70
     1
 71
     2
 10
0.0
 20
0.0
 11
0.0
 21
0.0
 12
0.0
 22
0.0
 32
0.0
 14
0.0
 24
0.0
 34
0.0
 15
0.0
 25
0.0
 35
0.0
146
0.0
 13
0.0
 23
0.0
 33
0.0
 16
1.0
 26
0.0
 36
0.0
 17
0.0
 27
1.0
 37
0.0
 76
     0
330
23
  0
LAYOUT
  5
22
102
{ACAD_REACTORS
330
1A
102
}
330
1A
100
AcDbPlotSettings
  1

  2
none_device
  4
Letter_(8.50_x_11.00_Inches)
  6

 40
6.35
 41
6.35
 42
6.35000508
 43
6.35000508
 44
215.9
 45
279.4
 46
0.0
 47
0.0
 48
0.0
 49
0.0
140
0.0
141
0.0
142
1.0
143
1.0
 70
  1712
 72
     1
 73
     0
 74
     0
  7

 75
     0
147
1.0
148
0.0
149
0.0
100
AcDbLayout
  1
Model
 70
     1
 71
     0
 10
0.0
 20
0.0
 11
841.0
 21
594.0
 12
0.0
 22
0.0
 32
0.0
 14
0.0
 24
0.0
 34
0.0
 15
841.0
 25
594.0
 35
0.0
146
0.0
 13
0.0
 23
0.0
 33
0.0
 16
1.0
 26
0.0
 36
0.0
 17
0.0
 27
1.0
 37
0.0
 76
     0
330
1F
331
29
  0
MLINESTYLE
  5
18
102
{ACAD_REACTORS
330
17
102
}
330
17
100
AcDbMlineStyle
  2
Standard
 70
     0
  3

 62
   256
 51
90.0
 52
90.0
 71
     2
 49
0.5
 62
   256
  6
BYLAYER
 49
-0.5
 62
   256
  6
BYLAYER
  0
ACDBPLACEHOLDER
  5
F
102
{ACAD_REACTORS
330
E
102
}
330
E
  0
SCALE
  5
48
102
{ACAD_REACTORS
330
47
102
}
330
47
100
AcDbScale
 70
     0
300
1:1
140
1.0
141
1.0
290
     1
  0
SCALE
  5
49
102
{ACAD_REACTORS
330
47
102
}
330
47
100
AcDbScale
 70
     0
300
1:2
140
1.0
141
2.0
290
     0
  0
SCALE
  5
4A
102
{ACAD_REACTORS
330
47
102
}
330
47
100
AcDbScale
 70
     0
300
1:4
140
1.0
141
4.0
290
     0
  0
SCALE
  5
4B
102
{ACAD_REACTORS
330
47
102
}
330
47
100
AcDbScale
 70
     0
300
1:5
140
1.0
141
5.0
290
     0
  0
SCALE
  5
4C
102
{ACAD_REACTORS
330
47
102
}
330
47
100
AcDbScale
 70
     0
300
1:8
140
1.0
141
8.0
290
     0
  0
SCALE
  5
4D
102
{ACAD_REACTORS
330
47
102
}
330
47
100
AcDbScale
 70
     0
300
1:10
140
1.0
141
10.0
290
     0
  0
SCALE
  5
4E
102
{ACAD_REACTORS
330
47
102
}
330
47
100
AcDbScale
 70
     0
300
1:16
140
1.0
141
16.0
290
     0
  0
SCALE
  5
4F
102
{ACAD_REACTORS
330
47
102
}
330
47
100
AcDbScale
 70
     0
300
1:20
140
1.0
141
20.0
290
     0
  0
SCALE
  5
50
102
{ACAD_REACTORS
330
47
102
}
330
47
100
AcDbScale
 70
     0
300
1:30
140
1.0
141
30.0
290
     0
  0
SCALE
  5
51
102
{ACAD_REACTORS
330
47
102
}
330
47
100
AcDbScale
 70
     0
300
1:40
140
1.0
141
40.0
290
     0
  0
SCALE
  5
52
102
{ACAD_REACTORS
330
47
102
}
330
47
100
AcDbScale
 70
     0
300
1:50
140
1.0
141
50.0
290
     0
  0
SCALE
  5
53
102
{ACAD_REACTORS
330
47
102
}
330
47
100
AcDbScale
 70
     0
300
1:100
140
1.0
141
100.0
290
     0
  0
SCALE
  5
54
102
{ACAD_REACTORS
330
47
102
}
330
47
100
AcDbScale
 70
     0
300
2:1
140
2.0
141
1.0
290
     0
  0
SCALE
  5
55
102
{ACAD_REACTORS
330
47
102
}
330
47
100
AcDbScale
 70
     0
300
4:1
140
4.0
141
1.0
290
     0
  0
SCALE
  5
56
102
{ACAD_REACTORS
330
47
102
}
330
47
100
AcDbScale
 70
     0
300
8:1
140
8.0
141
1.0
290
     0
  0
SCALE
  5
57
102
{ACAD_REACTORS
330
47
102
}
330
47
100
AcDbScale
 70
     0
300
10:1
140
10.0
141
1.0
290
     0
  0
SCALE
  5
58
102
{ACAD_REACTORS
330
47
102
}
330
47
100
AcDbScale
 70
     0
300
100:1
140
100.0
141
1.0
290
     0
  0
SCALE
  5
59
102
{ACAD_REACTORS
330
47
102
}
330
47
100
AcDbScale
 70
     0
300
1/128" = 1'-0"
140
0.0078125
141
12.0
290
     0
  0
SCALE
  5
5A
102
{ACAD_REACTORS
330
47
102
}
330
47
100
AcDbScale
 70
     0
300
1/64" = 1'-0"
140
0.015625
141
12.0
290
     0
  0
SCALE
  5
5B
102
{ACAD_REACTORS
330
47
102
}
330
47
100
AcDbScale
 70
     0
300
1/32" = 1'-0"
140
0.03125
141
12.0
290
     0
  0
SCALE
  5
5C
102
{ACAD_REACTORS
330
47
102
}
330
47
100
AcDbScale
 70
     0
300
1/16" = 1'-0"
140
0.0625
141
12.0
290
     0
  0
SCALE
  5
5D
102
{ACAD_REACTORS
330
47
102
}
330
47
100
AcDbScale
 70
     0
300
3/32" = 1'-0"
140
0.09375
141
12.0
290
     0
  0
SCALE
  5
5E
102
{ACAD_REACTORS
330
47
102
}
330
47
100
AcDbScale
 70
     0
300
1/8" = 1'-0"
140
0.125
141
12.0
290
     0
  0
SCALE
  5
5F
102
{ACAD_REACTORS
330
47
102
}
330
47
100
AcDbScale
 70
     0
300
3/16" = 1'-0"
140
0.1875
141
12.0
290
     0
  0
SCALE
  5
60
102
{ACAD_REACTORS
330
47
102
}
330
47
100
AcDbScale
 70
     0
300
1/4" = 1'-0"
140
0.25
141
12.0
290
     0
  0
SCALE
  5
61
102
{ACAD_REACTORS
330
47
102
}
330
47
100
AcDbScale
 70
     0
300
3/8" = 1'-0"
140
0.375
141
12.0
290
     0
  0
SCALE
  5
62
102
{ACAD_REACTORS
330
47
102
}
330
47
100
AcDbScale
 70
     0
300
1/2" = 1'-0"
140
0.5
141
12.0
290
     0
  0
SCALE
  5
63
102
{ACAD_REACTORS
330
47
102
}
330
47
100
AcDbScale
 70
     0
300
3/4" = 1'-0"
140
0.75
141
12.0
290
     0
  0
SCALE
  5
64
102
{ACAD_REACTORS
330
47
102
}
330
47
100
AcDbScale
 70
     0
300
1" = 1'-0"
140
1.0
141
12.0
290
     0
  0
SCALE
  5
65
102
{ACAD_REACTORS
330
47
102
}
330
47
100
AcDbScale
 70
     0
300
1-1/2" = 1'-0"
140
1.5
141
12.0
290
     0
  0
SCALE
  5
66
102
{ACAD_REACTORS
330
47
102
}
330
47
100
AcDbScale
 70
     0
300
3" = 1'-0"
140
3.0
141
12.0
290
     0
  0
SCALE
  5
67
102
{ACAD_REACTORS
330
47
102
}
330
47
100
AcDbScale
 70
     0
300
6" = 1'-0"
140
6.0
141
12.0
290
     0
  0
SCALE
  5
68
102
{ACAD_REACTORS
330
47
102
}
330
47
100
AcDbScale
 70
     0
300
1'-0" = 1'-0"
140
12.0
141
12.0
290
     0
  0
ENDSEC
  0
EOF
