  0
SECTION
  2
HEADER
  9
$ACADVER
  1
AC1024
  9
$ACADMAINTVER
 70
     6
  9
$DWGCODEPAGE
  3
ANSI_1252
  9
$INSBASE
 10
0.0
 20
0.0
 30
0.0
  9
$EXTMIN
 10
0.0
 20
0.0
 30
0.0
  9
$EXTMAX
 10
594.0
 20
841.0
 30
0.0
  9
$LIMMIN
 10
0.0
 20
0.0
  9
$LIMMAX
 10
594.0
 20
841.0
  9
$ORTHOMODE
 70
     0
  9
$REGENMODE
 70
     1
  9
$FILLMODE
 70
     1
  9
$QTEXTMODE
 70
     0
  9
$MIRRTEXT
 70
     1
  9
$LTSCALE
 40
1.0
  9
$ATTMODE
 70
     1
  9
$TEXTSIZE
 40
10.0
  9
$TRACEWID
 40
1.0
  9
$TEXTSTYLE
  7
Standard
  9
$CLAYER
  8
0
  9
$CELTYPE
  6
ByLayer
  9
$CECOLOR
 62
   256
  9
$CELTSCALE
 40
1.0
  9
$DISPSILH
 70
     0
  9
$DIMSCALE
 40
1.0
  9
$DIMASZ
 40
2.5
  9
$DIMEXO
 40
0.0
  9
$DIMDLI
 40
3.75
  9
$DIMRND
 40
0.0
  9
$DIMDLE
 40
0.0
  9
$DIMEXE
 40
1.0
  9
$DIMTP
 40
0.0
  9
$DIMTM
 40
0.0
  9
$DIMTXT
 40
3.5
  9
$DIMCEN
 40
2.5
  9
$DIMTSZ
 40
0.0
  9
$DIMTOL
 70
     0
  9
$DIMLIM
 70
     0
  9
$DIMTIH
 70
     1
  9
$DIMTOH
 70
     1
  9
$DIMSE1
 70
     0
  9
$DIMSE2
 70
     0
  9
$DIMTAD
 70
     1
  9
$DIMZIN
 70
     0
  9
$DIMBLK
  1

  9
$DIMASO
 70
     1
  9
$DIMSHO
 70
     1
  9
$DIMPOST
  1

  9
$DIMAPOST
  1

  9
$DIMALT
 70
     0
  9
$DIMALTD
 70
     3
  9
$DIMALTF
 40
0.0393700787
  9
$DIMLFAC
 40
1.0
  9
$DIMTOFL
 70
     1
  9
$DIMTVP
 40
0.0
  9
$DIMTIX
 70
     0
  9
$DIMSOXD
 70
     0
  9
$DIMSAH
 70
     0
  9
$DIMBLK1
  1

  9
$DIMBLK2
  1

  9
$DIMSTYLE
  2
ISO-25
  9
$DIMCLRD
 70
     0
  9
$DIMCLRE
 70
     0
  9
$DIMCLRT
 70
     0
  9
$DIMTFAC
 40
1.0
  9
$DIMGAP
 40
1.5
  9
$DIMJUST
 70
     0
  9
$DIMSD1
 70
     0
  9
$DIMSD2
 70
     0
  9
$DIMTOLJ
 70
     0
  9
$DIMTZIN
 70
     0
  9
$DIMALTZ
 70
     0
  9
$DIMALTTZ
 70
     0
  9
$DIMUPT
 70
     0
  9
$DIMDEC
 70
     2
  9
$DIMTDEC
 70
     2
  9
$DIMALTU
 70
     2
  9
$DIMALTTD
 70
     3
  9
$DIMTXSTY
  7
Standard
  9
$DIMAUNIT
 70
     0
  9
$DIMADEC
 70
     2
  9
$DIMALTRND
 40
0.0
  9
$DIMAZIN
 70
     0
  9
$DIMDSEP
 70
    44
  9
$DIMATFIT
 70
     3
  9
$DIMFRAC
 70
     0
  9
$DIMLDRBLK
  1

  9
$DIMLUNIT
 70
     2
  9
$DIMLWD
 70
    -2
  9
$DIMLWE
 70
    -2
  9
$DIMTMOVE
 70
     0
  9
$DIMFXL
 40
1.0
  9
$DIMFXLON
 70
     0
  9
$DIMJOGANG
 40
0.7853981634
  9
$DIMTFILL
 70
     0
  9
$DIMTFILLCLR
 70
     0
  9
$DIMARCSYM
 70
     0
  9
$DIMLTYPE
  6

  9
$DIMLTEX1
  6

  9
$DIMLTEX2
  6

  9
$DIMTXTDIRECTION
 70
     0
  9
$LUNITS
 70
     2
  9
$LUPREC
 70
     2
  9
$SKETCHINC
 40
1.0
  9
$FILLETRAD
 40
10.0
  9
$AUNITS
 70
     0
  9
$AUPREC
 70
     2
  9
$MENU
  1
.
  9
$ELEVATION
 40
0.0
  9
$PELEVATION
 40
0.0
  9
$THICKNESS
 40
0.0
  9
$LIMCHECK
 70
     0
  9
$CHAMFERA
 40
10.0
  9
$CHAMFERB
 40
10.0
  9
$CHAMFERC
 40
20.0
  9
$CHAMFERD
 40
0.0
  9
$SKPOLY
 70
     0
  9
$TDCREATE
 40
2456150.469579653
  9
$TDUCREATE
 40
2456150.386246319
  9
$TDUPDATE
 40
2456150.469579665
  9
$TDUUPDATE
 40
2456150.386246331
  9
$TDINDWG
 40
0.0000000116
  9
$TDUSRTIMER
 40
0.0000000116
  9
$USRTIMER
 70
     1
  9
$ANGBASE
 50
0.0
  9
$ANGDIR
 70
     0
  9
$PDMODE
 70
     0
  9
$PDSIZE
 40
-1.0
  9
$PLINEWID
 40
0.0
  9
$SPLFRAME
 70
     0
  9
$SPLINETYPE
 70
     6
  9
$SPLINESEGS
 70
     8
  9
$HANDSEED
  5
180
  9
$SURFTAB1
 70
     6
  9
$SURFTAB2
 70
     6
  9
$SURFTYPE
 70
     6
  9
$SURFU
 70
     6
  9
$SURFV
 70
     6
  9
$UCSBASE
  2

  9
$UCSNAME
  2

  9
$UCSORG
 10
0.0
 20
0.0
 30
0.0
  9
$UCSXDIR
 10
1.0
 20
0.0
 30
0.0
  9
$UCSYDIR
 10
0.0
 20
1.0
 30
0.0
  9
$UCSORTHOREF
  2

  9
$UCSORTHOVIEW
 70
     0
  9
$UCSORGTOP
 10
0.0
 20
0.0
 30
0.0
  9
$UCSORGBOTTOM
 10
0.0
 20
0.0
 30
0.0
  9
$UCSORGLEFT
 10
0.0
 20
0.0
 30
0.0
  9
$UCSORGRIGHT
 10
0.0
 20
0.0
 30
0.0
  9
$UCSORGFRONT
 10
0.0
 20
0.0
 30
0.0
  9
$UCSORGBACK
 10
0.0
 20
0.0
 30
0.0
  9
$PUCSBASE
  2

  9
$PUCSNAME
  2

  9
$PUCSORG
 10
0.0
 20
0.0
 30
0.0
  9
$PUCSXDIR
 10
1.0
 20
0.0
 30
0.0
  9
$PUCSYDIR
 10
0.0
 20
1.0
 30
0.0
  9
$PUCSORTHOREF
  2

  9
$PUCSORTHOVIEW
 70
     0
  9
$PUCSORGTOP
 10
0.0
 20
0.0
 30
0.0
  9
$PUCSORGBOTTOM
 10
0.0
 20
0.0
 30
0.0
  9
$PUCSORGLEFT
 10
0.0
 20
0.0
 30
0.0
  9
$PUCSORGRIGHT
 10
0.0
 20
0.0
 30
0.0
  9
$PUCSORGFRONT
 10
0.0
 20
0.0
 30
0.0
  9
$PUCSORGBACK
 10
0.0
 20
0.0
 30
0.0
  9
$USERI1
 70
     0
  9
$USERI2
 70
     0
  9
$USERI3
 70
     0
  9
$USERI4
 70
     0
  9
$USERI5
 70
     0
  9
$USERR1
 40
0.0
  9
$USERR2
 40
0.0
  9
$USERR3
 40
0.0
  9
$USERR4
 40
0.0
  9
$USERR5
 40
0.0
  9
$WORLDVIEW
 70
     1
  9
$SHADEDGE
 70
     3
  9
$SHADEDIF
 70
    70
  9
$TILEMODE
 70
     1
  9
$MAXACTVP
 70
    64
  9
$PINSBASE
 10
0.0
 20
0.0
 30
0.0
  9
$PLIMCHECK
 70
     0
  9
$PEXTMIN
 10
1.0000000000E+20
 20
1.0000000000E+20
 30
1.0000000000E+20
  9
$PEXTMAX
 10
-1.0000000000E+20
 20
-1.0000000000E+20
 30
-1.0000000000E+20
  9
$PLIMMIN
 10
0.0
 20
0.0
  9
$PLIMMAX
 10
420.0
 20
297.0
  9
$UNITMODE
 70
     0
  9
$VISRETAIN
 70
     1
  9
$PLINEGEN
 70
     0
  9
$PSLTSCALE
 70
     1
  9
$TREEDEPTH
 70
  3020
  9
$CMLSTYLE
  2
Standard
  9
$CMLJUST
 70
     0
  9
$CMLSCALE
 40
20.0
  9
$PROXYGRAPHICS
 70
     1
  9
$MEASUREMENT
 70
     1
  9
$CELWEIGHT
370
    -1
  9
$ENDCAPS
280
     0
  9
$JOINSTYLE
280
     0
  9
$LWDISPLAY
290
     1
  9
$INSUNITS
 70
     4
  9
$HYPERLINKBASE
  1

  9
$STYLESHEET
  1

  9
$XEDIT
290
     1
  9
$CEPSNTYPE
380
     0
  9
$PSTYLEMODE
290
     1
  9
$FINGERPRINTGUID
  2
{7B2C91FE-FFEE-408F-BE4A-900AE635CD84}
  9
$VERSIONGUID
  2
{FAEB1C32-E019-11D5-929B-00C0DF256EC4}
  9
$EXTNAMES
290
     1
  9
$PSVPSCALE
 40
0.0
  9
$OLESTARTUP
290
     0
  9
$SORTENTS
280
   127
  9
$INDEXCTL
280
     0
  9
$HIDETEXT
280
     1
  9
$XCLIPFRAME
280
     2
  9
$HALOGAP
280
     0
  9
$OBSCOLOR
 70
   257
  9
$OBSLTYPE
280
     0
  9
$INTERSECTIONDISPLAY
280
     0
  9
$INTERSECTIONCOLOR
 70
   257
  9
$DIMASSOC
280
     2
  9
$PROJECTNAME
  1

  9
$CAMERADISPLAY
290
     0
  9
$LENSLENGTH
 40
50.0
  9
$CAMERAHEIGHT
 40
0.0
  9
$STEPSPERSEC
 40
2.0
  9
$STEPSIZE
 40
6.0
  9
$3DDWFPREC
 40
2.0
  9
$PSOLWIDTH
 40
5.0
  9
$PSOLHEIGHT
 40
80.0
  9
$LOFTANG1
 40
1.5707963268
  9
$LOFTANG2
 40
1.5707963268
  9
$LOFTMAG1
 40
0.0
  9
$LOFTMAG2
 40
0.0
  9
$LOFTPARAM
 70
     7
  9
$LOFTNORMALS
280
     1
  9
$LATITUDE
 40
37.795
  9
$LONGITUDE
 40
-122.394
  9
$NORTHDIRECTION
 40
0.0
  9
$TIMEZONE
 70
 -8000
  9
$LIGHTGLYPHDISPLAY
280
     1
  9
$TILEMODELIGHTSYNCH
280
     1
  9
$SOLIDHIST
280
     1
  9
$SHOWHIST
280
     1
  9
$DWFFRAME
280
     2
  9
$DGNFRAME
280
     2
  9
$REALWORLDSCALE
290
     1
  9
$INTERFERECOLOR
 62
   256
  9
$CSHADOW
280
     0
  9
$SHADOWPLANELOCATION
 40
0.0
  0
ENDSEC
  0
SECTION
  2
CLASSES
  0
CLASS
  1
ACDBDICTIONARYWDFLT
  2
AcDbDictionaryWithDefault
  3
ObjectDBX Classes
 90
        0
 91
        4
280
     0
281
     0
  0
CLASS
  1
VISUALSTYLE
  2
AcDbVisualStyle
  3
ObjectDBX Classes
 90
     4095
 91
        4
280
     0
281
     0
  0
CLASS
  1
MATERIAL
  2
AcDbMaterial
  3
ObjectDBX Classes
 90
     1153
 91
        4
280
     0
281
     0
  0
ENDSEC
  0
SECTION
  2
TABLES
  0
TABLE
  2
VPORT
  5
8
330
0
100
AcDbSymbolTable
 70
     1
  0
VPORT
  5
29
330
8
100
AcDbSymbolTableRecord
100
AcDbViewportTableRecord
  2
*Active
 70
     0
 10
0.0
 20
0.0
 11
1.0
 21
1.0
 12
297.0
 22
420.5
 13
0.0
 23
0.0
 14
10.0
 24
10.0
 15
10.0
 25
10.0
 16
0.0
 26
0.0
 36
1.0
 17
0.0
 27
0.0
 37
0.0
 40
841.0
 41
0.7063020214
 42
50.0
 43
0.0
 44
0.0
 50
0.0
 51
0.0
 71
     0
 72
  2000
 73
     1
 74
     3
 75
     0
 76
     0
 77
     0
 78
     0
281
     0
 65
     1
110
0.0
120
0.0
130
0.0
111
1.0
121
0.0
131
0.0
112
0.0
122
1.0
132
0.0
 79
     0
146
0.0
 60
     3
 61
     5
292
     1
282
     1
141
0.0
142
0.0
 63
   250
  0
ENDTAB
  0
TABLE
  2
LTYPE
  5
5
330
0
100
AcDbSymbolTable
 70
     6
  0
LTYPE
  5
14
330
5
100
AcDbSymbolTableRecord
100
AcDbLinetypeTableRecord
  2
ByBlock
 70
     0
  3

 72
    65
 73
     0
 40
0.0
  0
LTYPE
  5
15
330
5
100
AcDbSymbolTableRecord
100
AcDbLinetypeTableRecord
  2
ByLayer
 70
     0
  3

 72
    65
 73
     0
 40
0.0
  0
LTYPE
  5
16
330
5
100
AcDbSymbolTableRecord
100
AcDbLinetypeTableRecord
  2
Continuous
 70
     0
  3
Solid line
 72
    65
 73
     0
 40
0.0
  0
LTYPE
  5
3F
330
5
100
AcDbSymbolTableRecord
100
AcDbLinetypeTableRecord
  2
HIDDEN
 70
     0
  3
Hidden __ __ __ __ __ __ __ __ __ __ __ __ __ __
 72
    65
 73
     2
 40
1.905
 49
1.27
 74
     0
 49
-0.635
 74
     0
  0
LTYPE
  5
40
330
5
100
AcDbSymbolTableRecord
100
AcDbLinetypeTableRecord
  2
PHANTOM
 70
     0
  3
Phantom ______  __  __  ______  __  __  ______
 72
    65
 73
     6
 40
12.7
 49
6.35
 74
     0
 49
-1.27
 74
     0
 49
1.27
 74
     0
 49
-1.27
 74
     0
 49
1.27
 74
     0
 49
-1.27
 74
     0
  0
LTYPE
  5
41
330
5
100
AcDbSymbolTableRecord
100
AcDbLinetypeTableRecord
  2
CENTER
 70
     0
  3
Center ____ _ ____ _ ____ _ ____ _ ____ _ ____
 72
    65
 73
     4
 40
10.16
 49
6.35
 74
     0
 49
-1.27
 74
     0
 49
1.27
 74
     0
 49
-1.27
 74
     0
  0
LTYPE
  5
42
330
5
100
AcDbSymbolTableRecord
100
AcDbLinetypeTableRecord
  2
CENTERX2
 70
     0
  3
Center (2x) ________  __  ________  __  _____
 72
    65
 73
     4
 40
20.32
 49
12.7
 74
     0
 49
-2.54
 74
     0
 49
2.54
 74
     0
 49
-2.54
 74
     0
  0
LTYPE
  5
43
330
5
100
AcDbSymbolTableRecord
100
AcDbLinetypeTableRecord
  2
DOT2
 70
     0
  3
Dot (.5x) ........................................
 72
    65
 73
     2
 40
0.635
 49
0.0
 74
     0
 49
-0.635
 74
     0
  0
ENDTAB
  0
TABLE
  2
LAYER
  5
2
330
0
100
AcDbSymbolTable
 70
     1
  0
LAYER
  5
10
330
2
100
AcDbSymbolTableRecord
100
AcDbLayerTableRecord
  2
0
 70
     0
 62
     7
  6
Continuous
370
    -3
390
F
347
3E
  0
ENDTAB
  0
TABLE
  2
STYLE
  5
3
330
0
100
AcDbSymbolTable
 70
     3
  0
STYLE
  5
11
330
3
100
AcDbSymbolTableRecord
100
AcDbTextStyleTableRecord
  2
Standard
 70
     0
 40
0.0
 41
1.0
 50
0.0
 71
     0
 42
2.5
  3
txt
  4

  0
STYLE
  5
47
330
3
100
AcDbSymbolTableRecord
100
AcDbTextStyleTableRecord
  2
SLDTEXTSTYLE0
 70
     0
 40
0.0
 41
0.96
 50
0.0
 71
     0
 42
0.2
  3
ISOCP3
  4

  0
STYLE
  5
5E
330
3
100
AcDbSymbolTableRecord
100
AcDbTextStyleTableRecord
  2
SLDTEXTSTYLE1
 70
     0
 40
0.0
 41
0.605
 50
0.0
 71
     0
 42
0.2
  3
TXT
  4

  0
ENDTAB
  0
TABLE
  2
VIEW
  5
6
330
0
100
AcDbSymbolTable
 70
     0
  0
ENDTAB
  0
TABLE
  2
UCS
  5
7
330
0
100
AcDbSymbolTable
 70
     0
  0
ENDTAB
  0
TABLE
  2
APPID
  5
9
330
0
100
AcDbSymbolTable
 70
     1
  0
APPID
  5
12
330
9
100
AcDbSymbolTableRecord
100
AcDbRegAppTableRecord
  2
ACAD
 70
     0
  0
ENDTAB
  0
TABLE
  2
DIMSTYLE
  5
A
330
0
100
AcDbSymbolTable
 70
     2
100
AcDbDimStyleTable
  0
DIMSTYLE
105
27
330
A
100
AcDbSymbolTableRecord
100
AcDbDimStyleTableRecord
  2
ISO-25
 70
     0
 41
2.5
 42
0.625
 43
3.75
 44
1.25
 73
     0
 74
     0
 77
     1
 78
     8
140
2.5
141
2.5
143
0.0393700787
147
0.625
171
     3
172
     1
178
     0
271
     2
272
     2
274
     3
278
    44
283
     0
284
     8
340
11
  0
DIMSTYLE
105
48
102
{ACAD_REACTORS
330
46
330
53
102
}
330
A
100
AcDbSymbolTableRecord
100
AcDbDimStyleTableRecord
  2
SLDDIMSTYLE0
 70
     0
 41
2.5
 44
0.0
 45
0.000000001
 73
     0
 74
     0
 77
     1
 78
    12
 79
     3
140
6.0
147
1.5
173
     1
178
     0
271
     2
272
     2
276
     2
284
    12
340
47
  0
ENDTAB
  0
TABLE
  2
BLOCK_RECORD
  5
1
330
0
100
AcDbSymbolTable
 70
     3
  0
BLOCK_RECORD
  5
1F
330
1
100
AcDbSymbolTableRecord
100
AcDbBlockTableRecord
  2
*Model_Space
340
22
 70
     0
280
     1
281
     0
  0
BLOCK_RECORD
  5
1B
330
1
100
AcDbSymbolTableRecord
100
AcDbBlockTableRecord
  2
*Paper_Space
340
1E
 70
     0
280
     1
281
     0
  0
BLOCK_RECORD
  5
23
330
1
100
AcDbSymbolTableRecord
100
AcDbBlockTableRecord
  2
*Paper_Space0
340
26
 70
     0
280
     1
281
     0
  0
BLOCK_RECORD
  5
49
330
1
100
AcDbSymbolTableRecord
100
AcDbBlockTableRecord
  2
*D1
340
0
 70
     0
280
     1
281
     0
  0
BLOCK_RECORD
  5
54
330
1
100
AcDbSymbolTableRecord
100
AcDbBlockTableRecord
  2
*D2
340
0
 70
     0
280
     1
281
     0
  0
ENDTAB
  0
ENDSEC
  0
SECTION
  2
BLOCKS
  0
BLOCK
  5
20
330
1F
100
AcDbEntity
  8
0
100
AcDbBlockBegin
  2
*Model_Space
 70
     0
 10
0.0
 20
0.0
 30
0.0
  3
*Model_Space
  1

  0
ENDBLK
  5
21
330
1F
100
AcDbEntity
  8
0
100
AcDbBlockEnd
  0
BLOCK
  5
1C
330
1B
100
AcDbEntity
 67
     1
  8
0
100
AcDbBlockBegin
  2
*Paper_Space
 70
     0
 10
0.0
 20
0.0
 30
0.0
  3
*Paper_Space
  1

  0
ENDBLK
  5
1D
330
1B
100
AcDbEntity
 67
     1
  8
0
100
AcDbBlockEnd
  0
BLOCK
  5
24
330
23
100
AcDbEntity
  8
0
100
AcDbBlockBegin
  2
*Paper_Space0
 70
     0
 10
0.0
 20
0.0
 30
0.0
  3
*Paper_Space0
  1

  0
ENDBLK
  5
25
330
23
100
AcDbEntity
  8
0
100
AcDbBlockEnd
  0
BLOCK
  5
4A
330
49
100
AcDbEntity
  8
0
100
AcDbBlockBegin
  2
*D1
 70
     1
 10
0.0
 20
0.0
 30
0.0
  3
*D1
  1

  0
SOLID
  5
4C
330
49
100
AcDbEntity
  8
0
  6
Continuous
 62
     7
370
     0
100
AcDbTrace
 10
42.7614395004
 20
152.0299240879
 30
0.0
 11
42.4614395004
 21
149.5299240879
 31
0.0
 12
43.0614395004
 22
149.5299240879
 32
0.0
 13
43.0614395004
 23
149.5299240879
 33
0.0
  0
SOLID
  5
4D
330
49
100
AcDbEntity
  8
0
  6
Continuous
 62
     7
370
     0
100
AcDbTrace
 10
42.7614395004
 20
52.0299240879
 30
0.0
 11
43.0614395004
 21
54.5299240879
 31
0.0
 12
42.4614395004
 22
54.5299240879
 32
0.0
 13
42.4614395004
 23
54.5299240879
 33
0.0
  0
LINE
  5
4E
330
49
100
AcDbEntity
  8
0
  6
Continuous
 62
     7
370
     0
100
AcDbLine
 10
56.6850079902
 20
152.0299240879
 30
0.0
 11
41.7614395004
 21
152.0299240879
 31
0.0
  0
LINE
  5
4F
330
49
100
AcDbEntity
  8
0
  6
Continuous
 62
     7
370
     0
100
AcDbLine
 10
56.6850079902
 20
52.0299240879
 30
0.0
 11
41.7614395004
 21
52.0299240879
 31
0.0
  0
LINE
  5
50
330
49
100
AcDbEntity
  8
0
  6
Continuous
 62
     7
370
     0
100
AcDbLine
 10
42.7614395004
 20
152.0299240879
 30
0.0
 11
42.7614395004
 21
52.0299240879
 31
0.0
  0
MTEXT
  5
51
330
49
100
AcDbEntity
  8
0
  6
Continuous
 62
     7
370
     0
100
AcDbMText
 10
35.0270332946
 20
91.6722208134
 30
0.1
 40
6.0
 41
0.0
 46
0.0
 71
     1
 72
     1
  1
100
  7
SLDTEXTSTYLE0
 11
-7.044195017643634E-15
 21
1.0
 31
0.0
 73
     1
 44
1.0
  0
MTEXT
  5
52
330
49
100
AcDbEntity
  8
0
  6
Continuous
 62
     7
370
     0
100
AcDbMText
 10
35.0270332946
 20
108.4388881795
 30
0.1
 40
6.0
 41
0.0
 46
0.0
 71
     1
 72
     1
  1
mm
  7
SLDTEXTSTYLE0
 11
-7.044195017643634E-15
 21
1.0
 31
0.0
 73
     1
 44
1.0
  0
ENDBLK
  5
4B
330
49
100
AcDbEntity
  8
0
100
AcDbBlockEnd
  0
BLOCK
  5
55
330
54
100
AcDbEntity
  8
0
100
AcDbBlockBegin
  2
*D2
 70
     1
 10
0.0
 20
0.0
 30
0.0
  3
*D2
  1

  0
SOLID
  5
57
330
54
100
AcDbEntity
  8
0
  6
Continuous
 62
     7
370
     0
100
AcDbTrace
 10
56.6850079902
 20
38.4602342313
 30
0.0
 11
59.1850079902
 21
38.1602342313
 31
0.0
 12
59.1850079902
 22
38.7602342313
 32
0.0
 13
59.1850079902
 23
38.7602342313
 33
0.0
  0
SOLID
  5
58
330
54
100
AcDbEntity
  8
0
  6
Continuous
 62
     7
370
     0
100
AcDbTrace
 10
156.6850079902
 20
38.4602342313
 30
0.0
 11
154.1850079902
 21
38.7602342313
 31
0.0
 12
154.1850079902
 22
38.1602342313
 32
0.0
 13
154.1850079902
 23
38.1602342313
 33
0.0
  0
LINE
  5
59
330
54
100
AcDbEntity
  8
0
  6
Continuous
 62
     7
370
     0
100
AcDbLine
 10
56.6850079902
 20
52.0299240879
 30
0.0
 11
56.6850079902
 21
37.4602342313
 31
0.0
  0
LINE
  5
5A
330
54
100
AcDbEntity
  8
0
  6
Continuous
 62
     7
370
     0
100
AcDbLine
 10
156.6850079902
 20
52.0299240879
 30
0.0
 11
156.6850079902
 21
37.4602342313
 31
0.0
  0
LINE
  5
5B
330
54
100
AcDbEntity
  8
0
  6
Continuous
 62
     7
370
     0
100
AcDbLine
 10
56.6850079902
 20
38.4602342313
 30
0.0
 11
156.6850079902
 21
38.4602342313
 31
0.0
  0
MTEXT
  5
5C
330
54
100
AcDbEntity
  8
0
  6
Continuous
 62
     7
370
     0
100
AcDbMText
 10
91.2668151533
 20
46.1946404371
 30
0.1
 40
6.0
 41
0.0
 46
0.0
 71
     1
 72
     1
  1
100
  7
SLDTEXTSTYLE0
 73
     1
 44
1.0
  0
MTEXT
  5
5D
330
54
100
AcDbEntity
  8
0
  6
Continuous
 62
     7
370
     0
100
AcDbMText
 10
108.0334825193
 20
46.1946404371
 30
0.1
 40
6.0
 41
0.0
 46
0.0
 71
     1
 72
     1
  1
mm
  7
SLDTEXTSTYLE0
 73
     1
 44
1.0
  0
ENDBLK
  5
56
330
54
100
AcDbEntity
  8
0
100
AcDbBlockEnd
  0
ENDSEC
  0
SECTION
  2
ENTITIES
  0
LINE
  5
44
330
1F
100
AcDbEntity
  8
0
  6
Continuous
 62
     7
370
     0
100
AcDbLine
 10
56.6850079902
 20
152.0299240879
 30
0.0
 11
56.6850079902
 21
52.0299240879
 31
0.0
  0
LINE
  5
45
330
1F
100
AcDbEntity
  8
0
  6
Continuous
 62
     7
370
     0
100
AcDbLine
 10
56.6850079902
 20
52.0299240879
 30
0.0
 11
156.6850079902
 21
52.0299240879
 31
0.0
  0
DIMENSION
  5
46
330
1F
100
AcDbEntity
  8
0
  6
Continuous
 62
     7
370
     0
100
AcDbDimension
280
     0
  2
*D1
 10
42.7614395004
 20
52.0299240879
 30
0.0
 11
42.7614395004
 21
105.4472211621
 31
0.0
 70
   160
  1
<>mm
 71
     2
 42
-1.0
 73
     0
 74
     0
 75
     0
  3
SLDDIMSTYLE0
100
AcDbAlignedDimension
 13
56.6850079902
 23
152.0299240879
 33
0.0
 14
56.6850079902
 24
52.0299240879
 34
0.0
 50
90.0
100
AcDbRotatedDimension
  0
DIMENSION
  5
53
330
1F
100
AcDbEntity
  8
0
  6
Continuous
 62
     7
370
     0
100
AcDbDimension
280
     0
  2
*D2
 10
156.6850079902
 20
38.4602342313
 30
0.0
 11
105.0418155019
 21
38.4602342313
 31
0.0
 70
   160
  1
<>mm
 71
     2
 42
-1.0
 73
     0
 74
     0
 75
     0
  3
SLDDIMSTYLE0
100
AcDbAlignedDimension
 13
56.6850079902
 23
52.0299240879
 33
0.0
 14
156.6850079902
 24
52.0299240879
 34
0.0
100
AcDbRotatedDimension
  0
MTEXT
  5
5F
330
1F
100
AcDbEntity
  8
0
  6
Continuous
 62
     7
370
     0
100
AcDbMText
 10
267.0103322505
 20
48.5155158968
 30
0.0
 40
10.0
 41
0.0
 46
0.0
 71
     1
 72
     1
  1
38 260 05 75
  7
SLDTEXTSTYLE1
 73
     1
 44
1.0
  0
MTEXT
  5
60
330
1F
100
AcDbEntity
  8
0
  6
Continuous
 62
     7
370
     0
100
AcDbMText
 10
412.8252631579
 20
48.4342449499
 30
0.0
 40
10.0
 41
0.0
 46
0.0
 71
     1
 72
     1
  1
KLUDI GmbH & Co KG
  7
SLDTEXTSTYLE1
 73
     1
 44
1.0
  0
LINE
  5
61
330
1F
100
AcDbEntity
  8
0
  6
Continuous
 62
     7
370
    15
100
AcDbLine
 10
213.3739131043
 20
579.3058902971
 30
0.0
 11
213.3739131043
 21
580.497776439
 31
0.0
  0
LINE
  5
62
330
1F
100
AcDbEntity
  8
0
  6
Continuous
 62
     7
370
    15
100
AcDbLine
 10
189.3019132788
 20
580.497776439
 30
0.0
 11
189.3019132788
 21
579.3058902971
 31
0.0
  0
LINE
  5
63
330
1F
100
AcDbEntity
  8
0
  6
Continuous
 62
     7
370
    15
100
AcDbLine
 10
190.3049132327
 20
575.1431931756
 30
0.0
 11
190.6367853755
 21
574.9591582469
 31
0.0
  0
LINE
  5
64
330
1F
100
AcDbEntity
  8
0
  6
Continuous
 62
     7
370
    15
100
AcDbLine
 10
212.0390400762
 20
574.9591582469
 30
0.0
 11
212.3709131504
 21
575.1431931756
 31
0.0
  0
SPLINE
  5
65
330
1F
100
AcDbEntity
  8
0
  6
Continuous
 62
     7
370
    15
100
AcDbSpline
210
0.0
220
0.0
230
1.0
 70
     8
 71
     3
 72
     9
 73
     5
 74
     0
 42
0.00000001
 43
0.00000001
 40
0.0
 40
0.0
 40
0.0
 40
0.0
 40
0.441158881705661
 40
0.9999999999999999
 40
0.9999999999999999
 40
0.9999999999999999
 40
0.9999999999999999
 10
188.8782881671916
 20
579.8495740644491
 30
0.0
 10
188.8130930197799
 20
579.8494680111295
 30
0.0
 10
188.6653114605382
 20
579.8492276140206
 30
0.0
 10
188.5302505448414
 20
579.8486887171942
 30
0.0
 10
188.4547729516755
 20
579.8483875594891
 30
0.0
  0
LINE
  5
66
330
1F
100
AcDbEntity
  8
0
  6
Continuous
 62
     7
370
    15
100
AcDbLine
 10
213.5172343353
 20
579.8502632432
 30
0.0
 11
213.3739131043
 21
579.8505594037
 31
0.0
  0
LINE
  5
67
330
1F
100
AcDbEntity
  8
0
  6
Continuous
 62
     7
370
    15
100
AcDbLine
 10
189.3019132788
 20
579.8503992163
 30
0.0
 11
188.8782881672
 21
579.8495740644
 31
0.0
  0
SPLINE
  5
68
330
1F
100
AcDbEntity
  8
0
  6
Continuous
 62
     7
370
    15
100
AcDbSpline
210
0.0
220
0.0
230
1.0
 70
     8
 71
     3
 72
    10
 73
     6
 74
     0
 42
0.00000001
 43
0.00000001
 40
0.0
 40
0.0
 40
0.0
 40
0.0
 40
0.2667198934808203
 40
0.9231985919303008
 40
0.9999999999999999
 40
0.9999999999999999
 40
0.9999999999999999
 40
0.9999999999999999
 10
214.4371416891347
 20
598.8333908506527
 30
0.0
 10
214.602841397491
 20
598.8256042639022
 30
0.0
 10
215.1763784345728
 20
598.7986525212698
 30
0.0
 10
215.8171095887668
 20
598.7788915283253
 30
0.0
 10
216.2669129990654
 20
598.741274985889
 30
0.0
 10
216.3140239665638
 20
598.7373351498015
 30
0.0
  0
SPLINE
  5
69
330
1F
100
AcDbEntity
  8
0
  6
Continuous
 62
     7
370
    15
100
AcDbSpline
210
0.0
220
0.0
230
1.0
 70
     8
 71
     3
 72
    19
 73
    15
 74
     0
 42
0.00000001
 43
0.00000001
 40
0.0
 40
0.0
 40
0.0
 40
0.0
 40
0.0394441611687832
 40
0.1415875180442589
 40
0.2526920829189114
 40
0.3730008860663936
 40
0.4966557571390913
 40
0.618239011491256
 40
0.739638750375995
 40
0.8192010154974932
 40
0.8876340977464788
 40
0.9445795765988683
 40
0.9826788617838434
 40
1.0
 40
1.0
 40
1.0
 40
1.0
 10
188.388539152814
 20
598.8390147147791
 30
0.0
 10
188.6959010183594
 20
598.8531883030826
 30
0.0
 10
189.7991974859357
 20
598.9040653690463
 30
0.0
 10
191.9067185693978
 20
598.9840694033155
 30
0.0
 10
194.8573956820753
 20
599.0939596308021
 30
0.0
 10
198.0333201912473
 20
599.2133837963826
 30
0.0
 10
201.3203143133236
 20
599.252173645005
 30
0.0
 10
204.6148257490928
 20
599.2133224766562
 30
0.0
 10
207.5001481672755
 20
599.1177578324488
 30
0.0
 10
209.8822113015273
 20
599.0192085359591
 30
0.0
 10
211.6644966936041
 20
598.9496142369975
 30
0.0
 10
213.0153561217435
 20
598.8951159888418
 30
0.0
 10
213.8926873366276
 20
598.8583342214184
 30
0.0
 10
214.3074968357319
 20
598.8393303378317
 30
0.0
 10
214.4371416891347
 20
598.8333908506527
 30
0.0
  0
LINE
  5
6A
330
1F
100
AcDbEntity
  8
0
  6
Continuous
 62
     7
370
    15
100
AcDbLine
 10
178.2689128543
 20
646.1154588513
 30
0.0
 11
178.2689128543
 21
612.7154131435
 31
0.0
  0
LINE
  5
6B
330
1F
100
AcDbEntity
  8
0
  6
Continuous
 62
     7
370
    15
100
AcDbLine
 10
224.4069125975
 20
612.7154373579
 30
0.0
 11
224.4069125975
 21
646.1154588513
 31
0.0
  0
ARC
  5
6C
330
1F
100
AcDbEntity
  8
0
  6
Continuous
 62
     7
370
    15
100
AcDbCircle
 10
179.773412936
 20
646.1154572148
 30
0.0
 40
1.504500000000036
100
AcDbArc
 50
90.0
 51
180.0
  0
ARC
  5
6D
330
1F
100
AcDbEntity
  8
0
  6
Continuous
 62
     7
370
    15
100
AcDbCircle
 10
222.902412936
 20
646.1154572148
 30
0.0
 40
1.504500000000007
100
AcDbArc
 50
0.0
 51
90.0
  0
LINE
  5
6E
330
1F
100
AcDbEntity
  8
0
  6
Continuous
 62
     7
370
    15
100
AcDbLine
 10
178.7704132969
 20
604.7417072594
 30
0.0
 11
178.7704132969
 21
500.4297041349
 31
0.0
  0
LINE
  5
6F
330
1F
100
AcDbEntity
  8
0
  6
Continuous
 62
     7
370
    15
100
AcDbLine
 10
223.9054121549
 20
500.4297041349
 30
0.0
 11
223.9054121549
 21
604.7417072594
 31
0.0
  0
LINE
  5
70
330
1F
100
AcDbEntity
  8
0
  6
Continuous
 62
     7
370
    15
100
AcDbLine
 10
179.2719137395
 20
606.7477076329
 30
0.0
 11
179.2719137395
 21
604.7417072594
 31
0.0
  0
LINE
  5
71
330
1F
100
AcDbEntity
  8
0
  6
Continuous
 62
     7
370
    15
100
AcDbLine
 10
223.4039135749
 20
604.7417072594
 30
0.0
 11
223.4039135749
 21
606.7477076329
 31
0.0
  0
ARC
  5
72
330
1F
100
AcDbEntity
  8
0
  6
Continuous
 62
     7
370
    15
100
AcDbCircle
 10
201.3380359688
 20
606.8213935175
 30
0.0
 40
22.06599999999998
100
AcDbArc
 50
165.0471380315
 51
180.1956730495
  0
ARC
  5
73
330
1F
100
AcDbEntity
  8
0
  6
Continuous
 62
     7
370
    15
100
AcDbCircle
 10
201.3380359688
 20
606.8213935175
 30
0.0
 40
22.066
100
AcDbArc
 50
0.0
 51
14.9528619685
  0
SPLINE
  5
74
330
1F
100
AcDbEntity
  8
0
  6
Continuous
 62
     7
370
    15
100
AcDbSpline
210
0.0
220
0.0
230
1.0
 70
     8
 71
     3
 72
    20
 73
    16
 74
     0
 42
0.00000001
 43
0.00000001
 40
0.0
 40
0.0
 40
0.0
 40
0.0
 40
0.0383840025439244
 40
0.0801401775096001
 40
0.1253333102138655
 40
0.1758474426101639
 40
0.2505693349853393
 40
0.3747110417135296
 40
0.4996720838170637
 40
0.624240159929576
 40
0.7494555701351692
 40
0.8139126222989027
 40
0.8749354508892937
 40
0.9382913003314447
 40
1.0
 40
1.0
 40
1.0
 40
1.0
 10
217.2509525230382
 20
598.6913523500283
 30
0.0
 10
217.2844509386119
 20
598.689009920865
 30
0.0
 10
217.3543907258265
 20
598.6841192717271
 30
0.0
 10
217.4627503786324
 20
598.6691641216695
 30
0.0
 10
217.580473620728
 20
598.6463607466354
 30
0.0
 10
217.7242110727541
 20
598.6087176455463
 30
0.0
 10
217.9304080382222
 20
598.5359147163093
 30
0.0
 10
218.1866556904614
 20
598.4049291490186
 30
0.0
 10
218.4601804979222
 20
598.1999661322388
 30
0.0
 10
218.7043253456166
 20
597.9382395595882
 30
0.0
 10
218.8742778128457
 20
597.6691355327458
 30
0.0
 10
218.9799252126784
 20
597.4262048670466
 30
0.0
 10
219.0415096700505
 20
597.23035743627
 30
0.0
 10
219.0842002498682
 20
597.0272164576782
 30
0.0
 10
219.0940445774803
 20
596.8860299965623
 30
0.0
 10
219.0989019144345
 20
596.8163665068829
 30
0.0
  0
LINE
  5
75
330
1F
100
AcDbEntity
  8
0
  6
Continuous
 62
     7
370
    15
100
AcDbLine
 10
185.4250055278
 20
598.6913585119
 30
0.0
 11
188.3885987575
 21
598.8369321756
 31
0.0
  0
ELLIPSE
  5
76
330
1F
100
AcDbEntity
  8
0
  6
Continuous
 62
     7
370
    15
100
AcDbEllipse
 10
201.337912936
 20
580.4977770339
 30
0.0
 11
12.03599999999997
 21
0.0
 31
0.0
210
0.0
220
0.0
230
1.0
 40
0.0070431304
 41
1.570796326794901
 42
3.141592653589776
  0
ELLIPSE
  5
77
330
1F
100
AcDbEntity
  8
0
  6
Continuous
 62
     7
370
    15
100
AcDbEllipse
 10
201.337912936
 20
580.4977770339
 30
0.0
 11
12.03599999999997
 21
0.0
 31
0.0
210
0.0
220
0.0
230
1.0
 40
0.0070431304
 41
0.0
 42
1.57079632679492
  0
SPLINE
  5
78
330
1F
100
AcDbEntity
  8
0
  6
Continuous
 62
     7
370
    15
100
AcDbSpline
210
0.0
220
0.0
230
1.0
 70
     8
 71
     3
 72
    20
 73
    16
 74
     0
 42
0.00000001
 43
0.00000001
 40
0.0
 40
0.0
 40
0.0
 40
0.0
 40
0.0591136510622969
 40
0.1195788251760699
 40
0.1816177956770809
 40
0.2454455850294652
 40
0.3113041898457769
 40
0.3794985152754883
 40
0.4504294308234297
 40
0.5102703798230716
 40
0.5205455463375313
 40
0.7075148419000215
 40
0.8122493830735121
 40
0.90302117596501
 40
1.0
 40
1.0
 40
1.0
 40
1.0
 10
188.2175286874255
 20
579.8478059920768
 30
0.0
 10
188.151129202007
 20
579.8475780466773
 30
0.0
 10
188.0168121311451
 20
579.8471169443333
 30
0.0
 10
187.8178242391444
 20
579.8463197411421
 30
0.0
 10
187.6179574482202
 20
579.8454490851038
 30
0.0
 10
187.4175335783106
 20
579.8444992841855
 30
0.0
 10
187.2164835481783
 20
579.8434583633738
 30
0.0
 10
187.014824991933
 20
579.842307060084
 30
0.0
 10
186.8260490421924
 20
579.8411272927959
 30
0.0
 10
186.6970058362991
 20
579.8402659873611
 30
0.0
 10
186.4666853780345
 20
579.8386735238415
 30
0.0
 10
186.2121600508283
 20
579.8367450050697
 30
0.0
 10
185.924539279977
 20
579.8337933108858
 30
0.0
 10
185.7216280332133
 20
579.8318332936782
 30
0.0
 10
185.6062599039164
 20
579.8302886374678
 30
0.0
 10
185.546668805397
 20
579.829490776213
 30
0.0
  0
SPLINE
  5
79
330
1F
100
AcDbEntity
  8
0
  6
Continuous
 62
     7
370
    15
100
AcDbSpline
210
0.0
220
0.0
230
1.0
 70
     8
 71
     3
 72
    21
 73
    17
 74
     0
 42
0.00000001
 43
0.00000001
 40
0.0
 40
0.0
 40
0.0
 40
0.0
 40
0.0641482860479652
 40
0.1260519952257313
 40
0.1848882976795315
 40
0.2409161096865358
 40
0.2946468898020397
 40
0.3462341407263073
 40
0.395814365934779
 40
0.500044861968179
 40
0.5101869944483607
 40
0.540229375625278
 40
0.6642886867882676
 40
0.7805612727457363
 40
0.8927045288659823
 40
1.0
 40
1.0
 40
1.0
 40
1.0
 10
217.1291776792851
 20
579.8294625221874
 30
0.0
 10
217.0901771121745
 20
579.830029478346
 30
0.0
 10
217.0135406250274
 20
579.8311435526163
 30
0.0
 10
216.8913543117762
 20
579.8323635511771
 30
0.0
 10
216.7680606049165
 20
579.8337006092149
 30
0.0
 10
216.6440707600909
 20
579.8349633256776
 30
0.0
 10
216.5198766977975
 20
579.8360504163726
 30
0.0
 10
216.3956225576777
 20
579.8371507211268
 30
0.0
 10
216.2246774312042
 20
579.8385559218959
 30
0.0
 10
216.0809153190314
 20
579.8396063540806
 30
0.0
 10
215.9499544431656
 20
579.8404898673408
 30
0.0
 10
215.7992330859946
 20
579.8414794688084
 30
0.0
 10
215.540020294858
 20
579.8430272817138
 30
0.0
 10
215.1813442367433
 20
579.8448866017662
 30
0.0
 10
214.8237602505091
 20
579.8465056764971
 30
0.0
 10
214.5783139838548
 20
579.8473616066356
 30
0.0
 10
214.4583020190194
 20
579.8477801172083
 30
0.0
  0
ARC
  5
7A
330
1F
100
AcDbEntity
  8
0
  6
Continuous
 62
     7
370
    15
100
AcDbCircle
 10
201.3379131915
 20
521.1763997958
 30
0.0
 40
56.48738413344692
100
AcDbArc
 50
78.7367021746
 51
101.2632978254
  0
SPLINE
  5
7B
330
1F
100
AcDbEntity
  8
0
  6
Continuous
 62
     7
370
    15
100
AcDbSpline
210
0.0
220
0.0
230
1.0
 70
    24
 71
     3
 72
    10
 73
     6
 74
     0
 42
0.00000001
 43
0.00000001
 40
0.0
 40
0.0
 40
0.0
 40
0.0
 40
0.5
 40
0.5
 40
1.0
 40
1.0
 40
1.0
 40
1.0
 10
212.3709129359728
 20
575.3329348945282
 30
0.0
 10
212.3709129359729
 20
575.4456368508024
 30
0.0
 10
212.3709129359729
 20
575.6122650525192
 30
0.0
 10
212.3709129359729
 20
576.0335197098176
 30
0.0
 10
212.3709129359729
 20
576.2879209324817
 30
0.0
 10
212.3709129359729
 20
576.5758347222098
 30
0.0
  0
LWPOLYLINE
  5
7C
330
1F
100
AcDbEntity
  8
0
  6
Continuous
 62
     7
370
    15
100
AcDbPolyline
 90
       21
 70
   128
 43
0.0
 10
212.3709131504
 20
575.332935249
 10
212.2350788216
 20
575.5731401048
 10
211.8309192831
 20
575.8074291997
 10
211.1683875794
 20
576.0300357841
 10
210.263797688
 20
576.2354780935
 10
209.1394221882
 20
576.4186953209
 10
207.8229474375
 20
576.5751780026
 10
206.3467899809
 20
576.7010723255
 10
204.7472974757
 20
576.7932788484
 10
203.0638543895
 20
576.8495270066
 10
201.337912936
 20
576.8684309922
 10
199.6119715279
 20
576.8495270066
 10
197.9285284417
 20
576.7932788484
 10
196.3290359365
 20
576.7010723255
 10
194.8528784799
 20
576.5751780026
 10
193.5364037292
 20
576.4186953209
 10
192.4120286951
 20
576.2354780935
 10
191.5074378724
 20
576.0300357841
 10
190.8449061687
 20
575.8074291997
 10
190.4407475615
 20
575.5731401048
 10
190.3049132327
 20
575.332935249
  0
SPLINE
  5
7D
330
1F
100
AcDbEntity
  8
0
  6
Continuous
 62
     7
370
    15
100
AcDbSpline
210
0.0
220
0.0
230
1.0
 70
    24
 71
     3
 72
    10
 73
     6
 74
     0
 42
0.00000001
 43
0.00000001
 40
0.0
 40
0.0
 40
0.0
 40
0.0
 40
0.5
 40
0.5
 40
1.0
 40
1.0
 40
1.0
 40
1.0
 10
190.3049129359728
 20
575.3329348945283
 30
0.0
 10
190.3049129359728
 20
575.4456368508025
 30
0.0
 10
190.3049129359728
 20
575.6122650525192
 30
0.0
 10
190.3049129359729
 20
576.0335197098176
 30
0.0
 10
190.3049129359729
 20
576.2879209324816
 30
0.0
 10
190.3049129359729
 20
576.5758347222097
 30
0.0
  0
LINE
  5
7E
330
1F
100
AcDbEntity
  8
0
  6
Continuous
 62
     7
370
    15
100
AcDbLine
 10
212.3709131504
 20
576.5758355163
 30
0.0
 11
212.3709131504
 21
579.9753435902
 31
0.0
  0
LINE
  5
7F
330
1F
100
AcDbEntity
  8
0
  6
Continuous
 62
     7
370
    15
100
AcDbLine
 10
190.3049132327
 20
576.5758355163
 30
0.0
 11
190.3049132327
 21
579.9753435902
 31
0.0
  0
LWPOLYLINE
  5
80
330
1F
100
AcDbEntity
  8
0
  6
Continuous
 62
     7
370
    15
100
AcDbPolyline
 90
        9
 70
   128
 43
0.0
 10
190.3049132327
 20
578.636437004
 10
189.8695953662
 20
578.7975185566
 10
189.5553308079
 20
578.9639645271
 10
189.3654350663
 20
579.1340203039
 10
189.3019132788
 20
579.3058902971
 10
189.3654350663
 20
579.4777602903
 10
189.5553308079
 20
579.6478160672
 10
189.8695953662
 20
579.8142620377
 10
190.3049132327
 20
579.9753435902
  0
LWPOLYLINE
  5
81
330
1F
100
AcDbEntity
  8
0
  6
Continuous
 62
     7
370
    15
100
AcDbPolyline
 90
        9
 70
   128
 43
0.0
 10
212.3709131504
 20
579.9753435902
 10
212.8062300856
 20
579.8142620377
 10
213.1204946438
 20
579.6478160672
 10
213.3103903855
 20
579.4777602903
 10
213.3739131043
 20
579.3058902971
 10
213.3103903855
 20
579.1340203039
 10
213.1204946438
 20
578.9639645271
 10
212.8062300856
 20
578.7975185566
 10
212.3709131504
 20
578.636437004
  0
LWPOLYLINE
  5
82
330
1F
100
AcDbEntity
  8
0
  6
Continuous
 62
     7
370
    15
100
AcDbPolyline
 90
       21
 70
   128
 43
0.0
 10
190.3049132327
 20
575.332935249
 10
190.4407475615
 20
575.0927303932
 10
190.8449061687
 20
574.8584394358
 10
191.5074378724
 20
574.635834714
 10
192.4120286951
 20
574.4303924046
 10
193.5364037292
 20
574.2471751772
 10
194.8528784799
 20
574.0906924955
 10
196.3290359365
 20
573.9647963099
 10
197.9285284417
 20
573.8725897871
 10
199.6119715279
 20
573.8163434915
 10
201.337912936
 20
573.7974376432
 10
203.0638543895
 20
573.8163434915
 10
204.7472974757
 20
573.8725897871
 10
206.3467899809
 20
573.9647963099
 10
207.8229474375
 20
574.0906924955
 10
209.1394221882
 20
574.2471751772
 10
210.263797688
 20
574.4303924046
 10
211.1683875794
 20
574.635834714
 10
211.8309192831
 20
574.8584394358
 10
212.2350788216
 20
575.0927303932
 10
212.3709131504
 20
575.332935249
  0
LWPOLYLINE
  5
83
330
1F
100
AcDbEntity
  8
0
  6
Continuous
 62
     7
370
    15
100
AcDbPolyline
 90
       23
 70
   128
 43
0.0
 10
210.0628508726
 20
574.8543881826
 10
210.4289975489
 20
575.0125342063
 10
210.6839322025
 20
575.2251551501
 10
210.6839322025
 20
575.440715348
 10
210.4289975489
 20
575.6533362917
 10
209.9260805646
 20
575.8572158418
 10
209.1889024252
 20
576.0467958651
 10
208.2375685225
 20
576.216903796
 10
207.0980306255
 20
576.3628997855
 10
205.8013711596
 20
576.4807996355
 10
204.3829608249
 20
576.5673902832
 10
202.8814892058
 20
576.6203061692
 10
201.337912936
 20
576.6381074689
 10
199.7943365952
 20
576.6203061692
 10
198.2928650925
 20
576.5673902832
 10
196.8744542921
 20
576.4807996355
 10
195.5777952919
 20
576.3628997855
 10
194.438257395
 20
576.216903796
 10
193.4869239578
 20
576.0467958651
 10
192.7497448871
 20
575.8572158418
 10
192.2468288342
 20
575.6533362917
 10
191.9918941805
 20
575.440715348
 10
191.9598632032
 20
575.333056321
  0
LWPOLYLINE
  5
84
330
1F
100
AcDbEntity
  8
0
  6
Continuous
 62
     7
370
    15
100
AcDbPolyline
 90
       19
 70
   128
 43
0.0
 10
192.2964310745
 20
574.9152407996
 10
192.6577227662
 20
574.7195624761
 10
193.2665870065
 20
574.5263819598
 10
194.0956154378
 20
574.3497808479
 10
195.1221950824
 20
574.1945815287
 10
196.3183233986
 20
574.0650122069
 10
197.6513733628
 20
573.964611908
 10
199.0849821834
 20
573.896116858
 10
200.5800451391
 20
573.8613952897
 10
202.0957807783
 20
573.8613952897
 10
203.590843734
 20
573.896116858
 10
205.0244525547
 20
573.964611908
 10
206.3575025188
 20
574.0650122069
 10
207.553630835
 20
574.1945815287
 10
208.5802104796
 20
574.3497808479
 10
209.4092393766
 20
574.5263819598
 10
210.0181036169
 20
574.7195624761
 10
210.3901949251
 20
574.9240585618
 10
210.4628501932
 20
574.9978472493
  0
LWPOLYLINE
  5
85
330
1F
100
AcDbEntity
  8
0
  6
Continuous
 62
     7
370
    15
100
AcDbPolyline
 90
       21
 70
   128
 43
0.0
 10
210.5096444959
 20
575.089204406
 10
210.5153628165
 20
575.1342878692
 10
210.3901949251
 20
575.3445171766
 10
210.0181036169
 20
575.5490113996
 10
209.4092393766
 20
575.7421937786
 10
208.5802104796
 20
575.9187930278
 10
207.553630835
 20
576.0739942096
 10
206.3575025188
 20
576.2035616688
 10
205.0244525547
 20
576.3039619677
 10
203.590843734
 20
576.3724570177
 10
202.0957807783
 20
576.407178586
 10
200.5800451391
 20
576.407178586
 10
199.0849821834
 20
576.3724570177
 10
197.6513733628
 20
576.3039619677
 10
196.3183233986
 20
576.2035616688
 10
195.1221950824
 20
576.0739942096
 10
194.0956154378
 20
575.9187930278
 10
193.2665870065
 20
575.7421937786
 10
192.6577227662
 20
575.5490113996
 10
192.2856314579
 20
575.3445171766
 10
192.1604626352
 20
575.1342878692
  0
LWPOLYLINE
  5
86
330
1F
100
AcDbEntity
  8
0
  6
Continuous
 62
     7
370
    15
100
AcDbPolyline
 90
       38
 70
   128
 43
0.0
 10
192.4117763067
 20
575.1342878692
 10
192.5401712308
 20
575.3442340545
 10
192.9216605151
 20
575.5481396817
 10
193.5452699202
 20
575.740139281
 10
194.3930593791
 20
575.9147119723
 10
195.4406403477
 20
576.0668304764
 10
196.6578747617
 20
576.192123165
 10
198.0097451253
 20
576.2869839571
 10
199.4573610375
 20
576.3486822151
 10
200.9590769542
 20
576.3754465632
 10
202.471691324
 20
576.3665040038
 10
203.9516888565
 20
576.322111582
 10
205.3564928012
 20
576.2435489349
 10
206.645690045
 20
576.1330754511
 10
207.7821913647
 20
575.9938669406
 10
208.733303147
 20
575.8299318157
 10
209.4716631348
 20
575.6459825687
 10
209.976029257
 20
575.4473146997
 10
210.2318933705
 20
575.2396390788
 10
210.2318933705
 20
575.0289347969
 10
209.976029257
 20
574.8212610386
 10
209.4716631348
 20
574.622591307
 10
208.733303147
 20
574.43864206
 10
207.7821913647
 20
574.2747069351
 10
206.645690045
 20
574.1354984246
 10
205.3564928012
 20
574.0250249408
 10
203.9516888565
 20
573.9464622937
 10
202.471691324
 20
573.9020717345
 10
200.9590769542
 20
573.8931291751
 10
199.4573610375
 20
573.9198916606
 10
198.0097451253
 20
573.9815917812
 10
196.6578747617
 20
574.0764507107
 10
195.4406403477
 20
574.2017433993
 10
194.3930593791
 20
574.353863766
 10
193.5452699202
 20
574.5284345947
 10
192.9216605151
 20
574.720434194
 10
192.5401712308
 20
574.9243416838
 10
192.4117763067
 20
575.1342878692
  0
LINE
  5
87
330
1F
100
AcDbEntity
  8
0
  6
Continuous
 62
     7
370
    15
100
AcDbLine
 10
196.3229129563
 20
636.5869560294
 30
0.0
 11
192.3109131405
 21
636.5869560294
 31
0.0
  0
ARC
  5
88
330
1F
100
AcDbEntity
  8
0
  6
Continuous
 62
     7
370
    15
100
AcDbCircle
 10
192.310912936
 20
637.5899572148
 30
0.0
 40
1.002999999999986
100
AcDbArc
 50
180.0
 51
270.0
  0
LINE
  5
89
330
1F
100
AcDbEntity
  8
0
  6
Continuous
 62
     7
370
    15
100
AcDbLine
 10
206.3529129612
 20
636.5869560294
 30
0.0
 11
196.3229129563
 21
636.5869560294
 31
0.0
  0
LINE
  5
8A
330
1F
100
AcDbEntity
  8
0
  6
Continuous
 62
     7
370
    15
100
AcDbLine
 10
196.3229129563
 20
642.6049576156
 30
0.0
 11
206.3529129612
 21
642.6049576156
 31
0.0
  0
LINE
  5
8B
330
1F
100
AcDbEntity
  8
0
  6
Continuous
 62
     7
370
    15
100
AcDbLine
 10
191.3079131866
 20
637.5899569146
 30
0.0
 11
191.3079131866
 21
641.6019567303
 31
0.0
  0
LINE
  5
8C
330
1F
100
AcDbEntity
  8
0
  6
Continuous
 62
     7
370
    15
100
AcDbLine
 10
192.3109131405
 20
642.6049576156
 30
0.0
 11
196.3229129563
 21
642.6049576156
 31
0.0
  0
ARC
  5
8D
330
1F
100
AcDbEntity
  8
0
  6
Continuous
 62
     7
370
    15
100
AcDbCircle
 10
192.310912936
 20
641.6019572148
 30
0.0
 40
1.002999999999986
100
AcDbArc
 50
90.0
 51
180.0
  0
ARC
  5
8E
330
1F
100
AcDbEntity
  8
0
  6
Continuous
 62
     7
370
    15
100
AcDbCircle
 10
210.364912936
 20
637.5899572148
 30
0.0
 40
1.003000000000014
100
AcDbArc
 50
270.0
 51
0.0
  0
LINE
  5
8F
330
1F
100
AcDbEntity
  8
0
  6
Continuous
 62
     7
370
    15
100
AcDbLine
 10
210.3649132425
 20
636.5869560294
 30
0.0
 11
206.3529129612
 21
636.5869560294
 31
0.0
  0
LINE
  5
90
330
1F
100
AcDbEntity
  8
0
  6
Continuous
 62
     7
370
    15
100
AcDbLine
 10
206.3529129612
 20
642.6049576156
 30
0.0
 11
210.3649132425
 21
642.6049576156
 31
0.0
  0
ARC
  5
91
330
1F
100
AcDbEntity
  8
0
  6
Continuous
 62
     7
370
    15
100
AcDbCircle
 10
210.364912936
 20
641.6019572148
 30
0.0
 40
1.003000000000014
100
AcDbArc
 50
0.0
 51
90.0
  0
LINE
  5
92
330
1F
100
AcDbEntity
  8
0
  6
Continuous
 62
     7
370
    15
100
AcDbLine
 10
211.3679131965
 20
641.6019567303
 30
0.0
 11
211.3679131965
 21
637.5899569146
 31
0.0
  0
ARC
  5
93
330
1F
100
AcDbEntity
  8
0
  6
Continuous
 62
     7
370
    15
100
AcDbCircle
 10
201.337912936
 20
623.9993072148
 30
0.0
 40
3.008999999999989
100
AcDbArc
 50
277.6622556608
 51
82.3377443392
  0
SPLINE
  5
94
330
1F
100
AcDbEntity
  8
0
  6
Continuous
 62
     7
370
    15
100
AcDbSpline
210
0.0
220
0.0
230
1.0
 70
    24
 71
     3
 72
    12
 73
     8
 74
     0
 42
0.00000001
 43
0.00000001
 40
0.0
 40
0.0
 40
0.0
 40
0.0
 40
0.2500000000000017
 40
0.2500000000000017
 40
0.5000000000000034
 40
0.5000000000000034
 40
1.0
 40
1.0
 40
1.0
 40
1.0
 10
201.7391129359729
 20
626.2710523963384
 30
0.0
 10
201.7391129359729
 20
626.364324936226
 30
0.0
 10
201.7391129359729
 20
626.4558334713214
 30
0.0
 10
201.7391129359729
 20
626.6274534527952
 30
0.0
 10
201.7391129359729
 20
626.70615029887
 30
0.0
 10
201.7391129359729
 20
626.9034277964859
 30
0.0
 10
201.7391129359729
 20
626.9814406054776
 30
0.0
 10
201.7391129359729
 20
626.9814406054776
 30
0.0
  0
SPLINE
  5
95
330
1F
100
AcDbEntity
  8
0
  6
Continuous
 62
     7
370
    15
100
AcDbSpline
210
0.0
220
0.0
230
1.0
 70
    24
 71
     3
 72
    12
 73
     8
 74
     0
 42
0.00000001
 43
0.00000001
 40
0.0
 40
0.0
 40
0.0
 40
0.0
 40
0.2500000000000001
 40
0.2500000000000001
 40
0.5000000000000001
 40
0.5000000000000001
 40
1.0
 40
1.0
 40
1.0
 40
1.0
 10
201.7391129359729
 20
621.0171738240534
 30
0.0
 10
201.7391129359729
 20
621.0171738240534
 30
0.0
 10
201.7391129359729
 20
621.0358414056388
 30
0.0
 10
201.7391129359729
 20
621.1075894508836
 30
0.0
 10
201.7391129359729
 20
621.1606879628337
 30
0.0
 10
201.7391129359729
 20
621.3576195719608
 30
0.0
 10
201.7391129359729
 20
621.541046958974
 30
0.0
 10
201.7391129359729
 20
621.7275620331925
 30
0.0
  0
ARC
  5
96
330
1F
100
AcDbEntity
  8
0
  6
Continuous
 62
     7
370
    15
100
AcDbCircle
 10
201.337912936
 20
623.9993072148
 30
0.0
 40
3.008999999999985
100
AcDbArc
 50
97.6622556608
 51
262.3377443392
  0
SPLINE
  5
97
330
1F
100
AcDbEntity
  8
0
  6
Continuous
 62
     7
370
    15
100
AcDbSpline
210
0.0
220
0.0
230
1.0
 70
    24
 71
     3
 72
    10
 73
     6
 74
     0
 42
0.00000001
 43
0.00000001
 40
0.0
 40
0.0
 40
0.0
 40
0.0
 40
0.5
 40
0.5
 40
1.0
 40
1.0
 40
1.0
 40
1.0
 10
200.9367129359729
 20
621.625776005786
 30
0.0
 10
200.9367129359729
 20
621.4659243850657
 30
0.0
 10
200.9367129359729
 20
621.3093163518738
 30
0.0
 10
200.9367129359729
 20
621.084003868572
 30
0.0
 10
200.9367129359729
 20
621.0171738240534
 30
0.0
 10
200.9367129359729
 20
621.0171738240534
 30
0.0
  0
SPLINE
  5
98
330
1F
100
AcDbEntity
  8
0
  6
Continuous
 62
     7
370
    15
100
AcDbSpline
210
0.0
220
0.0
230
1.0
 70
    24
 71
     3
 72
    10
 73
     6
 74
     0
 42
0.00000001
 43
0.00000001
 40
0.0
 40
0.0
 40
0.0
 40
0.0
 40
0.5
 40
0.5
 40
1.0
 40
1.0
 40
1.0
 40
1.0
 10
200.9367129359729
 20
626.9814406054776
 30
0.0
 10
200.9367129359729
 20
626.9814406054776
 30
0.0
 10
200.9367129359729
 20
626.9147371405949
 30
0.0
 10
200.9367129359729
 20
626.6898064952265
 30
0.0
 10
200.9367129359729
 20
626.532664285121
 30
0.0
 10
200.9367129359729
 20
626.3728384237451
 30
0.0
  0
LINE
  5
99
330
1F
100
AcDbEntity
  8
0
  6
Continuous
 62
     7
370
    15
100
AcDbLine
 10
200.9367129306
 20
621.6257766835
 30
0.0
 11
200.9367129306
 21
626.3728377424
 31
0.0
  0
LINE
  5
9A
330
1F
100
AcDbEntity
  8
0
  6
Continuous
 62
     7
370
    15
100
AcDbLine
 10
201.7391129286
 20
626.2710516356
 30
0.0
 11
201.7391129286
 21
621.7275627903
 31
0.0
  0
ARC
  5
9B
330
1F
100
AcDbEntity
  8
0
  6
Continuous
 62
     7
370
    15
100
AcDbCircle
 10
201.337912936
 20
623.9993072148
 30
0.0
 40
3.009000000000015
100
AcDbArc
 50
262.3377443392
 51
270.0
  0
ARC
  5
9C
330
1F
100
AcDbEntity
  8
0
  6
Continuous
 62
     7
370
    15
100
AcDbCircle
 10
201.337912936
 20
623.9993072148
 30
0.0
 40
3.008999999999985
100
AcDbArc
 50
90.0
 51
97.6622556608
  0
ARC
  5
9D
330
1F
100
AcDbEntity
  8
0
  6
Continuous
 62
     7
370
    15
100
AcDbCircle
 10
201.337912936
 20
623.9993072148
 30
0.0
 40
3.009000000000015
100
AcDbArc
 50
270.0
 51
277.6622556608
  0
ARC
  5
9E
330
1F
100
AcDbEntity
  8
0
  6
Continuous
 62
     7
370
    15
100
AcDbCircle
 10
201.337912936
 20
623.9993072148
 30
0.0
 40
3.008999999999989
100
AcDbArc
 50
82.3377443392
 51
90.0
  0
SPLINE
  5
9F
330
1F
100
AcDbEntity
  8
0
  6
Continuous
 62
     7
370
    15
100
AcDbSpline
210
0.0
220
0.0
230
1.0
 70
     8
 71
     3
 72
    10
 73
     6
 74
     0
 42
0.00000001
 43
0.00000001
 40
0.0
 40
0.0
 40
0.0
 40
0.0
 40
0.2153464588667722
 40
0.6274165372308091
 40
1.0
 40
1.0
 40
1.0
 40
1.0
 10
178.2864422077666
 20
612.7154131434716
 30
0.0
 10
178.2835994116293
 20
612.6863359659752
 30
0.0
 10
178.2753168639714
 20
612.6016189842645
 30
0.0
 10
178.4040365423458
 20
612.5323314324913
 30
0.0
 10
178.5979295257006
 20
612.5205509554736
 30
0.0
 10
178.6899973178636
 20
612.5149571351565
 30
0.0
  0
SPLINE
  5
A0
330
1F
100
AcDbEntity
  8
0
  6
Continuous
 62
     7
370
    15
100
AcDbSpline
210
0.0
220
0.0
230
1.0
 70
     8
 71
     3
 72
    10
 73
     6
 74
     0
 42
0.00000001
 43
0.00000001
 40
0.0
 40
0.0
 40
0.0
 40
0.0
 40
0.3975144329986667
 40
0.7978409753538414
 40
1.0
 40
1.0
 40
1.0
 40
1.0
 10
223.9858299965392
 20
612.5149571351565
 30
0.0
 10
224.0832308081084
 20
612.5213032890467
 30
0.0
 10
224.2787214671932
 20
612.5340404909925
 30
0.0
 10
224.4024831705234
 20
612.6056220791496
 30
0.0
 10
224.3926326312277
 20
612.6878473512079
 30
0.0
 10
224.3893273646365
 20
612.7154373578585
 30
0.0
  0
LINE
  5
A1
330
1F
100
AcDbEntity
  8
0
  6
Continuous
 62
     7
370
    15
100
AcDbLine
 10
178.6899973179
 20
612.5149571352
 30
0.0
 11
223.9858299965
 21
612.5149571352
 31
0.0
  0
LINE
  5
A2
330
1F
100
AcDbEntity
  8
0
  6
Continuous
 62
     7
370
    15
100
AcDbLine
 10
179.7734123195
 20
647.6199583165
 30
0.0
 11
222.9024131323
 21
647.6199583165
 31
0.0
  0
LINE
  5
A3
330
1F
100
AcDbEntity
  8
0
  6
Continuous
 62
     7
370
    15
100
AcDbLine
 10
178.7704132969
 20
500.4297041349
 30
0.0
 11
223.9054121549
 21
500.4297041349
 31
0.0
  0
LINE
  5
A4
330
1F
100
AcDbEntity
  8
0
  6
Continuous
 62
     7
370
    15
100
AcDbLine
 10
201.337912936
 20
604.7417072594
 30
0.0
 11
223.9054121549
 21
604.7417072594
 31
0.0
  0
LINE
  5
A5
330
1F
100
AcDbEntity
  8
0
  6
Continuous
 62
     7
370
    15
100
AcDbLine
 10
178.7704132969
 20
604.7417072594
 30
0.0
 11
201.337912936
 21
604.7417072594
 31
0.0
  0
SPLINE
  5
A6
330
1F
100
AcDbEntity
  8
0
  6
Continuous
 62
     8
370
    15
100
AcDbSpline
210
0.0
220
0.0
230
1.0
 70
     8
 71
     3
 72
     8
 73
     4
 74
     0
 42
0.00000001
 43
0.00000001
 40
0.0943514823238665
 40
0.0943514823238665
 40
0.0943514823238665
 40
0.0943514823238665
 40
0.8992676120841631
 40
0.8992676120841631
 40
0.8992676120841631
 40
0.8992676120841631
 10
219.098906238155
 20
596.816261700915
 30
0.0
 10
219.2903944277407
 20
591.7739552444968
 30
0.0
 10
219.2915563479787
 20
586.7362699251236
 30
0.0
 10
219.1023914415699
 20
581.6940591706341
 30
0.0
  0
SPLINE
  5
A7
330
1F
100
AcDbEntity
  8
0
  6
Continuous
 62
     8
370
    15
100
AcDbSpline
210
0.0
220
0.0
230
1.0
 70
     8
 71
     3
 72
     8
 73
     4
 74
     0
 42
0.00000001
 43
0.00000001
 40
0.0943514823238665
 40
0.0943514823238665
 40
0.0943514823238665
 40
0.0943514823238665
 40
0.899267612084163
 40
0.899267612084163
 40
0.899267612084163
 40
0.899267612084163
 10
183.5734344303758
 20
581.6940591706341
 30
0.0
 10
183.3842695239671
 20
586.7362699251236
 30
0.0
 10
183.385431444205
 20
591.7739552444968
 30
0.0
 10
183.5769196337907
 20
596.816261700915
 30
0.0
  0
LWPOLYLINE
  5
A8
330
1F
100
AcDbEntity
  8
0
  6
Continuous
 62
     8
370
     0
100
AcDbPolyline
 90
        9
 70
   128
 43
0.0
 10
201.3384554077
 20
580.5875671111
 10
201.3384554414
 20
580.6147077136
 10
201.3384554739
 20
580.6914468311
 10
201.338455504
 20
580.8150240235
 10
201.3384555306
 20
580.9809838436
 10
201.3384555528
 20
581.1833509259
 10
201.3384555698
 20
581.4148348771
 10
201.3384555809
 20
581.6670984976
 10
201.3384555859
 20
581.9310558043
  0
SPLINE
  5
A9
330
1F
100
AcDbEntity
  8
0
  6
Continuous
 62
     8
370
     0
100
AcDbSpline
210
0.0
220
0.0
230
1.0
 70
     8
 71
     3
 72
    15
 73
    11
 74
     0
 42
0.00000001
 43
0.00000001
 40
0.0
 40
0.0
 40
0.0
 40
0.0
 40
0.5000000000000003
 40
0.5000000000000003
 40
0.7500000000000003
 40
0.7500000000000003
 40
0.8750000000000002
 40
0.9375000000000002
 40
0.9375000000000002
 40
1.0
 40
1.0
 40
1.0
 40
1.0
 10
201.3384554076806
 20
580.5875661832584
 30
0.0
 10
202.9546937039568
 20
580.587566184692
 30
0.0
 10
204.5709320049969
 20
580.5875376184863
 30
0.0
 10
206.9952894523141
 20
580.5875202131037
 30
0.0
 10
207.8034086007192
 20
580.5875186128908
 30
0.0
 10
209.0155873208711
 20
580.5875309388433
 30
0.0
 10
209.6216766803231
 20
580.5875408436374
 30
0.0
 10
210.2277660385456
 20
580.5875581216661
 30
0.0
 10
210.6318256103926
 20
580.5875714471357
 30
0.0
 10
210.8338552307025
 20
580.5875845249842
 30
0.0
 10
211.0358856699435
 20
580.5875669929441
 30
0.0
  0
SPLINE
  5
AA
330
1F
100
AcDbEntity
  8
0
  6
Continuous
 62
     8
370
     0
100
AcDbSpline
210
0.0
220
0.0
230
1.0
 70
     8
 71
     3
 72
    15
 73
    11
 74
     0
 42
0.00000001
 43
0.00000001
 40
0.0
 40
0.0
 40
0.0
 40
0.0
 40
0.0624999999999997
 40
0.0624999999999997
 40
0.1249999999999993
 40
0.2499999999999992
 40
0.2499999999999992
 40
0.4999999999999993
 40
0.4999999999999993
 40
1.0
 40
1.0
 40
1.0
 40
1.0
 10
191.6399350321296
 20
580.5875669924955
 30
0.0
 10
191.8419881830279
 20
580.5875845270648
 30
0.0
 10
192.0440405137406
 20
580.5875714456205
 30
0.0
 10
192.4481455069893
 20
580.5875581190284
 30
0.0
 10
193.0543029973051
 20
580.5875408399005
 30
0.0
 10
193.6604604888261
 20
580.5875309354894
 30
0.0
 10
194.8727754730908
 20
580.587518611444
 30
0.0
 10
195.6809854642048
 20
580.5875202144549
 30
0.0
 10
198.1056154396064
 20
580.5875376274142
 30
0.0
 10
199.7220354259765
 20
580.5875661846911
 30
0.0
 10
201.3384554076806
 20
580.5875661832574
 30
0.0
  0
SPLINE
  5
AB
330
1F
100
AcDbEntity
  8
0
  6
Continuous
 62
     8
370
     0
100
AcDbSpline
210
0.0
220
0.0
230
1.0
 70
     8
 71
     3
 72
    42
 73
    38
 74
     0
 42
0.00000001
 43
0.00000001
 40
0.0
 40
0.0
 40
0.0
 40
0.0
 40
0.0078125000000007
 40
0.0078125000000007
 40
0.0156250000000012
 40
0.0156250000000012
 40
0.0312500000000022
 40
0.0312500000000022
 40
0.0468750000000032
 40
0.0468750000000032
 40
0.0625000000000043
 40
0.0625000000000043
 40
0.0703125000000046
 40
0.0703125000000046
 40
0.0781250000000047
 40
0.0781250000000047
 40
0.0859375000000049
 40
0.0859375000000049
 40
0.0937500000000051
 40
0.0937500000000051
 40
0.1015625000000052
 40
0.1015625000000052
 40
0.1054687500000053
 40
0.1054687500000053
 40
0.1093750000000054
 40
0.1093750000000054
 40
0.1250000000000057
 40
0.1250000000000057
 40
0.1562500000000054
 40
0.1562500000000054
 40
0.1875000000000052
 40
0.1875000000000052
 40
0.2500000000000049
 40
0.2500000000000049
 40
0.5000000000000032
 40
0.5000000000000032
 40
1.0
 40
1.0
 40
1.0
 40
1.0
 10
191.6399350321298
 20
580.5875669924955
 30
0.0
 10
191.3731051823749
 20
580.58754383655
 30
0.0
 10
191.1403113946911
 20
580.5874622552576
 30
0.0
 10
190.6757362034669
 20
580.5870695599857
 30
0.0
 10
190.4412734325387
 20
580.5867554118038
 30
0.0
 10
189.7496670148624
 20
580.5855038949668
 30
0.0
 10
189.3030207988853
 20
580.5842505527405
 30
0.0
 10
188.4614468430286
 20
580.5810061257378
 30
0.0
 10
188.068618040188
 20
580.5790170057788
 30
0.0
 10
187.3711220566055
 20
580.574461674013
 30
0.0
 10
187.067613484374
 20
580.5718983081833
 30
0.0
 10
186.6875059007788
 20
580.5676792137651
 30
0.0
 10
186.5732075106702
 20
580.5662120741193
 30
0.0
 10
186.3703116806133
 20
580.5631727236408
 30
0.0
 10
186.2813919573468
 20
580.5615947969407
 30
0.0
 10
186.1346961668995
 20
580.5584186078214
 30
0.0
 10
186.0774456215998
 20
580.5568341330321
 30
0.0
 10
185.998013047822
 20
580.553674010471
 30
0.0
 10
185.973546893706
 20
580.5520068629897
 30
0.0
 10
185.9439246515342
 20
580.5484158480805
 30
0.0
 10
185.939250363966
 20
580.5465070870825
 30
0.0
 10
185.9370335859172
 20
580.5434868615725
 30
0.0
 10
185.9369999713788
 20
580.5424554408273
 30
0.0
 10
185.9362340734218
 20
580.5403527238997
 30
0.0
 10
185.9353459841544
 20
580.5392847240024
 30
0.0
 10
185.9293110905715
 20
580.5340226895095
 30
0.0
 10
185.9195460544082
 20
580.5299151015234
 30
0.0
 10
185.90164070923
 20
580.5175185398577
 30
0.0
 10
185.8941736070904
 20
580.5092420301413
 30
0.0
 10
185.878940441878
 20
580.492677900974
 30
0.0
 10
185.8719544825958
 20
580.4843901933244
 30
0.0
 10
185.8515170267353
 20
580.4595240734176
 30
0.0
 10
185.8378632264904
 20
580.4429496930372
 30
0.0
 10
185.7731077412695
 20
580.3600758876103
 30
0.0
 10
185.7313346412837
 20
580.2937623231643
 30
0.0
 10
185.6260636743052
 20
580.0948080586974
 30
0.0
 10
185.5830600812751
 20
579.9621441370615
 30
0.0
 10
185.5465920212925
 20
579.8294922130023
 30
0.0
  0
SPLINE
  5
AC
330
1F
100
AcDbEntity
  8
0
  6
Continuous
 62
     8
370
    15
100
AcDbSpline
210
0.0
220
0.0
230
1.0
 70
     8
 71
     3
 72
    19
 73
    15
 74
     0
 42
0.00000001
 43
0.00000001
 40
0.0
 40
0.0
 40
0.0
 40
0.0
 40
0.0548699156547041
 40
0.1148355272996288
 40
0.1799430646747027
 40
0.2502334852848292
 40
0.3053228964358097
 40
0.375154199900515
 40
0.500551436619073
 40
0.6379691996893088
 40
0.750161176308887
 40
0.8402347527363063
 40
0.9235368810579605
 40
1.0
 40
1.0
 40
1.0
 40
1.0
 10
185.5465920414396
 20
579.829492286287
 30
0.0
 10
185.5104589939626
 20
579.8296021218982
 30
0.0
 10
185.434837271012
 20
579.8298319934077
 30
0.0
 10
185.3165083137388
 20
579.8388419469038
 30
0.0
 10
185.1884374355062
 20
579.856269026818
 30
0.0
 10
185.0644584139448
 20
579.8820854794881
 30
0.0
 10
184.9388261196287
 20
579.9167254179047
 30
0.0
 10
184.7796298690134
 20
579.9718336456481
 30
0.0
 10
184.5735715620357
 20
580.0672638524716
 30
0.0
 10
184.3524810783464
 20
580.2097785369164
 30
0.0
 10
184.1664196046582
 20
580.3689969070929
 30
0.0
 10
184.0219701968885
 20
580.5249779413783
 30
0.0
 10
183.9056002935032
 20
580.6766640084461
 30
0.0
 10
183.8410691290413
 20
580.7860246666633
 30
0.0
 10
183.8101847271565
 20
580.838364315993
 30
0.0
  0
SPLINE
  5
AD
330
1F
100
AcDbEntity
  8
0
  6
Continuous
 62
     8
370
     0
100
AcDbSpline
210
0.0
220
0.0
230
1.0
 70
     8
 71
     3
 72
    15
 73
    11
 74
     0
 42
0.00000001
 43
0.00000001
 40
0.0
 40
0.0
 40
0.0
 40
0.0
 40
0.0832154929985167
 40
0.1665783322918731
 40
0.2505318485970976
 40
0.3762872916724208
 40
0.5007395814976168
 40
0.6707649381837616
 40
0.8359937618843478
 40
1.0
 40
1.0
 40
1.0
 40
1.0
 10
183.8101847271565
 20
580.838364315993
 30
0.0
 10
183.8019185353382
 20
580.8535748820087
 30
0.0
 10
183.7853715150915
 20
580.8840229467719
 30
0.0
 10
183.7590882251815
 20
580.936917312656
 30
0.0
 10
183.7281055689771
 20
581.0044959756236
 30
0.0
 10
183.6933085048226
 20
581.089980991564
 30
0.0
 10
183.6524905036855
 20
581.2089680531284
 30
0.0
 10
183.6146732190236
 20
581.3522422915803
 30
0.0
 10
183.5844931558932
 20
581.5204590970554
 30
0.0
 10
183.5771199328221
 20
581.6361497130383
 30
0.0
 10
183.5734470111958
 20
581.6937802175416
 30
0.0
  0
SPLINE
  5
AE
330
1F
100
AcDbEntity
  8
0
  6
Continuous
 62
     8
370
    15
100
AcDbSpline
210
0.0
220
0.0
230
1.0
 70
     8
 71
     3
 72
    18
 73
    14
 74
     0
 42
0.00000001
 43
0.00000001
 40
0.0
 40
0.0
 40
0.0
 40
0.0
 40
0.0567083921986873
 40
0.1172711835274062
 40
0.1816653971178237
 40
0.249857085879938
 40
0.3620506010068477
 40
0.4994702323205404
 40
0.6248692635546901
 40
0.6947015704622393
 40
0.7497917622857737
 40
0.8851735481232369
 40
1.0
 40
1.0
 40
1.0
 40
1.0
 10
218.86564114417
 20
580.838364315993
 30
0.0
 10
218.8429624073601
 20
580.7992913654308
 30
0.0
 10
218.7960634881086
 20
580.7184897242862
 30
0.0
 10
218.7148980980989
 20
580.6037209920873
 30
0.0
 10
218.6224911800967
 20
580.490213771736
 30
0.0
 10
218.497350988933
 20
580.3588222893922
 30
0.0
 10
218.3233726609683
 20
580.2097467780071
 30
0.0
 10
218.1022469808618
 20
580.067266609909
 30
0.0
 10
217.8961971878501
 20
579.9718494546476
 30
0.0
 10
217.736999606396
 20
579.9166952829675
 30
0.0
 10
217.5694782941884
 20
579.8706767070006
 30
0.0
 10
217.3696189830132
 20
579.834452306538
 30
0.0
 10
217.2048501326591
 20
579.8310525257461
 30
0.0
 10
217.1292338274615
 20
579.829492286287
 30
0.0
  0
SPLINE
  5
AF
330
1F
100
AcDbEntity
  8
0
  6
Continuous
 62
     8
370
     0
100
AcDbSpline
210
0.0
220
0.0
230
1.0
 70
     8
 71
     3
 72
    42
 73
    38
 74
     0
 42
0.00000001
 43
0.00000001
 40
0.0
 40
0.0
 40
0.0
 40
0.0
 40
0.4999999999999964
 40
0.4999999999999964
 40
0.7499999999999947
 40
0.7499999999999947
 40
0.8124999999999942
 40
0.8124999999999942
 40
0.8437499999999938
 40
0.8437499999999938
 40
0.8749999999999933
 40
0.8749999999999933
 40
0.8906249999999933
 40
0.8906249999999933
 40
0.8945312499999933
 40
0.8945312499999933
 40
0.8984374999999933
 40
0.8984374999999933
 40
0.906249999999994
 40
0.906249999999994
 40
0.9140624999999947
 40
0.9140624999999947
 40
0.9218749999999954
 40
0.9218749999999954
 40
0.9296874999999961
 40
0.9296874999999961
 40
0.9374999999999969
 40
0.9374999999999969
 40
0.9531249999999977
 40
0.9531249999999977
 40
0.9687499999999984
 40
0.9687499999999984
 40
0.9843749999999992
 40
0.9843749999999992
 40
0.9921874999999996
 40
0.9921874999999996
 40
1.0
 40
1.0
 40
1.0
 40
1.0
 10
217.1292338476093
 20
579.8294922130021
 30
0.0
 10
217.0927657795936
 20
579.962144143844
 30
0.0
 10
217.0497621783203
 20
580.0948080722611
 30
0.0
 10
216.9444912006664
 20
580.2937623468995
 30
0.0
 10
216.9027180973382
 20
580.3600759147322
 30
0.0
 10
216.837962607851
 20
580.4429497243934
 30
0.0
 10
216.8243088067559
 20
580.459524105623
 30
0.0
 10
216.8038713535404
 20
580.4843902268011
 30
0.0
 10
216.7968853947602
 20
580.4926779348709
 30
0.0
 10
216.781652224321
 20
580.5092420648542
 30
0.0
 10
216.7741851165537
 20
580.5175185749627
 30
0.0
 10
216.7562797518596
 20
580.5299151372137
 30
0.0
 10
216.7465146950277
 20
580.5340227256697
 30
0.0
 10
216.7404798423835
 20
580.5392847610593
 30
0.0
 10
216.7395917698981
 20
580.5403527613256
 30
0.0
 10
216.7388258857061
 20
580.542455478032
 30
0.0
 10
216.7387922666493
 20
580.5434868981819
 30
0.0
 10
216.736575439859
 20
580.5465071215477
 30
0.0
 10
216.7319010691118
 20
580.5484158812533
 30
0.0
 10
216.7022785908617
 20
580.5520068936835
 30
0.0
 10
216.6778122884822
 20
580.553674039601
 30
0.0
 10
216.5983793317734
 20
580.5568341611635
 30
0.0
 10
216.5411285632094
 20
580.5584186366012
 30
0.0
 10
216.3944323919739
 20
580.5615948255949
 30
0.0
 10
216.3055124985801
 20
580.5631727519049
 30
0.0
 10
216.1026163394085
 20
580.5662121013337
 30
0.0
 10
215.9883177929744
 20
580.567679240318
 30
0.0
 10
215.6082097435226
 20
580.5718983325984
 30
0.0
 10
215.3047008361485
 20
580.5744616970293
 30
0.0
 10
214.6072042725479
 20
580.5790170254105
 30
0.0
 10
214.2143752205075
 20
580.5810061433964
 30
0.0
 10
213.3728008705569
 20
580.5842505659415
 30
0.0
 10
212.9261545176217
 20
580.585503905666
 30
0.0
 10
212.23454795397
 20
580.5867554184888
 30
0.0
 10
212.000085195947
 20
580.587069565258
 30
0.0
 10
211.5355098499252
 20
580.5874622577176
 30
0.0
 10
211.3027157836736
 20
580.5875438377132
 30
0.0
 10
211.0358856699433
 20
580.5875669929441
 30
0.0
  0
SPLINE
  5
B0
330
1F
100
AcDbEntity
  8
0
  6
Continuous
 62
     8
370
    15
100
AcDbSpline
210
0.0
220
0.0
230
1.0
 70
     8
 71
     3
 72
    17
 73
    13
 74
     0
 42
0.00000001
 43
0.00000001
 40
0.0
 40
0.0
 40
0.0
 40
0.0
 40
0.0822156645170321
 40
0.1642895324078547
 40
0.2466673515894965
 40
0.3297983901916005
 40
0.4141297969719731
 40
0.5001010756116216
 40
0.6245603398993526
 40
0.7503195907345296
 40
0.8755754730952345
 40
1.0
 40
1.0
 40
1.0
 40
1.0
 10
219.1023788608098
 20
581.6937802191518
 30
0.0
 10
219.1009193703123
 20
581.6648970746444
 30
0.0
 10
219.0980029064876
 20
581.6071806001324
 30
0.0
 10
219.0887698038923
 20
581.521504535539
 30
0.0
 10
219.0761630640994
 20
581.4372282608614
 30
0.0
 10
219.0600069013204
 20
581.3546684380975
 30
0.0
 10
219.0406037844807
 20
581.274097641791
 30
0.0
 10
219.0150028987315
 20
581.184737483704
 30
0.0
 10
218.9823295668119
 20
581.0894378123214
 30
0.0
 10
218.9432676123887
 20
580.9936583540917
 30
0.0
 10
218.9031766769657
 20
580.908038710507
 30
0.0
 10
218.8781251839638
 20
580.8615375028094
 30
0.0
 10
218.86564114417
 20
580.838364315993
 30
0.0
  0
SPLINE
  5
B1
330
1F
100
AcDbEntity
  8
0
  6
Continuous
 62
     8
370
    15
100
AcDbSpline
210
0.0
220
0.0
230
1.0
 70
     8
 71
     3
 72
    21
 73
    17
 74
     0
 42
0.00000001
 43
0.00000001
 40
0.0
 40
0.0
 40
0.0
 40
0.0
 40
0.0309084594669679
 40
0.0622001077138364
 40
0.0939125571282403
 40
0.1260791534221007
 40
0.1870924770904243
 40
0.2515496353217422
 40
0.3763605012194859
 40
0.5015773560069887
 40
0.6260963434843021
 40
0.7512462969875653
 40
0.8248939542869311
 40
0.8753059907103118
 40
0.9414385177895335
 40
1.0
 40
1.0
 40
1.0
 40
1.0
 10
183.576921704464
 20
596.816307410015
 30
0.0
 10
183.578805878496
 20
596.8512243138496
 30
0.0
 10
183.582597585678
 20
596.9214910051372
 30
0.0
 10
183.5955115550827
 20
597.0264111593268
 30
0.0
 10
183.6138069319159
 20
597.1311202828261
 30
0.0
 10
183.6451060708915
 20
597.2656032260005
 30
0.0
 10
183.6970374147653
 20
597.4289965524283
 30
0.0
 10
183.8027296630073
 20
597.6712691758247
 30
0.0
 10
183.9731166439641
 20
597.9403147223808
 30
0.0
 10
184.2174118194248
 20
598.2015308010912
 30
0.0
 10
184.492048710528
 20
598.4067565082615
 30
0.0
 10
184.7481200199107
 20
598.5370439450907
 30
0.0
 10
184.9542748793817
 20
598.6095341383581
 30
0.0
 10
185.1147670054782
 20
598.6511971063322
 30
0.0
 10
185.265148466707
 20
598.6789176553478
 30
0.0
 10
185.3738840450826
 20
598.6873815908804
 30
0.0
 10
185.4249507857782
 20
598.6913566063034
 30
0.0
  0
SPLINE
  5
B2
330
1F
100
AcDbEntity
  8
0
  6
Continuous
 62
     8
370
    15
100
AcDbSpline
210
0.0
220
0.0
230
1.0
 70
     8
 71
     3
 72
    15
 73
    11
 74
     0
 42
0.00000001
 43
0.00000001
 40
0.0
 40
0.0
 40
0.0
 40
0.0
 40
0.0226099986563296
 40
0.1624903424402101
 40
0.3016754803911102
 40
0.4415907107003227
 40
0.5807451259049151
 40
0.7206997131172487
 40
0.8598309018258524
 40
0.9999999999999999
 40
0.9999999999999999
 40
0.9999999999999999
 40
0.9999999999999999
 10
188.3885987574588
 20
598.8369321756388
 30
0.0
 10
188.578808305888
 20
598.846430977669
 30
0.0
 10
189.9457794025892
 20
598.9146956254516
 30
0.0
 10
192.8584827983582
 20
599.0150866808957
 30
0.0
 10
197.0142844441899
 20
599.1124260333627
 30
0.0
 10
201.3284597423974
 20
599.1452349510598
 30
0.0
 10
205.6427701576236
 20
599.1123263629268
 30
0.0
 10
209.8153379685795
 20
599.0169309954385
 30
0.0
 10
213.7791336914203
 20
598.8716448878121
 30
0.0
 10
216.090779893082
 20
598.7515998402166
 30
0.0
 10
217.2508981550466
 20
598.6913542663594
 30
0.0
  0
LINE
  5
B3
330
1F
100
AcDbEntity
  8
0
  6
Continuous
 62
     8
370
    15
100
AcDbLine
 10
214.4583059946
 20
579.8477468096
 30
0.0
 11
213.3739131043
 21
579.8510362409
 31
0.0
  0
LINE
  5
B4
330
1F
100
AcDbEntity
  8
0
  6
Continuous
 62
     8
370
    15
100
AcDbLine
 10
189.3019132788
 20
579.8510362409
 30
0.0
 11
188.2175194571
 21
579.8477468096
 31
0.0
  0
LWPOLYLINE
  5
B5
330
1F
100
AcDbEntity
  8
0
  6
Continuous
 62
     8
370
     0
100
AcDbPolyline
 90
        3
 70
   128
 43
0.0
 10
192.1604626352
 20
575.1342878692
 10
192.2856314579
 20
574.9240585618
 10
192.2964310745
 20
574.9152407996
  0
LINE
  5
B6
330
1F
100
AcDbEntity
  8
0
  6
Continuous
 62
     8
370
     0
100
AcDbLine
 10
210.4628501932
 20
574.9978472493
 30
0.0
 11
210.5096444959
 21
575.089204406
 31
0.0
  0
SPLINE
  5
B7
330
1F
100
AcDbEntity
  8
0
  6
Continuous
 62
     8
370
     0
100
AcDbSpline
210
0.0
220
0.0
230
1.0
 70
     8
 71
     3
 72
     9
 73
     5
 74
     0
 42
0.00000001
 43
0.00000001
 40
0.0
 40
0.0
 40
0.0
 40
0.0
 40
0.5026324984746484
 40
1.0
 40
1.0
 40
1.0
 40
1.0
 10
221.2785815784297
 20
580.9884467259997
 30
0.0
 10
221.2738340453815
 20
580.8804947375422
 30
0.0
 10
221.2643887089527
 20
580.6657215408527
 30
0.0
 10
221.2497888301453
 20
580.452267006098
 30
0.0
 10
221.2425273249003
 20
580.346101657458
 30
0.0
  0
SPLINE
  5
B8
330
1F
100
AcDbEntity
  8
0
  6
Continuous
 62
     8
370
     0
100
AcDbSpline
210
0.0
220
0.0
230
1.0
 70
     8
 71
     3
 72
     9
 73
     5
 74
     0
 42
0.00000001
 43
0.00000001
 40
0.0
 40
0.0
 40
0.0
 40
0.0
 40
0.4937563368102553
 40
1.0
 40
1.0
 40
1.0
 40
1.0
 10
221.2424578238243
 20
580.3461244247848
 30
0.0
 10
221.1952098271334
 20
579.6702219667894
 30
0.0
 10
221.0995189100382
 20
578.3013231646763
 30
0.0
 10
221.0036934656496
 20
576.931419422632
 30
0.0
 10
220.9551824416555
 20
576.2379143340419
 30
0.0
  0
SPLINE
  5
B9
330
1F
100
AcDbEntity
  8
0
  6
Continuous
 62
     8
370
     0
100
AcDbSpline
210
0.0
220
0.0
230
1.0
 70
     8
 71
     3
 72
    46
 73
    42
 74
     0
 42
0.00000001
 43
0.00000001
 40
0.0
 40
0.0
 40
0.0
 40
0.0
 40
0.0126889404387974
 40
0.0261978269821291
 40
0.0406082174401732
 40
0.0652756182885488
 40
0.0705264644882982
 40
0.1123397921983022
 40
0.1246786676045347
 40
0.1288523647989283
 40
0.1803386720534999
 40
0.18902868949113
 40
0.1976824573760242
 40
0.2331128012344845
 40
0.2465876097903736
 40
0.2510392398061416
 40
0.3000478480375647
 40
0.3140792351902693
 40
0.3413652922158495
 40
0.3741942412490927
 40
0.3932537000711349
 40
0.4214707561460846
 40
0.4420388903794691
 40
0.4752769216205616
 40
0.5010323378010252
 40
0.5032417301656935
 40
0.5098397229441388
 40
0.5185679554660627
 40
0.5631831193564768
 40
0.5724962218429056
 40
0.5817274360906612
 40
0.6742301102364264
 40
0.7117230691315687
 40
0.7366079220621929
 40
0.7549479834982409
 40
0.808423071240623
 40
0.8574741558656087
 40
0.875418288401296
 40
0.9048286089909835
 40
0.953197604570165
 40
1.0
 40
1.0
 40
1.0
 40
1.0
 10
220.9551824416555
 20
576.2379143340419
 30
0.0
 10
220.9515000385329
 20
576.1900209945111
 30
0.0
 10
220.9438972792363
 20
576.0911394977718
 30
0.0
 10
220.9274847513543
 20
575.9395307059325
 30
0.0
 10
220.9017041155825
 20
575.7454543991945
 30
0.0
 10
220.8743495086092
 20
575.5850071071611
 30
0.0
 10
220.8238816076674
 20
575.3301903853823
 30
0.0
 10
220.7739834545707
 20
575.1251230248997
 30
0.0
 10
220.7173507457022
 20
574.9318245717028
 30
0.0
 10
220.6487106858999
 20
574.7091770208553
 30
0.0
 10
220.5754585151086
 20
574.5069952920406
 30
0.0
 10
220.4893786519237
 20
574.3008189858031
 30
0.0
 10
220.4216848346572
 20
574.1448360464116
 30
0.0
 10
220.3432709548535
 20
573.9804674986109
 30
0.0
 10
220.2663824145194
 20
573.8337882637841
 30
0.0
 10
220.1680531843816
 20
573.6523013178085
 30
0.0
 10
220.0632842202212
 20
573.4767453138135
 30
0.0
 10
219.9152230280943
 20
573.2528917113033
 30
0.0
 10
219.7895112054828
 20
573.0748654471807
 30
0.0
 10
219.6490596760588
 20
572.8934042473859
 30
0.0
 10
219.5017851593342
 20
572.7170166134961
 30
0.0
 10
219.373112297016
 20
572.5730845941565
 30
0.0
 10
219.2127893836848
 20
572.405717206431
 30
0.0
 10
219.0522559819042
 20
572.2503363307887
 30
0.0
 10
218.9246355532914
 20
572.1366154838806
 30
0.0
 10
218.8514826218706
 20
572.073925859835
 30
0.0
 10
218.8141944059093
 20
572.042364602911
 30
0.0
 10
218.6857080254652
 20
571.935937653042
 30
0.0
 10
218.547648230289
 20
571.8299667125302
 30
0.0
 10
218.4048117203593
 20
571.7285379586111
 30
0.0
 10
218.1514557586421
 20
571.5534738480837
 30
0.0
 10
217.8182635111358
 20
571.3562315625654
 30
0.0
 10
217.4272701786081
 20
571.170197529243
 30
0.0
 10
217.2184347566439
 20
571.0817921833315
 30
0.0
 10
216.9641522739682
 20
570.9831372737067
 30
0.0
 10
216.63784394651
 20
570.8750149685802
 30
0.0
 10
216.3012119397699
 20
570.7903297805136
 30
0.0
 10
216.0263327834384
 20
570.7351428261278
 30
0.0
 10
215.7495398879926
 20
570.689651254329
 30
0.0
 10
215.3821245905141
 20
570.648539383657
 30
0.0
 10
215.0937561001331
 20
570.6426183865697
 30
0.0
 10
214.9519452473839
 20
570.6397066202911
 30
0.0
  0
SPLINE
  5
BA
330
1F
100
AcDbEntity
  8
0
  6
Continuous
 62
     8
370
     0
100
AcDbSpline
210
0.0
220
0.0
230
1.0
 70
     8
 71
     3
 72
    33
 73
    29
 74
     0
 42
0.00000001
 43
0.00000001
 40
0.0
 40
0.0
 40
0.0
 40
0.0
 40
0.0326490432006012
 40
0.0652167200136205
 40
0.0976864219012572
 40
0.1300861352432506
 40
0.1624463724147856
 40
0.194757220142058
 40
0.2269477819435295
 40
0.2589734386876121
 40
0.2908158860672844
 40
0.3224646909467536
 40
0.3539162702109245
 40
0.3851726236660494
 40
0.4162399023224325
 40
0.4471269097716097
 40
0.4778436226556123
 40
0.5083997940493
 40
0.5388036785468587
 40
0.5690608946713458
 40
0.5991734211314615
 40
0.6575751146424764
 40
0.7154899446986906
 40
0.7729789447386162
 40
0.8301014533684232
 40
0.8869230495488076
 40
0.9435228598043657
 40
1.0
 40
1.0
 40
1.0
 40
1.0
 10
214.9519452473835
 20
570.6397066202961
 30
0.0
 10
214.8245414893824
 20
570.6397092805694
 30
0.0
 10
214.5700514829468
 20
570.6397145944862
 30
0.0
 10
214.1812570932828
 20
570.6397360389781
 30
0.0
 10
213.7881828660354
 20
570.6397430894938
 30
0.0
 10
213.3903379363514
 20
570.6397260361296
 30
0.0
 10
212.9878728693934
 20
570.6396996981518
 30
0.0
 10
212.581166430389
 20
570.6396960790548
 30
0.0
 10
212.1709799019682
 20
570.6397016040163
 30
0.0
 10
211.7581217789008
 20
570.6397053543858
 30
0.0
 10
211.3431594769256
 20
570.6397073476509
 30
0.0
 10
210.9264848385023
 20
570.6397062535772
 30
0.0
 10
210.5083988666889
 20
570.6397026807743
 30
0.0
 10
210.089124434059
 20
570.6396977632609
 30
0.0
 10
209.6688227533327
 20
570.6396928013277
 30
0.0
 10
209.2476116429348
 20
570.6396887135661
 30
0.0
 10
208.8255845981454
 20
570.6396858054359
 30
0.0
 10
208.4028293360391
 20
570.6396838459333
 30
0.0
 10
207.9794466819589
 20
570.6396823701367
 30
0.0
 10
207.5555641063032
 20
570.6396816388885
 30
0.0
 10
206.9978303549768
 20
570.6396828193891
 30
0.0
 10
206.3049121484379
 20
570.639703874657
 30
0.0
 10
205.4754384996466
 20
570.639736369684
 30
0.0
 10
204.6463112874146
 20
570.6397332053402
 30
0.0
 10
203.8179138230076
 20
570.639726358569
 30
0.0
 10
202.9904541249824
 20
570.6397180646306
 30
0.0
 10
202.1639003186567
 20
570.6397144377544
 30
0.0
 10
201.6130423339462
 20
570.6397157802006
 30
0.0
 10
201.3379121371532
 20
570.6397164506955
 30
0.0
  0
SPLINE
  5
BB
330
1F
100
AcDbEntity
  8
0
  6
Continuous
 62
     8
370
     0
100
AcDbSpline
210
0.0
220
0.0
230
1.0
 70
     8
 71
     3
 72
    34
 73
    30
 74
     0
 42
0.00000001
 43
0.00000001
 40
0.0
 40
0.0
 40
0.0
 40
0.0
 40
0.0334089084045164
 40
0.0668468594730889
 40
0.1003393131794544
 40
0.1339081691667674
 40
0.167572164840689
 40
0.2013472678630148
 40
0.2352470702818853
 40
0.2692831997672953
 40
0.3034657887765188
 40
0.3378041228660361
 40
0.3723075482031521
 40
0.4069861067875005
 40
0.4418509930875357
 40
0.4769150871784755
 40
0.5121933554031116
 40
0.5476961158716507
 40
0.5834271875085258
 40
0.6193936925618277
 40
0.6556039282748112
 40
0.6920639673474251
 40
0.7287741931671421
 40
0.765726019815167
 40
0.8028990621990599
 40
0.8519683102540226
 40
0.9011376822149415
 40
0.9504639888415376
 40
1.0
 40
1.0
 40
1.0
 40
1.0
 10
201.3379121371532
 20
570.6397164506955
 30
0.0
 10
201.1751604659159
 20
570.6397163312058
 30
0.0
 10
200.8495156419521
 20
570.6397160921226
 30
0.0
 10
200.3609419260583
 20
570.6397182995728
 30
0.0
 10
199.8720499701337
 20
570.6397247111005
 30
0.0
 10
199.3827513234174
 20
570.6397335952637
 30
0.0
 10
198.8930072290633
 20
570.6397426183448
 30
0.0
 10
198.4028240132494
 20
570.6397494975201
 30
0.0
 10
197.9122485874143
 20
570.6397525493263
 30
0.0
 10
197.4213638239847
 20
570.6397501355333
 30
0.0
 10
196.9302823689435
 20
570.6397411414595
 30
0.0
 10
196.4391391478255
 20
570.6397194233539
 30
0.0
 10
195.9480760493979
 20
570.6396955021115
 30
0.0
 10
195.4572309523756
 20
570.6396820790272
 30
0.0
 10
194.966734185698
 20
570.6396815260845
 30
0.0
 10
194.4767036157404
 20
570.6396902448886
 30
0.0
 10
193.987273901607
 20
570.6397022310655
 30
0.0
 10
193.4986348009311
 20
570.63971591509
 30
0.0
 10
193.0110239924318
 20
570.6397282574827
 30
0.0
 10
192.5246989158042
 20
570.6397357770995
 30
0.0
 10
192.0399173322604
 20
570.6397358895221
 30
0.0
 10
191.556976972941
 20
570.639728335884
 30
0.0
 10
191.0762615456652
 20
570.639715539983
 30
0.0
 10
190.5982709240108
 20
570.6397038430542
 30
0.0
 10
190.0738371544813
 20
570.6396935157585
 30
0.0
 10
189.5064493041004
 20
570.6397060304387
 30
0.0
 10
188.900413068804
 20
570.6397495680287
 30
0.0
 10
188.3041208080766
 20
570.6397241392889
 30
0.0
 10
187.9173876156223
 20
570.6397127922065
 30
0.0
 10
187.7236108545067
 20
570.6397071066307
 30
0.0
  0
SPLINE
  5
BC
330
1F
100
AcDbEntity
  8
0
  6
Continuous
 62
     8
370
     0
100
AcDbSpline
210
0.0
220
0.0
230
1.0
 70
     8
 71
     3
 72
    49
 73
    45
 74
     0
 42
0.00000001
 43
0.00000001
 40
0.0
 40
0.0
 40
0.0
 40
0.0
 40
0.0234075449274019
 40
0.0472011064425616
 40
0.0713958635114994
 40
0.0960047117416011
 40
0.121047487926601
 40
0.1388458643439735
 40
0.1629427313752173
 40
0.2358798714531723
 40
0.2537178858950579
 40
0.2597190185291446
 40
0.3203597316780087
 40
0.355704181854084
 40
0.4046189194174493
 40
0.4334278102419498
 40
0.451104315609692
 40
0.4751617432754934
 40
0.5020450098775492
 40
0.5087554025401986
 40
0.5177770891712326
 40
0.5559625645929307
 40
0.5639812553421515
 40
0.5666716790123254
 40
0.6224001119642648
 40
0.6311085704703018
 40
0.639914083634671
 40
0.6834671835978385
 40
0.6966331259663803
 40
0.7100269454657756
 40
0.7445129081908017
 40
0.7658986622380857
 40
0.8013934074635822
 40
0.8148804970612962
 40
0.8374042157085896
 40
0.8718747120427919
 40
0.8802397656465304
 40
0.9043936182443796
 40
0.9265958816781599
 40
0.9421135506538463
 40
0.9636103895896486
 40
0.983186732111177
 40
0.9917593818197559
 40
1.0
 40
1.0
 40
1.0
 40
1.0
 10
187.7236108545066
 20
570.639707106631
 30
0.0
 10
187.6525041344505
 20
570.6404369418093
 30
0.0
 10
187.5091180650204
 20
570.6419086479641
 30
0.0
 10
187.2949128631702
 20
570.6537784016283
 30
0.0
 10
187.0793742907335
 20
570.6729219161444
 30
0.0
 10
186.8628430007895
 20
570.7002360616515
 30
0.0
 10
186.6676945613776
 20
570.732076309293
 30
0.0
 10
186.4764067997165
 20
570.7694138770531
 30
0.0
 10
186.1523715542794
 20
570.8428960635844
 30
0.0
 10
185.8379479152202
 20
570.9378891272373
 30
0.0
 10
185.5816904899514
 20
571.0334436139917
 30
0.0
 10
185.3599486501058
 20
571.1203654566415
 30
0.0
 10
185.09884099435
 20
571.2371625314823
 30
0.0
 10
184.7422292099758
 20
571.4260961987156
 30
0.0
 10
184.4738403040152
 20
571.5890159238656
 30
0.0
 10
184.2553563060582
 20
571.7382682638392
 30
0.0
 10
184.0973546589345
 20
571.8538080242464
 30
0.0
 10
183.9468004885296
 20
571.9707231493566
 30
0.0
 10
183.8235645315983
 20
572.0736074930682
 30
0.0
 10
183.7340848530142
 20
572.1519238185255
 30
0.0
 10
183.6218349299063
 20
572.252361472957
 30
0.0
 10
183.5098141016709
 20
572.3594290439219
 30
0.0
 10
183.4132933537089
 20
572.4578845557538
 30
0.0
 10
183.2829780926937
 20
572.5928275352677
 30
0.0
 10
183.1558810703015
 20
572.7356754080228
 30
0.0
 10
183.0231349611807
 20
572.8996109269208
 30
0.0
 10
182.9137999000202
 20
573.0381623963306
 30
0.0
 10
182.800816774159
 20
573.1929436154015
 30
0.0
 10
182.6853303078907
 20
573.3659565763726
 30
0.0
 10
182.5870244528761
 20
573.5196991419496
 30
0.0
 10
182.4801759183537
 20
573.700688519012
 30
0.0
 10
182.3470596404474
 20
573.9499347573
 30
0.0
 10
182.2509728310258
 20
574.1505977558787
 30
0.0
 10
182.1596280818798
 20
574.3624418542734
 30
0.0
 10
182.0743308188339
 20
574.5771617857403
 30
0.0
 10
182.0027390317865
 20
574.78534089456
 30
0.0
 10
181.9359814067911
 20
575.0056090873594
 30
0.0
 10
181.8856596188914
 20
575.1899412478567
 30
0.0
 10
181.8362544267068
 20
575.4052113504982
 30
0.0
 10
181.7953177831255
 20
575.6162187806922
 30
0.0
 10
181.7624652715345
 20
575.8222879422335
 30
0.0
 10
181.7403063618182
 20
576.0067299449145
 30
0.0
 10
181.7274053102318
 20
576.143280990962
 30
0.0
 10
181.7226791171963
 20
576.2067866655021
 30
0.0
 10
181.7203626875463
 20
576.2379124418609
 30
0.0
  0
SPLINE
  5
BD
330
1F
100
AcDbEntity
  8
0
  6
Continuous
 62
     8
370
     0
100
AcDbSpline
210
0.0
220
0.0
230
1.0
 70
     8
 71
     3
 72
     9
 73
     5
 74
     0
 42
0.00000001
 43
0.00000001
 40
0.0
 40
0.0
 40
0.0
 40
0.0
 40
0.5059315730489934
 40
1.0
 40
1.0
 40
1.0
 40
1.0
 10
181.7203626875463
 20
576.2379124418609
 30
0.0
 10
181.6712917850718
 20
576.939410510149
 30
0.0
 10
181.5743006007133
 20
578.3259578332595
 30
0.0
 10
181.4774558608529
 20
579.7114442193543
 30
0.0
 10
181.4296079325716
 20
580.3959692986944
 30
0.0
  0
SPLINE
  5
BE
330
1F
100
AcDbEntity
  8
0
  6
Continuous
 62
     8
370
     0
100
AcDbSpline
210
0.0
220
0.0
230
1.0
 70
     8
 71
     3
 72
     9
 73
     5
 74
     0
 42
0.00000001
 43
0.00000001
 40
0.0
 40
0.0
 40
0.0
 40
0.0
 40
0.4975453002822929
 40
1.0
 40
1.0
 40
1.0
 40
1.0
 10
181.4297305899993
 20
580.3960080157595
 30
0.0
 10
181.4232564859518
 20
580.4939908291187
 30
0.0
 10
181.4102443963114
 20
580.6909232758796
 30
0.0
 10
181.4015928985305
 20
580.8889480175765
 30
0.0
 10
181.3972459128109
 20
580.9884464797025
 30
0.0
  0
SPLINE
  5
BF
330
1F
100
AcDbEntity
  8
0
  6
Continuous
 62
     8
370
     0
100
AcDbSpline
210
0.0
220
0.0
230
1.0
 70
     8
 71
     3
 72
    35
 73
    31
 74
     0
 42
0.00000001
 43
0.00000001
 40
0.0
 40
0.0
 40
0.0
 40
0.0
 40
0.0334738834135567
 40
0.0665822652413456
 40
0.0995060516759312
 40
0.1324358997640919
 40
0.1655811834779253
 40
0.1991805413052132
 40
0.2335036511564907
 40
0.255861932210098
 40
0.2865313031290341
 40
0.4014583855833661
 40
0.414534294238244
 40
0.4277965612601751
 40
0.5256617585504976
 40
0.566180207966713
 40
0.5706098703972311
 40
0.5967186570130827
 40
0.6521208309243591
 40
0.669271701156012
 40
0.6726806497457445
 40
0.68276207111871
 40
0.695875137266774
 40
0.7463848433130449
 40
0.7560992139849286
 40
0.759273167364807
 40
0.8278863213193617
 40
0.8894569593496123
 40
0.9463134274264935
 40
1.0
 40
1.0
 40
1.0
 40
1.0
 10
181.4012530056374
 20
597.52910120485
 30
0.0
 10
181.4054117704006
 20
597.625314700867
 30
0.0
 10
181.413683890343
 20
597.8166911370114
 30
0.0
 10
181.4314505173822
 20
598.1015000132393
 30
0.0
 10
181.4530567042295
 20
598.383480125038
 30
0.0
 10
181.4791799510694
 20
598.6638794492807
 30
0.0
 10
181.5101734334349
 20
598.9441181779459
 30
0.0
 10
181.5466931587257
 20
599.2257110863296
 30
0.0
 10
181.5841396484114
 20
599.4745000776329
 30
0.0
 10
181.6244093293888
 20
599.7126251531454
 30
0.0
 10
181.7093911328999
 20
600.1651125243238
 30
0.0
 10
181.8106735316019
 20
600.5780302404384
 30
0.0
 10
181.919922495407
 20
600.9244078684042
 30
0.0
 10
182.0194886297621
 20
601.2251020015775
 30
0.0
 10
182.1601631761157
 20
601.5722339678373
 30
0.0
 10
182.3164358576369
 20
601.8642267088895
 30
0.0
 10
182.3980409064862
 20
602.0034317334259
 30
0.0
 10
182.4999086548595
 20
602.1667466731415
 30
0.0
 10
182.6265809862629
 20
602.3380456793905
 30
0.0
 10
182.7303004071221
 20
602.4577800391156
 30
0.0
 10
182.7728399591744
 20
602.5046936215903
 30
0.0
 10
182.8101720373586
 20
602.5446347518457
 30
0.0
 10
182.9154541038276
 20
602.6514921522785
 30
0.0
 10
183.0253011173654
 20
602.7474557487416
 30
0.0
 10
183.1238886163397
 20
602.8217910452911
 30
0.0
 10
183.2516258298394
 20
602.9150203855268
 30
0.0
 10
183.4698669692108
 20
603.0463369121876
 30
0.0
 10
183.7953345872768
 20
603.17739872435
 30
0.0
 10
184.1077323759126
 20
603.2599351433797
 30
0.0
 10
184.3167886719309
 20
603.285714668032
 30
0.0
 10
184.4183194054995
 20
603.2982348078166
 30
0.0
  0
SPLINE
  5
C0
330
1F
100
AcDbEntity
  8
0
  6
Continuous
 62
     8
370
     0
100
AcDbSpline
210
0.0
220
0.0
230
1.0
 70
     8
 71
     3
 72
    38
 73
    34
 74
     0
 42
0.00000001
 43
0.00000001
 40
0.0
 40
0.0
 40
0.0
 40
0.0
 40
0.0202441099826075
 40
0.0404133547856225
 40
0.0608821555381696
 40
0.0730801034538693
 40
0.0974456172924866
 40
0.1285082873306247
 40
0.1471225968000922
 40
0.1965751226354205
 40
0.2539819706110325
 40
0.2731259341744801
 40
0.2986649192104993
 40
0.3637664009634757
 40
0.3767671644558068
 40
0.4027076216329324
 40
0.5001870833793973
 40
0.5010593726890997
 40
0.5019313373843265
 40
0.5071563163151919
 40
0.5904559320911497
 40
0.6158298401399062
 40
0.6252783010012352
 40
0.6409501783939361
 40
0.7149504483409398
 40
0.7457481662379043
 40
0.7641064277599041
 40
0.8126909354515001
 40
0.8690817229884413
 40
0.887794135997674
 40
0.9126965461799651
 40
0.9563753821422146
 40
1.0
 40
1.0
 40
1.0
 40
1.0
 10
184.418318379289
 20
603.2982584699289
 30
0.0
 10
184.5041253278611
 20
603.3064218318251
 30
0.0
 10
184.6754219004788
 20
603.3227183665131
 30
0.0
 10
184.9397169911979
 20
603.3474499378057
 30
0.0
 10
185.1729834020125
 20
603.3689085069717
 30
0.0
 10
185.4284587084662
 20
603.3920976903204
 30
0.0
 10
185.7361013153026
 20
603.4195819205189
 30
0.0
 10
186.0806213399327
 20
603.4496712508702
 30
0.0
 10
186.5507801509116
 20
603.4897512491008
 30
0.0
 10
187.1611958310139
 20
603.5401186746506
 30
0.0
 10
187.7971438645946
 20
603.589721200624
 30
0.0
 10
188.3248376254665
 20
603.6289675600439
 30
0.0
 10
188.9000201824119
 20
603.6706190966311
 30
0.0
 10
189.4574561976759
 20
603.7087845802939
 30
0.0
 10
190.0281980309025
 20
603.7457985052415
 30
0.0
 10
190.7837894426306
 20
603.7934493675167
 30
0.0
 10
191.4929899358279
 20
603.8341304634027
 30
0.0
 10
192.0696953190438
 20
603.8643096164571
 30
0.0
 10
192.1102154724259
 20
603.8664265200509
 30
0.0
 10
192.6305808767683
 20
603.8934535572565
 30
0.0
 10
193.3050757096305
 20
603.9255518450658
 30
0.0
 10
194.0161283897995
 20
603.9554462931792
 30
0.0
 10
194.3216382150694
 20
603.9677433566513
 30
0.0
 10
194.9234655451124
 20
603.9911888760175
 30
0.0
 10
195.6640759485368
 20
604.0166434813284
 30
0.0
 10
196.4294279443223
 20
604.0387272728308
 30
0.0
 10
197.0396717254194
 20
604.0547437142409
 30
0.0
 10
197.8142790282553
 20
604.0723328518959
 30
0.0
 10
198.5968079172135
 20
604.0857406151523
 30
0.0
 10
199.2316947450631
 20
604.0940635872975
 30
0.0
 10
199.7868831721806
 20
604.1000034290159
 30
0.0
 10
200.5021169416492
 20
604.1052631484529
 30
0.0
 10
201.0593864671305
 20
604.1060178902347
 30
0.0
 10
201.337848189195
 20
604.1063950267669
 30
0.0
  0
SPLINE
  5
C1
330
1F
100
AcDbEntity
  8
0
  6
Continuous
 62
     8
370
     0
100
AcDbSpline
210
0.0
220
0.0
230
1.0
 70
     8
 71
     3
 72
    40
 73
    36
 74
     0
 42
0.00000001
 43
0.00000001
 40
0.0
 40
0.0
 40
0.0
 40
0.0
 40
0.0233561060231357
 40
0.0467255402476401
 40
0.0701131870735152
 40
0.0935247907221529
 40
0.1169719340683667
 40
0.1294414405183749
 40
0.1544322829404092
 40
0.2290252913141774
 40
0.2473723313837664
 40
0.2535063763375099
 40
0.3504955004231225
 40
0.3806520872828526
 40
0.3867254420308504
 40
0.4487451880873938
 40
0.4868085234004248
 40
0.4996325587725153
 40
0.5005040105346176
 40
0.5031202769368871
 40
0.50661309788002
 40
0.5933139301351283
 40
0.6242962986907454
 40
0.6277473217913405
 40
0.648475963799845
 40
0.7447802452603163
 40
0.7514123503562374
 40
0.7845517326938467
 40
0.8647646545623879
 40
0.8715467618264936
 40
0.8918846500884748
 40
0.9327288576335511
 40
0.9395474810994003
 40
0.9698996575333578
 40
1.0
 40
1.0
 40
1.0
 40
1.0
 10
201.3378481891955
 20
604.1063950267672
 30
0.0
 10
201.4869243150015
 20
604.1062869113733
 30
0.0
 10
201.7851616371567
 20
604.1060706188896
 30
0.0
 10
202.2324955124926
 20
604.1043167638597
 30
0.0
 10
202.6798253636603
 20
604.1015120188099
 30
0.0
 10
203.1271138160671
 20
604.0975567120664
 30
0.0
 10
203.5042803615207
 20
604.0932772933078
 30
0.0
 10
203.8908868512748
 20
604.0881434905651
 30
0.0
 10
204.6008600151241
 20
604.0772875892095
 30
0.0
 10
205.3441481736946
 20
604.06197554787
 30
0.0
 10
205.9634412789516
 20
604.0461729723231
 30
0.0
 10
206.7210237218321
 20
604.0258510401065
 30
0.0
 10
207.5447380510864
 20
603.9991798057963
 30
0.0
 10
208.353993715725
 20
603.9677959780981
 30
0.0
 10
208.9477562222777
 20
603.9436593130092
 30
0.0
 10
209.5830699961006
 20
603.915588243911
 30
0.0
 10
210.2470972207994
 20
603.8829135058272
 30
0.0
 10
210.5486080313624
 20
603.8673172848804
 30
0.0
 10
210.6433779880144
 20
603.8623507122704
 30
0.0
 10
210.6839071425952
 20
603.8602196569977
 30
0.0
 10
211.2221177471517
 20
603.8317563037093
 30
0.0
 10
211.9128305928195
 20
603.7920940361429
 30
0.0
 10
212.5842704122622
 20
603.7498304334366
 30
0.0
 10
212.887433380522
 20
603.7302623126557
 30
0.0
 10
213.5455461815067
 20
603.6870233072674
 30
0.0
 10
214.2010289298291
 20
603.6405199999838
 30
0.0
 10
214.8992819592969
 20
603.5878460458193
 30
0.0
 10
215.5073013316255
 20
603.5408136697262
 30
0.0
 10
216.0936096819531
 20
603.4925622468065
 30
0.0
 10
216.6003457897458
 20
603.4491205604961
 30
0.0
 10
216.9178716667946
 20
603.4215253235374
 30
0.0
 10
217.2279218659787
 20
603.3938729873236
 30
0.0
 10
217.5763727436797
 20
603.3621627478027
 30
0.0
 10
217.8726069527158
 20
603.3347609182211
 30
0.0
 10
218.129521737165
 20
603.310375643912
 30
0.0
 10
218.257443999749
 20
603.2982337990196
 30
0.0
  0
SPLINE
  5
C2
330
1F
100
AcDbEntity
  8
0
  6
Continuous
 62
     8
370
     0
100
AcDbSpline
210
0.0
220
0.0
230
1.0
 70
     8
 71
     3
 72
    32
 73
    28
 74
     0
 42
0.00000001
 43
0.00000001
 40
0.0
 40
0.0
 40
0.0
 40
0.0
 40
0.0301271789740094
 40
0.0612520278238508
 40
0.0935195390160356
 40
0.127121644873277
 40
0.1623612171188217
 40
0.199654138038678
 40
0.2400114482996024
 40
0.2442311357378242
 40
0.2661013614181256
 40
0.3142863147552356
 40
0.3315205809166004
 40
0.3350682529743471
 40
0.3458821026534306
 40
0.3607081482861267
 40
0.4567379779278831
 40
0.5560724089193995
 40
0.5897371781860877
 40
0.5963162463873393
 40
0.6581910002992198
 40
0.7551365247867854
 40
0.7702885372328331
 40
0.7852717127341268
 40
0.8574548421723397
 40
0.9283435641303205
 40
1.0
 40
1.0
 40
1.0
 40
1.0
 10
218.2574433942239
 20
603.2982203701063
 30
0.0
 10
218.3146075751259
 20
603.291867411782
 30
0.0
 10
218.4308289446127
 20
603.2789511151594
 30
0.0
 10
218.604523913878
 20
603.24687354802
 30
0.0
 10
218.7813375679918
 20
603.2031038352377
 30
0.0
 10
218.9613816249004
 20
603.1444536391249
 30
0.0
 10
219.1452916730858
 20
603.0681216989268
 30
0.0
 10
219.3345723123668
 20
602.9695947688105
 30
0.0
 10
219.4664349996025
 20
602.8841854458116
 30
0.0
 10
219.5706199344709
 20
602.8082643007997
 30
0.0
 10
219.6852320636598
 20
602.7190807048784
 30
0.0
 10
219.8138812255748
 20
602.6004529787723
 30
0.0
 10
219.9105593963884
 20
602.4967424489528
 30
0.0
 10
219.9541228813258
 20
602.4477881916166
 30
0.0
 10
219.993898685854
 20
602.4016397523492
 30
0.0
 10
220.1561594974098
 20
602.2025177736426
 30
0.0
 10
220.4100218643455
 20
601.8071790115482
 30
0.0
 10
220.6314497486166
 20
601.2949717706696
 30
0.0
 10
220.7450798120243
 20
600.9588918898875
 30
0.0
 10
220.8238338757918
 20
600.70826579661
 30
0.0
 10
220.9393142866493
 20
600.2893242788898
 30
0.0
 10
221.0337987345672
 20
599.8239347639039
 30
0.0
 10
221.0908277463034
 20
599.4765615506084
 30
0.0
 10
221.1342662685483
 20
599.195275921482
 30
0.0
 10
221.190068950904
 20
598.7539136288581
 30
0.0
 10
221.2449491144754
 20
598.1444225749095
 30
0.0
 10
221.2646632455549
 20
597.734986090596
 30
0.0
 10
221.2745733988772
 20
597.5291652852594
 30
0.0
  0
LINE
  5
C3
330
1F
100
AcDbEntity
  8
0
  6
Continuous
 62
     8
370
     0
100
AcDbLine
 10
193.0330727721
 20
644.6109556608
 30
0.0
 11
209.6427526797
 21
644.6109556608
 31
0.0
  0
LINE
  5
C4
330
1F
100
AcDbEntity
  8
0
  6
Continuous
 62
     8
370
     0
100
AcDbLine
 10
209.6427526797
 20
634.5809579842
 30
0.0
 11
193.0330727721
 21
634.5809579842
 31
0.0
  0
ARC
  5
C5
330
1F
100
AcDbEntity
  8
0
  6
Continuous
 62
     8
370
     0
100
AcDbCircle
 10
201.337912936
 20
623.9993072148
 30
0.0
 40
2.306900000000044
100
AcDbArc
 50
280.0154101683
 51
79.9845898317
  0
ARC
  5
C6
330
1F
100
AcDbEntity
  8
0
  6
Continuous
 62
     8
370
     0
100
AcDbCircle
 10
201.337912936
 20
623.9993072148
 30
0.0
 40
2.407199999999989
100
AcDbArc
 50
99.5940682269
 51
260.4059317731
  0
LINE
  5
C7
330
1F
100
AcDbEntity
  8
0
  6
Continuous
 62
     8
370
     0
100
AcDbLine
 10
201.337912936
 20
621.5921075098
 30
0.0
 11
200.9367129306
 21
621.7021283708
 31
0.0
  0
LINE
  5
C8
330
1F
100
AcDbEntity
  8
0
  6
Continuous
 62
     8
370
     0
100
AcDbLine
 10
201.337912936
 20
620.9903073512
 30
0.0
 11
201.337912936
 21
621.5921075098
 31
0.0
  0
LINE
  5
C9
330
1F
100
AcDbEntity
  8
0
  6
Continuous
 62
     8
370
     0
100
AcDbLine
 10
201.337912936
 20
626.4065069161
 30
0.0
 11
201.337912936
 21
627.0083070747
 31
0.0
  0
LINE
  5
CA
330
1F
100
AcDbEntity
  8
0
  6
Continuous
 62
     8
370
     0
100
AcDbLine
 10
200.9367129306
 20
626.2964860551
 30
0.0
 11
201.337912936
 21
626.4065069161
 31
0.0
  0
SPLINE
  5
CB
330
1F
100
AcDbEntity
  8
0
  6
Continuous
 62
     8
370
     0
100
AcDbSpline
210
0.0
220
0.0
230
1.0
 70
     8
 71
     3
 72
    22
 73
    18
 74
     0
 42
0.00000001
 43
0.00000001
 40
0.0
 40
0.0
 40
0.0
 40
0.0
 40
0.125
 40
0.125
 40
0.25
 40
0.25
 40
0.375
 40
0.375
 40
0.5
 40
0.5
 40
0.625
 40
0.625
 40
0.75
 40
0.75
 40
0.875
 40
0.875
 40
1.0
 40
1.0
 40
1.0
 40
1.0
 10
193.0330729359731
 20
634.5809572147654
 30
0.0
 10
192.8464203948683
 20
634.5809572147654
 30
0.0
 10
192.6642538141997
 20
634.601253854081
 30
0.0
 10
192.3081360901164
 20
634.6792603026647
 30
0.0
 10
192.1327078841288
 20
634.737693833244
 30
0.0
 10
191.7970650948622
 20
634.8902867747603
 30
0.0
 10
191.6391316772437
 20
634.9829915321202
 30
0.0
 10
191.3417748231162
 20
635.199901732108
 30
0.0
 10
191.2009398670858
 20
635.3257989981379
 30
0.0
 10
190.9468662208963
 20
635.602446409203
 30
0.0
 10
190.8335715644347
 20
635.752487927166
 30
0.0
 10
190.6339420688257
 20
636.0761299233467
 30
0.0
 10
190.5469246659206
 20
636.2520154035514
 30
0.0
 10
190.4079408805518
 20
636.6148744295725
 30
0.0
 10
190.3551460170796
 20
636.8023120336852
 30
0.0
 10
190.283406087592
 20
637.1895223559121
 30
0.0
 10
190.2647929359731
 20
637.3898704346319
 30
0.0
 10
190.2647929359731
 20
637.5899572147654
 30
0.0
  0
SPLINE
  5
CC
330
1F
100
AcDbEntity
  8
0
  6
Continuous
 62
     8
370
     0
100
AcDbSpline
210
0.0
220
0.0
230
1.0
 70
     8
 71
     3
 72
    22
 73
    18
 74
     0
 42
0.00000001
 43
0.00000001
 40
0.0
 40
0.0
 40
0.0
 40
0.0
 40
0.125
 40
0.125
 40
0.25
 40
0.25
 40
0.375
 40
0.375
 40
0.5
 40
0.5
 40
0.625
 40
0.625
 40
0.75
 40
0.75
 40
0.875
 40
0.875
 40
1.0
 40
1.0
 40
1.0
 40
1.0
 10
209.6427529359731
 20
644.6109572147653
 30
0.0
 10
209.8294054770778
 20
644.6109572147653
 30
0.0
 10
210.0115720577465
 20
644.5906605754498
 30
0.0
 10
210.3676897818298
 20
644.5126541268661
 30
0.0
 10
210.5431179878174
 20
644.4542205962867
 30
0.0
 10
210.8787607770839
 20
644.3016276547704
 30
0.0
 10
211.0366941947024
 20
644.2089228974106
 30
0.0
 10
211.3340510488299
 20
643.9920126974228
 30
0.0
 10
211.4748860048604
 20
643.8661154313929
 30
0.0
 10
211.7289596510499
 20
643.5894680203278
 30
0.0
 10
211.8422543075115
 20
643.4394265023648
 30
0.0
 10
212.0418838031205
 20
643.1157845061841
 30
0.0
 10
212.1289012060256
 20
642.9398990259795
 30
0.0
 10
212.2678849913943
 20
642.5770399999583
 30
0.0
 10
212.3206798548665
 20
642.3896023958455
 30
0.0
 10
212.3924197843541
 20
642.0023920736188
 30
0.0
 10
212.4110329359731
 20
641.8020439948989
 30
0.0
 10
212.4110329359731
 20
641.6019572147654
 30
0.0
  0
SPLINE
  5
CD
330
1F
100
AcDbEntity
  8
0
  6
Continuous
 62
     8
370
     0
100
AcDbSpline
210
0.0
220
0.0
230
1.0
 70
     8
 71
     3
 72
    20
 73
    16
 74
     0
 42
0.00000001
 43
0.00000001
 40
0.0
 40
0.0
 40
0.0
 40
0.0
 40
0.1250000000000004
 40
0.1250000000000004
 40
0.2500000000000009
 40
0.2500000000000009
 40
0.5000000000000022
 40
0.5000000000000022
 40
0.6250000000000017
 40
0.6250000000000017
 40
0.7500000000000011
 40
0.7500000000000011
 40
0.8750000000000006
 40
0.8750000000000006
 40
1.0
 40
1.0
 40
1.0
 40
1.0
 10
190.2647929359731
 20
641.6019572147654
 30
0.0
 10
190.2647929359731
 20
641.8016426176758
 30
0.0
 10
190.2828981066987
 20
641.997972492578
 30
0.0
 10
190.3538461164439
 20
642.3842220434706
 30
0.0
 10
190.4075693646819
 20
642.5758456655999
 30
0.0
 10
190.6157638565626
 20
643.1200709767012
 30
0.0
 10
190.8207546946562
 20
643.4521197409906
 30
0.0
 10
191.2003064764712
 20
643.8654417952997
 30
0.0
 10
191.3408109942017
 20
643.9912827404418
 30
0.0
 10
191.6395712611683
 20
644.20927039104
 30
0.0
 10
191.7974795518206
 20
644.3017603215088
 30
0.0
 10
192.1309588967225
 20
644.4534809906474
 30
0.0
 10
192.3074290424161
 20
644.5124825095795
 30
0.0
 10
192.6645112401088
 20
644.5907336834553
 30
0.0
 10
192.8467823357655
 20
644.6109572147653
 30
0.0
 10
193.0330729359731
 20
644.6109572147654
 30
0.0
  0
SPLINE
  5
CE
330
1F
100
AcDbEntity
  8
0
  6
Continuous
 62
     8
370
     0
100
AcDbSpline
210
0.0
220
0.0
230
1.0
 70
     8
 71
     3
 72
    20
 73
    16
 74
     0
 42
0.00000001
 43
0.00000001
 40
0.0
 40
0.0
 40
0.0
 40
0.0
 40
0.1249999999999994
 40
0.1249999999999994
 40
0.2499999999999988
 40
0.2499999999999988
 40
0.4999999999999976
 40
0.4999999999999976
 40
0.6249999999999981
 40
0.6249999999999981
 40
0.7499999999999988
 40
0.7499999999999988
 40
0.8749999999999993
 40
0.8749999999999993
 40
1.0
 40
1.0
 40
1.0
 40
1.0
 10
212.4110329359731
 20
637.5899572147654
 30
0.0
 10
212.4110329359731
 20
637.3902718118551
 30
0.0
 10
212.3929277652474
 20
637.1939419369528
 30
0.0
 10
212.3219797555023
 20
636.8076923860602
 30
0.0
 10
212.2682565072642
 20
636.6160687639308
 30
0.0
 10
212.0600620153836
 20
636.0718434528296
 30
0.0
 10
211.8550711772899
 20
635.7397946885402
 30
0.0
 10
211.4755193954749
 20
635.3264726342311
 30
0.0
 10
211.3350148777444
 20
635.200631689089
 30
0.0
 10
211.0362546107779
 20
634.9826440384908
 30
0.0
 10
210.8783463201255
 20
634.8901541080221
 30
0.0
 10
210.5448669752236
 20
634.7384334388834
 30
0.0
 10
210.3683968295301
 20
634.6794319199513
 30
0.0
 10
210.0113146318374
 20
634.6011807460757
 30
0.0
 10
209.8290435361807
 20
634.5809572147654
 30
0.0
 10
209.6427529359731
 20
634.5809572147654
 30
0.0
  0
LINE
  5
CF
330
1F
100
AcDbEntity
  8
0
  6
Continuous
 62
     8
370
     0
100
AcDbLine
 10
212.4110326643
 20
641.6019567303
 30
0.0
 11
212.4110326643
 21
637.5899569146
 31
0.0
  0
LINE
  5
D0
330
1F
100
AcDbEntity
  8
0
  6
Continuous
 62
     8
370
     0
100
AcDbLine
 10
190.2647927875
 20
637.5899569146
 30
0.0
 11
190.2647927875
 21
641.6019567303
 31
0.0
  0
SPLINE
  5
D1
330
1F
100
AcDbEntity
  8
0
  6
Continuous
 62
     8
370
     0
100
AcDbSpline
210
0.0
220
0.0
230
1.0
 70
     8
 71
     3
 72
    10
 73
     6
 74
     0
 42
0.00000001
 43
0.00000001
 40
0.0
 40
0.0
 40
0.0
 40
0.0
 40
0.5
 40
0.5
 40
1.0
 40
1.0
 40
1.0
 40
1.0
 10
221.274490470744
 20
597.5290841678487
 30
0.0
 10
221.383318500438
 20
594.8055390933703
 30
0.0
 10
221.4370349696245
 20
592.0335088008138
 30
0.0
 10
221.4383583705179
 20
586.4861721307827
 30
0.0
 10
221.3859649318652
 20
583.7134102828951
 30
0.0
 10
221.2785067813006
 20
580.9887080274982
 30
0.0
  0
SPLINE
  5
D2
330
1F
100
AcDbEntity
  8
0
  6
Continuous
 62
     8
370
     0
100
AcDbSpline
210
0.0
220
0.0
230
1.0
 70
     8
 71
     3
 72
    10
 73
     6
 74
     0
 42
0.00000001
 43
0.00000001
 40
0.0
 40
0.0
 40
0.0
 40
0.0
 40
0.5
 40
0.5
 40
1.0
 40
1.0
 40
1.0
 40
1.0
 10
181.3973190906452
 20
580.9887080274982
 30
0.0
 10
181.2898609411447
 20
583.7134102526746
 30
0.0
 10
181.2374678372092
 20
586.4861454648492
 30
0.0
 10
181.2387905538217
 20
592.0334821418987
 30
0.0
 10
181.292507370179
 20
594.8055390599582
 30
0.0
 10
181.4013354012017
 20
597.5290841678487
 30
0.0
  0
LINE
  5
D3
330
1F
100
AcDbEntity
  8
0
  6
Continuous
 62
     7
370
    15
100
AcDbLine
 10
336.4815142628
 20
646.1154588513
 30
0.0
 11
336.4815142628
 21
616.5826444529
 31
0.0
  0
LINE
  5
D4
330
1F
100
AcDbEntity
  8
0
  6
Continuous
 62
     7
370
    15
100
AcDbLine
 10
382.619514006
 20
644.6109556608
 30
0.0
 11
382.619514006
 21
646.1154588513
 31
0.0
  0
LINE
  5
D5
330
1F
100
AcDbEntity
  8
0
  6
Continuous
 62
     7
370
    15
100
AcDbLine
 10
382.619514006
 20
625.907129889
 30
0.0
 11
382.619514006
 21
634.5809579842
 31
0.0
  0
LINE
  5
D6
330
1F
100
AcDbEntity
  8
0
  6
Continuous
 62
     7
370
    15
100
AcDbLine
 10
382.619514006
 20
612.5149571352
 30
0.0
 11
382.619514006
 21
622.091484537
 31
0.0
  0
ARC
  5
D7
330
1F
100
AcDbEntity
  8
0
  6
Continuous
 62
     7
370
    15
100
AcDbCircle
 10
337.9860135935
 20
646.1154572148
 30
0.0
 40
1.504500000000007
100
AcDbArc
 50
90.0
 51
180.0
  0
ARC
  5
D8
330
1F
100
AcDbEntity
  8
0
  6
Continuous
 62
     7
370
    15
100
AcDbCircle
 10
381.1150135935
 20
646.1154572148
 30
0.0
 40
1.504500000000007
100
AcDbArc
 50
0.0
 51
90.0
  0
LINE
  5
D9
330
1F
100
AcDbEntity
  8
0
  6
Continuous
 62
     7
370
    15
100
AcDbLine
 10
336.9830128428
 20
526.2205370717
 30
0.0
 11
336.9830128428
 21
500.4297041349
 31
0.0
  0
LINE
  5
DA
330
1F
100
AcDbEntity
  8
0
  6
Continuous
 62
     7
370
    15
100
AcDbLine
 10
336.9830128428
 20
604.7417072594
 30
0.0
 11
336.9830128428
 21
537.9395105891
 31
0.0
  0
LINE
  5
DB
330
1F
100
AcDbEntity
  8
0
  6
Continuous
 62
     7
370
    15
100
AcDbLine
 10
382.1180135634
 20
604.1063929923
 30
0.0
 11
382.1180135634
 21
604.7417072594
 31
0.0
  0
LINE
  5
DC
330
1F
100
AcDbEntity
  8
0
  6
Continuous
 62
     7
370
    15
100
AcDbLine
 10
382.1180135634
 20
500.4297041349
 30
0.0
 11
382.1180135634
 21
570.6397064976
 31
0.0
  0
ARC
  5
DD
330
1F
100
AcDbEntity
  8
0
  6
Continuous
 62
     7
370
    15
100
AcDbCircle
 10
359.5505135935
 20
606.8213935175
 30
0.0
 40
22.06600000000002
100
AcDbArc
 50
155.2794822861
 51
180.1956530279
  0
ARC
  5
DE
330
1F
100
AcDbEntity
  8
0
  6
Continuous
 62
     7
370
    15
100
AcDbCircle
 10
359.5505135935
 20
606.8213935175
 30
0.0
 40
22.06600000000003
100
AcDbArc
 50
0.0
 51
14.9528619685
  0
LINE
  5
DF
330
1F
100
AcDbEntity
  8
0
  6
Continuous
 62
     7
370
    15
100
AcDbLine
 10
337.4845132854
 20
606.7477076329
 30
0.0
 11
337.4845132854
 21
604.7417072594
 31
0.0
  0
LINE
  5
E0
330
1F
100
AcDbEntity
  8
0
  6
Continuous
 62
     7
370
    15
100
AcDbLine
 10
381.6165131208
 20
604.7417072594
 30
0.0
 11
381.6165131208
 21
606.7477076329
 31
0.0
  0
SPLINE
  5
E1
330
1F
100
AcDbEntity
  8
0
  6
Continuous
 62
     7
370
    15
100
AcDbSpline
210
0.0
220
0.0
230
1.0
 70
     8
 71
     3
 72
    16
 73
    12
 74
     0
 42
0.00000001
 43
0.00000001
 40
0.0
 40
0.0
 40
0.0
 40
0.0
 40
0.0377430419186432
 40
0.1789412842985444
 40
0.2909130228888682
 40
0.4114328272041801
 40
0.5753527440177643
 40
0.6667927339625156
 40
0.7633347868020347
 40
0.8708433477572621
 40
1.0
 40
1.0
 40
1.0
 40
1.0
 10
382.1449492748829
 20
570.6408184967795
 30
0.0
 10
382.1366607026048
 20
570.7928424134287
 30
0.0
 10
382.0973642470713
 20
571.51359393494
 30
0.0
 10
382.2560321505348
 20
572.6831979003865
 30
0.0
 10
382.4980033459279
 20
574.1694224894737
 30
0.0
 10
382.8831200265223
 20
575.718017139437
 30
0.0
 10
383.4049591067635
 20
577.1100224110709
 30
0.0
 10
384.1533147402803
 20
578.2496818157757
 30
0.0
 10
384.9865249466255
 20
579.022923306498
 30
0.0
 10
386.1430059248236
 20
579.6076761471536
 30
0.0
 10
387.0627697349535
 20
579.7454811779502
 30
0.0
 10
387.5647176679227
 20
579.82068630083
 30
0.0
  0
SPLINE
  5
E2
330
1F
100
AcDbEntity
  8
0
  6
Continuous
 62
     7
370
    15
100
AcDbSpline
210
0.0
220
0.0
230
1.0
 70
     8
 71
     3
 72
    12
 73
     8
 74
     0
 42
0.00000001
 43
0.00000001
 40
0.0
 40
0.0
 40
0.0
 40
0.0
 40
0.1768885503691705
 40
0.3402345594216847
 40
0.6388866735371915
 40
0.8755066640135241
 40
1.0
 40
1.0
 40
1.0
 40
1.0
 10
384.5531985785815
 20
599.4001981933461
 30
0.0
 10
384.2539117198471
 20
599.5471337344534
 30
0.0
 10
383.6782513262848
 20
599.8297554699342
 30
0.0
 10
382.8987512004852
 20
600.7658597846596
 30
0.0
 10
382.3959722285288
 20
601.9841235656667
 30
0.0
 10
382.1395852211271
 20
603.1986394647641
 30
0.0
 10
382.134291002038
 20
603.8740707469299
 30
0.0
 10
382.1324658270928
 20
604.106924777464
 30
0.0
  0
SPLINE
  5
E3
330
1F
100
AcDbEntity
  8
0
  6
Continuous
 62
     7
370
    15
100
AcDbSpline
210
0.0
220
0.0
230
1.0
 70
     8
 71
     3
 72
    17
 73
    13
 74
     0
 42
0.00000001
 43
0.00000001
 40
0.0
 40
0.0
 40
0.0
 40
0.0
 40
0.0875999954070124
 40
0.1702346762841738
 40
0.2487918195534435
 40
0.2898181575347045
 40
0.3354043225109184
 40
0.4514964119511717
 40
0.525994466008103
 40
0.6091797732508701
 40
0.7967070371344778
 40
1.0
 40
1.0
 40
1.0
 40
1.0
 10
492.838309022412
 20
581.8430029801884
 30
0.0
 10
492.8557648348927
 20
582.2393458238977
 30
0.0
 10
492.8896870351522
 20
583.0095661347883
 30
0.0
 10
492.9331509067664
 20
584.2094562143882
 30
0.0
 10
492.9633899645035
 20
585.2603336590435
 30
0.0
 10
492.9819999665536
 20
586.0654793749407
 30
0.0
 10
492.9976181002406
 20
586.9432505151464
 30
0.0
 10
493.0066455740035
 20
587.7129466864811
 30
0.0
 10
493.013904375349
 20
588.4119029525305
 30
0.0
 10
493.021515681569
 20
589.2113969729696
 30
0.0
 10
493.0304738155584
 20
590.1615805642036
 30
0.0
 10
493.0308074763236
 20
590.8901672818988
 30
0.0
 10
493.0309810366484
 20
591.2691562451282
 30
0.0
  0
LWPOLYLINE
  5
E4
330
1F
100
AcDbEntity
  8
0
  6
Continuous
 62
     7
370
    15
100
AcDbPolyline
 90
        6
 70
   128
 43
0.0
 10
470.3341656055
 20
598.4979258836
 10
468.5483284917
 20
598.5113521209
 10
464.6149881806
 20
598.5409430767
 10
460.6816478696
 20
598.5705527244
 10
435.9578200307
 20
598.7570508631
 10
386.1297637846
 20
599.1343439571
  0
SPLINE
  5
E5
330
1F
100
AcDbEntity
  8
0
  6
Continuous
 62
     7
370
    15
100
AcDbSpline
210
0.0
220
0.0
230
1.0
 70
     8
 71
     3
 72
     9
 73
     5
 74
     0
 42
0.00000001
 43
0.00000001
 40
0.0
 40
0.0
 40
0.0
 40
0.0
 40
0.6016292698135363
 40
0.9999999999999999
 40
0.9999999999999999
 40
0.9999999999999999
 40
0.9999999999999999
 10
492.366940590367
 20
597.6786446306714
 30
0.0
 10
492.3793057844411
 20
597.695971220005
 30
0.0
 10
492.3998586310105
 20
597.7247706654493
 30
0.0
 10
491.8901876268042
 20
597.8819397909123
 30
0.0
 10
491.6871496167037
 20
597.9445513701858
 30
0.0
  0
SPLINE
  5
E6
330
1F
100
AcDbEntity
  8
0
  6
Continuous
 62
     7
370
    15
100
AcDbSpline
210
0.0
220
0.0
230
1.0
 70
     8
 71
     3
 72
    16
 73
    12
 74
     0
 42
0.00000001
 43
0.00000001
 40
0.0
 40
0.0
 40
0.0
 40
0.0
 40
0.1291449071508596
 40
0.2383738560822358
 40
0.3278443665874846
 40
0.3975762109041093
 40
0.4525128632725101
 40
0.5428935327026477
 40
0.66426793581877
 40
0.816638139698121
 40
1.0
 40
1.0
 40
1.0
 40
1.0
 10
491.8220647301528
 20
597.9263959350856
 30
0.0
 10
490.8950673936106
 20
598.0172199733502
 30
0.0
 10
489.1840287273209
 20
598.1848617077688
 30
0.0
 10
486.8217121960164
 20
598.2932204702572
 30
0.0
 10
484.8869274876115
 20
598.350060181623
 30
0.0
 10
483.3430139440549
 20
598.3797300182492
 30
0.0
 10
481.7924609860188
 20
598.4030545859325
 30
0.0
 10
479.8694608992024
 20
598.4257649824793
 30
0.0
 10
477.2438392535191
 20
598.4494899611867
 30
0.0
 10
473.9477002500237
 20
598.4726936844547
 30
0.0
 10
471.5267775319998
 20
598.4896453438066
 30
0.0
 10
470.2045776572081
 20
598.4989035831159
 30
0.0
  0
LINE
  5
E7
330
1F
100
AcDbEntity
  8
0
  6
Continuous
 62
     7
370
    15
100
AcDbLine
 10
491.1547013249
 20
577.5814683191
 30
0.0
 11
490.7329388585
 21
580.5825472824
 31
0.0
  0
LINE
  5
E8
330
1F
100
AcDbEntity
  8
0
  6
Continuous
 62
     7
370
    15
100
AcDbLine
 10
466.4481886353
 20
580.4130055956
 30
0.0
 11
467.3169710364
 21
574.2312942646
 31
0.0
  0
LINE
  5
E9
330
1F
100
AcDbEntity
  8
0
  6
Continuous
 62
     7
370
    15
100
AcDbLine
 10
467.3169710364
 20
574.2312942646
 30
0.0
 11
468.3908083167
 21
573.7974376432
 31
0.0
  0
LINE
  5
EA
330
1F
100
AcDbEntity
  8
0
  6
Continuous
 62
     7
370
    15
100
AcDbLine
 10
490.2420648064
 20
576.8684309922
 30
0.0
 11
491.1547013249
 21
577.5814683191
 31
0.0
  0
ARC
  5
EB
330
1F
100
AcDbEntity
  8
0
  6
Continuous
 62
     7
370
    15
100
AcDbCircle
 10
470.2282979244
 20
574.0556807191
 30
0.0
 40
0.2006000000000219
100
AcDbArc
 50
187.9999999999
 51
278.0
  0
ARC
  5
EC
330
1F
100
AcDbEntity
  8
0
  6
Continuous
 62
     7
370
    15
100
AcDbCircle
 10
488.4045692994
 20
576.6101890699
 30
0.0
 40
0.2005999999999638
100
AcDbArc
 50
278.0
 51
8.0000000001
  0
ARC
  5
ED
330
1F
100
AcDbEntity
  8
0
  6
Continuous
 62
     7
370
    15
100
AcDbCircle
 10
384.6255135935
 20
644.6109572148
 30
0.0
 40
2.006000000000085
100
AcDbArc
 50
180.0
 51
270.0
  0
ARC
  5
EE
330
1F
100
AcDbEntity
  8
0
  6
Continuous
 62
     7
370
    15
100
AcDbCircle
 10
384.6255135935
 20
634.5809572148
 30
0.0
 40
2.006000000000085
100
AcDbArc
 50
90.0
 51
180.0
  0
ARC
  5
EF
330
1F
100
AcDbEntity
  8
0
  6
Continuous
 62
     7
370
    15
100
AcDbCircle
 10
298.2258936291
 20
573.7723854707
 30
0.0
 40
1.002999999999929
100
AcDbArc
 50
90.0
 51
180.0
  0
ARC
  5
F0
330
1F
100
AcDbEntity
  8
0
  6
Continuous
 62
     7
370
    15
100
AcDbCircle
 10
298.2258936291
 20
567.7543854707
 30
0.0
 40
1.00300000000027
100
AcDbArc
 50
180.0
 51
270.0
  0
ARC
  5
F1
330
1F
100
AcDbEntity
  8
0
  6
Continuous
 62
     7
370
    15
100
AcDbCircle
 10
316.7813936291
 20
567.2528854707
 30
0.0
 40
0.5014999999999645
100
AcDbArc
 50
270.0
 51
0.0
  0
ARC
  5
F2
330
1F
100
AcDbEntity
  8
0
  6
Continuous
 62
     7
370
    15
100
AcDbCircle
 10
316.7813936291
 20
574.2738854707
 30
0.0
 40
0.5014999999999077
100
AcDbArc
 50
360.0
 51
90.0
  0
LINE
  5
F3
330
1F
100
AcDbEntity
  8
0
  6
Continuous
 62
     7
370
    15
100
AcDbLine
 10
316.7813949909
 20
574.7753859512
 30
0.0
 11
298.2258953776
 21
574.7753859512
 31
0.0
  0
LINE
  5
F4
330
1F
100
AcDbEntity
  8
0
  6
Continuous
 62
     7
370
    15
100
AcDbLine
 10
298.2258953776
 20
566.7513863198
 30
0.0
 11
316.7813949909
 21
566.7513863198
 31
0.0
  0
LINE
  5
F5
330
1F
100
AcDbEntity
  8
0
  6
Continuous
 62
     7
370
    15
100
AcDbLine
 10
322.937962475
 20
564.7976615481
 30
0.0
 11
336.9794179376
 21
526.2190842084
 31
0.0
  0
LINE
  5
F6
330
1F
100
AcDbEntity
  8
0
  6
Continuous
 62
     7
370
    15
100
AcDbLine
 10
336.9830128428
 20
537.9395105891
 30
0.0
 11
326.7080121364
 21
566.1698461525
 31
0.0
  0
LINE
  5
F7
330
1F
100
AcDbEntity
  8
0
  6
Continuous
 62
     7
370
    15
100
AcDbLine
 10
382.5321261462
 20
623.4978077017
 30
0.0
 11
382.719813722
 21
623.4978077017
 31
0.0
  0
LINE
  5
F8
330
1F
100
AcDbEntity
  8
0
  6
Continuous
 62
     7
370
    15
100
AcDbLine
 10
382.719813722
 20
624.5008067243
 30
0.0
 11
382.5319622334
 21
624.5008067243
 31
0.0
  0
ARC
  5
F9
330
1F
100
AcDbEntity
  8
0
  6
Continuous
 62
     7
370
    15
100
AcDbCircle
 10
317.2828936291
 20
562.7393854707
 30
0.0
 40
6.017999999999962
100
AcDbArc
 50
20.0
 51
90.0
  0
ARC
  5
FA
330
1F
100
AcDbEntity
  8
0
  6
Continuous
 62
     7
370
    15
100
AcDbCircle
 10
317.2828936291
 20
562.7393854707
 30
0.0
 40
10.02999999999998
100
AcDbArc
 50
20.0
 51
90.0
  0
SPLINE
  5
FB
330
1F
100
AcDbEntity
  8
0
  6
Continuous
 62
     7
370
    15
100
AcDbSpline
210
0.0
220
0.0
230
1.0
 70
     8
 71
     3
 72
    11
 73
     7
 74
     0
 42
0.00000001
 43
0.00000001
 40
0.0
 40
0.0
 40
0.0
 40
0.0
 40
0.250001076226021
 40
0.4999988502435596
 40
0.7500010243555114
 40
1.0
 40
1.0
 40
1.0
 40
1.0
 10
491.4517112698409
 20
580.5875671110907
 30
0.0
 10
491.6297184614336
 20
580.6085631059584
 30
0.0
 10
491.985730493362
 20
580.6505548183624
 30
0.0
 10
492.438160156767
 20
580.9589018643294
 30
0.0
 10
492.7627983414292
 20
581.3997641083739
 30
0.0
 10
492.8177185360647
 20
581.7539630528944
 30
0.0
 10
492.8451784577223
 20
581.9310613922635
 30
0.0
  0
SPLINE
  5
FC
330
1F
100
AcDbEntity
  8
0
  6
Continuous
 62
     7
370
    15
100
AcDbSpline
210
0.0
220
0.0
230
1.0
 70
     8
 71
     3
 72
    20
 73
    16
 74
     0
 42
0.00000001
 43
0.00000001
 40
0.0
 40
0.0
 40
0.0
 40
0.0
 40
0.0000335932920378
 40
0.0000335932920378
 40
0.0000335932920378
 40
0.0000671832469149
 40
0.0000671832469149
 40
0.0000671832469149
 40
0.000100826055065
 40
0.000100826055065
 40
0.000100826055065
 40
0.0001345785106791
 40
0.0001345785106791
 40
0.0001345785106791
 40
0.0001569377019061
 40
0.0001569377019061
 40
0.0001569377019061
 40
0.0001569377019061
 10
382.5404890205881
 20
625.8068308078816
 30
0.0
 10
382.5404890205881
 20
625.8180285718942
 30
0.0
 10
382.5406493020164
 20
625.829380727693
 30
0.0
 10
382.5409550842554
 20
625.8399466059416
 30
0.0
 10
382.5412608495628
 20
625.8505118991441
 30
0.0
 10
382.541720353739
 20
625.8605819787228
 30
0.0
 10
382.5422919177379
 20
625.8693282725867
 30
0.0
 10
382.5428643908915
 20
625.8780884786872
 30
0.0
 10
382.543564779773
 20
625.8857616552654
 30
0.0
 10
382.5443311864407
 20
625.8917208742857
 30
0.0
 10
382.5451000607616
 20
625.8976992806217
 30
0.0
 10
382.5459563217425
 20
625.9021171952529
 30
0.0
 10
382.5468265083385
 20
625.90461420873
 30
0.0
 10
382.5474075495302
 20
625.9062815151365
 30
0.0
 10
382.5480035658901
 20
625.907130807882
 30
0.0
 10
382.5485921971768
 20
625.907130807882
 30
0.0
  0
LINE
  5
FD
330
1F
100
AcDbEntity
  8
0
  6
Continuous
 62
     7
370
    15
100
AcDbLine
 10
382.5404894229
 20
625.197903534
 30
0.0
 11
382.5404894229
 21
625.806830173
 31
0.0
  0
ARC
  5
FE
330
1F
100
AcDbEntity
  8
0
  6
Continuous
 62
     7
370
    15
100
AcDbCircle
 10
359.5505135935
 20
623.2900791132
 30
0.0
 40
23.06899999999996
100
AcDbArc
 50
3.0084310463
 51
4.7438219256
  0
ARC
  5
FF
330
1F
100
AcDbEntity
  8
0
  6
Continuous
 62
     7
370
    15
100
AcDbCircle
 10
359.5505135935
 20
624.7085353163
 30
0.0
 40
23.06899999999996
100
AcDbArc
 50
355.2561780744
 51
356.9915689537
  0
LINE
  5
100
330
1F
100
AcDbEntity
  8
0
  6
Continuous
 62
     7
370
    15
100
AcDbLine
 10
382.5404894229
 20
622.191784253
 30
0.0
 11
382.5404894229
 21
622.8007108919
 31
0.0
  0
SPLINE
  5
101
330
1F
100
AcDbEntity
  8
0
  6
Continuous
 62
     7
370
    15
100
AcDbSpline
210
0.0
220
0.0
230
1.0
 70
     8
 71
     3
 72
    20
 73
    16
 74
     0
 42
0.00000001
 43
0.00000001
 40
0.0
 40
0.0
 40
0.0
 40
0.0
 40
0.0000338666266729
 40
0.0000338666266729
 40
0.0000338666266729
 40
0.0000677358374564
 40
0.0000677358374564
 40
0.0000677358374564
 40
0.0001015626008786
 40
0.0001015626008786
 40
0.0001015626008786
 40
0.0001352847931236
 40
0.0001352847931236
 40
0.0001352847931236
 40
0.000156938000513
 40
0.000156938000513
 40
0.000156938000513
 40
0.000156938000513
 10
382.5485921971768
 20
622.0914836216496
 30
0.0
 10
382.5477076807734
 20
622.0914836216496
 30
0.0
 10
382.5468022515491
 20
622.093431188984
 30
0.0
 10
382.5459521886556
 20
622.0971664668999
 30
0.0
 10
382.5451020903988
 20
622.1009019002058
 30
0.0
 10
382.5442840001548
 20
622.1065287898527
 30
0.0
 10
382.5435694669714
 20
622.1135840894798
 30
0.0
 10
382.5428558461809
 20
622.1206303801413
 30
0.0
 10
382.542225972517
 20
622.1292970605662
 30
0.0
 10
382.5417367238718
 20
622.1388660624254
 30
0.0
 10
382.5412489733141
 20
622.148405763843
 30
0.0
 10
382.5408876823998
 20
622.1591066973759
 30
0.0
 10
382.5406861160452
 20
622.1700790021672
 30
0.0
 10
382.5405555973772
 20
622.1771838119404
 30
0.0
 10
382.5404890205881
 20
622.1845052106074
 30
0.0
 10
382.5404890205881
 20
622.1917836216495
 30
0.0
  0
SPLINE
  5
102
330
1F
100
AcDbEntity
  8
0
  6
Continuous
 62
     7
370
    15
100
AcDbSpline
210
0.0
220
0.0
230
1.0
 70
     8
 71
     3
 72
    12
 73
     8
 74
     0
 42
0.00000001
 43
0.00000001
 40
0.0
 40
0.0
 40
0.0
 40
0.0
 40
0.5000000000000001
 40
0.5000000000000001
 40
0.7500000000000002
 40
0.7500000000000002
 40
1.0
 40
1.0
 40
1.0
 40
1.0
 10
355.2296139593412
 20
613.2768484012032
 30
0.0
 10
356.660827858682
 20
613.0244867755845
 30
0.0
 10
358.1031822295579
 20
612.834187474677
 30
0.0
 10
360.2834924331024
 20
612.6429738519594
 30
0.0
 10
361.013068748821
 20
612.5949624191084
 30
0.0
 10
362.4779703139935
 20
612.5308558438762
 30
0.0
 10
363.2119364527841
 20
612.5149572147656
 30
0.0
 10
363.9380700693375
 20
612.5149572147656
 30
0.0
  0
LWPOLYLINE
  5
103
330
1F
100
AcDbEntity
  8
0
  6
Continuous
 62
     7
370
    15
100
AcDbPolyline
 90
       14
 70
   128
 43
0.0
 10
336.4815142628
 20
616.5826444529
 10
336.6118174668
 20
616.559668725
 10
337.001257452
 20
616.4909985863
 10
337.6454346504
 20
616.3774144851
 10
338.5370698448
 20
616.2201941959
 10
339.6660917129
 20
616.021116545
 10
341.0197467234
 20
615.7824316077
 10
342.5827425595
 20
615.5068327688
 10
344.337420414
 20
615.1974362336
 10
346.2639589485
 20
614.8577344619
 10
348.3405940857
 20
614.4915682278
 10
350.5438667413
 20
614.1030716725
 10
352.8488863882
 20
613.6966350503
 10
355.2296141785
 20
613.2768488504
  0
LINE
  5
104
330
1F
100
AcDbEntity
  8
0
  6
Continuous
 62
     7
370
    15
100
AcDbLine
 10
363.938070244
 20
612.5149571352
 30
0.0
 11
382.619514006
 21
612.5149571352
 31
0.0
  0
SPLINE
  5
105
330
1F
100
AcDbEntity
  8
0
  6
Continuous
 62
     7
370
    15
100
AcDbSpline
210
0.0
220
0.0
230
1.0
 70
     8
 71
     3
 72
    17
 73
    13
 74
     0
 42
0.00000001
 43
0.00000001
 40
0.0
 40
0.0
 40
0.0
 40
0.0
 40
0.0360656661390883
 40
0.1439499632846463
 40
0.2519449002365969
 40
0.359698246570246
 40
0.4669175055815812
 40
0.5736136056023995
 40
0.6801460244444771
 40
0.7869842158497732
 40
0.8943858504948122
 40
1.0
 40
1.0
 40
1.0
 40
1.0
 10
382.5319622334096
 20
624.4944625548878
 30
0.0
 10
382.5303568881515
 20
624.4962051922262
 30
0.0
 10
382.5239494259945
 20
624.5031606323366
 30
0.0
 10
382.5116749057433
 20
624.4567145726551
 30
0.0
 10
382.4976496141516
 20
624.3596398421997
 30
0.0
 10
382.4871481938189
 20
624.2178094955079
 30
0.0
 10
382.4820878638621
 20
624.0526645542014
 30
0.0
 10
382.4832944272174
 20
623.8819233036305
 30
0.0
 10
382.4905071417393
 20
623.7244424528188
 30
0.0
 10
382.5024393982188
 20
623.5986581405882
 30
0.0
 10
382.5171912488225
 20
623.5137775462529
 30
0.0
 10
382.5271757748709
 20
623.5034896369798
 30
0.0
 10
382.5321261461827
 20
623.4983888469496
 30
0.0
  0
LINE
  5
106
330
1F
100
AcDbEntity
  8
0
  6
Continuous
 62
     7
370
    15
100
AcDbLine
 10
359.5505135923
 20
647.6199583165
 30
0.0
 11
381.1150126781
 21
647.6199583165
 31
0.0
  0
LINE
  5
107
330
1F
100
AcDbEntity
  8
0
  6
Continuous
 62
     7
370
    15
100
AcDbLine
 10
337.986013728
 20
647.6199583165
 30
0.0
 11
359.5505135923
 21
647.6199583165
 31
0.0
  0
LINE
  5
108
330
1F
100
AcDbEntity
  8
0
  6
Continuous
 62
     7
370
    15
100
AcDbLine
 10
336.9830128428
 20
500.4297041349
 30
0.0
 11
382.1180135634
 21
500.4297041349
 31
0.0
  0
SPLINE
  5
109
330
1F
100
AcDbEntity
  8
0
  6
Continuous
 62
     7
370
    15
100
AcDbSpline
210
0.0
220
0.0
230
1.0
 70
     8
 71
     3
 72
    27
 73
    23
 74
     0
 42
0.00000001
 43
0.00000001
 40
0.0
 40
0.0
 40
0.0
 40
0.0
 40
0.0137506518370393
 40
0.0331881300310687
 40
0.0495760579058216
 40
0.0664035107565526
 40
0.0974997679232329
 40
0.1293206609964546
 40
0.1746422965416304
 40
0.2204311620252762
 40
0.3139448970861061
 40
0.4114640526570355
 40
0.5096877314909098
 40
0.6098734003830977
 40
0.710707779637931
 40
0.7984711769560611
 40
0.8424019521749815
 40
0.8866577540964637
 40
0.9327653249164506
 40
0.9644107665256126
 40
0.9840480862480472
 40
1.0
 40
1.0
 40
1.0
 40
1.0
 10
336.9833890970799
 20
526.2205370716609
 30
0.0
 10
336.9833835351104
 20
526.2203509574559
 30
0.0
 10
336.9833701109201
 20
526.2199017582099
 30
0.0
 10
336.9864775882642
 20
526.3142076517402
 30
0.0
 10
336.9907009677449
 20
526.4459533695388
 30
0.0
 10
336.9968432073582
 20
526.6430646373321
 30
0.0
 10
337.005176239337
 20
526.9242859505956
 30
0.0
 10
337.0165362678446
 20
527.3394912466412
 30
0.0
 10
337.0287225261113
 20
527.837749015552
 30
0.0
 10
337.0448990781991
 20
528.6099535236136
 30
0.0
 10
337.0608149152912
 20
529.6283242349034
 30
0.0
 10
337.0714961521064
 20
530.8879589195033
 30
0.0
 10
337.0734704964497
 20
532.1824127346031
 30
0.0
 10
337.0667317857282
 20
533.4893263948424
 30
0.0
 10
337.0522986499771
 20
534.7411134692085
 30
0.0
 10
337.0353039414186
 20
535.7330493349796
 30
0.0
 10
337.0201488172278
 20
536.4633804150263
 30
0.0
 10
337.0077100399544
 20
537.0023547681333
 30
0.0
 10
336.9960391590936
 20
537.4627242597614
 30
0.0
 10
336.9877731304423
 20
537.7688056093601
 30
0.0
 10
336.9836539238374
 20
537.9167205992782
 30
0.0
 10
336.9832112564662
 20
537.9324571187688
 30
0.0
 10
336.9830128427598
 20
537.939510589079
 30
0.0
  0
LINE
  5
10A
330
1F
100
AcDbEntity
  8
0
  6
Continuous
 62
     7
370
    15
100
AcDbLine
 10
336.9830128428
 20
604.7417072594
 30
0.0
 11
382.1180135634
 21
604.7417072594
 31
0.0
  0
SPLINE
  5
10B
330
1F
100
AcDbEntity
  8
0
  6
Continuous
 62
     7
370
    15
100
AcDbSpline
210
0.0
220
0.0
230
1.0
 70
     8
 71
     3
 72
    10
 73
     6
 74
     0
 42
0.00000001
 43
0.00000001
 40
0.0
 40
0.0
 40
0.0
 40
0.0
 40
0.0891939669315014
 40
0.5434057049862676
 40
1.0
 40
1.0
 40
1.0
 40
1.0
 10
384.3104903277012
 20
598.9803096352471
 30
0.0
 10
384.4306731275142
 20
598.9898349831126
 30
0.0
 10
385.1628753302679
 20
599.0478672531212
 30
0.0
 10
385.8811704661786
 20
599.1129312692052
 30
0.0
 10
386.0469212135672
 20
599.127153248149
 30
0.0
 10
386.1300133790824
 20
599.134282839098
 30
0.0
  0
LINE
  5
10C
330
1F
100
AcDbEntity
  8
0
  6
Continuous
 62
     7
370
    15
100
AcDbLine
 10
384.4537072506
 20
598.9917090527
 30
0.0
 11
384.3835525837
 21
598.9861228926
 31
0.0
  0
LINE
  5
10D
330
1F
100
AcDbEntity
  8
0
  6
Continuous
 62
     7
370
    15
100
AcDbLine
 10
493.0039950337
 20
591.2190934658
 30
0.0
 11
492.9423787322
 21
596.5871336419
 31
0.0
  0
ARC
  5
10E
330
1F
100
AcDbEntity
  8
0
  6
Continuous
 62
     7
370
    15
100
AcDbCircle
 10
491.4419729015
 20
581.9916597859
 30
0.0
 40
1.404127172942141
100
AcDbArc
 50
270.401636297
 51
357.5257375579
  0
SPLINE
  5
10F
330
1F
100
AcDbEntity
  8
0
  6
Continuous
 62
     7
370
    15
100
AcDbSpline
210
0.0
220
0.0
230
1.0
 70
    24
 71
     3
 72
    42
 73
    38
 74
     0
 42
0.00000001
 43
0.00000001
 40
0.0
 40
0.0
 40
0.0
 40
0.0
 40
0.0078125000000007
 40
0.0078125000000007
 40
0.0156250000000012
 40
0.0156250000000012
 40
0.0312500000000022
 40
0.0312500000000022
 40
0.0468750000000032
 40
0.0468750000000032
 40
0.0625000000000043
 40
0.0625000000000043
 40
0.0703125000000046
 40
0.0703125000000046
 40
0.0781250000000047
 40
0.0781250000000047
 40
0.0859375000000049
 40
0.0859375000000049
 40
0.0937500000000051
 40
0.0937500000000051
 40
0.1015625000000052
 40
0.1015625000000052
 40
0.1054687500000053
 40
0.1054687500000053
 40
0.1093750000000054
 40
0.1093750000000054
 40
0.1250000000000057
 40
0.1250000000000057
 40
0.1562500000000054
 40
0.1562500000000054
 40
0.1875000000000052
 40
0.1875000000000052
 40
0.2500000000000049
 40
0.2500000000000049
 40
0.5000000000000032
 40
0.5000000000000032
 40
1.0
 40
1.0
 40
1.0
 40
1.0
 10
491.451817616741
 20
580.5875669924956
 30
0.0
 10
491.4485008257528
 20
580.5875438365501
 30
0.0
 10
491.4368153562442
 20
580.5874622552577
 30
0.0
 10
491.3805668158203
 20
580.5870695599858
 30
0.0
 10
491.3355691344686
 20
580.5867554118039
 30
0.0
 10
491.1563054649991
 20
580.5855038949669
 30
0.0
 10
490.976780332053
 20
580.5842505527406
 30
0.0
 10
490.5120579466905
 20
580.5810061257379
 30
0.0
 10
490.2271421291371
 20
580.579017005779
 30
0.0
 10
489.5746495187547
 20
580.5744616740132
 30
0.0
 10
489.2074803755198
 20
580.5718983081834
 30
0.0
 10
488.603149435009
 20
580.5676792137652
 30
0.0
 10
488.3930005750408
 20
580.5662120741194
 30
0.0
 10
487.9576527607688
 20
580.563172723641
 30
0.0
 10
487.7316350820294
 20
580.5615947969408
 30
0.0
 10
487.2766868947053
 20
580.5584186078215
 30
0.0
 10
487.0497312865512
 20
580.5568341330322
 30
0.0
 10
486.5970844267495
 20
580.5536740104711
 30
0.0
 10
486.3582870201277
 20
580.5520068629899
 30
0.0
 10
485.843920380662
 20
580.5484158480806
 30
0.0
 10
485.5705149493645
 20
580.5465070870827
 30
0.0
 10
485.1379065405181
 20
580.5434868615727
 30
0.0
 10
484.9901688017449
 20
580.5424554408274
 30
0.0
 10
484.6889816813573
 20
580.5403527238998
 30
0.0
 10
484.5360044501169
 20
580.5392847240025
 30
0.0
 10
483.7822857752226
 20
580.5340226895096
 30
0.0
 10
483.1939266950916
 20
580.5299151015236
 30
0.0
 10
481.4182788835087
 20
580.5175185398579
 30
0.0
 10
480.2327754542557
 20
580.5092420301414
 30
0.0
 10
477.8601772693601
 20
580.4926779009741
 30
0.0
 10
476.6730698804063
 20
580.4843901933245
 30
0.0
 10
473.1113184378705
 20
580.4595240734177
 30
0.0
 10
470.7372518987322
 20
580.4429496930373
 30
0.0
 10
458.8666465475868
 20
580.3600758876104
 30
0.0
 10
449.368082448695
 20
580.2937623231644
 30
0.0
 10
420.8704462625928
 20
580.0948080586975
 30
0.0
 10
401.868047978082
 20
579.9621441370616
 30
0.0
 10
382.8673681919323
 20
579.8294922130024
 30
0.0
  0
SPLINE
  5
110
330
1F
100
AcDbEntity
  8
0
  6
Continuous
 62
     7
370
    15
100
AcDbSpline
210
0.0
220
0.0
230
1.0
 70
     8
 71
     3
 72
    10
 73
     6
 74
     0
 42
0.00000001
 43
0.00000001
 40
0.0
 40
0.0
 40
0.0
 40
0.0
 40
0.3820463106736869
 40
0.789891782626892
 40
1.0
 40
1.0
 40
1.0
 40
1.0
 10
492.9423787321898
 20
596.5871322449157
 30
0.0
 10
492.9201954462397
 20
596.747033419824
 30
0.0
 10
492.8743308617792
 20
597.077633717651
 30
0.0
 10
492.6496691323819
 20
597.4614231792345
 30
0.0
 10
492.4319064811527
 20
597.6067885635507
 30
0.0
 10
492.3578657831999
 20
597.6562137264618
 30
0.0
  0
LWPOLYLINE
  5
111
330
1F
100
AcDbEntity
  8
0
  6
Continuous
 62
     7
370
    15
100
AcDbPolyline
 90
        9
 70
   128
 43
0.0
 10
491.1547013249
 20
577.5814683191
 10
491.0297103848
 20
577.5639017127
 10
490.6573154654
 20
577.5115651093
 10
490.0453396764
 20
577.4255593322
 10
489.2066427197
 20
577.3076855592
 10
488.1587930646
 20
577.1604211084
 10
486.9237699237
 20
576.9868505202
 10
485.5275013175
 20
576.7906171284
 10
483.999245676
 20
576.5758355163
  0
LINE
  5
112
330
1F
100
AcDbEntity
  8
0
  6
Continuous
 62
     7
370
    15
100
AcDbLine
 10
483.999245676
 20
576.5758355163
 30
0.0
 11
483.5214771952
 21
579.9753435902
 31
0.0
  0
LWPOLYLINE
  5
113
330
1F
100
AcDbEntity
  8
0
  6
Continuous
 62
     7
370
    15
100
AcDbPolyline
 90
        9
 70
   128
 43
0.0
 10
473.9946656551
 20
578.636437004
 10
475.1408108201
 20
578.7975185566
 10
476.3251402106
 20
578.9639645271
 10
477.5351517525
 20
579.1340203039
 10
478.7580676999
 20
579.3058902971
 10
479.9809910979
 20
579.4777602903
 10
481.1910026398
 20
579.6478160672
 10
482.3753320303
 20
579.8142620377
 10
483.5214771952
 20
579.9753435902
  0
LINE
  5
114
330
1F
100
AcDbEntity
  8
0
  6
Continuous
 62
     7
370
    15
100
AcDbLine
 10
473.9946656551
 20
578.636437004
 30
0.0
 11
474.4724341359
 21
575.2369289301
 31
0.0
  0
LWPOLYLINE
  5
115
330
1F
100
AcDbEntity
  8
0
  6
Continuous
 62
     7
370
    15
100
AcDbPolyline
 90
        9
 70
   128
 43
0.0
 10
474.4724341359
 20
575.2369289301
 10
472.944185945
 20
575.022147318
 10
471.5479024377
 20
574.8259120636
 10
470.3128867473
 20
574.652343338
 10
469.2650370922
 20
574.5050770245
 10
468.426332685
 20
574.3872051142
 10
467.8143717971
 20
574.3011993371
 10
467.4419768777
 20
574.2488627337
 10
467.3169710364
 20
574.2312942646
  0
LWPOLYLINE
  5
116
330
1F
100
AcDbEntity
  8
0
  6
Continuous
 62
     7
370
    15
100
AcDbPolyline
 90
       11
 70
   128
 43
0.0
 10
479.3164365616
 20
575.332935249
 10
477.6072882738
 20
575.0927303932
 10
475.9402283158
 20
574.8584394358
 10
474.3563019361
 20
574.635834714
 10
472.8945129242
 20
574.4303924046
 10
471.5908475842
 20
574.2471751772
 10
470.4774179187
 20
574.0906924955
 10
469.5816271629
 20
573.9647963099
 10
468.9255439367
 20
573.8725897871
 10
468.5253210988
 20
573.8163434915
 10
468.3908083167
 20
573.7974376432
  0
SPLINE
  5
117
330
1F
100
AcDbEntity
  8
0
  6
Continuous
 62
     7
370
    15
100
AcDbSpline
210
0.0
220
0.0
230
1.0
 70
     8
 71
     3
 72
     8
 73
     4
 74
     0
 42
0.00000001
 43
0.00000001
 40
0.0
 40
0.0
 40
0.0
 40
0.0
 40
1.0
 40
1.0
 40
1.0
 40
1.0
 10
474.4724346326444
 20
575.2369285281786
 30
0.0
 10
476.0934488413573
 20
575.0953076545524
 30
0.0
 10
477.70885754366
 20
575.1070048120515
 30
0.0
 10
479.3164336118924
 20
575.3329348945284
 30
0.0
  0
SPLINE
  5
118
330
1F
100
AcDbEntity
  8
0
  6
Continuous
 62
     7
370
    15
100
AcDbSpline
210
0.0
220
0.0
230
1.0
 70
     8
 71
     3
 72
    10
 73
     6
 74
     0
 42
0.00000001
 43
0.00000001
 40
0.0
 40
0.0
 40
0.0
 40
0.0
 40
0.5
 40
0.5
 40
1.0
 40
1.0
 40
1.0
 40
1.0
 10
479.3164336118924
 20
575.3329348945284
 30
0.0
 10
480.1183496992199
 20
575.4456368508027
 30
0.0
 10
480.9222698768398
 20
575.6122650525193
 30
0.0
 10
482.4851261703261
 20
576.0335197098177
 30
0.0
 10
483.2489322714421
 20
576.2879209324817
 30
0.0
 10
483.9992472267694
 20
576.5758347222098
 30
0.0
  0
LWPOLYLINE
  5
119
330
1F
100
AcDbEntity
  8
0
  6
Continuous
 62
     7
370
    15
100
AcDbPolyline
 90
       11
 70
   128
 43
0.0
 10
490.2420648064
 20
576.8684309922
 10
490.1075520243
 20
576.8495270066
 10
489.7073217358
 20
576.7932788484
 10
489.0512385096
 20
576.7010723255
 10
488.1554552045
 20
576.5751780026
 10
487.0420255389
 20
576.4186953209
 10
485.7383527484
 20
576.2354780935
 10
484.2765637364
 20
576.0300357841
 10
482.6926373567
 20
575.8074291997
 10
481.0255773988
 20
575.5731401048
 10
479.3164365616
 20
575.332935249
  0
LINE
  5
11A
330
1F
100
AcDbEntity
  8
0
  6
Continuous
 62
     7
370
    15
100
AcDbLine
 10
382.9442922648
 20
642.6049576156
 30
0.0
 11
431.766510817
 21
642.6049576156
 31
0.0
  0
LINE
  5
11B
330
1F
100
AcDbEntity
  8
0
  6
Continuous
 62
     7
370
    15
100
AcDbLine
 10
431.766510817
 20
636.5869560294
 30
0.0
 11
382.9442922648
 21
636.5869560294
 31
0.0
  0
LINE
  5
11C
330
1F
100
AcDbEntity
  8
0
  6
Continuous
 62
     7
370
    15
100
AcDbLine
 10
431.766510817
 20
642.6049576156
 30
0.0
 11
435.778514358
 21
642.6049576156
 31
0.0
  0
ARC
  5
11D
330
1F
100
AcDbEntity
  8
0
  6
Continuous
 62
     7
370
    15
100
AcDbCircle
 10
435.7785135935
 20
641.6019572148
 30
0.0
 40
1.002999999999986
100
AcDbArc
 50
0.0
 51
90.0
  0
LINE
  5
11E
330
1F
100
AcDbEntity
  8
0
  6
Continuous
 62
     7
370
    15
100
AcDbLine
 10
436.781511518
 20
641.6019567303
 30
0.0
 11
436.781511518
 21
637.5899569146
 31
0.0
  0
ARC
  5
11F
330
1F
100
AcDbEntity
  8
0
  6
Continuous
 62
     7
370
    15
100
AcDbCircle
 10
435.7785135935
 20
637.5899572148
 30
0.0
 40
1.002999999999986
100
AcDbArc
 50
270.0
 51
0.0
  0
LINE
  5
120
330
1F
100
AcDbEntity
  8
0
  6
Continuous
 62
     7
370
    15
100
AcDbLine
 10
435.778514358
 20
636.5869560294
 30
0.0
 11
431.766510817
 21
636.5869560294
 31
0.0
  0
LWPOLYLINE
  5
121
330
1F
100
AcDbEntity
  8
0
  6
Continuous
 62
     7
370
    15
100
AcDbPolyline
 90
       11
 70
   128
 43
0.0
 10
479.3443538871
 20
575.1342878692
 10
477.84849337
 20
574.9240585618
 10
476.3934396829
 20
574.7195624761
 10
475.018874618
 20
574.5263819598
 10
473.762304398
 20
574.3497808479
 10
472.6579942431
 20
574.1945815287
 10
471.7360668506
 20
574.0650122069
 10
471.0216828313
 20
573.964611908
 10
470.5343105521
 20
573.896116858
 10
470.2872567501
 20
573.8613952897
 10
470.2562176313
 20
573.8570329748
  0
LWPOLYLINE
  5
122
330
1F
100
AcDbEntity
  8
0
  6
Continuous
 62
     7
370
    15
100
AcDbPolyline
 90
       11
 70
   128
 43
0.0
 10
488.4324826922
 20
576.4115409009
 10
488.4014435735
 20
576.407178586
 10
488.154397222
 20
576.3724570177
 10
487.6670249429
 20
576.3039619677
 10
486.9526334729
 20
576.2035616688
 10
486.030713531
 20
576.0739942096
 10
484.9264033761
 20
575.9187930278
 10
483.6698257055
 20
575.7421937786
 10
482.2952680912
 20
575.5490113996
 10
480.8402069535
 20
575.3445171766
 10
479.3443538871
 20
575.1342878692
  0
LINE
  5
123
330
1F
100
AcDbEntity
  8
0
  6
Continuous
 62
     7
370
    15
100
AcDbLine
 10
297.2228944924
 20
567.7543853424
 30
0.0
 11
297.2228944924
 21
573.772385066
 31
0.0
  0
LINE
  5
124
330
1F
100
AcDbEntity
  8
0
  6
Continuous
 62
     7
370
    15
100
AcDbLine
 10
317.2828935709
 20
574.2738855086
 30
0.0
 11
317.2828935709
 21
567.2528848998
 31
0.0
  0
LINE
  5
125
330
1F
100
AcDbEntity
  8
0
  6
Continuous
 62
     7
370
    15
100
AcDbLine
 10
383.2213141646
 20
621.0171741448
 30
0.0
 11
383.2213141646
 21
620.9903073512
 31
0.0
  0
LINE
  5
126
330
1F
100
AcDbEntity
  8
0
  6
Continuous
 62
     7
370
    15
100
AcDbLine
 10
382.719813722
 20
620.9903073512
 30
0.0
 11
383.2213141646
 21
620.9903073512
 31
0.0
  0
LINE
  5
127
330
1F
100
AcDbEntity
  8
0
  6
Continuous
 62
     7
370
    15
100
AcDbLine
 10
382.719813722
 20
620.9903073512
 30
0.0
 11
382.719813722
 21
627.0083070747
 31
0.0
  0
LINE
  5
128
330
1F
100
AcDbEntity
  8
0
  6
Continuous
 62
     7
370
    15
100
AcDbLine
 10
383.2213141646
 20
627.0083070747
 30
0.0
 11
382.719813722
 21
627.0083070747
 31
0.0
  0
LINE
  5
129
330
1F
100
AcDbEntity
  8
0
  6
Continuous
 62
     7
370
    15
100
AcDbLine
 10
383.2213141646
 20
627.0083070747
 30
0.0
 11
383.2213141646
 21
626.9814402811
 31
0.0
  0
LINE
  5
12A
330
1F
100
AcDbEntity
  8
0
  6
Continuous
 62
     7
370
    15
100
AcDbLine
 10
383.3216138806
 20
626.9814402811
 30
0.0
 11
383.2213141646
 21
626.9814402811
 31
0.0
  0
LINE
  5
12B
330
1F
100
AcDbEntity
  8
0
  6
Continuous
 62
     7
370
    15
100
AcDbLine
 10
383.3216138806
 20
621.0171741448
 30
0.0
 11
383.2213141646
 21
621.0171741448
 31
0.0
  0
LINE
  5
12C
330
1F
100
AcDbEntity
  8
0
  6
Continuous
 62
     7
370
    15
100
AcDbLine
 10
383.9234140392
 20
626.3728377424
 30
0.0
 11
383.9234140392
 21
621.6257766835
 31
0.0
  0
SPLINE
  5
12D
330
1F
100
AcDbEntity
  8
0
  6
Continuous
 62
     7
370
    15
100
AcDbSpline
210
0.0
220
0.0
230
1.0
 70
     8
 71
     3
 72
    10
 73
     6
 74
     0
 42
0.00000001
 43
0.00000001
 40
0.0
 40
0.0
 40
0.0
 40
0.0
 40
0.5
 40
0.5
 40
1.0
 40
1.0
 40
1.0
 40
1.0
 10
383.9234135935123
 20
621.6257760057861
 30
0.0
 10
383.9234135935123
 20
621.4659243850658
 30
0.0
 10
383.8593917257987
 20
621.3093163518739
 30
0.0
 10
383.6379371989109
 20
621.0840038685722
 30
0.0
 10
383.4815222910045
 20
621.0171738240535
 30
0.0
 10
383.3216135935123
 20
621.0171738240535
 30
0.0
  0
SPLINE
  5
12E
330
1F
100
AcDbEntity
  8
0
  6
Continuous
 62
     7
370
    15
100
AcDbSpline
210
0.0
220
0.0
230
1.0
 70
     8
 71
     3
 72
    10
 73
     6
 74
     0
 42
0.00000001
 43
0.00000001
 40
0.0
 40
0.0
 40
0.0
 40
0.0
 40
0.5
 40
0.5
 40
1.0
 40
1.0
 40
1.0
 40
1.0
 10
383.3216135935123
 20
626.9814406054777
 30
0.0
 10
383.4814906476977
 20
626.9814406054777
 30
0.0
 10
383.6376494150834
 20
626.914737140595
 30
0.0
 10
383.8590549248904
 20
626.6898064952267
 30
0.0
 10
383.9234135935123
 20
626.5326642851211
 30
0.0
 10
383.9234135935123
 20
626.3728384237452
 30
0.0
  0
LINE
  5
12F
330
1F
100
AcDbEntity
  8
0
  6
Continuous
 62
     7
370
    15
100
AcDbLine
 10
382.5404894229
 20
625.197903534
 30
0.0
 11
382.719813722
 21
625.197903534
 31
0.0
  0
LINE
  5
130
330
1F
100
AcDbEntity
  8
0
  6
Continuous
 62
     7
370
    15
100
AcDbLine
 10
382.5485919293
 20
625.907129889
 30
0.0
 11
382.719813722
 21
625.907129889
 31
0.0
  0
LINE
  5
131
330
1F
100
AcDbEntity
  8
0
  6
Continuous
 62
     7
370
    15
100
AcDbLine
 10
382.719813722
 20
622.8007108919
 30
0.0
 11
382.5404894229
 21
622.8007108919
 31
0.0
  0
LINE
  5
132
330
1F
100
AcDbEntity
  8
0
  6
Continuous
 62
     7
370
    15
100
AcDbLine
 10
382.719813722
 20
622.091484537
 30
0.0
 11
382.5485919293
 21
622.091484537
 31
0.0
  0
SPLINE
  5
133
330
1F
100
AcDbEntity
  8
0
  6
Continuous
 62
     8
370
     0
100
AcDbSpline
210
0.0
220
0.0
230
1.0
 70
     8
 71
     3
 72
    22
 73
    18
 74
     0
 42
0.00000001
 43
0.00000001
 40
0.0
 40
0.0
 40
0.0
 40
0.0
 40
0.125
 40
0.125
 40
0.25
 40
0.25
 40
0.375
 40
0.375
 40
0.5
 40
0.5
 40
0.625
 40
0.625
 40
0.75
 40
0.75
 40
0.875
 40
0.875
 40
1.0
 40
1.0
 40
1.0
 40
1.0
 10
381.0727902754622
 20
634.5809572147655
 30
0.0
 10
381.0007663203586
 20
634.5809572147655
 30
0.0
 10
380.9276878045766
 20
634.6012538540812
 30
0.0
 10
380.779716826911
 20
634.6792603026648
 30
0.0
 10
380.7041585198431
 20
634.7376938332441
 30
0.0
 10
380.5549111375637
 20
634.8902867747605
 30
0.0
 10
380.4822940685909
 20
634.9829915321203
 30
0.0
 10
380.3419304425452
 20
635.1999017321081
 30
0.0
 10
380.2734636639947
 20
635.325798998138
 30
0.0
 10
380.1472373812448
 20
635.6024464092031
 30
0.0
 10
380.0895059123145
 20
635.752487927166
 30
0.0
 10
379.9861785153319
 20
636.0761299233468
 30
0.0
 10
379.9402055321583
 20
636.2520154035515
 30
0.0
 10
379.8660415478877
 20
636.6148744295726
 30
0.0
 10
379.8374369372486
 20
636.8023120336854
 30
0.0
 10
379.7984346297192
 20
637.1895223559122
 30
0.0
 10
379.7882203426873
 20
637.389870434632
 30
0.0
 10
379.7882203426873
 20
637.5899572147655
 30
0.0
  0
LINE
  5
134
330
1F
100
AcDbEntity
  8
0
  6
Continuous
 62
     8
370
     0
100
AcDbLine
 10
382.619514006
 20
634.5809579842
 30
0.0
 11
381.0727902379
 21
634.5809579842
 31
0.0
  0
LINE
  5
135
330
1F
100
AcDbEntity
  8
0
  6
Continuous
 62
     8
370
     0
100
AcDbLine
 10
381.0727902379
 20
644.6109556608
 30
0.0
 11
382.619514006
 21
644.6109556608
 31
0.0
  0
SPLINE
  5
136
330
1F
100
AcDbEntity
  8
0
  6
Continuous
 62
     8
370
     0
100
AcDbSpline
210
0.0
220
0.0
230
1.0
 70
     8
 71
     3
 72
    20
 73
    16
 74
     0
 42
0.00000001
 43
0.00000001
 40
0.0
 40
0.0
 40
0.0
 40
0.0
 40
0.1250000000000004
 40
0.1250000000000004
 40
0.2500000000000009
 40
0.2500000000000009
 40
0.5000000000000022
 40
0.5000000000000022
 40
0.6250000000000017
 40
0.6250000000000017
 40
0.7500000000000011
 40
0.7500000000000011
 40
0.8750000000000006
 40
0.8750000000000006
 40
1.0
 40
1.0
 40
1.0
 40
1.0
 10
379.7882203426873
 20
641.6019572147655
 30
0.0
 10
379.7882203426873
 20
641.801642617676
 30
0.0
 10
379.7981563835754
 20
641.9979724925781
 30
0.0
 10
379.8367322538143
 20
642.3842220434707
 30
0.0
 10
379.8658412560675
 20
642.5758456656001
 30
0.0
 10
379.9769433014338
 20
643.1200709767013
 30
0.0
 10
380.0845821978105
 20
643.4521197409907
 30
0.0
 10
380.273149858042
 20
643.8654417952998
 30
0.0
 10
380.3414731818357
 20
643.9912827404419
 30
0.0
 10
380.482503861908
 20
644.2092703910401
 30
0.0
 10
380.5550890959371
 20
644.3017603215088
 30
0.0
 10
380.7033871220342
 20
644.4534809906476
 30
0.0
 10
380.7794208296935
 20
644.5124825095796
 30
0.0
 10
380.9277969760275
 20
644.5907336834554
 30
0.0
 10
381.0009059831501
 20
644.6109572147656
 30
0.0
 10
381.0727902754622
 20
644.6109572147656
 30
0.0
  0
LINE
  5
137
330
1F
100
AcDbEntity
  8
0
  6
Continuous
 62
     8
370
     0
100
AcDbLine
 10
379.788220736
 20
637.5899569146
 30
0.0
 11
379.788220736
 21
641.6019567303
 31
0.0
  0
SPLINE
  5
138
330
1F
100
AcDbEntity
  8
0
  6
Continuous
 62
     8
370
     0
100
AcDbSpline
210
0.0
220
0.0
230
1.0
 70
     8
 71
     3
 72
    38
 73
    34
 74
     0
 42
0.00000001
 43
0.00000001
 40
0.0
 40
0.0
 40
0.0
 40
0.0
 40
0.0202441099826075
 40
0.0404133547856225
 40
0.0608821555381696
 40
0.0730801034538693
 40
0.0974456172924866
 40
0.1285082873306247
 40
0.1471225968000922
 40
0.1965751226354205
 40
0.2539819706110325
 40
0.2731259341744801
 40
0.2986649192104993
 40
0.3637664009634757
 40
0.3767671644558068
 40
0.4027076216329324
 40
0.5001870833793973
 40
0.5010593726890997
 40
0.5019313373843265
 40
0.5071563163151919
 40
0.5904559320911497
 40
0.6158298401399062
 40
0.6252783010012352
 40
0.6409501783939361
 40
0.7149504483409398
 40
0.7457481662379043
 40
0.7641064277599041
 40
0.8126909354515001
 40
0.8690817229884413
 40
0.887794135997674
 40
0.9126965461799651
 40
0.9563753821422146
 40
1.0
 40
1.0
 40
1.0
 40
1.0
 10
374.4844922785314
 20
603.2982584699289
 30
0.0
 10
374.5807604042759
 20
603.3064218318252
 30
0.0
 10
374.7729406445334
 20
603.3227183665132
 30
0.0
 10
375.0567830537873
 20
603.3474499378058
 30
0.0
 10
375.2994089168441
 20
603.3689085069718
 30
0.0
 10
375.5576973180182
 20
603.3920976903205
 30
0.0
 10
375.8592636964137
 20
603.419581920519
 30
0.0
 10
376.1814540321976
 20
603.4496712508703
 30
0.0
 10
376.6030027353482
 20
603.4897512491009
 30
0.0
 10
377.1193745208456
 20
603.5401186746507
 30
0.0
 10
377.6097826963606
 20
603.5897212006241
 30
0.0
 10
377.9900876712865
 20
603.628967560044
 30
0.0
 10
378.3882122623245
 20
603.6706190966312
 30
0.0
 10
378.7431557283978
 20
603.7087845802939
 30
0.0
 10
379.0806410712063
 20
603.7457985052416
 30
0.0
 10
379.5107961708843
 20
603.7934493675168
 30
0.0
 10
379.8668198400557
 20
603.8341304634029
 30
0.0
 10
380.1268131272032
 20
603.8643096164573
 30
0.0
 10
380.1450446539821
 20
603.866426520051
 30
0.0
 10
380.377563360268
 20
603.8934535572566
 30
0.0
 10
380.6491241198464
 20
603.9255518450659
 30
0.0
 10
380.8980697882898
 20
603.9554462931793
 30
0.0
 10
380.999999968766
 20
603.9677433566515
 30
0.0
 10
381.193701743024
 20
603.9911888760176
 30
0.0
 10
381.4013518771098
 20
604.0166434813285
 30
0.0
 10
381.5795789784754
 20
604.0387272728309
 30
0.0
 10
381.7083064997841
 20
604.054743714241
 30
0.0
 10
381.8488224068051
 20
604.072332851896
 30
0.0
 10
381.9549899706732
 20
604.0857406151524
 30
0.0
 10
382.0207413994808
 20
604.0940635872976
 30
0.0
 10
382.0676293338404
 20
604.100003429016
 30
0.0
 10
382.1091275022126
 20
604.105263148453
 30
0.0
 10
382.1151115517394
 20
604.1060178902349
 30
0.0
 10
382.1181017183642
 20
604.106395026767
 30
0.0
  0
SPLINE
  5
139
330
1F
100
AcDbEntity
  8
0
  6
Continuous
 62
     8
370
     0
100
AcDbSpline
210
0.0
220
0.0
230
1.0
 70
     8
 71
     3
 72
    35
 73
    31
 74
     0
 42
0.00000001
 43
0.00000001
 40
0.0
 40
0.0
 40
0.0
 40
0.0
 40
0.0334738834135567
 40
0.0665822652413456
 40
0.0995060516759312
 40
0.1324358997640919
 40
0.1655811834779253
 40
0.1991805413052132
 40
0.2335036511564907
 40
0.255861932210098
 40
0.2865313031290341
 40
0.4014583855833661
 40
0.414534294238244
 40
0.4277965612601751
 40
0.5256617585504976
 40
0.566180207966713
 40
0.5706098703972311
 40
0.5967186570130827
 40
0.6521208309243591
 40
0.669271701156012
 40
0.6726806497457445
 40
0.68276207111871
 40
0.695875137266774
 40
0.7463848433130449
 40
0.7560992139849286
 40
0.759273167364807
 40
0.8278863213193617
 40
0.8894569593496123
 40
0.9463134274264935
 40
1.0
 40
1.0
 40
1.0
 40
1.0
 10
370.1252892811614
 20
597.5291012048501
 30
0.0
 10
370.1331056297635
 20
597.6253147008671
 30
0.0
 10
370.1486529801982
 20
597.8166911370115
 30
0.0
 10
370.1816606737838
 20
598.1015000132394
 30
0.0
 10
370.2219693262062
 20
598.3834801250381
 30
0.0
 10
370.2706431144988
 20
598.6638794492808
 30
0.0
 10
370.3280820366539
 20
598.944118177946
 30
0.0
 10
370.3951682964715
 20
599.2257110863297
 30
0.0
 10
370.4632238941226
 20
599.474500077633
 30
0.0
 10
370.5357169767685
 20
599.7126251531455
 30
0.0
 10
370.6873521388718
 20
600.165112524324
 30
0.0
 10
370.8645353607557
 20
600.5780302404385
 30
0.0
 10
371.049807832626
 20
600.9244078684043
 30
0.0
 10
371.2176154306147
 20
601.2251020015776
 30
0.0
 10
371.4489194853873
 20
601.5722339678374
 30
0.0
 10
371.694793137798
 20
601.8642267088896
 30
0.0
 10
371.8213754893036
 20
602.003431733426
 30
0.0
 10
371.9779393529886
 20
602.1667466731415
 30
0.0
 10
372.1678035459477
 20
602.3380456793906
 30
0.0
 10
372.3193979557939
 20
602.4577800391157
 30
0.0
 10
372.3811285639034
 20
602.5046936215904
 30
0.0
 10
372.4350500438867
 20
602.5446347518458
 30
0.0
 10
372.5858858366354
 20
602.6514921522785
 30
0.0
 10
372.7397908681269
 20
602.7474557487417
 30
0.0
 10
372.8748307769984
 20
602.8217910452912
 30
0.0
 10
373.0489679436987
 20
602.9150203855269
 30
0.0
 10
373.3389279524126
 20
603.0463369121877
 30
0.0
 10
373.7499924593962
 20
603.1773987243502
 30
0.0
 10
374.1282449446737
 20
603.2599351433798
 30
0.0
 10
374.3680359939218
 20
603.2857146680321
 30
0.0
 10
374.4844934343196
 20
603.2982348078167
 30
0.0
  0
SPLINE
  5
13A
330
1F
100
AcDbEntity
  8
0
  6
Continuous
 62
     8
370
     0
100
AcDbSpline
210
0.0
220
0.0
230
1.0
 70
     8
 71
     3
 72
    10
 73
     6
 74
     0
 42
0.00000001
 43
0.00000001
 40
0.0
 40
0.0
 40
0.0
 40
0.0
 40
0.5
 40
0.5
 40
1.0
 40
1.0
 40
1.0
 40
1.0
 10
370.1176689981461
 20
580.9887080274983
 30
0.0
 10
369.9148916912446
 20
583.7134102526747
 30
0.0
 10
369.8103462040995
 20
586.4861454648493
 30
0.0
 10
369.8129371782701
 20
592.0334821418988
 30
0.0
 10
369.920070566264
 20
594.8055390599583
 30
0.0
 10
370.1252444387896
 20
597.5290841678489
 30
0.0
  0
SPLINE
  5
13B
330
1F
100
AcDbEntity
  8
0
  6
Continuous
 62
     8
370
     0
100
AcDbSpline
210
0.0
220
0.0
230
1.0
 70
     8
 71
     3
 72
     9
 73
     5
 74
     0
 42
0.00000001
 43
0.00000001
 40
0.0
 40
0.0
 40
0.0
 40
0.0
 40
0.4975453002822929
 40
1.0
 40
1.0
 40
1.0
 40
1.0
 10
370.178412648921
 20
580.3960080157597
 30
0.0
 10
370.1662749424317
 20
580.4939908291188
 30
0.0
 10
370.1418797637768
 20
580.6909232758798
 30
0.0
 10
370.1258071943345
 20
580.8889480175766
 30
0.0
 10
370.1177314562817
 20
580.9884464797026
 30
0.0
  0
SPLINE
  5
13C
330
1F
100
AcDbEntity
  8
0
  6
Continuous
 62
     8
370
     0
100
AcDbSpline
210
0.0
220
0.0
230
1.0
 70
     8
 71
     3
 72
     9
 73
     5
 74
     0
 42
0.00000001
 43
0.00000001
 40
0.0
 40
0.0
 40
0.0
 40
0.0
 40
0.5059315730489934
 40
1.0
 40
1.0
 40
1.0
 40
1.0
 10
370.7057801770655
 20
576.237912441861
 30
0.0
 10
370.6189308909431
 20
576.9394105101491
 30
0.0
 10
370.4472687715009
 20
578.3259578332596
 30
0.0
 10
370.267166199682
 20
579.7114442193545
 30
0.0
 10
370.1781832053335
 20
580.3959692986945
 30
0.0
  0
SPLINE
  5
13D
330
1F
100
AcDbEntity
  8
0
  6
Continuous
 62
     8
370
     0
100
AcDbSpline
210
0.0
220
0.0
230
1.0
 70
     8
 71
     3
 72
    49
 73
    45
 74
     0
 42
0.00000001
 43
0.00000001
 40
0.0
 40
0.0
 40
0.0
 40
0.0
 40
0.0234075449274019
 40
0.0472011064425616
 40
0.0713958635114994
 40
0.0960047117416011
 40
0.121047487926601
 40
0.1388458643439735
 40
0.1629427313752173
 40
0.2358798714531723
 40
0.2537178858950579
 40
0.2597190185291446
 40
0.3203597316780087
 40
0.355704181854084
 40
0.4046189194174493
 40
0.4334278102419498
 40
0.451104315609692
 40
0.4751617432754934
 40
0.5020450098775492
 40
0.5087554025401986
 40
0.5177770891712326
 40
0.5559625645929307
 40
0.5639812553421515
 40
0.5666716790123254
 40
0.6224001119642648
 40
0.6311085704703018
 40
0.639914083634671
 40
0.6834671835978385
 40
0.6966331259663803
 40
0.7100269454657756
 40
0.7445129081908017
 40
0.7658986622380857
 40
0.8013934074635822
 40
0.8148804970612962
 40
0.8374042157085896
 40
0.8718747120427919
 40
0.8802397656465304
 40
0.9043936182443796
 40
0.9265958816781599
 40
0.9421135506538463
 40
0.9636103895896486
 40
0.983186732111177
 40
0.9917593818197559
 40
1.0
 40
1.0
 40
1.0
 40
1.0
 10
377.5489279052312
 20
570.6397071066311
 30
0.0
 10
377.4947288295614
 20
570.6404369418094
 30
0.0
 10
377.3854368748641
 20
570.6419086479641
 30
0.0
 10
377.2170004538744
 20
570.6537784016284
 30
0.0
 10
377.0435679795773
 20
570.6729219161446
 30
0.0
 10
376.8648308769191
 20
570.7002360616516
 30
0.0
 10
376.6996299889394
 20
570.7320763092931
 30
0.0
 10
376.5341315225594
 20
570.7694138770532
 30
0.0
 10
376.247785179281
 20
570.8428960635845
 30
0.0
 10
375.9559738560118
 20
570.9378891272374
 30
0.0
 10
375.7073157236621
 20
571.0334436139917
 30
0.0
 10
375.4896276603239
 20
571.1203654566416
 30
0.0
 10
375.2247256630577
 20
571.2371625314825
 30
0.0
 10
374.8458969812964
 20
571.4260961987158
 30
0.0
 10
374.5490781187662
 20
571.5890159238658
 30
0.0
 10
374.2984989224192
 20
571.7382682638394
 30
0.0
 10
374.1133287589161
 20
571.8538080242465
 30
0.0
 10
373.9334311892072
 20
571.9707231493567
 30
0.0
 10
373.7826753875875
 20
572.0736074930683
 30
0.0
 10
373.6715301523573
 20
572.1519238185256
 30
0.0
 10
373.5310967310604
 20
572.2523614729571
 30
0.0
 10
373.3878767640575
 20
572.359429043922
 30
0.0
 10
373.2619163110962
 20
572.4578845557539
 30
0.0
 10
373.0910399200152
 20
572.5928275352678
 30
0.0
 10
372.9198774772392
 20
572.7356754080229
 30
0.0
 10
372.73613682742
 20
572.8996109269209
 30
0.0
 10
372.5836534081321
 20
573.0381623963307
 30
0.0
 10
372.4224303181634
 20
573.1929436154016
 30
0.0
 10
372.253769803085
 20
573.3659565763727
 30
0.0
 10
372.1086261104575
 20
573.5196991419497
 30
0.0
 10
371.9477225566367
 20
573.7006885190121
 30
0.0
 10
371.7428691360903
 20
573.9499347573001
 30
0.0
 10
371.5917020684124
 20
574.1505977558788
 30
0.0
 10
371.4454815173944
 20
574.3624418542735
 30
0.0
 10
371.3071710660927
 20
574.5771617857404
 30
0.0
 10
371.1887791481432
 20
574.78534089456
 30
0.0
 10
371.0770082606051
 20
575.0056090873595
 30
0.0
 10
370.9919173119849
 20
575.1899412478568
 30
0.0
 10
370.9073643250799
 20
575.4052113504983
 30
0.0
 10
370.8367244775938
 20
575.6162187806923
 30
0.0
 10
370.7796088869391
 20
575.8222879422336
 30
0.0
 10
370.7408327533279
 20
576.0067299449146
 30
0.0
 10
370.7181793505404
 20
576.1432809909621
 30
0.0
 10
370.7098584607328
 20
576.2067866655022
 30
0.0
 10
370.7057801770654
 20
576.237912441861
 30
0.0
  0
SPLINE
  5
13E
330
1F
100
AcDbEntity
  8
0
  6
Continuous
 62
     8
370
     0
100
AcDbSpline
210
0.0
220
0.0
230
1.0
 70
     8
 71
     3
 72
    34
 73
    30
 74
     0
 42
0.00000001
 43
0.00000001
 40
0.0
 40
0.0
 40
0.0
 40
0.0
 40
0.0334089084045164
 40
0.0668468594730889
 40
0.1003393131794544
 40
0.1339081691667674
 40
0.167572164840689
 40
0.2013472678630148
 40
0.2352470702818853
 40
0.2692831997672953
 40
0.3034657887765188
 40
0.3378041228660361
 40
0.3723075482031521
 40
0.4069861067875005
 40
0.4418509930875357
 40
0.4769150871784755
 40
0.5121933554031116
 40
0.5476961158716507
 40
0.5834271875085258
 40
0.6193936925618277
 40
0.6556039282748112
 40
0.6920639673474251
 40
0.7287741931671421
 40
0.765726019815167
 40
0.8028990621990599
 40
0.8519683102540226
 40
0.9011376822149415
 40
0.9504639888415376
 40
1.0
 40
1.0
 40
1.0
 40
1.0
 10
382.1180920902455
 20
570.6397164506956
 30
0.0
 10
382.1170741655509
 20
570.6397163312059
 30
0.0
 10
382.1150374312709
 20
570.6397160921227
 30
0.0
 10
382.0985414167591
 20
570.6397182995729
 30
0.0
 10
382.0721680646292
 20
570.6397247111006
 30
0.0
 10
382.0348968068952
 20
570.6397335952638
 30
0.0
 10
381.9869161878455
 20
570.6397426183449
 30
0.0
 10
381.9280697071162
 20
570.6397494975203
 30
0.0
 10
381.8582739120251
 20
570.6397525493264
 30
0.0
 10
381.7774054730048
 20
570.6397501355334
 30
0.0
 10
381.6853329380213
 20
570.6397411414595
 30
0.0
 10
381.5819049146612
 20
570.639719423354
 30
0.0
 10
381.466979633857
 20
570.6396955021116
 30
0.0
 10
381.3404240065714
 20
570.6396820790274
 30
0.0
 10
381.2020939579659
 20
570.6396815260846
 30
0.0
 10
381.0518299186792
 20
570.6396902448887
 30
0.0
 10
380.8894611163614
 20
570.6397022310656
 30
0.0
 10
380.7148208122071
 20
570.63971591509
 30
0.0
 10
380.5277519845523
 20
570.6397282574828
 30
0.0
 10
380.328103141182
 20
570.6397357770996
 30
0.0
 10
380.115721911589
 20
570.6397358895222
 30
0.0
 10
379.8904734606166
 20
570.6397283358841
 30
0.0
 10
379.6522621769237
 20
570.6397155399831
 30
0.0
 10
379.4010669727956
 20
570.6397038430542
 30
0.0
 10
379.1092000865393
 20
570.6396935157587
 30
0.0
 10
378.7724958772308
 20
570.6397060304388
 30
0.0
 10
378.3857191921868
 20
570.6397495680288
 30
0.0
 10
377.9798537964872
 20
570.639724139289
 30
0.0
 10
377.692772852204
 20
570.6397127922066
 30
0.0
 10
377.5489279052313
 20
570.6397071066308
 30
0.0
  0
SPLINE
  5
13F
330
1F
100
AcDbEntity
  8
0
  6
Continuous
 62
     8
370
    15
100
AcDbSpline
210
0.0
220
0.0
230
1.0
 70
     8
 71
     3
 72
    15
 73
    11
 74
     0
 42
0.00000001
 43
0.00000001
 40
0.0
 40
0.0
 40
0.0
 40
0.0
 40
0.0832154929985167
 40
0.1665783322918731
 40
0.2505318485970976
 40
0.3762872916724208
 40
0.5007395814976168
 40
0.6707649381837616
 40
0.8359937618843478
 40
1.0
 40
1.0
 40
1.0
 40
1.0
 10
379.2351212628982
 20
580.8383643159931
 30
0.0
 10
379.2115309650107
 20
580.8535748820088
 30
0.0
 10
379.1643085988529
 20
580.884022946772
 30
0.0
 10
379.0988126257012
 20
580.9369173126561
 30
0.0
 10
379.027422599123
 20
581.0044959756237
 30
0.0
 10
378.9543023427338
 20
581.0899809915641
 30
0.0
 10
378.876189642041
 20
581.2089680531285
 30
0.0
 10
378.8101513965317
 20
581.3522422915804
 30
0.0
 10
378.7638790401869
 20
581.5204590970556
 30
0.0
 10
378.7582030918169
 20
581.6361497130384
 30
0.0
 10
378.7553756562007
 20
581.6937802175418
 30
0.0
  0
SPLINE
  5
140
330
1F
100
AcDbEntity
  8
0
  6
Continuous
 62
     8
370
    15
100
AcDbSpline
210
0.0
220
0.0
230
1.0
 70
     8
 71
     3
 72
    19
 73
    15
 74
     0
 42
0.00000001
 43
0.00000001
 40
0.0
 40
0.0
 40
0.0
 40
0.0
 40
0.0548699156547041
 40
0.1148355272996288
 40
0.1799430646747027
 40
0.2502334852848292
 40
0.3053228964358097
 40
0.375154199900515
 40
0.500551436619073
 40
0.6379691996893088
 40
0.750161176308887
 40
0.8402347527363063
 40
0.9235368810579605
 40
1.0
 40
1.0
 40
1.0
 40
1.0
 10
382.8673786890267
 20
579.8294922862871
 30
0.0
 10
382.7995412526211
 20
579.8296021218983
 30
0.0
 10
382.6575664074376
 20
579.8298319934078
 30
0.0
 10
382.4351488300444
 20
579.8388419469039
 30
0.0
 10
382.1939114941131
 20
579.8562690268183
 30
0.0
 10
381.9589992835725
 20
579.8820854794882
 30
0.0
 10
381.7185860696223
 20
579.9167254179048
 30
0.0
 10
381.4110181241485
 20
579.9718336456482
 30
0.0
 10
381.0037720374567
 20
580.0672638524717
 30
0.0
 10
380.5485326875087
 20
580.2097785369165
 30
0.0
 10
380.1401578759794
 20
580.368996907093
 30
0.0
 10
379.8011420974691
 20
580.5249779413784
 30
0.0
 10
379.5076828635987
 20
580.6766640084462
 30
0.0
 10
379.3233448341321
 20
580.7860246666634
 30
0.0
 10
379.2351212628982
 20
580.8383643159931
 30
0.0
  0
SPLINE
  5
141
330
1F
100
AcDbEntity
  8
0
  6
Continuous
 62
     8
370
    15
100
AcDbSpline
210
0.0
220
0.0
230
1.0
 70
     8
 71
     3
 72
     9
 73
     5
 74
     0
 42
0.00000001
 43
0.00000001
 40
0.0
 40
0.0
 40
0.0
 40
0.0
 40
0.5529991391951199
 40
1.0
 40
1.0
 40
1.0
 40
1.0
 10
380.4337390389296
 20
598.6913585118809
 30
0.0
 10
381.3027426566069
 20
598.7521780696767
 30
0.0
 10
382.8741802160617
 20
598.8621593580463
 30
0.0
 10
383.866792004033
 20
598.9438111942
 30
0.0
 10
384.3104903277012
 20
598.9803096352471
 30
0.0
  0
SPLINE
  5
142
330
1F
100
AcDbEntity
  8
0
  6
Continuous
 62
     8
370
    15
100
AcDbSpline
210
0.0
220
0.0
230
1.0
 70
     8
 71
     3
 72
    21
 73
    17
 74
     0
 42
0.00000001
 43
0.00000001
 40
0.0
 40
0.0
 40
0.0
 40
0.0
 40
0.0309084594669679
 40
0.0622001077138364
 40
0.0939125571282403
 40
0.1260791534221007
 40
0.1870924770904243
 40
0.2515496353217422
 40
0.3763605012194859
 40
0.5015773560069887
 40
0.6260963434843021
 40
0.7512462969875653
 40
0.8248939542869311
 40
0.8753059907103118
 40
0.9414385177895335
 40
1.0
 40
1.0
 40
1.0
 40
1.0
 10
378.7553756088573
 20
596.8163074100152
 30
0.0
 10
378.7572741092603
 20
596.8512243138497
 30
0.0
 10
378.7610946467959
 20
596.9214910051373
 30
0.0
 10
378.7740682156329
 20
597.0264111593269
 30
0.0
 10
378.7923449520607
 20
597.1311202828263
 30
0.0
 10
378.8235373672384
 20
597.2656032260006
 30
0.0
 10
378.8752456536334
 20
597.4289965524284
 30
0.0
 10
378.9793821155918
 20
597.6712691758248
 30
0.0
 10
379.1451350306983
 20
597.9403147223809
 30
0.0
 10
379.3767708816546
 20
598.2015308010913
 30
0.0
 10
379.6297554372698
 20
598.4067565082617
 30
0.0
 10
379.8585929644629
 20
598.5370439450908
 30
0.0
 10
380.0375967810677
 20
598.6095341383582
 30
0.0
 10
380.1751596202624
 20
598.6511971063323
 30
0.0
 10
380.3017797228578
 20
598.678917655348
 30
0.0
 10
380.3915393271397
 20
598.6873815908804
 30
0.0
 10
380.4336941627996
 20
598.6913566063035
 30
0.0
  0
SPLINE
  5
143
330
1F
100
AcDbEntity
  8
0
  6
Continuous
 62
     8
370
    15
100
AcDbSpline
210
0.0
220
0.0
230
1.0
 70
     8
 71
     3
 72
     8
 73
     4
 74
     0
 42
0.00000001
 43
0.00000001
 40
0.0943514823238665
 40
0.0943514823238665
 40
0.0943514823238665
 40
0.0943514823238665
 40
0.899267612084163
 40
0.899267612084163
 40
0.899267612084163
 40
0.899267612084163
 10
378.7553550600975
 20
581.6940591706342
 30
0.0
 10
378.7553687548576
 20
586.7362699251237
 30
0.0
 10
378.7553824597796
 20
591.773955244497
 30
0.0
 10
378.755396174863
 20
596.8162617009151
 30
0.0
  0
SPLINE
  5
144
330
1F
100
AcDbEntity
  8
0
  6
Continuous
 62
     8
370
     0
100
AcDbSpline
210
0.0
220
0.0
230
1.0
 70
     8
 71
     3
 72
    20
 73
    16
 74
     0
 42
0.00000001
 43
0.00000001
 40
0.0
 40
0.0
 40
0.0
 40
0.0
 40
0.5000000000000007
 40
0.5000000000000007
 40
0.6250000000000009
 40
0.6250000000000009
 40
0.6875000000000009
 40
0.6875000000000009
 40
0.750000000000001
 40
0.750000000000001
 40
0.8125000000000011
 40
0.8125000000000011
 40
0.8750000000000011
 40
0.8750000000000011
 40
1.0
 40
1.0
 40
1.0
 40
1.0
 10
492.9423768066294
 20
596.5871322596071
 30
0.0
 10
492.9423736793063
 20
596.5871755293025
 30
0.0
 10
492.9349688210479
 20
596.5905398856007
 30
0.0
 10
492.9357586011475
 20
596.5910535105617
 30
0.0
 10
492.9364095996294
 20
596.5908378587535
 30
0.0
 10
492.9385329788046
 20
596.5896082617771
 30
0.0
 10
492.9394324395237
 20
596.5890433943038
 30
0.0
 10
492.941684490521
 20
596.587186177429
 30
0.0
 10
492.9442725582546
 20
596.5857196066862
 30
0.0
 10
492.9432540024376
 20
596.582196167541
 30
0.0
 10
492.9380358251636
 20
596.5802798916305
 30
0.0
 10
492.8941225295137
 20
596.5774389354306
 30
0.0
 10
492.8566266425867
 20
596.5762902730349
 30
0.0
 10
492.698601084239
 20
596.5727430109109
 30
0.0
 10
492.5334299522179
 20
596.5697417805396
 30
0.0
 10
492.3145986587684
 20
596.5642812030654
 30
0.0
  0
SPLINE
  5
145
330
1F
100
AcDbEntity
  8
0
  6
Continuous
 62
     8
370
     0
100
AcDbSpline
210
0.0
220
0.0
230
1.0
 70
     8
 71
     3
 72
    40
 73
    36
 74
     0
 42
0.00000001
 43
0.00000001
 40
0.0
 40
0.0
 40
0.0
 40
0.0
 40
0.5000000000000059
 40
0.5000000000000059
 40
0.7500000000000089
 40
0.7500000000000089
 40
0.8750000000000101
 40
0.8750000000000101
 40
0.9062500000000104
 40
0.9062500000000104
 40
0.9140625000000108
 40
0.9140625000000108
 40
0.9179687500000109
 40
0.9179687500000109
 40
0.9218750000000108
 40
0.9218750000000108
 40
0.9375000000000108
 40
0.9375000000000108
 40
0.9414062500000101
 40
0.9414062500000101
 40
0.9453125000000094
 40
0.9453125000000094
 40
0.9531250000000081
 40
0.9531250000000081
 40
0.9609375000000068
 40
0.9609375000000068
 40
0.9687500000000054
 40
0.9687500000000054
 40
0.976562500000004
 40
0.976562500000004
 40
0.9843750000000027
 40
0.9843750000000027
 40
0.9921875000000013
 40
0.9921875000000013
 40
1.0
 40
1.0
 40
1.0
 40
1.0
 10
380.433716571539
 20
598.6913564393747
 30
0.0
 10
399.3553815677114
 20
598.5504037172607
 30
0.0
 10
418.2772181129349
 20
598.4098201158446
 30
0.0
 10
446.6598048674626
 20
598.2020641467268
 30
0.0
 10
456.1206430507328
 20
598.1333155482158
 30
0.0
 10
470.3118190104144
 20
598.0313294553151
 30
0.0
 10
475.044214755129
 20
597.997512973079
 30
0.0
 10
480.9542258688048
 20
597.9554655819531
 30
0.0
 10
482.1356451534596
 20
597.9470719803688
 30
0.0
 10
483.6089067486819
 20
597.9366091517381
 30
0.0
 10
483.9041192137202
 20
597.9345115114769
 30
0.0
 10
484.3538737977454
 20
597.9313255310639
 30
0.0
 10
484.5047992776506
 20
597.9302585883394
 30
0.0
 10
484.8080685541909
 20
597.9281275917218
 30
0.0
 10
484.959644494171
 20
597.9270689578483
 30
0.0
 10
485.6942188939548
 20
597.9219310833901
 30
0.0
 10
486.2302644596224
 20
597.9180116995456
 30
0.0
 10
486.8232400804759
 20
597.9143385138225
 30
0.0
 10
486.9372767365971
 20
597.9136816041425
 30
0.0
 10
487.1678699721215
 20
597.9124257919165
 30
0.0
 10
487.2830826060897
 20
597.9118339963645
 30
0.0
 10
487.6280727001903
 20
597.9101224153527
 30
0.0
 10
487.8573968716429
 20
597.9090349551798
 30
0.0
 10
488.3055451908473
 20
597.907157099017
 30
0.0
 10
488.5250437486788
 20
597.9063781854783
 30
0.0
 10
488.9443649747379
 20
597.9052810286673
 30
0.0
 10
489.1439078025205
 20
597.904958652166
 30
0.0
 10
489.5232291939885
 20
597.9048907606764
 30
0.0
 10
489.7041447571195
 20
597.9051483160962
 30
0.0
 10
490.0509519933346
 20
597.9062744515775
 30
0.0
 10
490.2154233350081
 20
597.9071319760842
 30
0.0
 10
490.5192031203277
 20
597.9095088754913
 30
0.0
 10
490.6589615391924
 20
597.9110442148615
 30
0.0
 10
490.9137671424027
 20
597.9149389807507
 30
0.0
 10
491.0295181997958
 20
597.9173019128624
 30
0.0
 10
491.1349330716126
 20
597.9204230036428
 30
0.0
  0
SPLINE
  5
146
330
1F
100
AcDbEntity
  8
0
  6
Continuous
 62
     8
370
     0
100
AcDbSpline
210
0.0
220
0.0
230
1.0
 70
     8
 71
     3
 72
    14
 73
    10
 74
     0
 42
0.00000001
 43
0.00000001
 40
0.0
 40
0.0
 40
0.0
 40
0.0
 40
0.25
 40
0.25
 40
0.5
 40
0.5
 40
0.75
 40
0.75
 40
1.0
 40
1.0
 40
1.0
 40
1.0
 10
491.1347786683255
 20
597.92045087656
 30
0.0
 10
491.2762756638945
 20
597.9075336659247
 30
0.0
 10
491.4254735664974
 20
597.8672472860366
 30
0.0
 10
491.7107919117081
 20
597.7222246944677
 30
0.0
 10
491.8462117141394
 20
597.6172915914316
 30
0.0
 10
492.0714504098462
 20
597.3583957929711
 30
0.0
 10
492.1607147445137
 20
597.2050702350241
 30
0.0
 10
492.2795661904527
 20
596.8855167699074
 30
0.0
 10
492.3093939624994
 20
596.7200370980877
 30
0.0
 10
492.3146068183698
 20
596.5642823085384
 30
0.0
  0
SPLINE
  5
147
330
1F
100
AcDbEntity
  8
0
  6
Continuous
 62
     8
370
     0
100
AcDbSpline
210
0.0
220
0.0
230
1.0
 70
     8
 71
     3
 72
    22
 73
    18
 74
     0
 42
0.00000001
 43
0.00000001
 40
0.0
 40
0.0
 40
0.0
 40
0.0
 40
0.0003427189966796
 40
0.0316897729889909
 40
0.0485799481414578
 40
0.0666498180455713
 40
0.0868967698409786
 40
0.1089275295632566
 40
0.1329029199451284
 40
0.2271525059603346
 40
0.3258594069501199
 40
0.4253870120880047
 40
0.5260311155501951
 40
0.643038835353015
 40
0.7636417468146879
 40
0.882229986860817
 40
1.0
 40
1.0
 40
1.0
 40
1.0
 10
470.3341656055304
 20
598.4979111570492
 30
0.0
 10
470.3337288745409
 20
598.4979185345746
 30
0.0
 10
470.2933462110503
 20
598.4986007030911
 30
0.0
 10
470.4122097620411
 20
598.4966063890048
 30
0.0
 10
470.6024208117726
 20
598.4933615585784
 30
0.0
 10
470.8235764347455
 20
598.4895562822201
 30
0.0
 10
471.1073208954373
 20
598.4846261056522
 30
0.0
 10
471.4599436935889
 20
598.4784344586149
 30
0.0
 10
472.2731749549377
 20
598.4640020699474
 30
0.0
 10
473.7133148806216
 20
598.4378002494253
 30
0.0
 10
475.7890229448677
 20
598.3985568689628
 30
0.0
 10
477.9870971202134
 20
598.3553444017983
 30
0.0
 10
480.3646520416618
 20
598.3072083877331
 30
0.0
 10
482.9332796115838
 20
598.2514531330421
 30
0.0
 10
485.6605938288753
 20
598.1942145585398
 30
0.0
 10
488.4077496255595
 20
598.1188714188946
 30
0.0
 10
490.2278890494526
 20
597.9864279165703
 30
0.0
 10
491.1348082747313
 20
597.9204354124004
 30
0.0
  0
SPLINE
  5
148
330
1F
100
AcDbEntity
  8
0
  6
Continuous
 62
     8
370
     0
100
AcDbSpline
210
0.0
220
0.0
230
1.0
 70
     8
 71
     3
 72
    11
 73
     7
 74
     0
 42
0.00000001
 43
0.00000001
 40
0.0
 40
0.0
 40
0.0
 40
0.0
 40
0.2518064705406254
 40
0.5333310791774992
 40
0.7696071428809913
 40
1.0
 40
1.0
 40
1.0
 40
1.0
 10
491.6871496167037
 20
597.9444492739485
 30
0.0
 10
491.6857697555224
 20
597.9445545500686
 30
0.0
 10
491.6828471822805
 20
597.9447775269706
 30
0.0
 10
491.6985782779879
 20
597.9399797296096
 30
0.0
 10
491.6264624419795
 20
597.9319760266316
 30
0.0
 10
491.2972100485783
 20
597.9242526998835
 30
0.0
 10
491.1346592631194
 20
597.9204397197673
 30
0.0
  0
SPLINE
  5
149
330
1F
100
AcDbEntity
  8
0
  6
Continuous
 62
     8
370
    15
100
AcDbSpline
210
0.0
220
0.0
230
1.0
 70
     8
 71
     3
 72
    16
 73
    12
 74
     0
 42
0.00000001
 43
0.00000001
 40
0.0
 40
0.0
 40
0.0
 40
0.0
 40
0.1250000000000015
 40
0.1250000000000015
 40
0.2500000000000029
 40
0.2500000000000029
 40
0.500000000000002
 40
0.500000000000002
 40
0.750000000000001
 40
0.750000000000001
 40
1.0
 40
1.0
 40
1.0
 40
1.0
 10
381.5480209295721
 20
637.5899572147655
 30
0.0
 10
381.5480209295721
 20
637.4984867256243
 30
0.0
 10
381.5694275112131
 20
637.4089874663847
 30
0.0
 10
381.6393345085987
 20
637.2491191840551
 30
0.0
 10
381.688163833995
 20
637.1763379276658
 30
0.0
 10
381.8513371094834
 20
636.985239555593
 30
0.0
 10
381.9800619112062
 20
636.8909166713589
 30
0.0
 10
382.2493785952589
 20
636.7388023684944
 30
0.0
 10
382.3884033937853
 20
636.6834445119066
 30
0.0
 10
382.6687309995801
 20
636.6071273751508
 30
0.0
 10
382.8075189600139
 20
636.5869572147656
 30
0.0
 10
382.9442925956318
 20
636.5869572147656
 30
0.0
  0
SPLINE
  5
14A
330
1F
100
AcDbEntity
  8
0
  6
Continuous
 62
     8
370
    15
100
AcDbSpline
210
0.0
220
0.0
230
1.0
 70
     8
 71
     3
 72
    18
 73
    14
 74
     0
 42
0.00000001
 43
0.00000001
 40
0.0
 40
0.0
 40
0.0
 40
0.0
 40
0.25
 40
0.25
 40
0.5
 40
0.5
 40
0.625
 40
0.625
 40
0.75
 40
0.75
 40
0.875
 40
0.875
 40
1.0
 40
1.0
 40
1.0
 40
1.0
 10
382.9442925956318
 20
642.6049572147655
 30
0.0
 10
382.8075887247475
 20
642.6049572147655
 30
0.0
 10
382.6682154478947
 20
642.5846843162725
 30
0.0
 10
382.3880525434379
 20
642.5083366676173
 30
0.0
 10
382.2486913002113
 20
642.4528011067595
 30
0.0
 10
382.0467661260248
 20
642.3386344499003
 30
0.0
 10
381.9813001274039
 20
642.2956993474656
 30
0.0
 10
381.8557299557597
 20
642.1971812254137
 30
0.0
 10
381.7952069324211
 20
642.1411201763232
 30
0.0
 10
381.6879424834522
 20
642.0151324586991
 30
0.0
 10
381.6397885148049
 20
641.9437059696088
 30
0.0
 10
381.5693174581207
 20
641.7828021940093
 30
0.0
 10
381.5480209295721
 20
641.6934040879718
 30
0.0
 10
381.5480209295721
 20
641.6019572147655
 30
0.0
  0
LINE
  5
14B
330
1F
100
AcDbEntity
  8
0
  6
Continuous
 62
     8
370
    15
100
AcDbLine
 10
381.548021796
 20
641.6019567303
 30
0.0
 11
381.548021796
 21
637.5899569146
 31
0.0
  0
LINE
  5
14C
330
1F
100
AcDbEntity
  8
0
  6
Continuous
 62
     8
370
     0
100
AcDbLine
 10
383.3216138806
 20
621.0171741448
 30
0.0
 11
383.3216138806
 21
626.9814402811
 31
0.0
  0
LINE
  5
14D
330
1F
100
AcDbEntity
  8
0
  6
Continuous
 62
     8
370
     0
100
AcDbLine
 10
382.719813722
 20
625.806830173
 30
0.0
 11
382.5404894229
 21
625.806830173
 31
0.0
  0
LINE
  5
14E
330
1F
100
AcDbEntity
  8
0
  6
Continuous
 62
     8
370
     0
100
AcDbLine
 10
382.5404894229
 20
622.191784253
 30
0.0
 11
382.719813722
 21
622.191784253
 31
0.0
  0
SPLINE
  5
14F
330
1F
100
AcDbEntity
  8
0
  6
Continuous
 62
     7
370
    15
100
AcDbSpline
210
0.0
220
0.0
230
1.0
 70
     8
 71
     3
 72
    15
 73
    11
 74
     0
 42
0.00000001
 43
0.00000001
 40
0.0
 40
0.0
 40
0.0
 40
0.0
 40
0.050143075720466
 40
0.0688807040067509
 40
0.0816935921605347
 40
0.0963953940605666
 40
0.1209927692727662
 40
0.1774972006686292
 40
0.3720817171265805
 40
1.0
 40
1.0
 40
1.0
 40
1.0
 10
212.3666886711846
 20
369.6421284615495
 30
0.0
 10
212.3741148058327
 20
369.6464408520767
 30
0.0
 10
212.3843159627275
 20
369.6523647107791
 30
0.0
 10
212.3949197094845
 20
369.6582958536544
 30
0.0
 10
212.3990126153649
 20
369.6605798035723
 30
0.0
 10
212.4018419314237
 20
369.6621459104396
 30
0.0
 10
212.4044534646301
 20
369.6635933479884
 30
0.0
 10
212.4066428897561
 20
369.6647940791886
 30
0.0
 10
212.4047999396648
 20
369.6637762156473
 30
0.0
 10
212.3840856800904
 20
369.6524920709407
 30
0.0
 10
212.3682719195615
 20
369.6438774853446
 30
0.0
  0
SPLINE
  5
150
330
1F
100
AcDbEntity
  8
0
  6
Continuous
 62
     7
370
    15
100
AcDbSpline
210
0.0
220
0.0
230
1.0
 70
     8
 71
     3
 72
    10
 73
     6
 74
     0
 42
0.00000001
 43
0.00000001
 40
0.0
 40
0.0
 40
0.0
 40
0.0
 40
0.4287412168964164
 40
0.8648121725055844
 40
1.0
 40
1.0
 40
1.0
 40
1.0
 10
219.2433976108562
 20
370.7000550269582
 30
0.0
 10
219.2879717714617
 20
371.5991362802073
 30
0.0
 10
219.3778821303256
 20
373.4126694354981
 30
0.0
 10
219.7432027600645
 20
375.4423699194017
 30
0.0
 10
220.1192282170788
 20
376.4612158320538
 30
0.0
 10
220.2082142705451
 20
376.7023247122266
 30
0.0
  0
SPLINE
  5
151
330
1F
100
AcDbEntity
  8
0
  6
Continuous
 62
     7
370
    15
100
AcDbSpline
210
0.0
220
0.0
230
1.0
 70
     8
 71
     3
 72
    10
 73
     6
 74
     0
 42
0.00000001
 43
0.00000001
 40
0.0
 40
0.0
 40
0.0
 40
0.0
 40
0.1287793469275887
 40
0.5681053841194884
 40
1.0
 40
1.0
 40
1.0
 40
1.0
 10
182.4790273333322
 20
376.6659938185908
 30
0.0
 10
182.5632105218494
 20
376.4375402530389
 30
0.0
 10
182.934581582427
 20
375.4297256949768
 30
0.0
 10
183.2968442827429
 20
373.4128353297648
 30
0.0
 10
183.3874910573599
 20
371.5991583025957
 30
0.0
 10
183.4324278409015
 20
370.7000550269582
 30
0.0
  0
SPLINE
  5
152
330
1F
100
AcDbEntity
  8
0
  6
Continuous
 62
     7
370
    15
100
AcDbSpline
210
0.0
220
0.0
230
1.0
 70
     8
 71
     3
 72
    34
 73
    30
 74
     0
 42
0.00000001
 43
0.00000001
 40
0.0
 40
0.0
 40
0.0
 40
0.0
 40
0.029027604424406
 40
0.053870899373071
 40
0.0744420999739812
 40
0.0909293947967384
 40
0.1032525829404093
 40
0.1134742058250789
 40
0.124096644948162
 40
0.1351181167169339
 40
0.1455845987350415
 40
0.1543333217054913
 40
0.1707265646527492
 40
0.1898654951077031
 40
0.2123943502843844
 40
0.242523256118835
 40
0.2729554983968714
 40
0.3800602218531095
 40
0.4127115067194775
 40
0.4492164587055048
 40
0.4913689199714649
 40
0.5391551653478642
 40
0.592573862006471
 40
0.6516326372026103
 40
0.7124817052609913
 40
0.7783421915108057
 40
0.8492140037339877
 40
0.9250963325756142
 40
1.0
 40
1.0
 40
1.0
 40
1.0
 10
201.3400805624344
 20
256.424403974364
 30
0.0
 10
202.5794529537948
 20
256.4237715314271
 30
0.0
 10
204.8795430475059
 20
256.4225978117734
 30
0.0
 10
208.0605727198565
 20
256.4510693334987
 30
0.0
 10
210.6975331803043
 20
256.3747581168888
 30
0.0
 10
212.8228180501772
 20
256.545770807631
 30
0.0
 10
214.3796584062074
 20
257.1913245072992
 30
0.0
 10
215.5710511049178
 20
257.9643438672284
 30
0.0
 10
216.564321876102
 20
258.9042786350252
 30
0.0
 10
217.3588152573398
 20
260.0292448115399
 30
0.0
 10
217.8916049046885
 20
261.2085487948052
 30
0.0
 10
218.2832771511735
 20
262.6843307382393
 30
0.0
 10
218.2795709817335
 20
264.5885051223361
 30
0.0
 10
218.3171239215322
 20
267.0619217147635
 30
0.0
 10
218.3420582889232
 20
270.1296185686227
 30
0.0
 10
218.3705919459102
 20
273.6770228685805
 30
0.0
 10
218.4323969793476
 20
280.8369248099976
 30
0.0
 10
218.4953317224647
 20
288.1040290232087
 30
0.0
 10
218.5610417666531
 20
295.6306475532176
 30
0.0
 10
218.6030123448733
 20
300.3836820816898
 30
0.0
 10
218.6510856376637
 20
305.7830021368663
 30
0.0
 10
218.7059275460227
 20
311.9045578520087
 30
0.0
 10
218.7676054552784
 20
318.748033378475
 30
0.0
 10
218.8347852851569
 20
326.1493044811052
 30
0.0
 10
218.9071753236076
 20
334.0818528746399
 30
0.0
 10
218.9844884488572
 20
342.5188303158587
 30
0.0
 10
219.0679032542902
 20
351.5977452385861
 30
0.0
 10
219.1549646284162
 20
361.0628145842507
 30
0.0
 10
219.2140403077235
 20
367.5015690930996
 30
0.0
 10
219.2433864349853
 20
370.7000513016679
 30
0.0
  0
SPLINE
  5
153
330
1F
100
AcDbEntity
  8
0
  6
Continuous
 62
     7
370
    15
100
AcDbSpline
210
0.0
220
0.0
230
1.0
 70
     8
 71
     3
 72
    39
 73
    35
 74
     0
 42
0.00000001
 43
0.00000001
 40
0.0
 40
0.0
 40
0.0
 40
0.0
 40
0.0735013765171762
 40
0.146871161843135
 40
0.2141202697922068
 40
0.2752480093268386
 40
0.3302543484941973
 40
0.3791388222741645
 40
0.4196213472561143
 40
0.4549596480885388
 40
0.4898006147614062
 40
0.5257374680754141
 40
0.5627638623849178
 40
0.5988190277494082
 40
0.6358347836914293
 40
0.6738440604561952
 40
0.7124601746026866
 40
0.7475289089988805
 40
0.7778694932962671
 40
0.7938021417596972
 40
0.8081295052809789
 40
0.8209318419890395
 40
0.834509822143196
 40
0.8503656248457274
 40
0.8607049422002726
 40
0.8700302994120815
 40
0.8787587855725086
 40
0.8918271192368532
 40
0.900543002814395
 40
0.9107020963784902
 40
0.922221620500273
 40
0.934864987286585
 40
0.964692993130255
 40
1.0
 40
1.0
 40
1.0
 40
1.0
 10
183.4324390167724
 20
370.7000513016679
 30
0.0
 10
183.4612349321007
 20
367.561400979697
 30
0.0
 10
183.5187752087731
 20
361.2897195330308
 30
0.0
 10
183.602878040639
 20
352.146373650381
 30
0.0
 10
183.6820378188723
 20
343.531405014561
 30
0.0
 10
183.7538291744495
 20
335.7005892910929
 30
0.0
 10
183.8182056699679
 20
328.6539767964433
 30
0.0
 10
183.8742873796375
 20
322.4889528397337
 30
0.0
 10
183.9224968147768
 20
317.1637904892449
 30
0.0
 10
183.9650726924212
 20
312.4383117594262
 30
0.0
 10
184.0057191266363
 20
307.9069406466119
 30
0.0
 10
184.0468476014239
 20
303.3034830896963
 30
0.0
 10
184.0881761851304
 20
298.6481745083679
 30
0.0
 10
184.129554315654
 20
293.9467912819766
 30
0.0
 10
184.1708238022516
 20
289.2034333052293
 30
0.0
 10
184.2128112943909
 20
284.3507133816394
 30
0.0
 10
184.2541257118249
 20
279.5811434698962
 30
0.0
 10
184.2928895209693
 20
275.139019518304
 30
0.0
 10
184.3213169574443
 20
271.6655881662198
 30
0.0
 10
184.3428530742393
 20
269.0777155739881
 30
0.0
 10
184.3560137673507
 20
267.2391405585311
 30
0.0
 10
184.3908457311748
 20
265.5000900325198
 30
0.0
 10
184.3691643384815
 20
263.7002324672947
 30
0.0
 10
184.5080369579351
 20
261.9918342758294
 30
0.0
 10
185.0493083475589
 20
260.5664585603059
 30
0.0
 10
185.6555351138979
 20
259.5141001346424
 30
0.0
 10
186.5033381489561
 20
258.4867767948598
 30
0.0
 10
187.521615470638
 20
257.6538527652596
 30
0.0
 10
188.7229637180415
 20
257.0007201266687
 30
0.0
 10
189.9550146482229
 20
256.5664848558432
 30
0.0
 10
191.4200414213833
 20
256.3895886617493
 30
0.0
 10
193.725544318487
 20
256.4549501083091
 30
0.0
 10
197.0466458569467
 20
256.4213797925782
 30
0.0
 10
199.8280569535207
 20
256.4233409251787
 30
0.0
 10
201.3357453165584
 20
256.424403974364
 30
0.0
  0
SPLINE
  5
154
330
1F
100
AcDbEntity
  8
0
  6
Continuous
 62
     7
370
    15
100
AcDbSpline
210
0.0
220
0.0
230
1.0
 70
     8
 71
     3
 72
     9
 73
     5
 74
     0
 42
0.00000001
 43
0.00000001
 40
0.0
 40
0.0
 40
0.0
 40
0.0
 40
0.1639557201321372
 40
1.0
 40
1.0
 40
1.0
 40
1.0
 10
182.6505005831252
 20
376.3875153302648
 30
0.0
 10
182.656159181549
 20
376.3715119855119
 30
0.0
 10
182.6906721489478
 20
376.2739042610606
 30
0.0
 10
182.7178533853381
 20
376.1671633475415
 30
0.0
 10
182.740578102542
 20
376.0779232173659
 30
0.0
  0
ARC
  5
155
330
1F
100
AcDbEntity
  8
0
  6
Continuous
 62
     7
370
    15
100
AcDbCircle
 10
197.827412936
 20
432.6740360854
 30
0.0
 40
0.501499999999993
100
AcDbArc
 50
180.0
 51
270.0
  0
ARC
  5
156
330
1F
100
AcDbEntity
  8
0
  6
Continuous
 62
     7
370
    15
100
AcDbCircle
 10
204.848412936
 20
432.6740360854
 30
0.0
 40
0.5014999999999645
100
AcDbArc
 50
270.0
 51
0.0
  0
ARC
  5
157
330
1F
100
AcDbEntity
  8
0
  6
Continuous
 62
     7
370
    15
100
AcDbCircle
 10
204.346912936
 20
451.2295360854
 30
0.0
 40
1.003000000000014
100
AcDbArc
 50
360.0
 51
90.0
  0
ARC
  5
158
330
1F
100
AcDbEntity
  8
0
  6
Continuous
 62
     7
370
    15
100
AcDbCircle
 10
198.328912936
 20
451.2295360854
 30
0.0
 40
1.0030000000001
100
AcDbArc
 50
90.0
 51
180.0
  0
LINE
  5
159
330
1F
100
AcDbEntity
  8
0
  6
Continuous
 62
     7
370
    15
100
AcDbLine
 10
205.3499130072
 20
432.6740347236
 30
0.0
 11
205.3499130072
 21
451.2295343369
 31
0.0
  0
LINE
  5
15A
330
1F
100
AcDbEntity
  8
0
  6
Continuous
 62
     7
370
    15
100
AcDbLine
 10
197.3259129102
 20
451.2295343369
 30
0.0
 11
197.3259129102
 21
432.6740347236
 31
0.0
  0
LINE
  5
15B
330
1F
100
AcDbEntity
  8
0
  6
Continuous
 62
     7
370
    15
100
AcDbLine
 10
203.3439128666
 20
424.6324442714
 30
0.0
 11
203.3439128666
 21
432.1725361436
 31
0.0
  0
LINE
  5
15C
330
1F
100
AcDbEntity
  8
0
  6
Continuous
 62
     7
370
    15
100
AcDbLine
 10
199.3319130509
 20
432.1725361436
 30
0.0
 11
199.3319130509
 21
424.6324442714
 31
0.0
  0
LINE
  5
15D
330
1F
100
AcDbEntity
  8
0
  6
Continuous
 62
     7
370
    15
100
AcDbLine
 10
199.3319130509
 20
424.6324442714
 30
0.0
 11
199.3319130509
 21
412.8865331798
 31
0.0
  0
LINE
  5
15E
330
1F
100
AcDbEntity
  8
0
  6
Continuous
 62
     7
370
    15
100
AcDbLine
 10
203.3439128666
 20
412.8865331798
 30
0.0
 11
203.3439128666
 21
424.6324442714
 31
0.0
  0
CIRCLE
  5
15F
330
1F
100
AcDbEntity
  8
0
  6
Continuous
 62
     7
370
    15
100
AcDbCircle
 10
201.337912936
 20
389.904916121
 30
0.0
 40
23.06900000000002
  0
ARC
  5
160
330
1F
100
AcDbEntity
  8
0
  6
Continuous
 62
     7
370
    15
100
AcDbCircle
 10
213.373912936
 20
367.9074087849
 30
0.0
 40
2.005999999999972
100
AcDbArc
 50
118.6854020141
 51
180.0
  0
ARC
  5
161
330
1F
100
AcDbEntity
  8
0
  6
Continuous
 62
     7
370
    15
100
AcDbCircle
 10
189.301912936
 20
367.9074087849
 30
0.0
 40
2.006
100
AcDbArc
 50
0.0
 51
61.3145979859
  0
LINE
  5
162
330
1F
100
AcDbEntity
  8
0
  6
Continuous
 62
     7
370
    15
100
AcDbLine
 10
191.3079131866
 20
317.6889188975
 30
0.0
 11
191.3079131866
 21
367.9074079185
 31
0.0
  0
LINE
  5
163
330
1F
100
AcDbEntity
  8
0
  6
Continuous
 62
     7
370
    15
100
AcDbLine
 10
211.3679131965
 20
367.9074079185
 30
0.0
 11
211.3679131965
 21
317.6889188975
 31
0.0
  0
ARC
  5
164
330
1F
100
AcDbEntity
  8
0
  6
Continuous
 62
     7
370
    15
100
AcDbCircle
 10
196.322912936
 20
317.688916121
 30
0.0
 40
5.014999999999986
100
AcDbArc
 50
180.0
 51
270.0
  0
ARC
  5
165
330
1F
100
AcDbEntity
  8
0
  6
Continuous
 62
     7
370
    15
100
AcDbCircle
 10
206.352912936
 20
317.688916121
 30
0.0
 40
5.015000000000015
100
AcDbArc
 50
270.0
 51
0.0
  0
LINE
  5
166
330
1F
100
AcDbEntity
  8
0
  6
Continuous
 62
     7
370
    15
100
AcDbLine
 10
206.3529129612
 20
312.6739181965
 30
0.0
 11
196.3229129563
 21
312.6739181965
 31
0.0
  0
SPLINE
  5
167
330
1F
100
AcDbEntity
  8
0
  6
Continuous
 62
     7
370
    15
100
AcDbSpline
210
0.0
220
0.0
230
1.0
 70
     8
 71
     3
 72
    24
 73
    20
 74
     0
 42
0.00000001
 43
0.00000001
 40
0.0
 40
0.0
 40
0.0
 40
0.0
 40
0.0118303250041638
 40
0.1129490210535622
 40
0.1644901600726869
 40
0.2138195141363909
 40
0.3132834373087832
 40
0.3634863976653508
 40
0.4652697363636334
 40
0.5167843833360459
 40
0.5688980207784273
 40
0.6238381579678265
 40
0.6791373871406379
 40
0.7355770324593256
 40
0.7924166230246695
 40
0.8434983265392291
 40
0.8948888866467581
 40
0.9472690849008218
 40
1.0
 40
1.0
 40
1.0
 40
1.0
 10
212.404898973776
 20
369.6638543545701
 30
0.0
 10
212.4043500767484
 20
369.6635544475413
 30
0.0
 10
212.3991095290961
 20
369.6606911107098
 30
0.0
 10
212.3584829605525
 20
369.63847939624
 30
0.0
 10
212.2844426359914
 20
369.5984149977427
 30
0.0
 10
212.1895110906644
 20
369.5474287892489
 30
0.0
 10
212.0666682544868
 20
369.4822842379663
 30
0.0
 10
211.8781543455825
 20
369.3842910380295
 30
0.0
 10
211.6991525325868
 20
369.2931551880164
 30
0.0
 10
211.4952095404799
 20
369.1921493573878
 30
0.0
 10
211.3262875667259
 20
369.110112600018
 30
0.0
 10
211.142159068682
 20
369.0226104874361
 30
0.0
 10
210.9423885206802
 20
368.9299338968243
 30
0.0
 10
210.7305144249116
 20
368.8341602549433
 30
0.0
 10
210.5154980655717
 20
368.7396356424919
 30
0.0
 10
210.3005876655704
 20
368.6477563408326
 30
0.0
 10
210.0867921834813
 20
368.5588888009029
 30
0.0
 10
209.8670437050199
 20
368.4699676970015
 30
0.0
 10
209.7176824758088
 20
368.4118135630055
 30
0.0
 10
209.642752679659
 20
368.382639476607
 30
0.0
  0
SPLINE
  5
168
330
1F
100
AcDbEntity
  8
0
  6
Continuous
 62
     7
370
    15
100
AcDbSpline
210
0.0
220
0.0
230
1.0
 70
     8
 71
     3
 72
     9
 73
     5
 74
     0
 42
0.00000001
 43
0.00000001
 40
0.0
 40
0.0
 40
0.0
 40
0.0
 40
0.9084114630499637
 40
1.0
 40
1.0
 40
1.0
 40
1.0
 10
201.3373706427644
 20
256.6106386869647
 30
0.0
 10
201.3364885719602
 20
256.5095712379008
 30
0.0
 10
201.3355175683565
 20
256.3983138912305
 30
0.0
 10
201.3358235983292
 20
256.4333676963353
 30
0.0
 10
201.3358516271667
 20
256.4365782230594
 30
0.0
  0
LINE
  5
169
330
1F
100
AcDbEntity
  8
0
  6
Continuous
 62
     7
370
    15
100
AcDbLine
 10
201.337912936
 20
432.1725361436
 30
0.0
 11
197.8274128871
 21
432.1725361436
 31
0.0
  0
LINE
  5
16A
330
1F
100
AcDbEntity
  8
0
  6
Continuous
 62
     7
370
    15
100
AcDbLine
 10
204.8484130303
 20
432.1725361436
 30
0.0
 11
201.337912936
 21
432.1725361436
 31
0.0
  0
LINE
  5
16B
330
1F
100
AcDbEntity
  8
0
  6
Continuous
 62
     7
370
    15
100
AcDbLine
 10
201.337912936
 20
452.2325352221
 30
0.0
 11
204.3469128205
 21
452.2325352221
 31
0.0
  0
LINE
  5
16C
330
1F
100
AcDbEntity
  8
0
  6
Continuous
 62
     7
370
    15
100
AcDbLine
 10
198.3289128641
 20
452.2325352221
 30
0.0
 11
201.337912936
 21
452.2325352221
 31
0.0
  0
CIRCLE
  5
16D
330
1F
100
AcDbEntity
  8
0
  6
Continuous
 62
     8
370
     0
100
AcDbCircle
 10
201.337912936
 20
389.904916121
 30
0.0
 40
21.56449999999998
  0
LWPOLYLINE
  5
16E
330
1F
100
AcDbEntity
  8
0
  6
Continuous
 62
     8
370
     0
100
AcDbPolyline
 90
        9
 70
   128
 43
0.0
 10
210.3649132425
 20
366.5111374497
 10
210.2240264887
 20
366.8762494266
 10
210.0885544444
 20
367.2273300975
 10
209.9637022714
 20
367.5508883237
 10
209.8542690749
 20
367.8344890862
 10
209.764458845
 20
368.0672340482
 10
209.6977239946
 20
368.2401806503
 10
209.656629386
 20
368.3466792494
 10
209.6427526797
 20
368.3826394766
  0
LWPOLYLINE
  5
16F
330
1F
100
AcDbEntity
  8
0
  6
Continuous
 62
     8
370
     0
100
AcDbPolyline
 90
        9
 70
   128
 43
0.0
 10
192.3109131405
 20
366.5111374497
 10
192.451798963
 20
366.8762494266
 10
192.5872719387
 20
367.2273300975
 10
192.7121231804
 20
367.5508883237
 10
192.8215573082
 20
367.8344890862
 10
192.9113666067
 20
368.0672340482
 10
192.9781014571
 20
368.2401806503
 10
193.0191969971
 20
368.3466792494
 10
193.0330727721
 20
368.3826394766
  0
LINE
  5
170
330
1F
100
AcDbEntity
  8
0
  6
Continuous
 62
     8
370
     0
100
AcDbLine
 10
192.3109131405
 20
366.5111374497
 30
0.0
 11
192.3109131405
 21
317.6889188975
 31
0.0
  0
ARC
  5
171
330
1F
100
AcDbEntity
  8
0
  6
Continuous
 62
     8
370
     0
100
AcDbCircle
 10
206.352912936
 20
317.688916121
 30
0.0
 40
4.012
100
AcDbArc
 50
270.0
 51
0.0
  0
LINE
  5
172
330
1F
100
AcDbEntity
  8
0
  6
Continuous
 62
     8
370
     0
100
AcDbLine
 10
196.3229129563
 20
313.6769153565
 30
0.0
 11
206.3529129612
 21
313.6769153565
 31
0.0
  0
ARC
  5
173
330
1F
100
AcDbEntity
  8
0
  6
Continuous
 62
     8
370
     0
100
AcDbCircle
 10
196.322912936
 20
317.688916121
 30
0.0
 40
4.012
100
AcDbArc
 50
180.0
 51
270.0
  0
LINE
  5
174
330
1F
100
AcDbEntity
  8
0
  6
Continuous
 62
     8
370
     0
100
AcDbLine
 10
210.3649132425
 20
317.6889188975
 30
0.0
 11
210.3649132425
 21
366.5111374497
 31
0.0
  0
SPLINE
  5
175
330
1F
100
AcDbEntity
  8
0
  6
Continuous
 62
     8
370
     0
100
AcDbSpline
210
0.0
220
0.0
230
1.0
 70
     8
 71
     3
 72
    10
 73
     6
 74
     0
 42
0.00000001
 43
0.00000001
 40
0.0
 40
0.0
 40
0.0
 40
0.0
 40
0.3659698955256543
 40
0.7345894239624761
 40
1.0
 40
1.0
 40
1.0
 40
1.0
 10
219.0989029134046
 20
370.7000513016679
 30
0.0
 10
219.1312336478184
 20
371.4457477841927
 30
0.0
 10
219.1961291921232
 20
372.9425396139196
 30
0.0
 10
219.5654823844716
 20
374.9577228681078
 30
0.0
 10
219.9816719549994
 20
376.1814446324522
 30
0.0
 10
220.1558925683032
 20
376.6937053217985
 30
0.0
  0
SPLINE
  5
176
330
1F
100
AcDbEntity
  8
0
  6
Continuous
 62
     8
370
     0
100
AcDbSpline
210
0.0
220
0.0
230
1.0
 70
     8
 71
     3
 72
    10
 73
     6
 74
     0
 42
0.00000001
 43
0.00000001
 40
0.0
 40
0.0
 40
0.0
 40
0.0
 40
0.372469881827463
 40
0.7476366070582957
 40
1.0
 40
1.0
 40
1.0
 40
1.0
 10
183.5769188130628
 20
370.7000550269582
 30
0.0
 10
183.5444328603155
 20
371.4457054900342
 30
0.0
 10
183.4792257424409
 20
372.942405248765
 30
0.0
 10
183.1184107792743
 20
374.9230419020628
 30
0.0
 10
182.7145939485449
 20
376.1133540356431
 30
0.0
 10
182.5521976227294
 20
376.5920421495535
 30
0.0
  0
SPLINE
  5
177
330
1F
100
AcDbEntity
  8
0
  6
Continuous
 62
     8
370
     0
100
AcDbSpline
210
0.0
220
0.0
230
1.0
 70
     8
 71
     3
 72
    34
 73
    30
 74
     0
 42
0.00000001
 43
0.00000001
 40
0.0
 40
0.0
 40
0.0
 40
0.0
 40
0.0078125000000001
 40
0.0078125000000001
 40
0.0156250000000002
 40
0.0156250000000002
 40
0.0234375000000003
 40
0.0234375000000003
 40
0.0312500000000004
 40
0.0312500000000004
 40
0.0390625000000005
 40
0.0390625000000005
 40
0.0468750000000006
 40
0.0468750000000006
 40
0.0546875000000007
 40
0.0546875000000007
 40
0.0625000000000007
 40
0.0625000000000007
 40
0.078125000000001
 40
0.078125000000001
 40
0.0937500000000012
 40
0.0937500000000012
 40
0.1250000000000012
 40
0.1250000000000012
 40
0.250000000000001
 40
0.250000000000001
 40
0.5000000000000006
 40
0.5000000000000006
 40
1.0
 40
1.0
 40
1.0
 40
1.0
 10
188.7172696403053
 20
257.1409494809204
 30
0.0
 10
188.4338788955029
 20
257.2695928819387
 30
0.0
 10
188.1700520977548
 20
257.4106605399159
 30
0.0
 10
187.6620023794212
 20
257.7225879347213
 30
0.0
 10
187.4164683883008
 20
257.8943767069315
 30
0.0
 10
186.9459271475899
 20
258.2695642320457
 30
0.0
 10
186.7204780844102
 20
258.4735914154326
 30
0.0
 10
186.2996570971199
 20
258.9066216292531
 30
0.0
 10
186.1053532454866
 20
259.1346056033487
 30
0.0
 10
185.7482601969027
 20
259.6141174127405
 30
0.0
 10
185.5852906278662
 20
259.8659533963786
 30
0.0
 10
185.2906314381071
 20
260.3924072424007
 30
0.0
 10
185.1594596214188
 20
260.6666207191104
 30
0.0
 10
184.9342079636305
 20
261.2238606826611
 30
0.0
 10
184.8389928905897
 20
261.5080607709677
 30
0.0
 10
184.6855399720555
 20
262.0888294240291
 30
0.0
 10
184.6285976026793
 20
262.3864503135277
 30
0.0
 10
184.5207053852996
 20
263.2879647496756
 30
0.0
 10
184.524901051007
 20
263.8909868930136
 30
0.0
 10
184.5258920135867
 20
265.0912596729586
 30
0.0
 10
184.5158109530444
 20
265.6911247871723
 30
0.0
 10
184.4930090894905
 20
267.4915575967109
 30
0.0
 10
184.4827589107587
 20
268.6917682855127
 30
0.0
 10
184.4337409034131
 20
274.6922352435323
 30
0.0
 10
184.3935988779818
 20
279.4923044834388
 30
0.0
 10
184.2708079191032
 20
293.8934364393914
 30
0.0
 10
184.1869554194544
 20
303.4941439852064
 30
0.0
 10
183.9300419538917
 20
332.296477592623
 30
0.0
 10
183.7526374659045
 20
351.498254789078
 30
0.0
 10
183.5769217044695
 20
370.7000541029022
 30
0.0
  0
SPLINE
  5
178
330
1F
100
AcDbEntity
  8
0
  6
Continuous
 62
     8
370
     0
100
AcDbSpline
210
0.0
220
0.0
230
1.0
 70
     8
 71
     3
 72
    32
 73
    28
 74
     0
 42
0.00000001
 43
0.00000001
 40
0.0
 40
0.0
 40
0.0
 40
0.0
 40
0.5000000000000003
 40
0.5000000000000003
 40
0.7500000000000004
 40
0.7500000000000004
 40
0.8750000000000006
 40
0.8750000000000006
 40
0.9062500000000004
 40
0.9062500000000004
 40
0.9218750000000007
 40
0.9218750000000007
 40
0.9375000000000011
 40
0.9375000000000011
 40
0.945312500000001
 40
0.945312500000001
 40
0.9531250000000009
 40
0.9531250000000009
 40
0.9609375000000008
 40
0.9609375000000008
 40
0.9687500000000007
 40
0.9687500000000007
 40
0.9765625000000006
 40
0.9765625000000006
 40
0.9843750000000004
 40
0.9843750000000004
 40
1.0
 40
1.0
 40
1.0
 40
1.0
 10
219.098901914448
 20
370.7000518463554
 30
0.0
 10
218.9234750812315
 20
351.5306970937247
 30
0.0
 10
218.746367642942
 20
332.3613647854622
 30
0.0
 10
218.4898517562694
 20
303.6076974250396
 30
0.0
 10
218.4061206077943
 20
294.02321441484
 30
0.0
 10
218.2835155347191
 20
279.6464139432013
 30
0.0
 10
218.2432017720029
 20
274.8544115427642
 30
0.0
 10
218.1945386469208
 20
268.8641387953286
 30
0.0
 10
218.1844214441684
 20
267.6659603631413
 30
0.0
 10
218.1624622044317
 20
265.8685462555007
 30
0.0
 10
218.1512564282041
 20
265.2697742906303
 30
0.0
 10
218.149532652725
 20
264.0707931113947
 30
0.0
 10
218.1597356881522
 20
263.469371762468
 30
0.0
 10
218.0746832796065
 20
262.573418337474
 30
0.0
 10
218.0280174864422
 20
262.2751185918391
 30
0.0
 10
217.8890690874926
 20
261.6827998384946
 30
0.0
 10
217.7982221266936
 20
261.3874790365638
 30
0.0
 10
217.5779988743411
 20
260.8056753926178
 30
0.0
 10
217.4497055478702
 20
260.5227558721936
 30
0.0
 10
217.159432881345
 20
259.9793535560348
 30
0.0
 10
216.9971397864716
 20
259.7178607006185
 30
0.0
 10
216.6357957135494
 20
259.215341144923
 30
0.0
 10
216.4358167413938
 20
258.9739298214637
 30
0.0
 10
216.0088785815672
 20
258.5239653995937
 30
0.0
 10
215.78196394971
 20
258.3149164449878
 30
0.0
 10
215.0643569223063
 20
257.7320113554944
 30
0.0
 10
214.53731245419
 20
257.4036721682175
 30
0.0
 10
213.9585565385835
 20
257.1409496202552
 30
0.0
  0
SPLINE
  5
179
330
1F
100
AcDbEntity
  8
0
  6
Continuous
 62
     8
370
     0
100
AcDbSpline
210
0.0
220
0.0
230
1.0
 70
     8
 71
     3
 72
    20
 73
    16
 74
     0
 42
0.00000001
 43
0.00000001
 40
0.0
 40
0.0
 40
0.0
 40
0.0
 40
0.1249999999999984
 40
0.1249999999999984
 40
0.1874999999999983
 40
0.1874999999999983
 40
0.2499999999999982
 40
0.2499999999999982
 40
0.312499999999998
 40
0.312499999999998
 40
0.3749999999999979
 40
0.3749999999999979
 40
0.4999999999999983
 40
0.4999999999999983
 40
1.0
 40
1.0
 40
1.0
 40
1.0
 10
213.9583136578387
 20
257.1408390285454
 30
0.0
 10
213.476199774814
 20
256.9220103903887
 30
0.0
 10
212.9722240412432
 20
256.756773347161
 30
0.0
 10
212.1992752215944
 20
256.5987923371076
 30
0.0
 10
211.9388767507568
 20
256.5612871577663
 30
0.0
 10
211.4063563578975
 20
256.5174211903219
 30
0.0
 10
211.139048196163
 20
256.5121621733105
 30
0.0
 10
210.6079339514736
 20
256.5111568837407
 30
0.0
 10
210.3444223532862
 20
256.513742351855
 30
0.0
 10
209.8147412853651
 20
256.5159981714016
 30
0.0
 10
209.5495478461468
 20
256.5168991550297
 30
0.0
 10
208.754548891526
 20
256.5190233645425
 30
0.0
 10
208.2258982475895
 20
256.5196722404355
 30
0.0
 10
205.5765148663876
 20
256.5204693664402
 30
0.0
 10
203.4584925422
 20
256.513053577549
 30
0.0
 10
201.3393069027643
 20
256.5130529062494
 30
0.0
  0
SPLINE
  5
17A
330
1F
100
AcDbEntity
  8
0
  6
Continuous
 62
     8
370
     0
100
AcDbSpline
210
0.0
220
0.0
230
1.0
 70
     8
 71
     3
 72
    20
 73
    16
 74
     0
 42
0.00000001
 43
0.00000001
 40
0.0
 40
0.0
 40
0.0
 40
0.0
 40
0.5000000000000007
 40
0.5000000000000007
 40
0.6250000000000009
 40
0.6250000000000009
 40
0.6875000000000009
 40
0.6875000000000009
 40
0.750000000000001
 40
0.750000000000001
 40
0.8125000000000011
 40
0.8125000000000011
 40
0.8750000000000011
 40
0.8750000000000011
 40
1.0
 40
1.0
 40
1.0
 40
1.0
 10
201.3365189691954
 20
256.5130529078666
 30
0.0
 10
199.2180335403582
 20
256.5130560351897
 30
0.0
 10
197.0982536207658
 20
256.5204608934481
 30
0.0
 10
194.4504400394805
 20
256.5196711133486
 30
0.0
 10
193.9208886867633
 20
256.5190201148666
 30
0.0
 10
193.1261328778393
 20
256.5168967356914
 30
0.0
 10
192.8611829252006
 20
256.5159972749723
 30
0.0
 10
192.331633529259
 20
256.513745223975
 30
0.0
 10
192.0673670135825
 20
256.5111571562414
 30
0.0
 10
191.5364526595
 20
256.5121757120583
 30
0.0
 10
191.2699609023584
 20
256.5173938893324
 30
0.0
 10
190.7367201361745
 20
256.5613071849824
 30
0.0
 10
190.4765065369301
 20
256.5988030719093
 30
0.0
 10
189.7033799440246
 20
256.7568286302571
 30
0.0
 10
189.1996534407041
 20
256.921999762278
 30
0.0
 10
188.7175299480395
 20
257.1408310557276
 30
0.0
  0
SPLINE
  5
17B
330
1F
100
AcDbEntity
  8
0
  6
Continuous
 62
     8
370
     0
100
AcDbSpline
210
0.0
220
0.0
230
1.0
 70
     8
 71
     3
 72
     9
 73
     5
 74
     0
 42
0.00000001
 43
0.00000001
 40
0.0
 40
0.0
 40
0.0
 40
0.0
 40
0.0015206947476973
 40
1.0
 40
1.0
 40
1.0
 40
1.0
 10
219.2431796813737
 20
370.7000550269582
 30
0.0
 10
219.2432511928339
 20
370.7000550269668
 30
0.0
 10
219.2902767121032
 20
370.7000550326405
 30
0.0
 10
219.1945188661724
 20
370.7000438454223
 30
0.0
 10
219.0989066386949
 20
370.7000326752164
 30
0.0
  0
SPLINE
  5
17C
330
1F
100
AcDbEntity
  8
0
  6
Continuous
 62
     8
370
     0
100
AcDbSpline
210
0.0
220
0.0
230
1.0
 70
     8
 71
     3
 72
     8
 73
     4
 74
     0
 42
0.00000001
 43
0.00000001
 40
0.0943514823238665
 40
0.0943514823238665
 40
0.0943514823238665
 40
0.0943514823238665
 40
0.4968095438122964
 40
0.4968095438122964
 40
0.4968095438122964
 40
0.4968095438122964
 10
183.4324321211
 20
370.7000541046369
 30
0.0
 10
183.4330130123537
 20
370.700047252176
 30
0.0
 10
183.4811755398047
 20
370.7000403971746
 30
0.0
 10
183.5769196337907
 20
370.7000335396331
 30
0.0
  0
LINE
  5
17D
330
1F
100
AcDbEntity
  8
0
  6
Continuous
 62
     8
370
     0
100
AcDbLine
 10
201.3358516272
 20
256.4365782231
 30
0.0
 11
201.3365189696
 21
256.5130509823
 31
0.0
  0
ENDSEC
  0
SECTION
  2
OBJECTS
  0
DICTIONARY
  5
C
330
0
100
AcDbDictionary
281
     1
  3
ACAD_GROUP
350
D
  3
ACAD_LAYOUT
350
1A
  3
ACAD_MATERIAL
350
3B
  3
ACAD_MLEADERSTYLE
350
17F
  3
ACAD_MLINESTYLE
350
17
  3
ACAD_PLOTSETTINGS
350
19
  3
ACAD_PLOTSTYLENAME
350
E
  3
ACAD_TABLESTYLE
350
17E
  3
ACAD_VISUALSTYLE
350
2A
  0
DICTIONARY
  5
D
102
{ACAD_REACTORS
330
C
102
}
330
C
100
AcDbDictionary
281
     1
  0
DICTIONARY
  5
1A
102
{ACAD_REACTORS
330
C
102
}
330
C
100
AcDbDictionary
281
     1
  3
Layout1
350
1E
  3
Layout2
350
26
  3
Model
350
22
  0
DICTIONARY
  5
3B
102
{ACAD_REACTORS
330
C
102
}
330
C
100
AcDbDictionary
281
     1
  3
ByBlock
350
3D
  3
ByLayer
350
3C
  3
Global
350
3E
  0
DICTIONARY
  5
17F
102
{ACAD_REACTORS
330
C
102
}
330
C
100
AcDbDictionary
281
     1
  0
DICTIONARY
  5
17
102
{ACAD_REACTORS
330
C
102
}
330
C
100
AcDbDictionary
281
     1
  3
Standard
350
18
  0
DICTIONARY
  5
19
102
{ACAD_REACTORS
330
C
102
}
330
C
100
AcDbDictionary
281
     1
  0
ACDBDICTIONARYWDFLT
  5
E
102
{ACAD_REACTORS
330
C
102
}
330
C
100
AcDbDictionary
281
     1
  3
Normal
350
F
100
AcDbDictionaryWithDefault
340
F
  0
DICTIONARY
  5
17E
102
{ACAD_REACTORS
330
C
102
}
330
C
100
AcDbDictionary
281
     1
  0
DICTIONARY
  5
2A
102
{ACAD_REACTORS
330
C
102
}
330
C
100
AcDbDictionary
281
     1
  3
2dWireframe
350
2F
  3
3D Hidden
350
31
  3
3dWireframe
350
30
  3
Basic
350
32
  3
Brighten
350
36
  3
ColorChange
350
3A
  3
Conceptual
350
34
  3
Dim
350
35
  3
Facepattern
350
39
  3
Flat
350
2B
  3
FlatWithEdges
350
2C
  3
Gouraud
350
2D
  3
GouraudWithEdges
350
2E
  3
Linepattern
350
38
  3
Realistic
350
33
  3
Thicken
350
37
  0
LAYOUT
  5
1E
102
{ACAD_REACTORS
330
1A
102
}
330
1A
100
AcDbPlotSettings
  1

  2
none_device
  4

  6

 40
0.0
 41
0.0
 42
0.0
 43
0.0
 44
0.0
 45
0.0
 46
0.0
 47
0.0
 48
0.0
 49
0.0
140
0.0
141
0.0
142
1.0
143
1.0
 70
   688
 72
     0
 73
     0
 74
     5
  7

 75
    16
 76
     0
 77
     2
 78
   300
147
1.0
148
0.0
149
0.0
100
AcDbLayout
  1
Layout1
 70
     1
 71
     1
 10
0.0
 20
0.0
 11
420.0
 21
297.0
 12
0.0
 22
0.0
 32
0.0
 14
1.0000000000E+20
 24
1.0000000000E+20
 34
1.0000000000E+20
 15
-1.0000000000E+20
 25
-1.0000000000E+20
 35
-1.0000000000E+20
146
0.0
 13
0.0
 23
0.0
 33
0.0
 16
1.0
 26
0.0
 36
0.0
 17
0.0
 27
1.0
 37
0.0
 76
     0
330
1B
  0
LAYOUT
  5
26
102
{ACAD_REACTORS
330
1A
102
}
330
1A
100
AcDbPlotSettings
  1

  2
none_device
  4

  6

 40
0.0
 41
0.0
 42
0.0
 43
0.0
 44
0.0
 45
0.0
 46
0.0
 47
0.0
 48
0.0
 49
0.0
140
0.0
141
0.0
142
1.0
143
1.0
 70
   688
 72
     0
 73
     0
 74
     5
  7

 75
    16
 76
     0
 77
     2
 78
   300
147
1.0
148
0.0
149
0.0
100
AcDbLayout
  1
Layout2
 70
     1
 71
     2
 10
0.0
 20
0.0
 11
0.0
 21
0.0
 12
0.0
 22
0.0
 32
0.0
 14
0.0
 24
0.0
 34
0.0
 15
0.0
 25
0.0
 35
0.0
146
0.0
 13
0.0
 23
0.0
 33
0.0
 16
1.0
 26
0.0
 36
0.0
 17
0.0
 27
1.0
 37
0.0
 76
     0
330
23
  0
LAYOUT
  5
22
102
{ACAD_REACTORS
330
1A
102
}
330
1A
100
AcDbPlotSettings
  1

  2
none_device
  4

  6

 40
0.0
 41
0.0
 42
0.0
 43
0.0
 44
0.0
 45
0.0
 46
0.0
 47
0.0
 48
0.0
 49
0.0
140
0.0
141
0.0
142
1.0
143
1.0
 70
  1712
 72
     0
 73
     0
 74
     0
  7

 75
     0
 76
     0
 77
     2
 78
   300
147
1.0
148
0.0
149
0.0
100
AcDbLayout
  1
Model
 70
     1
 71
     0
 10
0.0
 20
0.0
 11
594.0
 21
841.0
 12
0.0
 22
0.0
 32
0.0
 14
0.0
 24
0.0
 34
0.0
 15
594.0
 25
841.0
 35
0.0
146
0.0
 13
0.0
 23
0.0
 33
0.0
 16
1.0
 26
0.0
 36
0.0
 17
0.0
 27
1.0
 37
0.0
 76
     0
330
1F
331
29
  0
MATERIAL
  5
3D
102
{ACAD_REACTORS
330
3B
102
}
330
3B
100
AcDbMaterial
  1
ByBlock
 72
     1
 94
      127
  0
MATERIAL
  5
3C
102
{ACAD_REACTORS
330
3B
102
}
330
3B
100
AcDbMaterial
  1
ByLayer
 72
     1
 94
      127
  0
MATERIAL
  5
3E
102
{ACAD_REACTORS
330
3B
102
}
330
3B
100
AcDbMaterial
  1
Global
 72
     1
 94
      127
  0
MLINESTYLE
  5
18
102
{ACAD_REACTORS
330
17
102
}
330
17
100
AcDbMlineStyle
  2
Standard
 70
     0
  3

 62
   256
 51
90.0
 52
90.0
 71
     2
 49
0.5
 62
   256
  6
BYLAYER
 49
-0.5
 62
   256
  6
BYLAYER
  0
ACDBPLACEHOLDER
  5
F
102
{ACAD_REACTORS
330
E
102
}
330
E
  0
VISUALSTYLE
  5
2F
102
{ACAD_REACTORS
330
2A
102
}
330
2A
100
AcDbVisualStyle
  2
2dWireframe
 70
     4
177
     2
291
     0
 71
     0
176
     1
 72
     2
176
     1
 73
     0
176
     1
 90
        0
176
     1
 40
-0.6
176
     1
 41
-30.0
176
     1
 62
     5
 63
     7
421
 16777215
176
     1
 74
     1
176
     1
 91
        4
176
     1
 64
     7
176
     1
 65
   257
176
     1
 75
     1
176
     1
175
     1
176
     1
 42
1.0
176
     1
 92
        0
176
     1
 66
   257
176
     1
 43
1.0
176
     1
 76
     1
176
     1
 77
     6
176
     1
 78
     2
176
     1
 67
     7
176
     1
 79
     5
176
     1
170
     0
176
     1
171
     0
176
     1
290
     0
176
     1
 93
        1
176
     1
 44
0.0
176
     1
173
     0
176
     1
  0
VISUALSTYLE
  5
31
102
{ACAD_REACTORS
330
2A
102
}
330
2A
100
AcDbVisualStyle
  2
3D Hidden
 70
     6
177
     2
291
     0
 71
     1
176
     1
 72
     2
176
     1
 73
     2
176
     1
 90
        0
176
     1
 40
-0.6
176
     1
 41
-30.0
176
     1
 62
     5
 63
     7
421
 16777215
176
     1
 74
     2
176
     1
 91
        2
176
     1
 64
     7
176
     1
 65
   257
176
     1
 75
     2
176
     1
175
     1
176
     1
 42
40.0
176
     1
 92
        0
176
     1
 66
   257
176
     1
 43
1.0
176
     1
 76
     1
176
     1
 77
     6
176
     1
 78
     2
176
     1
 67
     7
176
     1
 79
     3
176
     1
170
     0
176
     1
171
     0
176
     1
290
     0
176
     1
 93
        1
176
     1
 44
0.0
176
     1
173
     0
176
     1
  0
VISUALSTYLE
  5
30
102
{ACAD_REACTORS
330
2A
102
}
330
2A
100
AcDbVisualStyle
  2
3dWireframe
 70
     5
177
     2
291
     0
 71
     0
176
     1
 72
     2
176
     1
 73
     0
176
     1
 90
        0
176
     1
 40
-0.6
176
     1
 41
-30.0
176
     1
 62
     5
 63
     7
421
 16777215
176
     1
 74
     1
176
     1
 91
        4
176
     1
 64
     7
176
     1
 65
   257
176
     1
 75
     1
176
     1
175
     1
176
     1
 42
1.0
176
     1
 92
        0
176
     1
 66
   257
176
     1
 43
1.0
176
     1
 76
     1
176
     1
 77
     6
176
     1
 78
     2
176
     1
 67
     7
176
     1
 79
     5
176
     1
170
     0
176
     1
171
     0
176
     1
290
     0
176
     1
 93
        1
176
     1
 44
0.0
176
     1
173
     0
176
     1
  0
VISUALSTYLE
  5
32
102
{ACAD_REACTORS
330
2A
102
}
330
2A
100
AcDbVisualStyle
  2
Basic
 70
     7
177
     2
291
     1
 71
     1
176
     1
 72
     0
176
     1
 73
     1
176
     1
 90
        0
176
     1
 40
-0.6
176
     1
 41
-30.0
176
     1
 62
     5
 63
     7
421
 16777215
176
     1
 74
     0
176
     1
 91
        4
176
     1
 64
     7
176
     1
 65
   257
176
     1
 75
     1
176
     1
175
     1
176
     1
 42
1.0
176
     1
 92
        8
176
     1
 66
     7
176
     1
 43
1.0
176
     1
 76
     1
176
     1
 77
     6
176
     1
 78
     2
176
     1
 67
     7
176
     1
 79
     5
176
     1
170
     0
176
     1
171
     0
176
     1
290
     0
176
     1
 93
        1
176
     1
 44
0.0
176
     1
173
     0
176
     1
  0
VISUALSTYLE
  5
36
102
{ACAD_REACTORS
330
2A
102
}
330
2A
100
AcDbVisualStyle
  2
Brighten
 70
    12
177
     2
291
     1
 71
     2
176
     1
 72
     2
176
     1
 73
     0
176
     1
 90
        0
176
     1
 40
-0.6
176
     1
 41
-30.0
176
     1
 62
     5
 63
     7
421
 16777215
176
     1
 74
     1
176
     1
 91
        4
176
     1
 64
     7
176
     1
 65
   257
176
     1
 75
     1
176
     1
175
     1
176
     1
 42
1.0
176
     1
 92
        8
176
     1
 66
     7
176
     1
 43
1.0
176
     1
 76
     1
176
     1
 77
     6
176
     1
 78
     2
176
     1
 67
     7
176
     1
 79
     5
176
     1
170
     0
176
     1
171
     0
176
     1
290
     0
176
     1
 93
        1
176
     1
 44
50.0
176
     1
173
     0
176
     1
  0
VISUALSTYLE
  5
3A
102
{ACAD_REACTORS
330
2A
102
}
330
2A
100
AcDbVisualStyle
  2
ColorChange
 70
    16
177
     2
291
     1
 71
     2
176
     1
 72
     2
176
     1
 73
     3
176
     1
 90
        0
176
     1
 40
-0.6
176
     1
 41
-30.0
176
     1
 62
     5
 63
     8
421
  8421504
176
     1
 74
     1
176
     1
 91
        4
176
     1
 64
     7
176
     1
 65
   257
176
     1
 75
     1
176
     1
175
     1
176
     1
 42
1.0
176
     1
 92
        8
176
     1
 66
     8
424
  8421504
176
     1
 43
1.0
176
     1
 76
     1
176
     1
 77
     6
176
     1
 78
     2
176
     1
 67
     7
176
     1
 79
     5
176
     1
170
     0
176
     1
171
     0
176
     1
290
     0
176
     1
 93
        1
176
     1
 44
0.0
176
     1
173
     0
176
     1
  0
VISUALSTYLE
  5
34
102
{ACAD_REACTORS
330
2A
102
}
330
2A
100
AcDbVisualStyle
  2
Conceptual
 70
     9
177
     2
291
     0
 71
     3
176
     1
 72
     2
176
     1
 73
     0
176
     1
 90
        0
176
     1
 40
-0.6
176
     1
 41
-30.0
176
     1
 62
     5
 63
     7
421
 16777215
176
     1
 74
     2
176
     1
 91
        2
176
     1
 64
     7
176
     1
 65
   257
176
     1
 75
     1
176
     1
175
     1
176
     1
 42
40.0
176
     1
 92
        8
176
     1
 66
     7
176
     1
 43
1.0
176
     1
 76
     1
176
     1
 77
     6
176
     1
 78
     2
176
     1
 67
     7
176
     1
 79
     3
176
     1
170
     0
176
     1
171
     0
176
     1
290
     0
176
     1
 93
        1
176
     1
 44
0.0
176
     1
173
     0
176
     1
  0
VISUALSTYLE
  5
35
102
{ACAD_REACTORS
330
2A
102
}
330
2A
100
AcDbVisualStyle
  2
Dim
 70
    11
177
     2
291
     1
 71
     2
176
     1
 72
     2
176
     1
 73
     0
176
     1
 90
        0
176
     1
 40
-0.6
176
     1
 41
-30.0
176
     1
 62
     5
 63
     7
421
 16777215
176
     1
 74
     1
176
     1
 91
        4
176
     1
 64
     7
176
     1
 65
   257
176
     1
 75
     1
176
     1
175
     1
176
     1
 42
1.0
176
     1
 92
        8
176
     1
 66
     7
176
     1
 43
1.0
176
     1
 76
     1
176
     1
 77
     6
176
     1
 78
     2
176
     1
 67
     7
176
     1
 79
     5
176
     1
170
     0
176
     1
171
     0
176
     1
290
     0
176
     1
 93
        1
176
     1
 44
-50.0
176
     1
173
     0
176
     1
  0
VISUALSTYLE
  5
39
102
{ACAD_REACTORS
330
2A
102
}
330
2A
100
AcDbVisualStyle
  2
Facepattern
 70
    15
177
     2
291
     1
 71
     2
176
     1
 72
     2
176
     1
 73
     0
176
     1
 90
        0
176
     1
 40
-0.6
176
     1
 41
-30.0
176
     1
 62
     5
 63
     7
421
 16777215
176
     1
 74
     1
176
     1
 91
        4
176
     1
 64
     7
176
     1
 65
   257
176
     1
 75
     1
176
     1
175
     1
176
     1
 42
1.0
176
     1
 92
        8
176
     1
 66
     7
176
     1
 43
1.0
176
     1
 76
     1
176
     1
 77
     6
176
     1
 78
     2
176
     1
 67
     7
176
     1
 79
     5
176
     1
170
     0
176
     1
171
     0
176
     1
290
     0
176
     1
 93
        1
176
     1
 44
0.0
176
     1
173
     0
176
     1
  0
VISUALSTYLE
  5
2B
102
{ACAD_REACTORS
330
2A
102
}
330
2A
100
AcDbVisualStyle
  2
Flat
 70
     0
177
     2
291
     1
 71
     2
176
     1
 72
     1
176
     1
 73
     1
176
     1
 90
        2
176
     1
 40
-0.6
176
     1
 41
30.0
176
     1
 62
     5
 63
     7
421
 16777215
176
     1
 74
     0
176
     1
 91
        4
176
     1
 64
     7
176
     1
 65
   257
176
     1
 75
     1
176
     1
175
     1
176
     1
 42
1.0
176
     1
 92
        8
176
     1
 66
     7
176
     1
 43
1.0
176
     1
 76
     1
176
     1
 77
     6
176
     1
 78
     2
176
     1
 67
     7
176
     1
 79
     5
176
     1
170
     0
176
     1
171
     0
176
     1
290
     0
176
     1
 93
       13
176
     1
 44
0.0
176
     1
173
     0
176
     1
  0
VISUALSTYLE
  5
2C
102
{ACAD_REACTORS
330
2A
102
}
330
2A
100
AcDbVisualStyle
  2
FlatWithEdges
 70
     1
177
     2
291
     1
 71
     2
176
     1
 72
     1
176
     1
 73
     1
176
     1
 90
        2
176
     1
 40
-0.6
176
     1
 41
30.0
176
     1
 62
     5
 63
     7
421
 16777215
176
     1
 74
     1
176
     1
 91
        4
176
     1
 64
     7
176
     1
 65
   257
176
     1
 75
     1
176
     1
175
     1
176
     1
 42
1.0
176
     1
 92
        0
176
     1
 66
   257
176
     1
 43
1.0
176
     1
 76
     1
176
     1
 77
     6
176
     1
 78
     2
176
     1
 67
     7
176
     1
 79
     5
176
     1
170
     0
176
     1
171
     0
176
     1
290
     0
176
     1
 93
       13
176
     1
 44
0.0
176
     1
173
     0
176
     1
  0
VISUALSTYLE
  5
2D
102
{ACAD_REACTORS
330
2A
102
}
330
2A
100
AcDbVisualStyle
  2
Gouraud
 70
     2
177
     2
291
     1
 71
     2
176
     1
 72
     2
176
     1
 73
     1
176
     1
 90
        2
176
     1
 40
-0.6
176
     1
 41
30.0
176
     1
 62
     5
 63
     7
421
 16777215
176
     1
 74
     0
176
     1
 91
        4
176
     1
 64
     7
176
     1
 65
   257
176
     1
 75
     1
176
     1
175
     1
176
     1
 42
1.0
176
     1
 92
        0
176
     1
 66
     7
176
     1
 43
1.0
176
     1
 76
     1
176
     1
 77
     6
176
     1
 78
     2
176
     1
 67
     7
176
     1
 79
     5
176
     1
170
     0
176
     1
171
     0
176
     1
290
     0
176
     1
 93
       13
176
     1
 44
0.0
176
     1
173
     0
176
     1
  0
VISUALSTYLE
  5
2E
102
{ACAD_REACTORS
330
2A
102
}
330
2A
100
AcDbVisualStyle
  2
GouraudWithEdges
 70
     3
177
     2
291
     1
 71
     2
176
     1
 72
     2
176
     1
 73
     1
176
     1
 90
        2
176
     1
 40
-0.6
176
     1
 41
30.0
176
     1
 62
     5
 63
     7
421
 16777215
176
     1
 74
     1
176
     1
 91
        4
176
     1
 64
     7
176
     1
 65
   257
176
     1
 75
     1
176
     1
175
     1
176
     1
 42
1.0
176
     1
 92
        0
176
     1
 66
   257
176
     1
 43
1.0
176
     1
 76
     1
176
     1
 77
     6
176
     1
 78
     2
176
     1
 67
     7
176
     1
 79
     5
176
     1
170
     0
176
     1
171
     0
176
     1
290
     0
176
     1
 93
       13
176
     1
 44
0.0
176
     1
173
     0
176
     1
  0
VISUALSTYLE
  5
38
102
{ACAD_REACTORS
330
2A
102
}
330
2A
100
AcDbVisualStyle
  2
Linepattern
 70
    14
177
     2
291
     1
 71
     2
176
     1
 72
     2
176
     1
 73
     0
176
     1
 90
        0
176
     1
 40
-0.6
176
     1
 41
-30.0
176
     1
 62
     5
 63
     7
421
 16777215
176
     1
 74
     1
176
     1
 91
        4
176
     1
 64
     7
176
     1
 65
   257
176
     1
 75
     7
176
     1
175
     7
176
     1
 42
1.0
176
     1
 92
        8
176
     1
 66
     7
176
     1
 43
1.0
176
     1
 76
     1
176
     1
 77
     6
176
     1
 78
     2
176
     1
 67
     7
176
     1
 79
     5
176
     1
170
     0
176
     1
171
     0
176
     1
290
     0
176
     1
 93
        1
176
     1
 44
0.0
176
     1
173
     0
176
     1
  0
VISUALSTYLE
  5
33
102
{ACAD_REACTORS
330
2A
102
}
330
2A
100
AcDbVisualStyle
  2
Realistic
 70
     8
177
     2
291
     0
 71
     2
176
     1
 72
     2
176
     1
 73
     0
176
     1
 90
        0
176
     1
 40
-0.6
176
     1
 41
-30.0
176
     1
 62
     5
 63
     7
421
 16777215
176
     1
 74
     1
176
     1
 91
        0
176
     1
 64
     7
176
     1
 65
   257
176
     1
 75
     1
176
     1
175
     1
176
     1
 42
1.0
176
     1
 92
        8
176
     1
 66
     8
424
  7895160
176
     1
 43
1.0
176
     1
 76
     1
176
     1
 77
     6
176
     1
 78
     2
176
     1
 67
     7
176
     1
 79
     5
176
     1
170
     0
176
     1
171
     0
176
     1
290
     0
176
     1
 93
       13
176
     1
 44
0.0
176
     1
173
     0
176
     1
  0
VISUALSTYLE
  5
37
102
{ACAD_REACTORS
330
2A
102
}
330
2A
100
AcDbVisualStyle
  2
Thicken
 70
    13
177
     2
291
     1
 71
     2
176
     1
 72
     2
176
     1
 73
     0
176
     1
 90
        0
176
     1
 40
-0.6
176
     1
 41
-30.0
176
     1
 62
     5
 63
     7
421
 16777215
176
     1
 74
     1
176
     1
 91
        4
176
     1
 64
     7
176
     1
 65
   257
176
     1
 75
     1
176
     1
175
     1
176
     1
 42
1.0
176
     1
 92
       12
176
     1
 66
     7
176
     1
 43
1.0
176
     1
 76
     1
176
     1
 77
     6
176
     1
 78
     2
176
     1
 67
     7
176
     1
 79
     5
176
     1
170
     0
176
     1
171
     0
176
     1
290
     0
176
     1
 93
        1
176
     1
 44
0.0
176
     1
173
     0
176
     1
  0
ENDSEC
  0
EOF
