  0
SECTION
  2
HEADER
  9
$ACADVER
  1
AC1015
  9
$ACADMAINTVER
 70
     6
  9
$DWGCODEPAGE
  3
ANSI_1252
  9
$INSBASE
 10
0.0
 20
0.0
 30
0.0
  9
$EXTMIN
 10
0.0
 20
0.0
 30
0.0
  9
$EXTMAX
 10
841.0
 20
594.0
 30
0.0
  9
$LIMMIN
 10
0.0
 20
0.0
  9
$LIMMAX
 10
841.0
 20
594.0
  9
$ORTHOMODE
 70
     0
  9
$REGENMODE
 70
     1
  9
$FILLMODE
 70
     1
  9
$QTEXTMODE
 70
     0
  9
$MIRRTEXT
 70
     1
  9
$LTSCALE
 40
1.0
  9
$ATTMODE
 70
     1
  9
$TEXTSIZE
 40
10.0
  9
$TRACEWID
 40
1.0
  9
$TEXTSTYLE
  7
Standard
  9
$CLAYER
  8
0
  9
$CELTYPE
  6
ByLayer
  9
$CECOLOR
 62
   256
  9
$CELTSCALE
 40
1.0
  9
$DISPSILH
 70
     0
  9
$DIMSCALE
 40
1.0
  9
$DIMASZ
 40
2.5
  9
$DIMEXO
 40
0.0
  9
$DIMDLI
 40
3.75
  9
$DIMRND
 40
0.0
  9
$DIMDLE
 40
0.0
  9
$DIMEXE
 40
1.0
  9
$DIMTP
 40
0.0
  9
$DIMTM
 40
0.0
  9
$DIMTXT
 40
3.5
  9
$DIMCEN
 40
2.5
  9
$DIMTSZ
 40
0.0
  9
$DIMTOL
 70
     0
  9
$DIMLIM
 70
     0
  9
$DIMTIH
 70
     1
  9
$DIMTOH
 70
     1
  9
$DIMSE1
 70
     0
  9
$DIMSE2
 70
     0
  9
$DIMTAD
 70
     1
  9
$DIMZIN
 70
     0
  9
$DIMBLK
  1

  9
$DIMASO
 70
     1
  9
$DIMSHO
 70
     1
  9
$DIMPOST
  1

  9
$DIMAPOST
  1

  9
$DIMALT
 70
     0
  9
$DIMALTD
 70
     3
  9
$DIMALTF
 40
0.0393700787
  9
$DIMLFAC
 40
1.0
  9
$DIMTOFL
 70
     1
  9
$DIMTVP
 40
0.0
  9
$DIMTIX
 70
     0
  9
$DIMSOXD
 70
     0
  9
$DIMSAH
 70
     0
  9
$DIMBLK1
  1

  9
$DIMBLK2
  1

  9
$DIMSTYLE
  2
ISO-25
  9
$DIMCLRD
 70
     0
  9
$DIMCLRE
 70
     0
  9
$DIMCLRT
 70
     0
  9
$DIMTFAC
 40
1.0
  9
$DIMGAP
 40
1.5
  9
$DIMJUST
 70
     0
  9
$DIMSD1
 70
     0
  9
$DIMSD2
 70
     0
  9
$DIMTOLJ
 70
     0
  9
$DIMTZIN
 70
     0
  9
$DIMALTZ
 70
     0
  9
$DIMALTTZ
 70
     0
  9
$DIMUPT
 70
     0
  9
$DIMDEC
 70
     2
  9
$DIMTDEC
 70
     2
  9
$DIMALTU
 70
     2
  9
$DIMALTTD
 70
     3
  9
$DIMTXSTY
  7
Standard
  9
$DIMAUNIT
 70
     0
  9
$DIMADEC
 70
     2
  9
$DIMALTRND
 40
0.0
  9
$DIMAZIN
 70
     0
  9
$DIMDSEP
 70
    44
  9
$DIMATFIT
 70
     3
  9
$DIMFRAC
 70
     0
  9
$DIMLDRBLK
  1

  9
$DIMLUNIT
 70
     2
  9
$DIMLWD
 70
    -2
  9
$DIMLWE
 70
    -2
  9
$DIMTMOVE
 70
     0
  9
$LUNITS
 70
     2
  9
$LUPREC
 70
     2
  9
$SKETCHINC
 40
1.0
  9
$FILLETRAD
 40
0.0
  9
$AUNITS
 70
     0
  9
$AUPREC
 70
     2
  9
$MENU
  1
.
  9
$ELEVATION
 40
0.0
  9
$PELEVATION
 40
0.0
  9
$THICKNESS
 40
0.0
  9
$LIMCHECK
 70
     0
  9
$CHAMFERA
 40
0.0
  9
$CHAMFERB
 40
0.0
  9
$CHAMFERC
 40
0.0
  9
$CHAMFERD
 40
0.0
  9
$SKPOLY
 70
     0
  9
$TDCREATE
 40
2460507.466539283
  9
$TDUCREATE
 40
2460507.383205949
  9
$TDUPDATE
 40
2460507.466540371
  9
$TDUUPDATE
 40
2460507.383207037
  9
$TDINDWG
 40
0.0000000116
  9
$TDUSRTIMER
 40
0.0000000116
  9
$USRTIMER
 70
     1
  9
$ANGBASE
 50
0.0
  9
$ANGDIR
 70
     0
  9
$PDMODE
 70
     0
  9
$PDSIZE
 40
-1.0
  9
$PLINEWID
 40
0.0
  9
$SPLFRAME
 70
     0
  9
$SPLINETYPE
 70
     6
  9
$SPLINESEGS
 70
     8
  9
$HANDSEED
  5
1BE
  9
$SURFTAB1
 70
     6
  9
$SURFTAB2
 70
     6
  9
$SURFTYPE
 70
     6
  9
$SURFU
 70
     6
  9
$SURFV
 70
     6
  9
$UCSBASE
  2

  9
$UCSNAME
  2

  9
$UCSORG
 10
0.0
 20
0.0
 30
0.0
  9
$UCSXDIR
 10
1.0
 20
0.0
 30
0.0
  9
$UCSYDIR
 10
0.0
 20
1.0
 30
0.0
  9
$UCSORTHOREF
  2

  9
$UCSORTHOVIEW
 70
     0
  9
$UCSORGTOP
 10
0.0
 20
0.0
 30
0.0
  9
$UCSORGBOTTOM
 10
0.0
 20
0.0
 30
0.0
  9
$UCSORGLEFT
 10
0.0
 20
0.0
 30
0.0
  9
$UCSORGRIGHT
 10
0.0
 20
0.0
 30
0.0
  9
$UCSORGFRONT
 10
0.0
 20
0.0
 30
0.0
  9
$UCSORGBACK
 10
0.0
 20
0.0
 30
0.0
  9
$PUCSBASE
  2

  9
$PUCSNAME
  2

  9
$PUCSORG
 10
0.0
 20
0.0
 30
0.0
  9
$PUCSXDIR
 10
1.0
 20
0.0
 30
0.0
  9
$PUCSYDIR
 10
0.0
 20
1.0
 30
0.0
  9
$PUCSORTHOREF
  2

  9
$PUCSORTHOVIEW
 70
     0
  9
$PUCSORGTOP
 10
0.0
 20
0.0
 30
0.0
  9
$PUCSORGBOTTOM
 10
0.0
 20
0.0
 30
0.0
  9
$PUCSORGLEFT
 10
0.0
 20
0.0
 30
0.0
  9
$PUCSORGRIGHT
 10
0.0
 20
0.0
 30
0.0
  9
$PUCSORGFRONT
 10
0.0
 20
0.0
 30
0.0
  9
$PUCSORGBACK
 10
0.0
 20
0.0
 30
0.0
  9
$USERI1
 70
     0
  9
$USERI2
 70
     0
  9
$USERI3
 70
     0
  9
$USERI4
 70
     0
  9
$USERI5
 70
     0
  9
$USERR1
 40
0.0
  9
$USERR2
 40
0.0
  9
$USERR3
 40
0.0
  9
$USERR4
 40
0.0
  9
$USERR5
 40
0.0
  9
$WORLDVIEW
 70
     1
  9
$SHADEDGE
 70
     3
  9
$SHADEDIF
 70
    70
  9
$TILEMODE
 70
     1
  9
$MAXACTVP
 70
    64
  9
$PINSBASE
 10
0.0
 20
0.0
 30
0.0
  9
$PLIMCHECK
 70
     0
  9
$PEXTMIN
 10
1.0000000000E+20
 20
1.0000000000E+20
 30
1.0000000000E+20
  9
$PEXTMAX
 10
-1.0000000000E+20
 20
-1.0000000000E+20
 30
-1.0000000000E+20
  9
$PLIMMIN
 10
0.0
 20
0.0
  9
$PLIMMAX
 10
420.0
 20
297.0
  9
$UNITMODE
 70
     0
  9
$VISRETAIN
 70
     1
  9
$PLINEGEN
 70
     0
  9
$PSLTSCALE
 70
     1
  9
$TREEDEPTH
 70
  3020
  9
$CMLSTYLE
  2
Standard
  9
$CMLJUST
 70
     0
  9
$CMLSCALE
 40
20.0
  9
$PROXYGRAPHICS
 70
     1
  9
$MEASUREMENT
 70
     1
  9
$CELWEIGHT
370
    -1
  9
$ENDCAPS
280
     0
  9
$JOINSTYLE
280
     0
  9
$LWDISPLAY
290
     1
  9
$INSUNITS
 70
     4
  9
$HYPERLINKBASE
  1

  9
$STYLESHEET
  1

  9
$XEDIT
290
     1
  9
$CEPSNTYPE
380
     0
  9
$PSTYLEMODE
290
     1
  9
$FINGERPRINTGUID
  2
{dbba4822-5a85-440d-a2ad-57466c6e0072}
  9
$VERSIONGUID
  2
{FAEB1C32-E019-11D5-929B-00C0DF256EC4}
  9
$EXTNAMES
290
     1
  9
$PSVPSCALE
 40
0.0
  9
$OLESTARTUP
290
     0
  0
ENDSEC
  0
SECTION
  2
CLASSES
  0
CLASS
  1
ACDBDICTIONARYWDFLT
  2
AcDbDictionaryWithDefault
  3
ObjectDBX Classes
 90
        0
280
     0
281
     0
  0
CLASS
  1
VISUALSTYLE
  2
AcDbVisualStyle
  3
ObjectDBX Classes
 90
     4095
280
     0
281
     0
  0
CLASS
  1
MATERIAL
  2
AcDbMaterial
  3
ObjectDBX Classes
 90
     1153
280
     0
281
     0
  0
CLASS
  1
SCALE
  2
AcDbScale
  3
ObjectDBX Classes
 90
     1153
280
     0
281
     0
  0
CLASS
  1
TABLESTYLE
  2
AcDbTableStyle
  3
ObjectDBX Classes
 90
     4095
280
     0
281
     0
  0
CLASS
  1
MLEADERSTYLE
  2
AcDbMLeaderStyle
  3
ACDB_MLEADERSTYLE_CLASS
 90
     4095
280
     0
281
     0
  0
CLASS
  1
SUN
  2
AcDbSun
  3
SCENEOE
 90
     1153
280
     0
281
     0
  0
CLASS
  1
ACDBPLACEHOLDER
  2
AcDbPlaceHolder
  3
ObjectDBX Classes
 90
        0
280
     0
281
     0
  0
CLASS
  1
LAYOUT
  2
AcDbLayout
  3
ObjectDBX Classes
 90
        0
280
     0
281
     0
  0
ENDSEC
  0
SECTION
  2
TABLES
  0
TABLE
  2
VPORT
  5
8
330
0
100
AcDbSymbolTable
 70
     1
  0
VPORT
  5
29
330
8
100
AcDbSymbolTableRecord
100
AcDbViewportTableRecord
  2
*Active
 70
     0
 10
0.0
 20
0.0
 11
1.0
 21
1.0
 12
420.5
 22
297.0
 13
0.0
 23
0.0
 14
10.0
 24
10.0
 15
10.0
 25
10.0
 16
0.0
 26
0.0
 36
1.0
 17
0.0
 27
0.0
 37
0.0
 40
594.0
 41
1.4158249158
 42
50.0
 43
0.0
 44
0.0
 50
0.0
 51
0.0
 71
     0
 72
  2000
 73
     1
 74
     3
 75
     0
 76
     0
 77
     0
 78
     0
281
     0
 65
     1
110
0.0
120
0.0
130
0.0
111
1.0
121
0.0
131
0.0
112
0.0
122
1.0
132
0.0
 79
     0
146
0.0
  0
ENDTAB
  0
TABLE
  2
LTYPE
  5
5
330
0
100
AcDbSymbolTable
 70
     6
  0
LTYPE
  5
14
330
5
100
AcDbSymbolTableRecord
100
AcDbLinetypeTableRecord
  2
ByBlock
 70
     0
  3

 72
    65
 73
     0
 40
0.0
  0
LTYPE
  5
15
330
5
100
AcDbSymbolTableRecord
100
AcDbLinetypeTableRecord
  2
ByLayer
 70
     0
  3

 72
    65
 73
     0
 40
0.0
  0
LTYPE
  5
16
330
5
100
AcDbSymbolTableRecord
100
AcDbLinetypeTableRecord
  2
Continuous
 70
     0
  3
Solid line
 72
    65
 73
     0
 40
0.0
  0
LTYPE
  5
5E
330
5
100
AcDbSymbolTableRecord
100
AcDbLinetypeTableRecord
  2
HIDDEN
 70
     0
  3
Hidden __ __ __ __ __ __ __ __ __ __ __ __ __ __
 72
    65
 73
     2
 40
1.905
 49
1.27
 74
     0
 49
-0.635
 74
     0
  0
LTYPE
  5
5F
330
5
100
AcDbSymbolTableRecord
100
AcDbLinetypeTableRecord
  2
PHANTOM
 70
     0
  3
Phantom ______  __  __  ______  __  __  ______
 72
    65
 73
     6
 40
12.7
 49
6.35
 74
     0
 49
-1.27
 74
     0
 49
1.27
 74
     0
 49
-1.27
 74
     0
 49
1.27
 74
     0
 49
-1.27
 74
     0
  0
LTYPE
  5
60
330
5
100
AcDbSymbolTableRecord
100
AcDbLinetypeTableRecord
  2
CENTER
 70
     0
  3
Center ____ _ ____ _ ____ _ ____ _ ____ _ ____
 72
    65
 73
     4
 40
10.16
 49
6.35
 74
     0
 49
-1.27
 74
     0
 49
1.27
 74
     0
 49
-1.27
 74
     0
  0
LTYPE
  5
61
330
5
100
AcDbSymbolTableRecord
100
AcDbLinetypeTableRecord
  2
CENTERX2
 70
     0
  3
Center (2x) ________  __  ________  __  _____
 72
    65
 73
     4
 40
20.32
 49
12.7
 74
     0
 49
-2.54
 74
     0
 49
2.54
 74
     0
 49
-2.54
 74
     0
  0
LTYPE
  5
62
330
5
100
AcDbSymbolTableRecord
100
AcDbLinetypeTableRecord
  2
DOT2
 70
     0
  3
Dot (.5x) ........................................
 72
    65
 73
     2
 40
0.635
 49
0.0
 74
     0
 49
-0.635
 74
     0
  0
ENDTAB
  0
TABLE
  2
LAYER
  5
2
330
0
100
AcDbSymbolTable
 70
     1
  0
LAYER
  5
10
330
2
100
AcDbSymbolTableRecord
100
AcDbLayerTableRecord
  2
0
 70
     0
 62
     7
  6
Continuous
370
    -3
390
F
  0
ENDTAB
  0
TABLE
  2
STYLE
  5
3
330
0
100
AcDbSymbolTable
 70
     3
  0
STYLE
  5
11
330
3
100
AcDbSymbolTableRecord
100
AcDbTextStyleTableRecord
  2
Standard
 70
     0
 40
0.0
 41
1.0
 50
0.0
 71
     0
 42
10.0
  3
txt
  4

  0
STYLE
  5
66
330
3
100
AcDbSymbolTableRecord
100
AcDbTextStyleTableRecord
  2
SLDTEXTSTYLE0
 70
     0
 40
0.0
 41
0.96
 50
0.0
 71
     0
 42
10.0
  3
ISOCP3
  4

  0
STYLE
  5
7D
330
3
100
AcDbSymbolTableRecord
100
AcDbTextStyleTableRecord
  2
SLDTEXTSTYLE1
 70
     0
 40
0.0
 41
0.605
 50
0.0
 71
     0
 42
10.0
  3
TXT
  4

  0
ENDTAB
  0
TABLE
  2
VIEW
  5
6
330
0
100
AcDbSymbolTable
 70
     0
  0
ENDTAB
  0
TABLE
  2
UCS
  5
7
330
0
100
AcDbSymbolTable
 70
     0
  0
ENDTAB
  0
TABLE
  2
APPID
  5
9
330
0
100
AcDbSymbolTable
 70
     1
  0
APPID
  5
12
330
9
100
AcDbSymbolTableRecord
100
AcDbRegAppTableRecord
  2
ACAD
 70
     0
  0
ENDTAB
  0
TABLE
  2
DIMSTYLE
  5
A
330
0
100
AcDbSymbolTable
 70
     2
100
AcDbDimStyleTable
  0
DIMSTYLE
105
27
330
A
100
AcDbSymbolTableRecord
100
AcDbDimStyleTableRecord
  2
ISO-25
 70
     0
 41
2.5
 42
0.625
 43
3.75
 44
1.25
 73
     0
 74
     0
 77
     1
 78
     8
140
2.5
141
2.5
143
0.0393700787
147
0.625
171
     3
172
     1
178
     0
271
     2
272
     2
274
     3
278
    44
283
     0
284
     8
340
11
  0
DIMSTYLE
105
67
102
{ACAD_REACTORS
330
65
330
72
102
}
330
A
100
AcDbSymbolTableRecord
100
AcDbDimStyleTableRecord
  2
SLDDIMSTYLE0
 70
     0
 41
2.5
 44
0.0
 45
0.000000001
 73
     0
 74
     0
 77
     1
 78
    12
 79
     3
140
6.0
147
1.5
173
     1
178
     0
271
     2
272
     2
276
     2
284
    12
340
66
  0
ENDTAB
  0
TABLE
  2
BLOCK_RECORD
  5
1
330
0
100
AcDbSymbolTable
 70
     3
  0
BLOCK_RECORD
  5
1F
330
1
100
AcDbSymbolTableRecord
100
AcDbBlockTableRecord
  2
*Model_Space
340
22
  0
BLOCK_RECORD
  5
1B
330
1
100
AcDbSymbolTableRecord
100
AcDbBlockTableRecord
  2
*Paper_Space
340
1E
  0
BLOCK_RECORD
  5
23
330
1
100
AcDbSymbolTableRecord
100
AcDbBlockTableRecord
  2
*Paper_Space0
340
26
  0
BLOCK_RECORD
  5
68
330
1
100
AcDbSymbolTableRecord
100
AcDbBlockTableRecord
  2
_D
340
0
  0
BLOCK_RECORD
  5
73
330
1
100
AcDbSymbolTableRecord
100
AcDbBlockTableRecord
  2
_D_1
340
0
  0
ENDTAB
  0
ENDSEC
  0
SECTION
  2
BLOCKS
  0
BLOCK
  5
20
330
1F
100
AcDbEntity
  8
0
100
AcDbBlockBegin
  2
*Model_Space
 70
     0
 10
0.0
 20
0.0
 30
0.0
  3
*Model_Space
  1

  0
ENDBLK
  5
21
330
1F
100
AcDbEntity
  8
0
100
AcDbBlockEnd
  0
BLOCK
  5
1C
330
1B
100
AcDbEntity
 67
     1
  8
0
100
AcDbBlockBegin
  2
*Paper_Space
 70
     0
 10
0.0
 20
0.0
 30
0.0
  3
*Paper_Space
  1

  0
ENDBLK
  5
1D
330
1B
100
AcDbEntity
 67
     1
  8
0
100
AcDbBlockEnd
  0
BLOCK
  5
24
330
23
100
AcDbEntity
  8
0
100
AcDbBlockBegin
  2
*Paper_Space0
 70
     0
 10
0.0
 20
0.0
 30
0.0
  3
*Paper_Space0
  1

  0
ENDBLK
  5
25
330
23
100
AcDbEntity
  8
0
100
AcDbBlockEnd
  0
BLOCK
  5
69
330
68
100
AcDbEntity
  8
0
100
AcDbBlockBegin
  2
_D
 70
     0
 10
0.0
 20
0.0
 30
0.0
  3
_D
  1

  0
SOLID
  5
6B
330
68
100
AcDbEntity
  8
0
  6
Continuous
 62
     7
370
    18
100
AcDbTrace
 10
42.7614395004
 20
152.0299240879
 30
0.0
 11
42.4614395004
 21
149.5299240879
 31
0.0
 12
43.0614395004
 22
149.5299240879
 32
0.0
 13
43.0614395004
 23
149.5299240879
 33
0.0
  0
SOLID
  5
6C
330
68
100
AcDbEntity
  8
0
  6
Continuous
 62
     7
370
    18
100
AcDbTrace
 10
42.7614395004
 20
52.0299240879
 30
0.0
 11
43.0614395004
 21
54.5299240879
 31
0.0
 12
42.4614395004
 22
54.5299240879
 32
0.0
 13
42.4614395004
 23
54.5299240879
 33
0.0
  0
LINE
  5
6D
330
68
100
AcDbEntity
  8
0
  6
Continuous
 62
     7
370
     0
100
AcDbLine
 10
56.6850079902
 20
152.0299240879
 30
0.0
 11
41.7614395004
 21
152.0299240879
 31
0.0
  0
LINE
  5
6E
330
68
100
AcDbEntity
  8
0
  6
Continuous
 62
     7
370
     0
100
AcDbLine
 10
56.6850079902
 20
52.0299240879
 30
0.0
 11
41.7614395004
 21
52.0299240879
 31
0.0
  0
LINE
  5
6F
330
68
100
AcDbEntity
  8
0
  6
Continuous
 62
     7
370
     0
100
AcDbLine
 10
42.7614395004
 20
152.0299240879
 30
0.0
 11
42.7614395004
 21
52.0299240879
 31
0.0
  0
MTEXT
  5
70
330
68
100
AcDbEntity
  8
0
  6
Continuous
 62
     7
370
    18
100
AcDbMText
 10
35.0270332946
 20
94.3680541463
 30
0.0
 40
6.0
 41
0.0
 71
     1
 72
     1
  1
100
  7
SLDTEXTSTYLE0
 11
-7.044195017643634E-15
 21
1.0
 31
0.0
 73
     1
 44
1.0
  0
MTEXT
  5
71
330
68
100
AcDbEntity
  8
0
  6
Continuous
 62
     7
370
    18
100
AcDbMText
 10
35.0270332946
 20
105.7430548466
 30
0.0
 40
6.0
 41
0.0
 71
     1
 72
     1
  1
mm
  7
SLDTEXTSTYLE0
 11
-7.044195017643634E-15
 21
1.0
 31
0.0
 73
     1
 44
1.0
  0
ENDBLK
  5
6A
330
68
100
AcDbEntity
  8
0
100
AcDbBlockEnd
  0
BLOCK
  5
74
330
73
100
AcDbEntity
  8
0
100
AcDbBlockBegin
  2
_D_1
 70
     0
 10
0.0
 20
0.0
 30
0.0
  3
_D_1
  1

  0
SOLID
  5
76
330
73
100
AcDbEntity
  8
0
  6
Continuous
 62
     7
370
    18
100
AcDbTrace
 10
56.6850079902
 20
38.4602342313
 30
0.0
 11
59.1850079902
 21
38.1602342313
 31
0.0
 12
59.1850079902
 22
38.7602342313
 32
0.0
 13
59.1850079902
 23
38.7602342313
 33
0.0
  0
SOLID
  5
77
330
73
100
AcDbEntity
  8
0
  6
Continuous
 62
     7
370
    18
100
AcDbTrace
 10
156.6850079902
 20
38.4602342313
 30
0.0
 11
154.1850079902
 21
38.7602342313
 31
0.0
 12
154.1850079902
 22
38.1602342313
 32
0.0
 13
154.1850079902
 23
38.1602342313
 33
0.0
  0
LINE
  5
78
330
73
100
AcDbEntity
  8
0
  6
Continuous
 62
     7
370
     0
100
AcDbLine
 10
56.6850079902
 20
52.0299240879
 30
0.0
 11
56.6850079902
 21
37.4602342313
 31
0.0
  0
LINE
  5
79
330
73
100
AcDbEntity
  8
0
  6
Continuous
 62
     7
370
     0
100
AcDbLine
 10
156.6850079902
 20
52.0299240879
 30
0.0
 11
156.6850079902
 21
37.4602342313
 31
0.0
  0
LINE
  5
7A
330
73
100
AcDbEntity
  8
0
  6
Continuous
 62
     7
370
     0
100
AcDbLine
 10
56.6850079902
 20
38.4602342313
 30
0.0
 11
156.6850079902
 21
38.4602342313
 31
0.0
  0
MTEXT
  5
7B
330
73
100
AcDbEntity
  8
0
  6
Continuous
 62
     7
370
    18
100
AcDbMText
 10
93.9626484861
 20
46.1946404371
 30
0.0
 40
6.0
 41
0.0
 71
     1
 72
     1
  1
100
  7
SLDTEXTSTYLE0
 73
     1
 44
1.0
  0
MTEXT
  5
7C
330
73
100
AcDbEntity
  8
0
  6
Continuous
 62
     7
370
    18
100
AcDbMText
 10
105.3376491864
 20
46.1946404371
 30
0.0
 40
6.0
 41
0.0
 71
     1
 72
     1
  1
mm
  7
SLDTEXTSTYLE0
 73
     1
 44
1.0
  0
ENDBLK
  5
75
330
73
100
AcDbEntity
  8
0
100
AcDbBlockEnd
  0
ENDSEC
  0
SECTION
  2
ENTITIES
  0
LINE
  5
63
330
1F
100
AcDbEntity
  8
0
  6
Continuous
 62
     7
370
    18
100
AcDbLine
 10
56.6850079902
 20
152.0299240879
 30
0.0
 11
56.6850079902
 21
52.0299240879
 31
0.0
  0
LINE
  5
64
330
1F
100
AcDbEntity
  8
0
  6
Continuous
 62
     7
370
    18
100
AcDbLine
 10
56.6850079902
 20
52.0299240879
 30
0.0
 11
156.6850079902
 21
52.0299240879
 31
0.0
  0
DIMENSION
  5
65
330
1F
100
AcDbEntity
  8
0
  6
Continuous
 62
     7
370
    18
100
AcDbDimension
  2
_D
 10
42.7614395004
 20
52.0299240879
 30
0.0
 11
42.7614395004
 21
105.4472211621
 31
0.0
 70
   160
  1
<>mm
 71
     2
 42
-1.0
  3
SLDDIMSTYLE0
100
AcDbAlignedDimension
 13
56.6850079902
 23
152.0299240879
 33
0.0
 14
56.6850079902
 24
52.0299240879
 34
0.0
 50
90.0
100
AcDbRotatedDimension
  0
DIMENSION
  5
72
330
1F
100
AcDbEntity
  8
0
  6
Continuous
 62
     7
370
    18
100
AcDbDimension
  2
_D_1
 10
156.6850079902
 20
38.4602342313
 30
0.0
 11
105.0418155019
 21
38.4602342313
 31
0.0
 70
   160
  1
<>mm
 71
     2
 42
-1.0
  3
SLDDIMSTYLE0
100
AcDbAlignedDimension
 13
56.6850079902
 23
52.0299240879
 33
0.0
 14
156.6850079902
 24
52.0299240879
 34
0.0
100
AcDbRotatedDimension
  0
MTEXT
  5
7E
330
1F
100
AcDbEntity
  8
0
  6
Continuous
 62
     7
370
     0
100
AcDbMText
 10
664.658399795
 20
48.4342449499
 30
0.0
 40
10.0
 41
0.0
 71
     1
 72
     1
  1
KLUDI GmbH & Co KG
  7
SLDTEXTSTYLE1
 73
     1
 44
1.0
  0
MTEXT
  5
7F
330
1F
100
AcDbEntity
  8
0
  6
Continuous
 62
     7
370
     0
100
AcDbMText
 10
349.0758972247
 20
48.4342449499
 30
0.0
 40
10.0
 41
0.0
 71
     1
 72
     1
  1
42 244 .. 75
  7
SLDTEXTSTYLE1
 73
     1
 44
1.0
  0
SPLINE
  5
80
330
1F
100
AcDbEntity
  8
0
  6
Continuous
 62
     7
370
    25
100
AcDbSpline
210
0.0
220
0.0
230
1.0
 70
     8
 71
     3
 72
    11
 73
     7
 74
     0
 42
0.00000001
 43
0.00000001
 40
0.0
 40
0.0
 40
0.0
 40
0.0
 40
0.2475190040791979
 40
0.5024140289606971
 40
0.75576711241194
 40
1.0
 40
1.0
 40
1.0
 40
1.0
 10
199.1389532651881
 20
401.7909996200071
 30
0.0
 10
199.0450014313919
 20
401.7463185913605
 30
0.0
 10
198.8542980164301
 20
401.6556250476304
 30
0.0
 10
198.6582382079378
 20
401.4178177129278
 30
0.0
 10
198.5516077431981
 20
401.138796361366
 30
0.0
 10
198.5669452798729
 20
400.9470042919177
 30
0.0
 10
198.5744734882401
 20
400.8528659245518
 30
0.0
  0
SPLINE
  5
81
330
1F
100
AcDbEntity
  8
0
  6
Continuous
 62
     7
370
    25
100
AcDbSpline
210
0.0
220
0.0
230
1.0
 70
     8
 71
     3
 72
    11
 73
     7
 74
     0
 42
0.00000001
 43
0.00000001
 40
0.0
 40
0.0
 40
0.0
 40
0.0
 40
0.2607062856023576
 40
0.5382637929737608
 40
0.8219751726411735
 40
1.0
 40
1.0
 40
1.0
 40
1.0
 10
234.1852102400757
 20
400.8443806225526
 30
0.0
 10
234.1816995408238
 20
400.9408674210163
 30
0.0
 10
234.1744512219314
 20
401.1400776164779
 30
0.0
 10
234.0419060382416
 20
401.4213975850119
 30
0.0
 10
233.8565772546115
 20
401.6377584440503
 30
0.0
 10
233.6972196965312
 20
401.7133881404218
 30
0.0
 10
233.6357785504095
 20
401.7425475683264
 30
0.0
  0
SPLINE
  5
82
330
1F
100
AcDbEntity
  8
0
  6
Continuous
 62
     7
370
    25
100
AcDbSpline
210
0.0
220
0.0
230
1.0
 70
     8
 71
     3
 72
    14
 73
    10
 74
     0
 42
0.00000001
 43
0.00000001
 40
0.0
 40
0.0
 40
0.0
 40
0.0
 40
0.1281505789134063
 40
0.256958632589238
 40
0.3836854498932379
 40
0.5072804892618983
 40
0.7561109367444758
 40
0.8795649747528483
 40
1.0
 40
1.0
 40
1.0
 40
1.0
 10
198.568418753917
 20
390.8528659844972
 30
0.0
 10
198.5968085293395
 20
390.5176812532686
 30
0.0
 10
198.6537337335324
 20
389.8455921302104
 30
0.0
 10
198.9723548159494
 20
388.8730876362695
 30
0.0
 10
199.4454984187468
 20
387.9928353518937
 30
0.0
 10
200.2747495354157
 20
386.9830980999598
 30
0.0
 10
201.3656899379565
 20
386.2614053258172
 30
0.0
 10
202.5942512642819
 20
385.8944700784008
 30
0.0
 10
203.2345037844768
 20
385.8669082905164
 30
0.0
 10
203.5506673196715
 20
385.8532979851776
 30
0.0
  0
LINE
  5
83
330
1F
100
AcDbEntity
  8
0
  6
Continuous
 62
     7
370
    25
100
AcDbLine
 10
225.5450014346
 20
385.0028659846
 30
0.0
 11
225.5450014346
 21
385.8528659845
 31
0.0
  0
LINE
  5
84
330
1F
100
AcDbEntity
  8
0
  6
Continuous
 62
     7
370
    25
100
AcDbLine
 10
207.1450014346
 20
385.8528659845
 30
0.0
 11
207.1450014346
 21
385.0028659846
 31
0.0
  0
LINE
  5
85
330
1F
100
AcDbEntity
  8
0
  6
Continuous
 62
     7
370
    25
100
AcDbLine
 10
227.5950014346
 20
385.8028659846
 30
0.0
 11
227.5950014346
 21
385.8528659845
 31
0.0
  0
ARC
  5
86
330
1F
100
AcDbEntity
  8
0
  6
Continuous
 62
     7
370
    25
100
AcDbCircle
 10
216.3450014346
 20
387.6528659846
 30
0.0
 40
8.760000000000012
100
AcDbArc
 50
197.6085071786
 51
200.0855462985
  0
LINE
  5
87
330
1F
100
AcDbEntity
  8
0
  6
Continuous
 62
     7
370
    25
100
AcDbLine
 10
321.5406074024
 20
322.5150074275
 30
0.0
 11
321.9369706478
 21
322.5142709616
 31
0.0
  0
LINE
  5
88
330
1F
100
AcDbEntity
  8
0
  6
Continuous
 62
     7
370
    25
100
AcDbLine
 10
330.7533990363
 20
322.5142709616
 30
0.0
 11
331.1493676289
 21
322.5150062864
 31
0.0
  0
SPLINE
  5
89
330
1F
100
AcDbEntity
  8
0
  6
Continuous
 62
     7
370
    25
100
AcDbSpline
210
0.0
220
0.0
230
1.0
 70
    24
 71
     3
 72
    23
 73
    19
 74
     0
 42
0.00000001
 43
0.00000001
 40
0.0
 40
0.0
 40
0.0
 40
0.0
 40
0.0310461970488199
 40
0.0621836812647857
 40
0.0934957966487671
 40
0.1250645041097148
 40
0.1873739725607073
 40
0.25012449095503
 40
0.3126781415528316
 40
0.375220900942648
 40
0.5000204023860928
 40
0.6248199038292985
 40
0.6872808487472476
 40
0.7499163149992759
 40
0.8125850606511668
 40
0.874976296658351
 40
0.9377971086001374
 40
1.0
 40
1.0
 40
1.0
 40
1.0
 10
199.4849455959999
 20
401.8528659244815
 30
0.0
 10
199.4854797148901
 20
401.8528659244815
 30
0.0
 10
199.4865495231753
 20
401.8528659244815
 30
0.0
 10
199.5010613293242
 20
401.8528659244815
 30
0.0
 10
199.5250231059221
 20
401.8528659244815
 30
0.0
 10
199.5703409110477
 20
401.8528659244815
 30
0.0
 10
199.6508593267015
 20
401.8528659244815
 30
0.0
 10
199.7842924742104
 20
401.8528659244815
 30
0.0
 10
199.9526491660758
 20
401.8528659244815
 30
0.0
 10
200.2212849868749
 20
401.8528659244815
 30
0.0
 10
200.6367757961662
 20
401.8528659244815
 30
0.0
 10
201.146845697116
 20
401.8528659244815
 30
0.0
 10
201.5963808840864
 20
401.8528659244815
 30
0.0
 10
201.9522318358351
 20
401.8528659244815
 30
0.0
 10
202.3223599902542
 20
401.8528659244815
 30
0.0
 10
202.7042064428449
 20
401.8528659244815
 30
0.0
 10
203.092815047121
 20
401.8528659244815
 30
0.0
 10
203.3546668074541
 20
401.8528659244815
 30
0.0
 10
203.4849455959999
 20
401.8528659244815
 30
0.0
  0
SPLINE
  5
8A
330
1F
100
AcDbEntity
  8
0
  6
Continuous
 62
     7
370
    25
100
AcDbSpline
210
0.0
220
0.0
230
1.0
 70
     8
 71
     3
 72
    10
 73
     6
 74
     0
 42
0.00000001
 43
0.00000001
 40
0.0
 40
0.0
 40
0.0
 40
0.0
 40
0.1875763939472726
 40
0.5415886148331933
 40
0.9999999999999999
 40
0.9999999999999999
 40
0.9999999999999999
 40
0.9999999999999999
 10
199.4849455959954
 20
401.8528659245518
 30
0.0
 10
199.459447203755
 20
401.852171774258
 30
0.0
 10
199.3858257920019
 20
401.8501675567327
 30
0.0
 10
199.2490970371823
 20
401.8333593122564
 30
0.0
 10
199.1488456256021
 20
401.7847356311531
 30
0.0
 10
199.092278598124
 20
401.7572996373681
 30
0.0
  0
SPLINE
  5
8B
330
1F
100
AcDbEntity
  8
0
  6
Continuous
 62
     7
370
    25
100
AcDbSpline
210
0.0
220
0.0
230
1.0
 70
     8
 71
     3
 72
    10
 73
     6
 74
     0
 42
0.00000001
 43
0.00000001
 40
0.0
 40
0.0
 40
0.0
 40
0.0
 40
0.1883341859661199
 40
0.5941670929828291
 40
0.9999999999999999
 40
0.9999999999999999
 40
0.9999999999999999
 40
0.9999999999999999
 10
198.8204612084837
 20
401.5811656249205
 30
0.0
 10
198.7800189159048
 20
401.5482677526529
 30
0.0
 10
198.6524293373485
 20
401.4444797280289
 30
0.0
 10
198.5204554336894
 20
401.1874975353772
 30
0.0
 10
198.4967822090312
 20
400.964409794751
 30
0.0
 10
198.4849455967021
 20
400.8528659244378
 30
0.0
  0
LINE
  5
8C
330
1F
100
AcDbEntity
  8
0
  6
Continuous
 62
     7
370
    25
100
AcDbLine
 10
203.484945596
 20
401.8528659245
 30
0.0
 11
229.2050014444
 21
401.8528659245
 31
0.0
  0
SPLINE
  5
8D
330
1F
100
AcDbEntity
  8
0
  6
Continuous
 62
     7
370
    25
100
AcDbSpline
210
0.0
220
0.0
230
1.0
 70
    24
 71
     3
 72
    23
 73
    19
 74
     0
 42
0.00000001
 43
0.00000001
 40
0.0
 40
0.0
 40
0.0
 40
0.0
 40
0.0310461971587403
 40
0.0621836814112983
 40
0.0934957967590339
 40
0.1250645041119527
 40
0.1873739726855405
 40
0.2501244909554855
 40
0.3126781418415992
 40
0.3752209009458246
 40
0.5000204023883648
 40
0.6248199038310492
 40
0.6872808485693782
 40
0.749916314998861
 40
0.8125850605073057
 40
0.87497629665898
 40
0.9377971086133507
 40
1.0
 40
1.0
 40
1.0
 40
1.0
 10
229.20500144439
 20
401.8528659244815
 30
0.0
 10
229.2699963390467
 20
401.8528659244815
 30
0.0
 10
229.4001772369525
 20
401.8528659244815
 30
0.0
 10
229.5954660573469
 20
401.8528659244815
 30
0.0
 10
229.7908605449996
 20
401.8528659244815
 30
0.0
 10
230.0490474664436
 20
401.8528659244815
 30
0.0
 10
230.3674359216431
 20
401.8528659244815
 30
0.0
 10
230.7373954800705
 20
401.8528659244815
 30
0.0
 10
231.0934146125936
 20
401.8528659244815
 30
0.0
 10
231.5429673448287
 20
401.8528659244815
 30
0.0
 10
232.0531730470512
 20
401.8528659244815
 30
0.0
 10
232.4685480106281
 20
401.8528659244815
 30
0.0
 10
232.7372258320335
 20
401.8528659244815
 30
0.0
 10
232.9054878856246
 20
401.8528659244815
 30
0.0
 10
233.0391687979136
 20
401.8528659244815
 30
0.0
 10
233.1351540821134
 20
401.8528659244815
 30
0.0
 10
233.1958458821524
 20
401.8528659244815
 30
0.0
 10
233.201959662616
 20
401.8528659244814
 30
0.0
 10
233.20500144439
 20
401.8528659244815
 30
0.0
  0
SPLINE
  5
8E
330
1F
100
AcDbEntity
  8
0
  6
Continuous
 62
     7
370
    25
100
AcDbSpline
210
0.0
220
0.0
230
1.0
 70
     8
 71
     3
 72
     9
 73
     5
 74
     0
 42
0.00000001
 43
0.00000001
 40
0.0
 40
0.0
 40
0.0
 40
0.0
 40
0.6627073272105921
 40
1.0
 40
1.0
 40
1.0
 40
1.0
 10
234.2050014054995
 20
400.8528659040498
 30
0.0
 10
234.197961581195
 20
400.9673229580469
 30
0.0
 10
234.1873387556801
 20
401.1400342731291
 30
0.0
 10
234.0964489835306
 20
401.2845895966859
 30
0.0
 10
234.0657925293531
 20
401.3333470481343
 30
0.0
  0
SPLINE
  5
8F
330
1F
100
AcDbEntity
  8
0
  6
Continuous
 62
     7
370
    25
100
AcDbSpline
210
0.0
220
0.0
230
1.0
 70
     8
 71
     3
 72
    10
 73
     6
 74
     0
 42
0.00000001
 43
0.00000001
 40
0.0
 40
0.0
 40
0.0
 40
0.0
 40
0.5076671638401664
 40
0.829483290556501
 40
0.9999999999999999
 40
0.9999999999999999
 40
0.9999999999999999
 40
0.9999999999999999
 10
233.6354573252349
 20
401.7417661146705
 30
0.0
 10
233.5666507578172
 20
401.7755317919285
 30
0.0
 10
233.4542269060915
 20
401.8307019251866
 30
0.0
 10
233.3041498518159
 20
401.8502599730158
 30
0.0
 10
233.2305071723349
 20
401.8521955487592
 30
0.0
 10
233.2050014443853
 20
401.8528659245343
 30
0.0
  0
LINE
  5
90
330
1F
100
AcDbEntity
  8
0
  6
Continuous
 62
     7
370
    25
100
AcDbLine
 10
234.1174101647
 20
400.8528659245
 30
0.0
 11
234.2050014445
 21
400.8528659246
 31
0.0
  0
LINE
  5
91
330
1F
100
AcDbEntity
  8
0
  6
Continuous
 62
     7
370
    25
100
AcDbLine
 10
198.484945596
 20
390.8528659844
 30
0.0
 11
198.4849456936
 21
400.8528659244
 31
0.0
  0
LINE
  5
92
330
1F
100
AcDbEntity
  8
0
  6
Continuous
 62
     7
370
    25
100
AcDbLine
 10
234.2050014054
 20
400.852865904
 30
0.0
 11
234.2050015029
 21
390.8528659844
 31
0.0
  0
LINE
  5
93
330
1F
100
AcDbEntity
  8
0
  6
Continuous
 62
     7
370
    25
100
AcDbLine
 10
229.2050014444
 20
385.8528659845
 30
0.0
 11
203.4849455959
 21
385.8528659845
 31
0.0
  0
ARC
  5
94
330
1F
100
AcDbEntity
  8
0
  6
Continuous
 62
     7
370
    25
100
AcDbCircle
 10
229.2050014445
 20
390.8528659844
 30
0.0
 40
4.999999999923261
100
AcDbArc
 50
269.9999999996
 51
0.0
  0
LINE
  5
95
330
1F
100
AcDbEntity
  8
0
  6
Continuous
 62
     7
370
    25
100
AcDbLine
 10
214.0451784104
 20
385.8528659845
 30
0.0
 11
214.0451784104
 21
385.8028659846
 31
0.0
  0
LINE
  5
96
330
1F
100
AcDbEntity
  8
0
  6
Continuous
 62
     7
370
    25
100
AcDbLine
 10
213.7577005324
 20
385.8528659845
 30
0.0
 11
213.7577005324
 21
385.8028659846
 31
0.0
  0
LINE
  5
97
330
1F
100
AcDbEntity
  8
0
  6
Continuous
 62
     7
370
    25
100
AcDbLine
 10
213.7577005324
 20
385.8028659846
 30
0.0
 11
214.0451784104
 21
385.8028659846
 31
0.0
  0
LINE
  5
98
330
1F
100
AcDbEntity
  8
0
  6
Continuous
 62
     7
370
    25
100
AcDbLine
 10
208.4820691572
 20
385.8028659846
 30
0.0
 11
208.4820691572
 21
385.8528659845
 31
0.0
  0
LINE
  5
99
330
1F
100
AcDbEntity
  8
0
  6
Continuous
 62
     7
370
    25
100
AcDbLine
 10
213.7577005324
 20
385.8028659846
 30
0.0
 11
208.4820691572
 21
385.8028659846
 31
0.0
  0
LINE
  5
9A
330
1F
100
AcDbEntity
  8
0
  6
Continuous
 62
     7
370
    25
100
AcDbLine
 10
219.3815046558
 20
385.8028659846
 30
0.0
 11
219.3815046558
 21
385.8528659845
 31
0.0
  0
LINE
  5
9B
330
1F
100
AcDbEntity
  8
0
  6
Continuous
 62
     7
370
    25
100
AcDbLine
 10
219.044115409
 20
385.8028659846
 30
0.0
 11
219.3815046558
 21
385.8028659846
 31
0.0
  0
LINE
  5
9C
330
1F
100
AcDbEntity
  8
0
  6
Continuous
 62
     7
370
    25
100
AcDbLine
 10
219.044115409
 20
385.8528659845
 30
0.0
 11
219.044115409
 21
385.8028659846
 31
0.0
  0
LINE
  5
9D
330
1F
100
AcDbEntity
  8
0
  6
Continuous
 62
     7
370
    25
100
AcDbLine
 10
221.4258437092
 20
385.8028659846
 30
0.0
 11
219.3815046558
 21
385.8028659846
 31
0.0
  0
LINE
  5
9E
330
1F
100
AcDbEntity
  8
0
  6
Continuous
 62
     7
370
    25
100
AcDbLine
 10
221.4258437092
 20
385.8528659845
 30
0.0
 11
221.4258437092
 21
385.8028659846
 31
0.0
  0
LINE
  5
9F
330
1F
100
AcDbEntity
  8
0
  6
Continuous
 62
     7
370
    25
100
AcDbLine
 10
225.5450014346
 20
385.0028659846
 30
0.0
 11
207.1450014346
 21
385.0028659846
 31
0.0
  0
LINE
  5
A0
330
1F
100
AcDbEntity
  8
0
  6
Continuous
 62
     7
370
    25
100
AcDbLine
 10
222.8802474947
 20
385.8028659846
 30
0.0
 11
222.8802474947
 21
385.8528659845
 31
0.0
  0
LINE
  5
A1
330
1F
100
AcDbEntity
  8
0
  6
Continuous
 62
     7
370
    25
100
AcDbLine
 10
224.5329795636
 20
385.8528659845
 30
0.0
 11
224.5329795636
 21
385.8028659846
 31
0.0
  0
LINE
  5
A2
330
1F
100
AcDbEntity
  8
0
  6
Continuous
 62
     7
370
    25
100
AcDbLine
 10
224.5329795636
 20
385.8028659846
 30
0.0
 11
222.8802474947
 21
385.8028659846
 31
0.0
  0
LINE
  5
A3
330
1F
100
AcDbEntity
  8
0
  6
Continuous
 62
     7
370
    25
100
AcDbLine
 10
222.2309710232
 20
385.8528659845
 30
0.0
 11
222.2309710232
 21
385.8028659846
 31
0.0
  0
LINE
  5
A4
330
1F
100
AcDbEntity
  8
0
  6
Continuous
 62
     7
370
    25
100
AcDbLine
 10
222.2309710232
 20
385.8028659846
 30
0.0
 11
222.8802474947
 21
385.8028659846
 31
0.0
  0
LWPOLYLINE
  5
A5
330
1F
100
AcDbEntity
  8
0
  6
Continuous
 62
     7
370
    25
100
AcDbPolyline
 90
       17
 70
   128
 43
0.0
 10
224.3935207286
 20
385.0028659846
 10
223.7539765806
 20
384.779864077
 10
222.841633903
 20
384.5661556441
 10
221.6905727693
 20
384.3697236501
 10
220.3437904535
 20
384.1979057073
 10
218.8515952897
 20
384.0571199832
 10
217.2697274314
 20
383.9526254534
 10
215.6572767078
 20
383.8883254551
 10
214.0744753545
 20
383.8666218805
 10
212.5804480709
 20
383.8883254551
 10
211.2310034483
 20
383.9526254534
 10
210.0765492699
 20
384.0571199832
 10
209.1602095551
 20
384.1979057073
 10
208.5162136845
 20
384.3697236501
 10
208.1686177801
 20
384.5661556441
 10
208.1304061012
 20
384.779864077
 10
208.4030060247
 20
385.0028659846
  0
LINE
  5
A6
330
1F
100
AcDbEntity
  8
0
  6
Continuous
 62
     7
370
    25
100
AcDbLine
 10
205.1470698229
 20
385.8028659846
 30
0.0
 11
205.1470698229
 21
385.8528659845
 31
0.0
  0
LINE
  5
A7
330
1F
100
AcDbEntity
  8
0
  6
Continuous
 62
     7
370
    25
100
AcDbLine
 10
205.5697224034
 20
385.8528659845
 30
0.0
 11
205.5697224034
 21
385.8028659846
 31
0.0
  0
LINE
  5
A8
330
1F
100
AcDbEntity
  8
0
  6
Continuous
 62
     7
370
    25
100
AcDbLine
 10
205.5697224034
 20
385.8028659846
 30
0.0
 11
205.1470698229
 21
385.8028659846
 31
0.0
  0
LINE
  5
A9
330
1F
100
AcDbEntity
  8
0
  6
Continuous
 62
     7
370
    25
100
AcDbLine
 10
206.7669756291
 20
385.8528659845
 30
0.0
 11
206.7669756291
 21
385.8028659846
 31
0.0
  0
LINE
  5
AA
330
1F
100
AcDbEntity
  8
0
  6
Continuous
 62
     7
370
    25
100
AcDbLine
 10
205.5697224034
 20
385.8028659846
 30
0.0
 11
206.7669756291
 21
385.8028659846
 31
0.0
  0
LINE
  5
AB
330
1F
100
AcDbEntity
  8
0
  6
Continuous
 62
     7
370
    25
100
AcDbLine
 10
227.2444369332
 20
385.8028659846
 30
0.0
 11
227.2444369332
 21
385.8528659845
 31
0.0
  0
LINE
  5
AC
330
1F
100
AcDbEntity
  8
0
  6
Continuous
 62
     7
370
    25
100
AcDbLine
 10
227.5950014346
 20
385.8028659846
 30
0.0
 11
227.2444369332
 21
385.8028659846
 31
0.0
  0
LINE
  5
AD
330
1F
100
AcDbEntity
  8
0
  6
Continuous
 62
     7
370
    25
100
AcDbLine
 10
226.0333885445
 20
385.8528659845
 30
0.0
 11
226.0333885445
 21
385.8028659846
 31
0.0
  0
LINE
  5
AE
330
1F
100
AcDbEntity
  8
0
  6
Continuous
 62
     7
370
    25
100
AcDbLine
 10
226.0333885445
 20
385.8028659846
 30
0.0
 11
227.2444369332
 21
385.8028659846
 31
0.0
  0
LINE
  5
AF
330
1F
100
AcDbEntity
  8
0
  6
Continuous
 62
     7
370
    25
100
AcDbLine
 10
225.9230272402
 20
385.8528659845
 30
0.0
 11
225.9230272402
 21
385.8028659846
 31
0.0
  0
LINE
  5
B0
330
1F
100
AcDbEntity
  8
0
  6
Continuous
 62
     7
370
    25
100
AcDbLine
 10
225.9230272402
 20
385.8028659846
 30
0.0
 11
226.0333885445
 21
385.8028659846
 31
0.0
  0
LINE
  5
B1
330
1F
100
AcDbEntity
  8
0
  6
Continuous
 62
     7
370
    25
100
AcDbLine
 10
205.1120170197
 20
385.8528659845
 30
0.0
 11
205.1120170197
 21
385.8028659846
 31
0.0
  0
LINE
  5
B2
330
1F
100
AcDbEntity
  8
0
  6
Continuous
 62
     7
370
    25
100
AcDbLine
 10
205.1120170197
 20
385.8028659846
 30
0.0
 11
205.1470698229
 21
385.8028659846
 31
0.0
  0
LINE
  5
B3
330
1F
100
AcDbEntity
  8
0
  6
Continuous
 62
     7
370
    25
100
AcDbLine
 10
332.2959174422
 20
322.5142707371
 30
0.0
 11
331.3040971993
 21
322.5142713726
 31
0.0
  0
LINE
  5
B4
330
1F
100
AcDbEntity
  8
0
  6
Continuous
 62
     7
370
    25
100
AcDbLine
 10
330.3123121103
 20
322.5142709603
 30
0.0
 11
329.320490637
 21
322.5142709612
 31
0.0
  0
LINE
  5
B5
330
1F
100
AcDbEntity
  8
0
  6
Continuous
 62
     7
370
    25
100
AcDbLine
 10
329.320490637
 20
322.5142709613
 30
0.0
 11
323.3695587527
 21
322.5142709613
 31
0.0
  0
LINE
  5
B6
330
1F
100
AcDbEntity
  8
0
  6
Continuous
 62
     7
370
    25
100
AcDbLine
 10
323.3695587527
 20
322.5142709504
 30
0.0
 11
322.3777082791
 21
322.5142709495
 31
0.0
  0
LINE
  5
B7
330
1F
100
AcDbEntity
  8
0
  6
Continuous
 62
     7
370
    25
100
AcDbLine
 10
321.3858778357
 20
322.514273839
 30
0.0
 11
320.3940948717
 21
322.5142682688
 31
0.0
  0
SPLINE
  5
B8
330
1F
100
AcDbEntity
  8
0
  6
Continuous
 62
     7
370
    25
100
AcDbSpline
210
0.0
220
0.0
230
1.0
 70
     8
 71
     3
 72
    98
 73
    94
 74
     0
 42
0.00000001
 43
0.00000001
 40
-54.3861539522409
 40
-54.3861539522409
 40
-54.3861539522409
 40
-54.3861539522409
 40
-53.91730779748021
 40
-53.91730779748021
 40
-53.44846164271951
 40
-53.44846164271951
 40
-52.9796154879588
 40
-52.9796154879588
 40
-52.51076933319811
 40
-52.51076933319811
 40
-52.27634625581771
 40
-52.27634625581771
 40
-52.04192317843741
 40
-52.04192317843741
 40
-51.80750010105701
 40
-51.80750010105701
 40
-51.5730770236767
 40
-51.5730770236767
 40
-51.10423086891601
 40
-51.10423086891601
 40
-50.63538471415531
 40
-50.63538471415531
 40
-50.1665385593946
 40
-50.1665385593946
 40
-49.69769240463391
 40
-49.69769240463391
 40
-49.22884624987321
 40
-49.22884624987321
 40
-48.7600000951125
 40
-48.7600000951125
 40
-48.2911539403518
 40
-48.2911539403518
 40
-47.82230778559111
 40
-47.82230778559111
 40
-47.35346163083041
 40
-47.35346163083041
 40
-46.8846154760697
 40
-46.8846154760697
 40
-46.41576932130901
 40
-46.41576932130901
 40
-46.18134624392871
 40
-46.18134624392871
 40
-45.94692316654831
 40
-45.94692316654831
 40
-45.4780770117876
 40
-45.4780770117876
 40
-45.00923085702691
 40
-45.00923085702691
 40
-44.77480777964661
 40
-44.77480777964661
 40
-44.54038470226621
 40
-44.54038470226621
 40
-44.0715385475055
 40
-44.0715385475055
 40
-43.83711547012521
 40
-43.83711547012521
 40
-43.60269239274481
 40
-43.60269239274481
 40
-43.36826931536451
 40
-43.36826931536451
 40
-43.13384623798411
 40
-43.13384623798411
 40
-42.8994231606038
 40
-42.8994231606038
 40
-42.6650000832234
 40
-42.6650000832234
 40
-42.19615392846281
 40
-42.19615392846281
 40
-41.72730777370211
 40
-41.72730777370211
 40
-41.2584616189414
 40
-41.2584616189414
 40
-40.78961546418071
 40
-40.78961546418071
 40
-40.32076930942001
 40
-40.32076930942001
 40
-39.8519231546593
 40
-39.8519231546593
 40
-39.38307699989861
 40
-39.38307699989861
 40
-38.91423084513791
 40
-38.91423084513791
 40
-38.4453846903772
 40
-38.4453846903772
 40
-37.97653853561651
 40
-37.97653853561651
 40
-37.50769238085581
 40
-37.50769238085581
 40
-36.57000007133441
 40
-36.57000007133441
 40
-36.10115391657371
 40
-36.10115391657371
 40
-35.632307761813
 40
-35.632307761813
 40
-35.632307761813
 40
-35.632307761813
 10
320.3940948716759
 20
322.5142700213097
 30
0.0
 10
320.2287105380408
 20
322.5142690924596
 30
0.0
 10
320.0635498837789
 20
322.5142852066715
 30
0.0
 10
319.7328618292999
 20
322.5152289481687
 30
0.0
 10
319.5676017780079
 20
322.5161557258459
 30
0.0
 10
319.2369777567009
 20
322.5197093171971
 30
0.0
 10
319.0717335718498
 20
322.5223358720156
 30
0.0
 10
318.7411237751089
 20
322.5300728527603
 30
0.0
 10
318.5760691101449
 20
322.5351667122221
 30
0.0
 10
318.3282036674869
 20
322.5452283272887
 30
0.0
 10
318.2456202449299
 20
322.5489826262401
 30
0.0
 10
318.0804583186199
 20
322.5573906809306
 30
0.0
 10
317.9981598929039
 20
322.5620237245737
 30
0.0
 10
317.8328685989979
 20
322.5722902743282
 30
0.0
 10
317.7506913970068
 20
322.5778727869579
 30
0.0
 10
317.5856994557998
 20
322.5900743441323
 30
0.0
 10
317.5033643077248
 20
322.5966691265636
 30
0.0
 10
317.2563766753779
 20
322.6180712260643
 30
0.0
 10
317.0916461351679
 20
322.63451340593
 30
0.0
 10
316.7635131513069
 20
322.6720954217313
 30
0.0
 10
316.5992671519729
 20
322.6933328780225
 30
0.0
 10
316.2722069955369
 20
322.7409809313179
 30
0.0
 10
316.1090712673389
 20
322.7674182525071
 30
0.0
 10
315.7836702723858
 20
322.8259701064469
 30
0.0
 10
315.6213110008169
 20
322.8580991212316
 30
0.0
 10
315.2985326021719
 20
322.9282703964987
 30
0.0
 10
315.1375062132219
 20
322.9664711140634
 30
0.0
 10
314.8174766833969
 20
323.0492877392694
 30
0.0
 10
314.6582467406119
 20
323.0939739157719
 30
0.0
 10
314.3420255844499
 20
323.1902567410776
 30
0.0
 10
314.1848469120659
 20
323.2419155769759
 30
0.0
 10
313.8734477372129
 20
323.3524987256873
 30
0.0
 10
313.7189820127689
 20
323.4115458891431
 30
0.0
 10
313.4133107127678
 20
323.5375236075527
 30
0.0
 10
313.2620634332429
 20
323.604479453149
 30
0.0
 10
312.9634987069159
 20
323.7465782662635
 30
0.0
 10
312.8163073911929
 20
323.8216771771963
 30
0.0
 10
312.5263597949759
 20
323.980757368151
 30
0.0
 10
312.3839272295448
 20
324.0645574464041
 30
0.0
 10
312.1743044166569
 20
324.1970792311879
 30
0.0
 10
312.1050489129919
 20
324.2424175194054
 30
0.0
 10
311.9683995580599
 20
324.335090265414
 30
0.0
 10
311.9006492631649
 20
324.3826872117618
 30
0.0
 10
311.7002186158869
 20
324.5286686919758
 30
0.0
 10
311.5699849423789
 20
324.6303984871706
 30
0.0
 10
311.3165258852489
 20
324.8429893514304
 30
0.0
 10
311.1937330781678
 20
324.9534768574841
 30
0.0
 10
311.0153838450019
 20
325.1259486571246
 30
0.0
 10
310.9571060848289
 20
325.1843883270052
 30
0.0
 10
310.8424052410629
 20
325.3036084730039
 30
0.0
 10
310.7862475773989
 20
325.3641159812639
 30
0.0
 10
310.620659003316
 20
325.5489597202915
 30
0.0
 10
310.5149063701659
 20
325.6757540564791
 30
0.0
 10
310.3625985162909
 20
325.8716150725686
 30
0.0
 10
310.3130238697669
 20
325.9376625159702
 30
0.0
 10
310.2160050742598
 20
326.071570000398
 30
0.0
 10
310.1686402998079
 20
326.1393282565589
 30
0.0
 10
310.0761945867649
 20
326.2763112243172
 30
0.0
 10
310.0310455991229
 20
326.3456565402139
 30
0.0
 10
309.9430854214299
 20
326.4855231541049
 30
0.0
 10
309.9002061085858
 20
326.5561534440595
 30
0.0
 10
309.8165811010618
 20
326.6987911472051
 30
0.0
 10
309.7758954637839
 20
326.7707141811909
 30
0.0
 10
309.6966024263689
 20
326.9158749541262
 30
0.0
 10
309.6581242606229
 20
326.988871224558
 30
0.0
 10
309.5456625822329
 20
327.2098662030539
 30
0.0
 10
309.4749143241108
 20
327.3593658727303
 30
0.0
 10
309.3413834197889
 20
327.66192637675
 30
0.0
 10
309.2787032749229
 20
327.8148687376955
 30
0.0
 10
309.1609671677128
 20
328.1236881314106
 30
0.0
 10
309.1058854489739
 20
328.279657487547
 30
0.0
 10
309.0028630419658
 20
328.5938799514268
 30
0.0
 10
308.9549779020239
 20
328.7519545128486
 30
0.0
 10
308.8657958896129
 20
329.0704220200411
 30
0.0
 10
308.8245822832089
 20
329.230478647932
 30
0.0
 10
308.7484013198899
 20
329.5521544447964
 30
0.0
 10
308.7134463734869
 20
329.7137892881726
 30
0.0
 10
308.6493451993009
 20
330.038011792124
 30
0.0
 10
308.6201815187989
 20
330.2008193371697
 30
0.0
 10
308.5672882013538
 20
330.527186532338
 30
0.0
 10
308.5435708972558
 20
330.6907103535026
 30
0.0
 10
308.5010931614389
 20
331.0185822409499
 30
0.0
 10
308.4823463525989
 20
331.1828241906206
 30
0.0
 10
308.4493682260988
 20
331.5117221062742
 30
0.0
 10
308.4351100160098
 20
331.6766727493759
 30
0.0
 10
308.4106352983459
 20
332.0061534677779
 30
0.0
 10
308.4003593624439
 20
332.1711537273561
 30
0.0
 10
308.3748874282219
 20
332.6663999968062
 30
0.0
 10
308.3649500961099
 20
332.996883855534
 30
0.0
 10
308.3562136116599
 20
333.4927010190107
 30
0.0
 10
308.3543207771019
 20
333.6579222699335
 30
0.0
 10
308.3518120565068
 20
333.9887972103517
 30
0.0
 10
308.3511943463388
 20
334.1537384237417
 30
0.0
 10
308.3507985164198
 20
334.319125348592
 30
0.0
  0
SPLINE
  5
B9
330
1F
100
AcDbEntity
  8
0
  6
Continuous
 62
     7
370
    25
100
AcDbSpline
210
0.0
220
0.0
230
1.0
 70
     8
 71
     3
 72
     8
 73
     4
 74
     0
 42
0.00000001
 43
0.00000001
 40
0.0
 40
0.0
 40
0.0
 40
0.0
 40
1.0
 40
1.0
 40
1.0
 40
1.0
 10
308.3504495198669
 20
334.4927976190793
 30
0.0
 10
308.3505500770543
 20
334.4348976770012
 30
0.0
 10
308.3506606480955
 20
334.3770082876383
 30
0.0
 10
308.3507988112471
 20
334.319125349327
 30
0.0
  0
SPLINE
  5
BA
330
1F
100
AcDbEntity
  8
0
  6
Continuous
 62
     7
370
    25
100
AcDbSpline
210
0.0
220
0.0
230
1.0
 70
     8
 71
     3
 72
     8
 73
     4
 74
     0
 42
0.00000001
 43
0.00000001
 40
0.0
 40
0.0
 40
0.0
 40
0.0
 40
1.0
 40
1.0
 40
1.0
 40
1.0
 10
344.339204263948
 20
334.3192325729102
 30
0.0
 10
344.3393423545036
 20
334.3770903418732
 30
0.0
 10
344.3394528641547
 20
334.434945483436
 30
0.0
 10
344.3395533494659
 20
334.4927976190793
 30
0.0
  0
SPLINE
  5
BB
330
1F
100
AcDbEntity
  8
0
  6
Continuous
 62
     7
370
    25
100
AcDbSpline
210
0.0
220
0.0
230
1.0
 70
     8
 71
     3
 72
   106
 73
   102
 74
     0
 42
0.00000001
 43
0.00000001
 40
-24.3800000475563
 40
-24.3800000475563
 40
-24.3800000475563
 40
-24.3800000475563
 40
-23.9111538927956
 40
-23.9111538927956
 40
-23.4423077380349
 40
-23.4423077380349
 40
-22.97346158327421
 40
-22.97346158327421
 40
-22.73903850589386
 40
-22.73903850589386
 40
-22.50461542851351
 40
-22.50461542851351
 40
-22.03576927375281
 40
-22.03576927375281
 40
-21.56692311899211
 40
-21.56692311899211
 40
-21.09807696423142
 40
-21.09807696423142
 40
-20.62923080947072
 40
-20.62923080947072
 40
-20.16038465471002
 40
-20.16038465471002
 40
-19.69153849994937
 40
-19.69153849994937
 40
-19.22269234518867
 40
-19.22269234518867
 40
-18.75384619042797
 40
-18.75384619042797
 40
-18.51942311304757
 40
-18.51942311304757
 40
-18.28500003566727
 40
-18.28500003566727
 40
-17.81615388090657
 40
-17.81615388090657
 40
-17.34730772614587
 40
-17.34730772614587
 40
-16.87846157138517
 40
-16.87846157138517
 40
-16.64403849400477
 40
-16.64403849400477
 40
-16.40961541662447
 40
-16.40961541662447
 40
-16.17519233924407
 40
-16.17519233924407
 40
-15.94076926186377
 40
-15.94076926186377
 40
-15.47192310710307
 40
-15.47192310710307
 40
-15.23750002972267
 40
-15.23750002972267
 40
-15.00307695234237
 40
-15.00307695234237
 40
-14.76865387496197
 40
-14.76865387496197
 40
-14.53423079758167
 40
-14.53423079758167
 40
-14.06538464282097
 40
-14.06538464282097
 40
-13.83096156544057
 40
-13.83096156544057
 40
-13.59653848806027
 40
-13.59653848806027
 40
-13.12769233329957
 40
-13.12769233329957
 40
-12.65884617853887
 40
-12.65884617853887
 40
-12.19000002377817
 40
-12.19000002377817
 40
-11.72115386901747
 40
-11.72115386901747
 40
-11.48673079163707
 40
-11.48673079163707
 40
-11.25230771425677
 40
-11.25230771425677
 40
-10.78346155949607
 40
-10.78346155949607
 40
-10.31461540473537
 40
-10.31461540473537
 40
-9.84576924997467
 40
-9.84576924997467
 40
-9.376923095213968
 40
-9.376923095213968
 40
-8.90807694045327
 40
-8.90807694045327
 40
-8.439230785692569
 40
-8.439230785692569
 40
-8.20480770831227
 40
-8.20480770831227
 40
-7.970384630931871
 40
-7.970384630931871
 40
-7.735961553551569
 40
-7.735961553551569
 40
-7.50153847617117
 40
-7.50153847617117
 40
-7.032692321410469
 40
-7.032692321410469
 40
-6.563846166649771
 40
-6.563846166649771
 40
-6.09500001188907
 40
-6.09500001188907
 40
-5.626153857128369
 40
-5.626153857128369
 40
-5.626153857128369
 40
-5.626153857128369
 10
344.3392046311758
 20
334.319232572035
 30
0.0
 10
344.3388094861389
 20
334.154007509664
 30
0.0
 10
344.3381899058699
 20
333.9886547879202
 30
0.0
 10
344.3356839724609
 20
333.6581200952828
 30
0.0
 10
344.3337900023459
 20
333.4927003741712
 30
0.0
 10
344.3279659809459
 20
333.1623270367181
 30
0.0
 10
344.3240215452549
 20
332.9967527526271
 30
0.0
 10
344.3160284385609
 20
332.749239161096
 30
0.0
 10
344.3130040346859
 20
332.666450455643
 30
0.0
 10
344.3061887016339
 20
332.5014586691472
 30
0.0
 10
344.3023857632979
 20
332.4188495116117
 30
0.0
 10
344.2896389137139
 20
332.171096239766
 30
0.0
 10
344.2793779445269
 20
332.0063104041427
 30
0.0
 10
344.2548849438058
 20
331.6765551287532
 30
0.0
 10
344.2406343479099
 20
331.5117347013446
 30
0.0
 10
344.2076718085529
 20
331.1829779432668
 30
0.0
 10
344.1889128756779
 20
331.0185982886861
 30
0.0
 10
344.1464408095509
 20
330.6907765622093
 30
0.0
 10
344.1227303309909
 20
330.5272941281687
 30
0.0
 10
344.0698042359199
 20
330.200722345924
 30
0.0
 10
344.0406987238749
 20
330.0382332948444
 30
0.0
 10
343.9765547248359
 20
329.7137815700917
 30
0.0
 10
343.9415923391919
 20
329.5521286948251
 30
0.0
 10
343.8654433048879
 20
329.2305579387437
 30
0.0
 10
343.8241850543878
 20
329.0703501594383
 30
0.0
 10
343.7350796654599
 20
328.7521390313581
 30
0.0
 10
343.6871172766759
 20
328.5938045782659
 30
0.0
 10
343.6098776708299
 20
328.3582254041982
 30
0.0
 10
343.5832528417878
 20
328.2800245225242
 30
0.0
 10
343.5281113462158
 20
328.1241452778123
 30
0.0
 10
343.4996537346129
 20
328.0466054220877
 30
0.0
 10
343.4112876627649
 20
327.8148397161558
 30
0.0
 10
343.3485677137959
 20
327.6618006284563
 30
0.0
 10
343.2151077047499
 20
327.3594178813407
 30
0.0
 10
343.1443838904179
 20
327.2099502148513
 30
0.0
 10
342.9944082152269
 20
326.9152462016937
 30
0.0
 10
342.9152844224369
 20
326.7702077413608
 30
0.0
 10
342.7898309485839
 20
326.5562106086914
 30
0.0
 10
342.7469314109459
 20
326.4855450743538
 30
0.0
 10
342.6589817879978
 20
326.3456952747236
 30
0.0
 10
342.6138330403228
 20
326.2763492472274
 30
0.0
 10
342.5214101643649
 20
326.1393923089366
 30
0.0
 10
342.4739907584608
 20
326.071562216346
 30
0.0
 10
342.3770607409409
 20
325.9377735330216
 30
0.0
 10
342.3273838587178
 20
325.8715826952534
 30
0.0
 10
342.1752474736609
 20
325.6759394894732
 30
0.0
 10
342.0693211155188
 20
325.5489298302255
 30
0.0
 10
341.9037975075119
 20
325.3641574666923
 30
0.0
 10
341.8476450588769
 20
325.3036536521271
 30
0.0
 10
341.7329650474838
 20
325.1844593778142
 30
0.0
 10
341.6746765465259
 20
325.1260063426698
 30
0.0
 10
341.5557670037518
 20
325.0110055163563
 30
0.0
 10
341.4953676393239
 20
324.9546683430319
 30
0.0
 10
341.3724920703099
 20
324.844036502487
 30
0.0
 10
341.3100740474739
 20
324.789805798347
 30
0.0
 10
341.1199748680008
 20
324.6303672324769
 30
0.0
 10
340.9899095878259
 20
324.5287648656888
 30
0.0
 10
340.7893614037159
 20
324.3826943504393
 30
0.0
 10
340.7217176620609
 20
324.3351671939234
 30
0.0
 10
340.5848614021328
 20
324.2423583795879
 30
0.0
 10
340.5157731596109
 20
324.1971267740036
 30
0.0
 10
340.3060426986449
 20
324.0645386986901
 30
0.0
 10
340.1636655789268
 20
323.9807718796658
 30
0.0
 10
339.8738073569079
 20
323.8217344505868
 30
0.0
 10
339.7264971273889
 20
323.746573893819
 30
0.0
 10
339.4278868976809
 20
323.6044551239091
 30
0.0
 10
339.2767895095649
 20
323.5375704099361
 30
0.0
 10
338.9712104873139
 20
323.411615895834
 30
0.0
 10
338.8164086137269
 20
323.3524472277449
 30
0.0
 10
338.5831356538969
 20
323.2696044293585
 30
0.0
 10
338.5045728413659
 20
323.2427521677107
 30
0.0
 10
338.3478208850358
 20
323.1911638456904
 30
0.0
 10
338.2689954526159
 20
323.1662080997339
 30
0.0
 10
338.0316579174689
 20
323.0939412280288
 30
0.0
 10
337.8725267867738
 20
323.0492917180887
 30
0.0
 10
337.5524398056969
 20
322.9664582330025
 30
0.0
 10
337.3917327590589
 20
322.928330283681
 30
0.0
 10
337.0684414028208
 20
322.8580441948748
 30
0.0
 10
336.9063336683068
 20
322.8259747572947
 30
0.0
 10
336.5809930481769
 20
322.7674277455026
 30
0.0
 10
336.4178399492919
 20
322.7409872972773
 30
0.0
 10
336.0905730064529
 20
322.6933095048452
 30
0.0
 10
335.9266010358548
 20
322.672108309204
 30
0.0
 10
335.5982274548799
 20
322.6345009088557
 30
0.0
 10
335.4337500498499
 20
322.6180827534506
 30
0.0
 10
335.1867098940849
 20
322.5966744520679
 30
0.0
 10
335.1042256527019
 20
322.5900688936217
 30
0.0
 10
334.9395978979509
 20
322.577892523343
 30
0.0
 10
334.8568439462449
 20
322.572272472946
 30
0.0
 10
334.6920566656428
 20
322.5620372372052
 30
0.0
 10
334.6093674945309
 20
322.5573803627343
 30
0.0
 10
334.4444290497049
 20
322.5489850504429
 30
0.0
 10
334.3618764356258
 20
322.5452318270436
 30
0.0
 10
334.1140254041659
 20
322.5351704205882
 30
0.0
 10
333.9487771215789
 20
322.5300704534264
 30
0.0
 10
333.6184186246229
 20
322.5223385707127
 30
0.0
 10
333.4530304859979
 20
322.5197096863706
 30
0.0
 10
333.1224509780609
 20
322.516156218634
 30
0.0
 10
332.9571729358829
 20
322.5152289304005
 30
0.0
 10
332.6265891126019
 20
322.5142854015396
 30
0.0
 10
332.4612307495289
 20
322.5142690696963
 30
0.0
 10
332.2959174421738
 20
322.5142700092921
 30
0.0
  0
SPLINE
  5
BC
330
1F
100
AcDbEntity
  8
0
  6
Continuous
 62
     7
370
    25
100
AcDbSpline
210
0.0
220
0.0
230
1.0
 70
     8
 71
     3
 72
   262
 73
   258
 74
     0
 42
0.00000001
 43
0.00000001
 40
5.666953204607807
 40
5.666953204607807
 40
5.666953204607807
 40
5.666953204607807
 40
5.669836879042172
 40
5.669836879042172
 40
5.677190721554169
 40
5.677190721554169
 40
5.706606091602374
 40
5.706606091602374
 40
5.765436831698771
 40
5.765436831698771
 40
5.883098311891573
 40
5.883098311891573
 40
6.118421272277068
 40
6.118421272277068
 40
6.589067193048272
 40
6.589067193048272
 40
7.05971311381937
 40
7.05971311381937
 40
7.530359034590468
 40
7.530359034590468
 40
7.76568199497607
 40
7.76568199497607
 40
8.001004955361573
 40
8.001004955361573
 40
8.47165087613267
 40
8.47165087613267
 40
8.942296796903868
 40
8.942296796903868
 40
9.412942717674973
 40
9.412942717674973
 40
9.88358863844607
 40
9.88358863844607
 40
10.11891159883167
 40
10.11891159883167
 40
10.35423455921717
 40
10.35423455921717
 40
10.82488047998837
 40
10.82488047998837
 40
11.29552640075947
 40
11.29552640075947
 40
11.53084936114497
 40
11.53084936114497
 40
11.76617232153057
 40
11.76617232153057
 40
12.23681824230167
 40
12.23681824230167
 40
12.47214120268727
 40
12.47214120268727
 40
12.70746416307277
 40
12.70746416307277
 40
13.17811008384397
 40
13.17811008384397
 40
13.41343304422947
 40
13.41343304422947
 40
13.64875600461507
 40
13.64875600461507
 40
13.88407896500057
 40
13.88407896500057
 40
14.11940192538617
 40
14.11940192538617
 40
14.59004784615727
 40
14.59004784615727
 40
15.06069376692837
 40
15.06069376692837
 40
15.53133968769957
 40
15.53133968769957
 40
16.00198560847067
 40
16.00198560847067
 40
16.23730856885627
 40
16.23730856885627
 40
16.47263152924177
 40
16.47263152924177
 40
16.70795448962737
 40
16.70795448962737
 40
16.94327745001287
 40
16.94327745001287
 40
17.41392337078397
 40
17.41392337078397
 40
17.88456929155517
 40
17.88456929155517
 40
18.35521521232627
 40
18.35521521232627
 40
18.59053817271187
 40
18.59053817271187
 40
18.82586113309737
 40
18.82586113309737
 40
19.29650705386847
 40
19.29650705386847
 40
19.76715297463967
 40
19.76715297463967
 40
20.00247593502517
 40
20.00247593502517
 40
20.23779889541077
 40
20.23779889541077
 40
20.70844481618187
 40
20.70844481618187
 40
21.17909073695297
 40
21.17909073695297
 40
21.64973665772407
 40
21.64973665772407
 40
22.12038257849527
 40
22.12038257849527
 40
22.35570553888077
 40
22.35570553888077
 40
22.59102849926637
 40
22.59102849926637
 40
23.06167442003747
 40
23.06167442003747
 40
23.53232034080857
 40
23.53232034080857
 40
24.00296626157967
 40
24.00296626157967
 40
24.47361218235087
 40
24.47361218235087
 40
24.94425810312197
 40
24.94425810312197
 40
25.41490402389307
 40
25.41490402389307
 40
26.35619586543537
 40
26.35619586543537
 40
27.29748770697757
 40
27.29748770697757
 40
28.23877954851977
 40
28.23877954851977
 40
29.18007139006207
 40
29.18007139006207
 40
30.12136323160427
 40
30.12136323160427
 40
31.06265507314657
 40
31.06265507314657
 40
32.00394691468877
 40
32.00394691468877
 40
32.94523875623107
 40
32.94523875623107
 40
33.88653059777327
 40
33.88653059777327
 40
34.82782243931547
 40
34.82782243931547
 40
35.29846836008667
 40
35.29846836008667
 40
35.76911428085777
 40
35.76911428085777
 40
36.00443724124327
 40
36.00443724124327
 40
36.23976020162887
 40
36.23976020162887
 40
36.71040612239997
 40
36.71040612239997
 40
37.18105204317117
 40
37.18105204317117
 40
37.65169796394227
 40
37.65169796394227
 40
37.88702092432777
 40
37.88702092432777
 40
38.12234388471337
 40
38.12234388471337
 40
38.59298980548447
 40
38.59298980548447
 40
39.06363572625557
 40
39.06363572625557
 40
39.53428164702677
 40
39.53428164702677
 40
40.00492756779787
 40
40.00492756779787
 40
40.47557348856897
 40
40.47557348856897
 40
40.94621940934007
 40
40.94621940934007
 40
41.41686533011117
 40
41.41686533011117
 40
41.65218829049677
 40
41.65218829049677
 40
41.88751125088237
 40
41.88751125088237
 40
42.35815717165347
 40
42.35815717165347
 40
42.59348013203897
 40
42.59348013203897
 40
42.82880309242457
 40
42.82880309242457
 40
43.29944901319567
 40
43.29944901319567
 40
43.53477197358127
 40
43.53477197358127
 40
43.77009493396677
 40
43.77009493396677
 40
44.00541789435237
 40
44.00541789435237
 40
44.24074085473797
 40
44.24074085473797
 40
44.71138677550907
 40
44.71138677550907
 40
45.18203269628017
 40
45.18203269628017
 40
45.41735565666577
 40
45.41735565666577
 40
45.65267861705127
 40
45.65267861705127
 40
46.12332453782247
 40
46.12332453782247
 40
46.35864749820797
 40
46.35864749820797
 40
46.59397045859357
 40
46.59397045859357
 40
47.06461637936467
 40
47.06461637936467
 40
47.53526230013577
 40
47.53526230013577
 40
47.77058526052137
 40
47.77058526052137
 40
48.00590822090687
 40
48.00590822090687
 40
48.24123118129247
 40
48.24123118129247
 40
48.47655414167807
 40
48.47655414167807
 40
48.94720006244917
 40
48.94720006244917
 40
49.41784598322027
 40
49.41784598322027
 40
49.88849190399137
 40
49.88849190399137
 40
50.12381486437697
 40
50.12381486437697
 40
50.35913782476252
 40
50.35913782476252
 40
50.82978374553364
 40
50.82978374553364
 40
51.30042966630477
 40
51.30042966630477
 40
51.77107558707588
 40
51.77107558707588
 40
52.24172150784701
 40
52.24172150784701
 40
52.47704446823257
 40
52.47704446823257
 40
52.71236742861813
 40
52.71236742861813
 40
53.18301334938925
 40
53.18301334938925
 40
53.65365927016037
 40
53.65365927016037
 40
54.12430519093149
 40
54.12430519093149
 40
54.35962815131705
 40
54.35962815131705
 40
54.47728963150983
 40
54.47728963150983
 40
54.53612037160622
 40
54.53612037160622
 40
54.56553574165442
 40
54.56553574165442
 40
54.56921266291045
 40
54.56921266291045
 40
54.57288958416647
 40
54.57288958416647
 40
54.57574895634826
 40
54.57574895634826
 40
54.57574895634826
 40
54.57574895634826
 10
308.3504501199272
 20
400.5688911812489
 30
0.0
 10
308.3504506904114
 20
400.569908814424
 30
0.0
 10
308.3504518702391
 20
400.5709334597252
 30
0.0
 10
308.3504602349972
 20
400.5746393449817
 30
0.0
 10
308.3504637709894
 20
400.5770950590239
 30
0.0
 10
308.3504872928303
 20
400.5903194241761
 30
0.0
 10
308.3505057057866
 20
400.6006416210672
 30
0.0
 10
308.3505629459022
 20
400.6317533595795
 30
0.0
 10
308.3506031281041
 20
400.6526182353883
 30
0.0
 10
308.350731911821
 20
400.7152472757732
 30
0.0
 10
308.3508274368806
 20
400.7565713869175
 30
0.0
 10
308.3511681538338
 20
400.8816762163468
 30
0.0
 10
308.3514642936332
 20
400.9649588387688
 30
0.0
 10
308.3527131959838
 20
401.2145661779962
 30
0.0
 10
308.3540342762965
 20
401.3812329400909
 30
0.0
 10
308.3584702059496
 20
401.7143867883695
 30
0.0
 10
308.3615719033482
 20
401.8806274856553
 30
0.0
 10
308.3703558728762
 20
402.2139332255654
 30
0.0
 10
308.3760179655112
 20
402.3800749232918
 30
0.0
 10
308.3870020991524
 20
402.6298065162468
 30
0.0
 10
308.3910838130615
 20
402.7130655240858
 30
0.0
 10
308.4001470109068
 20
402.8792260912229
 30
0.0
 10
308.4051469552981
 20
402.9624560825528
 30
0.0
 10
308.4215756790463
 20
403.2115985349589
 30
0.0
 10
308.4344657754646
 20
403.3777957416954
 30
0.0
 10
308.4646142029152
 20
403.7094792957652
 30
0.0
 10
308.4818813210888
 20
403.8750612076619
 30
0.0
 10
308.5213241905672
 20
404.2057243733009
 30
0.0
 10
308.5435141800139
 20
404.3709455329902
 30
0.0
 10
308.5932520980185
 20
404.7003877870937
 30
0.0
 10
308.6207231124246
 20
404.8642706737366
 30
0.0
 10
308.6664329660097
 20
405.1102739686362
 30
0.0
 10
308.6823212599547
 20
405.1917646371073
 30
0.0
 10
308.7156789836621
 20
405.3549300127356
 30
0.0
 10
308.7331514602776
 20
405.4365875514938
 30
0.0
 10
308.7876726332429
 20
405.6799942757543
 30
0.0
 10
308.8272821988371
 20
405.8421927966596
 30
0.0
 10
308.9129036499817
 20
406.1637454868999
 30
0.0
 10
308.9591802515265
 20
406.3241492817525
 30
0.0
 10
309.0337184811693
 20
406.5622753580849
 30
0.0
 10
309.0595334352688
 20
406.6416414403094
 30
0.0
 10
309.112864524041
 20
406.7993362380806
 30
0.0
 10
309.1404079608026
 20
406.8777659088751
 30
0.0
 10
309.2261229249151
 20
407.1126877940893
 30
0.0
 10
309.2870133389089
 20
407.2676901171254
 30
0.0
 10
309.3843750471154
 20
407.4976267196772
 30
0.0
 10
309.4178895186589
 20
407.5739571868218
 30
0.0
 10
309.4868868032295
 20
407.7255059069968
 30
0.0
 10
309.5224400020466
 20
407.8008717535346
 30
0.0
 10
309.6322023683873
 20
408.0252747276807
 30
0.0
 10
309.7096032896978
 20
408.1727636822367
 30
0.0
 10
309.8324060722131
 20
408.3904125803538
 30
0.0
 10
309.8743017218051
 20
408.462080648337
 30
0.0
 10
309.9606927834885
 20
408.6046976626802
 30
0.0
 10
310.0049839124403
 20
408.675286979994
 30
0.0
 10
310.0956193740802
 20
408.8147044548062
 30
0.0
 10
310.1422766936638
 20
408.8839731762612
 30
0.0
 10
310.2376091424317
 20
409.0204936504642
 30
0.0
 10
310.2864088603181
 20
409.087936586911
 30
0.0
 10
310.4363134356944
 20
409.2877933377067
 30
0.0
 10
310.5407700095496
 20
409.4175766855536
 30
0.0
 10
310.7585971421892
 20
409.6694567239241
 30
0.0
 10
310.8721405800634
 20
409.7917462775196
 30
0.0
 10
311.1074639878676
 20
410.027375134185
 30
0.0
 10
311.2294242360015
 20
410.1408788089166
 30
0.0
 10
311.4811785490527
 20
410.3591177565212
 30
0.0
 10
311.6107850075181
 20
410.4636863932705
 30
0.0
 10
311.810483338838
 20
410.6138477674839
 30
0.0
 10
311.8779389971052
 20
410.6627893756288
 30
0.0
 10
312.0143919866885
 20
410.7582957013316
 30
0.0
 10
312.0833515323507
 20
410.8048442697705
 30
0.0
 10
312.2228446507558
 20
410.8957771133572
 30
0.0
 10
312.2932719975987
 20
410.9400838274029
 30
0.0
 10
312.4358704588794
 20
411.026663444515
 30
0.0
 10
312.5075008529701
 20
411.068615530193
 30
0.0
 10
312.7250286203308
 20
411.191598315484
 30
0.0
 10
312.8726162233548
 20
411.2691495131568
 30
0.0
 10
313.1717197877728
 20
411.4156598032654
 30
0.0
 10
313.3233193903292
 20
411.4847103872295
 30
0.0
 10
313.6300380297487
 20
411.6147840488449
 30
0.0
 10
313.7850268781618
 20
411.6757425883012
 30
0.0
 10
314.0196370441894
 20
411.7614559520808
 30
0.0
 10
314.0982932746837
 20
411.7891089091034
 30
0.0
 10
314.2559422482468
 20
411.8424782417561
 30
0.0
 10
314.3352100465642
 20
411.8682890329845
 30
0.0
 10
314.5735637252263
 20
411.9429467291069
 30
0.0
 10
314.7335652939822
 20
411.9891504189081
 30
0.0
 10
315.0554177643069
 20
412.074881027914
 30
0.0
 10
315.2174227692576
 20
412.1144505668304
 30
0.0
 10
315.4610163319117
 20
412.1690127525879
 30
0.0
 10
315.5425787768813
 20
412.1864598432615
 30
0.0
 10
315.7056644491446
 20
412.2197818622352
 30
0.0
 10
315.7873544490015
 20
412.2356952497956
 30
0.0
 10
316.0330678062205
 20
412.2813089344759
 30
0.0
 10
316.1972146140027
 20
412.3087843187028
 30
0.0
 10
316.5267508927146
 20
412.3584246555828
 30
0.0
 10
316.6918458725485
 20
412.3805323369185
 30
0.0
 10
317.0226112276927
 20
412.4198209734136
 30
0.0
 10
317.1882718404469
 20
412.4370008108806
 30
0.0
 10
317.5201424157021
 20
412.4669483202411
 30
0.0
 10
317.6858365802771
 20
412.4796691158389
 30
0.0
 10
317.9354547919874
 20
412.4959260848511
 30
0.0
 10
318.0184389773809
 20
412.5008325989597
 30
0.0
 10
318.1847578696603
 20
412.5097509825536
 30
0.0
 10
318.2680553897825
 20
412.5137510295443
 30
0.0
 10
318.5175604372247
 20
412.5244720034203
 30
0.0
 10
318.6840740423289
 20
412.5299487847921
 30
0.0
 10
319.0169219956098
 20
412.538308090762
 30
0.0
 10
319.1836541351491
 20
412.5411941941677
 30
0.0
 10
319.5165977379262
 20
412.5451402027796
 30
0.0
 10
319.6832039237599
 20
412.5462116263952
 30
0.0
 10
320.0161934493738
 20
412.5473479306088
 30
0.0
 10
320.1828896875909
 20
412.5474143083297
 30
0.0
 10
320.5157196823624
 20
412.5474186658153
 30
0.0
 10
320.6824519749688
 20
412.5474173226929
 30
0.0
 10
321.0154746069133
 20
412.5474178883052
 30
0.0
 10
321.1820895903404
 20
412.5474177288889
 30
0.0
 10
321.6818004188277
 20
412.5474177822181
 30
0.0
 10
322.0147744596756
 20
412.5474177859399
 30
0.0
 10
322.6809787645162
 20
412.5474178017804
 30
0.0
 10
323.0141124537656
 20
412.5474178059214
 30
0.0
 10
323.6802305473478
 20
412.5474178197031
 30
0.0
 10
324.0133577895477
 20
412.5474178243423
 30
0.0
 10
324.6794956647019
 20
412.5474178322776
 30
0.0
 10
325.0126610442592
 20
412.5474178350443
 30
0.0
 10
325.6787904920119
 20
412.5474178387015
 30
0.0
 10
326.0120191475419
 20
412.5474178395436
 30
0.0
 10
326.6780889471931
 20
412.5474178395439
 30
0.0
 10
327.0112188751413
 20
412.5474178387012
 30
0.0
 10
327.6774602079906
 20
412.5474178350441
 30
0.0
 10
328.0103787416739
 20
412.5474178322744
 30
0.0
 10
328.6767071467354
 20
412.5474178243534
 30
0.0
 10
329.0098215419553
 20
412.5474178196696
 30
0.0
 10
329.675955400102
 20
412.5474178060313
 30
0.0
 10
330.0090236680962
 20
412.5474178014494
 30
0.0
 10
330.6753147170951
 20
412.5474177870828
 30
0.0
 10
331.0082759929829
 20
412.5474177786339
 30
0.0
 10
331.5080419839272
 20
412.5474177373929
 30
0.0
 10
331.6744673545294
 20
412.547417859224
 30
0.0
 10
332.0076720966289
 20
412.547417425095
 30
0.0
 10
332.1740968464147
 20
412.5474183457052
 30
0.0
 10
332.4240537019868
 20
412.5474161596905
 30
0.0
 10
332.5071003265402
 20
412.5473977826858
 30
0.0
 10
332.6738475972989
 20
412.5472228051672
 30
0.0
 10
332.7570652001302
 20
412.5470631472808
 30
0.0
 10
333.0069876798316
 20
412.5462106811544
 30
0.0
 10
333.1732194437486
 20
412.5451421762255
 30
0.0
 10
333.5066894639102
 20
412.541188088544
 30
0.0
 10
333.6728242704012
 20
412.5383139661421
 30
0.0
 10
334.006136664943
 20
412.5299424563145
 30
0.0
 10
334.1723998666891
 20
412.5244725179984
 30
0.0
 10
334.4221588172209
 20
412.5137416287542
 30
0.0
 10
334.5051605365279
 20
412.5097548142339
 30
0.0
 10
334.6714226858536
 20
412.5008412971645
 30
0.0
 10
334.7547815145007
 20
412.4959103168096
 30
0.0
 10
335.0040204321389
 20
412.4796791557317
 30
0.0
 10
335.170000592334
 20
412.4669383617889
 30
0.0
 10
335.5018750142431
 20
412.436985971268
 30
0.0
 10
335.6673211810135
 20
412.4198271761066
 30
0.0
 10
335.998279174922
 20
412.3805192068086
 30
0.0
 10
336.1632020849556
 20
412.3584313231952
 30
0.0
 10
336.4927452643925
 20
412.3087914151085
 30
0.0
 10
336.6570281863033
 20
412.281294505836
 30
0.0
 10
336.9845462648225
 20
412.2204864739135
 30
0.0
 10
337.1476082807945
 20
412.187239852653
 30
0.0
 10
337.4728870015456
 20
412.1143793807765
 30
0.0
 10
337.6343806255225
 20
412.074927128614
 30
0.0
 10
337.9564114844456
 20
411.989161046638
 30
0.0
 10
338.1165878964003
 20
411.9429049267691
 30
0.0
 10
338.3547917241447
 20
411.8682870986558
 30
0.0
 10
338.4340077910308
 20
411.842494273499
 30
0.0
 10
338.5918092813993
 20
411.7890757508283
 30
0.0
 10
338.6704195829415
 20
411.7614372747568
 30
0.0
 10
338.9050103630746
 20
411.6757279331204
 30
0.0
 10
339.060083385337
 20
411.6147373275471
 30
0.0
 10
339.2900168514148
 20
411.5172238349751
 30
0.0
 10
339.3663286452331
 20
411.4836682045801
 30
0.0
 10
339.5176557413433
 20
411.4146612821573
 30
0.0
 10
339.5932570173587
 20
411.3789428485979
 30
0.0
 10
339.8174079402743
 20
411.2691342255251
 30
0.0
 10
339.9649969428035
 20
411.1915861073526
 30
0.0
 10
340.1824496105549
 20
411.0686464492298
 30
0.0
 10
340.2542564148985
 20
411.0265899483468
 30
0.0
 10
340.3966847395451
 20
410.9401103331633
 30
0.0
 10
340.4671941574113
 20
410.8957563615157
 30
0.0
 10
340.6066459504748
 20
410.8048451567949
 30
0.0
 10
340.6756940672392
 20
410.7582399913453
 30
0.0
 10
340.8120831636031
 20
410.6627741379052
 30
0.0
 10
340.8795362834203
 20
410.6138330859382
 30
0.0
 10
341.079139334376
 20
410.4637513139016
 30
0.0
 10
341.2089100725021
 20
410.3590483971336
 30
0.0
 10
341.4607059966883
 20
410.1407549683918
 30
0.0
 10
341.5824349743328
 20
410.0274858474078
 30
0.0
 10
341.75916913008
 20
409.8505059345511
 30
0.0
 10
341.8169001462874
 20
409.7905602809955
 30
0.0
 10
341.9302449156958
 20
409.6685508992128
 30
0.0
 10
341.9858029466597
 20
409.6065576546064
 30
0.0
 10
342.1492282819784
 20
409.4175809653471
 30
0.0
 10
342.253672738555
 20
409.2878262676597
 30
0.0
 10
342.4036522840095
 20
409.0878542131263
 30
0.0
 10
342.4524377339237
 20
409.0204316912771
 30
0.0
 10
342.5478132804036
 20
408.8838476191742
 30
0.0
 10
342.5943117295242
 20
408.8148134847119
 30
0.0
 10
342.7304863567344
 20
408.6053462368154
 30
0.0
 10
342.8167658884804
 20
408.462774872912
 30
0.0
 10
342.9804032259087
 20
408.1727601141528
 30
0.0
 10
343.0578474205293
 20
408.0251777182831
 30
0.0
 10
343.1675940086617
 20
407.8008079707176
 30
0.0
 10
343.2031286558181
 20
407.725477210224
 30
0.0
 10
343.2721625185509
 20
407.5738460957994
 30
0.0
 10
343.3055860689472
 20
407.4977212805152
 30
0.0
 10
343.3705015602844
 20
407.3444274139654
 30
0.0
 10
343.4020483496129
 20
407.2671020094958
 30
0.0
 10
343.4629463162917
 20
407.1122803732419
 30
0.0
 10
343.4925052077821
 20
407.0342440027741
 30
0.0
 10
343.5781100600648
 20
406.7996101591317
 30
0.0
 10
343.6314012610887
 20
406.6417813213475
 30
0.0
 10
343.7308721256538
 20
406.3239796331271
 30
0.0
 10
343.7770393424373
 20
406.1639503481695
 30
0.0
 10
343.8627397659523
 20
405.8421231993737
 30
0.0
 10
343.9022785752085
 20
405.6802141503243
 30
0.0
 10
343.9568663437589
 20
405.4365110993451
 30
0.0
 10
343.9743004874329
 20
405.3550294069124
 30
0.0
 10
344.0076781439938
 20
405.1917831815257
 30
0.0
 10
344.023600464475
 20
405.1101134136985
 30
0.0
 10
344.0692695747683
 20
404.8643219181483
 30
0.0
 10
344.0967432492278
 20
404.7004391632717
 30
0.0
 10
344.1465200563553
 20
404.3707178909552
 30
0.0
 10
344.1686629256634
 20
404.2058448781862
 30
0.0
 10
344.2081120052207
 20
403.8751446233259
 30
0.0
 10
344.2253913942204
 20
403.7094487353436
 30
0.0
 10
344.2555479806879
 20
403.3776701728735
 30
0.0
 10
344.268425412891
 20
403.211625691423
 30
0.0
 10
344.2848615311123
 20
402.9623609095092
 30
0.0
 10
344.2898570614163
 20
402.8792039858947
 30
0.0
 10
344.2989247042707
 20
402.7129780033671
 30
0.0
 10
344.3030064086004
 20
402.6296815523044
 30
0.0
 10
344.313974271569
 20
402.3803544488464
 30
0.0
 10
344.3196572113433
 20
402.2136502457031
 30
0.0
 10
344.328426945314
 20
401.8807644131823
 30
0.0
 10
344.3315352552135
 20
401.7142637688281
 30
0.0
 10
344.335967654738
 20
401.3812867227948
 30
0.0
 10
344.3372886948052
 20
401.2147460549018
 30
0.0
 10
344.3385387824619
 20
400.9648991161627
 30
0.0
 10
344.3388348069927
 20
400.8815884919505
 30
0.0
 10
344.3391750682432
 20
400.7567035556405
 30
0.0
 10
344.339271366373
 20
400.7150494926917
 30
0.0
 10
344.3393995648603
 20
400.6526899112696
 30
0.0
 10
344.339439831805
 20
400.6318031233495
 30
0.0
 10
344.3394971344397
 20
400.6006403206815
 30
0.0
 10
344.3395159383158
 20
400.5901647923945
 30
0.0
 10
344.3395366900753
 20
400.5783690569543
 30
0.0
 10
344.3395387275684
 20
400.5772148859917
 30
0.0
 10
344.3395433357249
 20
400.5745604266127
 30
0.0
 10
344.3395458116791
 20
400.5732192026123
 30
0.0
 10
344.3395492786636
 20
400.5709996552224
 30
0.0
 10
344.3395519908708
 20
400.569922820634
 30
0.0
 10
344.3395530034179
 20
400.5688911877604
 30
0.0
  0
LINE
  5
BD
330
1F
100
AcDbEntity
  8
0
  6
Continuous
 62
     7
370
    25
100
AcDbLine
 10
308.3504495199
 20
367.6307502452
 30
0.0
 11
308.3504495199
 21
394.5528659244
 31
0.0
  0
LINE
  5
BE
330
1F
100
AcDbEntity
  8
0
  6
Continuous
 62
     7
370
    25
100
AcDbLine
 10
308.3504495199
 20
394.7917873118
 30
0.0
 11
308.3504495199
 21
394.5528659244
 31
0.0
  0
LWPOLYLINE
  5
BF
330
1F
100
AcDbEntity
  8
0
  6
Continuous
 62
     7
370
    25
100
AcDbPolyline
 90
        3
 70
   128
 43
0.0
 10
308.3504495199
 20
394.7917873118
 10
308.3504495199
 20
397.6804303246
 10
308.3504500165
 20
400.5688911744
  0
SPLINE
  5
C0
330
1F
100
AcDbEntity
  8
0
  6
Continuous
 62
     7
370
    25
100
AcDbSpline
210
0.0
220
0.0
230
1.0
 70
     8
 71
     3
 72
    32
 73
    28
 74
     0
 42
0.00000001
 43
0.00000001
 40
0.2250858375981489
 40
0.2250858375981489
 40
0.2250858375981489
 40
0.2250858375981489
 40
0.2259033326362409
 40
0.2259033326362409
 40
0.2295802538922612
 40
0.2295802538922612
 40
0.2442879389163605
 40
0.2442879389163605
 40
0.3031186790127512
 40
0.3031186790127512
 40
0.3619494191091411
 40
0.3619494191091411
 40
0.4796108993019209
 40
0.4796108993019209
 40
0.7149338596874805
 40
0.7149338596874805
 40
1.185579780458611
 40
1.185579780458611
 40
2.126871622000851
 40
2.126871622000851
 40
3.068163463543091
 40
3.068163463543091
 40
4.009455305085331
 40
4.009455305085331
 40
4.950747146627578
 40
4.950747146627578
 40
5.666953150571672
 40
5.666953150571672
 40
5.666953150571672
 40
5.666953150571672
 10
344.33955305635
 20
400.5688911818164
 30
0.0
 10
344.3395533458139
 20
400.5685962382716
 30
0.0
 10
344.3395534963448
 20
400.5683049897001
 30
0.0
 10
344.3395531881351
 20
400.5667434897813
 30
0.0
 10
344.3395533289032
 20
400.5654146639299
 30
0.0
 10
344.3395532829184
 20
400.5591321355698
 30
0.0
 10
344.3395533035905
 20
400.5536179028212
 30
0.0
 10
344.3395532972285
 20
400.5276550697763
 30
0.0
 10
344.3395533007649
 20
400.5069736431155
 30
0.0
 10
344.3395533004576
 20
400.4651423599045
 30
0.0
 10
344.3395533010803
 20
400.4445889004366
 30
0.0
 10
344.3395533020055
 20
400.381900382167
 30
0.0
 10
344.3395533027133
 20
400.340389997312
 30
0.0
 10
344.3395533046915
 20
400.2153414845915
 30
0.0
 10
344.3395533059964
 20
400.132281963622
 30
0.0
 10
344.3395533098071
 20
399.8824493176691
 30
0.0
 10
344.3395533122366
 20
399.7156654581416
 30
0.0
 10
344.3395533191824
 20
399.2162830411099
 30
0.0
 10
344.3395533233639
 20
398.8829672414846
 30
0.0
 10
344.3395533307996
 20
398.2169391008277
 30
0.0
 10
344.3395533340597
 20
397.8836638226529
 30
0.0
 10
344.3395533396533
 20
397.2176645431359
 30
0.0
 10
344.3395533419867
 20
396.8845039361827
 30
0.0
 10
344.3395533457239
 20
396.2182595894345
 30
0.0
 10
344.3395533471264
 20
395.8852144777339
 30
0.0
 10
344.3395533487734
 20
395.298643096042
 30
0.0
 10
344.3395533492142
 20
395.0452042072938
 30
0.0
 10
344.3395533493845
 20
394.7917873100303
 30
0.0
  0
LINE
  5
C1
330
1F
100
AcDbEntity
  8
0
  6
Continuous
 62
     7
370
    25
100
AcDbLine
 10
344.3395533495
 20
394.5528659244
 30
0.0
 11
344.3395533495
 21
394.7917873118
 31
0.0
  0
LINE
  5
C2
330
1F
100
AcDbEntity
  8
0
  6
Continuous
 62
     7
370
    25
100
AcDbLine
 10
344.3395533495
 20
394.5528659244
 30
0.0
 11
344.3395533495
 21
367.6307502452
 31
0.0
  0
LINE
  5
C3
330
1F
100
AcDbEntity
  8
0
  6
Continuous
 62
     7
370
    25
100
AcDbLine
 10
308.3504495199
 20
367.6307502452
 30
0.0
 11
308.3504495199
 21
334.4927976191
 31
0.0
  0
LINE
  5
C4
330
1F
100
AcDbEntity
  8
0
  6
Continuous
 62
     7
370
    25
100
AcDbLine
 10
344.3395533495
 20
367.6307502452
 30
0.0
 11
344.3395533495
 21
334.4927976191
 31
0.0
  0
LINE
  5
C5
330
1F
100
AcDbEntity
  8
0
  6
Continuous
 62
     7
370
    25
100
AcDbLine
 10
330.3123121103
 20
322.5260180901
 30
0.0
 11
330.3123121103
 21
322.5142709572
 31
0.0
  0
LINE
  5
C6
330
1F
100
AcDbEntity
  8
0
  6
Continuous
 62
     7
370
    25
100
AcDbLine
 10
331.3040971947
 20
322.5142718385
 30
0.0
 11
331.3040971947
 21
322.5260169876
 31
0.0
  0
LINE
  5
C7
330
1F
100
AcDbEntity
  8
0
  6
Continuous
 62
     7
370
    25
100
AcDbLine
 10
331.3040971942
 20
322.5142718385
 30
0.0
 11
330.3123121127
 21
322.5142719381
 31
0.0
  0
LINE
  5
C8
330
1F
100
AcDbEntity
  8
0
  6
Continuous
 62
     7
370
    25
100
AcDbLine
 10
322.3777082762
 20
322.5142722034
 30
0.0
 11
321.3858778392
 21
322.5142721049
 31
0.0
  0
LINE
  5
C9
330
1F
100
AcDbEntity
  8
0
  6
Continuous
 62
     7
370
    25
100
AcDbLine
 10
321.3858778294
 20
322.5260161955
 30
0.0
 11
321.3858778398
 21
322.5142726403
 31
0.0
  0
LINE
  5
CA
330
1F
100
AcDbEntity
  8
0
  6
Continuous
 62
     7
370
    25
100
AcDbLine
 10
322.3777082769
 20
322.5142722034
 30
0.0
 11
322.3777082769
 21
322.5260168118
 31
0.0
  0
LINE
  5
CB
330
1F
100
AcDbEntity
  8
0
  6
Continuous
 62
     7
370
    25
100
AcDbLine
 10
344.3450014346
 20
394.5528659245
 30
0.0
 11
344.3395533495
 21
394.1100325649
 31
0.0
  0
LINE
  5
CC
330
1F
100
AcDbEntity
  8
0
  6
Continuous
 62
     7
370
    25
100
AcDbLine
 10
308.3504495199
 20
394.1100325621
 30
0.0
 11
308.3450282242
 21
394.5839211198
 31
0.0
  0
LINE
  5
CD
330
1F
100
AcDbEntity
  8
0
  6
Continuous
 62
     7
370
    25
100
AcDbLine
 10
365.8700014346
 20
359.4444080024
 30
0.0
 11
344.3395533495
 21
359.4444080024
 31
0.0
  0
LINE
  5
CE
330
1F
100
AcDbEntity
  8
0
  6
Continuous
 62
     7
370
    25
100
AcDbLine
 10
308.3504495199
 20
359.4444080024
 30
0.0
 11
176.8175947192
 21
359.4444080024
 31
0.0
  0
ARC
  5
CF
330
1F
100
AcDbEntity
  8
0
  6
Continuous
 62
     7
370
    25
100
AcDbCircle
 10
176.8175947192
 20
364.5578659245
 30
0.0
 40
5.11345792203366
100
AcDbArc
 50
180.0
 51
270.0
  0
LINE
  5
D0
330
1F
100
AcDbEntity
  8
0
  6
Continuous
 62
     7
370
    25
100
AcDbLine
 10
171.7041367972
 20
364.5578659245
 30
0.0
 11
171.7041367972
 21
424.5521975622
 31
0.0
  0
ARC
  5
D1
330
1F
100
AcDbEntity
  8
0
  6
Continuous
 62
     7
370
    25
100
AcDbCircle
 10
176.8175947192
 20
424.5521975622
 30
0.0
 40
5.113457922033348
100
AcDbArc
 50
90.0
 51
180.0
  0
LINE
  5
D2
330
1F
100
AcDbEntity
  8
0
  6
Continuous
 62
     7
370
    25
100
AcDbLine
 10
176.8175947192
 20
429.6656554842
 30
0.0
 11
365.8700014346
 21
429.6656554842
 31
0.0
  0
ARC
  5
D3
330
1F
100
AcDbEntity
  8
0
  6
Continuous
 62
     7
370
    25
100
AcDbCircle
 10
365.8700014346
 20
364.5578659245
 30
0.0
 40
5.113457922034172
100
AcDbArc
 50
270.0
 51
360.0
  0
LINE
  5
D4
330
1F
100
AcDbEntity
  8
0
  6
Continuous
 62
     7
370
    25
100
AcDbLine
 10
370.9834593567
 20
424.5521975622
 30
0.0
 11
370.9834593567
 21
364.5578659245
 31
0.0
  0
ARC
  5
D5
330
1F
100
AcDbEntity
  8
0
  6
Continuous
 62
     7
370
    25
100
AcDbCircle
 10
365.8700014346
 20
424.5521975622
 30
0.0
 40
5.113457922033433
100
AcDbArc
 50
0.0
 51
90.0
  0
SPLINE
  5
D6
330
1F
100
AcDbEntity
  8
0
  6
Continuous
 62
     8
370
    18
100
AcDbSpline
210
0.0
220
0.0
230
1.0
 70
    24
 71
     3
 72
     9
 73
     5
 74
     0
 42
0.00000001
 43
0.00000001
 40
0.0
 40
0.0
 40
0.0
 40
0.0
 40
0.5
 40
1.0
 40
1.0
 40
1.0
 40
1.0
 10
198.484945596
 20
400.8528659245518
 30
0.0
 10
198.4759687481003
 20
400.8528659245518
 30
0.0
 10
199.5715822661199
 20
400.8528659245518
 30
0.0
 10
202.1744695310206
 20
400.8528659245518
 30
0.0
 10
203.4849455959999
 20
400.8528659245518
 30
0.0
  0
LINE
  5
D7
330
1F
100
AcDbEntity
  8
0
  6
Continuous
 62
     8
370
    18
100
AcDbLine
 10
203.484945596
 20
400.8528659246
 30
0.0
 11
229.2050014444
 21
400.8528659243
 31
0.0
  0
SPLINE
  5
D8
330
1F
100
AcDbEntity
  8
0
  6
Continuous
 62
     8
370
    18
100
AcDbSpline
210
0.0
220
0.0
230
1.0
 70
    24
 71
     3
 72
    11
 73
     7
 74
     0
 42
0.00000001
 43
0.00000001
 40
0.0
 40
0.0
 40
0.0
 40
0.0
 40
0.2652617397295436
 40
0.5305234794590891
 40
0.7957852191886344
 40
0.9999999999999999
 40
0.9999999999999999
 40
0.9999999999999999
 40
0.9999999999999999
 10
229.20500144439
 20
400.8528659245518
 30
0.0
 10
229.8606714445706
 20
400.8528659245448
 30
0.0
 10
231.1720114449316
 20
400.8528659245307
 30
0.0
 10
232.8174644132027
 20
400.8528659245247
 30
0.0
 10
233.9105242934552
 20
400.8528659245299
 30
0.0
 10
234.0546972385004
 20
400.8528659245422
 30
0.0
 10
234.1174101646706
 20
400.8528659245475
 30
0.0
  0
LINE
  5
D9
330
1F
100
AcDbEntity
  8
0
  6
Continuous
 62
     8
370
    18
100
AcDbLine
 10
331.3040972038
 20
322.5260169876
 30
0.0
 11
330.3123121085
 21
322.5260170871
 31
0.0
  0
LINE
  5
DA
330
1F
100
AcDbEntity
  8
0
  6
Continuous
 62
     8
370
    18
100
AcDbLine
 10
322.3777082813
 20
322.5260168118
 30
0.0
 11
321.3858778304
 21
322.5260167133
 31
0.0
  0
SPLINE
  5
DB
330
1F
100
AcDbEntity
  8
0
  6
Continuous
 62
     8
370
    18
100
AcDbSpline
210
0.0
220
0.0
230
1.0
 70
     8
 71
     3
 72
    70
 73
    66
 74
     0
 42
0.00000001
 43
0.00000001
 40
0.0
 40
0.0
 40
0.0
 40
0.0
 40
0.0009765625
 40
0.0009765625
 40
0.0019531249999999
 40
0.0019531249999999
 40
0.0039062499999998
 40
0.0039062499999998
 40
0.0078124999999996
 40
0.0078124999999996
 40
0.0156249999999996
 40
0.0156249999999996
 40
0.0312499999999996
 40
0.0312499999999996
 40
0.0624999999999997
 40
0.0624999999999997
 40
0.0937499999999997
 40
0.0937499999999997
 40
0.1249999999999997
 40
0.1249999999999997
 40
0.1562499999999998
 40
0.1562499999999998
 40
0.1874999999999998
 40
0.1874999999999998
 40
0.2187499999999998
 40
0.2187499999999998
 40
0.2499999999999998
 40
0.2499999999999998
 40
0.2812499999999999
 40
0.2812499999999999
 40
0.3124999999999999
 40
0.3124999999999999
 40
0.3749999999999999
 40
0.3749999999999999
 40
0.4374999999999999
 40
0.4374999999999999
 40
0.4999999999999999
 40
0.4999999999999999
 40
0.6249999999999999
 40
0.6249999999999999
 40
0.6875
 40
0.6875
 40
0.7187500000000001
 40
0.7187500000000001
 40
0.7500000000000001
 40
0.7500000000000001
 40
0.7812500000000001
 40
0.7812500000000001
 40
0.8125000000000001
 40
0.8125000000000001
 40
0.8437500000000001
 40
0.8437500000000001
 40
0.8750000000000002
 40
0.8750000000000002
 40
0.9375000000000002
 40
0.9375000000000002
 40
0.9687500000000001
 40
0.9687500000000001
 40
0.984375
 40
0.984375
 40
0.9921875
 40
0.9921875
 40
0.99609375
 40
0.99609375
 40
1.0
 40
1.0
 40
1.0
 40
1.0
 10
309.3504479860997
 20
400.558413277933
 30
0.0
 10
309.3504737076755
 20
400.5730828117648
 30
0.0
 10
309.3505046093769
 20
400.5902176786189
 30
0.0
 10
309.3505642803516
 20
400.6219172872389
 30
0.0
 10
309.3505953123137
 20
400.6377675713309
 30
0.0
 10
309.3506932248706
 20
400.6853857419749
 30
0.0
 10
309.3507649418606
 20
400.717212601772
 30
0.0
 10
309.3510070756716
 20
400.8124428020229
 30
0.0
 10
309.3512049939636
 20
400.87592795617
 30
0.0
 10
309.3519804918256
 20
401.066728154303
 30
0.0
 10
309.3527350692457
 20
401.193461417183
 30
0.0
 10
309.3562773625547
 20
401.5746938300661
 30
0.0
 10
309.3603389367366
 20
401.8287186754661
 30
0.0
 10
309.3821125559907
 20
402.5905486753324
 30
0.0
 10
309.4100456319127
 20
403.0983639580759
 30
0.0
 10
309.5113683468847
 20
404.1095376991182
 30
0.0
 10
309.5846306656338
 20
404.6130212712703
 30
0.0
 10
309.7919142271818
 20
405.6080718896646
 30
0.0
 10
309.9258646807478
 20
406.0996368089917
 30
0.0
 10
310.2712308537641
 20
407.0552252907561
 30
0.0
 10
310.483248365012
 20
407.5197278464092
 30
0.0
 10
311.0023892571803
 20
408.3933646137658
 30
0.0
 10
311.3106901936403
 20
408.8016378634584
 30
0.0
 10
312.0240757125314
 20
409.5263042568188
 30
0.0
 10
312.4276042556614
 20
409.840717849022
 30
0.0
 10
313.2943173241616
 20
410.3714992164703
 30
0.0
 10
313.7565704899928
 20
410.5885410665189
 30
0.0
 10
314.7089197233732
 20
410.9430262769872
 30
0.0
 10
315.1994965903253
 20
411.0808436757187
 30
0.0
 10
316.1930769015077
 20
411.2947838178669
 30
0.0
 10
316.6962735288773
 20
411.370851493238
 30
0.0
 10
318.2124739444437
 20
411.5294191389381
 30
0.0
 10
319.2316601365567
 20
411.5383932486552
 30
0.0
 10
321.2623175854083
 20
411.5390373142232
 30
0.0
 10
322.2795168578734
 20
411.5387293811845
 30
0.0
 10
324.3124206471736
 20
411.5387293812192
 30
0.0
 10
325.3285950847358
 20
411.5387293812101
 30
0.0
 10
328.3776777481856
 20
411.5387293812087
 30
0.0
 10
330.4106496906112
 20
411.5393625678522
 30
0.0
 10
333.4591173710466
 20
411.5383915709082
 30
0.0
 10
334.4775503338553
 20
411.5294151673232
 30
0.0
 10
335.9936363334116
 20
411.3708624321329
 30
0.0
 10
336.4968592306129
 20
411.2947986135198
 30
0.0
 10
337.4904410808289
 20
411.0808671357437
 30
0.0
 10
337.981175944414
 20
410.9429936545822
 30
0.0
 10
338.9332965418544
 20
410.5885907596979
 30
0.0
 10
339.3957485148744
 20
410.3714465652122
 30
0.0
 10
340.262159518523
 20
409.840878875948
 30
0.0
 10
340.6660491530067
 20
409.5261916127863
 30
0.0
 10
341.3791394431069
 20
408.8018062451578
 30
0.0
 10
341.687692691088
 20
408.3932350268952
 30
0.0
 10
342.2066503522442
 20
407.5199008035588
 30
0.0
 10
342.4186679239598
 20
407.0554956514406
 30
0.0
 10
342.9369465315399
 20
405.6215263016002
 30
0.0
 10
343.1279684696166
 20
404.6151352926922
 30
0.0
 10
343.2799516163316
 20
403.0984427608549
 30
0.0
 10
343.3078881506222
 20
402.5906281662254
 30
0.0
 10
343.3296636033022
 20
401.8287315626991
 30
0.0
 10
343.3337240389122
 20
401.5747740517311
 30
0.0
 10
343.3372676350862
 20
401.193549278382
 30
0.0
 10
343.3380229194202
 20
401.066594436579
 30
0.0
 10
343.3387973300621
 20
400.876062895047
 30
0.0
 10
343.3389957240171
 20
400.812488391357
 30
0.0
 10
343.3393187929905
 20
400.6854060363903
 30
0.0
 10
343.3394396641935
 20
400.6241313787334
 30
0.0
 10
343.3395548832331
 20
400.558413277933
 30
0.0
  0
LINE
  5
DC
330
1F
100
AcDbEntity
  8
0
  6
Continuous
 62
     8
370
    18
100
AcDbLine
 10
343.3395548832
 20
400.5584132779
 30
0.0
 11
343.3395548832
 21
367.6307502452
 31
0.0
  0
LINE
  5
DD
330
1F
100
AcDbEntity
  8
0
  6
Continuous
 62
     8
370
    18
100
AcDbLine
 10
343.3395548832
 20
334.5032755228
 30
0.0
 11
343.3395548832
 21
367.6307502452
 31
0.0
  0
LINE
  5
DE
330
1F
100
AcDbEntity
  8
0
  6
Continuous
 62
     8
370
    18
100
AcDbLine
 10
309.3504479861
 20
334.5032755228
 30
0.0
 11
309.3504479861
 21
367.6307502452
 31
0.0
  0
LINE
  5
DF
330
1F
100
AcDbEntity
  8
0
  6
Continuous
 62
     8
370
    18
100
AcDbLine
 10
309.3504479861
 20
367.6307502452
 30
0.0
 11
309.3504479861
 21
400.5584132779
 31
0.0
  0
SPLINE
  5
E0
330
1F
100
AcDbEntity
  8
0
  6
Continuous
 62
     8
370
    18
100
AcDbSpline
210
0.0
220
0.0
230
1.0
 70
     8
 71
     3
 72
    30
 73
    26
 74
     0
 42
0.00000001
 43
0.00000001
 40
0.0
 40
0.0
 40
0.0
 40
0.0
 40
0.0636728629411641
 40
0.1274242133578669
 40
0.1908189145218259
 40
0.253426426287865
 40
0.3148356034755982
 40
0.3746677516104955
 40
0.4325869353992049
 40
0.4883069416676256
 40
0.5415947448479861
 40
0.5922707213392207
 40
0.6402061481384256
 40
0.6853186767857327
 40
0.7275665047410815
 40
0.7669419029571234
 40
0.8034646384269188
 40
0.8371756886711912
 40
0.8681315074455138
 40
0.8963989830437094
 40
0.922051139168184
 40
0.945163563813231
 40
0.9658115106660254
 40
0.9840675953096044
 40
0.9999999999999999
 40
0.9999999999999999
 40
0.9999999999999999
 40
0.9999999999999999
 10
308.3504495198669
 20
367.6307502451739
 30
0.0
 10
308.3514132578872
 20
367.6307444033959
 30
0.0
 10
308.3533419218966
 20
367.6307327126387
 30
0.0
 10
308.368872215602
 20
367.6306533367062
 30
0.0
 10
308.3933352927783
 20
367.630547626754
 30
0.0
 10
308.4269731387259
 20
367.6304246648638
 30
0.0
 10
308.4685737133809
 20
367.6302992789347
 30
0.0
 10
308.5169951343555
 20
367.6301825281764
 30
0.0
 10
308.5708671286192
 20
367.6300835376804
 30
0.0
 10
308.6287785867704
 20
367.6300086523014
 30
0.0
 10
308.6893320309469
 20
367.6299615940716
 30
0.0
 10
308.7512161261611
 20
367.629943622549
 30
0.0
 10
308.8132516316159
 20
367.6299538860859
 30
0.0
 10
308.8744205792951
 20
367.6299898376429
 30
0.0
 10
308.9338779049677
 20
367.6300476742098
 30
0.0
 10
308.9909495052044
 20
367.6301227532773
 30
0.0
 10
309.0451204097322
 20
367.6302099567228
 30
0.0
 10
309.0960168029297
 20
367.6303039965485
 30
0.0
 10
309.1433850024005
 20
367.6303996308091
 30
0.0
 10
309.1870697684435
 20
367.6304918890868
 30
0.0
 10
309.2269935677366
 20
367.630576006589
 30
0.0
 10
309.2631377815956
 20
367.6306480813013
 30
0.0
 10
309.2955263213341
 20
367.6307032479525
 30
0.0
 10
309.3242118490236
 20
367.6307415729202
 30
0.0
 10
309.3421080559887
 20
367.6307474884422
 30
0.0
 10
309.3504479861039
 20
367.6307502451739
 30
0.0
  0
SPLINE
  5
E1
330
1F
100
AcDbEntity
  8
0
  6
Continuous
 62
     8
370
    18
100
AcDbSpline
210
0.0
220
0.0
230
1.0
 70
    24
 71
     3
 72
    10
 73
     6
 74
     0
 42
0.00000001
 43
0.00000001
 40
0.0
 40
0.0
 40
0.0
 40
0.0
 40
0.5
 40
0.5
 40
1.0
 40
1.0
 40
1.0
 40
1.0
 10
344.3395533494659
 20
367.6307502451739
 30
0.0
 10
344.3395533494659
 20
367.6307502451739
 30
0.0
 10
344.2325469406429
 20
367.6307502451739
 30
0.0
 10
343.8614694338162
 20
367.6307502451739
 30
0.0
 10
343.6019753781023
 20
367.6307502451739
 30
0.0
 10
343.3395548832289
 20
367.6307502451739
 30
0.0
  0
ARC
  5
E2
330
1F
100
AcDbEntity
  8
0
  6
Continuous
 62
     8
370
    18
100
AcDbCircle
 10
365.8700014346
 20
364.5578659245
 30
0.0
 40
3.820763284262
100
AcDbArc
 50
270.0
 51
360.0
  0
LINE
  5
E3
330
1F
100
AcDbEntity
  8
0
  6
Continuous
 62
     8
370
    18
100
AcDbLine
 10
176.8175947192
 20
360.7371026402
 30
0.0
 11
308.3504495199
 21
360.7371026402
 31
0.0
  0
LINE
  5
E4
330
1F
100
AcDbEntity
  8
0
  6
Continuous
 62
     8
370
    18
100
AcDbLine
 10
344.3395533495
 20
360.7371026402
 30
0.0
 11
365.8700014346
 21
360.7371026402
 31
0.0
  0
ARC
  5
E5
330
1F
100
AcDbEntity
  8
0
  6
Continuous
 62
     8
370
    18
100
AcDbCircle
 10
176.8175947192
 20
364.5578659245
 30
0.0
 40
3.820763284261432
100
AcDbArc
 50
180.0
 51
270.0
  0
LINE
  5
E6
330
1F
100
AcDbEntity
  8
0
  6
Continuous
 62
     8
370
    18
100
AcDbLine
 10
172.996831435
 20
424.5521975622
 30
0.0
 11
172.996831435
 21
364.5578659245
 31
0.0
  0
ARC
  5
E7
330
1F
100
AcDbEntity
  8
0
  6
Continuous
 62
     8
370
    18
100
AcDbCircle
 10
176.8175947192
 20
424.5521975622
 30
0.0
 40
3.820763284260408
100
AcDbArc
 50
90.0
 51
180.0
  0
LINE
  5
E8
330
1F
100
AcDbEntity
  8
0
  6
Continuous
 62
     8
370
    18
100
AcDbLine
 10
365.8700014346
 20
428.3729608464
 30
0.0
 11
176.8175947192
 21
428.3729608464
 31
0.0
  0
ARC
  5
E9
330
1F
100
AcDbEntity
  8
0
  6
Continuous
 62
     8
370
    18
100
AcDbCircle
 10
365.8700014346
 20
424.5521975622
 30
0.0
 40
3.820763284261204
100
AcDbArc
 50
0.0
 51
90.0
  0
LINE
  5
EA
330
1F
100
AcDbEntity
  8
0
  6
Continuous
 62
     8
370
    18
100
AcDbLine
 10
369.6907647189
 20
364.5578659245
 30
0.0
 11
369.6907647189
 21
424.5521975622
 31
0.0
  0
LINE
  5
EB
330
1F
100
AcDbEntity
  8
0
  6
Continuous
 62
     8
370
    18
100
AcDbLine
 10
176.8175947192
 20
360.7371026402
 30
0.0
 11
176.8175947192
 21
359.537285406
 31
0.0
  0
ARC
  5
EC
330
1F
100
AcDbEntity
  8
0
  6
Continuous
 62
     8
370
    18
100
AcDbCircle
 10
176.8175947192
 20
364.5578659245
 30
0.0
 40
5.020580518449037
100
AcDbArc
 50
180.0
 51
270.0
  0
LINE
  5
ED
330
1F
100
AcDbEntity
  8
0
  6
Continuous
 62
     8
370
    18
100
AcDbLine
 10
171.7970142008
 20
364.5578659245
 30
0.0
 11
172.996831435
 21
364.5578659245
 31
0.0
  0
LINE
  5
EE
330
1F
100
AcDbEntity
  8
0
  6
Continuous
 62
     8
370
    18
100
AcDbLine
 10
365.8700014346
 20
360.7371026402
 30
0.0
 11
365.8700014346
 21
359.537285406
 31
0.0
  0
LINE
  5
EF
330
1F
100
AcDbEntity
  8
0
  6
Continuous
 62
     8
370
    18
100
AcDbLine
 10
365.8700014346
 20
359.537285406
 30
0.0
 11
344.3395533495
 21
359.537285406
 31
0.0
  0
LINE
  5
F0
330
1F
100
AcDbEntity
  8
0
  6
Continuous
 62
     8
370
    18
100
AcDbLine
 10
308.3504495199
 20
359.537285406
 30
0.0
 11
176.8175947192
 21
359.537285406
 31
0.0
  0
LINE
  5
F1
330
1F
100
AcDbEntity
  8
0
  6
Continuous
 62
     8
370
    18
100
AcDbLine
 10
171.7970142008
 20
364.5578659245
 30
0.0
 11
171.7970142008
 21
424.5521975622
 31
0.0
  0
LINE
  5
F2
330
1F
100
AcDbEntity
  8
0
  6
Continuous
 62
     8
370
    18
100
AcDbLine
 10
171.7970142008
 20
424.5521975622
 30
0.0
 11
172.996831435
 21
424.5521975622
 31
0.0
  0
ARC
  5
F3
330
1F
100
AcDbEntity
  8
0
  6
Continuous
 62
     8
370
    18
100
AcDbCircle
 10
176.8175947192
 20
424.5521975622
 30
0.0
 40
5.020580518448725
100
AcDbArc
 50
90.0
 51
180.0
  0
LINE
  5
F4
330
1F
100
AcDbEntity
  8
0
  6
Continuous
 62
     8
370
    18
100
AcDbLine
 10
176.8175947192
 20
429.5727780806
 30
0.0
 11
176.8175947192
 21
428.3729608464
 31
0.0
  0
LINE
  5
F5
330
1F
100
AcDbEntity
  8
0
  6
Continuous
 62
     8
370
    18
100
AcDbLine
 10
176.8175947192
 20
429.5727780806
 30
0.0
 11
365.8700014346
 21
429.5727780806
 31
0.0
  0
LINE
  5
F6
330
1F
100
AcDbEntity
  8
0
  6
Continuous
 62
     8
370
    18
100
AcDbLine
 10
365.8700014346
 20
429.5727780806
 30
0.0
 11
365.8700014346
 21
428.3729608464
 31
0.0
  0
LINE
  5
F7
330
1F
100
AcDbEntity
  8
0
  6
Continuous
 62
     8
370
    18
100
AcDbLine
 10
369.6907647189
 20
364.5578659245
 30
0.0
 11
370.8905819531
 21
364.5578659245
 31
0.0
  0
ARC
  5
F8
330
1F
100
AcDbEntity
  8
0
  6
Continuous
 62
     8
370
    18
100
AcDbCircle
 10
365.8700014346
 20
364.5578659245
 30
0.0
 40
5.020580518449663
100
AcDbArc
 50
270.0
 51
360.0
  0
LINE
  5
F9
330
1F
100
AcDbEntity
  8
0
  6
Continuous
 62
     8
370
    18
100
AcDbLine
 10
369.6907647189
 20
424.5521975622
 30
0.0
 11
370.8905819531
 21
424.5521975622
 31
0.0
  0
LINE
  5
FA
330
1F
100
AcDbEntity
  8
0
  6
Continuous
 62
     8
370
    18
100
AcDbLine
 10
370.8905819531
 20
424.5521975622
 30
0.0
 11
370.8905819531
 21
364.5578659245
 31
0.0
  0
ARC
  5
FB
330
1F
100
AcDbEntity
  8
0
  6
Continuous
 62
     8
370
    18
100
AcDbCircle
 10
365.8700014346
 20
424.5521975622
 30
0.0
 40
5.02058051844881
100
AcDbArc
 50
0.0
 51
90.0
  0
LINE
  5
FC
330
1F
100
AcDbEntity
  8
0
  6
Continuous
 62
     8
370
    18
100
AcDbLine
 10
176.8175947192
 20
359.4444080024
 30
0.0
 11
176.8175947192
 21
359.537285406
 31
0.0
  0
LINE
  5
FD
330
1F
100
AcDbEntity
  8
0
  6
Continuous
 62
     8
370
    18
100
AcDbLine
 10
365.8700014346
 20
359.4444080024
 30
0.0
 11
365.8700014346
 21
359.537285406
 31
0.0
  0
LINE
  5
FE
330
1F
100
AcDbEntity
  8
0
  6
Continuous
 62
     8
370
    18
100
AcDbLine
 10
171.7041367972
 20
364.5578659245
 30
0.0
 11
171.7970142008
 21
364.5578659245
 31
0.0
  0
LINE
  5
FF
330
1F
100
AcDbEntity
  8
0
  6
Continuous
 62
     8
370
    18
100
AcDbLine
 10
171.7970142008
 20
424.5521975622
 30
0.0
 11
171.7041367972
 21
424.5521975622
 31
0.0
  0
LINE
  5
100
330
1F
100
AcDbEntity
  8
0
  6
Continuous
 62
     8
370
    18
100
AcDbLine
 10
176.8175947192
 20
429.6656554842
 30
0.0
 11
176.8175947192
 21
429.5727780806
 31
0.0
  0
LINE
  5
101
330
1F
100
AcDbEntity
  8
0
  6
Continuous
 62
     8
370
    18
100
AcDbLine
 10
365.8700014346
 20
429.6656554842
 30
0.0
 11
365.8700014346
 21
429.5727780806
 31
0.0
  0
LINE
  5
102
330
1F
100
AcDbEntity
  8
0
  6
Continuous
 62
     8
370
    18
100
AcDbLine
 10
370.9834593567
 20
364.5578659245
 30
0.0
 11
370.8905819531
 21
364.5578659245
 31
0.0
  0
LINE
  5
103
330
1F
100
AcDbEntity
  8
0
  6
Continuous
 62
     8
370
    18
100
AcDbLine
 10
370.9834593567
 20
424.5521975622
 30
0.0
 11
370.8905819531
 21
424.5521975622
 31
0.0
  0
LINE
  5
104
330
1F
100
AcDbEntity
  8
0
  6
Continuous
 62
     7
370
    25
100
AcDbLine
 10
308.3450014346
 20
277.1099934183
 30
0.0
 11
308.3450014346
 21
257.6206900384
 31
0.0
  0
LINE
  5
105
330
1F
100
AcDbEntity
  8
0
  6
Continuous
 62
     7
370
    25
100
AcDbLine
 10
344.3450014346
 20
257.6206900384
 30
0.0
 11
344.3450014346
 21
277.1099934183
 31
0.0
  0
ARC
  5
106
330
1F
100
AcDbEntity
  8
0
  6
Continuous
 62
     7
370
    25
100
AcDbCircle
 10
310.3450014346
 20
257.6206900384
 30
0.0
 40
2.000000000000028
100
AcDbArc
 50
180.0
 51
270.0
  0
ARC
  5
107
330
1F
100
AcDbEntity
  8
0
  6
Continuous
 62
     7
370
    25
100
AcDbCircle
 10
342.3450014346
 20
257.6206900384
 30
0.0
 40
2.0
100
AcDbArc
 50
270.0
 51
0.0
  0
SPLINE
  5
108
330
1F
100
AcDbEntity
  8
0
  6
Continuous
 62
     7
370
    25
100
AcDbSpline
210
0.0
220
0.0
230
1.0
 70
     8
 71
     3
 72
    17
 73
    13
 74
     0
 42
0.00000001
 43
0.00000001
 40
0.0
 40
0.0
 40
0.0
 40
0.0
 40
0.1769092061555681
 40
0.3334474544892398
 40
0.4531627981444237
 40
0.5559756612800115
 40
0.621217298497588
 40
0.6840880069270078
 40
0.7483529696542389
 40
0.8147741752216096
 40
0.8946616586319883
 40
1.0
 40
1.0
 40
1.0
 40
1.0
 10
308.3518154419635
 20
254.5658189291867
 30
0.0
 10
308.3517983676932
 20
252.9358276801048
 30
0.0
 10
308.3517661852415
 20
249.8635374095343
 30
0.0
 10
308.3516363516798
 20
245.688224666838
 30
0.0
 10
308.35149809397
 20
242.1956150491769
 30
0.0
 10
308.351374152777
 20
239.5441865623191
 30
0.0
 10
308.3512632976295
 20
237.4165084870531
 30
0.0
 10
308.351169189177
 20
235.6439995127582
 30
0.0
 10
308.3510521487131
 20
233.8606234348821
 30
0.0
 10
308.3509878223995
 20
231.9204560134113
 30
0.0
 10
308.3505638478339
 20
229.6018693794595
 30
0.0
 10
308.3504921866225
 20
227.8993207137084
 30
0.0
 10
308.350451432731
 20
226.9310774746076
 30
0.0
  0
SPLINE
  5
109
330
1F
100
AcDbEntity
  8
0
  6
Continuous
 62
     7
370
    25
100
AcDbSpline
210
0.0
220
0.0
230
1.0
 70
     8
 71
     3
 72
    15
 73
    11
 74
     0
 42
0.00000001
 43
0.00000001
 40
0.0
 40
0.0
 40
0.0
 40
0.0
 40
0.1897117627300741
 40
0.6169371686467301
 40
0.8259856796923029
 40
0.9223494011062191
 40
0.9656371206892531
 40
0.9848559796792061
 40
0.9933431122508094
 40
1.0
 40
1.0
 40
1.0
 40
1.0
 10
343.0767564825767
 20
223.724661245111
 30
0.0
 10
343.2086341636012
 20
223.7370318881499
 30
0.0
 10
343.6374965702759
 20
223.7772608617301
 30
0.0
 10
343.9976166279245
 20
223.9510000989323
 30
0.0
 10
344.1999768852294
 20
224.1940905203397
 30
0.0
 10
344.2623145561433
 20
224.3257965880887
 30
0.0
 10
344.2848738088744
 20
224.3879148235409
 30
0.0
 10
344.2938065617404
 20
224.416040444881
 30
0.0
 10
344.2978994514268
 20
224.4297008025864
 30
0.0
 10
344.2996443158701
 20
224.4357728384506
 30
0.0
 10
344.3004113094748
 20
224.4384419355795
 30
0.0
  0
SPLINE
  5
10A
330
1F
100
AcDbEntity
  8
0
  6
Continuous
 62
     7
370
    25
100
AcDbSpline
210
0.0
220
0.0
230
1.0
 70
     8
 71
     3
 72
    16
 73
    12
 74
     0
 42
0.00000001
 43
0.00000001
 40
0.0
 40
0.0
 40
0.0
 40
0.0
 40
0.0140465223016794
 40
0.0251943674533977
 40
0.0452525922266807
 40
0.0815644645665042
 40
0.1480037351275577
 40
0.2718752490780625
 40
0.5118057672499413
 40
0.816920571503263
 40
1.0
 40
1.0
 40
1.0
 40
1.0
 10
308.3773186979982
 20
224.4852285666617
 30
0.0
 10
308.3799072181138
 20
224.4746830239909
 30
0.0
 10
308.3845500845508
 20
224.4557681444685
 30
0.0
 10
308.3939021903824
 20
224.4229001007614
 30
0.0
 10
308.4092155427992
 20
224.375080563105
 30
0.0
 10
308.4413779864416
 20
224.292903996362
 30
0.0
 10
308.5126993353548
 20
224.1579291421038
 30
0.0
 10
308.6738934740409
 20
223.9617398791811
 30
0.0
 10
308.9558322576308
 20
223.8056080474227
 30
0.0
 10
309.2217489480672
 20
223.7515215269702
 30
0.0
 10
309.5607736168974
 20
223.7284655886911
 30
0.0
 10
309.6879124449538
 20
223.7198193005534
 30
0.0
  0
ARC
  5
10B
330
1F
100
AcDbEntity
  8
0
  6
Continuous
 62
     7
370
    25
100
AcDbCircle
 10
310.9073835246
 20
254.6420832819
 30
0.0
 40
0.9786067564917058
100
AcDbArc
 50
5.1312373238
 51
90.0
  0
ARC
  5
10C
330
1F
100
AcDbEntity
  8
0
  6
Continuous
 62
     7
370
    25
100
AcDbCircle
 10
341.7826193446
 20
254.6420832819
 30
0.0
 40
0.9786067564917573
100
AcDbArc
 50
90.0
 51
174.8687626762
  0
LINE
  5
10D
330
1F
100
AcDbEntity
  8
0
  6
Continuous
 62
     7
370
    25
100
AcDbLine
 10
171.7041367972
 20
283.6099934183
 30
0.0
 11
176.8175947192
 21
283.6099934183
 31
0.0
  0
LINE
  5
10E
330
1F
100
AcDbEntity
  8
0
  6
Continuous
 62
     7
370
    25
100
AcDbLine
 10
171.7970142008
 20
278.2890505306
 30
0.0
 11
171.7041367972
 21
283.6099934183
 31
0.0
  0
LINE
  5
10F
330
1F
100
AcDbEntity
  8
0
  6
Continuous
 62
     7
370
    25
100
AcDbLine
 10
176.8175947192
 20
283.6099934183
 30
0.0
 11
365.8700014346
 21
283.6099934183
 31
0.0
  0
LINE
  5
110
330
1F
100
AcDbEntity
  8
0
  6
Continuous
 62
     7
370
    25
100
AcDbLine
 10
370.9834593567
 20
283.6099934183
 30
0.0
 11
370.8905819531
 21
278.2890505306
 31
0.0
  0
LINE
  5
111
330
1F
100
AcDbEntity
  8
0
  6
Continuous
 62
     7
370
    25
100
AcDbLine
 10
365.8700014346
 20
283.6099934183
 30
0.0
 11
370.9834593567
 21
283.6099934183
 31
0.0
  0
LINE
  5
112
330
1F
100
AcDbEntity
  8
0
  6
Continuous
 62
     7
370
    25
100
AcDbLine
 10
176.8175947192
 20
277.1099934183
 30
0.0
 11
172.996831435
 21
277.1099934183
 31
0.0
  0
ARC
  5
113
330
1F
100
AcDbEntity
  8
0
  6
Continuous
 62
     7
370
    25
100
AcDbCircle
 10
172.996831435
 20
278.3099934183
 30
0.0
 40
1.200000000000045
100
AcDbArc
 50
181.0
 51
270.0
  0
LINE
  5
114
330
1F
100
AcDbEntity
  8
0
  6
Continuous
 62
     7
370
    25
100
AcDbLine
 10
365.8700014346
 20
277.1099934183
 30
0.0
 11
176.8175947192
 21
277.1099934183
 31
0.0
  0
LINE
  5
115
330
1F
100
AcDbEntity
  8
0
  6
Continuous
 62
     7
370
    25
100
AcDbLine
 10
369.6907647189
 20
277.1099934183
 30
0.0
 11
365.8700014346
 21
277.1099934183
 31
0.0
  0
ARC
  5
116
330
1F
100
AcDbEntity
  8
0
  6
Continuous
 62
     7
370
    25
100
AcDbCircle
 10
369.6907647189
 20
278.3099934183
 30
0.0
 40
1.199999999999993
100
AcDbArc
 50
270.0
 51
359.0
  0
ELLIPSE
  5
117
330
1F
100
AcDbEntity
  8
0
  6
Continuous
 62
     7
370
    25
100
AcDbEllipse
 10
326.3450014347
 20
254.6583177326
 30
0.0
 11
17.99455191479956
 21
1.136868377216160E-13
 31
0.0
210
0.0
220
0.0
230
1.0
 40
0.4222134409
 41
0.000000000005963
 42
0.0493645957433265
  0
SPLINE
  5
118
330
1F
100
AcDbEntity
  8
0
  6
Continuous
 62
     7
370
    25
100
AcDbSpline
210
0.0
220
0.0
230
1.0
 70
     8
 71
     3
 72
    56
 73
    52
 74
     0
 42
0.00000001
 43
0.00000001
 40
0.0
 40
0.0
 40
0.0
 40
0.0
 40
0.0624999999999998
 40
0.0624999999999998
 40
0.0937499999999998
 40
0.0937499999999998
 40
0.1249999999999999
 40
0.1249999999999999
 40
0.1874999999999998
 40
0.1874999999999998
 40
0.2187499999999998
 40
0.2187499999999998
 40
0.2499999999999998
 40
0.2499999999999998
 40
0.3124999999999997
 40
0.3124999999999997
 40
0.3437499999999998
 40
0.3437499999999998
 40
0.3749999999999999
 40
0.3749999999999999
 40
0.40625
 40
0.40625
 40
0.4375000000000001
 40
0.4375000000000001
 40
0.5000000000000002
 40
0.5000000000000002
 40
0.5312500000000003
 40
0.5312500000000003
 40
0.5625000000000003
 40
0.5625000000000003
 40
0.5937500000000003
 40
0.5937500000000003
 40
0.6093750000000003
 40
0.6093750000000003
 40
0.6250000000000004
 40
0.6250000000000004
 40
0.6875000000000009
 40
0.6875000000000009
 40
0.7187500000000011
 40
0.7187500000000011
 40
0.7343750000000012
 40
0.7343750000000012
 40
0.7500000000000013
 40
0.7500000000000013
 40
0.812500000000001
 40
0.812500000000001
 40
0.8750000000000007
 40
0.8750000000000007
 40
0.9375000000000003
 40
0.9375000000000003
 40
1.0
 40
1.0
 40
1.0
 40
1.0
 10
344.3395369403158
 20
254.6583177327071
 30
0.0
 10
344.3395231472143
 20
254.174340371125
 30
0.0
 10
344.2309235931764
 20
253.6967551720508
 30
0.0
 10
343.9156552868857
 20
252.9893469403744
 30
0.0
 10
343.7850613200819
 20
252.7550455821871
 30
0.0
 10
343.4732443739493
 20
252.2894232646504
 30
0.0
 10
343.2912210330013
 20
252.0573265584129
 30
0.0
 10
342.677534790803
 20
251.3767639920492
 30
0.0
 10
342.1779041180088
 20
250.9407934515321
 30
0.0
 10
341.2858061647722
 20
250.3147951534523
 30
0.0
 10
340.9644341339584
 20
250.1108338574624
 30
0.0
 10
340.2681309051999
 20
249.7134080105849
 30
0.0
 10
339.8909527967755
 20
249.5190884404151
 30
0.0
 10
338.693611727899
 20
248.9673305466232
 30
0.0
 10
337.802011357339
 20
248.637887943355
 30
0.0
 10
336.3131002486224
 20
248.2060268305601
 30
0.0
 10
335.7891362615635
 20
248.0720645812042
 30
0.0
 10
334.7172908214158
 20
247.831869756416
 30
0.0
 10
334.1666165631289
 20
247.7247088075068
 30
0.0
 10
333.0371629014765
 20
247.5350339110924
 30
0.0
 10
332.4583524194539
 20
247.4525472182302
 30
0.0
 10
331.2744391966262
 20
247.3106310107316
 30
0.0
 10
330.6682318415758
 20
247.2510270192434
 30
0.0
 10
328.8485604036393
 20
247.1091457833318
 30
0.0
 10
327.6222049717485
 20
247.0617466429248
 30
0.0
 10
325.7631235526658
 20
247.0603134349867
 30
0.0
 10
325.1387929603383
 20
247.0717336099718
 30
0.0
 10
323.90885977249
 20
247.1177730414905
 30
0.0
 10
323.3001606477271
 20
247.1523263023145
 30
0.0
 10
322.0952574130813
 20
247.2444264460278
 30
0.0
 10
321.4990454434629
 20
247.3019588652459
 30
0.0
 10
320.6144391425908
 20
247.4061291087637
 30
0.0
 10
320.3212092217441
 20
247.4438683666643
 30
0.0
 10
319.7382749545345
 20
247.5258347280602
 30
0.0
 10
319.447557591726
 20
247.5702288650716
 30
0.0
 10
318.0177158871338
 20
247.8071507293199
 30
0.0
 10
316.9522886500774
 20
248.0432546177117
 30
0.0
 10
315.4712312732117
 20
248.4669123618209
 30
0.0
 10
314.9971345051164
 20
248.6197598484539
 30
0.0
 10
314.3161607366878
 20
248.8669411103255
 30
0.0
 10
314.0938671707796
 20
248.952492745606
 30
0.0
 10
313.6650293419885
 20
249.1272429231253
 30
0.0
 10
313.4577471620269
 20
249.2166887994641
 30
0.0
 10
312.4551590371887
 20
249.6737321630218
 30
0.0
 10
311.7592898850029
 20
250.0701821285167
 30
0.0
 10
310.5438922051467
 20
250.9142488751319
 30
0.0
 10
310.0334469823916
 20
251.3566514059343
 30
0.0
 10
309.2047411152686
 20
252.2694786298412
 30
0.0
 10
308.8870771833934
 20
252.7393887362708
 30
0.0
 10
308.4592705855863
 20
253.6933951522155
 30
0.0
 10
308.3504645077779
 20
254.1739947600991
 30
0.0
 10
308.3504659290055
 20
254.6583177326469
 30
0.0
  0
ELLIPSE
  5
119
330
1F
100
AcDbEntity
  8
0
  6
Continuous
 62
     7
370
    25
100
AcDbEllipse
 10
326.3450014347
 20
254.6583177326
 30
0.0
 11
17.99455191479956
 21
1.136868377216160E-13
 31
0.0
210
0.0
220
0.0
230
1.0
 40
0.4222134409
 41
3.092228057825269
 42
3.14159265358668
  0
SPLINE
  5
11A
330
1F
100
AcDbEntity
  8
0
  6
Continuous
 62
     7
370
    25
100
AcDbSpline
210
0.0
220
0.0
230
1.0
 70
     8
 71
     3
 72
    54
 73
    50
 74
     0
 42
0.00000001
 43
0.00000001
 40
0.0
 40
0.0
 40
0.0
 40
0.0
 40
0.0625000000000007
 40
0.0625000000000007
 40
0.0937500000000009
 40
0.0937500000000009
 40
0.1250000000000011
 40
0.1250000000000011
 40
0.1875000000000011
 40
0.1875000000000011
 40
0.2187500000000013
 40
0.2187500000000013
 40
0.2500000000000014
 40
0.2500000000000014
 40
0.3125000000000018
 40
0.3125000000000018
 40
0.3437500000000019
 40
0.3437500000000019
 40
0.375000000000002
 40
0.375000000000002
 40
0.4375000000000021
 40
0.4375000000000021
 40
0.5000000000000021
 40
0.5000000000000021
 40
0.5312500000000022
 40
0.5312500000000022
 40
0.5625000000000022
 40
0.5625000000000022
 40
0.6250000000000023
 40
0.6250000000000023
 40
0.6562500000000023
 40
0.6562500000000023
 40
0.6875000000000023
 40
0.6875000000000023
 40
0.7500000000000026
 40
0.7500000000000026
 40
0.7812500000000027
 40
0.7812500000000027
 40
0.8125000000000024
 40
0.8125000000000024
 40
0.8437500000000022
 40
0.8437500000000022
 40
0.875000000000002
 40
0.875000000000002
 40
0.9375000000000012
 40
0.9375000000000012
 40
0.9687500000000007
 40
0.9687500000000007
 40
1.0
 40
1.0
 40
1.0
 40
1.0
 10
311.8830541021904
 20
254.7296072468981
 30
0.0
 10
311.9059001241168
 20
254.3620169917793
 30
0.0
 10
312.01843850027
 20
254.001230496104
 30
0.0
 10
312.316353869394
 20
253.4698444351668
 30
0.0
 10
312.4373305717238
 20
253.2943596810906
 30
0.0
 10
312.7235494456576
 20
252.9467480021219
 30
0.0
 10
312.8898025009734
 20
252.7738605441437
 30
0.0
 10
313.4462031713917
 20
252.2704952531863
 30
0.0
 10
313.8947047991458
 20
251.9526157187165
 30
0.0
 10
314.6823730661898
 20
251.5020147911247
 30
0.0
 10
314.964211661893
 20
251.3562138409572
 30
0.0
 10
315.5678659925479
 20
251.0737328392367
 30
0.0
 10
315.8860482075066
 20
250.9388127891357
 30
0.0
 10
316.8823269443379
 20
250.5550362225016
 30
0.0
 10
317.6042390301748
 20
250.3258112071054
 30
0.0
 10
318.7750489479925
 20
250.0225365158347
 30
0.0
 10
319.1823701426343
 20
249.9278329146099
 30
0.0
 10
320.0117107256937
 20
249.7559038033441
 30
0.0
 10
320.4345169608023
 20
249.6783506749032
 30
0.0
 10
321.7268313736894
 20
249.4703961074545
 30
0.0
 10
322.6200053632599
 20
249.364461806265
 30
0.0
 10
324.4723516533455
 20
249.2208262222096
 30
0.0
 10
325.4050359579376
 20
249.1853589800027
 30
0.0
 10
326.8033711958876
 20
249.1850646944506
 30
0.0
 10
327.2699337977211
 20
249.1938041431654
 30
0.0
 10
328.2039787132624
 20
249.2293109625166
 30
0.0
 10
328.6736075405744
 20
249.2563110165072
 30
0.0
 10
330.0554050628738
 20
249.3630766729459
 30
0.0
 10
330.9477959187795
 20
249.4683041631592
 30
0.0
 10
332.2439445619731
 20
249.6763065866688
 30
0.0
 10
332.6693214493105
 20
249.754152143606
 30
0.0
 10
333.5035004202177
 20
249.9268698987783
 30
0.0
 10
333.9063209655305
 20
250.0204809387056
 30
0.0
 10
335.0735206224056
 20
250.3222853827575
 30
0.0
 10
335.7970114267024
 20
250.5512601931544
 30
0.0
 10
336.7993270641437
 20
250.9368666340324
 30
0.0
 10
337.1200353630535
 20
251.0728723730905
 30
0.0
 10
337.7199090399037
 20
251.3533399566554
 30
0.0
 10
338.000901920862
 20
251.4984378722707
 30
0.0
 10
338.5257725571756
 20
251.7981635267882
 30
0.0
 10
338.7696491330533
 20
251.9527915685375
 30
0.0
 10
339.2200137752079
 20
252.2716476704561
 30
0.0
 10
339.4270479622145
 20
252.4363736626024
 30
0.0
 10
339.9864774213836
 20
252.9421885987195
 30
0.0
 10
340.2710128492197
 20
253.2881411569861
 30
0.0
 10
340.5701629903255
 20
253.8196921411932
 30
0.0
 10
340.6484530575992
 20
253.9989944388629
 30
0.0
 10
340.7612008850723
 20
254.3619331102679
 30
0.0
 10
340.7955255964662
 20
254.5458095506602
 30
0.0
 10
340.8069487670748
 20
254.7296072468982
 30
0.0
  0
LINE
  5
11B
330
1F
100
AcDbEntity
  8
0
  6
Continuous
 62
     7
370
    25
100
AcDbLine
 10
310.3450014346
 20
255.6206900384
 30
0.0
 11
342.3450014346
 21
255.6206900384
 31
0.0
  0
LINE
  5
11C
330
1F
100
AcDbEntity
  8
0
  6
Continuous
 62
     7
370
    25
100
AcDbLine
 10
344.3395533495
 20
224.7154724749
 30
0.0
 11
344.3395533495
 21
237.8828235424
 31
0.0
  0
SPLINE
  5
11D
330
1F
100
AcDbEntity
  8
0
  6
Continuous
 62
     7
370
    25
100
AcDbSpline
210
0.0
220
0.0
230
1.0
 70
     8
 71
     3
 72
   262
 73
   258
 74
     0
 42
0.00000001
 43
0.00000001
 40
5.666953204607807
 40
5.666953204607807
 40
5.666953204607807
 40
5.666953204607807
 40
5.669836879042172
 40
5.669836879042172
 40
5.677190721554169
 40
5.677190721554169
 40
5.706606091602374
 40
5.706606091602374
 40
5.765436831698771
 40
5.765436831698771
 40
5.883098311891573
 40
5.883098311891573
 40
6.118421272277068
 40
6.118421272277068
 40
6.589067193048272
 40
6.589067193048272
 40
7.05971311381937
 40
7.05971311381937
 40
7.530359034590468
 40
7.530359034590468
 40
7.76568199497607
 40
7.76568199497607
 40
8.001004955361573
 40
8.001004955361573
 40
8.47165087613267
 40
8.47165087613267
 40
8.942296796903868
 40
8.942296796903868
 40
9.412942717674973
 40
9.412942717674973
 40
9.88358863844607
 40
9.88358863844607
 40
10.11891159883167
 40
10.11891159883167
 40
10.35423455921717
 40
10.35423455921717
 40
10.82488047998837
 40
10.82488047998837
 40
11.29552640075947
 40
11.29552640075947
 40
11.53084936114497
 40
11.53084936114497
 40
11.76617232153057
 40
11.76617232153057
 40
12.23681824230167
 40
12.23681824230167
 40
12.47214120268727
 40
12.47214120268727
 40
12.70746416307277
 40
12.70746416307277
 40
13.17811008384397
 40
13.17811008384397
 40
13.41343304422947
 40
13.41343304422947
 40
13.64875600461507
 40
13.64875600461507
 40
13.88407896500057
 40
13.88407896500057
 40
14.11940192538617
 40
14.11940192538617
 40
14.59004784615727
 40
14.59004784615727
 40
15.06069376692837
 40
15.06069376692837
 40
15.53133968769957
 40
15.53133968769957
 40
16.00198560847067
 40
16.00198560847067
 40
16.23730856885627
 40
16.23730856885627
 40
16.47263152924177
 40
16.47263152924177
 40
16.70795448962737
 40
16.70795448962737
 40
16.94327745001287
 40
16.94327745001287
 40
17.41392337078397
 40
17.41392337078397
 40
17.88456929155517
 40
17.88456929155517
 40
18.35521521232627
 40
18.35521521232627
 40
18.59053817271187
 40
18.59053817271187
 40
18.82586113309737
 40
18.82586113309737
 40
19.29650705386847
 40
19.29650705386847
 40
19.76715297463967
 40
19.76715297463967
 40
20.00247593502517
 40
20.00247593502517
 40
20.23779889541077
 40
20.23779889541077
 40
20.70844481618187
 40
20.70844481618187
 40
21.17909073695297
 40
21.17909073695297
 40
21.64973665772407
 40
21.64973665772407
 40
22.12038257849527
 40
22.12038257849527
 40
22.35570553888077
 40
22.35570553888077
 40
22.59102849926637
 40
22.59102849926637
 40
23.06167442003747
 40
23.06167442003747
 40
23.53232034080857
 40
23.53232034080857
 40
24.00296626157967
 40
24.00296626157967
 40
24.47361218235087
 40
24.47361218235087
 40
24.94425810312197
 40
24.94425810312197
 40
25.41490402389307
 40
25.41490402389307
 40
26.35619586543537
 40
26.35619586543537
 40
27.29748770697757
 40
27.29748770697757
 40
28.23877954851977
 40
28.23877954851977
 40
29.18007139006207
 40
29.18007139006207
 40
30.12136323160427
 40
30.12136323160427
 40
31.06265507314657
 40
31.06265507314657
 40
32.00394691468877
 40
32.00394691468877
 40
32.94523875623107
 40
32.94523875623107
 40
33.88653059777327
 40
33.88653059777327
 40
34.82782243931547
 40
34.82782243931547
 40
35.29846836008667
 40
35.29846836008667
 40
35.76911428085777
 40
35.76911428085777
 40
36.00443724124327
 40
36.00443724124327
 40
36.23976020162887
 40
36.23976020162887
 40
36.71040612239997
 40
36.71040612239997
 40
37.18105204317117
 40
37.18105204317117
 40
37.65169796394227
 40
37.65169796394227
 40
37.88702092432777
 40
37.88702092432777
 40
38.12234388471337
 40
38.12234388471337
 40
38.59298980548447
 40
38.59298980548447
 40
39.06363572625557
 40
39.06363572625557
 40
39.53428164702677
 40
39.53428164702677
 40
40.00492756779787
 40
40.00492756779787
 40
40.47557348856897
 40
40.47557348856897
 40
40.94621940934007
 40
40.94621940934007
 40
41.41686533011117
 40
41.41686533011117
 40
41.65218829049677
 40
41.65218829049677
 40
41.88751125088237
 40
41.88751125088237
 40
42.35815717165347
 40
42.35815717165347
 40
42.59348013203897
 40
42.59348013203897
 40
42.82880309242457
 40
42.82880309242457
 40
43.29944901319567
 40
43.29944901319567
 40
43.53477197358127
 40
43.53477197358127
 40
43.77009493396677
 40
43.77009493396677
 40
44.00541789435237
 40
44.00541789435237
 40
44.24074085473797
 40
44.24074085473797
 40
44.71138677550907
 40
44.71138677550907
 40
45.18203269628017
 40
45.18203269628017
 40
45.41735565666577
 40
45.41735565666577
 40
45.65267861705127
 40
45.65267861705127
 40
46.12332453782247
 40
46.12332453782247
 40
46.35864749820797
 40
46.35864749820797
 40
46.59397045859357
 40
46.59397045859357
 40
47.06461637936467
 40
47.06461637936467
 40
47.53526230013577
 40
47.53526230013577
 40
47.77058526052137
 40
47.77058526052137
 40
48.00590822090687
 40
48.00590822090687
 40
48.24123118129247
 40
48.24123118129247
 40
48.47655414167807
 40
48.47655414167807
 40
48.94720006244917
 40
48.94720006244917
 40
49.41784598322027
 40
49.41784598322027
 40
49.88849190399137
 40
49.88849190399137
 40
50.12381486437697
 40
50.12381486437697
 40
50.35913782476252
 40
50.35913782476252
 40
50.82978374553364
 40
50.82978374553364
 40
51.30042966630477
 40
51.30042966630477
 40
51.77107558707588
 40
51.77107558707588
 40
52.24172150784701
 40
52.24172150784701
 40
52.47704446823257
 40
52.47704446823257
 40
52.71236742861813
 40
52.71236742861813
 40
53.18301334938925
 40
53.18301334938925
 40
53.65365927016037
 40
53.65365927016037
 40
54.12430519093149
 40
54.12430519093149
 40
54.35962815131705
 40
54.35962815131705
 40
54.47728963150983
 40
54.47728963150983
 40
54.53612037160622
 40
54.53612037160622
 40
54.56553574165442
 40
54.56553574165442
 40
54.56921266291045
 40
54.56921266291045
 40
54.57288958416647
 40
54.57288958416647
 40
54.57574895634826
 40
54.57574895634826
 40
54.57574895634826
 40
54.57574895634826
 10
308.3504501199272
 20
224.7154724498198
 30
0.0
 10
308.3504506904114
 20
224.7154695873736
 30
0.0
 10
308.3504518702391
 20
224.7154636722606
 30
0.0
 10
308.3504602349972
 20
224.7154217596602
 30
0.0
 10
308.3504637709894
 20
224.7154041670835
 30
0.0
 10
308.3504872928303
 20
224.7152874984717
 30
0.0
 10
308.3505057057866
 20
224.7151979945364
 30
0.0
 10
308.3505629459022
 20
224.7149263016687
 30
0.0
 10
308.3506031281041
 20
224.7147442870537
 30
0.0
 10
308.350731911821
 20
224.7141977091157
 30
0.0
 10
308.3508274368806
 20
224.7138370876509
 30
0.0
 10
308.3511681538338
 20
224.7127453115656
 30
0.0
 10
308.3514642936332
 20
224.7120185161656
 30
0.0
 10
308.3527131959838
 20
224.7098402255339
 30
0.0
 10
308.3540342762965
 20
224.7083857468362
 30
0.0
 10
308.3584702059496
 20
224.7054783571285
 30
0.0
 10
308.3615719033482
 20
224.7040275965083
 30
0.0
 10
308.3703558728762
 20
224.7011188812628
 30
0.0
 10
308.3760179655112
 20
224.6996689845642
 30
0.0
 10
308.3870020991524
 20
224.6974896098423
 30
0.0
 10
308.3910838130615
 20
224.6967630194416
 30
0.0
 10
308.4001470109068
 20
224.6953129580392
 30
0.0
 10
308.4051469552981
 20
224.6945866208531
 30
0.0
 10
308.4215756790463
 20
224.6924123874399
 30
0.0
 10
308.4344657754646
 20
224.69096200627
 30
0.0
 10
308.4646142029152
 20
224.6880674474934
 30
0.0
 10
308.4818813210888
 20
224.6866224359059
 30
0.0
 10
308.5213241905672
 20
224.6837367818943
 30
0.0
 10
308.5435141800139
 20
224.6822949185283
 30
0.0
 10
308.5932520980185
 20
224.6794199192193
 30
0.0
 10
308.6207231124246
 20
224.6779897347704
 30
0.0
 10
308.6664329660097
 20
224.6758428962802
 30
0.0
 10
308.6823212599547
 20
224.6751317379026
 30
0.0
 10
308.7156789836621
 20
224.6737078150627
 30
0.0
 10
308.7331514602776
 20
224.6729952004252
 30
0.0
 10
308.7876726332429
 20
224.670871021852
 30
0.0
 10
308.8272821988371
 20
224.669455536624
 30
0.0
 10
308.9129036499817
 20
224.6666493884505
 30
0.0
 10
308.9591802515265
 20
224.6652495655588
 30
0.0
 10
309.0337184811693
 20
224.6631714705052
 30
0.0
 10
309.0595334352688
 20
224.6624788531082
 30
0.0
 10
309.112864524041
 20
224.6611026712802
 30
0.0
 10
309.1404079608026
 20
224.6604182258252
 30
0.0
 10
309.2261229249151
 20
224.6583680933329
 30
0.0
 10
309.2870133389089
 20
224.6570154083857
 30
0.0
 10
309.3843750471154
 20
224.6550087818159
 30
0.0
 10
309.4178895186589
 20
224.654342655843
 30
0.0
 10
309.4868868032295
 20
224.6530201100466
 30
0.0
 10
309.5224400020466
 20
224.6523624021945
 30
0.0
 10
309.6322023683873
 20
224.6504040668969
 30
0.0
 10
309.7096032896978
 20
224.6491169501645
 30
0.0
 10
309.8324060722131
 20
224.647217556842
 30
0.0
 10
309.8743017218051
 20
224.6465921190379
 30
0.0
 10
309.9606927834885
 20
224.6453475191154
 30
0.0
 10
310.0049839124403
 20
224.644731495433
 30
0.0
 10
310.0956193740802
 20
224.6435148174864
 30
0.0
 10
310.1422766936638
 20
224.6429103184782
 30
0.0
 10
310.2376091424317
 20
224.6417189222928
 30
0.0
 10
310.2864088603181
 20
224.6411303566802
 30
0.0
 10
310.4363134356944
 20
224.6393862331889
 30
0.0
 10
310.5407700095496
 20
224.6382536310612
 30
0.0
 10
310.7585971421892
 20
224.6360555072976
 30
0.0
 10
310.8721405800634
 20
224.6349883025708
 30
0.0
 10
311.1074639878676
 20
224.6329320008224
 30
0.0
 10
311.2294242360015
 20
224.631941469351
 30
0.0
 10
311.4811785490527
 20
224.6300369271426
 30
0.0
 10
311.6107850075181
 20
224.6291243706165
 30
0.0
 10
311.810483338838
 20
224.6278139324038
 30
0.0
 10
311.8779389971052
 20
224.6273868255483
 30
0.0
 10
312.0143919866885
 20
224.6265533546581
 30
0.0
 10
312.0833515323507
 20
224.6261471315548
 30
0.0
 10
312.2228446507558
 20
224.6253535728592
 30
0.0
 10
312.2932719975987
 20
224.6249669141326
 30
0.0
 10
312.4358704588794
 20
224.6242113454884
 30
0.0
 10
312.5075008529701
 20
224.6238452353013
 30
0.0
 10
312.7250286203308
 20
224.6227719811612
 30
0.0
 10
312.8726162233548
 20
224.6220952023739
 30
0.0
 10
313.1717197877728
 20
224.6208166269915
 30
0.0
 10
313.3233193903292
 20
224.6202140319613
 30
0.0
 10
313.6300380297487
 20
224.6190788969062
 30
0.0
 10
313.7850268781618
 20
224.618546920097
 30
0.0
 10
314.0196370441894
 20
224.6177989113704
 30
0.0
 10
314.0982932746837
 20
224.6175575878279
 30
0.0
 10
314.2559422482468
 20
224.617091841034
 30
0.0
 10
314.3352100465642
 20
224.6168665938307
 30
0.0
 10
314.5735637252263
 20
224.6162150664666
 30
0.0
 10
314.7335652939822
 20
224.6158118532965
 30
0.0
 10
315.0554177643069
 20
224.6150636942508
 30
0.0
 10
315.2174227692576
 20
224.6147183764385
 30
0.0
 10
315.4610163319117
 20
224.6142422199364
 30
0.0
 10
315.5425787768813
 20
224.6140899616422
 30
0.0
 10
315.7056644491446
 20
224.6137991651045
 30
0.0
 10
315.7873544490015
 20
224.6136602912324
 30
0.0
 10
316.0330678062205
 20
224.6132622271059
 30
0.0
 10
316.1972146140027
 20
224.6130224533678
 30
0.0
 10
316.5267508927146
 20
224.6125892493145
 30
0.0
 10
316.6918458725485
 20
224.6123963187978
 30
0.0
 10
317.0226112276927
 20
224.6120534526366
 30
0.0
 10
317.1882718404469
 20
224.6119035267461
 30
0.0
 10
317.5201424157021
 20
224.6116421793328
 30
0.0
 10
317.6858365802771
 20
224.6115311668924
 30
0.0
 10
317.9354547919874
 20
224.6113892948508
 30
0.0
 10
318.0184389773809
 20
224.6113464764739
 30
0.0
 10
318.1847578696603
 20
224.6112686471607
 30
0.0
 10
318.2680553897825
 20
224.6112337393977
 30
0.0
 10
318.5175604372247
 20
224.6111401792219
 30
0.0
 10
318.6840740423289
 20
224.6110923842948
 30
0.0
 10
319.0169219956098
 20
224.6110194341536
 30
0.0
 10
319.1836541351491
 20
224.6109942477078
 30
0.0
 10
319.5165977379262
 20
224.6109598117828
 30
0.0
 10
319.6832039237599
 20
224.6109504617842
 30
0.0
 10
320.0161934493738
 20
224.6109405457316
 30
0.0
 10
320.1828896875909
 20
224.6109399666126
 30
0.0
 10
320.5157196823624
 20
224.6109399288636
 30
0.0
 10
320.6824519749688
 20
224.6109399407132
 30
0.0
 10
321.0154746069133
 20
224.610939936013
 30
0.0
 10
321.1820895903404
 20
224.6109399375124
 30
0.0
 10
321.6818004188277
 20
224.6109399373449
 30
0.0
 10
322.0147744596756
 20
224.6109399374757
 30
0.0
 10
322.6809787645162
 20
224.6109399376112
 30
0.0
 10
323.0141124537656
 20
224.6109399376851
 30
0.0
 10
323.6802305473478
 20
224.6109399377441
 30
0.0
 10
324.0133577895477
 20
224.6109399377729
 30
0.0
 10
324.6794956647019
 20
224.6109399378109
 30
0.0
 10
325.0126610442592
 20
224.6109399378246
 30
0.0
 10
325.6787904920119
 20
224.6109399378427
 30
0.0
 10
326.0120191475419
 20
224.6109399378474
 30
0.0
 10
326.6780889471931
 20
224.6109399378473
 30
0.0
 10
327.0112188751413
 20
224.6109399378426
 30
0.0
 10
327.6774602079906
 20
224.6109399378246
 30
0.0
 10
328.0103787416739
 20
224.6109399378109
 30
0.0
 10
328.6767071467354
 20
224.6109399377729
 30
0.0
 10
329.0098215419553
 20
224.6109399377444
 30
0.0
 10
329.675955400102
 20
224.6109399376841
 30
0.0
 10
330.0090236680962
 20
224.6109399376141
 30
0.0
 10
330.6753147170951
 20
224.6109399374659
 30
0.0
 10
331.0082759929829
 20
224.6109399373762
 30
0.0
 10
331.5080419839272
 20
224.6109399374381
 30
0.0
 10
331.6744673545294
 20
224.610939936267
 30
0.0
 10
332.0076720966289
 20
224.6109399398194
 30
0.0
 10
332.1740968464147
 20
224.6109399316574
 30
0.0
 10
332.4240537019868
 20
224.6109399505256
 30
0.0
 10
332.5071003265402
 20
224.610940110827
 30
0.0
 10
332.6738475972989
 20
224.610941637682
 30
0.0
 10
332.7570652001302
 20
224.6109430309171
 30
0.0
 10
333.0069876798316
 20
224.610950470033
 30
0.0
 10
333.1732194437486
 20
224.6109597945612
 30
0.0
 10
333.5066894639102
 20
224.6109943009904
 30
0.0
 10
333.6728242704012
 20
224.6110193828802
 30
0.0
 10
334.006136664943
 20
224.6110924395224
 30
0.0
 10
334.1723998666891
 20
224.6111401747314
 30
0.0
 10
334.4221588172209
 20
224.6112338214368
 30
0.0
 10
334.5051605365279
 20
224.6112686137222
 30
0.0
 10
334.6714226858536
 20
224.6113464005662
 30
0.0
 10
334.7547815145007
 20
224.6113894324562
 30
0.0
 10
335.0040204321389
 20
224.611531079276
 30
0.0
 10
335.170000592334
 20
224.6116422662386
 30
0.0
 10
335.5018750142431
 20
224.6119036562493
 30
0.0
 10
335.6673211810135
 20
224.6120533985068
 30
0.0
 10
335.998279174922
 20
224.6123964333823
 30
0.0
 10
336.1632020849556
 20
224.6125891911274
 30
0.0
 10
336.4927452643925
 20
224.6130223914387
 30
0.0
 10
336.6570281863033
 20
224.6132623530226
 30
0.0
 10
336.9845462648225
 20
224.6137930160526
 30
0.0
 10
337.1476082807945
 20
224.6140831546041
 30
0.0
 10
337.4728870015456
 20
224.6147189976693
 30
0.0
 10
337.6343806255225
 20
224.6150632919365
 30
0.0
 10
337.9564114844456
 20
224.6158117605499
 30
0.0
 10
338.1165878964003
 20
224.6162154312698
 30
0.0
 10
338.3547917241447
 20
224.6168666107114
 30
0.0
 10
338.4340077910308
 20
224.6170917011273
 30
0.0
 10
338.5918092813993
 20
224.6175578771957
 30
0.0
 10
338.6704195829415
 20
224.617799074365
 30
0.0
 10
338.9050103630746
 20
224.618547047991
 30
0.0
 10
339.060083385337
 20
224.6190793046366
 30
0.0
 10
339.2900168514148
 20
224.6199302915498
 30
0.0
 10
339.3663286452331
 20
224.6202231269538
 30
0.0
 10
339.5176557413433
 20
224.6208253409565
 30
0.0
 10
339.5932570173587
 20
224.621137050863
 30
0.0
 10
339.8174079402743
 20
224.6220953357873
 30
0.0
 10
339.9649969428035
 20
224.6227720877001
 30
0.0
 10
340.1824496105549
 20
224.6238449654751
 30
0.0
 10
340.2542564148985
 20
224.6242119868798
 30
0.0
 10
340.3966847395451
 20
224.6249666828205
 30
0.0
 10
340.4671941574113
 20
224.6253537539579
 30
0.0
 10
340.6066459504748
 20
224.6261471238139
 30
0.0
 10
340.6756940672392
 20
224.626553840832
 30
0.0
 10
340.8120831636031
 20
224.627386958526
 30
0.0
 10
340.8795362834203
 20
224.6278140605278
 30
0.0
 10
341.079139334376
 20
224.6291238040628
 30
0.0
 10
341.2089100725021
 20
224.6300375324328
 30
0.0
 10
341.4607059966883
 20
224.6319425500911
 30
0.0
 10
341.5824349743328
 20
224.6329310346428
 30
0.0
 10
341.75916913008
 20
224.6344755148455
 30
0.0
 10
341.8169001462874
 20
224.6349986526124
 30
0.0
 10
341.9302449156958
 20
224.6360634123163
 30
0.0
 10
341.9858029466597
 20
224.6366044191521
 30
0.0
 10
342.1492282819784
 20
224.6382535937122
 30
0.0
 10
342.253672738555
 20
224.6393859458138
 30
0.0
 10
342.4036522840095
 20
224.6411310755456
 30
0.0
 10
342.4524377339237
 20
224.6417194630026
 30
0.0
 10
342.5478132804036
 20
224.6429114141985
 30
0.0
 10
342.5943117295242
 20
224.6435138659967
 30
0.0
 10
342.7304863567344
 20
224.645341859091
 30
0.0
 10
342.8167658884804
 20
224.6465860606279
 30
0.0
 10
342.9804032259087
 20
224.6491169813031
 30
0.0
 10
343.0578474205293
 20
224.6504049134853
 30
0.0
 10
343.1675940086617
 20
224.6523629588191
 30
0.0
 10
343.2031286558181
 20
224.6530203604799
 30
0.0
 10
343.2721625185509
 20
224.6543436253201
 30
0.0
 10
343.3055860689472
 20
224.6550079565961
 30
0.0
 10
343.3705015602844
 20
224.6563457320618
 30
0.0
 10
343.4020483496129
 20
224.6570205407255
 30
0.0
 10
343.4629463162917
 20
224.6583716488424
 30
0.0
 10
343.4925052077821
 20
224.6590526620156
 30
0.0
 10
343.5781100600648
 20
224.6611002808063
 30
0.0
 10
343.6314012610887
 20
224.6624776323852
 30
0.0
 10
343.7308721256538
 20
224.6652510460605
 30
0.0
 10
343.7770393424373
 20
224.6666476006529
 30
0.0
 10
343.8627397659523
 20
224.6694561439905
 30
0.0
 10
343.9022785752085
 20
224.6708691030354
 30
0.0
 10
343.9568663437589
 20
224.6729958676133
 30
0.0
 10
343.9743004874329
 20
224.6737069476627
 30
0.0
 10
344.0076781439938
 20
224.6751315760682
 30
0.0
 10
344.023600464475
 20
224.6758442974224
 30
0.0
 10
344.0692695747683
 20
224.6779892875671
 30
0.0
 10
344.0967432492278
 20
224.6794194708664
 30
0.0
 10
344.1465200563553
 20
224.6822969051312
 30
0.0
 10
344.1686629256634
 20
224.6837357302642
 30
0.0
 10
344.2081120052207
 20
224.6866217079484
 30
0.0
 10
344.2253913942204
 20
224.6880677141904
 30
0.0
 10
344.2555479806879
 20
224.6909631020927
 30
0.0
 10
344.268425412891
 20
224.6924121504492
 30
0.0
 10
344.2848615311123
 20
224.6945874514162
 30
0.0
 10
344.2898570614163
 20
224.6953131509498
 30
0.0
 10
344.2989247042707
 20
224.6967637832237
 30
0.0
 10
344.3030064086004
 20
224.6974907003864
 30
0.0
 10
344.313974271569
 20
224.6996665451813
 30
0.0
 10
344.3196572113433
 20
224.7011213507919
 30
0.0
 10
344.328426945314
 20
224.7040264015567
 30
0.0
 10
344.3315352552135
 20
224.7054794307133
 30
0.0
 10
344.335967654738
 20
224.7083852774491
 30
0.0
 10
344.3372886948052
 20
224.709838655874
 30
0.0
 10
344.3385387824619
 20
224.7120190371157
 30
0.0
 10
344.3388348069927
 20
224.7127460779511
 30
0.0
 10
344.3391750682432
 20
224.7138359322556
 30
0.0
 10
344.339271366373
 20
224.7141994419076
 30
0.0
 10
344.3393995648603
 20
224.7147436453632
 30
0.0
 10
344.339439831805
 20
224.7149259227841
 30
0.0
 10
344.3394971344397
 20
224.7151978733502
 30
0.0
 10
344.3395159383158
 20
224.7152893015675
 30
0.0
 10
344.3395366900753
 20
224.7153922223634
 30
0.0
 10
344.3395387275684
 20
224.7154023516017
 30
0.0
 10
344.3395433357249
 20
224.7154253094526
 30
0.0
 10
344.3395458116791
 20
224.7154376826275
 30
0.0
 10
344.3395492786636
 20
224.7154550296224
 30
0.0
 10
344.3395519908708
 20
224.715468642771
 30
0.0
 10
344.3395530034179
 20
224.7154737266703
 30
0.0
  0
LINE
  5
11E
330
1F
100
AcDbEntity
  8
0
  6
Continuous
 62
     7
370
    25
100
AcDbLine
 10
308.3504495199
 20
237.8828235424
 30
0.0
 11
308.3504495199
 21
224.7154724749
 31
0.0
  0
LINE
  5
11F
330
1F
100
AcDbEntity
  8
0
  6
Continuous
 62
     7
370
    25
100
AcDbLine
 10
308.3504495199
 20
254.6583177327
 30
0.0
 11
308.3504495199
 21
237.8828235424
 31
0.0
  0
LINE
  5
120
330
1F
100
AcDbEntity
  8
0
  6
Continuous
 62
     7
370
    25
100
AcDbLine
 10
344.3395533495
 20
237.8828235424
 30
0.0
 11
344.3395533495
 21
254.6583177327
 31
0.0
  0
LWPOLYLINE
  5
121
330
1F
100
AcDbEntity
  8
0
  6
Continuous
 62
     7
370
    25
100
AcDbPolyline
 90
       48
 70
   128
 43
0.0
 10
309.9811055785
 20
223.6666190751
 10
310.0985477673
 20
223.6629986635
 10
310.4093310641
 20
223.6564521368
 10
310.7743980273
 20
223.6505078958
 10
311.6673829531
 20
223.6404262708
 10
312.8115360846
 20
223.6324749925
 10
314.2327451067
 20
223.6264474639
 10
315.6242912259
 20
223.6229032436
 10
317.2016736674
 20
223.6207058507
 10
318.722646
 20
223.6198525008
 10
320.246988861
 20
223.6197021919
 10
320.2469956645
 20
223.6197021919
 10
320.2470010582
 20
223.6197021919
 10
320.2470107952
 20
223.6197021919
 10
320.2470285187
 20
223.6197021918
 10
320.247061239
 20
223.6197021918
 10
320.2471230838
 20
223.6197021916
 10
320.2472444134
 20
223.6197021913
 10
320.2474958064
 20
223.6197021909
 10
320.2480554785
 20
223.61970219
 10
320.2498555409
 20
223.6197021881
 10
320.2556560003
 20
223.6197021844
 10
320.2760582579
 20
223.619702177
 10
320.3520681277
 20
223.6197021631
 10
320.6449092865
 20
223.6197021381
 10
321.7938772803
 20
223.6197020997
 10
323.6938928423
 20
223.6197020766
 10
326.3449559726
 20
223.6197020689
 10
328.9962914849
 20
223.6197020766
 10
330.8964042398
 20
223.6197020998
 10
332.0452942374
 20
223.6197021383
 10
332.3380307022
 20
223.6197021634
 10
332.413971801
 20
223.6197021774
 10
332.4343355671
 20
223.6197021847
 10
332.4419054239
 20
223.6197021904
 10
332.4429614776
 20
223.6197021923
 10
333.2259270111
 20
223.6197336921
 10
333.8464723321
 20
223.6198233549
 10
334.5193299823
 20
223.6200515487
 10
335.1929469969
 20
223.6204593405
 10
335.8840246842
 20
223.6211107414
 10
338.4572362431
 20
223.6264473894
 10
339.2028290151
 20
223.6292225143
 10
339.878919615
 20
223.6324773289
 10
341.0225942981
 20
223.6404260276
 10
341.9158435582
 20
223.6505115872
 10
342.5914274598
 20
223.6629980106
 10
342.7840020266
 20
223.6689350007
  0
ARC
  5
122
330
1F
100
AcDbEntity
  8
0
  6
Continuous
 62
     7
370
    25
100
AcDbCircle
 10
309.3503714658
 20
224.7154724002
 30
0.0
 40
0.9999219458885619
100
AcDbArc
 50
179.9999957169
 51
202.9395157005
  0
ARC
  5
123
330
1F
100
AcDbEntity
  8
0
  6
Continuous
 62
     7
370
    25
100
AcDbCircle
 10
309.3504266137
 20
224.7155244529
 30
0.0
 40
0.9999986172731875
100
AcDbArc
 50
224.3533029785
 51
270.0012265961
  0
LWPOLYLINE
  5
124
330
1F
100
AcDbEntity
  8
0
  6
Continuous
 62
     7
370
    25
100
AcDbPolyline
 90
        3
 70
   128
 43
0.0
 10
344.3395533495
 20
224.7154724749
 10
344.3203386593
 20
224.520389875
 10
344.3078129623
 20
224.4655356502
  0
ARC
  5
125
330
1F
100
AcDbEntity
  8
0
  6
Continuous
 62
     7
370
    25
100
AcDbCircle
 10
343.3395773212
 20
224.7155199007
 30
0.0
 40
0.9999940651032387
100
AcDbArc
 50
269.9987143924
 51
322.5428715635
  0
LINE
  5
126
330
1F
100
AcDbEntity
  8
0
  6
Continuous
 62
     7
370
    25
100
AcDbLine
 10
203.484945596
 20
73.6099934182
 30
0.0
 11
229.2050014444
 21
73.6099934184
 31
0.0
  0
LINE
  5
127
330
1F
100
AcDbEntity
  8
0
  6
Continuous
 62
     7
370
    25
100
AcDbLine
 10
198.4849456151
 20
172.1226394658
 30
0.0
 11
198.4849455967
 21
78.6099934183
 31
0.0
  0
SPLINE
  5
128
330
1F
100
AcDbEntity
  8
0
  6
Continuous
 62
     7
370
    25
100
AcDbSpline
210
0.0
220
0.0
230
1.0
 70
     8
 71
     3
 72
     9
 73
     5
 74
     0
 42
0.00000001
 43
0.00000001
 40
0.0
 40
0.0
 40
0.0
 40
0.0
 40
0.5
 40
1.0
 40
1.0
 40
1.0
 40
1.0
 10
229.20500144439
 20
73.60999341831703
 30
0.0
 10
230.515477509382
 20
73.6010165704172
 30
0.0
 10
233.1183647742682
 20
74.69663008844671
 30
0.0
 10
234.2139782922901
 20
77.2995173533377
 30
0.0
 10
234.2050014443899
 20
78.60999341831695
 30
0.0
  0
SPLINE
  5
129
330
1F
100
AcDbEntity
  8
0
  6
Continuous
 62
     7
370
    25
100
AcDbSpline
210
0.0
220
0.0
230
1.0
 70
     8
 71
     3
 72
     9
 73
     5
 74
     0
 42
0.00000001
 43
0.00000001
 40
0.0
 40
0.0
 40
0.0
 40
0.0
 40
0.5
 40
1.0
 40
1.0
 40
1.0
 40
1.0
 10
198.484945596
 20
78.6099934183167
 30
0.0
 10
198.4759687481003
 20
77.29951735333735
 30
0.0
 10
199.5715822661199
 20
74.69663008843533
 30
0.0
 10
202.1744695310206
 20
73.6010165704167
 30
0.0
 10
203.4849455959999
 20
73.60999341831686
 30
0.0
  0
LINE
  5
12A
330
1F
100
AcDbEntity
  8
0
  6
Continuous
 62
     7
370
    25
100
AcDbLine
 10
234.2050014055
 20
78.6099934183
 30
0.0
 11
234.2050014053
 21
277.1099934183
 31
0.0
  0
LINE
  5
12B
330
1F
100
AcDbEntity
  8
0
  6
Continuous
 62
     7
370
    25
100
AcDbLine
 10
198.4849456351
 20
277.1099934183
 30
0.0
 11
198.4849456151
 21
172.1226394658
 31
0.0
  0
SPLINE
  5
12C
330
1F
100
AcDbEntity
  8
0
  6
Continuous
 62
     7
370
    25
100
AcDbSpline
210
0.0
220
0.0
230
1.0
 70
     8
 71
     3
 72
    10
 73
     6
 74
     0
 42
0.00000001
 43
0.00000001
 40
0.0
 40
0.0
 40
0.0
 40
0.0
 40
0.5
 40
0.5
 40
1.0
 40
1.0
 40
1.0
 40
1.0
 10
343.6937355408169
 20
255.8206900383471
 30
0.0
 10
343.8743272804736
 20
255.8206901447981
 30
0.0
 10
344.0145060394726
 20
255.7567623712328
 30
0.0
 10
344.2208507203835
 20
255.4964879816646
 30
0.0
 10
344.2866950146706
 20
255.2976084980372
 30
0.0
 10
344.3176326690439
 20
255.0332150071842
 30
0.0
  0
SPLINE
  5
12D
330
1F
100
AcDbEntity
  8
0
  6
Continuous
 62
     7
370
    25
100
AcDbSpline
210
0.0
220
0.0
230
1.0
 70
     8
 71
     3
 72
    10
 73
     6
 74
     0
 42
0.00000001
 43
0.00000001
 40
0.0
 40
0.0
 40
0.0
 40
0.0
 40
0.5
 40
0.5
 40
1.0
 40
1.0
 40
1.0
 40
1.0
 10
308.3723707988154
 20
255.0332155701172
 30
0.0
 10
308.4033066225826
 20
255.2975934769243
 30
0.0
 10
308.4676276350618
 20
255.4930632613885
 30
0.0
 10
308.6729801519605
 20
255.7550605077977
 30
0.0
 10
308.8156214096128
 20
255.8206901448398
 30
0.0
 10
308.9962673285142
 20
255.8206900383567
 30
0.0
  0
LINE
  5
12E
330
1F
100
AcDbEntity
  8
0
  6
Continuous
 62
     7
370
    25
100
AcDbLine
 10
309.4732216459
 20
255.8206900384
 30
0.0
 11
308.996267105
 21
255.8206900384
 31
0.0
  0
LINE
  5
12F
330
1F
100
AcDbEntity
  8
0
  6
Continuous
 62
     7
370
    25
100
AcDbLine
 10
343.6937357643
 20
255.8206900383
 30
0.0
 11
343.2167812233
 21
255.8206900383
 31
0.0
  0
SPLINE
  5
130
330
1F
100
AcDbEntity
  8
0
  6
Continuous
 62
     7
370
    25
100
AcDbSpline
210
0.0
220
0.0
230
1.0
 70
     8
 71
     3
 72
    12
 73
     8
 74
     0
 42
0.00000001
 43
0.00000001
 40
0.0
 40
0.0
 40
0.0
 40
0.0
 40
0.2492531030945714
 40
0.4984538311640845
 40
0.7596530675674762
 40
0.9966748230732624
 40
1.0
 40
1.0
 40
1.0
 40
1.0
 10
309.3504479861039
 20
223.7155258358255
 30
0.0
 10
309.352168688381
 20
223.7111267912164
 30
0.0
 10
309.3556097313677
 20
223.7023296263602
 30
0.0
 10
309.4319007026535
 20
223.6889023542223
 30
0.0
 10
309.6770973589799
 20
223.6759150754708
 30
0.0
 10
309.8832772827128
 20
223.6671222512672
 30
0.0
 10
310.0884686842216
 20
223.6632750860719
 30
0.0
 10
310.0913074877251
 20
223.6632218609078
 30
0.0
  0
SPLINE
  5
131
330
1F
100
AcDbEntity
  8
0
  6
Continuous
 62
     7
370
    25
100
AcDbSpline
210
0.0
220
0.0
230
1.0
 70
     8
 71
     3
 72
    23
 73
    19
 74
     0
 42
0.00000001
 43
0.00000001
 40
0.0
 40
0.0
 40
0.0
 40
0.0
 40
0.0135236958076093
 40
0.0516179182055238
 40
0.0960047907489711
 40
0.0968807865585477
 40
0.1046392685511527
 40
0.1269550657419209
 40
0.2126306187928015
 40
0.353031450146839
 40
0.548157559824257
 40
0.7432658728308161
 40
0.8836600240780519
 40
0.9693400135861611
 40
0.9916621977170054
 40
0.9976938371537106
 40
0.9994272937358014
 40
0.9999999999999999
 40
0.9999999999999999
 40
0.9999999999999999
 40
0.9999999999999999
 10
318.7825226918653
 20
223.6198465965744
 30
0.0
 10
318.8446865071595
 20
223.6198297098884
 30
0.0
 10
319.0819564649323
 20
223.6197652559409
 30
0.0
 10
319.5234729192412
 20
223.6197241176534
 30
0.0
 10
319.9068062355754
 20
223.6197039379363
 30
0.0
 10
320.1506425830474
 20
223.6197028051364
 30
0.0
 10
320.2929777204336
 20
223.6197027921221
 30
0.0
 10
320.8252918740064
 20
223.6197023252639
 30
0.0
 10
321.9676060184729
 20
223.6197023260429
 30
0.0
 10
323.9046459405875
 20
223.6197020525321
 30
0.0
 10
326.3449488395731
 20
223.6197020671786
 30
0.0
 10
328.7852210204273
 20
223.6197020911378
 30
0.0
 10
330.7221687754916
 20
223.6197022370933
 30
0.0
 10
331.8645019826919
 20
223.6197024613197
 30
0.0
 10
332.3889244423745
 20
223.6197026994698
 30
0.0
 10
332.5272908166958
 20
223.6197028600352
 30
0.0
 10
332.5656349762674
 20
223.6197029301241
 30
0.0
 10
332.5762406328474
 20
223.6197029736235
 30
0.0
 10
332.5788744130112
 20
223.6197029844261
 30
0.0
  0
SPLINE
  5
132
330
1F
100
AcDbEntity
  8
0
  6
Continuous
 62
     7
370
    25
100
AcDbSpline
210
0.0
220
0.0
230
1.0
 70
     8
 71
     3
 72
     9
 73
     5
 74
     0
 42
0.00000001
 43
0.00000001
 40
0.0
 40
0.0
 40
0.0
 40
0.0
 40
0.2422163043493918
 40
1.0
 40
1.0
 40
1.0
 40
1.0
 10
336.1497428939014
 20
223.6216618210925
 30
0.0
 10
336.3226406626625
 20
223.62181034924
 30
0.0
 10
337.0364562302214
 20
223.6224235538211
 30
0.0
 10
337.7185003729601
 20
223.6244509046283
 30
0.0
 10
338.2353423040414
 20
223.6259871980154
 30
0.0
  0
SPLINE
  5
133
330
1F
100
AcDbEntity
  8
0
  6
Continuous
 62
     7
370
    25
100
AcDbSpline
210
0.0
220
0.0
230
1.0
 70
     8
 71
     3
 72
    12
 73
     8
 74
     0
 42
0.00000001
 43
0.00000001
 40
0.0
 40
0.0
 40
0.0
 40
0.0
 40
0.0047445499932968
 40
0.2413244263664688
 40
0.5022318437431121
 40
0.7511039175974668
 40
1.0
 40
1.0
 40
1.0
 40
1.0
 10
342.5963243510927
 20
223.6631489795987
 30
0.0
 10
342.5999611426864
 20
223.6632266279018
 30
0.0
 10
342.7849410978831
 20
223.6671760924906
 30
0.0
 10
343.0235736166987
 20
223.6758725049648
 30
0.0
 10
343.2552681294434
 20
223.688911035594
 30
0.0
 10
343.3350854777017
 20
223.7023267167401
 30
0.0
 10
343.3380650334828
 20
223.7111259879939
 30
0.0
 10
343.3395548832289
 20
223.7155258358257
 30
0.0
  0
LINE
  5
134
330
1F
100
AcDbEntity
  8
0
  6
Continuous
 62
     8
370
    18
100
AcDbLine
 10
176.8175947192
 20
283.6099934183
 30
0.0
 11
176.8175947192
 21
278.2890505306
 31
0.0
  0
LINE
  5
135
330
1F
100
AcDbEntity
  8
0
  6
Continuous
 62
     8
370
    18
100
AcDbLine
 10
171.7970142008
 20
278.2890505306
 30
0.0
 11
176.8175947192
 21
278.2890505306
 31
0.0
  0
LINE
  5
136
330
1F
100
AcDbEntity
  8
0
  6
Continuous
 62
     8
370
    18
100
AcDbLine
 10
365.8700014346
 20
283.6099934183
 30
0.0
 11
365.8700014346
 21
278.2890505306
 31
0.0
  0
LINE
  5
137
330
1F
100
AcDbEntity
  8
0
  6
Continuous
 62
     8
370
    18
100
AcDbLine
 10
176.8175947192
 20
278.2890505306
 30
0.0
 11
365.8700014346
 21
278.2890505306
 31
0.0
  0
LINE
  5
138
330
1F
100
AcDbEntity
  8
0
  6
Continuous
 62
     8
370
    18
100
AcDbLine
 10
365.8700014346
 20
278.2890505306
 30
0.0
 11
370.8905819531
 21
278.2890505306
 31
0.0
  0
LINE
  5
139
330
1F
100
AcDbEntity
  8
0
  6
Continuous
 62
     8
370
    18
100
AcDbLine
 10
176.8175947192
 20
278.2890505306
 30
0.0
 11
176.8175947192
 21
277.1099934183
 31
0.0
  0
LINE
  5
13A
330
1F
100
AcDbEntity
  8
0
  6
Continuous
 62
     8
370
    18
100
AcDbLine
 10
365.8700014346
 20
278.2890505306
 30
0.0
 11
365.8700014346
 21
277.1099934183
 31
0.0
  0
LINE
  5
13B
330
1F
100
AcDbEntity
  8
0
  6
Continuous
 62
     8
370
    18
100
AcDbLine
 10
344.3176326698
 20
255.0332150008
 30
0.0
 11
340.8855757691
 21
255.0332149827
 31
0.0
  0
LINE
  5
13C
330
1F
100
AcDbEntity
  8
0
  6
Continuous
 62
     8
370
    18
100
AcDbLine
 10
311.8044271002
 20
255.0332149827
 30
0.0
 11
308.3723701996
 21
255.033215001
 31
0.0
  0
LINE
  5
13D
330
1F
100
AcDbEntity
  8
0
  6
Continuous
 62
     8
370
    18
100
AcDbLine
 10
308.3450014346
 20
257.6206900384
 30
0.0
 11
344.3450014346
 21
257.6206900384
 31
0.0
  0
LINE
  5
13E
330
1F
100
AcDbEntity
  8
0
  6
Continuous
 62
     8
370
    18
100
AcDbLine
 10
311.8830541022
 20
254.7296072469
 30
0.0
 11
340.8069487671
 21
254.7296072469
 31
0.0
  0
LINE
  5
13F
330
1F
100
AcDbEntity
  8
0
  6
Continuous
 62
     8
370
    18
100
AcDbLine
 10
203.484945596
 20
74.6099934183
 30
0.0
 11
229.2050014444
 21
74.6099934183
 31
0.0
  0
SPLINE
  5
140
330
1F
100
AcDbEntity
  8
0
  6
Continuous
 62
     8
370
    18
100
AcDbSpline
210
0.0
220
0.0
230
1.0
 70
     8
 71
     3
 72
    14
 73
    10
 74
     0
 42
0.00000001
 43
0.00000001
 40
0.0
 40
0.0
 40
0.0
 40
0.0
 40
0.25
 40
0.25
 40
0.5
 40
0.5
 40
0.75
 40
0.75
 40
1.0
 40
1.0
 40
1.0
 40
1.0
 10
229.2050014274474
 20
73.60999341843305
 30
0.0
 10
229.2050014260871
 20
73.60999341844295
 30
0.0
 10
229.2050014227473
 20
73.635987844195
 30
0.0
 10
229.205001417227
 20
73.7363173208044
 30
0.0
 10
229.2050014141646
 20
73.81056510737999
 30
0.0
 10
229.2050014048158
 20
73.995002381887
 30
0.0
 10
229.2050014000889
 20
74.10650935543417
 30
0.0
 10
229.2050013683381
 20
74.34706027618407
 30
0.0
 10
229.2050008859122
 20
74.47968258999194
 30
0.0
 10
229.2050016330622
 20
74.6099934198429
 30
0.0
  0
SPLINE
  5
141
330
1F
100
AcDbEntity
  8
0
  6
Continuous
 62
     8
370
    18
100
AcDbSpline
210
0.0
220
0.0
230
1.0
 70
     8
 71
     3
 72
    14
 73
    10
 74
     0
 42
0.00000001
 43
0.00000001
 40
0.0
 40
0.0
 40
0.0
 40
0.0
 40
0.25
 40
0.25
 40
0.5
 40
0.5
 40
0.75
 40
0.75
 40
1.0
 40
1.0
 40
1.0
 40
1.0
 10
203.484945578759
 20
73.60999341819868
 30
0.0
 10
203.4849455763929
 20
73.60999341818253
 30
0.0
 10
203.4849455740989
 20
73.63598784382563
 30
0.0
 10
203.4849455685945
 20
73.73631732009727
 30
0.0
 10
203.4849455655376
 20
73.81056510642772
 30
0.0
 10
203.4849455561822
 20
73.99500238041179
 30
0.0
 10
203.4849455514994
 20
74.10650935365493
 30
0.0
 10
203.4849455196581
 20
74.3470602738437
 30
0.0
 10
203.484945180054
 20
74.479682587086
 30
0.0
 10
203.484945579025
 20
74.60999341680477
 30
0.0
  0
LINE
  5
142
330
1F
100
AcDbEntity
  8
0
  6
Continuous
 62
     8
370
    18
100
AcDbLine
 10
199.4849456612
 20
172.1226394658
 30
0.0
 11
199.4849456612
 21
78.6099934183
 31
0.0
  0
SPLINE
  5
143
330
1F
100
AcDbEntity
  8
0
  6
Continuous
 62
     8
370
    18
100
AcDbSpline
210
0.0
220
0.0
230
1.0
 70
     8
 71
     3
 72
    14
 73
    10
 74
     0
 42
0.00000001
 43
0.00000001
 40
0.0
 40
0.0
 40
0.0
 40
0.0
 40
0.25
 40
0.25
 40
0.5
 40
0.5
 40
0.75
 40
0.75
 40
1.0
 40
1.0
 40
1.0
 40
1.0
 10
198.4849455967021
 20
78.60999352081701
 30
0.0
 10
198.4849455967774
 20
78.60999353181275
 30
0.0
 10
198.5109400226034
 20
78.6099935468616
 30
0.0
 10
198.6112694993671
 20
78.60999357749776
 30
0.0
 10
198.6855172860241
 20
78.60999359454021
 30
0.0
 10
198.86995456068
 20
78.60999364651394
 30
0.0
 10
198.9814615342982
 20
78.60999367273166
 30
0.0
 10
199.2220124551616
 20
78.6099938493589
 30
0.0
 10
199.3546347689813
 20
78.60999594918135
 30
0.0
 10
199.4849455988473
 20
78.60999320801726
 30
0.0
  0
LINE
  5
144
330
1F
100
AcDbEntity
  8
0
  6
Continuous
 62
     8
370
    18
100
AcDbLine
 10
199.4849456612
 20
172.1226394658
 30
0.0
 11
198.4849456151
 21
172.1226394658
 31
0.0
  0
SPLINE
  5
145
330
1F
100
AcDbEntity
  8
0
  6
Continuous
 62
     8
370
    18
100
AcDbSpline
210
0.0
220
0.0
230
1.0
 70
     8
 71
     3
 72
    23
 73
    19
 74
     0
 42
0.00000001
 43
0.00000001
 40
0.0
 40
0.0
 40
0.0
 40
0.0
 40
0.0310461971587403
 40
0.0621836814112983
 40
0.0934957967590339
 40
0.1250645041119527
 40
0.1873739726855405
 40
0.2501244909554855
 40
0.3126781418415992
 40
0.3752209009458246
 40
0.5000204023883648
 40
0.6248199038310492
 40
0.6872808485693782
 40
0.749916314998861
 40
0.8125850605073057
 40
0.87497629665898
 40
0.9377971086133507
 40
1.0
 40
1.0
 40
1.0
 40
1.0
 10
229.20500144439
 20
74.60999341831692
 30
0.0
 10
229.2699963390467
 20
74.61052753720287
 30
0.0
 10
229.4001772369525
 20
74.6115973454782
 30
0.0
 10
229.5954660573469
 20
74.62610915161402
 30
0.0
 10
229.7908605449996
 20
74.6500709281904
 30
0.0
 10
230.0490474664436
 20
74.69538873352316
 30
0.0
 10
230.3674359216431
 20
74.77590714922904
 30
0.0
 10
230.7373954800705
 20
74.90934029688576
 30
0.0
 10
231.0934146125936
 20
75.07769698837974
 30
0.0
 10
231.5429673448287
 20
75.3463328097388
 30
0.0
 10
232.0531730470512
 20
75.76182361843775
 30
0.0
 10
232.4685480106281
 20
76.27189351911001
 30
0.0
 10
232.7372258320335
 20
76.72142870613236
 30
0.0
 10
232.9054878856246
 20
77.07727965752892
 30
0.0
 10
233.0391687979136
 20
77.44740781223108
 30
0.0
 10
233.1351540821134
 20
77.82925426489903
 30
0.0
 10
233.1958458821524
 20
78.2178628694633
 30
0.0
 10
233.201959662616
 20
78.47971462979764
 30
0.0
 10
233.20500144439
 20
78.60999341831695
 30
0.0
  0
SPLINE
  5
146
330
1F
100
AcDbEntity
  8
0
  6
Continuous
 62
     8
370
    18
100
AcDbSpline
210
0.0
220
0.0
230
1.0
 70
     8
 71
     3
 72
    14
 73
    10
 74
     0
 42
0.00000001
 43
0.00000001
 40
0.0
 40
0.0
 40
0.0
 40
0.0
 40
0.25
 40
0.25
 40
0.5
 40
0.5
 40
0.75
 40
0.75
 40
1.0
 40
1.0
 40
1.0
 40
1.0
 10
234.2050014054995
 20
78.6099990956955
 30
0.0
 10
234.2050014114135
 20
78.60999823234697
 30
0.0
 10
234.1790069906125
 20
78.60999825560997
 30
0.0
 10
234.0786775221113
 20
78.60999758430795
 30
0.0
 10
234.0044297383177
 20
78.60999729181536
 30
0.0
 10
233.8199924678623
 20
78.60999675129851
 30
0.0
 10
233.7084854951867
 20
78.60999650028289
 30
0.0
 10
233.4679345750702
 20
78.60999602480618
 30
0.0
 10
233.3353122599017
 20
78.60999583810937
 30
0.0
 10
233.2050014298378
 20
78.60999555006426
 30
0.0
  0
SPLINE
  5
147
330
1F
100
AcDbEntity
  8
0
  6
Continuous
 62
     8
370
    18
100
AcDbSpline
210
0.0
220
0.0
230
1.0
 70
     8
 71
     3
 72
    23
 73
    19
 74
     0
 42
0.00000001
 43
0.00000001
 40
0.0
 40
0.0
 40
0.0
 40
0.0
 40
0.0310461970488199
 40
0.0621836812647857
 40
0.0934957966487671
 40
0.1250645041097148
 40
0.1873739725607073
 40
0.25012449095503
 40
0.3126781415528316
 40
0.375220900942648
 40
0.5000204023860928
 40
0.6248199038292985
 40
0.6872808487472476
 40
0.7499163149992759
 40
0.8125850606511668
 40
0.874976296658351
 40
0.9377971086001374
 40
1.0
 40
1.0
 40
1.0
 40
1.0
 10
199.4849455959999
 20
78.60999341831673
 30
0.0
 10
199.4854797148901
 20
78.54499852389051
 30
0.0
 10
199.4865495231753
 20
78.41481762629202
 30
0.0
 10
199.5010613293242
 20
78.21952880613078
 30
0.0
 10
199.5250231059221
 20
78.024134318257
 30
0.0
 10
199.5703409110477
 20
77.76594739673196
 30
0.0
 10
199.6508593267015
 20
77.44755894128014
 30
0.0
 10
199.7842924742104
 20
77.07759938342149
 30
0.0
 10
199.9526491660758
 20
76.72158025081698
 30
0.0
 10
200.2212849868749
 20
76.2720275182554
 30
0.0
 10
200.6367757961662
 20
75.76182181567437
 30
0.0
 10
201.146845697116
 20
75.34644685190628
 30
0.0
 10
201.5963808840864
 20
75.0777690303867
 30
0.0
 10
201.9522318358351
 20
74.9095069768195
 30
0.0
 10
202.3223599902542
 20
74.77582606487022
 30
0.0
 10
202.7042064428449
 20
74.67984078051346
 30
0.0
 10
203.092815047121
 20
74.61914898055461
 30
0.0
 10
203.3546668074541
 20
74.61303520009125
 30
0.0
 10
203.4849455959999
 20
74.60999341831676
 30
0.0
  0
LINE
  5
148
330
1F
100
AcDbEntity
  8
0
  6
Continuous
 62
     8
370
    18
100
AcDbLine
 10
233.2050013792
 20
78.6099934183
 30
0.0
 11
233.2050013792
 21
277.1099934183
 31
0.0
  0
LINE
  5
149
330
1F
100
AcDbEntity
  8
0
  6
Continuous
 62
     8
370
    18
100
AcDbLine
 10
199.4849456612
 20
277.1099934183
 30
0.0
 11
199.4849456612
 21
172.1226394658
 31
0.0
  0
SPLINE
  5
14A
330
1F
100
AcDbEntity
  8
0
  6
Continuous
 62
     7
370
    25
100
AcDbSpline
210
0.0
220
0.0
230
1.0
 70
     8
 71
     3
 72
    11
 73
     7
 74
     0
 42
0.00000001
 43
0.00000001
 40
0.0
 40
0.0
 40
0.0
 40
0.0
 40
0.2442400288705623
 40
0.4975802599776872
 40
0.7524394968633071
 40
0.9999999999999999
 40
0.9999999999999999
 40
0.9999999999999999
 40
0.9999999999999999
 10
719.400427717227
 20
400.8528659245518
 30
0.0
 10
719.4087607668184
 20
400.9469677959586
 30
0.0
 10
719.4257373492459
 20
401.1386777046722
 30
0.0
 10
719.3216947354534
 20
401.4176033400936
 30
0.0
 10
719.1282536698244
 20
401.6554312999271
 30
0.0
 10
718.9390512823512
 20
401.7461485300817
 30
0.0
 10
718.8458243756309
 20
401.790848213138
 30
0.0
  0
SPLINE
  5
14B
330
1F
100
AcDbEntity
  8
0
  6
Continuous
 62
     7
370
    25
100
AcDbSpline
210
0.0
220
0.0
230
1.0
 70
     8
 71
     3
 72
    14
 73
    10
 74
     0
 42
0.00000001
 43
0.00000001
 40
0.0
 40
0.0
 40
0.0
 40
0.0
 40
0.1204350252471318
 40
0.2438890632554893
 40
0.4927195107380761
 40
0.6163145501067544
 40
0.7430413674107681
 40
0.8718494210865989
 40
1.0
 40
1.0
 40
1.0
 40
1.0
 10
714.4334194733959
 20
385.8532979851776
 30
0.0
 10
714.7495830085905
 20
385.8669082905164
 30
0.0
 10
715.3898355287852
 20
385.8944700784008
 30
0.0
 10
716.6183968551106
 20
386.2614053258173
 30
0.0
 10
717.7093372576513
 20
386.98309809996
 30
0.0
 10
718.5385883743202
 20
387.992835351894
 30
0.0
 10
719.0117319771178
 20
388.8730876362699
 30
0.0
 10
719.3303530595346
 20
389.8455921302108
 30
0.0
 10
719.3872782637276
 20
390.5176812532689
 30
0.0
 10
719.4156680391501
 20
390.8528659844976
 30
0.0
  0
LINE
  5
14C
330
1F
100
AcDbEntity
  8
0
  6
Continuous
 62
     7
370
    25
100
AcDbLine
 10
709.7033072824
 20
385.0028659846
 30
0.0
 11
709.7033072824
 21
385.8028659846
 31
0.0
  0
LINE
  5
14D
330
1F
100
AcDbEntity
  8
0
  6
Continuous
 62
     7
370
    25
100
AcDbLine
 10
691.3033072824
 20
385.8028659846
 30
0.0
 11
691.3033072824
 21
385.0028659846
 31
0.0
  0
ARC
  5
14E
330
1F
100
AcDbEntity
  8
0
  6
Continuous
 62
     7
370
    25
100
AcDbCircle
 10
700.5033072824
 20
387.6528659846
 30
0.0
 40
8.75999999999999
100
AcDbArc
 50
197.6085071786
 51
205.2895967894
  0
SPLINE
  5
14F
330
1F
100
AcDbEntity
  8
0
  6
Continuous
 62
     7
370
    25
100
AcDbSpline
210
0.0
220
0.0
230
1.0
 70
     8
 71
     3
 72
    10
 73
     6
 74
     0
 42
0.00000001
 43
0.00000001
 40
0.0
 40
0.0
 40
0.0
 40
0.0
 40
0.4870720830749904
 40
0.7492718724963642
 40
1.0
 40
1.0
 40
1.0
 40
1.0
 10
569.4894325464925
 20
323.5229594195266
 30
0.0
 10
569.4768586683344
 20
323.3973499951739
 30
0.0
 10
569.4575160421414
 20
323.2041227258263
 30
0.0
 10
569.3392382085059
 20
322.9719311320989
 30
0.0
 10
569.2530332050508
 20
322.8722806464062
 30
0.0
 10
569.210894693216
 20
322.8235697479386
 30
0.0
  0
SPLINE
  5
150
330
1F
100
AcDbEntity
  8
0
  6
Continuous
 62
     7
370
    25
100
AcDbSpline
210
0.0
220
0.0
230
1.0
 70
     8
 71
     3
 72
    10
 73
     6
 74
     0
 42
0.00000001
 43
0.00000001
 40
0.0
 40
0.0
 40
0.0
 40
0.0
 40
0.1899553895056167
 40
0.4734219576552174
 40
1.0
 40
1.0
 40
1.0
 40
1.0
 10
569.1481374627605
 20
322.7681897430521
 30
0.0
 10
569.1143310786805
 20
322.738311454354
 30
0.0
 10
569.0300761145329
 20
322.6638464025139
 30
0.0
 10
568.8159482300641
 20
322.5523551251923
 30
0.0
 10
568.6233788896384
 20
322.529274660611
 30
0.0
 10
568.4981971589248
 20
322.5142709611873
 30
0.0
  0
SPLINE
  5
151
330
1F
100
AcDbEntity
  8
0
  6
Continuous
 62
     7
370
    25
100
AcDbSpline
210
0.0
220
0.0
230
1.0
 70
     8
 71
     3
 72
    13
 73
     9
 74
     0
 42
0.00000001
 43
0.00000001
 40
0.0
 40
0.0
 40
0.0
 40
0.0
 40
0.0631998253020863
 40
0.1956874419073062
 40
0.3559571431435206
 40
0.5435673358031387
 40
0.7583979791389021
 40
1.0
 40
1.0
 40
1.0
 40
1.0
 10
569.4356673703155
 20
324.5598034343711
 30
0.0
 10
569.4328632627055
 20
324.6703426432705
 30
0.0
 10
569.4241808234359
 20
325.0126083839838
 30
0.0
 10
569.4092445244513
 20
325.9238586539803
 30
0.0
 10
569.390468045451
 20
327.4378581274972
 30
0.0
 10
569.3698655044619
 20
329.4566691388551
 30
0.0
 10
569.3468344246955
 20
331.8686444978252
 30
0.0
 10
569.3315145824101
 20
333.5905614411378
 30
0.0
 10
569.3234053800112
 20
334.502018148539
 30
0.0
  0
SPLINE
  5
152
330
1F
100
AcDbEntity
  8
0
  6
Continuous
 62
     7
370
    25
100
AcDbSpline
210
0.0
220
0.0
230
1.0
 70
     8
 71
     3
 72
    14
 73
    10
 74
     0
 42
0.00000001
 43
0.00000001
 40
0.0
 40
0.0
 40
0.0
 40
0.0
 40
0.2154034595591442
 40
0.4580773713407776
 40
0.6542851239845252
 40
0.801294608835865
 40
0.8627969482910532
 40
0.9519204476110075
 40
1.0
 40
1.0
 40
1.0
 40
1.0
 10
568.6946501708113
 20
322.5910212560048
 30
0.0
 10
568.8789803465521
 20
322.6420774431382
 30
0.0
 10
569.2709772185381
 20
322.7506536194015
 30
0.0
 10
569.4368987232749
 20
323.1579516122965
 30
0.0
 10
569.4609380424416
 20
323.4563769227417
 30
0.0
 10
569.4672481106383
 20
323.7882376843354
 30
0.0
 10
569.4503117886816
 20
324.0401745203957
 30
0.0
 10
569.44261877809
 20
324.2577411109634
 30
0.0
 10
569.4374712124836
 20
324.4814203537051
 30
0.0
 10
569.4356673703155
 20
324.5598034343711
 30
0.0
  0
SPLINE
  5
153
330
1F
100
AcDbEntity
  8
0
  6
Continuous
 62
     7
370
    25
100
AcDbSpline
210
0.0
220
0.0
230
1.0
 70
     8
 71
     3
 72
    12
 73
     8
 74
     0
 42
0.00000001
 43
0.00000001
 40
0.0
 40
0.0
 40
0.0
 40
0.0
 40
0.1211418041440688
 40
0.3053920142396804
 40
0.4919660905929178
 40
0.7430046064138585
 40
1.0
 40
1.0
 40
1.0
 40
1.0
 10
564.0492327958078
 20
326.5256008177079
 30
0.0
 10
564.0486136576246
 20
326.2790542948505
 30
0.0
 10
564.0470528433524
 20
325.6575236865587
 30
0.0
 10
564.0435640830129
 20
325.1711726826408
 30
0.0
 10
564.0542976047254
 20
324.8602781275168
 30
0.0
 10
564.0982512197096
 20
324.5911208524736
 30
0.0
 10
564.1433247702943
 20
324.3875703893866
 30
0.0
 10
564.1661257972696
 20
324.2846018071579
 30
0.0
  0
SPLINE
  5
154
330
1F
100
AcDbEntity
  8
0
  6
Continuous
 62
     7
370
    25
100
AcDbSpline
210
0.0
220
0.0
230
1.0
 70
     8
 71
     3
 72
    12
 73
     8
 74
     0
 42
0.00000001
 43
0.00000001
 40
0.0
 40
0.0
 40
0.0
 40
0.0
 40
0.1211555756576461
 40
0.3054080648942269
 40
0.4919759700963242
 40
0.7430062538705489
 40
1.0
 40
1.0
 40
1.0
 40
1.0
 10
564.0491771701569
 20
326.544852496665
 30
0.0
 10
564.048554028138
 20
326.2952756317826
 30
0.0
 10
564.0469832164185
 20
325.6661441458203
 30
0.0
 10
564.0433523508617
 20
325.1742208490019
 30
0.0
 10
564.0539252753815
 20
324.8608471761407
 30
0.0
 10
564.0979977583539
 20
324.5922510337999
 30
0.0
 10
564.1432431541685
 20
324.3879351978354
 30
0.0
 10
564.1661314096074
 20
324.2845780946525
 30
0.0
  0
SPLINE
  5
155
330
1F
100
AcDbEntity
  8
0
  6
Continuous
 62
     7
370
    25
100
AcDbSpline
210
0.0
220
0.0
230
1.0
 70
     8
 71
     3
 72
    11
 73
     7
 74
     0
 42
0.00000001
 43
0.00000001
 40
0.0
 40
0.0
 40
0.0
 40
0.0
 40
0.2532235445673367
 40
0.5044173916015836
 40
0.7534439990668451
 40
1.0
 40
1.0
 40
1.0
 40
1.0
 10
564.0633081232378
 20
334.3324831291982
 30
0.0
 10
564.0604832358197
 20
334.2204490261932
 30
0.0
 10
564.0548561036925
 20
333.9972788225504
 30
0.0
 10
564.0510029524403
 20
333.6656082700604
 30
0.0
 10
564.0493955347885
 20
333.3384337892291
 30
0.0
 10
564.0492445612668
 20
333.1231788331433
 30
0.0
 10
564.0491694508269
 20
333.0160879057093
 30
0.0
  0
SPLINE
  5
156
330
1F
100
AcDbEntity
  8
0
  6
Continuous
 62
     7
370
    25
100
AcDbSpline
210
0.0
220
0.0
230
1.0
 70
     8
 71
     3
 72
    12
 73
     8
 74
     0
 42
0.00000001
 43
0.00000001
 40
0.0
 40
0.0
 40
0.0
 40
0.0
 40
0.2185087047955589
 40
0.3358052013291674
 40
0.4582935164224135
 40
0.7181451643661863
 40
0.9999999999999999
 40
0.9999999999999999
 40
0.9999999999999999
 40
0.9999999999999999
 10
564.1661286086847
 20
324.2845899277726
 30
0.0
 10
564.249552676492
 20
324.0159872698358
 30
0.0
 10
564.3777591747728
 20
323.6031974466093
 30
0.0
 10
564.7507200744794
 20
323.1434838710297
 30
0.0
 10
565.2679994913124
 20
322.7639341725832
 30
0.0
 10
566.102924842182
 20
322.5217144651031
 30
0.0
 10
566.7930372560303
 20
322.5245452231663
 30
0.0
 10
567.1521090538965
 20
322.526018092465
 30
0.0
  0
LINE
  5
157
330
1F
100
AcDbEntity
  8
0
  6
Continuous
 62
     7
370
    25
100
AcDbLine
 10
515.9991411971
 20
376.5528659245
 30
0.0
 11
535.488444577
 21
376.5528659245
 31
0.0
  0
LINE
  5
158
330
1F
100
AcDbEntity
  8
0
  6
Continuous
 62
     7
370
    25
100
AcDbLine
 10
535.488444577
 20
412.5528659245
 30
0.0
 11
515.9991411971
 21
412.5528659245
 31
0.0
  0
ARC
  5
159
330
1F
100
AcDbEntity
  8
0
  6
Continuous
 62
     7
370
    25
100
AcDbCircle
 10
535.488444577
 20
378.5528659245
 30
0.0
 40
2.000000000000007
100
AcDbArc
 50
270.0
 51
334.1580672368
  0
ARC
  5
15A
330
1F
100
AcDbEntity
  8
0
  6
Continuous
 62
     7
370
    25
100
AcDbCircle
 10
535.488444577
 20
410.5528659245
 30
0.0
 40
2.0
100
AcDbArc
 50
0.0
 51
90.0
  0
LINE
  5
15B
330
1F
100
AcDbEntity
  8
0
  6
Continuous
 62
     7
370
    25
100
AcDbLine
 10
551.2434954341
 20
376.5583140096
 30
0.0
 11
555.226311073
 21
376.5583140096
 31
0.0
  0
LINE
  5
15C
330
1F
100
AcDbEntity
  8
0
  6
Continuous
 62
     7
370
    25
100
AcDbLine
 10
537.288444577
 20
376.5583140096
 30
0.0
 11
543.3373689614
 21
376.5583140096
 31
0.0
  0
LWPOLYLINE
  5
15D
330
1F
100
AcDbEntity
  8
0
  6
Continuous
 62
     7
370
    25
100
AcDbPolyline
 90
        3
 70
   128
 43
0.0
 10
568.4981971589
 20
412.5474178395
 10
554.5087224489
 20
412.5474168883
 10
546.0329553419
 20
412.54741661
  0
SPLINE
  5
15E
330
1F
100
AcDbEntity
  8
0
  6
Continuous
 62
     7
370
    25
100
AcDbSpline
210
0.0
220
0.0
230
1.0
 70
     8
 71
     3
 72
    21
 73
    17
 74
     0
 42
0.00000001
 43
0.00000001
 40
0.0
 40
0.0
 40
0.0
 40
0.0
 40
0.069405013877881
 40
0.1468515927822777
 40
0.2196777437539738
 40
0.2824411765129091
 40
0.3328732884998286
 40
0.3693942489760533
 40
0.3939429233886804
 40
0.4218772390901507
 40
0.4576704458581875
 40
0.502518188455984
 40
0.6210509860415705
 40
0.7232812651191013
 40
0.8474875453493828
 40
1.0
 40
1.0
 40
1.0
 40
1.0
 10
555.2263110729751
 20
376.5583154875542
 30
0.0
 10
555.7019270416929
 20
376.5449905416738
 30
0.0
 10
556.7082659019052
 20
376.5167967640638
 30
0.0
 10
558.1955694197466
 20
376.2474773347705
 30
0.0
 10
559.5826863969085
 20
375.774404838
 30
0.0
 10
560.7041558007644
 20
375.1573399296218
 30
0.0
 10
561.5135782667187
 20
374.5178745440432
 30
0.0
 10
562.0429563124028
 20
373.9725659560787
 30
0.0
 10
562.4319737708068
 20
373.4854776967847
 30
0.0
 10
562.7305927675992
 20
373.0463349019008
 30
0.0
 10
562.9982337254442
 20
372.5958384380606
 30
0.0
 10
563.3697696375351
 20
371.8834505378489
 30
0.0
 10
563.6784589411454
 20
371.1129955363236
 30
0.0
 10
563.9142056312974
 20
370.1751188141916
 30
0.0
 10
564.0357062460806
 20
369.114275851427
 30
0.0
 10
564.0433994705235
 20
368.1578697492194
 30
0.0
 10
564.0476395612586
 20
367.6307502451739
 30
0.0
  0
SPLINE
  5
15F
330
1F
100
AcDbEntity
  8
0
  6
Continuous
 62
     7
370
    25
100
AcDbSpline
210
0.0
220
0.0
230
1.0
 70
     8
 71
     3
 72
    18
 73
    14
 74
     0
 42
0.00000001
 43
0.00000001
 40
0.0
 40
0.0
 40
0.0
 40
0.0
 40
0.0405997352347396
 40
0.1157166690945128
 40
0.1881689525878739
 40
0.2578975347531782
 40
0.3885098278990675
 40
0.506591064887829
 40
0.6149526615029133
 40
0.7347038434823512
 40
0.8679766183961556
 40
0.9339246071216681
 40
1.0
 40
1.0
 40
1.0
 40
1.0
 10
569.4581837083905
 20
408.0918769702938
 30
0.0
 10
569.4599620885417
 20
408.3337279074253
 30
0.0
 10
569.4650307971505
 20
409.0230473007768
 30
0.0
 10
569.4675395850346
 20
409.9118453595147
 30
0.0
 10
569.4688097761978
 20
410.6844012834342
 30
0.0
 10
569.4701207123971
 20
411.3345043215058
 30
0.0
 10
569.4734141063739
 20
411.683724549576
 30
0.0
 10
569.4584187939678
 20
411.8177654681717
 30
0.0
 10
569.3891263241443
 20
411.999299175285
 30
0.0
 10
569.2937340120125
 20
412.1383565079009
 30
0.0
 10
569.3175240511557
 20
412.1287052091083
 30
0.0
 10
569.0097046348308
 20
412.4529279370939
 30
0.0
 10
568.6688081452053
 20
412.5159009531001
 30
0.0
 10
568.498195415784
 20
412.5474178459626
 30
0.0
  0
LINE
  5
160
330
1F
100
AcDbEntity
  8
0
  6
Continuous
 62
     7
370
    25
100
AcDbLine
 10
569.4536998332
 20
407.4441660046
 30
0.0
 11
569.4581837084
 21
408.0918769703
 31
0.0
  0
ARC
  5
161
330
1F
100
AcDbEntity
  8
0
  6
Continuous
 62
     7
370
    25
100
AcDbCircle
 10
538.4670513335
 20
409.9904838345
 30
0.0
 40
0.9786067564917857
100
AcDbArc
 50
180.0
 51
264.8687626762
  0
ARC
  5
162
330
1F
100
AcDbEntity
  8
0
  6
Continuous
 62
     7
370
    25
100
AcDbCircle
 10
536.9013245323
 20
392.5542269381
 30
0.0
 40
16.52780792424564
100
AcDbArc
 50
64.8564099785
 51
84.8687626762
  0
LINE
  5
163
330
1F
100
AcDbEntity
  8
0
  6
Continuous
 62
     7
370
    25
100
AcDbLine
 10
543.288444577
 20
376.3083140096
 30
0.0
 11
543.507025944
 21
375.7077666397
 31
0.0
  0
LINE
  5
164
330
1F
100
AcDbEntity
  8
0
  6
Continuous
 62
     7
370
    25
100
AcDbLine
 10
551.0698632101
 20
375.7077666397
 30
0.0
 11
551.288444577
 21
376.3083140096
 31
0.0
  0
LINE
  5
165
330
1F
100
AcDbEntity
  8
0
  6
Continuous
 62
     7
370
    25
100
AcDbLine
 10
543.288444577
 20
376.5690601535
 30
0.0
 11
543.288444577
 21
376.3083140096
 31
0.0
  0
LINE
  5
166
330
1F
100
AcDbEntity
  8
0
  6
Continuous
 62
     7
370
    25
100
AcDbLine
 10
551.288444577
 20
376.3083140096
 30
0.0
 11
551.288444577
 21
376.5681445129
 31
0.0
  0
ARC
  5
167
330
1F
100
AcDbEntity
  8
0
  6
Continuous
 62
     7
370
    25
100
AcDbCircle
 10
550.881924686
 20
375.7761706684
 30
0.0
 40
0.2000000000001087
100
AcDbArc
 50
270.0
 51
340.0
  0
ARC
  5
168
330
1F
100
AcDbEntity
  8
0
  6
Continuous
 62
     7
370
    25
100
AcDbCircle
 10
543.6949644681
 20
375.7761706684
 30
0.0
 40
0.2000000000000019
100
AcDbArc
 50
200.0
 51
270.0
  0
LINE
  5
169
330
1F
100
AcDbEntity
  8
0
  6
Continuous
 62
     7
370
    25
100
AcDbLine
 10
543.6949644681
 20
375.5761706684
 30
0.0
 11
550.881924686
 21
375.5761706684
 31
0.0
  0
LINE
  5
16A
330
1F
100
AcDbEntity
  8
0
  6
Continuous
 62
     7
370
    25
100
AcDbLine
 10
509.4991411971
 20
359.4444080024
 30
0.0
 11
509.4991411971
 21
364.5578659245
 31
0.0
  0
LINE
  5
16B
330
1F
100
AcDbEntity
  8
0
  6
Continuous
 62
     7
370
    25
100
AcDbLine
 10
509.4991411971
 20
359.4444080024
 30
0.0
 11
514.8200840848
 21
359.537285406
 31
0.0
  0
LINE
  5
16C
330
1F
100
AcDbEntity
  8
0
  6
Continuous
 62
     7
370
    25
100
AcDbLine
 10
509.4991411971
 20
364.5578659245
 30
0.0
 11
509.4991411971
 21
424.5521975622
 31
0.0
  0
LINE
  5
16D
330
1F
100
AcDbEntity
  8
0
  6
Continuous
 62
     7
370
    25
100
AcDbLine
 10
509.4991411971
 20
429.6656554842
 30
0.0
 11
514.8200840848
 21
429.5727780806
 31
0.0
  0
LINE
  5
16E
330
1F
100
AcDbEntity
  8
0
  6
Continuous
 62
     7
370
    25
100
AcDbLine
 10
509.4991411971
 20
424.5521975622
 30
0.0
 11
509.4991411971
 21
429.6656554842
 31
0.0
  0
LINE
  5
16F
330
1F
100
AcDbEntity
  8
0
  6
Continuous
 62
     7
370
    25
100
AcDbLine
 10
515.9991411971
 20
364.5578659245
 30
0.0
 11
515.9991411971
 21
360.7371026402
 31
0.0
  0
ARC
  5
170
330
1F
100
AcDbEntity
  8
0
  6
Continuous
 62
     7
370
    25
100
AcDbCircle
 10
514.7991411971
 20
360.7371026402
 30
0.0
 40
1.200000000000045
100
AcDbArc
 50
271.0
 51
0.0
  0
LINE
  5
171
330
1F
100
AcDbEntity
  8
0
  6
Continuous
 62
     7
370
    25
100
AcDbLine
 10
515.9991411971
 20
424.5521975622
 30
0.0
 11
515.9991411971
 21
364.5578659245
 31
0.0
  0
ARC
  5
172
330
1F
100
AcDbEntity
  8
0
  6
Continuous
 62
     7
370
    25
100
AcDbCircle
 10
514.7991411971
 20
428.3729608464
 30
0.0
 40
1.200000000000045
100
AcDbArc
 50
0.0
 51
89.0
  0
LINE
  5
173
330
1F
100
AcDbEntity
  8
0
  6
Continuous
 62
     7
370
    25
100
AcDbLine
 10
515.9991411971
 20
428.3729608464
 30
0.0
 11
515.9991411971
 21
424.5521975622
 31
0.0
  0
SPLINE
  5
174
330
1F
100
AcDbEntity
  8
0
  6
Continuous
 62
     7
370
    25
100
AcDbSpline
210
0.0
220
0.0
230
1.0
 70
    24
 71
     3
 72
    23
 73
    19
 74
     0
 42
0.00000001
 43
0.00000001
 40
0.0
 40
0.0
 40
0.0
 40
0.0
 40
0.0310461970488199
 40
0.0621836812647857
 40
0.0934957966487671
 40
0.1250645041097148
 40
0.1873739725607073
 40
0.25012449095503
 40
0.3126781415528316
 40
0.375220900942648
 40
0.5000204023860928
 40
0.6248199038292985
 40
0.6872808487472476
 40
0.7499163149992759
 40
0.8125850606511668
 40
0.874976296658351
 40
0.9377971086001374
 40
1.0
 40
1.0
 40
1.0
 40
1.0
 10
714.4991411970673
 20
401.8528659244815
 30
0.0
 10
714.5641360914935
 20
401.8528659244815
 30
0.0
 10
714.694316989092
 20
401.8528659244815
 30
0.0
 10
714.8896058092532
 20
401.8528659244815
 30
0.0
 10
715.085000297127
 20
401.8528659244815
 30
0.0
 10
715.343187218652
 20
401.8528659244815
 30
0.0
 10
715.6615756741038
 20
401.8528659244815
 30
0.0
 10
716.0315352319625
 20
401.8528659244815
 30
0.0
 10
716.387554364567
 20
401.8528659244815
 30
0.0
 10
716.8371070971285
 20
401.8528659244815
 30
0.0
 10
717.3473127997097
 20
401.8528659244815
 30
0.0
 10
717.7626877634777
 20
401.8528659244815
 30
0.0
 10
718.0313655849973
 20
401.8528659244815
 30
0.0
 10
718.1996276385645
 20
401.8528659244815
 30
0.0
 10
718.3333085505138
 20
401.8528659244815
 30
0.0
 10
718.4292938348706
 20
401.8528659244815
 30
0.0
 10
718.4899856348294
 20
401.8528659244815
 30
0.0
 10
718.4960994152926
 20
401.8528659244815
 30
0.0
 10
718.4991411970673
 20
401.8528659244815
 30
0.0
  0
SPLINE
  5
175
330
1F
100
AcDbEntity
  8
0
  6
Continuous
 62
     7
370
    25
100
AcDbSpline
210
0.0
220
0.0
230
1.0
 70
     8
 71
     3
 72
    10
 73
     6
 74
     0
 42
0.00000001
 43
0.00000001
 40
0.0
 40
0.0
 40
0.0
 40
0.0
 40
0.1666488022395132
 40
0.4811642804777951
 40
1.0
 40
1.0
 40
1.0
 40
1.0
 10
718.4991411971258
 20
401.8528659246751
 30
0.0
 10
718.5246485730155
 20
401.8522007491987
 30
0.0
 10
718.5982958960195
 20
401.8502801912638
 30
0.0
 10
718.7517823765717
 20
401.8300290108906
 30
0.0
 10
718.8673132312542
 20
401.7731894116291
 30
0.0
 10
718.9392415302442
 20
401.7378016729909
 30
0.0
  0
SPLINE
  5
176
330
1F
100
AcDbEntity
  8
0
  6
Continuous
 62
     7
370
    25
100
AcDbSpline
210
0.0
220
0.0
230
1.0
 70
     8
 71
     3
 72
    10
 73
     6
 74
     0
 42
0.00000001
 43
0.00000001
 40
0.0
 40
0.0
 40
0.0
 40
0.0
 40
0.2011348886424626
 40
0.6005674443212246
 40
1.0
 40
1.0
 40
1.0
 40
1.0
 10
719.1537233625523
 20
401.5899805747206
 30
0.0
 10
719.1977030182279
 20
401.5543796958016
 30
0.0
 10
719.329021605418
 20
401.4480792473204
 30
0.0
 10
719.4637956280748
 20
401.1876608922478
 30
0.0
 10
719.4873593408151
 20
400.9644642471172
 30
0.0
 10
719.4991411971852
 20
400.8528659245518
 30
0.0
  0
LINE
  5
177
330
1F
100
AcDbEntity
  8
0
  6
Continuous
 62
     7
370
    25
100
AcDbLine
 10
719.3077336883
 20
400.8528659246
 30
0.0
 11
719.4991411971
 21
400.8528659246
 31
0.0
  0
LINE
  5
178
330
1F
100
AcDbEntity
  8
0
  6
Continuous
 62
     7
370
    25
100
AcDbLine
 10
515.9991411971
 20
385.8528659845
 30
0.0
 11
620.9864951496
 21
385.8528659845
 31
0.0
  0
LINE
  5
179
330
1F
100
AcDbEntity
  8
0
  6
Continuous
 62
     7
370
    25
100
AcDbLine
 10
620.9864951496
 20
401.8528659245
 30
0.0
 11
714.4991411971
 21
401.8528659245
 31
0.0
  0
LINE
  5
17A
330
1F
100
AcDbEntity
  8
0
  6
Continuous
 62
     7
370
    25
100
AcDbLine
 10
620.9864951496
 20
385.8528659846
 30
0.0
 11
714.4991411971
 21
385.8528659843
 31
0.0
  0
LINE
  5
17B
330
1F
100
AcDbEntity
  8
0
  6
Continuous
 62
     7
370
    25
100
AcDbLine
 10
719.4991411971
 20
400.8528659246
 30
0.0
 11
719.4991411971
 21
390.8528659845
 31
0.0
  0
LINE
  5
17C
330
1F
100
AcDbEntity
  8
0
  6
Continuous
 62
     7
370
    25
100
AcDbLine
 10
515.9991411971
 20
401.8528659245
 30
0.0
 11
620.9864951496
 21
401.8528659245
 31
0.0
  0
LINE
  5
17D
330
1F
100
AcDbEntity
  8
0
  6
Continuous
 62
     7
370
    25
100
AcDbLine
 10
697.7167671675
 20
385.8028659846
 30
0.0
 11
697.7167671675
 21
385.8528659845
 31
0.0
  0
LINE
  5
17E
330
1F
100
AcDbEntity
  8
0
  6
Continuous
 62
     7
370
    25
100
AcDbLine
 10
699.8847920165
 20
385.8028659846
 30
0.0
 11
697.7167671675
 21
385.8028659846
 31
0.0
  0
LINE
  5
17F
330
1F
100
AcDbEntity
  8
0
  6
Continuous
 62
     7
370
    25
100
AcDbLine
 10
699.8847920165
 20
385.8528659845
 30
0.0
 11
699.8847920165
 21
385.8028659846
 31
0.0
  0
LINE
  5
180
330
1F
100
AcDbEntity
  8
0
  6
Continuous
 62
     7
370
    25
100
AcDbLine
 10
701.584430596
 20
385.8028659846
 30
0.0
 11
701.584430596
 21
385.8528659845
 31
0.0
  0
LINE
  5
181
330
1F
100
AcDbEntity
  8
0
  6
Continuous
 62
     7
370
    25
100
AcDbLine
 10
703.7368597869
 20
385.8528659845
 30
0.0
 11
703.7368597869
 21
385.8028659846
 31
0.0
  0
LINE
  5
182
330
1F
100
AcDbEntity
  8
0
  6
Continuous
 62
     7
370
    25
100
AcDbLine
 10
703.7368597869
 20
385.8028659846
 30
0.0
 11
701.584430596
 21
385.8028659846
 31
0.0
  0
LINE
  5
183
330
1F
100
AcDbEntity
  8
0
  6
Continuous
 62
     7
370
    25
100
AcDbLine
 10
701.5585733098
 20
385.8528659845
 30
0.0
 11
701.5585733098
 21
385.8028659846
 31
0.0
  0
LINE
  5
184
330
1F
100
AcDbEntity
  8
0
  6
Continuous
 62
     7
370
    25
100
AcDbLine
 10
701.5585733098
 20
385.8028659846
 30
0.0
 11
701.584430596
 21
385.8028659846
 31
0.0
  0
LINE
  5
185
330
1F
100
AcDbEntity
  8
0
  6
Continuous
 62
     7
370
    25
100
AcDbLine
 10
709.7033072824
 20
385.0028659846
 30
0.0
 11
691.3033072824
 21
385.0028659846
 31
0.0
  0
ARC
  5
186
330
1F
100
AcDbEntity
  8
0
  6
Continuous
 62
     7
370
    25
100
AcDbCircle
 10
690.8388139149
 20
451.6627933051
 30
0.0
 40
67.77458778414744
100
AcDbArc
 50
271.4745611175
 51
280.4057289962
  0
LINE
  5
187
330
1F
100
AcDbEntity
  8
0
  6
Continuous
 62
     7
370
    25
100
AcDbLine
 10
689.6708491962
 20
385.8028659846
 30
0.0
 11
689.6708491962
 21
385.8528659845
 31
0.0
  0
LINE
  5
188
330
1F
100
AcDbEntity
  8
0
  6
Continuous
 62
     7
370
    25
100
AcDbLine
 10
692.7884181607
 20
385.8528659845
 30
0.0
 11
692.7884181607
 21
385.8028659846
 31
0.0
  0
LINE
  5
189
330
1F
100
AcDbEntity
  8
0
  6
Continuous
 62
     7
370
    25
100
AcDbLine
 10
692.7884181607
 20
385.8028659846
 30
0.0
 11
689.6708491962
 21
385.8028659846
 31
0.0
  0
LINE
  5
18A
330
1F
100
AcDbEntity
  8
0
  6
Continuous
 62
     7
370
    25
100
AcDbLine
 10
693.6456280631
 20
385.8528659845
 30
0.0
 11
693.6456280631
 21
385.8028659846
 31
0.0
  0
LINE
  5
18B
330
1F
100
AcDbEntity
  8
0
  6
Continuous
 62
     7
370
    25
100
AcDbLine
 10
692.7884181607
 20
385.8028659846
 30
0.0
 11
693.6456280631
 21
385.8028659846
 31
0.0
  0
LINE
  5
18C
330
1F
100
AcDbEntity
  8
0
  6
Continuous
 62
     7
370
    25
100
AcDbLine
 10
708.5492252536
 20
385.8028659846
 30
0.0
 11
708.5492252536
 21
385.8528659845
 31
0.0
  0
LINE
  5
18D
330
1F
100
AcDbEntity
  8
0
  6
Continuous
 62
     7
370
    25
100
AcDbLine
 10
707.655234368
 20
385.8028659846
 30
0.0
 11
708.5492252536
 21
385.8028659846
 31
0.0
  0
LINE
  5
18E
330
1F
100
AcDbEntity
  8
0
  6
Continuous
 62
     7
370
    25
100
AcDbLine
 10
707.655234368
 20
385.8528659845
 30
0.0
 11
707.655234368
 21
385.8028659846
 31
0.0
  0
LINE
  5
18F
330
1F
100
AcDbEntity
  8
0
  6
Continuous
 62
     7
370
    25
100
AcDbLine
 10
711.4517489085
 20
385.8528659845
 30
0.0
 11
711.4517489085
 21
385.8028659846
 31
0.0
  0
LINE
  5
190
330
1F
100
AcDbEntity
  8
0
  6
Continuous
 62
     7
370
    25
100
AcDbLine
 10
711.4517489085
 20
385.8028659846
 30
0.0
 11
708.5492252536
 21
385.8028659846
 31
0.0
  0
LINE
  5
191
330
1F
100
AcDbEntity
  8
0
  6
Continuous
 62
     7
370
    25
100
AcDbLine
 10
689.5548656562
 20
385.8028659846
 30
0.0
 11
689.6708491962
 21
385.8028659846
 31
0.0
  0
LINE
  5
192
330
1F
100
AcDbEntity
  8
0
  6
Continuous
 62
     7
370
    25
100
AcDbLine
 10
689.5548656562
 20
385.8528659845
 30
0.0
 11
689.5548656562
 21
385.8028659846
 31
0.0
  0
LINE
  5
193
330
1F
100
AcDbEntity
  8
0
  6
Continuous
 62
     7
370
    25
100
AcDbLine
 10
568.4981971609
 20
322.5142707371
 30
0.0
 11
568.4981971553
 21
322.5142713726
 31
0.0
  0
LINE
  5
194
330
1F
100
AcDbEntity
  8
0
  6
Continuous
 62
     7
370
    25
100
AcDbLine
 10
568.4981971338
 20
322.514273839
 30
0.0
 11
568.4981971824
 21
322.5142682688
 31
0.0
  0
SPLINE
  5
195
330
1F
100
AcDbEntity
  8
0
  6
Continuous
 62
     7
370
    25
100
AcDbSpline
210
0.0
220
0.0
230
1.0
 70
    24
 71
     3
 72
    21
 73
    17
 74
     0
 42
0.00000001
 43
0.00000001
 40
0.0
 40
0.0
 40
0.0
 40
0.0
 40
0.0714531256250642
 40
0.1428912369566306
 40
0.217768948087156
 40
0.2857157261282798
 40
0.359920606725212
 40
0.4283547817006804
 40
0.4969916191567122
 40
0.5709741169926623
 40
0.6389304092892805
 40
0.7137881023611482
 40
0.785224788228387
 40
0.8566744839334729
 40
0.8941250534193648
 40
1.0
 40
1.0
 40
1.0
 40
1.0
 10
569.3936087795585
 20
334.5032755227989
 30
0.0
 10
569.398009465875
 20
333.9990068181517
 30
0.0
 10
569.4068099138011
 20
332.9905753697687
 30
0.0
 10
569.4202121717899
 20
331.4548287181321
 30
0.0
 10
569.4332958203396
 20
329.955591092069
 30
0.0
 10
569.4462270542555
 20
328.4738184531486
 30
0.0
 10
569.4581183791099
 20
327.1112075898419
 30
0.0
 10
569.4686495083052
 20
325.9044597110015
 30
0.0
 10
569.4768893580617
 20
324.9602664501407
 30
0.0
 10
569.4826086252309
 20
324.3049033454921
 30
0.0
 10
569.4863984646249
 20
323.8706307651227
 30
0.0
 10
569.4885113931022
 20
323.6285131430869
 30
0.0
 10
569.4893748043223
 20
323.5295760168573
 30
0.0
 10
569.4894383112819
 20
323.5222988401023
 30
0.0
 10
569.489428357985
 20
323.523439374959
 30
0.0
 10
569.4894307157047
 20
323.5231692070346
 30
0.0
 10
569.4894324573586
 20
323.5229696332578
 30
0.0
  0
LINE
  5
196
330
1F
100
AcDbEntity
  8
0
  6
Continuous
 62
     7
370
    25
100
AcDbLine
 10
569.4894325465
 20
323.5229594195
 30
0.0
 11
569.4894325431
 21
323.5229598076
 31
0.0
  0
LINE
  5
197
330
1F
100
AcDbEntity
  8
0
  6
Continuous
 62
     7
370
    25
100
AcDbLine
 10
567.1521090545
 20
322.5260179839
 30
0.0
 11
567.1521090437
 21
322.5260171544
 31
0.0
  0
LINE
  5
198
330
1F
100
AcDbEntity
  8
0
  6
Continuous
 62
     7
370
    25
100
AcDbLine
 10
567.1521090198
 20
322.5260171426
 30
0.0
 11
567.1521090328
 21
322.526017983
 31
0.0
  0
SPLINE
  5
199
330
1F
100
AcDbEntity
  8
0
  6
Continuous
 62
     7
370
    25
100
AcDbSpline
210
0.0
220
0.0
230
1.0
 70
     8
 71
     3
 72
    13
 73
     9
 74
     0
 42
0.00000001
 43
0.00000001
 40
0.0
 40
0.0
 40
0.0
 40
0.0
 40
0.1321692196873586
 40
0.3011641298775544
 40
0.4705388249355227
 40
0.6874121396200702
 40
0.9193609946041837
 40
1.0
 40
1.0
 40
1.0
 40
1.0
 10
564.0491764994583
 20
326.4719523319653
 30
0.0
 10
564.0491757918062
 20
326.6320882295932
 30
0.0
 10
564.0491741793327
 20
326.9969779398098
 30
0.0
 10
564.0491722501616
 20
327.9368782262862
 30
0.0
 10
564.0491707615494
 20
329.239365112315
 30
0.0
 10
564.0491698188619
 20
330.7996103267131
 30
0.0
 10
564.0491694293779
 20
332.163209609177
 30
0.0
 10
564.0491693709135
 20
332.9704745863694
 30
0.0
 10
564.0491693558314
 20
333.1787265791774
 30
0.0
  0
LINE
  5
19A
330
1F
100
AcDbEntity
  8
0
  6
Continuous
 62
     7
370
    25
100
AcDbLine
 10
537.488444577
 20
401.8528659245
 30
0.0
 11
537.488444577
 21
410.5528659245
 31
0.0
  0
LINE
  5
19B
330
1F
100
AcDbEntity
  8
0
  6
Continuous
 62
     7
370
    25
100
AcDbLine
 10
569.3936087796
 20
367.6307502452
 30
0.0
 11
569.3936087796
 21
385.8528659845
 31
0.0
  0
LINE
  5
19C
330
1F
100
AcDbEntity
  8
0
  6
Continuous
 62
     7
370
    25
100
AcDbLine
 10
537.288444577
 20
385.8528659845
 30
0.0
 11
537.288444577
 21
376.5583140096
 31
0.0
  0
SPLINE
  5
19D
330
1F
100
AcDbEntity
  8
0
  6
Continuous
 62
     7
370
    25
100
AcDbSpline
210
0.0
220
0.0
230
1.0
 70
     8
 71
     3
 72
    14
 73
    10
 74
     0
 42
0.00000001
 43
0.00000001
 40
0.0
 40
0.0
 40
0.0
 40
0.0
 40
0.157217109505863
 40
0.3145278914446242
 40
0.4699926520047134
 40
0.6270186733647375
 40
0.7874922997259745
 40
0.9480133756489588
 40
1.0
 40
1.0
 40
1.0
 40
1.0
 10
549.3506658639076
 20
376.887740528613
 30
0.0
 10
548.9495845236189
 20
376.9274248078966
 30
0.0
 10
548.1471828724543
 20
377.0068170109831
 30
0.0
 10
546.7870506846342
 20
377.017877273861
 30
0.0
 10
545.5049067967863
 20
376.9319047629328
 30
0.0
 10
544.4008382033894
 20
376.78051072619
 30
0.0
 10
543.6361127956918
 20
376.6356244087821
 30
0.0
 10
543.2682710987588
 20
376.5538848009546
 30
0.0
 10
543.3237877072966
 20
376.566103799129
 30
0.0
 10
543.3373689613857
 20
376.5690929824254
 30
0.0
  0
SPLINE
  5
19E
330
1F
100
AcDbEntity
  8
0
  6
Continuous
 62
     7
370
    25
100
AcDbSpline
210
0.0
220
0.0
230
1.0
 70
     8
 71
     3
 72
    11
 73
     7
 74
     0
 42
0.00000001
 43
0.00000001
 40
0.0
 40
0.0
 40
0.0
 40
0.0
 40
0.0897144782744151
 40
0.4088140131703094
 40
0.7300677066011914
 40
1.0
 40
1.0
 40
1.0
 40
1.0
 10
551.2434954340832
 20
376.5681981172344
 30
0.0
 10
551.2568252082541
 20
376.5652808143114
 30
0.0
 10
551.3175667806095
 20
376.5519871482446
 30
0.0
 10
550.9795638263968
 20
376.6261102624973
 30
0.0
 10
550.3150334225213
 20
376.7588618810196
 30
0.0
 10
549.6529634143753
 20
376.8473413062137
 30
0.0
 10
549.3506658639076
 20
376.887740528613
 30
0.0
  0
LINE
  5
19F
330
1F
100
AcDbEntity
  8
0
  6
Continuous
 62
     7
370
    25
100
AcDbLine
 10
567.1521090621
 20
322.5260171542
 30
0.0
 11
568.4981971671
 21
322.5142700213
 31
0.0
  0
SPLINE
  5
1A0
330
1F
100
AcDbEntity
  8
0
  6
Continuous
 62
     7
370
    25
100
AcDbSpline
210
0.0
220
0.0
230
1.0
 70
     8
 71
     3
 72
    17
 73
    13
 74
     0
 42
0.00000001
 43
0.00000001
 40
0.0
 40
0.0
 40
0.0
 40
0.0
 40
0.0353549202600395
 40
0.1105986029765359
 40
0.2447257752623183
 40
0.3209895729547553
 40
0.3972037013204567
 40
0.4734050333801309
 40
0.549654081805752
 40
0.7019349742537067
 40
0.8545527194930009
 40
1.0
 40
1.0
 40
1.0
 40
1.0
 10
568.4048647474149
 20
401.8528659244751
 30
0.0
 10
568.4070494779313
 20
402.103211235595
 30
0.0
 10
568.4138838348243
 20
402.8863509363199
 30
0.0
 10
568.4289639817408
 20
404.614364458937
 30
0.0
 10
568.4463823230266
 20
406.6103084035392
 30
0.0
 10
568.4625664145274
 20
408.4648213816267
 30
0.0
 10
568.4740673397985
 20
409.7826968328012
 30
0.0
 10
568.4832704703595
 20
410.8372712841085
 30
0.0
 10
568.4920879607006
 20
411.8476560007037
 30
0.0
 10
568.4976454685096
 20
412.4844839596975
 30
0.0
 10
568.4983172203767
 20
412.5614596694118
 30
0.0
 10
568.4982329579907
 20
412.5518041880335
 30
0.0
 10
568.4981918403357
 20
412.5470925869158
 30
0.0
  0
SPLINE
  5
1A1
330
1F
100
AcDbEntity
  8
0
  6
Continuous
 62
     7
370
    25
100
AcDbSpline
210
0.0
220
0.0
230
1.0
 70
    24
 71
     3
 72
    15
 73
    11
 74
     0
 42
0.00000001
 43
0.00000001
 40
0.0
 40
0.0
 40
0.0
 40
0.0
 40
0.0338426583499507
 40
0.1814422799423797
 40
0.3289501860126612
 40
0.4732815723160442
 40
0.6175906810986785
 40
0.7418297064118324
 40
0.8661956977854188
 40
1.0
 40
1.0
 40
1.0
 40
1.0
 10
546.0329553452202
 20
412.5109357721457
 30
0.0
 10
546.0374849670279
 20
412.5216640469206
 30
0.0
 10
546.0617698473579
 20
412.5791820650057
 30
0.0
 10
545.9171667385217
 20
412.2366938947447
 30
0.0
 10
545.5761746945689
 20
411.4290643621093
 30
0.0
 10
545.0041132465514
 20
410.074153806
 30
0.0
 10
544.2795453703968
 20
408.3580363025009
 30
0.0
 10
543.4426394860095
 20
406.3758495616249
 30
0.0
 10
542.5418553297333
 20
404.2423690302165
 30
0.0
 10
541.8773660149894
 20
402.6685458157898
 30
0.0
 10
541.5329750013968
 20
401.8528659244721
 30
0.0
  0
LINE
  5
1A2
330
1F
100
AcDbEntity
  8
0
  6
Continuous
 62
     7
370
    25
100
AcDbLine
 10
564.0476380967
 20
367.6307502452
 30
0.0
 11
564.0476396261
 21
367.6307502452
 31
0.0
  0
LINE
  5
1A3
330
1F
100
AcDbEntity
  8
0
  6
Continuous
 62
     7
370
    25
100
AcDbLine
 10
569.3936087796
 20
334.5032755228
 30
0.0
 11
569.3936087796
 21
367.6307502452
 31
0.0
  0
SPLINE
  5
1A4
330
1F
100
AcDbEntity
  8
0
  6
Continuous
 62
     7
370
    25
100
AcDbSpline
210
0.0
220
0.0
230
1.0
 70
     8
 71
     3
 72
     8
 73
     4
 74
     0
 42
0.00000001
 43
0.00000001
 40
0.0
 40
0.0
 40
0.0
 40
0.0
 40
0.173679237272846
 40
0.173679237272846
 40
0.173679237272846
 40
0.173679237272846
 10
564.0492384264023
 20
334.3118844111061
 30
0.0
 10
564.0487241816217
 20
334.368739530328
 30
0.0
 10
564.0482133820641
 20
334.4259843179661
 30
0.0
 10
564.0477061616566
 20
334.483645067259
 30
0.0
  0
LINE
  5
1A5
330
1F
100
AcDbEntity
  8
0
  6
Continuous
 62
     7
370
    25
100
AcDbLine
 10
569.4049052967
 20
401.8528659245
 30
0.0
 11
569.4894325321
 21
411.538727731
 31
0.0
  0
LINE
  5
1A6
330
1F
100
AcDbEntity
  8
0
  6
Continuous
 62
     7
370
    25
100
AcDbLine
 10
564.0476380056
 20
367.6307502452
 30
0.0
 11
564.0476380056
 21
334.5045447606
 31
0.0
  0
LINE
  5
1A7
330
1F
100
AcDbEntity
  8
0
  6
Continuous
 62
     7
370
    25
100
AcDbLine
 10
564.0476380056
 20
334.5045447606
 30
0.0
 11
564.0477061617
 21
334.4836450673
 31
0.0
  0
LINE
  5
1A8
330
1F
100
AcDbEntity
  8
0
  6
Continuous
 62
     7
370
    25
100
AcDbLine
 10
549.3506658639
 20
376.3083140096
 30
0.0
 11
551.288444577
 21
376.3083140096
 31
0.0
  0
LINE
  5
1A9
330
1F
100
AcDbEntity
  8
0
  6
Continuous
 62
     7
370
    25
100
AcDbLine
 10
543.288444577
 20
376.3083140096
 30
0.0
 11
549.3506658639
 21
376.3083140096
 31
0.0
  0
LINE
  5
1AA
330
1F
100
AcDbEntity
  8
0
  6
Continuous
 62
     8
370
    18
100
AcDbLine
 10
514.8200840848
 20
359.537285406
 30
0.0
 11
514.8200840848
 21
364.5578659245
 31
0.0
  0
LINE
  5
1AB
330
1F
100
AcDbEntity
  8
0
  6
Continuous
 62
     8
370
    18
100
AcDbLine
 10
514.8200840848
 20
364.5578659245
 30
0.0
 11
514.8200840848
 21
424.5521975622
 31
0.0
  0
LINE
  5
1AC
330
1F
100
AcDbEntity
  8
0
  6
Continuous
 62
     8
370
    18
100
AcDbLine
 10
514.8200840848
 20
424.5521975622
 30
0.0
 11
514.8200840848
 21
429.5727780806
 31
0.0
  0
SPLINE
  5
1AD
330
1F
100
AcDbEntity
  8
0
  6
Continuous
 62
     8
370
    18
100
AcDbSpline
210
0.0
220
0.0
230
1.0
 70
    24
 71
     3
 72
    11
 73
     7
 74
     0
 42
0.00000001
 43
0.00000001
 40
0.0
 40
0.0
 40
0.0
 40
0.0
 40
0.2859517738509756
 40
0.571903547701947
 40
0.8578553215529211
 40
0.9999999999999999
 40
0.9999999999999999
 40
0.9999999999999999
 40
0.9999999999999999
 10
714.4991411970673
 20
400.8528659245517
 30
0.0
 10
715.1555976614716
 20
400.8528659245517
 30
0.0
 10
716.4685105902802
 20
400.8528659245518
 30
0.0
 10
718.1021665951685
 20
400.8528659245518
 30
0.0
 10
719.1248985976486
 20
400.8528659245518
 30
0.0
 10
719.2621581698828
 20
400.8528659245518
 30
0.0
 10
719.3077336883304
 20
400.8528659245518
 30
0.0
  0
LINE
  5
1AE
330
1F
100
AcDbEntity
  8
0
  6
Continuous
 62
     8
370
    18
100
AcDbLine
 10
620.9864951496
 20
400.8528659302
 30
0.0
 11
714.4991411971
 21
400.8528659086
 31
0.0
  0
LINE
  5
1AF
330
1F
100
AcDbEntity
  8
0
  6
Continuous
 62
     8
370
    18
100
AcDbLine
 10
515.9991411971
 20
400.8528659488
 30
0.0
 11
620.9864951496
 21
400.8528659302
 31
0.0
  0
SPLINE
  5
1B0
330
1F
100
AcDbEntity
  8
0
  6
Continuous
 62
     8
370
    18
100
AcDbSpline
210
0.0
220
0.0
230
1.0
 70
    24
 71
     3
 72
    98
 73
    94
 74
     0
 42
0.00000001
 43
0.00000001
 40
-54.3861539522409
 40
-54.3861539522409
 40
-54.3861539522409
 40
-54.3861539522409
 40
-53.91730779748021
 40
-53.91730779748021
 40
-53.44846164271951
 40
-53.44846164271951
 40
-52.9796154879588
 40
-52.9796154879588
 40
-52.51076933319811
 40
-52.51076933319811
 40
-52.27634625581771
 40
-52.27634625581771
 40
-52.04192317843741
 40
-52.04192317843741
 40
-51.80750010105701
 40
-51.80750010105701
 40
-51.5730770236767
 40
-51.5730770236767
 40
-51.10423086891601
 40
-51.10423086891601
 40
-50.63538471415531
 40
-50.63538471415531
 40
-50.1665385593946
 40
-50.1665385593946
 40
-49.69769240463391
 40
-49.69769240463391
 40
-49.22884624987321
 40
-49.22884624987321
 40
-48.7600000951125
 40
-48.7600000951125
 40
-48.2911539403518
 40
-48.2911539403518
 40
-47.82230778559111
 40
-47.82230778559111
 40
-47.35346163083041
 40
-47.35346163083041
 40
-46.8846154760697
 40
-46.8846154760697
 40
-46.41576932130901
 40
-46.41576932130901
 40
-46.18134624392871
 40
-46.18134624392871
 40
-45.94692316654831
 40
-45.94692316654831
 40
-45.4780770117876
 40
-45.4780770117876
 40
-45.00923085702691
 40
-45.00923085702691
 40
-44.77480777964661
 40
-44.77480777964661
 40
-44.54038470226621
 40
-44.54038470226621
 40
-44.0715385475055
 40
-44.0715385475055
 40
-43.83711547012521
 40
-43.83711547012521
 40
-43.60269239274481
 40
-43.60269239274481
 40
-43.36826931536451
 40
-43.36826931536451
 40
-43.13384623798411
 40
-43.13384623798411
 40
-42.8994231606038
 40
-42.8994231606038
 40
-42.6650000832234
 40
-42.6650000832234
 40
-42.19615392846281
 40
-42.19615392846281
 40
-41.72730777370211
 40
-41.72730777370211
 40
-41.2584616189414
 40
-41.2584616189414
 40
-40.78961546418071
 40
-40.78961546418071
 40
-40.32076930942001
 40
-40.32076930942001
 40
-39.8519231546593
 40
-39.8519231546593
 40
-39.38307699989861
 40
-39.38307699989861
 40
-38.91423084513791
 40
-38.91423084513791
 40
-38.4453846903772
 40
-38.4453846903772
 40
-37.97653853561651
 40
-37.97653853561651
 40
-37.50769238085581
 40
-37.50769238085581
 40
-36.57000007133441
 40
-36.57000007133441
 40
-36.10115391657371
 40
-36.10115391657371
 40
-35.632307761813
 40
-35.632307761813
 40
-35.632307761813
 40
-35.632307761813
 10
568.4981971671266
 20
322.5142700213097
 30
0.0
 10
568.4981971752325
 20
322.5142690924596
 30
0.0
 10
568.4981970346059
 20
322.5142852066715
 30
0.0
 10
568.4981887986986
 20
322.5152289481687
 30
0.0
 10
568.4981807108325
 20
322.5161557258459
 30
0.0
 10
568.4981496991104
 20
322.5197093171971
 30
0.0
 10
568.4981267775138
 20
322.5223358720156
 30
0.0
 10
568.4980592579058
 20
322.5300728527603
 30
0.0
 10
568.4980148044676
 20
322.5351667122221
 30
0.0
 10
568.4979269980832
 20
322.5452283272887
 30
0.0
 10
568.4978942348125
 20
322.5489826262401
 30
0.0
 10
568.4978208588309
 20
322.5573906809306
 30
0.0
 10
568.4977804268716
 20
322.5620237245737
 30
0.0
 10
568.4976908320492
 20
322.5722902743282
 30
0.0
 10
568.4976421141995
 20
322.5778727869579
 30
0.0
 10
568.4975356328232
 20
322.5900743441323
 30
0.0
 10
568.4974780810288
 20
322.5966691265636
 30
0.0
 10
568.4972913077362
 20
322.6180712260643
 30
0.0
 10
568.4971478190062
 20
322.63451340593
 30
0.0
 10
568.4968198457229
 20
322.6720954217313
 30
0.0
 10
568.4966345092498
 20
322.6933328780225
 30
0.0
 10
568.4962186909881
 20
322.7409809313179
 30
0.0
 10
568.4959879759813
 20
322.7674182525071
 30
0.0
 10
568.4954770016932
 20
322.8259701064469
 30
0.0
 10
568.4951966160289
 20
322.8580991212316
 30
0.0
 10
568.494584240587
 20
322.9282703964987
 30
0.0
 10
568.4942508679751
 20
322.9664711140634
 30
0.0
 10
568.4935281382361
 20
323.0492877392694
 30
0.0
 10
568.4931381678817
 20
323.0939739157719
 30
0.0
 10
568.4922979203948
 20
323.1902567410776
 30
0.0
 10
568.4918471005635
 20
323.2419155769759
 30
0.0
 10
568.490882056045
 20
323.3524987256873
 30
0.0
 10
568.4903667592561
 20
323.4115458891431
 30
0.0
 10
568.4892673683629
 20
323.5375236075527
 30
0.0
 10
568.4886830535506
 20
323.604479453149
 30
0.0
 10
568.4874429759954
 20
323.7465782662635
 30
0.0
 10
568.4867875977284
 20
323.8216771771963
 30
0.0
 10
568.4853993259338
 20
323.980757368151
 30
0.0
 10
568.48466801373
 20
324.0645574464041
 30
0.0
 10
568.4835115136348
 20
324.1970792311879
 30
0.0
 10
568.4831158523875
 20
324.2424175194054
 30
0.0
 10
568.4823071095853
 20
324.335090265414
 30
0.0
 10
568.4818917373273
 20
324.3826872117618
 30
0.0
 10
568.4806177762497
 20
324.5286686919758
 30
0.0
 10
568.4797299937766
 20
324.6303984871706
 30
0.0
 10
568.4778747414107
 20
324.8429893514304
 30
0.0
 10
568.4769105315528
 20
324.9534768574841
 30
0.0
 10
568.4754053929597
 20
325.1259486571246
 30
0.0
 10
568.474895397687
 20
325.1843883270052
 30
0.0
 10
568.4738549792352
 20
325.3036084730039
 30
0.0
 10
568.4733269382106
 20
325.3641159812639
 30
0.0
 10
568.4717138313391
 20
325.5489597202915
 30
0.0
 10
568.4706073139313
 20
325.6757540564791
 30
0.0
 10
568.4688980607384
 20
325.8716150725686
 30
0.0
 10
568.4683216734319
 20
325.9376625159702
 30
0.0
 10
568.4671530805181
 20
326.071570000398
 30
0.0
 10
568.466561763174
 20
326.1393282565589
 30
0.0
 10
568.4653663309233
 20
326.2763112243172
 30
0.0
 10
568.4647611635187
 20
326.3456565402139
 30
0.0
 10
568.4635405660707
 20
326.4855231541049
 30
0.0
 10
568.4629241848686
 20
326.5561534440595
 30
0.0
 10
568.4616794044928
 20
326.6987911472051
 30
0.0
 10
568.461051741685
 20
326.7707141811909
 30
0.0
 10
568.4597849428123
 20
326.9158749541262
 30
0.0
 10
568.4591479140115
 20
326.988871224558
 30
0.0
 10
568.4572193200515
 20
327.2098662030539
 30
0.0
 10
568.4559146561961
 20
327.3593658727303
 30
0.0
 10
568.4532742506776
 20
327.66192637675
 30
0.0
 10
568.4519395429141
 20
327.8148687376955
 30
0.0
 10
568.4492445168954
 20
328.1236881314106
 30
0.0
 10
568.4478833929459
 20
328.279657487547
 30
0.0
 10
568.4451412150465
 20
328.5938799514268
 30
0.0
 10
568.4437617192494
 20
328.7519545128486
 30
0.0
 10
568.4409824954226
 20
329.0704220200411
 30
0.0
 10
568.4395857023943
 20
329.230478647932
 30
0.0
 10
568.4367784802431
 20
329.5521544447964
 30
0.0
 10
568.4353679143261
 20
329.7137892881726
 30
0.0
 10
568.4325384673923
 20
330.038011792124
 30
0.0
 10
568.4311176674696
 20
330.2008193371697
 30
0.0
 10
568.4282695041081
 20
330.527186532338
 30
0.0
 10
568.4268424533433
 20
330.6907103535026
 30
0.0
 10
568.4239811587356
 20
331.0185822409499
 30
0.0
 10
568.4225478409584
 20
331.1828241906206
 30
0.0
 10
568.4196775923363
 20
331.5117221062742
 30
0.0
 10
568.4182380898828
 20
331.6766727493759
 30
0.0
 10
568.4153627552099
 20
332.0061534677779
 30
0.0
 10
568.413922819749
 20
332.1711537273561
 30
0.0
 10
568.4096008710297
 20
332.6663999968062
 30
0.0
 10
568.4067167821122
 20
332.996883855534
 30
0.0
 10
568.4023898513035
 20
333.4927010190107
 30
0.0
 10
568.4009479872965
 20
333.6579222699335
 30
0.0
 10
568.3980604854362
 20
333.9887972103517
 30
0.0
 10
568.3966210652653
 20
334.1537384237417
 30
0.0
 10
568.3951777554217
 20
334.319125348592
 30
0.0
  0
SPLINE
  5
1B1
330
1F
100
AcDbEntity
  8
0
  6
Continuous
 62
     8
370
    18
100
AcDbSpline
210
0.0
220
0.0
230
1.0
 70
    24
 71
     3
 72
     8
 73
     4
 74
     0
 42
0.00000001
 43
0.00000001
 40
0.0
 40
0.0
 40
0.0
 40
0.0
 40
1.0
 40
1.0
 40
1.0
 40
1.0
 10
568.3936621404533
 20
334.4927976190793
 30
0.0
 10
568.3941674256025
 20
334.4348976770012
 30
0.0
 10
568.394672618658
 20
334.3770082876383
 30
0.0
 10
568.3951777554144
 20
334.319125349327
 30
0.0
  0
LINE
  5
1B2
330
1F
100
AcDbEntity
  8
0
  6
Continuous
 62
     8
370
    18
100
AcDbLine
 10
567.1522115526
 20
322.5142721713
 30
0.0
 11
567.1522115532
 21
322.5142721049
 31
0.0
  0
SPLINE
  5
1B3
330
1F
100
AcDbEntity
  8
0
  6
Continuous
 62
     8
370
    18
100
AcDbSpline
210
0.0
220
0.0
230
1.0
 70
     8
 71
     3
 72
    14
 73
    10
 74
     0
 42
0.00000001
 43
0.00000001
 40
0.0
 40
0.0
 40
0.0
 40
0.0
 40
0.1996080062893372
 40
0.4012566526317573
 40
0.5896621707286915
 40
0.6660933919688075
 40
0.7371001977741589
 40
0.8839755012487264
 40
1.0
 40
1.0
 40
1.0
 40
1.0
 10
564.0492384408863
 20
334.3118844111061
 30
0.0
 10
564.0492384591715
 20
333.7186312985576
 30
0.0
 10
564.0492384959288
 20
332.5260601059997
 30
0.0
 10
564.0492381864156
 20
330.7783584460706
 30
0.0
 10
564.0492374718763
 20
329.4244393286706
 30
0.0
 10
564.0492366046363
 20
328.5047503718175
 30
0.0
 10
564.0492356365265
 20
327.7455685905016
 30
0.0
 10
564.049234116356
 20
326.9811024352865
 30
0.0
 10
564.0492325257977
 20
326.6177588697049
 30
0.0
 10
564.0492318238431
 20
326.4574059340457
 30
0.0
  0
LINE
  5
1B4
330
1F
100
AcDbEntity
  8
0
  6
Continuous
 62
     8
370
    18
100
AcDbLine
 10
564.0491693558
 20
333.1787265792
 30
0.0
 11
564.0491692511
 21
334.3328769661
 31
0.0
  0
LINE
  5
1B5
330
1F
100
AcDbEntity
  8
0
  6
Continuous
 62
     8
370
    18
100
AcDbLine
 10
535.488444577
 20
376.5528659245
 30
0.0
 11
535.488444577
 21
385.8528659845
 31
0.0
  0
LINE
  5
1B6
330
1F
100
AcDbEntity
  8
0
  6
Continuous
 62
     8
370
    18
100
AcDbLine
 10
535.488444577
 20
401.8528659245
 30
0.0
 11
535.488444577
 21
412.5528659245
 31
0.0
  0
LINE
  5
1B7
330
1F
100
AcDbEntity
  8
0
  6
Continuous
 62
     8
370
    18
100
AcDbLine
 10
568.3936621405
 20
367.6307502452
 30
0.0
 11
568.3936621405
 21
385.8528659845
 31
0.0
  0
LINE
  5
1B8
330
1F
100
AcDbEntity
  8
0
  6
Continuous
 62
     8
370
    18
100
AcDbLine
 10
568.3936621405
 20
367.6307502452
 30
0.0
 11
568.3936621405
 21
334.4927976191
 31
0.0
  0
LWPOLYLINE
  5
1B9
330
1F
100
AcDbEntity
  8
0
  6
Continuous
 62
     8
370
    18
100
AcDbPolyline
 90
        3
 70
   128
 43
0.0
 10
564.0480695506
 20
367.630750288
 10
564.0477030159
 20
367.6307505683
 10
564.047649716
 20
367.6307503684
  0
LWPOLYLINE
  5
1BA
330
1F
100
AcDbEntity
  8
0
  6
Continuous
 62
     8
370
    18
100
AcDbPolyline
 90
        3
 70
   128
 43
0.0
 10
564.047648792
 20
367.6307502452
 10
564.0476882176
 20
351.0551891196
 10
564.0477061617
 20
334.4836450673
  0
LINE
  5
1BB
330
1F
100
AcDbEntity
  8
0
  6
Continuous
 62
     8
370
    18
100
AcDbLine
 10
538.3795273685
 20
401.8528659245
 30
0.0
 11
538.3795273685
 21
409.0157988908
 31
0.0
  0
LINE
  5
1BC
330
1F
100
AcDbEntity
  8
0
  6
Continuous
 62
     8
370
    18
100
AcDbLine
 10
543.507025944
 20
375.7077666397
 30
0.0
 11
551.0698632101
 21
375.7077666397
 31
0.0
  0
ENDSEC
  0
SECTION
  2
OBJECTS
  0
DICTIONARY
  5
C
330
0
100
AcDbDictionary
281
     1
  3
ACAD_GROUP
350
D
  3
ACAD_LAYOUT
350
1A
  3
ACAD_MLINESTYLE
350
17
  3
ACAD_PLOTSETTINGS
350
19
  3
ACAD_PLOTSTYLENAME
350
E
  3
ACAD_SCALELIST
350
47
  3
DWGPROPS
350
1BD
  0
DICTIONARY
  5
D
102
{ACAD_REACTORS
330
C
102
}
330
C
100
AcDbDictionary
281
     1
  0
DICTIONARY
  5
1A
102
{ACAD_REACTORS
330
C
102
}
330
C
100
AcDbDictionary
281
     1
  3
Layout1
350
1E
  3
Layout2
350
26
  3
Model
350
22
  0
DICTIONARY
  5
17
102
{ACAD_REACTORS
330
C
102
}
330
C
100
AcDbDictionary
281
     1
  3
Standard
350
18
  0
DICTIONARY
  5
19
102
{ACAD_REACTORS
330
C
102
}
330
C
100
AcDbDictionary
281
     1
  0
ACDBDICTIONARYWDFLT
  5
E
102
{ACAD_REACTORS
330
C
102
}
330
C
100
AcDbDictionary
281
     1
  3
Normal
350
F
100
AcDbDictionaryWithDefault
340
F
  0
DICTIONARY
  5
47
102
{ACAD_REACTORS
330
C
102
}
330
C
100
AcDbDictionary
281
     1
  3
A0
350
48
  3
A1
350
49
  3
A2
350
4A
  3
A3
350
4B
  3
A4
350
4C
  3
A5
350
4D
  3
A6
350
4E
  3
A7
350
4F
  3
A8
350
50
  3
A9
350
51
  3
B0
350
52
  3
B1
350
53
  3
B2
350
54
  3
B3
350
55
  3
B4
350
56
  3
B5
350
57
  3
B6
350
58
  0
XRECORD
  5
1BD
102
{ACAD_REACTORS
330
C
102
}
330
C
100
AcDbXrecord
280
     1
  1
DWGPROPS COOKIE
  2

  3

  4

  6

  7

  8
fue-task
  9

300
=
301
=
302
=
303
=
304
=
305
=
306
=
307
=
308
=
309
=
 40
0.0
 41
2460507.383205949
 42
2460507.383207037
  1

 90
        0
  0
LAYOUT
  5
1E
102
{ACAD_REACTORS
330
1A
102
}
330
1A
100
AcDbPlotSettings
  1

  2
none_device
  4

  6

 40
0.0
 41
0.0
 42
0.0
 43
0.0
 44
0.0
 45
0.0
 46
0.0
 47
0.0
 48
0.0
 49
0.0
140
0.0
141
0.0
142
1.0
143
1.0
 70
   688
 72
     1
 73
     0
 74
     5
  7

 75
    16
147
1.0
148
0.0
149
0.0
100
AcDbLayout
  1
Layout1
 70
     1
 71
     1
 10
0.0
 20
0.0
 11
420.0
 21
297.0
 12
0.0
 22
0.0
 32
0.0
 14
1.0000000000E+20
 24
1.0000000000E+20
 34
1.0000000000E+20
 15
-1.0000000000E+20
 25
-1.0000000000E+20
 35
-1.0000000000E+20
146
0.0
 13
0.0
 23
0.0
 33
0.0
 16
1.0
 26
0.0
 36
0.0
 17
0.0
 27
1.0
 37
0.0
 76
     0
330
1B
  0
LAYOUT
  5
26
102
{ACAD_REACTORS
330
1A
102
}
330
1A
100
AcDbPlotSettings
  1

  2
none_device
  4

  6

 40
0.0
 41
0.0
 42
0.0
 43
0.0
 44
0.0
 45
0.0
 46
0.0
 47
0.0
 48
0.0
 49
0.0
140
0.0
141
0.0
142
1.0
143
1.0
 70
   688
 72
     1
 73
     0
 74
     5
  7

 75
    16
147
1.0
148
0.0
149
0.0
100
AcDbLayout
  1
Layout2
 70
     1
 71
     2
 10
0.0
 20
0.0
 11
0.0
 21
0.0
 12
0.0
 22
0.0
 32
0.0
 14
0.0
 24
0.0
 34
0.0
 15
0.0
 25
0.0
 35
0.0
146
0.0
 13
0.0
 23
0.0
 33
0.0
 16
1.0
 26
0.0
 36
0.0
 17
0.0
 27
1.0
 37
0.0
 76
     0
330
23
  0
LAYOUT
  5
22
102
{ACAD_REACTORS
330
1A
102
}
330
1A
100
AcDbPlotSettings
  1

  2
none_device
  4
Letter_(8.50_x_11.00_Inches)
  6

 40
6.35
 41
6.35
 42
6.35000508
 43
6.35000508
 44
215.9
 45
279.4
 46
0.0
 47
0.0
 48
0.0
 49
0.0
140
0.0
141
0.0
142
1.0
143
1.0
 70
  1712
 72
     1
 73
     0
 74
     0
  7

 75
     0
147
1.0
148
0.0
149
0.0
100
AcDbLayout
  1
Model
 70
     1
 71
     0
 10
0.0
 20
0.0
 11
841.0
 21
594.0
 12
0.0
 22
0.0
 32
0.0
 14
0.0
 24
0.0
 34
0.0
 15
841.0
 25
594.0
 35
0.0
146
0.0
 13
0.0
 23
0.0
 33
0.0
 16
1.0
 26
0.0
 36
0.0
 17
0.0
 27
1.0
 37
0.0
 76
     0
330
1F
331
29
  0
MLINESTYLE
  5
18
102
{ACAD_REACTORS
330
17
102
}
330
17
100
AcDbMlineStyle
  2
Standard
 70
     0
  3

 62
   256
 51
90.0
 52
90.0
 71
     2
 49
0.5
 62
   256
  6
BYLAYER
 49
-0.5
 62
   256
  6
BYLAYER
  0
ACDBPLACEHOLDER
  5
F
102
{ACAD_REACTORS
330
E
102
}
330
E
  0
SCALE
  5
48
102
{ACAD_REACTORS
330
47
102
}
330
47
100
AcDbScale
 70
     0
300
1:1
140
1.0
141
1.0
290
     1
  0
SCALE
  5
49
102
{ACAD_REACTORS
330
47
102
}
330
47
100
AcDbScale
 70
     0
300
1:2
140
1.0
141
2.0
290
     0
  0
SCALE
  5
4A
102
{ACAD_REACTORS
330
47
102
}
330
47
100
AcDbScale
 70
     0
300
1:4
140
1.0
141
4.0
290
     0
  0
SCALE
  5
4B
102
{ACAD_REACTORS
330
47
102
}
330
47
100
AcDbScale
 70
     0
300
1:5
140
1.0
141
5.0
290
     0
  0
SCALE
  5
4C
102
{ACAD_REACTORS
330
47
102
}
330
47
100
AcDbScale
 70
     0
300
1:8
140
1.0
141
8.0
290
     0
  0
SCALE
  5
4D
102
{ACAD_REACTORS
330
47
102
}
330
47
100
AcDbScale
 70
     0
300
1:10
140
1.0
141
10.0
290
     0
  0
SCALE
  5
4E
102
{ACAD_REACTORS
330
47
102
}
330
47
100
AcDbScale
 70
     0
300
1:16
140
1.0
141
16.0
290
     0
  0
SCALE
  5
4F
102
{ACAD_REACTORS
330
47
102
}
330
47
100
AcDbScale
 70
     0
300
1:20
140
1.0
141
20.0
290
     0
  0
SCALE
  5
50
102
{ACAD_REACTORS
330
47
102
}
330
47
100
AcDbScale
 70
     0
300
1:30
140
1.0
141
30.0
290
     0
  0
SCALE
  5
51
102
{ACAD_REACTORS
330
47
102
}
330
47
100
AcDbScale
 70
     0
300
1:40
140
1.0
141
40.0
290
     0
  0
SCALE
  5
52
102
{ACAD_REACTORS
330
47
102
}
330
47
100
AcDbScale
 70
     0
300
1:50
140
1.0
141
50.0
290
     0
  0
SCALE
  5
53
102
{ACAD_REACTORS
330
47
102
}
330
47
100
AcDbScale
 70
     0
300
1:100
140
1.0
141
100.0
290
     0
  0
SCALE
  5
54
102
{ACAD_REACTORS
330
47
102
}
330
47
100
AcDbScale
 70
     0
300
2:1
140
2.0
141
1.0
290
     0
  0
SCALE
  5
55
102
{ACAD_REACTORS
330
47
102
}
330
47
100
AcDbScale
 70
     0
300
4:1
140
4.0
141
1.0
290
     0
  0
SCALE
  5
56
102
{ACAD_REACTORS
330
47
102
}
330
47
100
AcDbScale
 70
     0
300
8:1
140
8.0
141
1.0
290
     0
  0
SCALE
  5
57
102
{ACAD_REACTORS
330
47
102
}
330
47
100
AcDbScale
 70
     0
300
10:1
140
10.0
141
1.0
290
     0
  0
SCALE
  5
58
102
{ACAD_REACTORS
330
47
102
}
330
47
100
AcDbScale
 70
     0
300
100:1
140
100.0
141
1.0
290
     0
  0
ENDSEC
  0
EOF
