  0
SECTION
  2
HEADER
  9
$ACADVER
  1
AC1024
  9
$ACADMAINTVER
 70
     6
  9
$DWGCODEPAGE
  3
ANSI_1252
  9
$INSBASE
 10
0.0
 20
0.0
 30
0.0
  9
$EXTMIN
 10
0.0
 20
0.0
 30
0.0
  9
$EXTMAX
 10
594.0
 20
841.0
 30
0.0
  9
$LIMMIN
 10
0.0
 20
0.0
  9
$LIMMAX
 10
594.0
 20
841.0
  9
$ORTHOMODE
 70
     0
  9
$REGENMODE
 70
     1
  9
$FILLMODE
 70
     1
  9
$QTEXTMODE
 70
     0
  9
$MIRRTEXT
 70
     1
  9
$LTSCALE
 40
1.0
  9
$ATTMODE
 70
     1
  9
$TEXTSIZE
 40
10.0
  9
$TRACEWID
 40
1.0
  9
$TEXTSTYLE
  7
Standard
  9
$CLAYER
  8
0
  9
$CELTYPE
  6
ByLayer
  9
$CECOLOR
 62
   256
  9
$CELTSCALE
 40
1.0
  9
$DISPSILH
 70
     0
  9
$DIMSCALE
 40
1.0
  9
$DIMASZ
 40
2.5
  9
$DIMEXO
 40
0.0
  9
$DIMDLI
 40
3.75
  9
$DIMRND
 40
0.0
  9
$DIMDLE
 40
0.0
  9
$DIMEXE
 40
1.0
  9
$DIMTP
 40
0.0
  9
$DIMTM
 40
0.0
  9
$DIMTXT
 40
3.5
  9
$DIMCEN
 40
2.5
  9
$DIMTSZ
 40
0.0
  9
$DIMTOL
 70
     0
  9
$DIMLIM
 70
     0
  9
$DIMTIH
 70
     1
  9
$DIMTOH
 70
     1
  9
$DIMSE1
 70
     0
  9
$DIMSE2
 70
     0
  9
$DIMTAD
 70
     1
  9
$DIMZIN
 70
     0
  9
$DIMBLK
  1

  9
$DIMASO
 70
     1
  9
$DIMSHO
 70
     1
  9
$DIMPOST
  1

  9
$DIMAPOST
  1

  9
$DIMALT
 70
     0
  9
$DIMALTD
 70
     3
  9
$DIMALTF
 40
0.0393700787
  9
$DIMLFAC
 40
1.0
  9
$DIMTOFL
 70
     1
  9
$DIMTVP
 40
0.0
  9
$DIMTIX
 70
     0
  9
$DIMSOXD
 70
     0
  9
$DIMSAH
 70
     0
  9
$DIMBLK1
  1

  9
$DIMBLK2
  1

  9
$DIMSTYLE
  2
ISO-25
  9
$DIMCLRD
 70
     0
  9
$DIMCLRE
 70
     0
  9
$DIMCLRT
 70
     0
  9
$DIMTFAC
 40
1.0
  9
$DIMGAP
 40
1.5
  9
$DIMJUST
 70
     0
  9
$DIMSD1
 70
     0
  9
$DIMSD2
 70
     0
  9
$DIMTOLJ
 70
     0
  9
$DIMTZIN
 70
     0
  9
$DIMALTZ
 70
     0
  9
$DIMALTTZ
 70
     0
  9
$DIMUPT
 70
     0
  9
$DIMDEC
 70
     2
  9
$DIMTDEC
 70
     2
  9
$DIMALTU
 70
     2
  9
$DIMALTTD
 70
     3
  9
$DIMTXSTY
  7
Standard
  9
$DIMAUNIT
 70
     0
  9
$DIMADEC
 70
     2
  9
$DIMALTRND
 40
0.0
  9
$DIMAZIN
 70
     0
  9
$DIMDSEP
 70
    44
  9
$DIMATFIT
 70
     3
  9
$DIMFRAC
 70
     0
  9
$DIMLDRBLK
  1

  9
$DIMLUNIT
 70
     2
  9
$DIMLWD
 70
    -2
  9
$DIMLWE
 70
    -2
  9
$DIMTMOVE
 70
     0
  9
$DIMFXL
 40
1.0
  9
$DIMFXLON
 70
     0
  9
$DIMJOGANG
 40
0.7853981634
  9
$DIMTFILL
 70
     0
  9
$DIMTFILLCLR
 70
     0
  9
$DIMARCSYM
 70
     0
  9
$DIMLTYPE
  6

  9
$DIMLTEX1
  6

  9
$DIMLTEX2
  6

  9
$DIMTXTDIRECTION
 70
     0
  9
$LUNITS
 70
     2
  9
$LUPREC
 70
     2
  9
$SKETCHINC
 40
1.0
  9
$FILLETRAD
 40
10.0
  9
$AUNITS
 70
     0
  9
$AUPREC
 70
     2
  9
$MENU
  1
.
  9
$ELEVATION
 40
0.0
  9
$PELEVATION
 40
0.0
  9
$THICKNESS
 40
0.0
  9
$LIMCHECK
 70
     0
  9
$CHAMFERA
 40
10.0
  9
$CHAMFERB
 40
10.0
  9
$CHAMFERC
 40
20.0
  9
$CHAMFERD
 40
0.0
  9
$SKPOLY
 70
     0
  9
$TDCREATE
 40
2456806.356521632
  9
$TDUCREATE
 40
2456806.273188299
  9
$TDUPDATE
 40
2456806.356522176
  9
$TDUUPDATE
 40
2456806.273188842
  9
$TDINDWG
 40
0.0000000116
  9
$TDUSRTIMER
 40
0.0000000116
  9
$USRTIMER
 70
     1
  9
$ANGBASE
 50
0.0
  9
$ANGDIR
 70
     0
  9
$PDMODE
 70
     0
  9
$PDSIZE
 40
-1.0
  9
$PLINEWID
 40
0.0
  9
$SPLFRAME
 70
     0
  9
$SPLINETYPE
 70
     6
  9
$SPLINESEGS
 70
     8
  9
$HANDSEED
  5
450
  9
$SURFTAB1
 70
     6
  9
$SURFTAB2
 70
     6
  9
$SURFTYPE
 70
     6
  9
$SURFU
 70
     6
  9
$SURFV
 70
     6
  9
$UCSBASE
  2

  9
$UCSNAME
  2

  9
$UCSORG
 10
0.0
 20
0.0
 30
0.0
  9
$UCSXDIR
 10
1.0
 20
0.0
 30
0.0
  9
$UCSYDIR
 10
0.0
 20
1.0
 30
0.0
  9
$UCSORTHOREF
  2

  9
$UCSORTHOVIEW
 70
     0
  9
$UCSORGTOP
 10
0.0
 20
0.0
 30
0.0
  9
$UCSORGBOTTOM
 10
0.0
 20
0.0
 30
0.0
  9
$UCSORGLEFT
 10
0.0
 20
0.0
 30
0.0
  9
$UCSORGRIGHT
 10
0.0
 20
0.0
 30
0.0
  9
$UCSORGFRONT
 10
0.0
 20
0.0
 30
0.0
  9
$UCSORGBACK
 10
0.0
 20
0.0
 30
0.0
  9
$PUCSBASE
  2

  9
$PUCSNAME
  2

  9
$PUCSORG
 10
0.0
 20
0.0
 30
0.0
  9
$PUCSXDIR
 10
1.0
 20
0.0
 30
0.0
  9
$PUCSYDIR
 10
0.0
 20
1.0
 30
0.0
  9
$PUCSORTHOREF
  2

  9
$PUCSORTHOVIEW
 70
     0
  9
$PUCSORGTOP
 10
0.0
 20
0.0
 30
0.0
  9
$PUCSORGBOTTOM
 10
0.0
 20
0.0
 30
0.0
  9
$PUCSORGLEFT
 10
0.0
 20
0.0
 30
0.0
  9
$PUCSORGRIGHT
 10
0.0
 20
0.0
 30
0.0
  9
$PUCSORGFRONT
 10
0.0
 20
0.0
 30
0.0
  9
$PUCSORGBACK
 10
0.0
 20
0.0
 30
0.0
  9
$USERI1
 70
     0
  9
$USERI2
 70
     0
  9
$USERI3
 70
     0
  9
$USERI4
 70
     0
  9
$USERI5
 70
     0
  9
$USERR1
 40
0.0
  9
$USERR2
 40
0.0
  9
$USERR3
 40
0.0
  9
$USERR4
 40
0.0
  9
$USERR5
 40
0.0
  9
$WORLDVIEW
 70
     1
  9
$SHADEDGE
 70
     3
  9
$SHADEDIF
 70
    70
  9
$TILEMODE
 70
     1
  9
$MAXACTVP
 70
    64
  9
$PINSBASE
 10
0.0
 20
0.0
 30
0.0
  9
$PLIMCHECK
 70
     0
  9
$PEXTMIN
 10
1.0000000000E+20
 20
1.0000000000E+20
 30
1.0000000000E+20
  9
$PEXTMAX
 10
-1.0000000000E+20
 20
-1.0000000000E+20
 30
-1.0000000000E+20
  9
$PLIMMIN
 10
0.0
 20
0.0
  9
$PLIMMAX
 10
420.0
 20
297.0
  9
$UNITMODE
 70
     0
  9
$VISRETAIN
 70
     1
  9
$PLINEGEN
 70
     0
  9
$PSLTSCALE
 70
     1
  9
$TREEDEPTH
 70
  3020
  9
$CMLSTYLE
  2
Standard
  9
$CMLJUST
 70
     0
  9
$CMLSCALE
 40
20.0
  9
$PROXYGRAPHICS
 70
     1
  9
$MEASUREMENT
 70
     1
  9
$CELWEIGHT
370
    -1
  9
$ENDCAPS
280
     0
  9
$JOINSTYLE
280
     0
  9
$LWDISPLAY
290
     1
  9
$INSUNITS
 70
     4
  9
$HYPERLINKBASE
  1

  9
$STYLESHEET
  1

  9
$XEDIT
290
     1
  9
$CEPSNTYPE
380
     0
  9
$PSTYLEMODE
290
     1
  9
$FINGERPRINTGUID
  2
{E26CE54E-A856-49C3-BDE9-2324705C3108}
  9
$VERSIONGUID
  2
{FAEB1C32-E019-11D5-929B-00C0DF256EC4}
  9
$EXTNAMES
290
     1
  9
$PSVPSCALE
 40
0.0
  9
$OLESTARTUP
290
     0
  9
$SORTENTS
280
   127
  9
$INDEXCTL
280
     0
  9
$HIDETEXT
280
     1
  9
$XCLIPFRAME
280
     2
  9
$HALOGAP
280
     0
  9
$OBSCOLOR
 70
   257
  9
$OBSLTYPE
280
     0
  9
$INTERSECTIONDISPLAY
280
     0
  9
$INTERSECTIONCOLOR
 70
   257
  9
$DIMASSOC
280
     2
  9
$PROJECTNAME
  1

  9
$CAMERADISPLAY
290
     0
  9
$LENSLENGTH
 40
50.0
  9
$CAMERAHEIGHT
 40
0.0
  9
$STEPSPERSEC
 40
2.0
  9
$STEPSIZE
 40
6.0
  9
$3DDWFPREC
 40
2.0
  9
$PSOLWIDTH
 40
5.0
  9
$PSOLHEIGHT
 40
80.0
  9
$LOFTANG1
 40
1.5707963268
  9
$LOFTANG2
 40
1.5707963268
  9
$LOFTMAG1
 40
0.0
  9
$LOFTMAG2
 40
0.0
  9
$LOFTPARAM
 70
     7
  9
$LOFTNORMALS
280
     1
  9
$LATITUDE
 40
37.795
  9
$LONGITUDE
 40
-122.394
  9
$NORTHDIRECTION
 40
0.0
  9
$TIMEZONE
 70
 -8000
  9
$LIGHTGLYPHDISPLAY
280
     1
  9
$TILEMODELIGHTSYNCH
280
     1
  9
$SOLIDHIST
280
     1
  9
$SHOWHIST
280
     1
  9
$DWFFRAME
280
     2
  9
$DGNFRAME
280
     2
  9
$REALWORLDSCALE
290
     1
  9
$INTERFERECOLOR
 62
   256
  9
$CSHADOW
280
     0
  9
$SHADOWPLANELOCATION
 40
0.0
  0
ENDSEC
  0
SECTION
  2
CLASSES
  0
CLASS
  1
ACDBDICTIONARYWDFLT
  2
AcDbDictionaryWithDefault
  3
ObjectDBX Classes
 90
        0
 91
        4
280
     0
281
     0
  0
CLASS
  1
VISUALSTYLE
  2
AcDbVisualStyle
  3
ObjectDBX Classes
 90
     4095
 91
        4
280
     0
281
     0
  0
CLASS
  1
MATERIAL
  2
AcDbMaterial
  3
ObjectDBX Classes
 90
     1153
 91
        4
280
     0
281
     0
  0
ENDSEC
  0
SECTION
  2
TABLES
  0
TABLE
  2
VPORT
  5
8
330
0
100
AcDbSymbolTable
 70
     1
  0
VPORT
  5
29
330
8
100
AcDbSymbolTableRecord
100
AcDbViewportTableRecord
  2
*Active
 70
     0
 10
0.0
 20
0.0
 11
1.0
 21
1.0
 12
297.0
 22
420.5
 13
0.0
 23
0.0
 14
10.0
 24
10.0
 15
10.0
 25
10.0
 16
0.0
 26
0.0
 36
1.0
 17
0.0
 27
0.0
 37
0.0
 40
841.0
 41
0.7063020214
 42
50.0
 43
0.0
 44
0.0
 50
0.0
 51
0.0
 71
     0
 72
  2000
 73
     1
 74
     3
 75
     0
 76
     0
 77
     0
 78
     0
281
     0
 65
     1
110
0.0
120
0.0
130
0.0
111
1.0
121
0.0
131
0.0
112
0.0
122
1.0
132
0.0
 79
     0
146
0.0
 60
     3
 61
     5
292
     1
282
     1
141
0.0
142
0.0
 63
   250
  0
ENDTAB
  0
TABLE
  2
LTYPE
  5
5
330
0
100
AcDbSymbolTable
 70
     6
  0
LTYPE
  5
14
330
5
100
AcDbSymbolTableRecord
100
AcDbLinetypeTableRecord
  2
ByBlock
 70
     0
  3

 72
    65
 73
     0
 40
0.0
  0
LTYPE
  5
15
330
5
100
AcDbSymbolTableRecord
100
AcDbLinetypeTableRecord
  2
ByLayer
 70
     0
  3

 72
    65
 73
     0
 40
0.0
  0
LTYPE
  5
16
330
5
100
AcDbSymbolTableRecord
100
AcDbLinetypeTableRecord
  2
Continuous
 70
     0
  3
Solid line
 72
    65
 73
     0
 40
0.0
  0
LTYPE
  5
3F
330
5
100
AcDbSymbolTableRecord
100
AcDbLinetypeTableRecord
  2
HIDDEN
 70
     0
  3
Hidden __ __ __ __ __ __ __ __ __ __ __ __ __ __
 72
    65
 73
     2
 40
1.905
 49
1.27
 74
     0
 49
-0.635
 74
     0
  0
LTYPE
  5
40
330
5
100
AcDbSymbolTableRecord
100
AcDbLinetypeTableRecord
  2
PHANTOM
 70
     0
  3
Phantom ______  __  __  ______  __  __  ______
 72
    65
 73
     6
 40
12.7
 49
6.35
 74
     0
 49
-1.27
 74
     0
 49
1.27
 74
     0
 49
-1.27
 74
     0
 49
1.27
 74
     0
 49
-1.27
 74
     0
  0
LTYPE
  5
41
330
5
100
AcDbSymbolTableRecord
100
AcDbLinetypeTableRecord
  2
CENTER
 70
     0
  3
Center ____ _ ____ _ ____ _ ____ _ ____ _ ____
 72
    65
 73
     4
 40
10.16
 49
6.35
 74
     0
 49
-1.27
 74
     0
 49
1.27
 74
     0
 49
-1.27
 74
     0
  0
LTYPE
  5
42
330
5
100
AcDbSymbolTableRecord
100
AcDbLinetypeTableRecord
  2
CENTERX2
 70
     0
  3
Center (2x) ________  __  ________  __  _____
 72
    65
 73
     4
 40
20.32
 49
12.7
 74
     0
 49
-2.54
 74
     0
 49
2.54
 74
     0
 49
-2.54
 74
     0
  0
LTYPE
  5
43
330
5
100
AcDbSymbolTableRecord
100
AcDbLinetypeTableRecord
  2
DOT2
 70
     0
  3
Dot (.5x) ........................................
 72
    65
 73
     2
 40
0.635
 49
0.0
 74
     0
 49
-0.635
 74
     0
  0
ENDTAB
  0
TABLE
  2
LAYER
  5
2
330
0
100
AcDbSymbolTable
 70
     1
  0
LAYER
  5
10
330
2
100
AcDbSymbolTableRecord
100
AcDbLayerTableRecord
  2
0
 70
     0
 62
     7
  6
Continuous
370
    -3
390
F
347
3E
  0
ENDTAB
  0
TABLE
  2
STYLE
  5
3
330
0
100
AcDbSymbolTable
 70
     3
  0
STYLE
  5
11
330
3
100
AcDbSymbolTableRecord
100
AcDbTextStyleTableRecord
  2
Standard
 70
     0
 40
0.0
 41
1.0
 50
0.0
 71
     0
 42
10.0
  3
txt
  4

  0
STYLE
  5
47
330
3
100
AcDbSymbolTableRecord
100
AcDbTextStyleTableRecord
  2
SLDTEXTSTYLE0
 70
     0
 40
0.0
 41
0.96
 50
0.0
 71
     0
 42
0.2
  3
ISOCP3
  4

  0
STYLE
  5
5E
330
3
100
AcDbSymbolTableRecord
100
AcDbTextStyleTableRecord
  2
SLDTEXTSTYLE1
 70
     0
 40
0.0
 41
0.605
 50
0.0
 71
     0
 42
0.2
  3
TXT
  4

  0
ENDTAB
  0
TABLE
  2
VIEW
  5
6
330
0
100
AcDbSymbolTable
 70
     0
  0
ENDTAB
  0
TABLE
  2
UCS
  5
7
330
0
100
AcDbSymbolTable
 70
     0
  0
ENDTAB
  0
TABLE
  2
APPID
  5
9
330
0
100
AcDbSymbolTable
 70
     1
  0
APPID
  5
12
330
9
100
AcDbSymbolTableRecord
100
AcDbRegAppTableRecord
  2
ACAD
 70
     0
  0
ENDTAB
  0
TABLE
  2
DIMSTYLE
  5
A
330
0
100
AcDbSymbolTable
 70
     2
100
AcDbDimStyleTable
  0
DIMSTYLE
105
27
330
A
100
AcDbSymbolTableRecord
100
AcDbDimStyleTableRecord
  2
ISO-25
 70
     0
 41
2.5
 42
0.625
 43
3.75
 44
1.25
 73
     0
 74
     0
 77
     1
 78
     8
140
2.5
141
2.5
143
0.0393700787
147
0.625
171
     3
172
     1
178
     0
271
     2
272
     2
274
     3
278
    44
283
     0
284
     8
340
11
  0
DIMSTYLE
105
48
102
{ACAD_REACTORS
330
46
330
53
102
}
330
A
100
AcDbSymbolTableRecord
100
AcDbDimStyleTableRecord
  2
SLDDIMSTYLE0
 70
     0
 41
2.5
 44
0.0
 45
0.000000001
 73
     0
 74
     0
 77
     1
 78
    12
 79
     3
140
6.0
147
1.5
173
     1
178
     0
271
     2
272
     2
276
     2
284
    12
340
47
  0
ENDTAB
  0
TABLE
  2
BLOCK_RECORD
  5
1
330
0
100
AcDbSymbolTable
 70
     3
  0
BLOCK_RECORD
  5
1F
330
1
100
AcDbSymbolTableRecord
100
AcDbBlockTableRecord
  2
*Model_Space
340
22
 70
     0
280
     1
281
     0
  0
BLOCK_RECORD
  5
1B
330
1
100
AcDbSymbolTableRecord
100
AcDbBlockTableRecord
  2
*Paper_Space
340
1E
 70
     0
280
     1
281
     0
  0
BLOCK_RECORD
  5
23
330
1
100
AcDbSymbolTableRecord
100
AcDbBlockTableRecord
  2
*Paper_Space0
340
26
 70
     0
280
     1
281
     0
  0
BLOCK_RECORD
  5
49
330
1
100
AcDbSymbolTableRecord
100
AcDbBlockTableRecord
  2
_D
340
0
 70
     0
280
     1
281
     0
  0
BLOCK_RECORD
  5
54
330
1
100
AcDbSymbolTableRecord
100
AcDbBlockTableRecord
  2
_D_1
340
0
 70
     0
280
     1
281
     0
  0
ENDTAB
  0
ENDSEC
  0
SECTION
  2
BLOCKS
  0
BLOCK
  5
20
330
1F
100
AcDbEntity
  8
0
100
AcDbBlockBegin
  2
*Model_Space
 70
     0
 10
0.0
 20
0.0
 30
0.0
  3
*Model_Space
  1

  0
ENDBLK
  5
21
330
1F
100
AcDbEntity
  8
0
100
AcDbBlockEnd
  0
BLOCK
  5
1C
330
1B
100
AcDbEntity
 67
     1
  8
0
100
AcDbBlockBegin
  2
*Paper_Space
 70
     0
 10
0.0
 20
0.0
 30
0.0
  3
*Paper_Space
  1

  0
ENDBLK
  5
1D
330
1B
100
AcDbEntity
 67
     1
  8
0
100
AcDbBlockEnd
  0
BLOCK
  5
24
330
23
100
AcDbEntity
  8
0
100
AcDbBlockBegin
  2
*Paper_Space0
 70
     0
 10
0.0
 20
0.0
 30
0.0
  3
*Paper_Space0
  1

  0
ENDBLK
  5
25
330
23
100
AcDbEntity
  8
0
100
AcDbBlockEnd
  0
BLOCK
  5
4A
330
49
100
AcDbEntity
  8
0
100
AcDbBlockBegin
  2
_D
 70
     0
 10
0.0
 20
0.0
 30
0.0
  3
_D
  1

  0
SOLID
  5
4C
330
49
100
AcDbEntity
  8
0
  6
Continuous
 62
     7
370
     0
100
AcDbTrace
 10
42.7614395004
 20
152.0299240879
 30
0.0
 11
42.4614395004
 21
149.5299240879
 31
0.0
 12
43.0614395004
 22
149.5299240879
 32
0.0
 13
43.0614395004
 23
149.5299240879
 33
0.0
  0
SOLID
  5
4D
330
49
100
AcDbEntity
  8
0
  6
Continuous
 62
     7
370
     0
100
AcDbTrace
 10
42.7614395004
 20
52.0299240879
 30
0.0
 11
43.0614395004
 21
54.5299240879
 31
0.0
 12
42.4614395004
 22
54.5299240879
 32
0.0
 13
42.4614395004
 23
54.5299240879
 33
0.0
  0
LINE
  5
4E
330
49
100
AcDbEntity
  8
0
  6
Continuous
 62
     7
370
     0
100
AcDbLine
 10
56.6850079902
 20
152.0299240879
 30
0.0
 11
41.7614395004
 21
152.0299240879
 31
0.0
  0
LINE
  5
4F
330
49
100
AcDbEntity
  8
0
  6
Continuous
 62
     7
370
     0
100
AcDbLine
 10
56.6850079902
 20
52.0299240879
 30
0.0
 11
41.7614395004
 21
52.0299240879
 31
0.0
  0
LINE
  5
50
330
49
100
AcDbEntity
  8
0
  6
Continuous
 62
     7
370
     0
100
AcDbLine
 10
42.7614395004
 20
152.0299240879
 30
0.0
 11
42.7614395004
 21
52.0299240879
 31
0.0
  0
MTEXT
  5
51
330
49
100
AcDbEntity
  8
0
  6
Continuous
 62
     7
370
     0
100
AcDbMText
 10
35.0270332946
 20
91.6722208134
 30
0.1
 40
6.0
 41
0.0
 46
0.0
 71
     1
 72
     1
  1
100
  7
SLDTEXTSTYLE0
 11
-7.044195017643634E-15
 21
1.0
 31
0.0
 73
     1
 44
1.0
  0
MTEXT
  5
52
330
49
100
AcDbEntity
  8
0
  6
Continuous
 62
     7
370
     0
100
AcDbMText
 10
35.0270332946
 20
108.4388881795
 30
0.1
 40
6.0
 41
0.0
 46
0.0
 71
     1
 72
     1
  1
mm
  7
SLDTEXTSTYLE0
 11
-7.044195017643634E-15
 21
1.0
 31
0.0
 73
     1
 44
1.0
  0
ENDBLK
  5
4B
330
49
100
AcDbEntity
  8
0
100
AcDbBlockEnd
  0
BLOCK
  5
55
330
54
100
AcDbEntity
  8
0
100
AcDbBlockBegin
  2
_D_1
 70
     0
 10
0.0
 20
0.0
 30
0.0
  3
_D_1
  1

  0
SOLID
  5
57
330
54
100
AcDbEntity
  8
0
  6
Continuous
 62
     7
370
     0
100
AcDbTrace
 10
56.6850079902
 20
38.4602342313
 30
0.0
 11
59.1850079902
 21
38.1602342313
 31
0.0
 12
59.1850079902
 22
38.7602342313
 32
0.0
 13
59.1850079902
 23
38.7602342313
 33
0.0
  0
SOLID
  5
58
330
54
100
AcDbEntity
  8
0
  6
Continuous
 62
     7
370
     0
100
AcDbTrace
 10
156.6850079902
 20
38.4602342313
 30
0.0
 11
154.1850079902
 21
38.7602342313
 31
0.0
 12
154.1850079902
 22
38.1602342313
 32
0.0
 13
154.1850079902
 23
38.1602342313
 33
0.0
  0
LINE
  5
59
330
54
100
AcDbEntity
  8
0
  6
Continuous
 62
     7
370
     0
100
AcDbLine
 10
56.6850079902
 20
52.0299240879
 30
0.0
 11
56.6850079902
 21
37.4602342313
 31
0.0
  0
LINE
  5
5A
330
54
100
AcDbEntity
  8
0
  6
Continuous
 62
     7
370
     0
100
AcDbLine
 10
156.6850079902
 20
52.0299240879
 30
0.0
 11
156.6850079902
 21
37.4602342313
 31
0.0
  0
LINE
  5
5B
330
54
100
AcDbEntity
  8
0
  6
Continuous
 62
     7
370
     0
100
AcDbLine
 10
56.6850079902
 20
38.4602342313
 30
0.0
 11
156.6850079902
 21
38.4602342313
 31
0.0
  0
MTEXT
  5
5C
330
54
100
AcDbEntity
  8
0
  6
Continuous
 62
     7
370
     0
100
AcDbMText
 10
91.2668151533
 20
46.1946404371
 30
0.1
 40
6.0
 41
0.0
 46
0.0
 71
     1
 72
     1
  1
100
  7
SLDTEXTSTYLE0
 73
     1
 44
1.0
  0
MTEXT
  5
5D
330
54
100
AcDbEntity
  8
0
  6
Continuous
 62
     7
370
     0
100
AcDbMText
 10
108.0334825193
 20
46.1946404371
 30
0.1
 40
6.0
 41
0.0
 46
0.0
 71
     1
 72
     1
  1
mm
  7
SLDTEXTSTYLE0
 73
     1
 44
1.0
  0
ENDBLK
  5
56
330
54
100
AcDbEntity
  8
0
100
AcDbBlockEnd
  0
ENDSEC
  0
SECTION
  2
ENTITIES
  0
LINE
  5
44
330
1F
100
AcDbEntity
  8
0
  6
Continuous
 62
     7
370
     0
100
AcDbLine
 10
56.6850079902
 20
152.0299240879
 30
0.0
 11
56.6850079902
 21
52.0299240879
 31
0.0
  0
LINE
  5
45
330
1F
100
AcDbEntity
  8
0
  6
Continuous
 62
     7
370
     0
100
AcDbLine
 10
56.6850079902
 20
52.0299240879
 30
0.0
 11
156.6850079902
 21
52.0299240879
 31
0.0
  0
DIMENSION
  5
46
330
1F
100
AcDbEntity
  8
0
  6
Continuous
 62
     7
370
     0
100
AcDbDimension
280
     0
  2
_D
 10
42.7614395004
 20
52.0299240879
 30
0.0
 11
42.7614395004
 21
105.4472211621
 31
0.0
 70
   160
  1
<>mm
 71
     2
 42
-1.0
 73
     0
 74
     0
 75
     0
  3
SLDDIMSTYLE0
100
AcDbAlignedDimension
 13
56.6850079902
 23
152.0299240879
 33
0.0
 14
56.6850079902
 24
52.0299240879
 34
0.0
 50
90.0
100
AcDbRotatedDimension
  0
DIMENSION
  5
53
330
1F
100
AcDbEntity
  8
0
  6
Continuous
 62
     7
370
     0
100
AcDbDimension
280
     0
  2
_D_1
 10
156.6850079902
 20
38.4602342313
 30
0.0
 11
105.0418155019
 21
38.4602342313
 31
0.0
 70
   160
  1
<>mm
 71
     2
 42
-1.0
 73
     0
 74
     0
 75
     0
  3
SLDDIMSTYLE0
100
AcDbAlignedDimension
 13
56.6850079902
 23
52.0299240879
 33
0.0
 14
156.6850079902
 24
52.0299240879
 34
0.0
100
AcDbRotatedDimension
  0
MTEXT
  5
5F
330
1F
100
AcDbEntity
  8
0
  6
Continuous
 62
     7
370
     0
100
AcDbMText
 10
277.1555422771
 20
49.1830273278
 30
0.0
 40
10.0
 41
0.0
 46
0.0
 71
     1
 72
     1
  1
35 158
  7
SLDTEXTSTYLE1
 73
     1
 44
1.0
  0
MTEXT
  5
60
330
1F
100
AcDbEntity
  8
0
  6
Continuous
 62
     7
370
     0
100
AcDbMText
 10
412.8252631579
 20
48.4342449499
 30
0.0
 40
10.0
 41
0.0
 46
0.0
 71
     1
 72
     1
  1
KLUDI GmbH & Co KG
  7
SLDTEXTSTYLE1
 73
     1
 44
1.0
  0
ARC
  5
61
330
1F
100
AcDbEntity
  8
0
  6
Continuous
 62
     7
370
    15
100
AcDbCircle
 10
191.2538097983
 20
341.2406114773
 30
0.0
 40
2.0
100
AcDbArc
 50
90.0
 51
141.5654827387
  0
ARC
  5
62
330
1F
100
AcDbEntity
  8
0
  6
Continuous
 62
     7
370
    15
100
AcDbCircle
 10
239.2538097983
 20
341.2406114773
 30
0.0
 40
2.0
100
AcDbArc
 50
38.4416109318
 51
90.0
  0
LINE
  5
63
330
1F
100
AcDbEntity
  8
0
  6
Continuous
 62
     7
370
    15
100
AcDbLine
 10
235.2538093513
 20
282.7406124012
 30
0.0
 11
235.2538093513
 21
286.7406130569
 31
0.0
  0
LINE
  5
64
330
1F
100
AcDbEntity
  8
0
  6
Continuous
 62
     7
370
    15
100
AcDbLine
 10
195.2538102454
 20
286.7406130569
 30
0.0
 11
195.2538102454
 21
282.7406124012
 31
0.0
  0
LINE
  5
65
330
1F
100
AcDbEntity
  8
0
  6
Continuous
 62
     7
370
    15
100
AcDbLine
 10
195.2538102454
 20
282.7406124012
 30
0.0
 11
196.2538104093
 21
281.7406103747
 31
0.0
  0
LINE
  5
66
330
1F
100
AcDbEntity
  8
0
  6
Continuous
 62
     7
370
    15
100
AcDbLine
 10
234.2538091874
 20
281.7406103747
 30
0.0
 11
235.2538093513
 21
282.7406124012
 31
0.0
  0
LINE
  5
67
330
1F
100
AcDbEntity
  8
0
  6
Continuous
 62
     7
370
    15
100
AcDbLine
 10
234.2538091874
 20
286.7406130569
 30
0.0
 11
234.2538091874
 21
288.7406096594
 31
0.0
  0
LINE
  5
68
330
1F
100
AcDbEntity
  8
0
  6
Continuous
 62
     7
370
    15
100
AcDbLine
 10
196.2538104093
 20
288.7406096594
 30
0.0
 11
196.2538104093
 21
286.7406130569
 31
0.0
  0
LINE
  5
69
330
1F
100
AcDbEntity
  8
0
  6
Continuous
 62
     7
370
    15
100
AcDbLine
 10
232.7538098728
 20
277.740609719
 30
0.0
 11
232.7538098728
 21
281.7406103747
 31
0.0
  0
LINE
  5
6A
330
1F
100
AcDbEntity
  8
0
  6
Continuous
 62
     7
370
    15
100
AcDbLine
 10
197.7538097238
 20
281.7406103747
 30
0.0
 11
197.7538097238
 21
277.740609719
 31
0.0
  0
LINE
  5
6B
330
1F
100
AcDbEntity
  8
0
  6
Continuous
 62
     7
370
    15
100
AcDbLine
 10
231.2538105583
 20
261.7406108217
 30
0.0
 11
231.2538105583
 21
263.2406138615
 31
0.0
  0
LINE
  5
6C
330
1F
100
AcDbEntity
  8
0
  6
Continuous
 62
     7
370
    15
100
AcDbLine
 10
199.2538090384
 20
263.2406138615
 30
0.0
 11
199.2538090384
 21
261.7406108217
 31
0.0
  0
LINE
  5
6D
330
1F
100
AcDbEntity
  8
0
  6
Continuous
 62
     7
370
    15
100
AcDbLine
 10
159.7538090831
 20
312.7732890458
 30
0.0
 11
159.7538090831
 21
288.9406130449
 31
0.0
  0
LINE
  5
6E
330
1F
100
AcDbEntity
  8
0
  6
Continuous
 62
     7
370
    15
100
AcDbLine
 10
270.7538105136
 20
288.9406130449
 30
0.0
 11
270.7538105136
 21
312.7606696249
 31
0.0
  0
ARC
  5
6F
330
1F
100
AcDbEntity
  8
0
  6
Continuous
 62
     7
370
    15
100
AcDbCircle
 10
159.9538097983
 20
288.9406114773
 30
0.0
 40
0.2000000000000455
100
AcDbArc
 50
180.0
 51
270.0
  0
ARC
  5
70
330
1F
100
AcDbEntity
  8
0
  6
Continuous
 62
     7
370
    15
100
AcDbCircle
 10
270.5538097983
 20
288.9406114773
 30
0.0
 40
0.2000000000000455
100
AcDbArc
 50
270.0
 51
0.0
  0
ARC
  5
71
330
1F
100
AcDbEntity
  8
0
  6
Continuous
 62
     7
370
    15
100
AcDbCircle
 10
157.7973081075
 20
312.783498786
 30
0.0
 40
1.947086432015982
100
AcDbArc
 50
359.631623176
 51
90.3707186405
  0
ARC
  5
72
330
1F
100
AcDbEntity
  8
0
  6
Continuous
 62
     7
370
    15
100
AcDbCircle
 10
272.7081239718
 20
312.7833442341
 30
0.0
 40
1.94816774321643
100
AcDbArc
 50
89.2059879185
 51
180.528795312
  0
LINE
  5
73
330
1F
100
AcDbEntity
  8
0
  6
Continuous
 62
     7
370
    15
100
AcDbLine
 10
188.1254858857
 20
341.7406118275
 30
0.0
 11
140.2538068181
 21
341.7406118275
 31
0.0
  0
LINE
  5
74
330
1F
100
AcDbEntity
  8
0
  6
Continuous
 62
     7
370
    15
100
AcDbLine
 10
140.2538068181
 20
314.7406111272
 30
0.0
 11
157.7818527406
 21
314.7406111272
 31
0.0
  0
LINE
  5
75
330
1F
100
AcDbEntity
  8
0
  6
Continuous
 62
     7
370
    15
100
AcDbLine
 10
290.2538127786
 20
341.7406118275
 30
0.0
 11
242.3821337109
 21
341.7406118275
 31
0.0
  0
LINE
  5
76
330
1F
100
AcDbEntity
  8
0
  6
Continuous
 62
     7
370
    15
100
AcDbLine
 10
272.7360635584
 20
314.7406111272
 30
0.0
 11
290.2538127786
 21
314.7406111272
 31
0.0
  0
LINE
  5
77
330
1F
100
AcDbEntity
  8
0
  6
Continuous
 62
     7
370
    15
100
AcDbLine
 10
140.2538068181
 20
339.2406114177
 30
0.0
 11
139.2538122421
 21
339.2406114177
 31
0.0
  0
LINE
  5
78
330
1F
100
AcDbEntity
  8
0
  6
Continuous
 62
     7
370
    15
100
AcDbLine
 10
139.2538122421
 20
317.2406115369
 30
0.0
 11
140.2538068181
 21
317.2406115369
 31
0.0
  0
LINE
  5
79
330
1F
100
AcDbEntity
  8
0
  6
Continuous
 62
     7
370
    15
100
AcDbLine
 10
290.2538127786
 20
317.2406115369
 30
0.0
 11
291.2538073545
 21
317.2406115369
 31
0.0
  0
LINE
  5
7A
330
1F
100
AcDbEntity
  8
0
  6
Continuous
 62
     7
370
    15
100
AcDbLine
 10
291.2538073545
 20
339.2406114177
 30
0.0
 11
290.2538127786
 21
339.2406114177
 31
0.0
  0
LINE
  5
7B
330
1F
100
AcDbEntity
  8
0
  6
Continuous
 62
     7
370
    15
100
AcDbLine
 10
205.2538100218
 20
259.2406132059
 30
0.0
 11
205.2538100218
 21
253.2406084971
 31
0.0
  0
LINE
  5
7C
330
1F
100
AcDbEntity
  8
0
  6
Continuous
 62
     7
370
    15
100
AcDbLine
 10
225.2538095748
 20
253.2406084971
 30
0.0
 11
225.2538095748
 21
259.2406132059
 31
0.0
  0
ARC
  5
7D
330
1F
100
AcDbEntity
  8
0
  6
Continuous
 62
     7
370
    15
100
AcDbCircle
 10
242.3322234279
 20
343.642669097
 30
0.0
 40
1.90061378564099
100
AcDbArc
 50
217.5167507534
 51
271.0398297611
  0
ARC
  5
7E
330
1F
100
AcDbEntity
  8
0
  6
Continuous
 62
     7
370
    15
100
AcDbCircle
 10
188.232077729
 20
343.5468648011
 30
0.0
 40
1.789807134271804
100
AcDbArc
 50
266.6117171253
 51
323.9200615639
  0
LINE
  5
7F
330
1F
100
AcDbEntity
  8
0
  6
Continuous
 62
     7
370
    15
100
AcDbLine
 10
208.1538097521
 20
253.2406084971
 30
0.0
 11
208.1538097521
 21
250.7406108813
 31
0.0
  0
LINE
  5
80
330
1F
100
AcDbEntity
  8
0
  6
Continuous
 62
     7
370
    15
100
AcDbLine
 10
222.3538098445
 20
250.7406108813
 30
0.0
 11
222.3538098445
 21
253.2406084971
 31
0.0
  0
LINE
  5
81
330
1F
100
AcDbEntity
  8
0
  6
Continuous
 62
     7
370
    15
100
AcDbLine
 10
208.2538095823
 20
242.74060957
 30
0.0
 11
208.2538095823
 21
239.7406109409
 31
0.0
  0
LINE
  5
82
330
1F
100
AcDbEntity
  8
0
  6
Continuous
 62
     7
370
    15
100
AcDbLine
 10
222.2538100144
 20
239.7406109409
 30
0.0
 11
222.2538100144
 21
242.74060957
 31
0.0
  0
LINE
  5
83
330
1F
100
AcDbEntity
  8
0
  6
Continuous
 62
     7
370
    15
100
AcDbLine
 10
210.4278554728
 20
298.040610625
 30
0.0
 11
220.0797641238
 21
298.040610625
 31
0.0
  0
LINE
  5
84
330
1F
100
AcDbEntity
  8
0
  6
Continuous
 62
     7
370
    15
100
AcDbLine
 10
220.0797641238
 20
290.4396102564
 30
0.0
 11
210.4278554728
 21
290.4396102564
 31
0.0
  0
CIRCLE
  5
85
330
1F
100
AcDbEntity
  8
0
  6
Continuous
 62
     7
370
    15
100
AcDbCircle
 10
215.2538097983
 20
328.2406114773
 30
0.0
 40
11.0
  0
ARC
  5
86
330
1F
100
AcDbEntity
  8
0
  6
Continuous
 62
     7
370
    15
100
AcDbCircle
 10
210.2127571932
 20
296.5332689847
 30
0.0
 40
1.507354603988683
100
AcDbArc
 50
89.7623739158
 51
179.7209110973
  0
LINE
  5
87
330
1F
100
AcDbEntity
  8
0
  6
Continuous
 62
     7
370
    15
100
AcDbLine
 10
210.2190087138
 20
298.040610625
 30
0.0
 11
210.4278554728
 21
298.040610625
 31
0.0
  0
LINE
  5
88
330
1F
100
AcDbEntity
  8
0
  6
Continuous
 62
     7
370
    15
100
AcDbLine
 10
220.0797641238
 20
298.040610625
 30
0.0
 11
220.2886108829
 21
298.040610625
 31
0.0
  0
ARC
  5
89
330
1F
100
AcDbEntity
  8
0
  6
Continuous
 62
     7
370
    15
100
AcDbCircle
 10
220.2947312372
 20
296.5331366301
 30
0.0
 40
1.50748641914377
100
AcDbArc
 50
0.2840950236
 51
90.2326199634
  0
LINE
  5
8A
330
1F
100
AcDbEntity
  8
0
  6
Continuous
 62
     7
370
    15
100
AcDbLine
 10
210.4278554728
 20
290.4396102564
 30
0.0
 11
210.2190087138
 21
290.4396102564
 31
0.0
  0
ARC
  5
8B
330
1F
100
AcDbEntity
  8
0
  6
Continuous
 62
     7
370
    15
100
AcDbCircle
 10
210.2128918082
 20
291.9470877127
 30
0.0
 40
1.507489866573795
100
AcDbArc
 50
180.2840843461
 51
270.2324883511
  0
ARC
  5
8C
330
1F
100
AcDbEntity
  8
0
  6
Continuous
 62
     7
370
    15
100
AcDbCircle
 10
220.2948572705
 20
291.946957058
 30
0.0
 40
1.507359743904602
100
AcDbArc
 50
269.7625698359
 51
359.7208574669
  0
LINE
  5
8D
330
1F
100
AcDbEntity
  8
0
  6
Continuous
 62
     7
370
    15
100
AcDbLine
 10
220.2886108829
 20
290.4396102564
 30
0.0
 11
220.0797641238
 21
290.4396102564
 31
0.0
  0
CIRCLE
  5
8E
330
1F
100
AcDbEntity
  8
0
  6
Continuous
 62
     7
370
    15
100
AcDbCircle
 10
215.2538097983
 20
328.2406114773
 30
0.0
 40
14.02618289403387
  0
ARC
  5
8F
330
1F
100
AcDbEntity
  8
0
  6
Continuous
 62
     7
370
    15
100
AcDbCircle
 10
215.2538097983
 20
328.1863650763
 30
0.0
 40
14.30328402547441
100
AcDbArc
 50
58.5517661795
 51
121.4482338205
  0
LINE
  5
90
330
1F
100
AcDbEntity
  8
0
  6
Continuous
 62
     7
370
    15
100
AcDbLine
 10
219.9773684664
 20
288.7406096594
 30
0.0
 11
210.5302511303
 21
288.7406096594
 31
0.0
  0
ARC
  5
91
330
1F
100
AcDbEntity
  8
0
  6
Continuous
 62
     7
370
    15
100
AcDbCircle
 10
236.7630502204
 20
326.6001374599
 30
0.0
 40
1.672476627025418
100
AcDbArc
 50
101.2265225766
 51
120.5391675056
  0
LINE
  5
92
330
1F
100
AcDbEntity
  8
0
  6
Continuous
 62
     7
370
    15
100
AcDbLine
 10
215.2538097983
 20
343.2406111421
 30
0.0
 11
239.2538100069
 21
343.2406111421
 31
0.0
  0
LINE
  5
93
330
1F
100
AcDbEntity
  8
0
  6
Continuous
 62
     7
370
    15
100
AcDbLine
 10
191.2538095897
 20
343.2406111421
 30
0.0
 11
215.2538097983
 21
343.2406111421
 31
0.0
  0
LINE
  5
94
330
1F
100
AcDbEntity
  8
0
  6
Continuous
 62
     7
370
    15
100
AcDbLine
 10
220.0502835734
 20
288.7406096594
 30
0.0
 11
219.9773684664
 21
288.7406096594
 31
0.0
  0
LINE
  5
95
330
1F
100
AcDbEntity
  8
0
  6
Continuous
 62
     7
370
    15
100
AcDbLine
 10
210.5302511303
 20
288.7406096594
 30
0.0
 11
210.4573360233
 21
288.7406096594
 31
0.0
  0
LINE
  5
96
330
1F
100
AcDbEntity
  8
0
  6
Continuous
 62
     7
370
    15
100
AcDbLine
 10
210.4573360233
 20
288.7406096594
 30
0.0
 11
194.7533174938
 21
288.7406096594
 31
0.0
  0
LINE
  5
97
330
1F
100
AcDbEntity
  8
0
  6
Continuous
 62
     7
370
    15
100
AcDbLine
 10
235.7543021029
 20
288.7406096594
 30
0.0
 11
220.0502835734
 21
288.7406096594
 31
0.0
  0
LINE
  5
98
330
1F
100
AcDbEntity
  8
0
  6
Continuous
 62
     7
370
    15
100
AcDbLine
 10
235.2538093513
 20
282.7406124012
 30
0.0
 11
195.2538102454
 21
282.7406124012
 31
0.0
  0
LINE
  5
99
330
1F
100
AcDbEntity
  8
0
  6
Continuous
 62
     7
370
    15
100
AcDbLine
 10
235.2538093513
 20
286.7406130569
 30
0.0
 11
195.2538102454
 21
286.7406130569
 31
0.0
  0
LINE
  5
9A
330
1F
100
AcDbEntity
  8
0
  6
Continuous
 62
     7
370
    15
100
AcDbLine
 10
234.2538091874
 20
281.7406103747
 30
0.0
 11
196.2538104093
 21
281.7406103747
 31
0.0
  0
LINE
  5
9B
330
1F
100
AcDbEntity
  8
0
  6
Continuous
 62
     7
370
    15
100
AcDbLine
 10
232.7538098728
 20
277.740609719
 30
0.0
 11
197.7538097238
 21
277.740609719
 31
0.0
  0
LINE
  5
9C
330
1F
100
AcDbEntity
  8
0
  6
Continuous
 62
     7
370
    15
100
AcDbLine
 10
206.9696144721
 20
263.2406138615
 30
0.0
 11
213.5597803684
 21
263.2406138615
 31
0.0
  0
LINE
  5
9D
330
1F
100
AcDbEntity
  8
0
  6
Continuous
 62
     7
370
    15
100
AcDbLine
 10
206.9696144721
 20
263.2406138615
 30
0.0
 11
206.9696144721
 21
277.740609719
 31
0.0
  0
LINE
  5
9E
330
1F
100
AcDbEntity
  8
0
  6
Continuous
 62
     7
370
    15
100
AcDbLine
 10
220.1499462647
 20
263.2406138615
 30
0.0
 11
220.1499462647
 21
277.740609719
 31
0.0
  0
LINE
  5
9F
330
1F
100
AcDbEntity
  8
0
  6
Continuous
 62
     7
370
    15
100
AcDbLine
 10
220.1499462647
 20
263.2406138615
 30
0.0
 11
213.5597803684
 21
263.2406138615
 31
0.0
  0
LINE
  5
A0
330
1F
100
AcDbEntity
  8
0
  6
Continuous
 62
     7
370
    15
100
AcDbLine
 10
225.3060670158
 20
263.2406138615
 30
0.0
 11
220.1499462647
 21
263.2406138615
 31
0.0
  0
LINE
  5
A1
330
1F
100
AcDbEntity
  8
0
  6
Continuous
 62
     7
370
    15
100
AcDbLine
 10
230.4621882325
 20
263.2406138615
 30
0.0
 11
230.4621882325
 21
277.740609719
 31
0.0
  0
LINE
  5
A2
330
1F
100
AcDbEntity
  8
0
  6
Continuous
 62
     7
370
    15
100
AcDbLine
 10
225.3060670158
 20
263.2406138615
 30
0.0
 11
230.4621882325
 21
263.2406138615
 31
0.0
  0
LINE
  5
A3
330
1F
100
AcDbEntity
  8
0
  6
Continuous
 62
     7
370
    15
100
AcDbLine
 10
231.2538105583
 20
261.7406108217
 30
0.0
 11
199.2538090384
 21
261.7406108217
 31
0.0
  0
LWPOLYLINE
  5
A4
330
1F
100
AcDbEntity
  8
0
  6
Continuous
 62
     7
370
    15
100
AcDbPolyline
 90
        9
 70
   128
 43
0.0
 10
183.4011323338
 20
310.8603347824
 10
183.4067537969
 20
310.8616032438
 10
183.4234095698
 20
310.8653601991
 10
183.4504514521
 20
310.8714603619
 10
183.4868475383
 20
310.8796709017
 10
183.531193394
 20
310.8896733062
 10
183.5817902869
 20
310.901085733
 10
183.63668989
 20
310.913468598
 10
183.6937836891
 20
310.9263469265
  0
LINE
  5
A5
330
1F
100
AcDbEntity
  8
0
  6
Continuous
 62
     7
370
    15
100
AcDbLine
 10
183.4011323338
 20
310.8603347824
 30
0.0
 11
183.1434204763
 21
312.0332256691
 31
0.0
  0
LWPOLYLINE
  5
A6
330
1F
100
AcDbEntity
  8
0
  6
Continuous
 62
     7
370
    15
100
AcDbPolyline
 90
        7
 70
   128
 43
0.0
 10
183.1434204763
 20
312.0332256691
 10
183.1433534211
 20
312.037073894
 10
183.1431075519
 20
312.051099612
 10
183.1424481755
 20
312.0885648565
 10
183.1398479229
 20
312.2369115041
 10
183.1272340899
 20
312.9559428231
 10
183.1257327979
 20
313.0415052907
  0
LWPOLYLINE
  5
A7
330
1F
100
AcDbEntity
  8
0
  6
Continuous
 62
     7
370
    15
100
AcDbPolyline
 90
        4
 70
   128
 43
0.0
 10
183.2512043005
 20
312.9406113909
 10
183.2086428588
 20
312.9748365642
 10
183.1666364854
 20
313.0086147027
 10
183.1257327979
 20
313.0415052907
  0
ARC
  5
A8
330
1F
100
AcDbEntity
  8
0
  6
Continuous
 62
     7
370
    15
100
AcDbCircle
 10
161.7412613897
 20
315.7916091578
 30
0.0
 40
21.72965393229229
100
AcDbArc
 50
346.8831608587
 51
350.0399751251
  0
LWPOLYLINE
  5
A9
330
1F
100
AcDbEntity
  8
0
  6
Continuous
 62
     7
370
    15
100
AcDbPolyline
 90
        9
 70
   128
 43
0.0
 10
182.9039737171
 20
310.8603347824
 10
182.898352254
 20
310.8616255955
 10
182.8817151075
 20
310.8654440181
 10
182.854695577
 20
310.8716447638
 10
182.8183292931
 20
310.8799894141
 10
182.7740206903
 20
310.8901575939
 10
182.7234685009
 20
310.9017600106
 10
182.6686173266
 20
310.9143477665
 10
182.6115719562
 20
310.9274384366
  0
LWPOLYLINE
  5
AA
330
1F
100
AcDbEntity
  8
0
  6
Continuous
 62
     7
370
    15
100
AcDbPolyline
 90
        3
 70
   128
 43
0.0
 10
183.1257327979
 20
313.0415052907
 10
183.0073579734
 20
312.9428474964
 10
183.0046757644
 20
312.9406113909
  0
LWPOLYLINE
  5
AB
330
1F
100
AcDbEntity
  8
0
  6
Continuous
 62
     7
370
    15
100
AcDbPolyline
 90
        3
 70
   128
 43
0.0
 10
180.5147625094
 20
303.445056899
 10
180.4067775195
 20
303.5383344428
 10
180.404140014
 20
303.5406105952
  0
LWPOLYLINE
  5
AC
330
1F
100
AcDbEntity
  8
0
  6
Continuous
 62
     7
370
    15
100
AcDbPolyline
 90
        9
 70
   128
 43
0.0
 10
179.9102335757
 20
306.628984286
 10
179.9677595085
 20
306.6397559629
 10
180.0230763441
 20
306.6501141326
 10
180.0740569418
 20
306.659660189
 10
180.118741799
 20
306.668027191
 10
180.1554135567
 20
306.674892901
 10
180.1826640552
 20
306.6799965487
 10
180.1994427627
 20
306.6831388311
 10
180.2051089292
 20
306.6841986762
  0
ARC
  5
AD
330
1F
100
AcDbEntity
  8
0
  6
Continuous
 62
     7
370
    15
100
AcDbCircle
 10
138.180504906
 20
298.6289681171
 30
0.0
 40
42.78964924683527
100
AcDbArc
 50
8.073845881
 51
10.8507816134
  0
LWPOLYLINE
  5
AE
330
1F
100
AcDbEntity
  8
0
  6
Continuous
 62
     7
370
    15
100
AcDbPolyline
 90
        7
 70
   128
 43
0.0
 10
180.546017695
 20
304.6387442188
 10
180.5459282881
 20
304.6353337155
 10
180.5456041878
 20
304.6229806529
 10
180.5447361952
 20
304.5897808658
 10
180.5412157958
 20
304.4553519027
 10
180.5232934242
 20
303.7708801018
 10
180.5147625094
 20
303.445056899
  0
LWPOLYLINE
  5
AF
330
1F
100
AcDbEntity
  8
0
  6
Continuous
 62
     7
370
    15
100
AcDbPolyline
 90
       10
 70
   128
 43
0.0
 10
181.2105685061
 20
306.4237040268
 10
181.1596549636
 20
306.4347588257
 10
181.1102874165
 20
306.4454764859
 10
181.063967157
 20
306.4555347697
 10
181.0221023446
 20
306.4646244781
 10
180.9859633034
 20
306.4724718021
 10
180.9566452688
 20
306.4788364606
 10
180.9350460356
 20
306.4835247384
 10
180.9218212551
 20
306.4863969372
 10
180.9173658079
 20
306.4873655127
  0
LWPOLYLINE
  5
B0
330
1F
100
AcDbEntity
  8
0
  6
Continuous
 62
     7
370
    15
100
AcDbPolyline
 90
        4
 70
   128
 43
0.0
 10
180.6314199751
 20
303.5406105952
 10
180.5919207221
 20
303.5082583116
 10
180.5528834051
 20
303.4762822823
 10
180.5147625094
 20
303.445056899
  0
LINE
  5
B1
330
1F
100
AcDbEntity
  8
0
  6
Continuous
 62
     7
370
    15
100
AcDbLine
 10
180.546017695
 20
304.6387442188
 30
0.0
 11
180.9173658079
 21
306.4873655127
 31
0.0
  0
LINE
  5
B2
330
1F
100
AcDbEntity
  8
0
  6
Continuous
 62
     7
370
    15
100
AcDbLine
 10
236.4374383872
 20
328.2406114773
 30
0.0
 11
237.5024057513
 21
328.2406114773
 31
0.0
  0
LINE
  5
B3
330
1F
100
AcDbEntity
  8
0
  6
Continuous
 62
     7
370
    15
100
AcDbLine
 10
194.7533174938
 20
288.7406096594
 30
0.0
 11
193.0052138453
 21
288.7406096594
 31
0.0
  0
LINE
  5
B4
330
1F
100
AcDbEntity
  8
0
  6
Continuous
 62
     7
370
    15
100
AcDbLine
 10
237.5024057513
 20
288.7406096594
 30
0.0
 11
235.7543021029
 21
288.7406096594
 31
0.0
  0
LWPOLYLINE
  5
B5
330
1F
100
AcDbEntity
  8
0
  6
Continuous
 62
     7
370
    15
100
AcDbPolyline
 90
        4
 70
   128
 43
0.0
 10
185.8689453041
 20
303.5406105952
 10
185.8662928974
 20
303.538349344
 10
185.7288296854
 20
303.4211312221
 10
185.7234522289
 20
303.4165453897
  0
LWPOLYLINE
  5
B6
330
1F
100
AcDbEntity
  8
0
  6
Continuous
 62
     7
370
    15
100
AcDbPolyline
 90
        7
 70
   128
 43
0.0
 10
185.7234522289
 20
303.4165453897
 10
185.7298355138
 20
303.8656589375
 10
185.7385303414
 20
304.4773981707
 10
185.7402216231
 20
304.5964100198
 10
185.7406295424
 20
304.6251394586
 10
185.7407804167
 20
304.6357751624
 10
185.7408232575
 20
304.6387442188
  0
ARC
  5
B7
330
1F
100
AcDbEntity
  8
0
  6
Continuous
 62
     7
370
    15
100
AcDbCircle
 10
245.0619792217
 20
295.2465992104
 30
0.0
 40
60.06006937042102
100
AcDbArc
 50
168.8955398158
 51
171.0032064811
  0
LWPOLYLINE
  5
B8
330
1F
100
AcDbEntity
  8
0
  6
Continuous
 62
     7
370
    15
100
AcDbPolyline
 90
        9
 70
   128
 43
0.0
 10
186.4210016614
 20
306.7575440542
 10
186.3635222947
 20
306.7685727762
 10
186.3082520252
 20
306.7791749524
 10
186.257316131
 20
306.7889482514
 10
186.2126685267
 20
306.7975145565
 10
186.176028434
 20
306.8045423166
 10
186.1488021499
 20
306.8097670363
 10
186.1320364809
 20
306.8129838245
 10
186.1263740396
 20
306.8140697466
  0
ARC
  5
B9
330
1F
100
AcDbEntity
  8
0
  6
Continuous
 62
     7
370
    15
100
AcDbCircle
 10
151.8272472849
 20
300.3640662319
 30
0.0
 40
34.18191783882256
100
AcDbArc
 50
7.184030386
 51
13.2175587406
  0
LWPOLYLINE
  5
BA
330
1F
100
AcDbEntity
  8
0
  6
Continuous
 62
     7
370
    15
100
AcDbPolyline
 90
        3
 70
   128
 43
0.0
 10
185.7234522289
 20
303.4165453897
 10
185.5846926158
 20
303.538317679
 10
185.582077462
 20
303.5406105952
  0
LWPOLYLINE
  5
BB
330
1F
100
AcDbEntity
  8
0
  6
Continuous
 62
     7
370
    15
100
AcDbPolyline
 90
        9
 70
   128
 43
0.0
 10
184.8112869596
 20
308.1124470369
 10
184.8683230167
 20
308.12557496
 10
184.9231686031
 20
308.1381962435
 10
184.9737133419
 20
308.1498303251
 10
185.0180144941
 20
308.1600264446
 10
185.0543733275
 20
308.1683934466
 10
185.0813909953
 20
308.1746128188
 10
185.0980262792
 20
308.1784405546
 10
185.1036477422
 20
308.179735093
  0
LINE
  5
BC
330
1F
100
AcDbEntity
  8
0
  6
Continuous
 62
     7
370
    15
100
AcDbLine
 10
180.0123326069
 20
303.2406111048
 30
0.0
 11
177.9242626911
 21
313.2406118126
 31
0.0
  0
LWPOLYLINE
  5
BD
330
1F
100
AcDbEntity
  8
0
  6
Continuous
 62
     7
370
    15
100
AcDbPolyline
 90
        9
 70
   128
 43
0.0
 10
178.2933756297
 20
312.9406113909
 10
178.2213657683
 20
312.9991384955
 10
178.1521237975
 20
313.055416456
 10
178.0883095747
 20
313.1072827415
 10
178.0323743409
 20
313.1527433903
 10
177.9864713138
 20
313.1900521727
 10
177.9523625558
 20
313.2177757831
 10
177.9313556438
 20
313.2348469259
 10
177.9242626911
 20
313.2406118126
  0
LWPOLYLINE
  5
BE
330
1F
100
AcDbEntity
  8
0
  6
Continuous
 62
     7
370
    15
100
AcDbPolyline
 90
       10
 70
   128
 43
0.0
 10
180.0123326069
 20
303.2406111048
 10
180.0160355454
 20
303.2451689975
 10
180.0270363277
 20
303.2587029771
 10
180.0449996775
 20
303.2808032618
 10
180.0693779772
 20
303.3107974367
 10
180.0994298941
 20
303.3477746682
 10
180.1342464572
 20
303.3906117813
 10
180.1727659589
 20
303.4380049245
 10
180.213818658
 20
303.4885161357
 10
180.2561603075
 20
303.5406105952
  0
LINE
  5
BF
330
1F
100
AcDbEntity
  8
0
  6
Continuous
 62
     7
370
    15
100
AcDbLine
 10
177.9242626911
 20
313.2406118126
 30
0.0
 11
178.9774283355
 21
313.2406118126
 31
0.0
  0
LWPOLYLINE
  5
C0
330
1F
100
AcDbEntity
  8
0
  6
Continuous
 62
     7
370
    15
100
AcDbPolyline
 90
        9
 70
   128
 43
0.0
 10
178.7283889538
 20
312.9406113909
 10
178.7769741898
 20
312.9991384955
 10
178.8236930555
 20
313.055416456
 10
178.8667499607
 20
313.1072827415
 10
178.9044871515
 20
313.1527433903
 10
178.935459215
 20
313.1900521727
 10
178.9584740585
 20
313.2177757831
 10
178.9726450628
 20
313.2348469259
 10
178.9774283355
 20
313.2406118126
  0
LINE
  5
C1
330
1F
100
AcDbEntity
  8
0
  6
Continuous
 62
     7
370
    15
100
AcDbLine
 10
178.9774283355
 20
313.2406118126
 30
0.0
 11
180.2051089292
 21
306.6841986762
 31
0.0
  0
LINE
  5
C2
330
1F
100
AcDbEntity
  8
0
  6
Continuous
 62
     7
370
    15
100
AcDbLine
 10
245.1629008686
 20
303.2406111048
 30
0.0
 11
245.1629008686
 21
313.2406118126
 31
0.0
  0
LWPOLYLINE
  5
C3
330
1F
100
AcDbEntity
  8
0
  6
Continuous
 62
     7
370
    15
100
AcDbPolyline
 90
        9
 70
   128
 43
0.0
 10
245.462900359
 20
312.9406113909
 10
245.4043741858
 20
312.9991384955
 10
245.3480962252
 20
313.055416456
 10
245.2962290084
 20
313.1072827415
 10
245.2507692909
 20
313.1527433903
 10
245.2134605086
 20
313.1900521727
 10
245.1857368981
 20
313.2177757831
 10
245.1686657554
 20
313.2348469259
 10
245.1629008686
 20
313.2406118126
  0
LINE
  5
C4
330
1F
100
AcDbEntity
  8
0
  6
Continuous
 62
     7
370
    15
100
AcDbLine
 10
245.1629008686
 20
303.2406111048
 30
0.0
 11
245.462900359
 21
303.5406105952
 31
0.0
  0
LWPOLYLINE
  5
C5
330
1F
100
AcDbEntity
  8
0
  6
Continuous
 62
     7
370
    15
100
AcDbPolyline
 90
        9
 70
   128
 43
0.0
 10
250.5815237349
 20
312.9406113909
 10
250.5544893032
 20
312.9991384955
 10
250.5284867769
 20
313.055416456
 10
250.504529435
 20
313.1072827415
 10
250.4835262483
 20
313.1527433903
 10
250.4662893301
 20
313.1900521727
 10
250.453481782
 20
313.2177757831
 10
250.4455953425
 20
313.2348469259
 10
250.4429317599
 20
313.2406118126
  0
LINE
  5
C6
330
1F
100
AcDbEntity
  8
0
  6
Continuous
 62
     7
370
    15
100
AcDbLine
 10
250.4429317599
 20
313.2406118126
 30
0.0
 11
251.7659835106
 21
313.2406118126
 31
0.0
  0
LWPOLYLINE
  5
C7
330
1F
100
AcDbEntity
  8
0
  6
Continuous
 62
     7
370
    15
100
AcDbPolyline
 90
        9
 70
   128
 43
0.0
 10
251.1165499276
 20
312.9406113909
 10
251.2432470506
 20
312.9991384955
 10
251.3650752192
 20
313.055416456
 10
251.4773554688
 20
313.1072827415
 10
251.5757701879
 20
313.1527433903
 10
251.6565344816
 20
313.1900521727
 10
251.7165489083
 20
313.2177757831
 10
251.7535075134
 20
313.2348469259
 10
251.7659835106
 20
313.2406118126
  0
LWPOLYLINE
  5
C8
330
1F
100
AcDbEntity
  8
0
  6
Continuous
 62
     7
370
    15
100
AcDbPolyline
 90
       10
 70
   128
 43
0.0
 10
245.9018624907
 20
307.4436866479
 10
245.9539569503
 20
307.5852420913
 10
246.0044681614
 20
307.722496687
 10
246.0518613046
 20
307.8512799726
 10
246.0946984177
 20
307.9676785307
 10
246.1316756493
 20
308.0681570606
 10
246.1616698241
 20
308.1496608244
 10
246.1837701088
 20
308.209712504
 10
246.1973040884
 20
308.2464904325
 10
246.2018619811
 20
308.2588751601
  0
LINE
  5
C9
330
1F
100
AcDbEntity
  8
0
  6
Continuous
 62
     7
370
    15
100
AcDbLine
 10
246.2018619811
 20
308.2588751601
 30
0.0
 11
250.4429317599
 21
313.2406118126
 31
0.0
  0
LINE
  5
CA
330
1F
100
AcDbEntity
  8
0
  6
Continuous
 62
     7
370
    15
100
AcDbLine
 10
251.7659835106
 20
313.2406118126
 30
0.0
 11
248.3122519737
 21
309.1842000173
 31
0.0
  0
LWPOLYLINE
  5
CB
330
1F
100
AcDbEntity
  8
0
  6
Continuous
 62
     7
370
    15
100
AcDbPolyline
 90
       10
 70
   128
 43
0.0
 10
247.9434556847
 20
309.2138123499
 10
248.0074971503
 20
309.2086695866
 10
248.069590289
 20
309.2036832856
 10
248.1278538292
 20
309.1990061836
 10
248.1805108076
 20
309.1947761165
 10
248.2259705251
 20
309.1911271946
 10
248.2628434485
 20
309.1881655888
 10
248.2900119906
 20
309.1859844313
 10
248.3066491371
 20
309.1846489148
 10
248.3122519737
 20
309.1842000173
  0
LINE
  5
CC
330
1F
100
AcDbEntity
  8
0
  6
Continuous
 62
     7
370
    15
100
AcDbLine
 10
245.1629008686
 20
313.2406118126
 30
0.0
 11
246.2018619811
 21
313.2406118126
 31
0.0
  0
LWPOLYLINE
  5
CD
330
1F
100
AcDbEntity
  8
0
  6
Continuous
 62
     7
370
    15
100
AcDbPolyline
 90
       10
 70
   128
 43
0.0
 10
245.9018624907
 20
312.9406113909
 10
245.9539569503
 20
312.9927058504
 10
246.0044681614
 20
313.0432170616
 10
246.0518613046
 20
313.0906111361
 10
246.0946984177
 20
313.1334473179
 10
246.1316756493
 20
313.1704245494
 10
246.1616698241
 20
313.2004187243
 10
246.1837701088
 20
313.222519009
 10
246.1973040884
 20
313.2360539199
 10
246.2018619811
 20
313.2406118126
  0
LINE
  5
CE
330
1F
100
AcDbEntity
  8
0
  6
Continuous
 62
     7
370
    15
100
AcDbLine
 10
246.2018619811
 20
313.2406118126
 30
0.0
 11
246.2018619811
 21
308.2588751601
 31
0.0
  0
LWPOLYLINE
  5
CF
330
1F
100
AcDbEntity
  8
0
  6
Continuous
 62
     7
370
    15
100
AcDbPolyline
 90
       10
 70
   128
 43
0.0
 10
181.1527557259
 20
303.2406111048
 10
181.1491272932
 20
303.2451689975
 10
181.1383500284
 20
303.2587029771
 10
181.120751757
 20
303.2808032618
 10
181.0968689209
 20
303.3107974367
 10
181.0674279517
 20
303.3477746682
 10
181.0333191937
 20
303.3906117813
 10
180.995582003
 20
303.4380049245
 10
180.9553600436
 20
303.4885161357
 10
180.9138826614
 20
303.5406105952
  0
LINE
  5
D0
330
1F
100
AcDbEntity
  8
0
  6
Continuous
 62
     7
370
    15
100
AcDbLine
 10
181.1527557259
 20
303.2406111048
 30
0.0
 11
180.0123326069
 21
303.2406111048
 31
0.0
  0
LINE
  5
D1
330
1F
100
AcDbEntity
  8
0
  6
Continuous
 62
     7
370
    15
100
AcDbLine
 10
247.614199627
 20
308.3643940078
 30
0.0
 11
246.2018619811
 21
306.7065206157
 31
0.0
  0
LWPOLYLINE
  5
D2
330
1F
100
AcDbEntity
  8
0
  6
Continuous
 62
     7
370
    15
100
AcDbPolyline
 90
        9
 70
   128
 43
0.0
 10
246.2018619811
 20
306.7065206157
 10
246.1960970944
 20
306.7086421685
 10
246.1790259516
 20
306.7149285959
 10
246.1513023412
 20
306.7251358913
 10
246.1139935588
 20
306.7388728993
 10
246.0685319787
 20
306.7556124912
 10
246.0166666245
 20
306.7747101919
 10
245.960388664
 20
306.7954321192
 10
245.9018624907
 20
306.8169810609
  0
LWPOLYLINE
  5
D3
330
1F
100
AcDbEntity
  8
0
  6
Continuous
 62
     7
370
    15
100
AcDbPolyline
 90
        9
 70
   128
 43
0.0
 10
247.614199627
 20
308.3643940078
 10
247.6149856633
 20
308.3742082851
 10
247.6173214203
 20
308.403273
 10
247.6211100405
 20
308.450472428
 10
247.6262099629
 20
308.5139904903
 10
247.6324237471
 20
308.5913889842
 10
247.6395166999
 20
308.6796914028
 10
247.6472094243
 20
308.7755058692
 10
247.6552076226
 20
308.8751480715
  0
LINE
  5
D4
330
1F
100
AcDbEntity
  8
0
  6
Continuous
 62
     7
370
    15
100
AcDbLine
 10
248.3122519737
 20
309.1842000173
 30
0.0
 11
251.9161462372
 21
303.2406111048
 31
0.0
  0
LWPOLYLINE
  5
D5
330
1F
100
AcDbEntity
  8
0
  6
Continuous
 62
     7
370
    15
100
AcDbPolyline
 90
       10
 70
   128
 43
0.0
 10
251.9161462372
 20
303.2406111048
 10
251.9080549067
 20
303.2451689975
 10
251.8840193337
 20
303.2587029771
 10
251.8447734004
 20
303.2808032618
 10
251.7915091997
 20
303.3107974367
 10
251.7258435076
 20
303.3477746682
 10
251.6497730797
 20
303.3906117813
 10
251.5656113213
 20
303.4380049245
 10
251.4759100562
 20
303.4885161357
 10
251.3833999222
 20
303.5406105952
  0
LINE
  5
D6
330
1F
100
AcDbEntity
  8
0
  6
Continuous
 62
     7
370
    15
100
AcDbLine
 10
250.7229655569
 20
303.2406111048
 30
0.0
 11
247.614199627
 21
308.3643940078
 31
0.0
  0
LWPOLYLINE
  5
D7
330
1F
100
AcDbEntity
  8
0
  6
Continuous
 62
     7
370
    15
100
AcDbPolyline
 90
       10
 70
   128
 43
0.0
 10
250.7229655569
 20
303.2406111048
 10
250.725532282
 20
303.2451689975
 10
250.7331505006
 20
303.2587029771
 10
250.7455929702
 20
303.2808032618
 10
250.7624759858
 20
303.3107974367
 10
250.783292908
 20
303.3477746682
 10
250.8074067121
 20
303.3906117813
 10
250.8340872413
 20
303.4380049245
 10
250.8625223821
 20
303.4885161357
 10
250.8918478673
 20
303.5406105952
  0
LINE
  5
D8
330
1F
100
AcDbEntity
  8
0
  6
Continuous
 62
     7
370
    15
100
AcDbLine
 10
246.2018619811
 20
306.7065206157
 30
0.0
 11
246.2018619811
 21
303.2406111048
 31
0.0
  0
LINE
  5
D9
330
1F
100
AcDbEntity
  8
0
  6
Continuous
 62
     7
370
    15
100
AcDbLine
 10
246.2018619811
 20
303.2406111048
 30
0.0
 11
245.9018624907
 21
303.5406105952
 31
0.0
  0
LINE
  5
DA
330
1F
100
AcDbEntity
  8
0
  6
Continuous
 62
     7
370
    15
100
AcDbLine
 10
251.9161462372
 20
303.2406111048
 30
0.0
 11
250.7229655569
 21
303.2406111048
 31
0.0
  0
LINE
  5
DB
330
1F
100
AcDbEntity
  8
0
  6
Continuous
 62
     7
370
    15
100
AcDbLine
 10
246.2018619811
 20
303.2406111048
 30
0.0
 11
245.1629008686
 21
303.2406111048
 31
0.0
  0
LINE
  5
DC
330
1F
100
AcDbEntity
  8
0
  6
Continuous
 62
     7
370
    15
100
AcDbLine
 10
182.9039737171
 20
310.8603347824
 30
0.0
 11
181.1527557259
 21
303.2406111048
 31
0.0
  0
LINE
  5
DD
330
1F
100
AcDbEntity
  8
0
  6
Continuous
 62
     7
370
    15
100
AcDbLine
 10
180.9173658079
 20
306.4873655127
 30
0.0
 11
182.4940688496
 21
313.2406118126
 31
0.0
  0
LWPOLYLINE
  5
DE
330
1F
100
AcDbEntity
  8
0
  6
Continuous
 62
     7
370
    15
100
AcDbPolyline
 90
        9
 70
   128
 43
0.0
 10
182.7320962733
 20
312.9406113909
 10
182.6856605297
 20
312.9991384955
 10
182.6410054749
 20
313.055416456
 10
182.5998559183
 20
313.1072827415
 10
182.5637839323
 20
313.1527433903
 10
182.5341827756
 20
313.1900521727
 10
182.5121886617
 20
313.2177757831
 10
182.4986435061
 20
313.2348469259
 10
182.4940688496
 20
313.2406118126
  0
LINE
  5
DF
330
1F
100
AcDbEntity
  8
0
  6
Continuous
 62
     7
370
    15
100
AcDbLine
 10
182.4940688496
 20
313.2406118126
 30
0.0
 11
183.9388742631
 21
313.2406118126
 31
0.0
  0
LWPOLYLINE
  5
E0
330
1F
100
AcDbEntity
  8
0
  6
Continuous
 62
     7
370
    15
100
AcDbPolyline
 90
        9
 70
   128
 43
0.0
 10
183.7000757044
 20
312.9406113909
 10
183.7466641849
 20
312.9991384955
 10
183.7914608007
 20
313.055416456
 10
183.8327444678
 20
313.1072827415
 10
183.8689319378
 20
313.1527433903
 10
183.898629952
 20
313.1900521727
 10
183.9206985718
 20
313.2177757831
 10
183.9342847055
 20
313.2348469259
 10
183.9388742631
 20
313.2406118126
  0
LINE
  5
E1
330
1F
100
AcDbEntity
  8
0
  6
Continuous
 62
     7
370
    15
100
AcDbLine
 10
185.1198806947
 20
303.2406111048
 30
0.0
 11
183.4011323338
 21
310.8603347824
 31
0.0
  0
LWPOLYLINE
  5
E2
330
1F
100
AcDbEntity
  8
0
  6
Continuous
 62
     7
370
    15
100
AcDbPolyline
 90
       10
 70
   128
 43
0.0
 10
185.1198806947
 20
303.2406111048
 10
185.1235258913
 20
303.2451689975
 10
185.1343478596
 20
303.2587029771
 10
185.1520169115
 20
303.2808032618
 10
185.1760003304
 20
303.3107974367
 10
185.2055642342
 20
303.3477746682
 10
185.2398145532
 20
303.3906117813
 10
185.2777100688
 20
303.4380049245
 10
185.3180959409
 20
303.4885161357
 10
185.3597484117
 20
303.5406105952
  0
LINE
  5
E3
330
1F
100
AcDbEntity
  8
0
  6
Continuous
 62
     7
370
    15
100
AcDbLine
 10
183.9388742631
 20
313.2406118126
 30
0.0
 11
185.1036477422
 21
308.179735093
 31
0.0
  0
LWPOLYLINE
  5
E4
330
1F
100
AcDbEntity
  8
0
  6
Continuous
 62
     7
370
    15
100
AcDbPolyline
 90
       10
 70
   128
 43
0.0
 10
186.2684193587
 20
303.2406111048
 10
186.2647350466
 20
303.2451689975
 10
186.253793869
 20
303.2587029771
 10
186.2359273767
 20
303.2808032618
 10
186.2116794622
 20
303.3107974367
 10
186.1817877328
 20
303.3477746682
 10
186.1471574342
 20
303.3906117813
 10
186.1088446861
 20
303.4380049245
 10
186.0680099165
 20
303.4885161357
 10
186.0258955097
 20
303.5406105952
  0
LINE
  5
E5
330
1F
100
AcDbEntity
  8
0
  6
Continuous
 62
     7
370
    15
100
AcDbLine
 10
186.2684193587
 20
303.2406111048
 30
0.0
 11
185.1198806947
 21
303.2406111048
 31
0.0
  0
LINE
  5
E6
330
1F
100
AcDbEntity
  8
0
  6
Continuous
 62
     7
370
    15
100
AcDbLine
 10
188.4112771189
 20
313.2406118126
 30
0.0
 11
186.2684193587
 21
303.2406111048
 31
0.0
  0
LWPOLYLINE
  5
E7
330
1F
100
AcDbEntity
  8
0
  6
Continuous
 62
     7
370
    15
100
AcDbPolyline
 90
        9
 70
   128
 43
0.0
 10
188.4112771189
 20
313.2406118126
 10
188.4041469133
 20
313.2348469259
 10
188.3830301052
 20
313.2177757831
 10
188.3487369454
 20
313.1900521727
 10
188.3025861865
 20
313.1527433903
 10
188.2463510668
 20
313.1072827415
 10
188.1821941173
 20
313.055416456
 10
188.1125777548
 20
312.9991384955
 10
188.0401804632
 20
312.9406113909
  0
LINE
  5
E8
330
1F
100
AcDbEntity
  8
0
  6
Continuous
 62
     7
370
    15
100
AcDbLine
 10
186.1263740396
 20
306.8140697466
 30
0.0
 11
187.3581114745
 21
313.2406118126
 31
0.0
  0
LWPOLYLINE
  5
E9
330
1F
100
AcDbEntity
  8
0
  6
Continuous
 62
     7
370
    15
100
AcDbPolyline
 90
        9
 70
   128
 43
0.0
 10
187.3581114745
 20
313.2406118126
 10
187.3628761208
 20
313.2348469259
 10
187.3769875204
 20
313.2177757831
 10
187.3998999184
 20
313.1900521727
 10
187.4307378715
 20
313.1527433903
 10
187.4683130121
 20
313.1072827415
 10
187.5111817902
 20
313.055416456
 10
187.5576976275
 20
312.9991384955
 10
187.6060723847
 20
312.9406113909
  0
LINE
  5
EA
330
1F
100
AcDbEntity
  8
0
  6
Continuous
 62
     7
370
    15
100
AcDbLine
 10
187.3581114745
 20
313.2406118126
 30
0.0
 11
188.4112771189
 21
313.2406118126
 31
0.0
  0
LWPOLYLINE
  5
EB
330
1F
100
AcDbEntity
  8
0
  6
Continuous
 62
     7
370
    15
100
AcDbPolyline
 90
        9
 70
   128
 43
0.0
 10
183.0988920813
 20
310.8155381666
 10
183.060864318
 20
310.8242776976
 10
183.0242968684
 20
310.8326819526
 10
182.9905978924
 20
310.8404268311
 10
182.9610637909
 20
310.84721431
 10
182.9368233269
 20
310.8527854817
 10
182.918807823
 20
310.8569261418
 10
182.9077176338
 20
310.8594742404
 10
182.9039737171
 20
310.8603347824
  0
ARC
  5
EC
330
1F
100
AcDbEntity
  8
0
  6
Continuous
 62
     7
370
    15
100
AcDbCircle
 10
125.2221133774
 20
310.9469190187
 30
0.0
 40
57.93149297387562
100
AcDbArc
 50
0.1072614409
 51
1.0744489955
  0
LWPOLYLINE
  5
ED
330
1F
100
AcDbEntity
  8
0
  6
Continuous
 62
     7
370
    15
100
AcDbPolyline
 90
        9
 70
   128
 43
0.0
 10
183.2057892865
 20
310.8174138503
 10
183.2438952809
 20
310.8257883029
 10
183.2805409616
 20
310.8338386552
 10
183.3143144434
 20
310.8412594335
 10
183.3439156001
 20
310.8477637903
 10
183.3682082182
 20
310.8531021313
 10
183.3862572497
 20
310.8570677029
 10
183.3973735159
 20
310.8595096306
 10
183.4011323338
 20
310.8603347824
  0
LWPOLYLINE
  5
EE
330
1F
100
AcDbEntity
  8
0
  6
Continuous
 62
     7
370
    15
100
AcDbPolyline
 90
        9
 70
   128
 43
0.0
 10
180.2051089292
 20
306.6841986762
 10
180.2088863736
 20
306.6849046187
 10
180.2200734204
 20
306.6869926439
 10
180.2382416612
 20
306.6903826581
 10
180.2626944667
 20
306.6949442761
 10
180.2924856132
 20
306.7005042718
 10
180.3264751619
 20
306.7068484412
 10
180.3633592611
 20
306.713730915
 10
180.40171485
 20
306.7208871977
  0
ARC
  5
EF
330
1F
100
AcDbEntity
  8
0
  6
Continuous
 62
     7
370
    15
100
AcDbCircle
 10
59.5038617872
 20
307.924861871
 30
0.0
 40
121.0867543377043
100
AcDbArc
 50
358.4448853005
 51
358.9859297264
  0
LWPOLYLINE
  5
F0
330
1F
100
AcDbEntity
  8
0
  6
Continuous
 62
     7
370
    15
100
AcDbPolyline
 90
        9
 70
   128
 43
0.0
 10
180.9173658079
 20
306.4873655127
 10
180.9136107152
 20
306.4881794886
 10
180.9024869984
 20
306.4905953394
 10
180.8844230657
 20
306.4945180701
 10
180.8601118213
 20
306.4997949438
 10
180.8304920381
 20
306.5062266575
 10
180.7966999298
 20
306.5135636167
 10
180.7600281721
 20
306.5215264247
 10
180.7218961006
 20
306.5298058824
  0
LWPOLYLINE
  5
F1
330
1F
100
AcDbEntity
  8
0
  6
Continuous
 62
     7
370
    15
100
AcDbPolyline
 90
        9
 70
   128
 43
0.0
 10
185.929950658
 20
306.8517175303
 10
185.9682708567
 20
306.8443712579
 10
186.005117703
 20
306.8373099701
 10
186.0390774494
 20
306.830801888
 10
186.0688425189
 20
306.8250966059
 10
186.09327111
 20
306.820413916
 10
186.111422587
 20
306.8169344948
 10
186.1226003205
 20
306.8147924529
 10
186.1263740396
 20
306.8140697466
  0
LWPOLYLINE
  5
F2
330
1F
100
AcDbEntity
  8
0
  6
Continuous
 62
     7
370
    15
100
AcDbPolyline
 90
        8
 70
   128
 43
0.0
 10
185.756504867
 20
305.9300881611
 10
185.7564694768
 20
305.9252229319
 10
185.7480838483
 20
305.1549576954
 10
185.7423524892
 20
304.7464162843
 10
185.7412237262
 20
304.666972606
 10
185.74095178
 20
304.6478153007
 10
185.7408511972
 20
304.6407242106
 10
185.7408232575
 20
304.6387442188
  0
LWPOLYLINE
  5
F3
330
1F
100
AcDbEntity
  8
0
  6
Continuous
 62
     7
370
    15
100
AcDbPolyline
 90
        9
 70
   128
 43
0.0
 10
185.1036477422
 20
308.179735093
 10
185.1073972469
 20
308.1805807339
 10
185.118498612
 20
308.1830841289
 10
185.1365290171
 20
308.1871484207
 10
185.1607918328
 20
308.1926190095
 10
185.1903575992
 20
308.1992854164
 10
185.2240882402
 20
308.2068905966
 10
185.2606892174
 20
308.2151439772
 10
185.2987505084
 20
308.2237270461
  0
LINE
  5
F4
330
1F
100
AcDbEntity
  8
0
  6
Continuous
 62
     7
370
    15
100
AcDbLine
 10
202.8058332911
 20
263.2406138615
 30
0.0
 11
198.6420511788
 21
263.2406138615
 31
0.0
  0
LINE
  5
F5
330
1F
100
AcDbEntity
  8
0
  6
Continuous
 62
     7
370
    15
100
AcDbLine
 10
198.6420511788
 20
263.2406138615
 30
0.0
 11
198.6420511788
 21
277.740609719
 31
0.0
  0
LINE
  5
F6
330
1F
100
AcDbEntity
  8
0
  6
Continuous
 62
     7
370
    15
100
AcDbLine
 10
202.8058332911
 20
263.2406138615
 30
0.0
 11
206.9696144721
 21
263.2406138615
 31
0.0
  0
LWPOLYLINE
  5
F7
330
1F
100
AcDbEntity
  8
0
  6
Continuous
 62
     7
370
    15
100
AcDbPolyline
 90
        9
 70
   128
 43
0.0
 10
177.9242626911
 20
313.2406118126
 10
177.9195352977
 20
313.2444544496
 10
177.9055319315
 20
313.2558352114
 10
177.8827927595
 20
313.2743173079
 10
177.8521894997
 20
313.2991901399
 10
177.8149030691
 20
313.3294972391
 10
177.7723565286
 20
313.3640744524
 10
177.7261964565
 20
313.4015937136
 10
177.6781886404
 20
313.4406114729
  0
LWPOLYLINE
  5
F8
330
1F
100
AcDbEntity
  8
0
  6
Continuous
 62
     7
370
    15
100
AcDbPolyline
 90
        9
 70
   128
 43
0.0
 10
178.9774283355
 20
313.2406118126
 10
178.9806209093
 20
313.2444544496
 10
178.9900682455
 20
313.2558352114
 10
179.0054089909
 20
313.2743173079
 10
179.0260582751
 20
313.2991901399
 10
179.0512151605
 20
313.3294972391
 10
179.0799222475
 20
313.3640744524
 10
179.1110656744
 20
313.4015937136
 10
179.1434570735
 20
313.4406114729
  0
LWPOLYLINE
  5
F9
330
1F
100
AcDbEntity
  8
0
  6
Continuous
 62
     7
370
    15
100
AcDbPolyline
 90
        9
 70
   128
 43
0.0
 10
246.2018619811
 20
313.2406118126
 10
246.2057046181
 20
313.2444544496
 10
246.2170853799
 20
313.2558352114
 10
246.2355684077
 20
313.2743173079
 10
246.2604403084
 20
313.2991901399
 10
246.2907474076
 20
313.3294972391
 10
246.3253255522
 20
313.3640744524
 10
246.3628429508
 20
313.4015937136
 10
246.4018616414
 20
313.4406114729
  0
LWPOLYLINE
  5
FA
330
1F
100
AcDbEntity
  8
0
  6
Continuous
 62
     7
370
    15
100
AcDbPolyline
 90
       10
 70
   128
 43
0.0
 10
246.2018619811
 20
308.2588751601
 10
246.2048999554
 20
308.2671304034
 10
246.2139226085
 20
308.2916484015
 10
246.2286561316
 20
308.3316840963
 10
246.2486534899
 20
308.3860193179
 10
246.2733037358
 20
308.4530056254
 10
246.3018618112
 20
308.5306034224
 10
246.3334578609
 20
308.6164601879
 10
246.3671326226
 20
308.7079626308
 10
246.4018616414
 20
308.8023335473
  0
LWPOLYLINE
  5
FB
330
1F
100
AcDbEntity
  8
0
  6
Continuous
 62
     7
370
    15
100
AcDbPolyline
 90
        9
 70
   128
 43
0.0
 10
245.1629008686
 20
313.2406118126
 10
245.1590582317
 20
313.2444544496
 10
245.1476774698
 20
313.2558352114
 10
245.129194442
 20
313.2743173079
 10
245.1043225413
 20
313.2991901399
 10
245.0740154421
 20
313.3294972391
 10
245.0394372975
 20
313.3640744524
 10
245.0019180363
 20
313.4015937136
 10
244.9629012084
 20
313.4406114729
  0
LWPOLYLINE
  5
FC
330
1F
100
AcDbEntity
  8
0
  6
Continuous
 62
     7
370
    15
100
AcDbPolyline
 90
        9
 70
   128
 43
0.0
 10
188.6586755103
 20
313.4406114729
 10
188.6104106491
 20
313.4015937136
 10
188.56399912
 20
313.3640744524
 10
188.5212271994
 20
313.3294972391
 10
188.4837377405
 20
313.2991901399
 10
188.4529705679
 20
313.2743173079
 10
188.4301084613
 20
313.2558352114
 10
188.4160305893
 20
313.2444544496
 10
188.4112771189
 20
313.2406118126
  0
LWPOLYLINE
  5
FD
330
1F
100
AcDbEntity
  8
0
  6
Continuous
 62
     7
370
    15
100
AcDbPolyline
 90
        9
 70
   128
 43
0.0
 10
187.1928035801
 20
313.4406114729
 10
187.2250534182
 20
313.4015937136
 10
187.2560645973
 20
313.3640744524
 10
187.2846450245
 20
313.3294972391
 10
187.3096938765
 20
313.2991901399
 10
187.330251891
 20
313.2743173079
 10
187.3455293065
 20
313.2558352114
 10
187.3549356645
 20
313.2444544496
 10
187.3581114745
 20
313.2406118126
  0
LWPOLYLINE
  5
FE
330
1F
100
AcDbEntity
  8
0
  6
Continuous
 62
     7
370
    15
100
AcDbPolyline
 90
       10
 70
   128
 43
0.0
 10
186.4301025456
 20
303.0406114446
 10
186.4020268952
 20
303.0753404634
 10
186.3748043364
 20
303.109015225
 10
186.3492618835
 20
303.1406112747
 10
186.3261762595
 20
303.1691693501
 10
186.3062459564
 20
303.193819596
 10
186.2900819218
 20
303.2138169543
 10
186.2781703061
 20
303.2285504775
 10
186.2708761876
 20
303.2375731306
 10
186.2684193587
 20
303.2406111048
  0
LWPOLYLINE
  5
FF
330
1F
100
AcDbEntity
  8
0
  6
Continuous
 62
     7
370
    15
100
AcDbPolyline
 90
       10
 70
   128
 43
0.0
 10
180.0123326069
 20
303.2406111048
 10
180.0098627394
 20
303.2375731306
 10
180.0025276428
 20
303.2285504775
 10
179.9905545598
 20
303.2138169543
 10
179.9743011182
 20
303.193819596
 10
179.954266507
 20
303.1691693501
 10
179.9310579484
 20
303.1406112747
 10
179.9053757971
 20
303.109015225
 10
179.8780060893
 20
303.0753404634
 10
179.8497795647
 20
303.0406114446
  0
LWPOLYLINE
  5
100
330
1F
100
AcDbEntity
  8
0
  6
Continuous
 62
     7
370
    15
100
AcDbPolyline
 90
        9
 70
   128
 43
0.0
 10
252.1989441996
 20
313.4406114729
 10
252.1144769674
 20
313.4015937136
 10
252.0332581883
 20
313.3640744524
 10
251.9584059304
 20
313.3294972391
 10
251.8927961176
 20
313.2991901399
 10
251.8389507717
 20
313.2743173079
 10
251.7989411538
 20
313.2558352114
 10
251.7743058091
 20
313.2444544496
 10
251.7659835106
 20
313.2406118126
  0
LWPOLYLINE
  5
101
330
1F
100
AcDbEntity
  8
0
  6
Continuous
 62
     7
370
    15
100
AcDbPolyline
 90
        9
 70
   128
 43
0.0
 10
250.4429317599
 20
313.2406118126
 10
250.4411585217
 20
313.2444544496
 10
250.4358984118
 20
313.2558352114
 10
250.4273600465
 20
313.2743173079
 10
250.4158712512
 20
313.2991901399
 10
250.4018716102
 20
313.3294972391
 10
250.3858975654
 20
313.3640744524
 10
250.3685637897
 20
313.4015937136
 10
250.3505371099
 20
313.4406114729
  0
LWPOLYLINE
  5
102
330
1F
100
AcDbEntity
  8
0
  6
Continuous
 62
     7
370
    15
100
AcDbPolyline
 90
        9
 70
   128
 43
0.0
 10
183.9388742631
 20
313.2406118126
 10
183.9419327265
 20
313.2444544496
 10
183.9509926325
 20
313.2558352114
 10
183.9657038039
 20
313.2743173079
 10
183.9855037218
 20
313.2991901399
 10
184.0096268391
 20
313.3294972391
 10
184.0371511465
 20
313.3640744524
 10
184.0670149362
 20
313.4015937136
 10
184.0980726814
 20
313.4406114729
  0
LWPOLYLINE
  5
103
330
1F
100
AcDbEntity
  8
0
  6
Continuous
 62
     7
370
    15
100
AcDbPolyline
 90
        9
 70
   128
 43
0.0
 10
248.5581174081
 20
309.1644578414
 10
248.5101505702
 20
309.1683097915
 10
248.4640277511
 20
309.1720127301
 10
248.4215221887
 20
309.175425096
 10
248.3842618352
 20
309.1784165041
 10
248.3536883777
 20
309.1808714704
 10
248.3309678322
 20
309.1826968627
 10
248.3169756418
 20
309.1838200377
 10
248.3122519737
 20
309.1842000173
  0
LWPOLYLINE
  5
104
330
1F
100
AcDbEntity
  8
0
  6
Continuous
 62
     7
370
    15
100
AcDbPolyline
 90
        9
 70
   128
 43
0.0
 10
182.4940688496
 20
313.2406118126
 10
182.4910215622
 20
313.2444544496
 10
182.4819914585
 20
313.2558352114
 10
182.4673249906
 20
313.2743173079
 10
182.4475921279
 20
313.2991901399
 10
182.423545379
 20
313.3294972391
 10
182.3961123412
 20
313.3640744524
 10
182.3663435465
 20
313.4015937136
 10
182.3353863841
 20
313.4406114729
  0
LWPOLYLINE
  5
105
330
1F
100
AcDbEntity
  8
0
  6
Continuous
 62
     7
370
    15
100
AcDbPolyline
 90
        9
 70
   128
 43
0.0
 10
245.1629008686
 20
303.2406111048
 10
245.1590582317
 20
303.2367684679
 10
245.1476774698
 20
303.225387706
 10
245.129194442
 20
303.2069046782
 10
245.1043225413
 20
303.1820327775
 10
245.0740154421
 20
303.1517256783
 10
245.0394372975
 20
303.1171475337
 10
245.0019180363
 20
303.0796301351
 10
244.9629012084
 20
303.0406114446
  0
LWPOLYLINE
  5
106
330
1F
100
AcDbEntity
  8
0
  6
Continuous
 62
     7
370
    15
100
AcDbPolyline
 90
       10
 70
   128
 43
0.0
 10
184.9599688834
 20
303.0406114446
 10
184.9877371972
 20
303.0753404634
 10
185.0146617329
 20
303.109015225
 10
185.039924789
 20
303.1406112747
 10
185.0627589559
 20
303.1691693501
 10
185.0824694669
 20
303.193819596
 10
185.0984565502
 20
303.2138169543
 10
185.1102377808
 20
303.2285504775
 10
185.1174518054
 20
303.2375731306
 10
185.1198806947
 20
303.2406111048
  0
LWPOLYLINE
  5
107
330
1F
100
AcDbEntity
  8
0
  6
Continuous
 62
     7
370
    15
100
AcDbPolyline
 90
       10
 70
   128
 43
0.0
 10
181.1527557259
 20
303.2406111048
 10
181.1551734393
 20
303.2375731306
 10
181.1623595243
 20
303.2285504775
 10
181.1740904635
 20
303.2138169543
 10
181.1900123542
 20
303.193819596
 10
181.2096409088
 20
303.1691693501
 10
181.2323800808
 20
303.1406112747
 10
181.2575369662
 20
303.109015225
 10
181.2843516057
 20
303.0753404634
 10
181.3120044356
 20
303.0406114446
  0
LWPOLYLINE
  5
108
330
1F
100
AcDbEntity
  8
0
  6
Continuous
 62
     7
370
    15
100
AcDbPolyline
 90
       10
 70
   128
 43
0.0
 10
252.271311689
 20
303.0406114446
 10
252.2096395081
 20
303.0753404634
 10
252.1498374229
 20
303.109015225
 10
252.0937308257
 20
303.1406112747
 10
252.0430147236
 20
303.1691693501
 10
251.9992388373
 20
303.193819596
 10
251.9637293702
 20
303.2138169543
 10
251.9375666564
 20
303.2285504775
 10
251.9215441829
 20
303.2375731306
 10
251.9161462372
 20
303.2406111048
  0
LWPOLYLINE
  5
109
330
1F
100
AcDbEntity
  8
0
  6
Continuous
 62
     7
370
    15
100
AcDbPolyline
 90
        9
 70
   128
 43
0.0
 10
247.5868597215
 20
308.0238912986
 10
247.5921943372
 20
308.0903206752
 10
247.597324062
 20
308.1541963653
 10
247.6020477301
 20
308.2130634026
 10
247.6061902529
 20
308.2646623985
 10
247.6095914429
 20
308.307009636
 10
247.6121171897
 20
308.3384753005
 10
247.6136743611
 20
308.3578505354
 10
247.614199627
 20
308.3643940078
  0
LWPOLYLINE
  5
10A
330
1F
100
AcDbEntity
  8
0
  6
Continuous
 62
     7
370
    15
100
AcDbPolyline
 90
       10
 70
   128
 43
0.0
 10
250.6103798335
 20
303.0406114446
 10
250.629930157
 20
303.0753404634
 10
250.6488844341
 20
303.109015225
 10
250.6666726952
 20
303.1406112747
 10
250.6827473229
 20
303.1691693501
 10
250.6966240292
 20
303.193819596
 10
250.7078818565
 20
303.2138169543
 10
250.7161743527
 20
303.2285504775
 10
250.7212556487
 20
303.2375731306
 10
250.7229655569
 20
303.2406111048
  0
LWPOLYLINE
  5
10B
330
1F
100
AcDbEntity
  8
0
  6
Continuous
 62
     7
370
    15
100
AcDbPolyline
 90
        9
 70
   128
 43
0.0
 10
246.4018616414
 20
306.6328809397
 10
246.3628429508
 20
306.6472475217
 10
246.3253255522
 20
306.6610608981
 10
246.2907474076
 20
306.6737920777
 10
246.2604403084
 20
306.6849511848
 10
246.2355684077
 20
306.694109811
 10
246.2170853799
 20
306.7009159164
 10
246.2057046181
 20
306.7051050053
 10
246.2018619811
 20
306.7065206157
  0
LINE
  5
10C
330
1F
100
AcDbEntity
  8
0
  6
Continuous
 62
     7
370
    15
100
AcDbLine
 10
246.2018619811
 20
303.2406111048
 30
0.0
 11
246.4018616414
 21
303.0406114446
 31
0.0
  0
LINE
  5
10D
330
1F
100
AcDbEntity
  8
0
  6
Continuous
 62
     7
370
    15
100
AcDbLine
 10
261.8192866033
 20
328.2406114773
 30
0.0
 11
261.8380136376
 21
328.2404637996
 31
0.0
  0
LINE
  5
10E
330
1F
100
AcDbEntity
  8
0
  6
Continuous
 62
     7
370
    15
100
AcDbLine
 10
255.7538099175
 20
328.2406114773
 30
0.0
 11
261.8192866033
 21
328.2406114773
 31
0.0
  0
LINE
  5
10F
330
1F
100
AcDbEntity
  8
0
  6
Continuous
 62
     7
370
    15
100
AcDbLine
 10
237.5024057513
 20
328.2406114773
 30
0.0
 11
255.7538099175
 21
328.2406114773
 31
0.0
  0
LINE
  5
110
330
1F
100
AcDbEntity
  8
0
  6
Continuous
 62
     7
370
    15
100
AcDbLine
 10
174.7538096791
 20
288.7406096594
 30
0.0
 11
159.9538087433
 21
288.7406096594
 31
0.0
  0
LINE
  5
111
330
1F
100
AcDbEntity
  8
0
  6
Continuous
 62
     7
370
    15
100
AcDbLine
 10
270.5538108533
 20
288.7406096594
 30
0.0
 11
255.7538099175
 21
288.7406096594
 31
0.0
  0
LINE
  5
112
330
1F
100
AcDbEntity
  8
0
  6
Continuous
 62
     7
370
    15
100
AcDbLine
 10
255.7538099175
 20
288.7406096594
 30
0.0
 11
237.5024057513
 21
288.7406096594
 31
0.0
  0
LINE
  5
113
330
1F
100
AcDbEntity
  8
0
  6
Continuous
 62
     7
370
    15
100
AcDbLine
 10
193.0052138453
 20
288.7406096594
 30
0.0
 11
174.7538096791
 21
288.7406096594
 31
0.0
  0
ARC
  5
114
330
1F
100
AcDbEntity
  8
0
  6
Continuous
 62
     7
370
    15
100
AcDbCircle
 10
261.3540257587
 20
323.9830030416
 30
0.0
 40
4.2848823055922
100
AcDbArc
 50
71.1304274172
 51
83.5144614688
  0
LINE
  5
115
330
1F
100
AcDbEntity
  8
0
  6
Continuous
 62
     7
370
    15
100
AcDbLine
 10
158.2538097685
 20
335.6906113946
 30
0.0
 11
158.2538097685
 21
328.2406114773
 31
0.0
  0
LINE
  5
116
330
1F
100
AcDbEntity
  8
0
  6
Continuous
 62
     7
370
    15
100
AcDbLine
 10
158.2538097685
 20
328.2406114773
 30
0.0
 11
158.2538097685
 21
321.6906114282
 31
0.0
  0
LINE
  5
117
330
1F
100
AcDbEntity
  8
0
  6
Continuous
 62
     7
370
    15
100
AcDbLine
 10
140.2538068181
 20
321.6906114282
 30
0.0
 11
140.2538068181
 21
335.6906113946
 31
0.0
  0
LINE
  5
118
330
1F
100
AcDbEntity
  8
0
  6
Continuous
 62
     7
370
    15
100
AcDbLine
 10
140.2538068181
 20
337.6906112568
 30
0.0
 11
158.2538097685
 21
337.6906112568
 31
0.0
  0
LINE
  5
119
330
1F
100
AcDbEntity
  8
0
  6
Continuous
 62
     7
370
    15
100
AcDbLine
 10
158.2538097685
 20
337.6906112568
 30
0.0
 11
158.2538097685
 21
335.6906113946
 31
0.0
  0
LINE
  5
11A
330
1F
100
AcDbEntity
  8
0
  6
Continuous
 62
     7
370
    15
100
AcDbLine
 10
140.2538068181
 20
335.6906113946
 30
0.0
 11
140.2538068181
 21
337.6906112568
 31
0.0
  0
LINE
  5
11B
330
1F
100
AcDbEntity
  8
0
  6
Continuous
 62
     7
370
    15
100
AcDbLine
 10
272.2538098281
 20
328.2406114773
 30
0.0
 11
272.2538098281
 21
321.6906114282
 31
0.0
  0
LINE
  5
11C
330
1F
100
AcDbEntity
  8
0
  6
Continuous
 62
     7
370
    15
100
AcDbLine
 10
272.2538098281
 20
335.6906113946
 30
0.0
 11
272.2538098281
 21
328.2406114773
 31
0.0
  0
LINE
  5
11D
330
1F
100
AcDbEntity
  8
0
  6
Continuous
 62
     7
370
    15
100
AcDbLine
 10
290.2538127786
 20
335.6906113946
 30
0.0
 11
290.2538127786
 21
321.6906114282
 31
0.0
  0
LINE
  5
11E
330
1F
100
AcDbEntity
  8
0
  6
Continuous
 62
     7
370
    15
100
AcDbLine
 10
272.2538098281
 20
337.6906112568
 30
0.0
 11
290.2538127786
 21
337.6906112568
 31
0.0
  0
LINE
  5
11F
330
1F
100
AcDbEntity
  8
0
  6
Continuous
 62
     7
370
    15
100
AcDbLine
 10
272.2538098281
 20
337.6906112568
 30
0.0
 11
272.2538098281
 21
335.6906113946
 31
0.0
  0
LINE
  5
120
330
1F
100
AcDbEntity
  8
0
  6
Continuous
 62
     7
370
    15
100
AcDbLine
 10
290.2538127786
 20
337.6906112568
 30
0.0
 11
290.2538127786
 21
335.6906113946
 31
0.0
  0
LINE
  5
121
330
1F
100
AcDbEntity
  8
0
  6
Continuous
 62
     7
370
    15
100
AcDbLine
 10
140.2538068181
 20
341.7406118275
 30
0.0
 11
140.2538068181
 21
337.6906112568
 31
0.0
  0
LINE
  5
122
330
1F
100
AcDbEntity
  8
0
  6
Continuous
 62
     7
370
    15
100
AcDbLine
 10
140.2538068181
 20
319.6906111003
 30
0.0
 11
140.2538068181
 21
314.7406111272
 31
0.0
  0
LINE
  5
123
330
1F
100
AcDbEntity
  8
0
  6
Continuous
 62
     7
370
    15
100
AcDbLine
 10
290.2538127786
 20
337.6906112568
 30
0.0
 11
290.2538127786
 21
341.7406118275
 31
0.0
  0
LINE
  5
124
330
1F
100
AcDbEntity
  8
0
  6
Continuous
 62
     7
370
    15
100
AcDbLine
 10
290.2538127786
 20
314.7406111272
 30
0.0
 11
290.2538127786
 21
319.6906111003
 31
0.0
  0
LINE
  5
125
330
1F
100
AcDbEntity
  8
0
  6
Continuous
 62
     7
370
    15
100
AcDbLine
 10
140.2538068181
 20
319.6906111003
 30
0.0
 11
158.2538097685
 21
319.6906111003
 31
0.0
  0
LINE
  5
126
330
1F
100
AcDbEntity
  8
0
  6
Continuous
 62
     7
370
    15
100
AcDbLine
 10
158.2538097685
 20
321.6906114282
 30
0.0
 11
158.2538097685
 21
319.6906111003
 31
0.0
  0
LINE
  5
127
330
1F
100
AcDbEntity
  8
0
  6
Continuous
 62
     7
370
    15
100
AcDbLine
 10
140.2538068181
 20
319.6906111003
 30
0.0
 11
140.2538068181
 21
321.6906114282
 31
0.0
  0
LINE
  5
128
330
1F
100
AcDbEntity
  8
0
  6
Continuous
 62
     7
370
    15
100
AcDbLine
 10
272.2538098281
 20
319.6906111003
 30
0.0
 11
290.2538127786
 21
319.6906111003
 31
0.0
  0
LINE
  5
129
330
1F
100
AcDbEntity
  8
0
  6
Continuous
 62
     7
370
    15
100
AcDbLine
 10
272.2538098281
 20
321.6906114282
 30
0.0
 11
272.2538098281
 21
319.6906111003
 31
0.0
  0
LINE
  5
12A
330
1F
100
AcDbEntity
  8
0
  6
Continuous
 62
     7
370
    15
100
AcDbLine
 10
290.2538127786
 20
321.6906114282
 30
0.0
 11
290.2538127786
 21
319.6906111003
 31
0.0
  0
LINE
  5
12B
330
1F
100
AcDbEntity
  8
0
  6
Continuous
 62
     7
370
    15
100
AcDbLine
 10
267.6134205943
 20
287.7406113581
 30
0.0
 11
267.6134205943
 21
288.7406096594
 31
0.0
  0
LINE
  5
12C
330
1F
100
AcDbEntity
  8
0
  6
Continuous
 62
     7
370
    15
100
AcDbLine
 10
242.8941990769
 20
287.7406113581
 30
0.0
 11
267.6134205943
 21
287.7406113581
 31
0.0
  0
LINE
  5
12D
330
1F
100
AcDbEntity
  8
0
  6
Continuous
 62
     7
370
    15
100
AcDbLine
 10
242.8941990769
 20
288.7406096594
 30
0.0
 11
242.8941990769
 21
287.7406113581
 31
0.0
  0
LINE
  5
12E
330
1F
100
AcDbEntity
  8
0
  6
Continuous
 62
     7
370
    15
100
AcDbLine
 10
187.6134205198
 20
287.7406113581
 30
0.0
 11
187.6134205198
 21
288.7406096594
 31
0.0
  0
LINE
  5
12F
330
1F
100
AcDbEntity
  8
0
  6
Continuous
 62
     7
370
    15
100
AcDbLine
 10
162.8941990024
 20
288.7406096594
 30
0.0
 11
162.8941990024
 21
287.7406113581
 31
0.0
  0
LINE
  5
130
330
1F
100
AcDbEntity
  8
0
  6
Continuous
 62
     7
370
    15
100
AcDbLine
 10
162.8941990024
 20
287.7406113581
 30
0.0
 11
187.6134205198
 21
287.7406113581
 31
0.0
  0
LINE
  5
131
330
1F
100
AcDbEntity
  8
0
  6
Continuous
 62
     7
370
    15
100
AcDbLine
 10
220.6398317179
 20
259.2406132059
 30
0.0
 11
220.6398317179
 21
261.7406108217
 31
0.0
  0
LINE
  5
132
330
1F
100
AcDbEntity
  8
0
  6
Continuous
 62
     7
370
    15
100
AcDbLine
 10
228.4616523942
 20
259.2406132059
 30
0.0
 11
228.4616523942
 21
261.7406108217
 31
0.0
  0
LINE
  5
133
330
1F
100
AcDbEntity
  8
0
  6
Continuous
 62
     7
370
    15
100
AcDbLine
 10
228.4616523942
 20
259.2406132059
 30
0.0
 11
220.6398317179
 21
259.2406132059
 31
0.0
  0
LINE
  5
134
330
1F
100
AcDbEntity
  8
0
  6
Continuous
 62
     7
370
    15
100
AcDbLine
 10
207.431989122
 20
259.2406132059
 30
0.0
 11
207.431989122
 21
261.7406108217
 31
0.0
  0
LINE
  5
135
330
1F
100
AcDbEntity
  8
0
  6
Continuous
 62
     7
370
    15
100
AcDbLine
 10
220.6398317179
 20
259.2406132059
 30
0.0
 11
207.431989122
 21
259.2406132059
 31
0.0
  0
LINE
  5
136
330
1F
100
AcDbEntity
  8
0
  6
Continuous
 62
     7
370
    15
100
AcDbLine
 10
139.2538122421
 20
328.2406114773
 30
0.0
 11
139.2538122421
 21
317.2406115369
 31
0.0
  0
LINE
  5
137
330
1F
100
AcDbEntity
  8
0
  6
Continuous
 62
     7
370
    15
100
AcDbLine
 10
139.2538122421
 20
339.2406114177
 30
0.0
 11
139.2538122421
 21
328.2406114773
 31
0.0
  0
LINE
  5
138
330
1F
100
AcDbEntity
  8
0
  6
Continuous
 62
     7
370
    15
100
AcDbLine
 10
291.2538073545
 20
328.2406114773
 30
0.0
 11
291.2538073545
 21
339.2406114177
 31
0.0
  0
LINE
  5
139
330
1F
100
AcDbEntity
  8
0
  6
Continuous
 62
     7
370
    15
100
AcDbLine
 10
291.2538073545
 20
317.2406115369
 30
0.0
 11
291.2538073545
 21
328.2406114773
 31
0.0
  0
LINE
  5
13A
330
1F
100
AcDbEntity
  8
0
  6
Continuous
 62
     7
370
    15
100
AcDbLine
 10
202.0459672024
 20
259.2406132059
 30
0.0
 11
202.0459672024
 21
261.7406108217
 31
0.0
  0
LINE
  5
13B
330
1F
100
AcDbEntity
  8
0
  6
Continuous
 62
     7
370
    15
100
AcDbLine
 10
207.431989122
 20
259.2406132059
 30
0.0
 11
202.0459672024
 21
259.2406132059
 31
0.0
  0
LINE
  5
13C
330
1F
100
AcDbEntity
  8
0
  6
Continuous
 62
     7
370
    15
100
AcDbLine
 10
205.2538100218
 20
253.2406084971
 30
0.0
 11
225.2538095748
 21
253.2406084971
 31
0.0
  0
LINE
  5
13D
330
1F
100
AcDbEntity
  8
0
  6
Continuous
 62
     7
370
    15
100
AcDbLine
 10
231.8655684179
 20
263.2406138615
 30
0.0
 11
231.8655684179
 21
277.740609719
 31
0.0
  0
LINE
  5
13E
330
1F
100
AcDbEntity
  8
0
  6
Continuous
 62
     7
370
    15
100
AcDbLine
 10
231.1638783252
 20
263.2406138615
 30
0.0
 11
231.8655684179
 21
263.2406138615
 31
0.0
  0
LINE
  5
13F
330
1F
100
AcDbEntity
  8
0
  6
Continuous
 62
     7
370
    15
100
AcDbLine
 10
230.4621882325
 20
263.2406138615
 30
0.0
 11
231.1638783252
 21
263.2406138615
 31
0.0
  0
LINE
  5
140
330
1F
100
AcDbEntity
  8
0
  6
Continuous
 62
     7
370
    15
100
AcDbLine
 10
214.534789888
 20
242.74060957
 30
0.0
 11
214.534789888
 21
250.7406108813
 31
0.0
  0
LINE
  5
141
330
1F
100
AcDbEntity
  8
0
  6
Continuous
 62
     7
370
    15
100
AcDbLine
 10
214.25259356
 20
242.74060957
 30
0.0
 11
214.534789888
 21
242.74060957
 31
0.0
  0
LINE
  5
142
330
1F
100
AcDbEntity
  8
0
  6
Continuous
 62
     7
370
    15
100
AcDbLine
 10
214.25259356
 20
242.74060957
 30
0.0
 11
214.25259356
 21
250.7406108813
 31
0.0
  0
LINE
  5
143
330
1F
100
AcDbEntity
  8
0
  6
Continuous
 62
     7
370
    15
100
AcDbLine
 10
214.534789888
 20
250.7406108813
 30
0.0
 11
214.25259356
 21
250.7406108813
 31
0.0
  0
LINE
  5
144
330
1F
100
AcDbEntity
  8
0
  6
Continuous
 62
     7
370
    15
100
AcDbLine
 10
215.6236438135
 20
242.74060957
 30
0.0
 11
215.6236438135
 21
250.7406108813
 31
0.0
  0
LINE
  5
145
330
1F
100
AcDbEntity
  8
0
  6
Continuous
 62
     7
370
    15
100
AcDbLine
 10
214.534789888
 20
242.74060957
 30
0.0
 11
215.6236438135
 21
242.74060957
 31
0.0
  0
LINE
  5
146
330
1F
100
AcDbEntity
  8
0
  6
Continuous
 62
     7
370
    15
100
AcDbLine
 10
215.6236438135
 20
250.7406108813
 30
0.0
 11
214.534789888
 21
250.7406108813
 31
0.0
  0
LINE
  5
147
330
1F
100
AcDbEntity
  8
0
  6
Continuous
 62
     7
370
    15
100
AcDbLine
 10
213.3667790152
 20
242.74060957
 30
0.0
 11
213.3667790152
 21
250.7406108813
 31
0.0
  0
LINE
  5
148
330
1F
100
AcDbEntity
  8
0
  6
Continuous
 62
     7
370
    15
100
AcDbLine
 10
214.25259356
 20
250.7406108813
 30
0.0
 11
213.3667790152
 21
250.7406108813
 31
0.0
  0
LINE
  5
149
330
1F
100
AcDbEntity
  8
0
  6
Continuous
 62
     7
370
    15
100
AcDbLine
 10
213.3667790152
 20
242.74060957
 30
0.0
 11
214.25259356
 21
242.74060957
 31
0.0
  0
LINE
  5
14A
330
1F
100
AcDbEntity
  8
0
  6
Continuous
 62
     7
370
    15
100
AcDbLine
 10
217.0708937159
 20
242.74060957
 30
0.0
 11
217.0708937159
 21
250.7406108813
 31
0.0
  0
LINE
  5
14B
330
1F
100
AcDbEntity
  8
0
  6
Continuous
 62
     7
370
    15
100
AcDbLine
 10
216.7932239648
 20
242.74060957
 30
0.0
 11
216.7932239648
 21
250.7406108813
 31
0.0
  0
LINE
  5
14C
330
1F
100
AcDbEntity
  8
0
  6
Continuous
 62
     7
370
    15
100
AcDbLine
 10
217.0708937159
 20
250.7406108813
 30
0.0
 11
216.7932239648
 21
250.7406108813
 31
0.0
  0
LINE
  5
14D
330
1F
100
AcDbEntity
  8
0
  6
Continuous
 62
     7
370
    15
100
AcDbLine
 10
216.7932239648
 20
242.74060957
 30
0.0
 11
217.0708937159
 21
242.74060957
 31
0.0
  0
LINE
  5
14E
330
1F
100
AcDbEntity
  8
0
  6
Continuous
 62
     7
370
    15
100
AcDbLine
 10
216.7932239648
 20
250.7406108813
 30
0.0
 11
215.6236438135
 21
250.7406108813
 31
0.0
  0
LINE
  5
14F
330
1F
100
AcDbEntity
  8
0
  6
Continuous
 62
     7
370
    15
100
AcDbLine
 10
215.6236438135
 20
242.74060957
 30
0.0
 11
216.7932239648
 21
242.74060957
 31
0.0
  0
LINE
  5
150
330
1F
100
AcDbEntity
  8
0
  6
Continuous
 62
     7
370
    15
100
AcDbLine
 10
217.8443065899
 20
242.74060957
 30
0.0
 11
217.8443065899
 21
250.7406108813
 31
0.0
  0
LINE
  5
151
330
1F
100
AcDbEntity
  8
0
  6
Continuous
 62
     7
370
    15
100
AcDbLine
 10
217.8443065899
 20
250.7406108813
 30
0.0
 11
217.0708937159
 21
250.7406108813
 31
0.0
  0
LINE
  5
152
330
1F
100
AcDbEntity
  8
0
  6
Continuous
 62
     7
370
    15
100
AcDbLine
 10
217.0708937159
 20
242.74060957
 30
0.0
 11
217.8443065899
 21
242.74060957
 31
0.0
  0
LINE
  5
153
330
1F
100
AcDbEntity
  8
0
  6
Continuous
 62
     7
370
    15
100
AcDbLine
 10
212.0690689011
 20
242.74060957
 30
0.0
 11
212.0690689011
 21
250.7406108813
 31
0.0
  0
LINE
  5
154
330
1F
100
AcDbEntity
  8
0
  6
Continuous
 62
     7
370
    15
100
AcDbLine
 10
213.3667790152
 20
250.7406108813
 30
0.0
 11
212.0690689011
 21
250.7406108813
 31
0.0
  0
LINE
  5
155
330
1F
100
AcDbEntity
  8
0
  6
Continuous
 62
     7
370
    15
100
AcDbLine
 10
212.0690689011
 20
242.74060957
 30
0.0
 11
213.3667790152
 21
242.74060957
 31
0.0
  0
LINE
  5
156
330
1F
100
AcDbEntity
  8
0
  6
Continuous
 62
     7
370
    15
100
AcDbLine
 10
211.80996914
 20
242.74060957
 30
0.0
 11
211.80996914
 21
250.7406108813
 31
0.0
  0
LINE
  5
157
330
1F
100
AcDbEntity
  8
0
  6
Continuous
 62
     7
370
    15
100
AcDbLine
 10
212.0690689011
 20
250.7406108813
 30
0.0
 11
211.80996914
 21
250.7406108813
 31
0.0
  0
LINE
  5
158
330
1F
100
AcDbEntity
  8
0
  6
Continuous
 62
     7
370
    15
100
AcDbLine
 10
211.80996914
 20
242.74060957
 30
0.0
 11
212.0690689011
 21
242.74060957
 31
0.0
  0
LINE
  5
159
330
1F
100
AcDbEntity
  8
0
  6
Continuous
 62
     7
370
    15
100
AcDbLine
 10
211.2946299424
 20
242.74060957
 30
0.0
 11
211.2946299424
 21
250.7406108813
 31
0.0
  0
LINE
  5
15A
330
1F
100
AcDbEntity
  8
0
  6
Continuous
 62
     7
370
    15
100
AcDbLine
 10
211.80996914
 20
250.7406108813
 30
0.0
 11
211.2946299424
 21
250.7406108813
 31
0.0
  0
LINE
  5
15B
330
1F
100
AcDbEntity
  8
0
  6
Continuous
 62
     7
370
    15
100
AcDbLine
 10
211.2946299424
 20
242.74060957
 30
0.0
 11
211.80996914
 21
242.74060957
 31
0.0
  0
LINE
  5
15C
330
1F
100
AcDbEntity
  8
0
  6
Continuous
 62
     7
370
    15
100
AcDbLine
 10
219.429128669
 20
242.74060957
 30
0.0
 11
219.429128669
 21
250.7406108813
 31
0.0
  0
LINE
  5
15D
330
1F
100
AcDbEntity
  8
0
  6
Continuous
 62
     7
370
    15
100
AcDbLine
 10
219.1831659114
 20
242.74060957
 30
0.0
 11
219.1831659114
 21
250.7406108813
 31
0.0
  0
LINE
  5
15E
330
1F
100
AcDbEntity
  8
0
  6
Continuous
 62
     7
370
    15
100
AcDbLine
 10
219.429128669
 20
250.7406108813
 30
0.0
 11
219.1831659114
 21
250.7406108813
 31
0.0
  0
LINE
  5
15F
330
1F
100
AcDbEntity
  8
0
  6
Continuous
 62
     7
370
    15
100
AcDbLine
 10
219.1831659114
 20
242.74060957
 30
0.0
 11
219.429128669
 21
242.74060957
 31
0.0
  0
LINE
  5
160
330
1F
100
AcDbEntity
  8
0
  6
Continuous
 62
     7
370
    15
100
AcDbLine
 10
219.1831659114
 20
250.7406108813
 30
0.0
 11
217.8443065899
 21
250.7406108813
 31
0.0
  0
LINE
  5
161
330
1F
100
AcDbEntity
  8
0
  6
Continuous
 62
     7
370
    15
100
AcDbLine
 10
217.8443065899
 20
242.74060957
 30
0.0
 11
219.1831659114
 21
242.74060957
 31
0.0
  0
LINE
  5
162
330
1F
100
AcDbEntity
  8
0
  6
Continuous
 62
     7
370
    15
100
AcDbLine
 10
208.2538095823
 20
239.7406109409
 30
0.0
 11
222.2538100144
 21
239.7406109409
 31
0.0
  0
LINE
  5
163
330
1F
100
AcDbEntity
  8
0
  6
Continuous
 62
     7
370
    15
100
AcDbLine
 10
219.8113937451
 20
242.74060957
 30
0.0
 11
219.8113937451
 21
250.7406108813
 31
0.0
  0
LINE
  5
164
330
1F
100
AcDbEntity
  8
0
  6
Continuous
 62
     7
370
    15
100
AcDbLine
 10
219.8113937451
 20
250.7406108813
 30
0.0
 11
219.429128669
 21
250.7406108813
 31
0.0
  0
LINE
  5
165
330
1F
100
AcDbEntity
  8
0
  6
Continuous
 62
     7
370
    15
100
AcDbLine
 10
219.429128669
 20
242.74060957
 30
0.0
 11
219.8113937451
 21
242.74060957
 31
0.0
  0
LINE
  5
166
330
1F
100
AcDbEntity
  8
0
  6
Continuous
 62
     7
370
    15
100
AcDbLine
 10
209.9150920806
 20
242.74060957
 30
0.0
 11
209.9150920806
 21
250.7406108813
 31
0.0
  0
LINE
  5
167
330
1F
100
AcDbEntity
  8
0
  6
Continuous
 62
     7
370
    15
100
AcDbLine
 10
209.7044515943
 20
242.74060957
 30
0.0
 11
209.7044515943
 21
250.7406108813
 31
0.0
  0
LINE
  5
168
330
1F
100
AcDbEntity
  8
0
  6
Continuous
 62
     7
370
    15
100
AcDbLine
 10
209.9150920806
 20
250.7406108813
 30
0.0
 11
209.7044515943
 21
250.7406108813
 31
0.0
  0
LINE
  5
169
330
1F
100
AcDbEntity
  8
0
  6
Continuous
 62
     7
370
    15
100
AcDbLine
 10
209.7044515943
 20
242.74060957
 30
0.0
 11
209.9150920806
 21
242.74060957
 31
0.0
  0
LINE
  5
16A
330
1F
100
AcDbEntity
  8
0
  6
Continuous
 62
     7
370
    15
100
AcDbLine
 10
211.2946299424
 20
250.7406108813
 30
0.0
 11
209.9150920806
 21
250.7406108813
 31
0.0
  0
LINE
  5
16B
330
1F
100
AcDbEntity
  8
0
  6
Continuous
 62
     7
370
    15
100
AcDbLine
 10
209.9150920806
 20
242.74060957
 30
0.0
 11
211.2946299424
 21
242.74060957
 31
0.0
  0
LINE
  5
16C
330
1F
100
AcDbEntity
  8
0
  6
Continuous
 62
     7
370
    15
100
AcDbLine
 10
209.6100331804
 20
242.74060957
 30
0.0
 11
209.6100331804
 21
250.7406108813
 31
0.0
  0
LINE
  5
16D
330
1F
100
AcDbEntity
  8
0
  6
Continuous
 62
     7
370
    15
100
AcDbLine
 10
209.7044515943
 20
250.7406108813
 30
0.0
 11
209.6100331804
 21
250.7406108813
 31
0.0
  0
LINE
  5
16E
330
1F
100
AcDbEntity
  8
0
  6
Continuous
 62
     7
370
    15
100
AcDbLine
 10
209.6100331804
 20
242.74060957
 30
0.0
 11
209.7044515943
 21
242.74060957
 31
0.0
  0
LINE
  5
16F
330
1F
100
AcDbEntity
  8
0
  6
Continuous
 62
     7
370
    15
100
AcDbLine
 10
221.1884747779
 20
242.74060957
 30
0.0
 11
221.1884747779
 21
250.7406108813
 31
0.0
  0
LINE
  5
170
330
1F
100
AcDbEntity
  8
0
  6
Continuous
 62
     7
370
    15
100
AcDbLine
 10
221.1884747779
 20
250.7406108813
 30
0.0
 11
219.8113937451
 21
250.7406108813
 31
0.0
  0
LINE
  5
171
330
1F
100
AcDbEntity
  8
0
  6
Continuous
 62
     7
370
    15
100
AcDbLine
 10
219.8113937451
 20
242.74060957
 30
0.0
 11
221.1884747779
 21
242.74060957
 31
0.0
  0
LINE
  5
172
330
1F
100
AcDbEntity
  8
0
  6
Continuous
 62
     7
370
    15
100
AcDbLine
 10
221.3786541073
 20
242.74060957
 30
0.0
 11
221.3786541073
 21
250.7406108813
 31
0.0
  0
LINE
  5
173
330
1F
100
AcDbEntity
  8
0
  6
Continuous
 62
     7
370
    15
100
AcDbLine
 10
221.3786541073
 20
250.7406108813
 30
0.0
 11
221.1884747779
 21
250.7406108813
 31
0.0
  0
LINE
  5
174
330
1F
100
AcDbEntity
  8
0
  6
Continuous
 62
     7
370
    15
100
AcDbLine
 10
221.1884747779
 20
242.74060957
 30
0.0
 11
221.3786541073
 21
242.74060957
 31
0.0
  0
LINE
  5
175
330
1F
100
AcDbEntity
  8
0
  6
Continuous
 62
     7
370
    15
100
AcDbLine
 10
208.2837064339
 20
242.74060957
 30
0.0
 11
208.2837064339
 21
250.7406108813
 31
0.0
  0
LINE
  5
176
330
1F
100
AcDbEntity
  8
0
  6
Continuous
 62
     7
370
    15
100
AcDbLine
 10
209.6100331804
 20
250.7406108813
 30
0.0
 11
208.2837064339
 21
250.7406108813
 31
0.0
  0
LINE
  5
177
330
1F
100
AcDbEntity
  8
0
  6
Continuous
 62
     7
370
    15
100
AcDbLine
 10
208.2837064339
 20
242.74060957
 30
0.0
 11
209.6100331804
 21
242.74060957
 31
0.0
  0
LINE
  5
178
330
1F
100
AcDbEntity
  8
0
  6
Continuous
 62
     7
370
    15
100
AcDbLine
 10
208.1421444712
 20
242.74060957
 30
0.0
 11
208.1421444712
 21
250.7406108813
 31
0.0
  0
LINE
  5
179
330
1F
100
AcDbEntity
  8
0
  6
Continuous
 62
     7
370
    15
100
AcDbLine
 10
208.2837064339
 20
250.7406108813
 30
0.0
 11
208.1421444712
 21
250.7406108813
 31
0.0
  0
LINE
  5
17A
330
1F
100
AcDbEntity
  8
0
  6
Continuous
 62
     7
370
    15
100
AcDbLine
 10
208.1421444712
 20
242.74060957
 30
0.0
 11
208.2837064339
 21
242.74060957
 31
0.0
  0
LINE
  5
17B
330
1F
100
AcDbEntity
  8
0
  6
Continuous
 62
     7
370
    15
100
AcDbLine
 10
222.6128576843
 20
242.74060957
 30
0.0
 11
222.6128576843
 21
250.7406108813
 31
0.0
  0
LINE
  5
17C
330
1F
100
AcDbEntity
  8
0
  6
Continuous
 62
     7
370
    15
100
AcDbLine
 10
222.6128576843
 20
250.7406108813
 30
0.0
 11
221.3786541073
 21
250.7406108813
 31
0.0
  0
LINE
  5
17D
330
1F
100
AcDbEntity
  8
0
  6
Continuous
 62
     7
370
    15
100
AcDbLine
 10
221.3786541073
 20
242.74060957
 30
0.0
 11
222.6128576843
 21
242.74060957
 31
0.0
  0
LINE
  5
17E
330
1F
100
AcDbEntity
  8
0
  6
Continuous
 62
     7
370
    15
100
AcDbLine
 10
222.7286373785
 20
242.74060957
 30
0.0
 11
222.7286373785
 21
250.7406108813
 31
0.0
  0
LINE
  5
17F
330
1F
100
AcDbEntity
  8
0
  6
Continuous
 62
     7
370
    15
100
AcDbLine
 10
222.7286373785
 20
250.7406108813
 30
0.0
 11
222.6128576843
 21
250.7406108813
 31
0.0
  0
LINE
  5
180
330
1F
100
AcDbEntity
  8
0
  6
Continuous
 62
     7
370
    15
100
AcDbLine
 10
222.6128576843
 20
242.74060957
 30
0.0
 11
222.7286373785
 21
242.74060957
 31
0.0
  0
LINE
  5
181
330
1F
100
AcDbEntity
  8
0
  6
Continuous
 62
     7
370
    15
100
AcDbLine
 10
207.3346035143
 20
242.74060957
 30
0.0
 11
207.3346035143
 21
250.7406108813
 31
0.0
  0
LINE
  5
182
330
1F
100
AcDbEntity
  8
0
  6
Continuous
 62
     7
370
    15
100
AcDbLine
 10
208.1421444712
 20
250.7406108813
 30
0.0
 11
207.3346035143
 21
250.7406108813
 31
0.0
  0
LINE
  5
183
330
1F
100
AcDbEntity
  8
0
  6
Continuous
 62
     7
370
    15
100
AcDbLine
 10
207.3346035143
 20
242.74060957
 30
0.0
 11
208.1421444712
 21
242.74060957
 31
0.0
  0
LINE
  5
184
330
1F
100
AcDbEntity
  8
0
  6
Continuous
 62
     7
370
    15
100
AcDbLine
 10
223.3168858623
 20
242.74060957
 30
0.0
 11
223.3168858623
 21
250.7406108813
 31
0.0
  0
LINE
  5
185
330
1F
100
AcDbEntity
  8
0
  6
Continuous
 62
     7
370
    15
100
AcDbLine
 10
223.3168858623
 20
250.7406108813
 30
0.0
 11
222.7286373785
 21
250.7406108813
 31
0.0
  0
LINE
  5
186
330
1F
100
AcDbEntity
  8
0
  6
Continuous
 62
     7
370
    15
100
AcDbLine
 10
222.7286373785
 20
242.74060957
 30
0.0
 11
223.3168858623
 21
242.74060957
 31
0.0
  0
LINE
  5
187
330
1F
100
AcDbEntity
  8
0
  6
Continuous
 62
     7
370
    15
100
AcDbLine
 10
207.2759758269
 20
242.74060957
 30
0.0
 11
207.2759758269
 21
250.7406108813
 31
0.0
  0
LINE
  5
188
330
1F
100
AcDbEntity
  8
0
  6
Continuous
 62
     7
370
    15
100
AcDbLine
 10
207.3346035143
 20
250.7406108813
 30
0.0
 11
207.2759758269
 21
250.7406108813
 31
0.0
  0
LINE
  5
189
330
1F
100
AcDbEntity
  8
0
  6
Continuous
 62
     7
370
    15
100
AcDbLine
 10
207.2759758269
 20
242.74060957
 30
0.0
 11
207.3346035143
 21
242.74060957
 31
0.0
  0
LINE
  5
18A
330
1F
100
AcDbEntity
  8
0
  6
Continuous
 62
     7
370
    15
100
AcDbLine
 10
223.3469321912
 20
242.74060957
 30
0.0
 11
223.3469321912
 21
250.7406108813
 31
0.0
  0
LINE
  5
18B
330
1F
100
AcDbEntity
  8
0
  6
Continuous
 62
     7
370
    15
100
AcDbLine
 10
223.3469321912
 20
250.7406108813
 30
0.0
 11
223.3168858623
 21
250.7406108813
 31
0.0
  0
LINE
  5
18C
330
1F
100
AcDbEntity
  8
0
  6
Continuous
 62
     7
370
    15
100
AcDbLine
 10
223.3168858623
 20
242.74060957
 30
0.0
 11
223.3469321912
 21
242.74060957
 31
0.0
  0
LINE
  5
18D
330
1F
100
AcDbEntity
  8
0
  6
Continuous
 62
     7
370
    15
100
AcDbLine
 10
207.1606874054
 20
242.74060957
 30
0.0
 11
207.1606874054
 21
250.7406108813
 31
0.0
  0
LINE
  5
18E
330
1F
100
AcDbEntity
  8
0
  6
Continuous
 62
     7
370
    15
100
AcDbLine
 10
207.2759758269
 20
250.7406108813
 30
0.0
 11
207.1606874054
 21
250.7406108813
 31
0.0
  0
LINE
  5
18F
330
1F
100
AcDbEntity
  8
0
  6
Continuous
 62
     7
370
    15
100
AcDbLine
 10
207.1606874054
 20
242.74060957
 30
0.0
 11
207.2759758269
 21
242.74060957
 31
0.0
  0
ARC
  5
190
330
1F
100
AcDbEntity
  8
0
  6
Continuous
 62
     7
370
     0
100
AcDbCircle
 10
220.0796513316
 20
296.5407266921
 30
0.0
 40
1.499883937148658
100
AcDbArc
 50
359.995592405
 51
89.9956913221
  0
ARC
  5
191
330
1F
100
AcDbEntity
  8
0
  6
Continuous
 62
     7
370
     0
100
AcDbCircle
 10
210.427968265
 20
296.5407266921
 30
0.0
 40
1.499883937148629
100
AcDbArc
 50
90.0043086779
 51
180.004407595
  0
LINE
  5
192
330
1F
100
AcDbEntity
  8
0
  6
Continuous
 62
     7
370
     0
100
AcDbLine
 10
208.9280843323
 20
291.9396132962
 30
0.0
 11
208.9280843323
 21
296.5406113104
 31
0.0
  0
LINE
  5
193
330
1F
100
AcDbEntity
  8
0
  6
Continuous
 62
     7
370
     0
100
AcDbLine
 10
221.5795352643
 20
296.5406113104
 30
0.0
 11
221.5795352643
 21
291.9396132962
 31
0.0
  0
ARC
  5
194
330
1F
100
AcDbEntity
  8
0
  6
Continuous
 62
     7
370
     0
100
AcDbCircle
 10
220.0796484364
 20
291.9394970844
 30
0.0
 40
1.499886832418515
100
AcDbArc
 50
270.0044192666
 51
0.0044393018
  0
ARC
  5
195
330
1F
100
AcDbEntity
  8
0
  6
Continuous
 62
     7
370
     0
100
AcDbCircle
 10
210.4279711602
 20
291.9394970844
 30
0.0
 40
1.499886832418458
100
AcDbArc
 50
179.9955606982
 51
269.9955807334
  0
LINE
  5
196
330
1F
100
AcDbEntity
  8
0
  6
Continuous
 62
     7
370
     0
100
AcDbLine
 10
208.7054204715
 20
296.5406113104
 30
0.0
 11
208.7054204715
 21
291.9396132962
 31
0.0
  0
LINE
  5
197
330
1F
100
AcDbEntity
  8
0
  6
Continuous
 62
     7
370
     0
100
AcDbLine
 10
221.8021991251
 20
291.9396132962
 30
0.0
 11
221.8021991251
 21
296.5406113104
 31
0.0
  0
ARC
  5
198
330
1F
100
AcDbEntity
  8
0
  6
Continuous
 62
     7
370
     0
100
AcDbCircle
 10
215.2538097983
 20
328.2091464114
 30
0.0
 40
14.28385394271876
100
AcDbArc
 50
121.4959099069
 51
58.5040900931
  0
ARC
  5
199
330
1F
100
AcDbEntity
  8
0
  6
Continuous
 62
     7
370
     0
100
AcDbCircle
 10
223.7274130014
 20
340.5749270927
 30
0.0
 40
1.02819102784517
100
AcDbArc
 50
139.651671379
 51
190.4369530867
  0
LWPOLYLINE
  5
19A
330
1F
100
AcDbEntity
  8
0
  6
Continuous
 62
     7
370
     0
100
AcDbPolyline
 90
       34
 70
   128
 43
0.0
 10
222.9438054895
 20
341.2406117456
 10
225.0230827888
 20
339.6525083841
 10
226.786504831
 20
337.7375117303
 10
228.2159154823
 20
335.5083296807
 10
229.2546782231
 20
333.0366377519
 10
229.7704753986
 20
330.9409221435
 10
229.9963593071
 20
328.7746541934
 10
229.9168709254
 20
326.5866894541
 10
229.5394133365
 20
324.4434098048
 10
228.8986661991
 20
322.4549623007
 10
228.0099460444
 20
320.591835192
 10
226.7145936897
 20
318.6521445201
 10
225.1435884794
 20
316.9386590631
 10
223.0785073301
 20
315.3284749748
 10
220.7338203264
 20
314.0960995839
 10
218.3109501896
 20
313.3386018486
 10
215.7693325247
 20
313.0141309263
 10
213.5205003254
 20
313.1121991934
 10
211.3253063111
 20
313.5555422665
 10
209.2878575025
 20
314.3086152883
 10
207.4053644722
 20
315.342071353
 10
205.5457917562
 20
316.7726154239
 10
203.939777199
 20
318.4672164531
 10
202.4641943684
 20
320.6539069103
 10
201.372104097
 20
323.0886295238
 10
200.8033994174
 20
325.1849274417
 10
200.5267956814
 20
327.3614099632
 10
200.5601025706
 20
329.572648861
 10
200.8986131808
 20
331.7469967329
 10
201.4992836451
 20
333.7424419621
 10
202.3485976791
 20
335.6179607832
 10
203.5897349527
 20
337.5640007467
 10
205.103314813
 20
339.2932106541
 10
207.5638141071
 20
341.2406117456
  0
ARC
  5
19B
330
1F
100
AcDbEntity
  8
0
  6
Continuous
 62
     7
370
     0
100
AcDbCircle
 10
206.7802065952
 20
340.5749270927
 30
0.0
 40
1.028191027845272
100
AcDbArc
 50
349.5630469133
 51
40.348328621
  0
LINE
  5
19C
330
1F
100
AcDbEntity
  8
0
  6
Continuous
 62
     7
370
     0
100
AcDbLine
 10
210.4936343206
 20
299.5406118022
 30
0.0
 11
220.013985276
 21
299.5406118022
 31
0.0
  0
LINE
  5
19D
330
1F
100
AcDbEntity
  8
0
  6
Continuous
 62
     7
370
     0
100
AcDbLine
 10
210.4936343206
 20
288.9404938356
 30
0.0
 11
220.013985276
 21
288.9404938356
 31
0.0
  0
ARC
  5
19E
330
1F
100
AcDbEntity
  8
0
  6
Continuous
 62
     7
370
     0
100
AcDbCircle
 10
219.9217352337
 20
296.6002098178
 30
0.0
 40
2.941848721449591
100
AcDbArc
 50
358.8391732935
 51
88.203033128
  0
LINE
  5
19F
330
1F
100
AcDbEntity
  8
0
  6
Continuous
 62
     7
370
     0
100
AcDbLine
 10
210.4201539008
 20
288.9406130449
 30
0.0
 11
210.4936343206
 21
288.9404938356
 31
0.0
  0
ARC
  5
1A0
330
1F
100
AcDbEntity
  8
0
  6
Continuous
 62
     7
370
     0
100
AcDbCircle
 10
210.589382974
 20
291.8810727402
 30
0.0
 40
2.945325397805158
100
AcDbArc
 50
178.861128326
 51
266.7061518715
  0
ARC
  5
1A1
330
1F
100
AcDbEntity
  8
0
  6
Continuous
 62
     7
370
     0
100
AcDbCircle
 10
210.5627517759
 20
296.6221780219
 30
0.0
 40
2.919252122110454
100
AcDbArc
 50
91.3566860267
 51
181.6011075518
  0
ARC
  5
1A2
330
1F
100
AcDbEntity
  8
0
  6
Continuous
 62
     7
370
     0
100
AcDbCircle
 10
219.9416310758
 20
291.8594216438
 30
0.0
 40
2.922449550115566
100
AcDbArc
 50
272.8603333704
 51
1.5723864322
  0
LINE
  5
1A3
330
1F
100
AcDbEntity
  8
0
  6
Continuous
 62
     7
370
     0
100
AcDbLine
 10
220.013985276
 20
288.9404938356
 30
0.0
 11
220.0874656959
 21
288.9406130449
 31
0.0
  0
ARC
  5
1A4
330
1F
100
AcDbEntity
  8
0
  6
Continuous
 62
     7
370
     0
100
AcDbCircle
 10
215.2538097983
 20
322.5243796245
 30
0.0
 40
20.23446017414178
100
AcDbArc
 50
67.6635596845
 51
112.3364403155
  0
LINE
  5
1A5
330
1F
100
AcDbEntity
  8
0
  6
Continuous
 62
     7
370
     0
100
AcDbLine
 10
222.8629801942
 20
296.5406113104
 30
0.0
 11
222.8629801942
 21
291.9396132962
 31
0.0
  0
LINE
  5
1A6
330
1F
100
AcDbEntity
  8
0
  6
Continuous
 62
     7
370
     0
100
AcDbLine
 10
207.6446394024
 20
291.9396132962
 30
0.0
 11
207.6446394024
 21
296.5406113104
 31
0.0
  0
ARC
  5
1A7
330
1F
100
AcDbEntity
  8
0
  6
Continuous
 62
     7
370
     0
100
AcDbCircle
 10
210.7940046567
 20
288.8922227114
 30
0.0
 40
0.3042243255098888
100
AcDbArc
 50
170.8703218134
 51
209.8915179352
  0
ARC
  5
1A8
330
1F
100
AcDbEntity
  8
0
  6
Continuous
 62
     7
370
     0
100
AcDbCircle
 10
219.71361494
 20
288.8922227114
 30
0.0
 40
0.3042243255099168
100
AcDbArc
 50
330.1084820648
 51
9.1296781866
  0
LINE
  5
1A9
330
1F
100
AcDbEntity
  8
0
  6
Continuous
 62
     7
370
     0
100
AcDbLine
 10
193.5214683002
 20
330.2406115723
 30
0.0
 11
194.5944003349
 21
330.2406115723
 31
0.0
  0
ARC
  5
1AA
330
1F
100
AcDbEntity
  8
0
  6
Continuous
 62
     7
370
     0
100
AcDbCircle
 10
160.4267221494
 20
326.9651118422
 30
0.0
 40
33.25644480800485
100
AcDbArc
 50
5.652350076
 51
25.4202988019
  0
LINE
  5
1AB
330
1F
100
AcDbEntity
  8
0
  6
Continuous
 62
     7
370
     0
100
AcDbLine
 10
190.4633868074
 20
341.2406117456
 30
0.0
 11
207.5638141071
 21
341.2406117456
 31
0.0
  0
LINE
  5
1AC
330
1F
100
AcDbEntity
  8
0
  6
Continuous
 62
     7
370
     0
100
AcDbLine
 10
222.9438054895
 20
341.2406117456
 30
0.0
 11
240.0442327892
 21
341.2406117456
 31
0.0
  0
ARC
  5
1AD
330
1F
100
AcDbEntity
  8
0
  6
Continuous
 62
     7
370
     0
100
AcDbCircle
 10
268.7200500627
 20
327.4410079891
 30
0.0
 40
31.82344356186095
100
AcDbArc
 50
154.301841513
 51
178.5602209566
  0
LINE
  5
1AE
330
1F
100
AcDbEntity
  8
0
  6
Continuous
 62
     7
370
     0
100
AcDbLine
 10
235.9132192617
 20
288.9406130449
 30
0.0
 11
235.9132192617
 21
328.0406114824
 31
0.0
  0
LINE
  5
1AF
330
1F
100
AcDbEntity
  8
0
  6
Continuous
 62
     7
370
     0
100
AcDbLine
 10
220.0874656959
 20
288.9406130449
 30
0.0
 11
235.9132192617
 21
288.9406130449
 31
0.0
  0
LINE
  5
1B0
330
1F
100
AcDbEntity
  8
0
  6
Continuous
 62
     7
370
     0
100
AcDbLine
 10
194.5944003349
 20
288.9406130449
 30
0.0
 11
210.4201539008
 21
288.9406130449
 31
0.0
  0
LINE
  5
1B1
330
1F
100
AcDbEntity
  8
0
  6
Continuous
 62
     7
370
     0
100
AcDbLine
 10
194.5944003349
 20
330.2406115723
 30
0.0
 11
194.5944003349
 21
288.9406130449
 31
0.0
  0
LWPOLYLINE
  5
1B2
330
1F
100
AcDbEntity
  8
0
  6
Continuous
 62
     7
370
     0
100
AcDbPolyline
 90
        6
 70
   128
 43
0.0
 10
240.0442327892
 20
341.2406117456
 10
240.392243821
 20
341.6710792841
 10
240.6110357082
 20
342.0142725842
 10
240.770619694
 20
342.3541932167
 10
240.8142894095
 20
342.4878380062
 10
240.810843516
 20
342.4765056731
  0
ARC
  5
1B3
330
1F
100
AcDbEntity
  8
0
  6
Continuous
 62
     7
370
     0
100
AcDbCircle
 10
192.6667536433
 20
343.4630408666
 30
0.0
 40
3.129539360975388
100
AcDbArc
 50
198.3747760485
 51
225.2467763411
  0
ARC
  5
1B4
330
1F
100
AcDbEntity
  8
0
  6
Continuous
 62
     7
370
     0
100
AcDbCircle
 10
219.7906216998
 20
288.89234065
 30
0.0
 40
0.3007433824950291
100
AcDbArc
 50
329.7005193211
 51
9.2365140747
  0
ARC
  5
1B5
330
1F
100
AcDbEntity
  8
0
  6
Continuous
 62
     7
370
     0
100
AcDbCircle
 10
210.7169978969
 20
288.89234065
 30
0.0
 40
0.300743382494973
100
AcDbArc
 50
170.7634859253
 51
210.2994806789
  0
ARC
  5
1B6
330
1F
100
AcDbEntity
  8
0
  6
Continuous
 62
     7
370
     0
100
AcDbCircle
 10
194.7765153523
 20
288.9221793187
 30
0.0
 40
0.183045573029886
100
AcDbArc
 50
174.2201927205
 51
262.7191723308
  0
ARC
  5
1B7
330
1F
100
AcDbEntity
  8
0
  6
Continuous
 62
     7
370
     0
100
AcDbCircle
 10
235.7311042444
 20
288.9221793187
 30
0.0
 40
0.1830455730298932
100
AcDbArc
 50
277.2808276692
 51
5.7798072795
  0
LWPOLYLINE
  5
1B8
330
1F
100
AcDbEntity
  8
0
  6
Continuous
 62
     7
370
     0
100
AcDbPolyline
 90
        9
 70
   128
 43
0.0
 10
192.9084438419
 20
328.6129816294
 10
192.9147023296
 20
328.6024573059
 10
192.9231401121
 20
328.588264532
 10
192.9335560238
 20
328.5707453066
 10
192.9456986075
 20
328.5503217518
 10
192.959275428
 20
328.5274860424
 10
192.9739586597
 20
328.5027884446
 10
192.9893962627
 20
328.4768241025
 10
193.0052138453
 20
328.4502186322
  0
ARC
  5
1B9
330
1F
100
AcDbEntity
  8
0
  6
Continuous
 62
     7
370
     0
100
AcDbCircle
 10
190.2540971508
 20
333.0494491038
 30
0.0
 40
5.169893616702074
100
AcDbArc
 50
300.8921610857
 51
327.090978854
  0
ARC
  5
1BA
330
1F
100
AcDbEntity
  8
0
  6
Continuous
 62
     7
370
     0
100
AcDbCircle
 10
190.1438572667
 20
332.5905050128
 30
0.0
 40
5.032825526849288
100
AcDbArc
 50
304.6483944669
 51
332.1658786045
  0
LINE
  5
1BB
330
1F
100
AcDbEntity
  8
0
  6
Continuous
 62
     7
370
     0
100
AcDbLine
 10
193.0052138453
 20
288.9406130449
 30
0.0
 11
194.5944003349
 21
288.9406130449
 31
0.0
  0
LINE
  5
1BC
330
1F
100
AcDbEntity
  8
0
  6
Continuous
 62
     7
370
     0
100
AcDbLine
 10
193.0052138453
 20
288.9406130449
 30
0.0
 11
193.0052138453
 21
328.4502186322
 31
0.0
  0
ARC
  5
1BD
330
1F
100
AcDbEntity
  8
0
  6
Continuous
 62
     7
370
     0
100
AcDbCircle
 10
191.4417742762
 20
330.1791524188
 30
0.0
 40
2.080601946735585
100
AcDbArc
 50
305.1413218161
 51
1.6927132138
  0
LINE
  5
1BE
330
1F
100
AcDbEntity
  8
0
  6
Continuous
 62
     7
370
     0
100
AcDbLine
 10
192.6393586731
 20
328.4777717814
 30
0.0
 11
192.9084438419
 21
328.6129816294
 31
0.0
  0
LINE
  5
1BF
330
1F
100
AcDbEntity
  8
0
  6
Continuous
 62
     7
370
     0
100
AcDbLine
 10
183.2512043005
 20
312.9406113909
 30
0.0
 11
183.6937836891
 21
310.9263469265
 31
0.0
  0
ARC
  5
1C0
330
1F
100
AcDbEntity
  8
0
  6
Continuous
 62
     7
370
     0
100
AcDbCircle
 10
143.0634438231
 20
319.694801276
 30
0.0
 40
40.50828421440575
100
AcDbArc
 50
347.5003398176
 51
350.4019020188
  0
ARC
  5
1C1
330
1F
100
AcDbEntity
  8
0
  6
Continuous
 62
     7
370
     0
100
AcDbCircle
 10
127.5756714521
 20
296.6757279543
 30
0.0
 40
53.27263560472597
100
AcDbArc
 50
7.4039063134
 51
10.7682052092
  0
LINE
  5
1C2
330
1F
100
AcDbEntity
  8
0
  6
Continuous
 62
     7
370
     0
100
AcDbLine
 10
181.2105685061
 20
306.4237040268
 30
0.0
 11
180.6314199751
 21
303.5406105952
 31
0.0
  0
LINE
  5
1C3
330
1F
100
AcDbEntity
  8
0
  6
Continuous
 62
     7
370
     0
100
AcDbLine
 10
235.9132192617
 20
288.9406130449
 30
0.0
 11
237.5024057513
 21
288.9406130449
 31
0.0
  0
LINE
  5
1C4
330
1F
100
AcDbEntity
  8
0
  6
Continuous
 62
     7
370
     0
100
AcDbLine
 10
237.5024057513
 20
328.0406114824
 30
0.0
 11
235.9132192617
 21
328.0406114824
 31
0.0
  0
LINE
  5
1C5
330
1F
100
AcDbEntity
  8
0
  6
Continuous
 62
     7
370
     0
100
AcDbLine
 10
237.5024057513
 20
328.0406114824
 30
0.0
 11
237.5024057513
 21
288.9406130449
 31
0.0
  0
LINE
  5
1C6
330
1F
100
AcDbEntity
  8
0
  6
Continuous
 62
     7
370
     0
100
AcDbLine
 10
237.5024057513
 20
328.0406114824
 30
0.0
 11
237.5024057513
 21
328.2406114773
 31
0.0
  0
LINE
  5
1C7
330
1F
100
AcDbEntity
  8
0
  6
Continuous
 62
     7
370
     0
100
AcDbLine
 10
193.0052138453
 20
288.7406096594
 30
0.0
 11
193.0052138453
 21
288.9406130449
 31
0.0
  0
LINE
  5
1C8
330
1F
100
AcDbEntity
  8
0
  6
Continuous
 62
     7
370
     0
100
AcDbLine
 10
237.5024057513
 20
288.7406096594
 30
0.0
 11
237.5024057513
 21
288.9406130449
 31
0.0
  0
ARC
  5
1C9
330
1F
100
AcDbEntity
  8
0
  6
Continuous
 62
     7
370
     0
100
AcDbCircle
 10
268.5670945934
 20
291.0046579521
 30
0.0
 40
83.6428957207211
100
AcDbArc
 50
169.1443664423
 51
171.3803355604
  0
ARC
  5
1CA
330
1F
100
AcDbEntity
  8
0
  6
Continuous
 62
     7
370
     0
100
AcDbCircle
 10
147.1719274045
 20
299.4157308281
 30
0.0
 40
38.63100128827833
100
AcDbArc
 50
6.1295230135
 51
13.0100948291
  0
LINE
  5
1CB
330
1F
100
AcDbEntity
  8
0
  6
Continuous
 62
     7
370
     0
100
AcDbLine
 10
178.2933756297
 20
312.9406113909
 30
0.0
 11
180.2561603075
 21
303.5406105952
 31
0.0
  0
LINE
  5
1CC
330
1F
100
AcDbEntity
  8
0
  6
Continuous
 62
     7
370
     0
100
AcDbLine
 10
179.9102335757
 20
306.628984286
 30
0.0
 11
178.7283889538
 21
312.9406113909
 31
0.0
  0
LINE
  5
1CD
330
1F
100
AcDbEntity
  8
0
  6
Continuous
 62
     7
370
     0
100
AcDbLine
 10
180.2561603075
 20
303.5406105952
 30
0.0
 11
180.404140014
 21
303.5406105952
 31
0.0
  0
LINE
  5
1CE
330
1F
100
AcDbEntity
  8
0
  6
Continuous
 62
     7
370
     0
100
AcDbLine
 10
178.7283889538
 20
312.9406113909
 30
0.0
 11
178.2933756297
 21
312.9406113909
 31
0.0
  0
LINE
  5
1CF
330
1F
100
AcDbEntity
  8
0
  6
Continuous
 62
     7
370
     0
100
AcDbLine
 10
245.462900359
 20
312.9406113909
 30
0.0
 11
245.462900359
 21
303.5406105952
 31
0.0
  0
LINE
  5
1D0
330
1F
100
AcDbEntity
  8
0
  6
Continuous
 62
     7
370
     0
100
AcDbLine
 10
251.1165499276
 20
312.9406113909
 30
0.0
 11
250.5815237349
 21
312.9406113909
 31
0.0
  0
LINE
  5
1D1
330
1F
100
AcDbEntity
  8
0
  6
Continuous
 62
     7
370
     0
100
AcDbLine
 10
250.5815237349
 20
312.9406113909
 30
0.0
 11
245.9018624907
 21
307.4436866479
 31
0.0
  0
LINE
  5
1D2
330
1F
100
AcDbEntity
  8
0
  6
Continuous
 62
     7
370
     0
100
AcDbLine
 10
247.9434556847
 20
309.2138123499
 30
0.0
 11
251.1165499276
 21
312.9406113909
 31
0.0
  0
LINE
  5
1D3
330
1F
100
AcDbEntity
  8
0
  6
Continuous
 62
     7
370
     0
100
AcDbLine
 10
245.9018624907
 20
307.4436866479
 30
0.0
 11
245.9018624907
 21
312.9406113909
 31
0.0
  0
LINE
  5
1D4
330
1F
100
AcDbEntity
  8
0
  6
Continuous
 62
     7
370
     0
100
AcDbLine
 10
251.3833999222
 20
303.5406105952
 30
0.0
 11
247.9434556847
 21
309.2138123499
 31
0.0
  0
LINE
  5
1D5
330
1F
100
AcDbEntity
  8
0
  6
Continuous
 62
     7
370
     0
100
AcDbLine
 10
250.8918478673
 20
303.5406105952
 30
0.0
 11
251.3833999222
 21
303.5406105952
 31
0.0
  0
LINE
  5
1D6
330
1F
100
AcDbEntity
  8
0
  6
Continuous
 62
     7
370
     0
100
AcDbLine
 10
247.6552076226
 20
308.8751480715
 30
0.0
 11
250.8918478673
 21
303.5406105952
 31
0.0
  0
LINE
  5
1D7
330
1F
100
AcDbEntity
  8
0
  6
Continuous
 62
     7
370
     0
100
AcDbLine
 10
245.9018624907
 20
306.8169810609
 30
0.0
 11
247.6552076226
 21
308.8751480715
 31
0.0
  0
LINE
  5
1D8
330
1F
100
AcDbEntity
  8
0
  6
Continuous
 62
     7
370
     0
100
AcDbLine
 10
245.9018624907
 20
303.5406105952
 30
0.0
 11
245.9018624907
 21
306.8169810609
 31
0.0
  0
LINE
  5
1D9
330
1F
100
AcDbEntity
  8
0
  6
Continuous
 62
     7
370
     0
100
AcDbLine
 10
245.462900359
 20
303.5406105952
 30
0.0
 11
245.9018624907
 21
303.5406105952
 31
0.0
  0
LINE
  5
1DA
330
1F
100
AcDbEntity
  8
0
  6
Continuous
 62
     7
370
     0
100
AcDbLine
 10
245.9018624907
 20
312.9406113909
 30
0.0
 11
245.462900359
 21
312.9406113909
 31
0.0
  0
LINE
  5
1DB
330
1F
100
AcDbEntity
  8
0
  6
Continuous
 62
     7
370
     0
100
AcDbLine
 10
180.6314199751
 20
303.5406105952
 30
0.0
 11
180.9138826614
 21
303.5406105952
 31
0.0
  0
LINE
  5
1DC
330
1F
100
AcDbEntity
  8
0
  6
Continuous
 62
     7
370
     0
100
AcDbLine
 10
183.0046757644
 20
312.9406113909
 30
0.0
 11
182.7320962733
 21
312.9406113909
 31
0.0
  0
LINE
  5
1DD
330
1F
100
AcDbEntity
  8
0
  6
Continuous
 62
     7
370
     0
100
AcDbLine
 10
180.9138826614
 20
303.5406105952
 30
0.0
 11
182.6115719562
 21
310.9274384366
 31
0.0
  0
LINE
  5
1DE
330
1F
100
AcDbEntity
  8
0
  6
Continuous
 62
     7
370
     0
100
AcDbLine
 10
182.7320962733
 20
312.9406113909
 30
0.0
 11
181.2105685061
 21
306.4237040268
 31
0.0
  0
LINE
  5
1DF
330
1F
100
AcDbEntity
  8
0
  6
Continuous
 62
     7
370
     0
100
AcDbLine
 10
188.0401804632
 20
312.9406113909
 30
0.0
 11
187.6060723847
 21
312.9406113909
 31
0.0
  0
LINE
  5
1E0
330
1F
100
AcDbEntity
  8
0
  6
Continuous
 62
     7
370
     0
100
AcDbLine
 10
186.0258955097
 20
303.5406105952
 30
0.0
 11
188.0401804632
 21
312.9406113909
 31
0.0
  0
LINE
  5
1E1
330
1F
100
AcDbEntity
  8
0
  6
Continuous
 62
     7
370
     0
100
AcDbLine
 10
185.8689453041
 20
303.5406105952
 30
0.0
 11
186.0258955097
 21
303.5406105952
 31
0.0
  0
LINE
  5
1E2
330
1F
100
AcDbEntity
  8
0
  6
Continuous
 62
     7
370
     0
100
AcDbLine
 10
187.6060723847
 20
312.9406113909
 30
0.0
 11
186.4210016614
 21
306.7575440542
 31
0.0
  0
LINE
  5
1E3
330
1F
100
AcDbEntity
  8
0
  6
Continuous
 62
     7
370
     0
100
AcDbLine
 10
185.3597484117
 20
303.5406105952
 30
0.0
 11
185.582077462
 21
303.5406105952
 31
0.0
  0
LINE
  5
1E4
330
1F
100
AcDbEntity
  8
0
  6
Continuous
 62
     7
370
     0
100
AcDbLine
 10
183.6937836891
 20
310.9263469265
 30
0.0
 11
185.3597484117
 21
303.5406105952
 31
0.0
  0
LINE
  5
1E5
330
1F
100
AcDbEntity
  8
0
  6
Continuous
 62
     7
370
     0
100
AcDbLine
 10
183.7000757044
 20
312.9406113909
 30
0.0
 11
183.2512043005
 21
312.9406113909
 31
0.0
  0
LINE
  5
1E6
330
1F
100
AcDbEntity
  8
0
  6
Continuous
 62
     7
370
     0
100
AcDbLine
 10
184.8112869596
 20
308.1124470369
 30
0.0
 11
183.7000757044
 21
312.9406113909
 31
0.0
  0
LINE
  5
1E7
330
1F
100
AcDbEntity
  8
0
  6
Continuous
 62
     7
370
     0
100
AcDbLine
 10
191.8497498667
 20
328.3090095607
 30
0.0
 11
191.8497498667
 21
329.9825469763
 31
0.0
  0
LINE
  5
1E8
330
1F
100
AcDbEntity
  8
0
  6
Continuous
 62
     7
370
     0
100
AcDbLine
 10
174.7538096791
 20
328.3090095607
 30
0.0
 11
191.8497498667
 21
328.3090095607
 31
0.0
  0
LWPOLYLINE
  5
1E9
330
1F
100
AcDbEntity
  8
0
  6
Continuous
 62
     7
370
     0
100
AcDbPolyline
 90
        5
 70
   128
 43
0.0
 10
168.6262547558
 20
329.2300327481
 10
168.9678079968
 20
329.0265650172
 10
170.353809703
 20
328.5883227687
 10
172.4949016755
 20
328.3583941262
 10
174.7538096791
 20
328.3090095607
  0
LWPOLYLINE
  5
1EA
330
1F
100
AcDbEntity
  8
0
  6
Continuous
 62
     7
370
     0
100
AcDbPolyline
 90
        3
 70
   128
 43
0.0
 10
167.490890581
 20
329.9825469763
 10
167.4989558345
 20
329.9775078227
 10
168.6262547558
 20
329.2300327481
  0
LINE
  5
1EB
330
1F
100
AcDbEntity
  8
0
  6
Continuous
 62
     7
370
     0
100
AcDbLine
 10
167.490890581
 20
329.9825469763
 30
0.0
 11
191.8497498667
 21
329.9825469763
 31
0.0
  0
LWPOLYLINE
  5
1EC
330
1F
100
AcDbEntity
  8
0
  6
Continuous
 62
     7
370
     0
100
AcDbPolyline
 90
        5
 70
   128
 43
0.0
 10
174.7538096791
 20
328.1158493661
 10
172.5240818745
 20
328.1669695094
 10
170.2943503445
 20
328.4230939058
 10
168.8896178788
 20
328.9051603675
 10
168.5434490031
 20
329.1289748773
  0
ARC
  5
1ED
330
1F
100
AcDbEntity
  8
0
  6
Continuous
 62
     7
370
     0
100
AcDbCircle
 10
169.0230847818
 20
328.8204203976
 30
0.0
 40
0.570312499605032
100
AcDbArc
 50
134.0919228141
 51
147.2464191468
  0
ARC
  5
1EE
330
1F
100
AcDbEntity
  8
0
  6
Continuous
 62
     7
370
     0
100
AcDbCircle
 10
262.1206378958
 20
327.3786733525
 30
0.0
 40
23.56415034568133
100
AcDbArc
 50
148.8635055068
 51
177.903746351
  0
LINE
  5
1EF
330
1F
100
AcDbEntity
  8
0
  6
Continuous
 62
     7
370
     0
100
AcDbLine
 10
183.1535048371
 20
311.0553704934
 30
0.0
 11
183.0988920813
 21
310.8155381666
 31
0.0
  0
LINE
  5
1F0
330
1F
100
AcDbEntity
  8
0
  6
Continuous
 62
     7
370
     0
100
AcDbLine
 10
183.2057892865
 20
310.8174138503
 30
0.0
 11
183.1535048371
 21
311.0553704934
 31
0.0
  0
LWPOLYLINE
  5
1F1
330
1F
100
AcDbEntity
  8
0
  6
Continuous
 62
     7
370
     0
100
AcDbPolyline
 90
        3
 70
   128
 43
0.0
 10
180.40171485
 20
306.7208871977
 10
180.4963558501
 20
306.209119855
 10
180.5716514176
 20
305.7818756239
  0
LINE
  5
1F2
330
1F
100
AcDbEntity
  8
0
  6
Continuous
 62
     7
370
     0
100
AcDbLine
 10
180.5716514176
 20
305.7818756239
 30
0.0
 11
180.7218961006
 21
306.5298058824
 31
0.0
  0
LWPOLYLINE
  5
1F3
330
1F
100
AcDbEntity
  8
0
  6
Continuous
 62
     7
370
     0
100
AcDbPolyline
 90
        3
 70
   128
 43
0.0
 10
185.756504867
 20
305.9300881611
 10
185.8261510318
 20
306.3069143133
 10
185.929950658
 20
306.8517175303
  0
ARC
  5
1F4
330
1F
100
AcDbEntity
  8
0
  6
Continuous
 62
     7
370
     0
100
AcDbCircle
 10
149.138225879
 20
299.8144346777
 30
0.0
 40
37.12545721704814
100
AcDbArc
 50
9.4815138648
 51
13.0916925489
  0
ARC
  5
1F5
330
1F
100
AcDbEntity
  8
0
  6
Continuous
 62
     7
370
     0
100
AcDbCircle
 10
166.7252649721
 20
326.7024353692
 30
0.0
 40
25.33769668644618
100
AcDbArc
 50
7.438145794
 51
30.5023706473
  0
ARC
  5
1F6
330
1F
100
AcDbEntity
  8
0
  6
Continuous
 62
     7
370
     0
100
AcDbCircle
 10
191.1767343857
 20
339.8859291282
 30
0.0
 40
9.926224251140741
100
AcDbArc
 50
273.8877373244
 51
283.6633181534
  0
LINE
  5
1F7
330
1F
100
AcDbEntity
  8
0
  6
Continuous
 62
     7
370
     0
100
AcDbLine
 10
177.6781886404
 20
313.4406114729
 30
0.0
 11
179.1434570735
 21
313.4406114729
 31
0.0
  0
LINE
  5
1F8
330
1F
100
AcDbEntity
  8
0
  6
Continuous
 62
     7
370
     0
100
AcDbLine
 10
246.4018616414
 20
313.4406114729
 30
0.0
 11
246.4018616414
 21
308.8023335473
 31
0.0
  0
LINE
  5
1F9
330
1F
100
AcDbEntity
  8
0
  6
Continuous
 62
     7
370
     0
100
AcDbLine
 10
244.9629012084
 20
313.4406114729
 30
0.0
 11
246.4018616414
 21
313.4406114729
 31
0.0
  0
LINE
  5
1FA
330
1F
100
AcDbEntity
  8
0
  6
Continuous
 62
     7
370
     0
100
AcDbLine
 10
179.1434570735
 20
313.4406114729
 30
0.0
 11
180.40171485
 21
306.7208871977
 31
0.0
  0
LINE
  5
1FB
330
1F
100
AcDbEntity
  8
0
  6
Continuous
 62
     7
370
     0
100
AcDbLine
 10
187.1928035801
 20
313.4406114729
 30
0.0
 11
188.6586755103
 21
313.4406114729
 31
0.0
  0
LINE
  5
1FC
330
1F
100
AcDbEntity
  8
0
  6
Continuous
 62
     7
370
     0
100
AcDbLine
 10
188.6586755103
 20
313.4406114729
 30
0.0
 11
186.4301025456
 21
303.0406114446
 31
0.0
  0
LINE
  5
1FD
330
1F
100
AcDbEntity
  8
0
  6
Continuous
 62
     7
370
     0
100
AcDbLine
 10
179.8497795647
 20
303.0406114446
 30
0.0
 11
177.6781886404
 21
313.4406114729
 31
0.0
  0
LINE
  5
1FE
330
1F
100
AcDbEntity
  8
0
  6
Continuous
 62
     7
370
     0
100
AcDbLine
 10
250.3505371099
 20
313.4406114729
 30
0.0
 11
252.1989441996
 21
313.4406114729
 31
0.0
  0
LINE
  5
1FF
330
1F
100
AcDbEntity
  8
0
  6
Continuous
 62
     7
370
     0
100
AcDbLine
 10
184.0980726814
 20
313.4406114729
 30
0.0
 11
185.2987505084
 21
308.2237270461
 31
0.0
  0
LINE
  5
200
330
1F
100
AcDbEntity
  8
0
  6
Continuous
 62
     7
370
     0
100
AcDbLine
 10
252.1989441996
 20
313.4406114729
 30
0.0
 11
248.5581174081
 21
309.1644578414
 31
0.0
  0
LINE
  5
201
330
1F
100
AcDbEntity
  8
0
  6
Continuous
 62
     7
370
     0
100
AcDbLine
 10
182.3353863841
 20
313.4406114729
 30
0.0
 11
184.0980726814
 21
313.4406114729
 31
0.0
  0
LINE
  5
202
330
1F
100
AcDbEntity
  8
0
  6
Continuous
 62
     7
370
     0
100
AcDbLine
 10
185.929950658
 20
306.8517175303
 30
0.0
 11
187.1928035801
 21
313.4406114729
 31
0.0
  0
LINE
  5
203
330
1F
100
AcDbEntity
  8
0
  6
Continuous
 62
     7
370
     0
100
AcDbLine
 10
180.7218961006
 20
306.5298058824
 30
0.0
 11
182.3353863841
 21
313.4406114729
 31
0.0
  0
LINE
  5
204
330
1F
100
AcDbEntity
  8
0
  6
Continuous
 62
     7
370
     0
100
AcDbLine
 10
244.9629012084
 20
303.0406114446
 30
0.0
 11
244.9629012084
 21
313.4406114729
 31
0.0
  0
LINE
  5
205
330
1F
100
AcDbEntity
  8
0
  6
Continuous
 62
     7
370
     0
100
AcDbLine
 10
246.4018616414
 20
308.8023335473
 30
0.0
 11
250.3505371099
 21
313.4406114729
 31
0.0
  0
LINE
  5
206
330
1F
100
AcDbEntity
  8
0
  6
Continuous
 62
     7
370
     0
100
AcDbLine
 10
184.9599688834
 20
303.0406114446
 30
0.0
 11
183.2057892865
 21
310.8174138503
 31
0.0
  0
LINE
  5
207
330
1F
100
AcDbEntity
  8
0
  6
Continuous
 62
     7
370
     0
100
AcDbLine
 10
183.0988920813
 20
310.8155381666
 30
0.0
 11
181.3120044356
 21
303.0406114446
 31
0.0
  0
LINE
  5
208
330
1F
100
AcDbEntity
  8
0
  6
Continuous
 62
     7
370
     0
100
AcDbLine
 10
248.5581174081
 20
309.1644578414
 30
0.0
 11
252.271311689
 21
303.0406114446
 31
0.0
  0
LINE
  5
209
330
1F
100
AcDbEntity
  8
0
  6
Continuous
 62
     7
370
     0
100
AcDbLine
 10
250.6103798335
 20
303.0406114446
 30
0.0
 11
247.5868597215
 21
308.0238912986
 31
0.0
  0
LINE
  5
20A
330
1F
100
AcDbEntity
  8
0
  6
Continuous
 62
     7
370
     0
100
AcDbLine
 10
247.5868597215
 20
308.0238912986
 30
0.0
 11
246.4018616414
 21
306.6328809397
 31
0.0
  0
LINE
  5
20B
330
1F
100
AcDbEntity
  8
0
  6
Continuous
 62
     7
370
     0
100
AcDbLine
 10
246.4018616414
 20
306.6328809397
 30
0.0
 11
246.4018616414
 21
303.0406114446
 31
0.0
  0
LINE
  5
20C
330
1F
100
AcDbEntity
  8
0
  6
Continuous
 62
     7
370
     0
100
AcDbLine
 10
186.4301025456
 20
303.0406114446
 30
0.0
 11
184.9599688834
 21
303.0406114446
 31
0.0
  0
LINE
  5
20D
330
1F
100
AcDbEntity
  8
0
  6
Continuous
 62
     7
370
     0
100
AcDbLine
 10
181.3120044356
 20
303.0406114446
 30
0.0
 11
179.8497795647
 21
303.0406114446
 31
0.0
  0
LINE
  5
20E
330
1F
100
AcDbEntity
  8
0
  6
Continuous
 62
     7
370
     0
100
AcDbLine
 10
246.4018616414
 20
303.0406114446
 30
0.0
 11
244.9629012084
 21
303.0406114446
 31
0.0
  0
LINE
  5
20F
330
1F
100
AcDbEntity
  8
0
  6
Continuous
 62
     7
370
     0
100
AcDbLine
 10
252.271311689
 20
303.0406114446
 30
0.0
 11
250.6103798335
 21
303.0406114446
 31
0.0
  0
LINE
  5
210
330
1F
100
AcDbEntity
  8
0
  6
Continuous
 62
     7
370
     0
100
AcDbLine
 10
193.0052138453
 20
328.4502186322
 30
0.0
 11
192.7183199262
 21
328.3014878176
 31
0.0
  0
LWPOLYLINE
  5
211
330
1F
100
AcDbEntity
  8
0
  6
Continuous
 62
     7
370
     0
100
AcDbPolyline
 90
        9
 70
   128
 43
0.0
 10
192.6393586731
 20
328.4777717814
 10
192.6438644117
 20
328.4677125372
 10
192.6503575927
 20
328.453216123
 10
192.65866499
 20
328.4346695324
 10
192.668564949
 20
328.4125678216
 10
192.679792974
 20
328.3875009689
 10
192.692049179
 20
328.3601381078
 10
192.7050076013
 20
328.331209657
 10
192.7183199262
 20
328.3014878176
  0
LINE
  5
212
330
1F
100
AcDbEntity
  8
0
  6
Continuous
 62
     7
370
     0
100
AcDbLine
 10
191.8497498667
 20
328.3090095607
 30
0.0
 11
191.8497498667
 21
328.1158493661
 31
0.0
  0
LINE
  5
213
330
1F
100
AcDbEntity
  8
0
  6
Continuous
 62
     7
370
     0
100
AcDbLine
 10
191.8497498667
 20
328.1158493661
 30
0.0
 11
174.7538096791
 21
328.1158493661
 31
0.0
  0
ARC
  5
214
330
1F
100
AcDbEntity
  8
0
  6
Continuous
 62
     7
370
     0
100
AcDbCircle
 10
191.8497503214
 20
330.2406114773
 30
0.0
 40
1.931601914869091
100
AcDbArc
 50
270.0
 51
294.1285005212
  0
ARC
  5
215
330
1F
100
AcDbEntity
  8
0
  6
Continuous
 62
     7
370
     0
100
AcDbCircle
 10
191.8497503214
 20
330.2406114773
 30
0.0
 40
2.124762106356008
100
AcDbArc
 50
270.0
 51
294.1285005212
  0
LINE
  5
216
330
1F
100
AcDbEntity
  8
0
  6
Continuous
 62
     7
370
     0
100
AcDbLine
 10
174.7538096791
 20
288.9406130449
 30
0.0
 11
193.0052138453
 21
288.9406130449
 31
0.0
  0
LINE
  5
217
330
1F
100
AcDbEntity
  8
0
  6
Continuous
 62
     7
370
     0
100
AcDbLine
 10
159.7538090831
 20
288.9406130449
 30
0.0
 11
174.7538096791
 21
288.9406130449
 31
0.0
  0
LWPOLYLINE
  5
218
330
1F
100
AcDbEntity
  8
0
  6
Continuous
 62
     7
370
     0
100
AcDbPolyline
 90
       15
 70
   128
 43
0.0
 10
168.5434490031
 20
329.1289748773
 10
168.5793757027
 20
328.7071672709
 10
168.5931145733
 20
328.2406114773
 10
168.3472454136
 20
326.2484195908
 10
167.8510441965
 20
324.7119550393
 10
167.1730450874
 20
323.2341705622
 10
165.6869262045
 20
320.7012418458
 10
164.0772431677
 20
318.3581725494
 10
162.5369920915
 20
316.2842689814
 10
161.8076659327
 20
315.3360605971
 10
161.1521936541
 20
314.497347808
 10
160.4896135217
 20
313.6600618051
 10
160.005571652
 20
313.0540977032
 10
159.7895644194
 20
312.7850656198
 10
159.7800947314
 20
312.7732890458
  0
LINE
  5
219
330
1F
100
AcDbEntity
  8
0
  6
Continuous
 62
     7
370
     0
100
AcDbLine
 10
237.5024057513
 20
288.9406130449
 30
0.0
 11
255.7538099175
 21
288.9406130449
 31
0.0
  0
LINE
  5
21A
330
1F
100
AcDbEntity
  8
0
  6
Continuous
 62
     7
370
     0
100
AcDbLine
 10
255.7538099175
 20
328.0406114824
 30
0.0
 11
237.5024057513
 21
328.0406114824
 31
0.0
  0
LWPOLYLINE
  5
21B
330
1F
100
AcDbEntity
  8
0
  6
Continuous
 62
     7
370
     0
100
AcDbPolyline
 90
        9
 70
   128
 43
0.0
 10
261.9170307701
 20
328.0406114824
 10
261.9155294782
 20
328.0786867723
 10
261.911074031
 20
328.1153693712
 10
261.9038320666
 20
328.1493174906
 10
261.8940680807
 20
328.1792893937
 10
261.8821359759
 20
328.2041887829
 10
261.8684753364
 20
328.2231048903
 10
261.8535853511
 20
328.2353458113
 10
261.8380136376
 20
328.2404637996
  0
LINE
  5
21C
330
1F
100
AcDbEntity
  8
0
  6
Continuous
 62
     7
370
     0
100
AcDbLine
 10
261.9170307701
 20
328.0406114824
 30
0.0
 11
255.7538099175
 21
328.0406114824
 31
0.0
  0
LINE
  5
21D
330
1F
100
AcDbEntity
  8
0
  6
Continuous
 62
     7
370
     0
100
AcDbLine
 10
255.7538099175
 20
288.9406130449
 30
0.0
 11
270.7538105136
 21
288.9406130449
 31
0.0
  0
LWPOLYLINE
  5
21E
330
1F
100
AcDbEntity
  8
0
  6
Continuous
 62
     7
370
     0
100
AcDbPolyline
 90
       14
 70
   128
 43
0.0
 10
270.7376800066
 20
312.7606696249
 10
270.6669404691
 20
312.8486563252
 10
270.531876344
 20
313.016898817
 10
270.0455136186
 20
313.6255032183
 10
269.3080216235
 20
314.5576332496
 10
268.4125847703
 20
315.7076461972
 10
267.3799342996
 20
317.0663443194
 10
265.7183095401
 20
319.3645699681
 10
264.0085689312
 20
322.0137803616
 10
263.2669493144
 20
323.3668700592
 10
262.6166142112
 20
324.8135367209
 10
262.2167378252
 20
326.0269028866
 10
261.9683280176
 20
327.3156505344
 10
261.9170307701
 20
328.0406114824
  0
LWPOLYLINE
  5
21F
330
1F
100
AcDbEntity
  8
0
  6
Continuous
 62
     7
370
     0
100
AcDbPolyline
 90
       14
 70
   128
 43
0.0
 10
157.7817484325
 20
314.7673056261
 10
157.7897205537
 20
314.7749229135
 10
158.0391399151
 20
315.0136478977
 10
158.5663690751
 20
315.5208070563
 10
159.3386441058
 20
316.2706726031
 10
160.8393512255
 20
317.7577563362
 10
162.6537017113
 20
319.6333263801
 10
164.4202380961
 20
321.6056468697
 10
166.1622769719
 20
323.8801629083
 10
166.9069885796
 20
325.1217951798
 10
167.4930363482
 20
326.5054764958
 10
167.7714980727
 20
328.2854575588
 10
167.7561200744
 20
328.6469665214
 10
167.490890581
 20
329.9825469763
  0
LWPOLYLINE
  5
220
330
1F
100
AcDbEntity
  8
0
  6
Continuous
 62
     7
370
     0
100
AcDbPolyline
 90
        3
 70
   128
 43
0.0
 10
168.5434490031
 20
329.1289748773
 10
167.4981213694
 20
329.9769925685
 10
167.490890581
 20
329.9825469763
  0
LWPOLYLINE
  5
221
330
1F
100
AcDbEntity
  8
0
  6
Continuous
 62
     7
370
     0
100
AcDbPolyline
 90
        3
 70
   128
 43
0.0
 10
262.7398207372
 20
328.0376039653
 10
262.5676750725
 20
328.0382640256
 10
261.9170307701
 20
328.0406114824
  0
LWPOLYLINE
  5
222
330
1F
100
AcDbEntity
  8
0
  6
Continuous
 62
     7
370
     0
100
AcDbPolyline
 90
       14
 70
   128
 43
0.0
 10
262.7398207372
 20
328.0376039653
 10
262.7969294375
 20
327.4350003372
 10
263.0791201776
 20
326.3127357965
 10
263.5316535419
 20
325.2557398552
 10
264.2711236661
 20
323.9896673509
 10
265.1092059499
 20
322.8172425912
 10
267.0310198849
 20
320.519929173
 10
268.9300871974
 20
318.5081853332
 10
270.0908019727
 20
317.3342113183
 10
271.1152530795
 20
316.3231787072
 10
271.9370595699
 20
315.5247577266
 10
272.502286691
 20
314.981249048
 10
272.6553551441
 20
314.8347147541
 10
272.733709175
 20
314.7597386302
  0
ARC
  5
223
330
1F
100
AcDbEntity
  8
0
  6
Continuous
 62
     7
370
     0
100
AcDbCircle
 10
190.9322943929
 20
341.158128721
 30
0.0
 40
2.861564234933931
100
AcDbArc
 50
168.7734680763
 51
213.8737944223
  0
LWPOLYLINE
  5
224
330
1F
100
AcDbEntity
  8
0
  6
Continuous
 62
     7
370
     0
100
AcDbPolyline
 90
        6
 70
   128
 43
0.0
 10
242.3821337109
 20
341.7152426006
 10
242.377572093
 20
341.7357810573
 10
242.4224059617
 20
341.5042393641
 10
242.4205787068
 20
340.9108602242
 10
242.2845758086
 20
340.3146200614
 10
241.9511884039
 20
339.5631917553
  0
LINE
  5
225
330
1F
100
AcDbEntity
  8
0
  6
Continuous
 62
     7
370
    15
100
AcDbLine
 10
393.1545367426
 20
288.7406096594
 30
0.0
 11
393.1545367426
 21
287.7406113581
 31
0.0
  0
LINE
  5
226
330
1F
100
AcDbEntity
  8
0
  6
Continuous
 62
     7
370
    15
100
AcDbLine
 10
417.9545374549
 20
287.7406113581
 30
0.0
 11
417.9545374549
 21
288.7406096594
 31
0.0
  0
ARC
  5
227
330
1F
100
AcDbEntity
  8
0
  6
Continuous
 62
     7
370
    15
100
AcDbCircle
 10
381.5545370988
 20
341.2406114773
 30
0.0
 40
2.0
100
AcDbArc
 50
90.0
 51
131.8441492542
  0
ARC
  5
228
330
1F
100
AcDbEntity
  8
0
  6
Continuous
 62
     7
370
    15
100
AcDbCircle
 10
429.5545370988
 20
341.2406114773
 30
0.0
 40
2.0
100
AcDbArc
 50
48.2046962841
 51
90.0
  0
LINE
  5
229
330
1F
100
AcDbEntity
  8
0
  6
Continuous
 62
     7
370
    15
100
AcDbLine
 10
431.5545376352
 20
299.5406118022
 30
0.0
 11
431.5545376352
 21
313.0355560021
 31
0.0
  0
LINE
  5
22A
330
1F
100
AcDbEntity
  8
0
  6
Continuous
 62
     7
370
    15
100
AcDbLine
 10
379.5545365623
 20
313.0355569334
 30
0.0
 11
379.5545365623
 21
299.5406118022
 31
0.0
  0
LINE
  5
22B
330
1F
100
AcDbEntity
  8
0
  6
Continuous
 62
     7
370
    15
100
AcDbLine
 10
425.5545366517
 20
282.7406124012
 30
0.0
 11
425.5545366517
 21
286.7406130569
 31
0.0
  0
LINE
  5
22C
330
1F
100
AcDbEntity
  8
0
  6
Continuous
 62
     7
370
    15
100
AcDbLine
 10
385.5545375458
 20
286.7406130569
 30
0.0
 11
385.5545375458
 21
282.7406124012
 31
0.0
  0
LINE
  5
22D
330
1F
100
AcDbEntity
  8
0
  6
Continuous
 62
     7
370
    15
100
AcDbLine
 10
385.5545375458
 20
282.7406124012
 30
0.0
 11
386.5545377097
 21
281.7406103747
 31
0.0
  0
LINE
  5
22E
330
1F
100
AcDbEntity
  8
0
  6
Continuous
 62
     7
370
    15
100
AcDbLine
 10
424.5545364878
 20
281.7406103747
 30
0.0
 11
425.5545366517
 21
282.7406124012
 31
0.0
  0
LINE
  5
22F
330
1F
100
AcDbEntity
  8
0
  6
Continuous
 62
     7
370
    15
100
AcDbLine
 10
424.5545364878
 20
286.7406130569
 30
0.0
 11
424.5545364878
 21
288.7406096594
 31
0.0
  0
LINE
  5
230
330
1F
100
AcDbEntity
  8
0
  6
Continuous
 62
     7
370
    15
100
AcDbLine
 10
386.5545377097
 20
288.7406096594
 30
0.0
 11
386.5545377097
 21
286.7406130569
 31
0.0
  0
LINE
  5
231
330
1F
100
AcDbEntity
  8
0
  6
Continuous
 62
     7
370
    15
100
AcDbLine
 10
423.0545371733
 20
277.740609719
 30
0.0
 11
423.0545371733
 21
281.7406103747
 31
0.0
  0
LINE
  5
232
330
1F
100
AcDbEntity
  8
0
  6
Continuous
 62
     7
370
    15
100
AcDbLine
 10
388.0545370243
 20
281.7406103747
 30
0.0
 11
388.0545370243
 21
277.740609719
 31
0.0
  0
LINE
  5
233
330
1F
100
AcDbEntity
  8
0
  6
Continuous
 62
     7
370
    15
100
AcDbLine
 10
421.5545378587
 20
261.7406108217
 30
0.0
 11
421.5545378587
 21
263.2406138615
 31
0.0
  0
LINE
  5
234
330
1F
100
AcDbEntity
  8
0
  6
Continuous
 62
     7
370
    15
100
AcDbLine
 10
389.5545363388
 20
263.2406138615
 30
0.0
 11
389.5545363388
 21
261.7406108217
 31
0.0
  0
ARC
  5
235
330
1F
100
AcDbEntity
  8
0
  6
Continuous
 62
     7
370
    15
100
AcDbCircle
 10
378.6364539567
 20
313.077995956
 30
0.0
 40
0.9402857609871325
100
AcDbArc
 50
357.862566178
 51
92.8487731862
  0
ARC
  5
236
330
1F
100
AcDbEntity
  8
0
  6
Continuous
 62
     7
370
    15
100
AcDbCircle
 10
432.5112222815
 20
313.0455939047
 30
0.0
 40
0.9762761810507548
100
AcDbArc
 50
89.3537328915
 51
180.1631593069
  0
LINE
  5
237
330
1F
100
AcDbEntity
  8
0
  6
Continuous
 62
     7
370
    15
100
AcDbLine
 10
379.5731071345
 20
342.4940340952
 30
0.0
 11
366.5545362941
 21
342.266794181
 31
0.0
  0
LINE
  5
238
330
1F
100
AcDbEntity
  8
0
  6
Continuous
 62
     7
370
    15
100
AcDbLine
 10
366.5545362941
 20
314.2144287737
 30
0.0
 11
378.5854600332
 21
314.0044285716
 31
0.0
  0
LINE
  5
239
330
1F
100
AcDbEntity
  8
0
  6
Continuous
 62
     7
370
    15
100
AcDbLine
 10
432.5236141644
 20
314.0044276403
 30
0.0
 11
444.5545379034
 21
314.2144287737
 31
0.0
  0
LINE
  5
23A
330
1F
100
AcDbEntity
  8
0
  6
Continuous
 62
     7
370
    15
100
AcDbLine
 10
444.5545379034
 20
342.266794181
 30
0.0
 11
431.5359670631
 21
342.4940340952
 31
0.0
  0
LINE
  5
23B
330
1F
100
AcDbEntity
  8
0
  6
Continuous
 62
     7
370
    15
100
AcDbLine
 10
362.5648993961
 20
340.7406116636
 30
0.0
 11
361.5545373372
 21
338.9906118424
 31
0.0
  0
LINE
  5
23C
330
1F
100
AcDbEntity
  8
0
  6
Continuous
 62
     7
370
    15
100
AcDbLine
 10
361.5545373372
 20
317.4906111123
 30
0.0
 11
362.5648993961
 21
315.7406112911
 31
0.0
  0
LINE
  5
23D
330
1F
100
AcDbEntity
  8
0
  6
Continuous
 62
     7
370
    15
100
AcDbLine
 10
444.5545379034
 20
317.2406115369
 30
0.0
 11
445.5545362047
 21
317.2406115369
 31
0.0
  0
LINE
  5
23E
330
1F
100
AcDbEntity
  8
0
  6
Continuous
 62
     7
370
    15
100
AcDbLine
 10
445.5545362047
 20
339.2406114177
 30
0.0
 11
444.5545379034
 21
339.2406114177
 31
0.0
  0
LINE
  5
23F
330
1F
100
AcDbEntity
  8
0
  6
Continuous
 62
     7
370
    15
100
AcDbLine
 10
395.5545373223
 20
259.2406132059
 30
0.0
 11
395.5545373223
 21
253.2406084971
 31
0.0
  0
LINE
  5
240
330
1F
100
AcDbEntity
  8
0
  6
Continuous
 62
     7
370
    15
100
AcDbLine
 10
415.5545368753
 20
253.2406084971
 30
0.0
 11
415.5545368753
 21
259.2406132059
 31
0.0
  0
ARC
  5
241
330
1F
100
AcDbEntity
  8
0
  6
Continuous
 62
     7
370
    15
100
AcDbCircle
 10
431.4833337508
 20
343.3786994676
 30
0.0
 40
0.8778907589499974
100
AcDbArc
 50
227.591843805
 51
273.1814734132
  0
ARC
  5
242
330
1F
100
AcDbEntity
  8
0
  6
Continuous
 62
     7
370
    15
100
AcDbCircle
 10
379.5861195894
 20
343.4474155838
 30
0.0
 40
0.9527363819651272
100
AcDbArc
 50
268.9483339069
 51
311.3436245
  0
LINE
  5
243
330
1F
100
AcDbEntity
  8
0
  6
Continuous
 62
     7
370
    15
100
AcDbLine
 10
398.4545370526
 20
253.2406084971
 30
0.0
 11
398.4545370526
 21
250.7406108813
 31
0.0
  0
LINE
  5
244
330
1F
100
AcDbEntity
  8
0
  6
Continuous
 62
     7
370
    15
100
AcDbLine
 10
412.654537145
 20
250.7406108813
 30
0.0
 11
412.654537145
 21
253.2406084971
 31
0.0
  0
LINE
  5
245
330
1F
100
AcDbEntity
  8
0
  6
Continuous
 62
     7
370
    15
100
AcDbLine
 10
398.5545368827
 20
242.74060957
 30
0.0
 11
398.5545368827
 21
239.7406109409
 31
0.0
  0
LINE
  5
246
330
1F
100
AcDbEntity
  8
0
  6
Continuous
 62
     7
370
    15
100
AcDbLine
 10
412.5545373148
 20
239.7406109409
 30
0.0
 11
412.5545373148
 21
242.74060957
 31
0.0
  0
ARC
  5
247
330
1F
100
AcDbEntity
  8
0
  6
Continuous
 62
     7
370
    15
100
AcDbCircle
 10
378.0545370988
 20
288.9396114773
 30
0.0
 40
1.5
100
AcDbArc
 50
0.0337034017
 51
90.0
  0
ARC
  5
248
330
1F
100
AcDbEntity
  8
0
  6
Continuous
 62
     7
370
    15
100
AcDbCircle
 10
378.0545370988
 20
299.5406114773
 30
0.0
 40
1.5
100
AcDbArc
 50
270.0
 51
0.0
  0
ARC
  5
249
330
1F
100
AcDbEntity
  8
0
  6
Continuous
 62
     7
370
    15
100
AcDbCircle
 10
433.0545370988
 20
288.9396114773
 30
0.0
 40
1.5
100
AcDbArc
 50
90.0
 51
179.9662965983
  0
ARC
  5
24A
330
1F
100
AcDbEntity
  8
0
  6
Continuous
 62
     7
370
    15
100
AcDbCircle
 10
433.0545370988
 20
299.5406114773
 30
0.0
 40
1.5
100
AcDbArc
 50
180.0
 51
270.0
  0
ARC
  5
24B
330
1F
100
AcDbEntity
  8
0
  6
Continuous
 62
     7
370
    15
100
AcDbCircle
 10
379.7545368047
 20
288.9406114773
 30
0.0
 40
0.2000000000000455
100
AcDbArc
 50
180.0337034017
 51
270.0
  0
ARC
  5
24C
330
1F
100
AcDbEntity
  8
0
  6
Continuous
 62
     7
370
    15
100
AcDbCircle
 10
431.3545373929
 20
288.9406114773
 30
0.0
 40
0.2000000000000576
100
AcDbArc
 50
270.0
 51
359.9662965983
  0
LINE
  5
24D
330
1F
100
AcDbEntity
  8
0
  6
Continuous
 62
     7
370
    15
100
AcDbLine
 10
366.5545362941
 20
340.7406116636
 30
0.0
 11
362.5648993961
 21
340.7406116636
 31
0.0
  0
LINE
  5
24E
330
1F
100
AcDbEntity
  8
0
  6
Continuous
 62
     7
370
    15
100
AcDbLine
 10
362.5648993961
 20
315.7406112911
 30
0.0
 11
366.5545362941
 21
315.7406112911
 31
0.0
  0
CIRCLE
  5
24F
330
1F
100
AcDbEntity
  8
0
  6
Continuous
 62
     7
370
    15
100
AcDbCircle
 10
405.5545370988
 20
328.2406114773
 30
0.0
 40
11.0
  0
ARC
  5
250
330
1F
100
AcDbEntity
  8
0
  6
Continuous
 62
     7
370
    15
100
AcDbCircle
 10
405.5545370988
 20
328.2406114773
 30
0.0
 40
13.49999999999996
100
AcDbArc
 50
44.4270040008
 51
135.5729959992
  0
LINE
  5
251
330
1F
100
AcDbEntity
  8
0
  6
Continuous
 62
     7
370
    15
100
AcDbLine
 10
417.0545371211
 20
337.6906112568
 30
0.0
 11
415.1954654566
 21
337.6906112568
 31
0.0
  0
ARC
  5
252
330
1F
100
AcDbEntity
  8
0
  6
Continuous
 62
     7
370
    15
100
AcDbCircle
 10
417.0545370988
 20
335.6906114773
 30
0.0
 40
2.0
100
AcDbArc
 50
0.0
 51
90.0
  0
LINE
  5
253
330
1F
100
AcDbEntity
  8
0
  6
Continuous
 62
     7
370
    15
100
AcDbLine
 10
419.054537449
 20
321.6906114282
 30
0.0
 11
419.054537449
 21
335.6906113946
 31
0.0
  0
ARC
  5
254
330
1F
100
AcDbEntity
  8
0
  6
Continuous
 62
     7
370
    15
100
AcDbCircle
 10
417.0545370988
 20
321.6906114773
 30
0.0
 40
2.0
100
AcDbArc
 50
270.0
 51
0.0
  0
LINE
  5
255
330
1F
100
AcDbEntity
  8
0
  6
Continuous
 62
     7
370
    15
100
AcDbLine
 10
416.0019051246
 20
319.6906111003
 30
0.0
 11
417.0545371211
 21
319.6906111003
 31
0.0
  0
ARC
  5
256
330
1F
100
AcDbEntity
  8
0
  6
Continuous
 62
     7
370
    15
100
AcDbCircle
 10
405.5545370988
 20
328.2406114773
 30
0.0
 40
13.50000000000003
100
AcDbArc
 50
219.2964802392
 51
320.7035197608
  0
LINE
  5
257
330
1F
100
AcDbEntity
  8
0
  6
Continuous
 62
     7
370
    15
100
AcDbLine
 10
394.0545370764
 20
319.6906111003
 30
0.0
 11
395.107169073
 21
319.6906111003
 31
0.0
  0
ARC
  5
258
330
1F
100
AcDbEntity
  8
0
  6
Continuous
 62
     7
370
    15
100
AcDbCircle
 10
394.0545370988
 20
321.6906114773
 30
0.0
 40
2.0
100
AcDbArc
 50
180.0
 51
270.0
  0
LINE
  5
259
330
1F
100
AcDbEntity
  8
0
  6
Continuous
 62
     7
370
    15
100
AcDbLine
 10
392.0545367486
 20
335.6906113946
 30
0.0
 11
392.0545367486
 21
321.6906114282
 31
0.0
  0
ARC
  5
25A
330
1F
100
AcDbEntity
  8
0
  6
Continuous
 62
     7
370
    15
100
AcDbCircle
 10
394.0545370988
 20
335.6906114773
 30
0.0
 40
2.0
100
AcDbArc
 50
90.0
 51
180.0
  0
LINE
  5
25B
330
1F
100
AcDbEntity
  8
0
  6
Continuous
 62
     7
370
    15
100
AcDbLine
 10
395.9136087409
 20
337.6906112568
 30
0.0
 11
394.0545370764
 21
337.6906112568
 31
0.0
  0
LINE
  5
25C
330
1F
100
AcDbEntity
  8
0
  6
Continuous
 62
     7
370
    15
100
AcDbLine
 10
392.0545367486
 20
329.653125376
 30
0.0
 11
391.9055307246
 21
329.2224203502
 31
0.0
  0
ARC
  5
25D
330
1F
100
AcDbEntity
  8
0
  6
Continuous
 62
     7
370
    15
100
AcDbCircle
 10
420.3545370988
 20
288.9406114773
 30
0.0
 40
0.2000000000000455
100
AcDbArc
 50
270.0
 51
0.0
  0
LINE
  5
25E
330
1F
100
AcDbEntity
  8
0
  6
Continuous
 62
     7
370
    15
100
AcDbLine
 10
420.3545371033
 20
288.7406096594
 30
0.0
 11
390.7545370943
 21
288.7406096594
 31
0.0
  0
ARC
  5
25F
330
1F
100
AcDbEntity
  8
0
  6
Continuous
 62
     7
370
    15
100
AcDbCircle
 10
390.7545370988
 20
288.9406114773
 30
0.0
 40
0.2000000000000455
100
AcDbArc
 50
180.0
 51
270.0
  0
LINE
  5
260
330
1F
100
AcDbEntity
  8
0
  6
Continuous
 62
     7
370
    15
100
AcDbLine
 10
390.5545374341
 20
288.9406130449
 30
0.0
 11
390.5545374341
 21
328.2752147058
 31
0.0
  0
ARC
  5
261
330
1F
100
AcDbEntity
  8
0
  6
Continuous
 62
     7
370
    15
100
AcDbCircle
 10
390.1841114793
 20
330.2406101743
 30
0.0
 40
1.999998683963619
100
AcDbArc
 50
280.6735567971
 51
329.3964166231
  0
LINE
  5
262
330
1F
100
AcDbEntity
  8
0
  6
Continuous
 62
     7
370
    15
100
AcDbLine
 10
420.5545367635
 20
288.9406130449
 30
0.0
 11
420.5545367635
 21
328.1158493661
 31
0.0
  0
LINE
  5
263
330
1F
100
AcDbEntity
  8
0
  6
Continuous
 62
     7
370
    15
100
AcDbLine
 10
404.5545370513
 20
288.7406096594
 30
0.0
 11
404.5545370513
 21
287.7406113581
 31
0.0
  0
LINE
  5
264
330
1F
100
AcDbEntity
  8
0
  6
Continuous
 62
     7
370
    15
100
AcDbLine
 10
393.1545367426
 20
287.7406113581
 30
0.0
 11
404.5545370513
 21
287.7406113581
 31
0.0
  0
LINE
  5
265
330
1F
100
AcDbEntity
  8
0
  6
Continuous
 62
     7
370
    15
100
AcDbLine
 10
406.5545371463
 20
287.7406113581
 30
0.0
 11
417.9545374549
 21
287.7406113581
 31
0.0
  0
LINE
  5
266
330
1F
100
AcDbEntity
  8
0
  6
Continuous
 62
     7
370
    15
100
AcDbLine
 10
406.5545371463
 20
288.7406096594
 30
0.0
 11
406.5545371463
 21
287.7406113581
 31
0.0
  0
LINE
  5
267
330
1F
100
AcDbEntity
  8
0
  6
Continuous
 62
     7
370
    15
100
AcDbLine
 10
419.054537449
 20
329.650842588
 30
0.0
 11
419.1990628801
 21
329.2300327481
 31
0.0
  0
ARC
  5
268
330
1F
100
AcDbEntity
  8
0
  6
Continuous
 62
     7
370
    15
100
AcDbCircle
 10
420.3545370988
 20
328.115849371
 30
0.0
 40
0.2000000000000455
100
AcDbArc
 50
0.0
 51
74.9723821359
  0
ARC
  5
269
330
1F
100
AcDbEntity
  8
0
  6
Continuous
 62
     7
370
    15
100
AcDbCircle
 10
420.9249628249
 20
330.2406117355
 30
0.0
 40
2.000000127330546
100
AcDbArc
 50
210.3505693468
 51
254.9723972618
  0
ARC
  5
26A
330
1F
100
AcDbEntity
  8
0
  6
Continuous
 62
     7
370
    15
100
AcDbCircle
 10
420.7545370988
 20
303.0406114773
 30
0.0
 40
0.1999999999999886
100
AcDbArc
 50
90.0
 51
180.0
  0
ARC
  5
26B
330
1F
100
AcDbEntity
  8
0
  6
Continuous
 62
     7
370
    15
100
AcDbCircle
 10
420.7545370988
 20
313.4406114773
 30
0.0
 40
0.2000000000000455
100
AcDbArc
 50
180.0
 51
270.0
  0
LINE
  5
26C
330
1F
100
AcDbEntity
  8
0
  6
Continuous
 62
     7
370
    15
100
AcDbLine
 10
420.9545370153
 20
303.2406111048
 30
0.0
 11
420.7545373551
 21
303.2406111048
 31
0.0
  0
LINE
  5
26D
330
1F
100
AcDbEntity
  8
0
  6
Continuous
 62
     7
370
    15
100
AcDbLine
 10
420.9545370153
 20
313.2406118126
 30
0.0
 11
420.7545373551
 21
313.2406118126
 31
0.0
  0
LINE
  5
26E
330
1F
100
AcDbEntity
  8
0
  6
Continuous
 62
     7
370
    15
100
AcDbLine
 10
421.2545365057
 20
312.9406113909
 30
0.0
 11
421.2545365057
 21
303.5406105952
 31
0.0
  0
ARC
  5
26F
330
1F
100
AcDbEntity
  8
0
  6
Continuous
 62
     7
370
    15
100
AcDbCircle
 10
420.9545370988
 20
303.5406114773
 30
0.0
 40
0.3000000000000114
100
AcDbArc
 50
270.0
 51
0.0
  0
ARC
  5
270
330
1F
100
AcDbEntity
  8
0
  6
Continuous
 62
     7
370
    15
100
AcDbCircle
 10
420.9545370988
 20
312.9406114773
 30
0.0
 40
0.3000000000000114
100
AcDbArc
 50
0.0
 51
90.0
  0
LINE
  5
271
330
1F
100
AcDbEntity
  8
0
  6
Continuous
 62
     7
370
    15
100
AcDbLine
 10
430.8802638165
 20
342.719956188
 30
0.0
 11
430.8810554407
 21
342.7164460333
 31
0.0
  0
LINE
  5
272
330
1F
100
AcDbEntity
  8
0
  6
Continuous
 62
     7
370
    15
100
AcDbLine
 10
380.2288066558
 20
342.7199422182
 30
0.0
 11
380.2279777787
 21
342.7162588374
 31
0.0
  0
LINE
  5
273
330
1F
100
AcDbEntity
  8
0
  6
Continuous
 62
     7
370
    15
100
AcDbLine
 10
429.5545373074
 20
343.2406111421
 30
0.0
 11
381.5545368902
 21
343.2406111421
 31
0.0
  0
LINE
  5
274
330
1F
100
AcDbEntity
  8
0
  6
Continuous
 62
     7
370
    15
100
AcDbLine
 10
431.5376974604
 20
313.0355560021
 30
0.0
 11
431.5336722843
 21
313.0429087938
 31
0.0
  0
LINE
  5
275
330
1F
100
AcDbEntity
  8
0
  6
Continuous
 62
     7
370
    15
100
AcDbLine
 10
420.5545367635
 20
328.3014878176
 30
0.0
 11
420.5545367635
 21
328.1158493661
 31
0.0
  0
ARC
  5
276
330
1F
100
AcDbEntity
  8
0
  6
Continuous
 62
     7
370
    15
100
AcDbCircle
 10
386.6759122339
 20
327.7421967715
 30
0.0
 40
3.975948987722245
100
AcDbArc
 50
12.7033020666
 51
38.9308505021
  0
LINE
  5
277
330
1F
100
AcDbEntity
  8
0
  6
Continuous
 62
     7
370
    15
100
AcDbLine
 10
390.5545374341
 20
328.4777704281
 30
0.0
 11
390.5545374341
 21
328.6165175993
 31
0.0
  0
LINE
  5
278
330
1F
100
AcDbEntity
  8
0
  6
Continuous
 62
     7
370
    15
100
AcDbLine
 10
420.5545367635
 20
328.4502186322
 30
0.0
 11
420.5545367635
 21
328.3014878176
 31
0.0
  0
LINE
  5
279
330
1F
100
AcDbEntity
  8
0
  6
Continuous
 62
     7
370
    15
100
AcDbLine
 10
390.7545370943
 20
288.7406096594
 30
0.0
 11
389.8902520499
 21
288.7406096594
 31
0.0
  0
LINE
  5
27A
330
1F
100
AcDbEntity
  8
0
  6
Continuous
 62
     7
370
    15
100
AcDbLine
 10
421.2188221476
 20
288.7406096594
 30
0.0
 11
420.3545371033
 21
288.7406096594
 31
0.0
  0
LINE
  5
27B
330
1F
100
AcDbEntity
  8
0
  6
Continuous
 62
     7
370
    15
100
AcDbLine
 10
389.8902520499
 20
288.7406096594
 30
0.0
 11
380.2043128721
 21
288.7406096594
 31
0.0
  0
LINE
  5
27C
330
1F
100
AcDbEntity
  8
0
  6
Continuous
 62
     7
370
    15
100
AcDbLine
 10
430.9047613255
 20
288.7406096594
 30
0.0
 11
421.2188221476
 21
288.7406096594
 31
0.0
  0
LINE
  5
27D
330
1F
100
AcDbEntity
  8
0
  6
Continuous
 62
     7
370
    15
100
AcDbLine
 10
425.5545366517
 20
282.7406124012
 30
0.0
 11
385.5545375458
 21
282.7406124012
 31
0.0
  0
LINE
  5
27E
330
1F
100
AcDbEntity
  8
0
  6
Continuous
 62
     7
370
    15
100
AcDbLine
 10
425.5545366517
 20
286.7406130569
 30
0.0
 11
385.5545375458
 21
286.7406130569
 31
0.0
  0
LINE
  5
27F
330
1F
100
AcDbEntity
  8
0
  6
Continuous
 62
     7
370
    15
100
AcDbLine
 10
424.5545364878
 20
281.7406103747
 30
0.0
 11
386.5545377097
 21
281.7406103747
 31
0.0
  0
LINE
  5
280
330
1F
100
AcDbEntity
  8
0
  6
Continuous
 62
     7
370
    15
100
AcDbLine
 10
423.0545371733
 20
277.740609719
 30
0.0
 11
388.0545370243
 21
277.740609719
 31
0.0
  0
LINE
  5
281
330
1F
100
AcDbEntity
  8
0
  6
Continuous
 62
     7
370
    15
100
AcDbLine
 10
403.8605077853
 20
263.2406138615
 30
0.0
 11
397.2703417725
 21
263.2406138615
 31
0.0
  0
LINE
  5
282
330
1F
100
AcDbEntity
  8
0
  6
Continuous
 62
     7
370
    15
100
AcDbLine
 10
397.2703417725
 20
277.740609719
 30
0.0
 11
397.2703417725
 21
263.2406138615
 31
0.0
  0
LINE
  5
283
330
1F
100
AcDbEntity
  8
0
  6
Continuous
 62
     7
370
    15
100
AcDbLine
 10
410.4506735652
 20
263.2406138615
 30
0.0
 11
410.4506735652
 21
277.740609719
 31
0.0
  0
LINE
  5
284
330
1F
100
AcDbEntity
  8
0
  6
Continuous
 62
     7
370
    15
100
AcDbLine
 10
410.4506735652
 20
263.2406138615
 30
0.0
 11
403.8605077853
 21
263.2406138615
 31
0.0
  0
LINE
  5
285
330
1F
100
AcDbEntity
  8
0
  6
Continuous
 62
     7
370
    15
100
AcDbLine
 10
415.6067943162
 20
263.2406138615
 30
0.0
 11
410.4506735652
 21
263.2406138615
 31
0.0
  0
LINE
  5
286
330
1F
100
AcDbEntity
  8
0
  6
Continuous
 62
     7
370
    15
100
AcDbLine
 10
420.762915533
 20
263.2406138615
 30
0.0
 11
420.762915533
 21
277.740609719
 31
0.0
  0
LINE
  5
287
330
1F
100
AcDbEntity
  8
0
  6
Continuous
 62
     7
370
    15
100
AcDbLine
 10
415.6067943162
 20
263.2406138615
 30
0.0
 11
420.762915533
 21
263.2406138615
 31
0.0
  0
LINE
  5
288
330
1F
100
AcDbEntity
  8
0
  6
Continuous
 62
     7
370
    15
100
AcDbLine
 10
421.5545378587
 20
261.7406108217
 30
0.0
 11
389.5545363388
 21
261.7406108217
 31
0.0
  0
LINE
  5
289
330
1F
100
AcDbEntity
  8
0
  6
Continuous
 62
     7
370
    15
100
AcDbLine
 10
366.5545362941
 20
342.266794181
 30
0.0
 11
366.5545362941
 21
314.2144287737
 31
0.0
  0
LINE
  5
28A
330
1F
100
AcDbEntity
  8
0
  6
Continuous
 62
     7
370
    15
100
AcDbLine
 10
444.5545379034
 20
314.2144287737
 30
0.0
 11
444.5545379034
 21
342.266794181
 31
0.0
  0
LINE
  5
28B
330
1F
100
AcDbEntity
  8
0
  6
Continuous
 62
     7
370
    15
100
AcDbLine
 10
393.1065605915
 20
263.2406138615
 30
0.0
 11
388.9427784792
 21
263.2406138615
 31
0.0
  0
LINE
  5
28C
330
1F
100
AcDbEntity
  8
0
  6
Continuous
 62
     7
370
    15
100
AcDbLine
 10
388.9427784792
 20
263.2406138615
 30
0.0
 11
388.9427784792
 21
277.740609719
 31
0.0
  0
LINE
  5
28D
330
1F
100
AcDbEntity
  8
0
  6
Continuous
 62
     7
370
    15
100
AcDbLine
 10
397.2703417725
 20
263.2406138615
 30
0.0
 11
393.1065605915
 21
263.2406138615
 31
0.0
  0
LINE
  5
28E
330
1F
100
AcDbEntity
  8
0
  6
Continuous
 62
     7
370
    15
100
AcDbLine
 10
393.4130551255
 20
259.2406132059
 30
0.0
 11
393.4130551255
 21
261.7406108217
 31
0.0
  0
LINE
  5
28F
330
1F
100
AcDbEntity
  8
0
  6
Continuous
 62
     7
370
    15
100
AcDbLine
 10
404.1482280203
 20
259.2406132059
 30
0.0
 11
404.1482280203
 21
261.7406108217
 31
0.0
  0
LINE
  5
290
330
1F
100
AcDbEntity
  8
0
  6
Continuous
 62
     7
370
    15
100
AcDbLine
 10
404.1482280203
 20
259.2406132059
 30
0.0
 11
393.4130551255
 21
259.2406132059
 31
0.0
  0
LINE
  5
291
330
1F
100
AcDbEntity
  8
0
  6
Continuous
 62
     7
370
    15
100
AcDbLine
 10
416.2897098771
 20
259.2406132059
 30
0.0
 11
416.2897098771
 21
261.7406108217
 31
0.0
  0
LINE
  5
292
330
1F
100
AcDbEntity
  8
0
  6
Continuous
 62
     7
370
    15
100
AcDbLine
 10
416.2897098771
 20
259.2406132059
 30
0.0
 11
404.1482280203
 21
259.2406132059
 31
0.0
  0
LINE
  5
293
330
1F
100
AcDbEntity
  8
0
  6
Continuous
 62
     7
370
    15
100
AcDbLine
 10
362.5648993961
 20
340.7406116636
 30
0.0
 11
362.5648993961
 21
340.7354763509
 31
0.0
  0
ARC
  5
294
330
1F
100
AcDbEntity
  8
0
  6
Continuous
 62
     7
370
    15
100
AcDbCircle
 10
367.3620676789
 20
337.7668907666
 30
0.0
 40
5.641393790986418
100
AcDbArc
 50
148.2499328445
 51
211.7500671555
  0
LINE
  5
295
330
1F
100
AcDbEntity
  8
0
  6
Continuous
 62
     7
370
    15
100
AcDbLine
 10
362.5648993961
 20
334.7983051823
 30
0.0
 11
362.5648993961
 21
334.177782646
 31
0.0
  0
ARC
  5
296
330
1F
100
AcDbEntity
  8
0
  6
Continuous
 62
     7
370
    15
100
AcDbCircle
 10
383.1620068774
 20
328.2406114773
 30
0.0
 40
21.43573740466222
100
AcDbArc
 50
163.9202323907
 51
196.0797676093
  0
LINE
  5
297
330
1F
100
AcDbEntity
  8
0
  6
Continuous
 62
     7
370
    15
100
AcDbLine
 10
362.5648993961
 20
322.3034403087
 30
0.0
 11
362.5648993961
 21
321.6829177724
 31
0.0
  0
ARC
  5
298
330
1F
100
AcDbEntity
  8
0
  6
Continuous
 62
     7
370
    15
100
AcDbCircle
 10
367.3620673746
 20
318.7143321881
 30
0.0
 40
5.641393532194274
100
AcDbArc
 50
148.249931218
 51
211.750068782
  0
LINE
  5
299
330
1F
100
AcDbEntity
  8
0
  6
Continuous
 62
     7
370
    15
100
AcDbLine
 10
362.5648993961
 20
315.7457466037
 30
0.0
 11
362.5648993961
 21
315.7406112911
 31
0.0
  0
LINE
  5
29A
330
1F
100
AcDbEntity
  8
0
  6
Continuous
 62
     7
370
    15
100
AcDbLine
 10
361.5545373372
 20
338.9906118424
 30
0.0
 11
361.5545373372
 21
317.4906111123
 31
0.0
  0
LINE
  5
29B
330
1F
100
AcDbEntity
  8
0
  6
Continuous
 62
     7
370
    15
100
AcDbLine
 10
362.5648993961
 20
322.3034403087
 30
0.0
 11
366.5545362941
 21
322.3034403087
 31
0.0
  0
LINE
  5
29C
330
1F
100
AcDbEntity
  8
0
  6
Continuous
 62
     7
370
    15
100
AcDbLine
 10
366.5545362941
 20
334.177782646
 30
0.0
 11
362.5648993961
 21
334.177782646
 31
0.0
  0
LINE
  5
29D
330
1F
100
AcDbEntity
  8
0
  6
Continuous
 62
     7
370
    15
100
AcDbLine
 10
366.5545362941
 20
321.6829177724
 30
0.0
 11
362.5648993961
 21
321.6829177724
 31
0.0
  0
LINE
  5
29E
330
1F
100
AcDbEntity
  8
0
  6
Continuous
 62
     7
370
    15
100
AcDbLine
 10
362.5648993961
 20
334.7983051823
 30
0.0
 11
366.5545362941
 21
334.7983051823
 31
0.0
  0
LINE
  5
29F
330
1F
100
AcDbEntity
  8
0
  6
Continuous
 62
     7
370
    15
100
AcDbLine
 10
445.5545362047
 20
317.2406115369
 30
0.0
 11
445.5545362047
 21
339.2406114177
 31
0.0
  0
LINE
  5
2A0
330
1F
100
AcDbEntity
  8
0
  6
Continuous
 62
     7
370
    15
100
AcDbLine
 10
362.5648993961
 20
315.7457466037
 30
0.0
 11
366.5545362941
 21
315.7457466037
 31
0.0
  0
LINE
  5
2A1
330
1F
100
AcDbEntity
  8
0
  6
Continuous
 62
     7
370
    15
100
AcDbLine
 10
366.5545362941
 20
340.7354763509
 30
0.0
 11
362.5648993961
 21
340.7354763509
 31
0.0
  0
LINE
  5
2A2
330
1F
100
AcDbEntity
  8
0
  6
Continuous
 62
     7
370
    15
100
AcDbLine
 10
404.4957687342
 20
253.2406084971
 30
0.0
 11
415.5545368753
 21
253.2406084971
 31
0.0
  0
LINE
  5
2A3
330
1F
100
AcDbEntity
  8
0
  6
Continuous
 62
     7
370
    15
100
AcDbLine
 10
395.5545373223
 20
253.2406084971
 30
0.0
 11
404.4957687342
 21
253.2406084971
 31
0.0
  0
LINE
  5
2A4
330
1F
100
AcDbEntity
  8
0
  6
Continuous
 62
     7
370
    15
100
AcDbLine
 10
422.1662957183
 20
263.2406138615
 30
0.0
 11
422.1662957183
 21
277.740609719
 31
0.0
  0
LINE
  5
2A5
330
1F
100
AcDbEntity
  8
0
  6
Continuous
 62
     7
370
    15
100
AcDbLine
 10
422.1662957183
 20
263.2406138615
 30
0.0
 11
421.4646056256
 21
263.2406138615
 31
0.0
  0
LINE
  5
2A6
330
1F
100
AcDbEntity
  8
0
  6
Continuous
 62
     7
370
    15
100
AcDbLine
 10
420.762915533
 20
263.2406138615
 30
0.0
 11
421.4646056256
 21
263.2406138615
 31
0.0
  0
LINE
  5
2A7
330
1F
100
AcDbEntity
  8
0
  6
Continuous
 62
     7
370
    15
100
AcDbLine
 10
404.8355171885
 20
242.74060957
 30
0.0
 11
404.8355171885
 21
250.7406108813
 31
0.0
  0
LINE
  5
2A8
330
1F
100
AcDbEntity
  8
0
  6
Continuous
 62
     7
370
    15
100
AcDbLine
 10
404.5533208604
 20
242.74060957
 30
0.0
 11
404.5533208604
 21
250.7406108813
 31
0.0
  0
LINE
  5
2A9
330
1F
100
AcDbEntity
  8
0
  6
Continuous
 62
     7
370
    15
100
AcDbLine
 10
404.8355171885
 20
250.7406108813
 30
0.0
 11
404.5533208604
 21
250.7406108813
 31
0.0
  0
LINE
  5
2AA
330
1F
100
AcDbEntity
  8
0
  6
Continuous
 62
     7
370
    15
100
AcDbLine
 10
404.5533208604
 20
242.74060957
 30
0.0
 11
404.8355171885
 21
242.74060957
 31
0.0
  0
LINE
  5
2AB
330
1F
100
AcDbEntity
  8
0
  6
Continuous
 62
     7
370
    15
100
AcDbLine
 10
405.9243710848
 20
242.74060957
 30
0.0
 11
405.9243710848
 21
250.7406108813
 31
0.0
  0
LINE
  5
2AC
330
1F
100
AcDbEntity
  8
0
  6
Continuous
 62
     7
370
    15
100
AcDbLine
 10
405.9243710848
 20
250.7406108813
 30
0.0
 11
404.8355171885
 21
250.7406108813
 31
0.0
  0
LINE
  5
2AD
330
1F
100
AcDbEntity
  8
0
  6
Continuous
 62
     7
370
    15
100
AcDbLine
 10
404.8355171885
 20
242.74060957
 30
0.0
 11
405.9243710848
 21
242.74060957
 31
0.0
  0
LINE
  5
2AE
330
1F
100
AcDbEntity
  8
0
  6
Continuous
 62
     7
370
    15
100
AcDbLine
 10
403.6675063157
 20
242.74060957
 30
0.0
 11
403.6675063157
 21
250.7406108813
 31
0.0
  0
LINE
  5
2AF
330
1F
100
AcDbEntity
  8
0
  6
Continuous
 62
     7
370
    15
100
AcDbLine
 10
404.5533208604
 20
250.7406108813
 30
0.0
 11
403.6675063157
 21
250.7406108813
 31
0.0
  0
LINE
  5
2B0
330
1F
100
AcDbEntity
  8
0
  6
Continuous
 62
     7
370
    15
100
AcDbLine
 10
403.6675063157
 20
242.74060957
 30
0.0
 11
404.5533208604
 21
242.74060957
 31
0.0
  0
LINE
  5
2B1
330
1F
100
AcDbEntity
  8
0
  6
Continuous
 62
     7
370
    15
100
AcDbLine
 10
407.0939512653
 20
242.74060957
 30
0.0
 11
407.0939512653
 21
250.7406108813
 31
0.0
  0
LINE
  5
2B2
330
1F
100
AcDbEntity
  8
0
  6
Continuous
 62
     7
370
    15
100
AcDbLine
 10
407.0939512653
 20
250.7406108813
 30
0.0
 11
405.9243710848
 21
250.7406108813
 31
0.0
  0
LINE
  5
2B3
330
1F
100
AcDbEntity
  8
0
  6
Continuous
 62
     7
370
    15
100
AcDbLine
 10
405.9243710848
 20
242.74060957
 30
0.0
 11
407.0939512653
 21
242.74060957
 31
0.0
  0
LINE
  5
2B4
330
1F
100
AcDbEntity
  8
0
  6
Continuous
 62
     7
370
    15
100
AcDbLine
 10
407.3716210163
 20
242.74060957
 30
0.0
 11
407.3716210163
 21
250.7406108813
 31
0.0
  0
LINE
  5
2B5
330
1F
100
AcDbEntity
  8
0
  6
Continuous
 62
     7
370
    15
100
AcDbLine
 10
407.3716210163
 20
250.7406108813
 30
0.0
 11
407.0939512653
 21
250.7406108813
 31
0.0
  0
LINE
  5
2B6
330
1F
100
AcDbEntity
  8
0
  6
Continuous
 62
     7
370
    15
100
AcDbLine
 10
407.0939512653
 20
242.74060957
 30
0.0
 11
407.3716210163
 21
242.74060957
 31
0.0
  0
LINE
  5
2B7
330
1F
100
AcDbEntity
  8
0
  6
Continuous
 62
     7
370
    15
100
AcDbLine
 10
408.1450338903
 20
242.74060957
 30
0.0
 11
408.1450338903
 21
250.7406108813
 31
0.0
  0
LINE
  5
2B8
330
1F
100
AcDbEntity
  8
0
  6
Continuous
 62
     7
370
    15
100
AcDbLine
 10
408.1450338903
 20
250.7406108813
 30
0.0
 11
407.3716210163
 21
250.7406108813
 31
0.0
  0
LINE
  5
2B9
330
1F
100
AcDbEntity
  8
0
  6
Continuous
 62
     7
370
    15
100
AcDbLine
 10
407.3716210163
 20
242.74060957
 30
0.0
 11
408.1450338903
 21
242.74060957
 31
0.0
  0
LINE
  5
2BA
330
1F
100
AcDbEntity
  8
0
  6
Continuous
 62
     7
370
    15
100
AcDbLine
 10
417.696019072
 20
259.2406132059
 30
0.0
 11
417.696019072
 21
261.7406108217
 31
0.0
  0
LINE
  5
2BB
330
1F
100
AcDbEntity
  8
0
  6
Continuous
 62
     7
370
    15
100
AcDbLine
 10
417.696019072
 20
259.2406132059
 30
0.0
 11
416.2897098771
 21
259.2406132059
 31
0.0
  0
LINE
  5
2BC
330
1F
100
AcDbEntity
  8
0
  6
Continuous
 62
     7
370
    15
100
AcDbLine
 10
402.3697959687
 20
242.74060957
 30
0.0
 11
402.3697959687
 21
250.7406108813
 31
0.0
  0
LINE
  5
2BD
330
1F
100
AcDbEntity
  8
0
  6
Continuous
 62
     7
370
    15
100
AcDbLine
 10
402.1106964405
 20
242.74060957
 30
0.0
 11
402.1106964405
 21
250.7406108813
 31
0.0
  0
LINE
  5
2BE
330
1F
100
AcDbEntity
  8
0
  6
Continuous
 62
     7
370
    15
100
AcDbLine
 10
402.3697959687
 20
250.7406108813
 30
0.0
 11
402.1106964405
 21
250.7406108813
 31
0.0
  0
LINE
  5
2BF
330
1F
100
AcDbEntity
  8
0
  6
Continuous
 62
     7
370
    15
100
AcDbLine
 10
402.1106964405
 20
242.74060957
 30
0.0
 11
402.3697959687
 21
242.74060957
 31
0.0
  0
LINE
  5
2C0
330
1F
100
AcDbEntity
  8
0
  6
Continuous
 62
     7
370
    15
100
AcDbLine
 10
403.6675063157
 20
250.7406108813
 30
0.0
 11
402.3697959687
 21
250.7406108813
 31
0.0
  0
LINE
  5
2C1
330
1F
100
AcDbEntity
  8
0
  6
Continuous
 62
     7
370
    15
100
AcDbLine
 10
402.3697959687
 20
242.74060957
 30
0.0
 11
403.6675063157
 21
242.74060957
 31
0.0
  0
LINE
  5
2C2
330
1F
100
AcDbEntity
  8
0
  6
Continuous
 62
     7
370
    15
100
AcDbLine
 10
401.5953572429
 20
242.74060957
 30
0.0
 11
401.5953572429
 21
250.7406108813
 31
0.0
  0
LINE
  5
2C3
330
1F
100
AcDbEntity
  8
0
  6
Continuous
 62
     7
370
    15
100
AcDbLine
 10
402.1106964405
 20
250.7406108813
 30
0.0
 11
401.5953572429
 21
250.7406108813
 31
0.0
  0
LINE
  5
2C4
330
1F
100
AcDbEntity
  8
0
  6
Continuous
 62
     7
370
    15
100
AcDbLine
 10
401.5953572429
 20
242.74060957
 30
0.0
 11
402.1106964405
 21
242.74060957
 31
0.0
  0
LINE
  5
2C5
330
1F
100
AcDbEntity
  8
0
  6
Continuous
 62
     7
370
    15
100
AcDbLine
 10
409.4838932119
 20
242.74060957
 30
0.0
 11
409.4838932119
 21
250.7406108813
 31
0.0
  0
LINE
  5
2C6
330
1F
100
AcDbEntity
  8
0
  6
Continuous
 62
     7
370
    15
100
AcDbLine
 10
409.4838932119
 20
250.7406108813
 30
0.0
 11
408.1450338903
 21
250.7406108813
 31
0.0
  0
LINE
  5
2C7
330
1F
100
AcDbEntity
  8
0
  6
Continuous
 62
     7
370
    15
100
AcDbLine
 10
408.1450338903
 20
242.74060957
 30
0.0
 11
409.4838932119
 21
242.74060957
 31
0.0
  0
LINE
  5
2C8
330
1F
100
AcDbEntity
  8
0
  6
Continuous
 62
     7
370
    15
100
AcDbLine
 10
409.7298559695
 20
242.74060957
 30
0.0
 11
409.7298559695
 21
250.7406108813
 31
0.0
  0
LINE
  5
2C9
330
1F
100
AcDbEntity
  8
0
  6
Continuous
 62
     7
370
    15
100
AcDbLine
 10
409.7298559695
 20
250.7406108813
 30
0.0
 11
409.4838932119
 21
250.7406108813
 31
0.0
  0
LINE
  5
2CA
330
1F
100
AcDbEntity
  8
0
  6
Continuous
 62
     7
370
    15
100
AcDbLine
 10
409.4838932119
 20
242.74060957
 30
0.0
 11
409.7298559695
 21
242.74060957
 31
0.0
  0
LINE
  5
2CB
330
1F
100
AcDbEntity
  8
0
  6
Continuous
 62
     7
370
    15
100
AcDbLine
 10
404.8133992668
 20
239.7406109409
 30
0.0
 11
412.5545373148
 21
239.7406109409
 31
0.0
  0
LINE
  5
2CC
330
1F
100
AcDbEntity
  8
0
  6
Continuous
 62
     7
370
    15
100
AcDbLine
 10
398.5545368827
 20
239.7406109409
 30
0.0
 11
404.8133992668
 21
239.7406109409
 31
0.0
  0
LINE
  5
2CD
330
1F
100
AcDbEntity
  8
0
  6
Continuous
 62
     7
370
    15
100
AcDbLine
 10
410.1121210455
 20
242.74060957
 30
0.0
 11
410.1121210455
 21
250.7406108813
 31
0.0
  0
LINE
  5
2CE
330
1F
100
AcDbEntity
  8
0
  6
Continuous
 62
     7
370
    15
100
AcDbLine
 10
410.1121210455
 20
250.7406108813
 30
0.0
 11
409.7298559695
 21
250.7406108813
 31
0.0
  0
LINE
  5
2CF
330
1F
100
AcDbEntity
  8
0
  6
Continuous
 62
     7
370
    15
100
AcDbLine
 10
409.7298559695
 20
242.74060957
 30
0.0
 11
410.1121210455
 21
242.74060957
 31
0.0
  0
LINE
  5
2D0
330
1F
100
AcDbEntity
  8
0
  6
Continuous
 62
     7
370
    15
100
AcDbLine
 10
366.5545362941
 20
298.040610625
 30
0.0
 11
378.5193603448
 21
298.040610625
 31
0.0
  0
LINE
  5
2D1
330
1F
100
AcDbEntity
  8
0
  6
Continuous
 62
     7
370
    15
100
AcDbLine
 10
444.5545379034
 20
290.4396102564
 30
0.0
 11
432.5897138528
 21
290.4396102564
 31
0.0
  0
LINE
  5
2D2
330
1F
100
AcDbEntity
  8
0
  6
Continuous
 62
     7
370
    15
100
AcDbLine
 10
378.5193603448
 20
290.4396102564
 30
0.0
 11
366.5545362941
 21
290.4396102564
 31
0.0
  0
LINE
  5
2D3
330
1F
100
AcDbEntity
  8
0
  6
Continuous
 62
     7
370
    15
100
AcDbLine
 10
432.5897138528
 20
298.040610625
 30
0.0
 11
444.5545379034
 21
298.040610625
 31
0.0
  0
ARC
  5
2D4
330
1F
100
AcDbEntity
  8
0
  6
Continuous
 62
     7
370
    15
100
AcDbCircle
 10
366.5545370988
 20
296.5406114773
 30
0.0
 40
1.5
100
AcDbArc
 50
90.0
 51
180.0
  0
LINE
  5
2D5
330
1F
100
AcDbEntity
  8
0
  6
Continuous
 62
     7
370
    15
100
AcDbLine
 10
365.0545369796
 20
291.9396132962
 30
0.0
 11
365.0545369796
 21
296.5406113104
 31
0.0
  0
ARC
  5
2D6
330
1F
100
AcDbEntity
  8
0
  6
Continuous
 62
     7
370
    15
100
AcDbCircle
 10
366.5545370988
 20
291.9396114773
 30
0.0
 40
1.5
100
AcDbArc
 50
180.0
 51
270.0
  0
ARC
  5
2D7
330
1F
100
AcDbEntity
  8
0
  6
Continuous
 62
     7
370
    15
100
AcDbCircle
 10
444.5545370988
 20
296.5406114773
 30
0.0
 40
1.5
100
AcDbArc
 50
0.0
 51
90.0
  0
LINE
  5
2D8
330
1F
100
AcDbEntity
  8
0
  6
Continuous
 62
     7
370
    15
100
AcDbLine
 10
446.054537218
 20
296.5406113104
 30
0.0
 11
446.054537218
 21
291.9396132962
 31
0.0
  0
ARC
  5
2D9
330
1F
100
AcDbEntity
  8
0
  6
Continuous
 62
     7
370
    15
100
AcDbCircle
 10
444.5545370988
 20
291.9396114773
 30
0.0
 40
1.5
100
AcDbArc
 50
270.0
 51
0.0
  0
LINE
  5
2DA
330
1F
100
AcDbEntity
  8
0
  6
Continuous
 62
     7
370
    15
100
AcDbLine
 10
400.2158193811
 20
242.74060957
 30
0.0
 11
400.2158193811
 21
250.7406108813
 31
0.0
  0
LINE
  5
2DB
330
1F
100
AcDbEntity
  8
0
  6
Continuous
 62
     7
370
    15
100
AcDbLine
 10
400.0051788948
 20
242.74060957
 30
0.0
 11
400.0051788948
 21
250.7406108813
 31
0.0
  0
LINE
  5
2DC
330
1F
100
AcDbEntity
  8
0
  6
Continuous
 62
     7
370
    15
100
AcDbLine
 10
400.2158193811
 20
250.7406108813
 30
0.0
 11
400.0051788948
 21
250.7406108813
 31
0.0
  0
LINE
  5
2DD
330
1F
100
AcDbEntity
  8
0
  6
Continuous
 62
     7
370
    15
100
AcDbLine
 10
400.0051788948
 20
242.74060957
 30
0.0
 11
400.2158193811
 21
242.74060957
 31
0.0
  0
LINE
  5
2DE
330
1F
100
AcDbEntity
  8
0
  6
Continuous
 62
     7
370
    15
100
AcDbLine
 10
401.5953572429
 20
250.7406108813
 30
0.0
 11
400.2158193811
 21
250.7406108813
 31
0.0
  0
LINE
  5
2DF
330
1F
100
AcDbEntity
  8
0
  6
Continuous
 62
     7
370
    15
100
AcDbLine
 10
400.2158193811
 20
242.74060957
 30
0.0
 11
401.5953572429
 21
242.74060957
 31
0.0
  0
LINE
  5
2E0
330
1F
100
AcDbEntity
  8
0
  6
Continuous
 62
     7
370
    15
100
AcDbLine
 10
399.9107604808
 20
242.74060957
 30
0.0
 11
399.9107604808
 21
250.7406108813
 31
0.0
  0
LINE
  5
2E1
330
1F
100
AcDbEntity
  8
0
  6
Continuous
 62
     7
370
    15
100
AcDbLine
 10
400.0051788948
 20
250.7406108813
 30
0.0
 11
399.9107604808
 21
250.7406108813
 31
0.0
  0
LINE
  5
2E2
330
1F
100
AcDbEntity
  8
0
  6
Continuous
 62
     7
370
    15
100
AcDbLine
 10
399.9107604808
 20
242.74060957
 30
0.0
 11
400.0051788948
 21
242.74060957
 31
0.0
  0
LINE
  5
2E3
330
1F
100
AcDbEntity
  8
0
  6
Continuous
 62
     7
370
    15
100
AcDbLine
 10
411.4892020784
 20
242.74060957
 30
0.0
 11
411.4892020784
 21
250.7406108813
 31
0.0
  0
LINE
  5
2E4
330
1F
100
AcDbEntity
  8
0
  6
Continuous
 62
     7
370
    15
100
AcDbLine
 10
411.4892020784
 20
250.7406108813
 30
0.0
 11
410.1121210455
 21
250.7406108813
 31
0.0
  0
LINE
  5
2E5
330
1F
100
AcDbEntity
  8
0
  6
Continuous
 62
     7
370
    15
100
AcDbLine
 10
410.1121210455
 20
242.74060957
 30
0.0
 11
411.4892020784
 21
242.74060957
 31
0.0
  0
LINE
  5
2E6
330
1F
100
AcDbEntity
  8
0
  6
Continuous
 62
     7
370
    15
100
AcDbLine
 10
411.6793814077
 20
242.74060957
 30
0.0
 11
411.6793814077
 21
250.7406108813
 31
0.0
  0
LINE
  5
2E7
330
1F
100
AcDbEntity
  8
0
  6
Continuous
 62
     7
370
    15
100
AcDbLine
 10
411.6793814077
 20
250.7406108813
 30
0.0
 11
411.4892020784
 21
250.7406108813
 31
0.0
  0
LINE
  5
2E8
330
1F
100
AcDbEntity
  8
0
  6
Continuous
 62
     7
370
    15
100
AcDbLine
 10
411.4892020784
 20
242.74060957
 30
0.0
 11
411.6793814077
 21
242.74060957
 31
0.0
  0
LINE
  5
2E9
330
1F
100
AcDbEntity
  8
0
  6
Continuous
 62
     7
370
    15
100
AcDbLine
 10
380.2043128721
 20
288.7406096594
 30
0.0
 11
380.1906261555
 21
288.7406096594
 31
0.0
  0
LINE
  5
2EA
330
1F
100
AcDbEntity
  8
0
  6
Continuous
 62
     7
370
    15
100
AcDbLine
 10
430.9184480421
 20
288.7406096594
 30
0.0
 11
430.9047613255
 21
288.7406096594
 31
0.0
  0
LINE
  5
2EB
330
1F
100
AcDbEntity
  8
0
  6
Continuous
 62
     7
370
    15
100
AcDbLine
 10
380.0174672119
 20
288.7406096594
 30
0.0
 11
379.7545362226
 21
288.7406096594
 31
0.0
  0
LINE
  5
2EC
330
1F
100
AcDbEntity
  8
0
  6
Continuous
 62
     7
370
    15
100
AcDbLine
 10
431.354537975
 20
288.7406096594
 30
0.0
 11
431.0570698193
 21
288.7406096594
 31
0.0
  0
LINE
  5
2ED
330
1F
100
AcDbEntity
  8
0
  6
Continuous
 62
     7
370
    15
100
AcDbLine
 10
398.5844342
 20
242.74060957
 30
0.0
 11
398.5844342
 21
250.7406108813
 31
0.0
  0
LINE
  5
2EE
330
1F
100
AcDbEntity
  8
0
  6
Continuous
 62
     7
370
    15
100
AcDbLine
 10
399.9107604808
 20
250.7406108813
 30
0.0
 11
398.5844342
 21
250.7406108813
 31
0.0
  0
LINE
  5
2EF
330
1F
100
AcDbEntity
  8
0
  6
Continuous
 62
     7
370
    15
100
AcDbLine
 10
398.5844342
 20
242.74060957
 30
0.0
 11
399.9107604808
 21
242.74060957
 31
0.0
  0
LINE
  5
2F0
330
1F
100
AcDbEntity
  8
0
  6
Continuous
 62
     7
370
    15
100
AcDbLine
 10
398.4428717717
 20
242.74060957
 30
0.0
 11
398.4428717717
 21
250.7406108813
 31
0.0
  0
LINE
  5
2F1
330
1F
100
AcDbEntity
  8
0
  6
Continuous
 62
     7
370
    15
100
AcDbLine
 10
398.5844342
 20
250.7406108813
 30
0.0
 11
398.4428717717
 21
250.7406108813
 31
0.0
  0
LINE
  5
2F2
330
1F
100
AcDbEntity
  8
0
  6
Continuous
 62
     7
370
    15
100
AcDbLine
 10
398.4428717717
 20
242.74060957
 30
0.0
 11
398.5844342
 21
242.74060957
 31
0.0
  0
LINE
  5
2F3
330
1F
100
AcDbEntity
  8
0
  6
Continuous
 62
     7
370
    15
100
AcDbLine
 10
412.9135849848
 20
242.74060957
 30
0.0
 11
412.9135849848
 21
250.7406108813
 31
0.0
  0
LINE
  5
2F4
330
1F
100
AcDbEntity
  8
0
  6
Continuous
 62
     7
370
    15
100
AcDbLine
 10
412.9135849848
 20
250.7406108813
 30
0.0
 11
411.6793814077
 21
250.7406108813
 31
0.0
  0
LINE
  5
2F5
330
1F
100
AcDbEntity
  8
0
  6
Continuous
 62
     7
370
    15
100
AcDbLine
 10
411.6793814077
 20
242.74060957
 30
0.0
 11
412.9135849848
 21
242.74060957
 31
0.0
  0
LINE
  5
2F6
330
1F
100
AcDbEntity
  8
0
  6
Continuous
 62
     7
370
    15
100
AcDbLine
 10
413.0293646789
 20
242.74060957
 30
0.0
 11
413.0293646789
 21
250.7406108813
 31
0.0
  0
LINE
  5
2F7
330
1F
100
AcDbEntity
  8
0
  6
Continuous
 62
     7
370
    15
100
AcDbLine
 10
413.0293646789
 20
250.7406108813
 30
0.0
 11
412.9135849848
 21
250.7406108813
 31
0.0
  0
LINE
  5
2F8
330
1F
100
AcDbEntity
  8
0
  6
Continuous
 62
     7
370
    15
100
AcDbLine
 10
412.9135849848
 20
242.74060957
 30
0.0
 11
413.0293646789
 21
242.74060957
 31
0.0
  0
LINE
  5
2F9
330
1F
100
AcDbEntity
  8
0
  6
Continuous
 62
     7
370
    15
100
AcDbLine
 10
397.6353308148
 20
242.74060957
 30
0.0
 11
397.6353308148
 21
250.7406108813
 31
0.0
  0
LINE
  5
2FA
330
1F
100
AcDbEntity
  8
0
  6
Continuous
 62
     7
370
    15
100
AcDbLine
 10
398.4428717717
 20
250.7406108813
 30
0.0
 11
397.6353308148
 21
250.7406108813
 31
0.0
  0
LINE
  5
2FB
330
1F
100
AcDbEntity
  8
0
  6
Continuous
 62
     7
370
    15
100
AcDbLine
 10
397.6353308148
 20
242.74060957
 30
0.0
 11
398.4428717717
 21
242.74060957
 31
0.0
  0
LINE
  5
2FC
330
1F
100
AcDbEntity
  8
0
  6
Continuous
 62
     7
370
    15
100
AcDbLine
 10
413.6176131628
 20
242.74060957
 30
0.0
 11
413.6176131628
 21
250.7406108813
 31
0.0
  0
LINE
  5
2FD
330
1F
100
AcDbEntity
  8
0
  6
Continuous
 62
     7
370
    15
100
AcDbLine
 10
413.6176131628
 20
250.7406108813
 30
0.0
 11
413.0293646789
 21
250.7406108813
 31
0.0
  0
LINE
  5
2FE
330
1F
100
AcDbEntity
  8
0
  6
Continuous
 62
     7
370
    15
100
AcDbLine
 10
413.0293646789
 20
242.74060957
 30
0.0
 11
413.6176131628
 21
242.74060957
 31
0.0
  0
LINE
  5
2FF
330
1F
100
AcDbEntity
  8
0
  6
Continuous
 62
     7
370
    15
100
AcDbLine
 10
397.5767031274
 20
242.74060957
 30
0.0
 11
397.5767031274
 21
250.7406108813
 31
0.0
  0
LINE
  5
300
330
1F
100
AcDbEntity
  8
0
  6
Continuous
 62
     7
370
    15
100
AcDbLine
 10
397.6353308148
 20
250.7406108813
 30
0.0
 11
397.5767031274
 21
250.7406108813
 31
0.0
  0
LINE
  5
301
330
1F
100
AcDbEntity
  8
0
  6
Continuous
 62
     7
370
    15
100
AcDbLine
 10
397.5767031274
 20
242.74060957
 30
0.0
 11
397.6353308148
 21
242.74060957
 31
0.0
  0
LINE
  5
302
330
1F
100
AcDbEntity
  8
0
  6
Continuous
 62
     7
370
    15
100
AcDbLine
 10
413.6476594917
 20
242.74060957
 30
0.0
 11
413.6476594917
 21
250.7406108813
 31
0.0
  0
LINE
  5
303
330
1F
100
AcDbEntity
  8
0
  6
Continuous
 62
     7
370
    15
100
AcDbLine
 10
413.6476594917
 20
250.7406108813
 30
0.0
 11
413.6176131628
 21
250.7406108813
 31
0.0
  0
LINE
  5
304
330
1F
100
AcDbEntity
  8
0
  6
Continuous
 62
     7
370
    15
100
AcDbLine
 10
413.6176131628
 20
242.74060957
 30
0.0
 11
413.6476594917
 21
242.74060957
 31
0.0
  0
LINE
  5
305
330
1F
100
AcDbEntity
  8
0
  6
Continuous
 62
     7
370
    15
100
AcDbLine
 10
397.4614147059
 20
242.74060957
 30
0.0
 11
397.4614147059
 21
250.7406108813
 31
0.0
  0
LINE
  5
306
330
1F
100
AcDbEntity
  8
0
  6
Continuous
 62
     7
370
    15
100
AcDbLine
 10
397.5767031274
 20
250.7406108813
 30
0.0
 11
397.4614147059
 21
250.7406108813
 31
0.0
  0
LINE
  5
307
330
1F
100
AcDbEntity
  8
0
  6
Continuous
 62
     7
370
    15
100
AcDbLine
 10
397.4614147059
 20
242.74060957
 30
0.0
 11
397.5767031274
 21
242.74060957
 31
0.0
  0
LINE
  5
308
330
1F
100
AcDbEntity
  8
0
  6
Continuous
 62
     7
370
     0
100
AcDbLine
 10
419.2085260487
 20
329.1289748773
 30
0.0
 11
419.054537449
 21
329.6196856569
 31
0.0
  0
ARC
  5
309
330
1F
100
AcDbEntity
  8
0
  6
Continuous
 62
     7
370
     0
100
AcDbCircle
 10
403.8530053609
 20
328.2108856664
 30
0.0
 40
15.38294196162761
100
AcDbArc
 50
351.1920241395
 51
3.4215766736
  0
ARC
  5
30A
330
1F
100
AcDbEntity
  8
0
  6
Continuous
 62
     7
370
     0
100
AcDbCircle
 10
405.5545504704
 20
325.6051671547
 30
0.0
 40
12.79732512775407
100
AcDbArc
 50
207.5273048146
 51
332.7930005429
  0
ARC
  5
30B
330
1F
100
AcDbEntity
  8
0
  6
Continuous
 62
     7
370
     0
100
AcDbCircle
 10
409.2289363509
 20
328.2437411918
 30
0.0
 40
17.35102865507813
100
AcDbArc
 50
176.7665340045
 51
188.1822961337
  0
LINE
  5
30C
330
1F
100
AcDbEntity
  8
0
  6
Continuous
 62
     7
370
     0
100
AcDbLine
 10
390.5545374341
 20
288.9406130449
 30
0.0
 11
420.5545367635
 21
288.9406130449
 31
0.0
  0
ARC
  5
30D
330
1F
100
AcDbEntity
  8
0
  6
Continuous
 62
     7
370
     0
100
AcDbCircle
 10
421.1212540805
 20
330.2694736008
 30
0.0
 40
2.226940920096405
100
AcDbArc
 50
210.8062758131
 51
255.2570816573
  0
ARC
  5
30E
330
1F
100
AcDbEntity
  8
0
  6
Continuous
 62
     7
370
     0
100
AcDbCircle
 10
419.0877038621
 20
329.1686329628
 30
0.0
 40
0.1271643209862748
100
AcDbArc
 50
341.8283473235
 51
28.8709306505
  0
LINE
  5
30F
330
1F
100
AcDbEntity
  8
0
  6
Continuous
 62
     7
370
     0
100
AcDbLine
 10
420.7545373551
 20
313.2406118126
 30
0.0
 11
420.7545373551
 21
303.2406111048
 31
0.0
  0
LINE
  5
310
330
1F
100
AcDbEntity
  8
0
  6
Continuous
 62
     7
370
     0
100
AcDbLine
 10
420.9545370153
 20
303.2406111048
 30
0.0
 11
420.9545370153
 21
313.2406118126
 31
0.0
  0
ARC
  5
311
330
1F
100
AcDbEntity
  8
0
  6
Continuous
 62
     7
370
     0
100
AcDbCircle
 10
420.6329995002
 20
325.168693416
 30
0.0
 40
5.135549279431656
100
AcDbArc
 50
99.0287664091
 51
107.9001992429
  0
ARC
  5
312
330
1F
100
AcDbEntity
  8
0
  6
Continuous
 62
     7
370
     0
100
AcDbCircle
 10
390.4760746974
 20
325.168693416
 30
0.0
 40
5.135549279431673
100
AcDbArc
 50
72.0998007571
 51
80.9712335909
  0
LWPOLYLINE
  5
313
330
1F
100
AcDbEntity
  8
0
  6
Continuous
 62
     7
370
     0
100
AcDbPolyline
 90
        6
 70
   128
 43
0.0
 10
430.3912840746
 20
341.2406117456
 10
430.6874167136
 20
341.7181241126
 10
430.8460228107
 20
342.1146291108
 10
430.9051990471
 20
342.5517667816
 10
430.8765720538
 20
342.736352122
 10
430.8802638165
 20
342.719956188
  0
ARC
  5
314
330
1F
100
AcDbEntity
  8
0
  6
Continuous
 62
     7
370
     0
100
AcDbCircle
 10
381.9729066052
 20
342.4763386296
 30
0.0
 40
1.761345598026188
100
AcDbArc
 50
172.1711653736
 51
224.5539985698
  0
LINE
  5
315
330
1F
100
AcDbEntity
  8
0
  6
Continuous
 62
     7
370
     0
100
AcDbLine
 10
419.8270760439
 20
330.2406115723
 30
0.0
 11
421.3402517102
 21
330.2406115723
 31
0.0
  0
LWPOLYLINE
  5
316
330
1F
100
AcDbEntity
  8
0
  6
Continuous
 62
     7
370
     0
100
AcDbPolyline
 90
       18
 70
   128
 43
0.0
 10
431.5336722843
 20
313.0429087938
 10
431.4990233592
 20
313.106198682
 10
431.2560319863
 20
313.5555422665
 10
430.8663908354
 20
314.2967502387
 10
430.3416687957
 20
315.342071353
 10
429.6820353679
 20
316.7540159808
 10
428.9637807719
 20
318.4672164531
 10
428.2018527351
 20
320.6183718318
 10
427.5385815612
 20
323.0886295238
 10
427.1720576993
 20
325.1563989358
 10
426.9815072379
 20
327.3614099632
 10
427.0016256682
 20
329.5413730699
 10
427.232366424
 20
331.7469967329
 10
427.6133816651
 20
333.7227738263
 10
428.1256575099
 20
335.6179607832
 10
428.7836778871
 20
337.544415033
 10
429.4912762902
 20
339.2932106541
 10
430.3912840746
 20
341.2406117456
  0
LINE
  5
317
330
1F
100
AcDbEntity
  8
0
  6
Continuous
 62
     7
370
     0
100
AcDbLine
 10
431.1150670014
 20
299.5406118022
 30
0.0
 11
431.5545376352
 21
299.5406118022
 31
0.0
  0
LWPOLYLINE
  5
318
330
1F
100
AcDbEntity
  8
0
  6
Continuous
 62
     7
370
     0
100
AcDbPolyline
 90
        6
 70
   128
 43
0.0
 10
430.4161652885
 20
296.5406113104
 10
430.4615784398
 20
297.5007210658
 10
430.5859100036
 20
298.3520802842
 10
430.7654522321
 20
299.0246721344
 10
430.9704642705
 20
299.4431172298
 10
431.1150670014
 20
299.5406118022
  0
LINE
  5
319
330
1F
100
AcDbEntity
  8
0
  6
Continuous
 62
     7
370
     0
100
AcDbLine
 10
430.4161652885
 20
291.9396132962
 30
0.0
 11
430.4161652885
 21
296.5406113104
 31
0.0
  0
ARC
  5
31A
330
1F
100
AcDbEntity
  8
0
  6
Continuous
 62
     7
370
     0
100
AcDbCircle
 10
435.1466754966
 20
291.4425229704
 30
0.0
 40
4.75655606726035
100
AcDbArc
 50
174.001273821
 51
211.735040968
  0
LINE
  5
31B
330
1F
100
AcDbEntity
  8
0
  6
Continuous
 62
     7
370
     0
100
AcDbLine
 10
421.3402517102
 20
288.9406130449
 30
0.0
 11
431.101274114
 21
288.9406130449
 31
0.0
  0
LINE
  5
31C
330
1F
100
AcDbEntity
  8
0
  6
Continuous
 62
     7
370
     0
100
AcDbLine
 10
421.3402517102
 20
330.2406115723
 30
0.0
 11
421.3402517102
 21
288.9406130449
 31
0.0
  0
LWPOLYLINE
  5
31D
330
1F
100
AcDbEntity
  8
0
  6
Continuous
 62
     7
370
     0
100
AcDbPolyline
 90
       18
 70
   128
 43
0.0
 10
380.717790123
 20
341.2406117456
 10
381.4487311951
 20
339.6785118417
 10
382.2522427849
 20
337.7375126617
 10
383.0055747143
 20
335.5453613946
 10
383.6461905352
 20
333.0366377519
 10
383.981908109
 20
330.9694224769
 10
384.1382529549
 20
328.7746546008
 10
384.0867750309
 20
326.6166417194
 10
383.8307823948
 20
324.4434102704
 10
383.4278214685
 20
322.474291435
 10
382.8988321088
 20
320.5918356576
 10
382.2247538678
 20
318.6720068367
 10
381.5089076719
 20
316.9386590631
 10
380.7716540954
 20
315.350787601
 10
380.1386080644
 20
314.0960995839
 10
379.7408718578
 20
313.3469632627
 10
379.5596476606
 20
313.0141318576
 10
379.5713767371
 20
313.0355569334
  0
LINE
  5
31E
330
1F
100
AcDbEntity
  8
0
  6
Continuous
 62
     7
370
     0
100
AcDbLine
 10
389.7688224874
 20
330.2406115723
 30
0.0
 11
391.2819981537
 21
330.2406115723
 31
0.0
  0
LINE
  5
31F
330
1F
100
AcDbEntity
  8
0
  6
Continuous
 62
     7
370
     0
100
AcDbLine
 10
389.7688224874
 20
288.9406130449
 30
0.0
 11
389.7688224874
 21
330.2406115723
 31
0.0
  0
LINE
  5
320
330
1F
100
AcDbEntity
  8
0
  6
Continuous
 62
     7
370
     0
100
AcDbLine
 10
380.0078000835
 20
288.9406130449
 30
0.0
 11
389.7688224874
 21
288.9406130449
 31
0.0
  0
ARC
  5
321
330
1F
100
AcDbEntity
  8
0
  6
Continuous
 62
     7
370
     0
100
AcDbCircle
 10
376.8396275626
 20
291.2421237758
 30
0.0
 40
3.915899483721234
100
AcDbArc
 50
324.0035670401
 51
10.2601181709
  0
LINE
  5
322
330
1F
100
AcDbEntity
  8
0
  6
Continuous
 62
     7
370
     0
100
AcDbLine
 10
380.6929089091
 20
296.5406113104
 30
0.0
 11
380.6929089091
 21
291.9396132962
 31
0.0
  0
ARC
  5
323
330
1F
100
AcDbEntity
  8
0
  6
Continuous
 62
     7
370
     0
100
AcDbCircle
 10
376.0904396464
 20
297.049797769
 30
0.0
 40
4.630550092998085
100
AcDbArc
 50
353.6868511906
 51
32.5414006658
  0
LINE
  5
324
330
1F
100
AcDbEntity
  8
0
  6
Continuous
 62
     7
370
     0
100
AcDbLine
 10
379.5545365623
 20
299.5406118022
 30
0.0
 11
379.9940071962
 21
299.5406118022
 31
0.0
  0
LINE
  5
325
330
1F
100
AcDbEntity
  8
0
  6
Continuous
 62
     7
370
     0
100
AcDbLine
 10
420.4063940755
 20
328.3090095607
 30
0.0
 11
420.4063940755
 21
328.4777717814
 31
0.0
  0
ARC
  5
326
330
1F
100
AcDbEntity
  8
0
  6
Continuous
 62
     7
370
     0
100
AcDbCircle
 10
420.3683756358
 20
328.2954335862
 30
0.0
 40
0.1862595479061206
100
AcDbArc
 50
1.8626858123
 51
78.2222804395
  0
ARC
  5
327
330
1F
100
AcDbEntity
  8
0
  6
Continuous
 62
     7
370
     0
100
AcDbCircle
 10
424.6663584199
 20
327.2832383673
 30
0.0
 40
4.450735008735392
100
AcDbArc
 50
138.3584371
 51
162.6162968126
  0
LINE
  5
328
330
1F
100
AcDbEntity
  8
0
  6
Continuous
 62
     7
370
     0
100
AcDbLine
 10
420.4063940755
 20
328.4777717814
 30
0.0
 11
420.4189091883
 21
328.6129816294
 31
0.0
  0
ARC
  5
329
330
1F
100
AcDbEntity
  8
0
  6
Continuous
 62
     7
370
     0
100
AcDbCircle
 10
420.378413892
 20
328.4413480546
 30
0.0
 40
0.176346117086679
100
AcDbArc
 50
2.8833140504
 51
76.7243977804
  0
ARC
  5
32A
330
1F
100
AcDbEntity
  8
0
  6
Continuous
 62
     7
370
     0
100
AcDbCircle
 10
425.0266820042
 20
327.555217376
 30
0.0
 40
4.560823423705172
100
AcDbArc
 50
143.928390913
 51
168.6830187018
  0
LINE
  5
32B
330
1F
100
AcDbEntity
  8
0
  6
Continuous
 62
     7
370
     0
100
AcDbLine
 10
389.7688224874
 20
288.9406130449
 30
0.0
 11
390.5545374341
 21
288.9406130449
 31
0.0
  0
LWPOLYLINE
  5
32C
330
1F
100
AcDbEntity
  8
0
  6
Continuous
 62
     7
370
     0
100
AcDbPolyline
 90
        9
 70
   128
 43
0.0
 10
389.7688224874
 20
288.9406130449
 10
389.7711563817
 20
288.9015943544
 10
389.7780667952
 20
288.8640732305
 10
389.7892873696
 20
288.8294988112
 10
389.8043878338
 20
288.7991898493
 10
389.8227889053
 20
288.774316086
 10
389.8437827788
 20
288.7558349208
 10
389.8665610663
 20
288.744454159
 10
389.8902520499
 20
288.7406096594
  0
LINE
  5
32D
330
1F
100
AcDbEntity
  8
0
  6
Continuous
 62
     7
370
     0
100
AcDbLine
 10
420.5545367635
 20
288.9406130449
 30
0.0
 11
421.3402517102
 21
288.9406130449
 31
0.0
  0
LWPOLYLINE
  5
32E
330
1F
100
AcDbEntity
  8
0
  6
Continuous
 62
     7
370
     0
100
AcDbPolyline
 90
        9
 70
   128
 43
0.0
 10
421.2188221476
 20
288.7406096594
 10
421.2425131313
 20
288.744454159
 10
421.2652914188
 20
288.7558349208
 10
421.2862852923
 20
288.774316086
 10
421.3046863637
 20
288.7991898493
 10
421.3197868279
 20
288.8294988112
 10
421.3310074023
 20
288.8640732305
 10
421.3379178158
 20
288.9015943544
 10
421.3402517102
 20
288.9406130449
  0
ARC
  5
32F
330
1F
100
AcDbEntity
  8
0
  6
Continuous
 62
     7
370
     0
100
AcDbCircle
 10
380.2060744896
 20
288.9388837806
 30
0.0
 40
0.1982819468576411
100
AcDbArc
 50
179.5003034623
 51
269.4909542787
  0
ARC
  5
330
330
1F
100
AcDbEntity
  8
0
  6
Continuous
 62
     7
370
     0
100
AcDbCircle
 10
430.902999708
 20
288.9388837806
 30
0.0
 40
0.1982819468576411
100
AcDbArc
 50
270.5090457213
 51
0.4996965377
  0
LWPOLYLINE
  5
331
330
1F
100
AcDbEntity
  8
0
  6
Continuous
 62
     7
370
     0
100
AcDbPolyline
 90
       19
 70
   128
 43
0.0
 10
378.5883229188
 20
314.031485355
 10
378.5748690329
 20
314.0093832077
 10
378.5772979221
 20
314.0133618177
 10
378.7533253393
 20
314.3039074527
 10
379.1785243861
 20
315.023687555
 10
379.8111829869
 20
316.1498726146
 10
380.6015294007
 20
317.6786283763
 10
381.3267651907
 20
319.2555949823
 10
382.0449098907
 20
321.0917966241
 10
382.5825251601
 20
322.8079894358
 10
383.0127049199
 20
324.6913399813
 10
383.2735236696
 20
326.660278373
 10
383.3320014141
 20
328.7397981654
 10
383.1764202527
 20
330.7393851025
 10
382.8210126571
 20
332.7234237255
 10
382.1764051876
 20
335.0065568262
 10
381.3734523914
 20
337.1162730069
 10
380.560275536
 20
338.8865616904
 10
379.7799836806
 20
340.3886667253
  0
LWPOLYLINE
  5
332
330
1F
100
AcDbEntity
  8
0
  6
Continuous
 62
     7
370
     0
100
AcDbPolyline
 90
       18
 70
   128
 43
0.0
 10
431.3290905169
 20
340.3886667253
 10
430.3944673351
 20
338.5696614893
 10
429.6772167049
 20
336.9778505327
 10
428.9763256869
 20
335.1357899406
 10
428.4557126424
 20
333.4083770202
 10
428.0486781112
 20
331.5180678652
 10
427.8132528029
 20
329.5210463726
 10
427.7881685606
 20
327.4187952662
 10
427.9784750155
 20
325.4091033047
 10
428.3666707537
 20
323.425120561
 10
429.0349487177
 20
321.1752477834
 10
429.8466838858
 20
319.1066234173
 10
430.5774368308
 20
317.5366733955
 10
431.2775678895
 20
316.18731737
 10
431.8112585656
 20
315.2306153239
 10
432.2270996831
 20
314.5189069943
 10
432.4699941985
 20
314.1148731844
 10
432.5207363776
 20
314.0315095694
  0
ARC
  5
333
330
1F
100
AcDbEntity
  8
0
  6
Continuous
 62
     7
370
     0
100
AcDbCircle
 10
381.4413549917
 20
341.6004175969
 30
0.0
 40
2.056330422895813
100
AcDbArc
 50
155.2650544768
 51
216.105810056
  0
LWPOLYLINE
  5
334
330
1F
100
AcDbEntity
  8
0
  6
Continuous
 62
     7
370
     0
100
AcDbPolyline
 90
        6
 70
   128
 43
0.0
 10
431.5353877804
 20
342.4608305828
 10
431.5228167883
 20
342.485022618
 10
431.6370919309
 20
342.2294108929
 10
431.7103367261
 20
341.6133670868
 10
431.6127657852
 20
341.0645824657
 10
431.3290905169
 20
340.3886667253
  0
ARC
  5
335
330
1F
100
AcDbEntity
  8
0
  6
Continuous
 62
     7
370
     0
100
AcDbCircle
 10
377.867117451
 20
296.7625103381
 30
0.0
 40
1.434908058327298
100
AcDbArc
 50
351.1038861266
 51
62.9637721414
  0
ARC
  5
336
330
1F
100
AcDbEntity
  8
0
  6
Continuous
 62
     7
370
     0
100
AcDbCircle
 10
433.2419635116
 20
291.7177145464
 30
0.0
 40
1.434914699047654
100
AcDbArc
 50
171.103938859
 51
242.9636041909
  0
LINE
  5
337
330
1F
100
AcDbEntity
  8
0
  6
Continuous
 62
     7
370
     0
100
AcDbLine
 10
431.101274114
 20
288.9406130449
 30
0.0
 11
431.115068864
 21
288.9404938356
 31
0.0
  0
ARC
  5
338
330
1F
100
AcDbEntity
  8
0
  6
Continuous
 62
     7
370
     0
100
AcDbCircle
 10
377.8594478851
 20
291.7216246294
 30
0.0
 40
1.441889491951173
100
AcDbArc
 50
297.2369881854
 51
8.6954687646
  0
LINE
  5
339
330
1F
100
AcDbEntity
  8
0
  6
Continuous
 62
     7
370
     0
100
AcDbLine
 10
379.9940053336
 20
288.9404938356
 30
0.0
 11
380.0078000835
 21
288.9406130449
 31
0.0
  0
ARC
  5
33A
330
1F
100
AcDbEntity
  8
0
  6
Continuous
 62
     7
370
     0
100
AcDbCircle
 10
433.2496166168
 20
296.7586017408
 30
0.0
 40
1.441880174382561
100
AcDbArc
 50
117.2367454516
 51
188.6955962804
  0
LINE
  5
33B
330
1F
100
AcDbEntity
  8
0
  6
Continuous
 62
     7
370
     0
100
AcDbLine
 10
379.2847640774
 20
291.9396132962
 30
0.0
 11
379.2847640774
 21
296.5406113104
 31
0.0
  0
LINE
  5
33C
330
1F
100
AcDbEntity
  8
0
  6
Continuous
 62
     7
370
     0
100
AcDbLine
 10
431.8243101201
 20
296.5406113104
 30
0.0
 11
431.8243101201
 21
291.9396132962
 31
0.0
  0
ARC
  5
33D
330
1F
100
AcDbEntity
  8
0
  6
Continuous
 62
     7
370
     0
100
AcDbCircle
 10
388.036064688
 20
296.9154922549
 30
0.0
 40
21.51097286230384
100
AcDbArc
 50
177.0018109431
 51
180.9985686597
  0
ARC
  5
33E
330
1F
100
AcDbEntity
  8
0
  6
Continuous
 62
     7
370
     0
100
AcDbCircle
 10
423.0728640656
 20
291.5647320958
 30
0.0
 40
21.51111828863075
100
AcDbArc
 50
357.0018219777
 51
0.9985625902
  0
ARC
  5
33F
330
1F
100
AcDbEntity
  8
0
  6
Continuous
 62
     7
370
     0
100
AcDbCircle
 10
388.0362101319
 20
291.5647320958
 30
0.0
 40
21.51111828863075
100
AcDbArc
 50
179.0014374098
 51
182.9981780223
  0
ARC
  5
340
330
1F
100
AcDbEntity
  8
0
  6
Continuous
 62
     7
370
     0
100
AcDbCircle
 10
423.0730095096
 20
296.9154922549
 30
0.0
 40
21.51097286230372
100
AcDbArc
 50
359.0014313403
 51
2.9981890569
  0
LINE
  5
341
330
1F
100
AcDbEntity
  8
0
  6
Continuous
 62
     7
370
     0
100
AcDbLine
 10
366.5283586792
 20
296.5406113104
 30
0.0
 11
366.5283586792
 21
291.9396132962
 31
0.0
  0
LINE
  5
342
330
1F
100
AcDbEntity
  8
0
  6
Continuous
 62
     7
370
     0
100
AcDbLine
 10
444.5807155184
 20
291.9396132962
 30
0.0
 11
444.5807155184
 21
296.5406113104
 31
0.0
  0
LINE
  5
343
330
1F
100
AcDbEntity
  8
0
  6
Continuous
 62
     7
370
     0
100
AcDbLine
 10
379.5545365623
 20
288.9404938356
 30
0.0
 11
379.9940053336
 21
288.9404938356
 31
0.0
  0
LINE
  5
344
330
1F
100
AcDbEntity
  8
0
  6
Continuous
 62
     7
370
     0
100
AcDbLine
 10
431.115068864
 20
288.9404938356
 30
0.0
 11
431.5545376352
 21
288.9404938356
 31
0.0
  0
ARC
  5
345
330
1F
100
AcDbEntity
  8
0
  6
Continuous
 62
     7
370
     0
100
AcDbCircle
 10
380.1923327642
 20
288.9389358667
 30
0.0
 40
0.1983335498912762
100
AcDbArc
 50
179.5499199999
 51
269.5069786129
  0
ARC
  5
346
330
1F
100
AcDbEntity
  8
0
  6
Continuous
 62
     7
370
     0
100
AcDbCircle
 10
430.9167414334
 20
288.9389358667
 30
0.0
 40
0.198333549891219
100
AcDbArc
 50
270.4930213871
 51
0.4500800001
  0
LINE
  5
347
330
1F
100
AcDbEntity
  8
0
  6
Continuous
 62
     7
370
    15
100
AcDbLine
 10
200.935150828
 20
119.0813771761
 30
0.0
 11
201.2276270947
 21
102.325449822
 31
0.0
  0
LINE
  5
348
330
1F
100
AcDbEntity
  8
0
  6
Continuous
 62
     7
370
    15
100
AcDbLine
 10
229.279992502
 20
102.325449822
 30
0.0
 11
229.5725917032
 21
119.0884254253
 31
0.0
  0
LINE
  5
349
330
1F
100
AcDbEntity
  8
0
  6
Continuous
 62
     7
370
    15
100
AcDbLine
 10
229.5724678373
 20
163.5695240772
 30
0.0
 11
229.279992502
 21
180.3254514313
 31
0.0
  0
LINE
  5
34A
330
1F
100
AcDbEntity
  8
0
  6
Continuous
 62
     7
370
    15
100
AcDbLine
 10
201.2276270947
 20
180.3254514313
 30
0.0
 11
200.9350288248
 21
163.562475828
 31
0.0
  0
ARC
  5
34B
330
1F
100
AcDbEntity
  8
0
  6
Continuous
 62
     7
370
    15
100
AcDbCircle
 10
200.0247050261
 20
119.0827314286
 30
0.0
 40
0.926989626743483
100
AcDbArc
 50
359.7457915716
 51
45.4230016796
  0
ARC
  5
34C
330
1F
100
AcDbEntity
  8
0
  6
Continuous
 62
     7
370
    15
100
AcDbCircle
 10
230.4368286912
 20
119.1004738258
 30
0.0
 40
0.8822003355359338
100
AcDbArc
 50
132.1158304828
 51
180.8849994646
  0
ARC
  5
34D
330
1F
100
AcDbEntity
  8
0
  6
Continuous
 62
     7
370
    15
100
AcDbCircle
 10
230.483939544
 20
163.5684759044
 30
0.0
 40
0.9280132841702176
100
AcDbArc
 50
179.7649695977
 51
225.4854398822
  0
ARC
  5
34E
330
1F
100
AcDbEntity
  8
0
  6
Continuous
 62
     7
370
    15
100
AcDbCircle
 10
200.0704531842
 20
163.5505431744
 30
0.0
 40
0.8825362370123357
100
AcDbArc
 50
312.0807704782
 51
0.8771472236
  0
LINE
  5
34F
330
1F
100
AcDbEntity
  8
0
  6
Continuous
 62
     7
370
    15
100
AcDbLine
 10
167.7578262573
 20
154.8254509768
 30
0.0
 11
158.2538097685
 21
154.8254509768
 31
0.0
  0
LINE
  5
350
330
1F
100
AcDbEntity
  8
0
  6
Continuous
 62
     7
370
    15
100
AcDbLine
 10
158.2538097685
 20
127.8254502765
 30
0.0
 11
167.7645131534
 21
127.8254502765
 31
0.0
  0
LINE
  5
351
330
1F
100
AcDbEntity
  8
0
  6
Continuous
 62
     7
370
    15
100
AcDbLine
 10
272.2538098281
 20
154.8254509768
 30
0.0
 11
262.7359315341
 21
154.8254509768
 31
0.0
  0
LINE
  5
352
330
1F
100
AcDbEntity
  8
0
  6
Continuous
 62
     7
370
    15
100
AcDbLine
 10
261.9912460035
 20
127.8254502765
 30
0.0
 11
272.2538098281
 21
127.8254502765
 31
0.0
  0
ARC
  5
353
330
1F
100
AcDbEntity
  8
0
  6
Continuous
 62
     7
370
    15
100
AcDbCircle
 10
238.4114939889
 20
156.586092758
 30
0.0
 40
1.703138106542024
100
AcDbArc
 50
217.8007463718
 51
241.1467722286
  0
ARC
  5
354
330
1F
100
AcDbEntity
  8
0
  6
Continuous
 62
     7
370
    15
100
AcDbCircle
 10
238.3714708153
 20
126.129671716
 30
0.0
 40
1.6317776941961
100
AcDbArc
 50
110.6385363871
 51
143.2792132038
  0
LINE
  5
355
330
1F
100
AcDbEntity
  8
0
  6
Continuous
 62
     7
370
    15
100
AcDbLine
 10
226.2538097387
 20
185.1811140156
 30
0.0
 11
226.0038101634
 21
185.3254503882
 31
0.0
  0
LINE
  5
356
330
1F
100
AcDbEntity
  8
0
  6
Continuous
 62
     7
370
    15
100
AcDbLine
 10
204.5038094332
 20
185.3254503882
 30
0.0
 11
204.2538098579
 21
185.1811140156
 31
0.0
  0
LINE
  5
357
330
1F
100
AcDbEntity
  8
0
  6
Continuous
 62
     7
370
    15
100
AcDbLine
 10
290.2538127786
 20
130.3254506862
 30
0.0
 11
291.2538073545
 21
130.3254506862
 31
0.0
  0
LINE
  5
358
330
1F
100
AcDbEntity
  8
0
  6
Continuous
 62
     7
370
    15
100
AcDbLine
 10
291.2538073545
 20
152.325450567
 30
0.0
 11
290.2538127786
 21
152.325450567
 31
0.0
  0
LINE
  5
359
330
1F
100
AcDbEntity
  8
0
  6
Continuous
 62
     7
370
    15
100
AcDbLine
 10
140.2538068181
 20
152.325450567
 30
0.0
 11
139.2538122421
 21
152.325450567
 31
0.0
  0
LINE
  5
35A
330
1F
100
AcDbEntity
  8
0
  6
Continuous
 62
     7
370
    15
100
AcDbLine
 10
139.2538122421
 20
130.3254506862
 30
0.0
 11
140.2538068181
 21
130.3254506862
 31
0.0
  0
LINE
  5
35B
330
1F
100
AcDbEntity
  8
0
  6
Continuous
 62
     7
370
    15
100
AcDbLine
 10
204.2538098579
 20
102.325449822
 30
0.0
 11
204.2538098579
 21
101.3254515207
 31
0.0
  0
LINE
  5
35C
330
1F
100
AcDbEntity
  8
0
  6
Continuous
 62
     7
370
    15
100
AcDbLine
 10
226.2538097387
 20
101.3254515207
 30
0.0
 11
226.2538097387
 21
102.325449822
 31
0.0
  0
ARC
  5
35D
330
1F
100
AcDbEntity
  8
0
  6
Continuous
 62
     7
370
    15
100
AcDbCircle
 10
167.6177636421
 20
157.1392641564
 30
0.0
 40
2.344549127144608
100
AcDbArc
 50
291.0141675013
 51
293.8065132333
  0
ARC
  5
35E
330
1F
100
AcDbEntity
  8
0
  6
Continuous
 62
     7
370
    15
100
AcDbCircle
 10
215.2538097983
 20
141.3254506266
 30
0.0
 40
26.00000000000001
100
AcDbArc
 50
287.2036593183
 51
342.4544883876
  0
ARC
  5
35F
330
1F
100
AcDbEntity
  8
0
  6
Continuous
 62
     7
370
    15
100
AcDbCircle
 10
215.2538097983
 20
141.3254506266
 30
0.0
 40
26.00000000000003
100
AcDbArc
 50
197.5455116124
 51
252.7963406817
  0
ARC
  5
360
330
1F
100
AcDbEntity
  8
0
  6
Continuous
 62
     7
370
    15
100
AcDbCircle
 10
215.2538097983
 20
141.3254506266
 30
0.0
 40
26.00000000000002
100
AcDbArc
 50
107.2036580458
 51
162.4544883876
  0
ARC
  5
361
330
1F
100
AcDbEntity
  8
0
  6
Continuous
 62
     7
370
    15
100
AcDbCircle
 10
215.2538097983
 20
141.3254506266
 30
0.0
 40
26.00000000000002
100
AcDbArc
 50
17.5455116124
 51
72.7963419542
  0
LINE
  5
362
330
1F
100
AcDbEntity
  8
0
  6
Continuous
 62
     7
370
    15
100
AcDbLine
 10
200.9735855794
 20
119.0808072067
 30
0.0
 11
200.9719324818
 21
119.0820197887
 31
0.0
  0
LINE
  5
363
330
1F
100
AcDbEntity
  8
0
  6
Continuous
 62
     7
370
    15
100
AcDbLine
 10
215.2538097983
 20
102.325449822
 30
0.0
 11
229.279992502
 21
102.325449822
 31
0.0
  0
LINE
  5
364
330
1F
100
AcDbEntity
  8
0
  6
Continuous
 62
     7
370
    15
100
AcDbLine
 10
201.2276270947
 20
102.325449822
 30
0.0
 11
215.2538097983
 21
102.325449822
 31
0.0
  0
LINE
  5
365
330
1F
100
AcDbEntity
  8
0
  6
Continuous
 62
     7
370
    15
100
AcDbLine
 10
229.534033086
 20
163.5700940466
 30
0.0
 11
229.5356871149
 21
163.5688814646
 31
0.0
  0
LINE
  5
366
330
1F
100
AcDbEntity
  8
0
  6
Continuous
 62
     7
370
    15
100
AcDbLine
 10
229.279992502
 20
180.3254514313
 30
0.0
 11
201.2276270947
 21
180.3254514313
 31
0.0
  0
ARC
  5
367
330
1F
100
AcDbEntity
  8
0
  6
Continuous
 62
     7
370
    15
100
AcDbCircle
 10
217.133323498
 20
138.346953943
 30
0.0
 40
22.48126326144363
100
AcDbArc
 50
296.8515254185
 51
304.7722619979
  0
ARC
  5
368
330
1F
100
AcDbEntity
  8
0
  6
Continuous
 62
     7
370
    15
100
AcDbCircle
 10
210.2552464228
 20
133.7715176923
 30
0.0
 40
16.94414102611463
100
AcDbArc
 50
234.9599870481
 51
238.7180930908
  0
LINE
  5
369
330
1F
100
AcDbEntity
  8
0
  6
Continuous
 62
     7
370
    15
100
AcDbLine
 10
200.537272129
 20
119.8910559839
 30
0.0
 11
200.5491269341
 21
119.8826554543
 31
0.0
  0
ARC
  5
36A
330
1F
100
AcDbEntity
  8
0
  6
Continuous
 62
     7
370
    15
100
AcDbCircle
 10
213.792236678
 20
143.6149069477
 30
0.0
 40
23.28538629322227
100
AcDbArc
 50
116.9896984985
 51
124.6566051718
  0
ARC
  5
36B
330
1F
100
AcDbEntity
  8
0
  6
Continuous
 62
     7
370
    15
100
AcDbCircle
 10
219.8433838972
 20
148.2527546838
 30
0.0
 40
17.69203175798296
100
AcDbArc
 50
55.0406848817
 51
58.6390698918
  0
LINE
  5
36C
330
1F
100
AcDbEntity
  8
0
  6
Continuous
 62
     7
370
    15
100
AcDbLine
 10
229.9715013763
 20
162.7588189519
 30
0.0
 11
229.9609560108
 21
162.7660571909
 31
0.0
  0
LINE
  5
36D
330
1F
100
AcDbEntity
  8
0
  6
Continuous
 62
     7
370
    15
100
AcDbLine
 10
158.2538097685
 20
131.6845222688
 30
0.0
 11
140.2538068181
 21
131.6845222688
 31
0.0
  0
LINE
  5
36E
330
1F
100
AcDbEntity
  8
0
  6
Continuous
 62
     7
370
    15
100
AcDbLine
 10
140.2538068181
 20
150.9663789845
 30
0.0
 11
140.2538068181
 21
131.6845222688
 31
0.0
  0
LINE
  5
36F
330
1F
100
AcDbEntity
  8
0
  6
Continuous
 62
     7
370
    15
100
AcDbLine
 10
140.2538068181
 20
150.9663789845
 30
0.0
 11
158.2538097685
 21
150.9663789845
 31
0.0
  0
LINE
  5
370
330
1F
100
AcDbEntity
  8
0
  6
Continuous
 62
     7
370
    15
100
AcDbLine
 10
272.2538098281
 20
150.9663789845
 30
0.0
 11
290.2538127786
 21
150.9663789845
 31
0.0
  0
LINE
  5
371
330
1F
100
AcDbEntity
  8
0
  6
Continuous
 62
     7
370
    15
100
AcDbLine
 10
290.2538127786
 20
131.6845222688
 30
0.0
 11
272.2538098281
 21
131.6845222688
 31
0.0
  0
LINE
  5
372
330
1F
100
AcDbEntity
  8
0
  6
Continuous
 62
     7
370
    15
100
AcDbLine
 10
238.572256971
 20
154.8254509768
 30
0.0
 11
262.7359315341
 21
154.8254509768
 31
0.0
  0
ARC
  5
373
330
1F
100
AcDbEntity
  8
0
  6
Continuous
 62
     7
370
    15
100
AcDbCircle
 10
262.0178819562
 20
287.9516452849
 30
0.0
 40
160.1262960306803
100
AcDbArc
 50
269.9356401919
 51
270.2583222518
  0
LINE
  5
374
330
1F
100
AcDbEntity
  8
0
  6
Continuous
 62
     7
370
    15
100
AcDbLine
 10
261.8192866033
 20
127.8254502765
 30
0.0
 11
261.8380136376
 21
127.8254502765
 31
0.0
  0
LINE
  5
375
330
1F
100
AcDbEntity
  8
0
  6
Continuous
 62
     7
370
    15
100
AcDbLine
 10
261.8192866033
 20
127.8254502765
 30
0.0
 11
238.572256971
 21
127.8254502765
 31
0.0
  0
LINE
  5
376
330
1F
100
AcDbEntity
  8
0
  6
Continuous
 62
     7
370
    15
100
AcDbLine
 10
290.2538127786
 20
131.6845222688
 30
0.0
 11
290.2538127786
 21
150.9663789845
 31
0.0
  0
ARC
  5
377
330
1F
100
AcDbEntity
  8
0
  6
Continuous
 62
     7
370
    15
100
AcDbCircle
 10
238.572257431
 20
156.8254506266
 30
0.0
 40
2.0
100
AcDbArc
 50
240.4262001403
 51
270.0
  0
ARC
  5
378
330
1F
100
AcDbEntity
  8
0
  6
Continuous
 62
     7
370
    15
100
AcDbCircle
 10
238.572257431
 20
125.8254506266
 30
0.0
 40
2.000000000000026
100
AcDbArc
 50
90.0
 51
112.8992215444
  0
LINE
  5
379
330
1F
100
AcDbEntity
  8
0
  6
Continuous
 62
     7
370
    15
100
AcDbLine
 10
226.2538097387
 20
184.3150883293
 30
0.0
 11
226.2538097387
 21
185.1254842556
 31
0.0
  0
LINE
  5
37A
330
1F
100
AcDbEntity
  8
0
  6
Continuous
 62
     7
370
    15
100
AcDbLine
 10
226.2538097387
 20
184.3150883293
 30
0.0
 11
225.8955504334
 21
184.3150883293
 31
0.0
  0
ARC
  5
37B
330
1F
100
AcDbEntity
  8
0
  6
Continuous
 62
     7
370
    15
100
AcDbCircle
 10
220.7538096376
 20
169.2201516568
 30
0.0
 40
15.94661755858313
100
AcDbArc
 50
71.1897784967
 51
108.8102215033
  0
LINE
  5
37C
330
1F
100
AcDbEntity
  8
0
  6
Continuous
 62
     7
370
    15
100
AcDbLine
 10
215.6120688417
 20
184.3150883293
 30
0.0
 11
214.8955507549
 21
184.3150883293
 31
0.0
  0
ARC
  5
37D
330
1F
100
AcDbEntity
  8
0
  6
Continuous
 62
     7
370
    15
100
AcDbCircle
 10
209.7538099591
 20
169.2201514816
 30
0.0
 40
15.9466177243997
100
AcDbArc
 50
71.1897786996
 51
108.8102213004
  0
LINE
  5
37E
330
1F
100
AcDbEntity
  8
0
  6
Continuous
 62
     7
370
    15
100
AcDbLine
 10
204.6120691633
 20
184.3150883293
 30
0.0
 11
204.2538098579
 21
184.3150883293
 31
0.0
  0
LINE
  5
37F
330
1F
100
AcDbEntity
  8
0
  6
Continuous
 62
     7
370
    15
100
AcDbLine
 10
204.2538098579
 20
184.3150883293
 30
0.0
 11
204.2538098579
 21
185.1190395034
 31
0.0
  0
LINE
  5
380
330
1F
100
AcDbEntity
  8
0
  6
Continuous
 62
     7
370
    15
100
AcDbLine
 10
226.0038101634
 20
185.3254503882
 30
0.0
 11
204.5038094332
 21
185.3254503882
 31
0.0
  0
LINE
  5
381
330
1F
100
AcDbEntity
  8
0
  6
Continuous
 62
     7
370
    15
100
AcDbLine
 10
214.8955507549
 20
180.3254514313
 30
0.0
 11
214.8955507549
 21
184.3150883293
 31
0.0
  0
LINE
  5
382
330
1F
100
AcDbEntity
  8
0
  6
Continuous
 62
     7
370
    15
100
AcDbLine
 10
215.6120688417
 20
184.3150883293
 30
0.0
 11
215.6120688417
 21
180.3254514313
 31
0.0
  0
LINE
  5
383
330
1F
100
AcDbEntity
  8
0
  6
Continuous
 62
     7
370
    15
100
AcDbLine
 10
204.6120691633
 20
184.3150883293
 30
0.0
 11
204.6120691633
 21
180.3254514313
 31
0.0
  0
LINE
  5
384
330
1F
100
AcDbEntity
  8
0
  6
Continuous
 62
     7
370
    15
100
AcDbLine
 10
225.8955504334
 20
180.3254514313
 30
0.0
 11
225.8955504334
 21
184.3150883293
 31
0.0
  0
LINE
  5
385
330
1F
100
AcDbEntity
  8
0
  6
Continuous
 62
     7
370
    15
100
AcDbLine
 10
291.2538073545
 20
130.3254506862
 30
0.0
 11
291.2538073545
 21
152.325450567
 31
0.0
  0
LINE
  5
386
330
1F
100
AcDbEntity
  8
0
  6
Continuous
 62
     7
370
    15
100
AcDbLine
 10
139.2538122421
 20
152.325450567
 30
0.0
 11
139.2538122421
 21
130.3254506862
 31
0.0
  0
LINE
  5
387
330
1F
100
AcDbEntity
  8
0
  6
Continuous
 62
     7
370
    15
100
AcDbLine
 10
215.2538097983
 20
101.3254515207
 30
0.0
 11
226.2538097387
 21
101.3254515207
 31
0.0
  0
LINE
  5
388
330
1F
100
AcDbEntity
  8
0
  6
Continuous
 62
     7
370
    15
100
AcDbLine
 10
204.2538098579
 20
101.3254515207
 30
0.0
 11
215.2538097983
 21
101.3254515207
 31
0.0
  0
LINE
  5
389
330
1F
100
AcDbEntity
  8
0
  6
Continuous
 62
     7
370
    15
100
AcDbLine
 10
272.2538098281
 20
154.8254509768
 30
0.0
 11
290.2538127786
 21
154.8254509768
 31
0.0
  0
LINE
  5
38A
330
1F
100
AcDbEntity
  8
0
  6
Continuous
 62
     7
370
    15
100
AcDbLine
 10
272.2538098281
 20
154.8254509768
 30
0.0
 11
272.2538098281
 21
152.825450649
 31
0.0
  0
LINE
  5
38B
330
1F
100
AcDbEntity
  8
0
  6
Continuous
 62
     7
370
    15
100
AcDbLine
 10
290.2538127786
 20
154.8254509768
 30
0.0
 11
290.2538127786
 21
152.825450649
 31
0.0
  0
LINE
  5
38C
330
1F
100
AcDbEntity
  8
0
  6
Continuous
 62
     7
370
    15
100
AcDbLine
 10
140.2538068181
 20
154.8254509768
 30
0.0
 11
158.2538097685
 21
154.8254509768
 31
0.0
  0
LINE
  5
38D
330
1F
100
AcDbEntity
  8
0
  6
Continuous
 62
     7
370
    15
100
AcDbLine
 10
158.2538097685
 20
154.8254509768
 30
0.0
 11
158.2538097685
 21
152.825450649
 31
0.0
  0
LINE
  5
38E
330
1F
100
AcDbEntity
  8
0
  6
Continuous
 62
     7
370
    15
100
AcDbLine
 10
140.2538068181
 20
152.825450649
 30
0.0
 11
140.2538068181
 21
154.8254509768
 31
0.0
  0
LINE
  5
38F
330
1F
100
AcDbEntity
  8
0
  6
Continuous
 62
     7
370
    15
100
AcDbLine
 10
272.2538098281
 20
152.825450649
 30
0.0
 11
272.2538098281
 21
150.9663789845
 31
0.0
  0
LINE
  5
390
330
1F
100
AcDbEntity
  8
0
  6
Continuous
 62
     7
370
    15
100
AcDbLine
 10
290.2538127786
 20
152.825450649
 30
0.0
 11
290.2538127786
 21
150.9663789845
 31
0.0
  0
LINE
  5
391
330
1F
100
AcDbEntity
  8
0
  6
Continuous
 62
     7
370
    15
100
AcDbLine
 10
158.2538097685
 20
152.825450649
 30
0.0
 11
158.2538097685
 21
150.9663789845
 31
0.0
  0
LINE
  5
392
330
1F
100
AcDbEntity
  8
0
  6
Continuous
 62
     7
370
    15
100
AcDbLine
 10
140.2538068181
 20
150.9663789845
 30
0.0
 11
140.2538068181
 21
152.825450649
 31
0.0
  0
LINE
  5
393
330
1F
100
AcDbEntity
  8
0
  6
Continuous
 62
     7
370
    15
100
AcDbLine
 10
272.2538098281
 20
131.6845222688
 30
0.0
 11
272.2538098281
 21
129.8254506043
 31
0.0
  0
LINE
  5
394
330
1F
100
AcDbEntity
  8
0
  6
Continuous
 62
     7
370
    15
100
AcDbLine
 10
290.2538127786
 20
131.6845222688
 30
0.0
 11
290.2538127786
 21
129.8254506043
 31
0.0
  0
LINE
  5
395
330
1F
100
AcDbEntity
  8
0
  6
Continuous
 62
     7
370
    15
100
AcDbLine
 10
158.2538097685
 20
131.6845222688
 30
0.0
 11
158.2538097685
 21
129.8254506043
 31
0.0
  0
LINE
  5
396
330
1F
100
AcDbEntity
  8
0
  6
Continuous
 62
     7
370
    15
100
AcDbLine
 10
140.2538068181
 20
129.8254506043
 30
0.0
 11
140.2538068181
 21
131.6845222688
 31
0.0
  0
LINE
  5
397
330
1F
100
AcDbEntity
  8
0
  6
Continuous
 62
     7
370
    15
100
AcDbLine
 10
272.2538098281
 20
127.8254502765
 30
0.0
 11
290.2538127786
 21
127.8254502765
 31
0.0
  0
LINE
  5
398
330
1F
100
AcDbEntity
  8
0
  6
Continuous
 62
     7
370
    15
100
AcDbLine
 10
272.2538098281
 20
129.8254506043
 30
0.0
 11
272.2538098281
 21
127.8254502765
 31
0.0
  0
LINE
  5
399
330
1F
100
AcDbEntity
  8
0
  6
Continuous
 62
     7
370
    15
100
AcDbLine
 10
290.2538127786
 20
129.8254506043
 30
0.0
 11
290.2538127786
 21
127.8254502765
 31
0.0
  0
LINE
  5
39A
330
1F
100
AcDbEntity
  8
0
  6
Continuous
 62
     7
370
    15
100
AcDbLine
 10
140.2538068181
 20
127.8254502765
 30
0.0
 11
158.2538097685
 21
127.8254502765
 31
0.0
  0
LINE
  5
39B
330
1F
100
AcDbEntity
  8
0
  6
Continuous
 62
     7
370
    15
100
AcDbLine
 10
158.2538097685
 20
129.8254506043
 30
0.0
 11
158.2538097685
 21
127.8254502765
 31
0.0
  0
LINE
  5
39C
330
1F
100
AcDbEntity
  8
0
  6
Continuous
 62
     7
370
    15
100
AcDbLine
 10
140.2538068181
 20
127.8254502765
 30
0.0
 11
140.2538068181
 21
129.8254506043
 31
0.0
  0
LINE
  5
39D
330
1F
100
AcDbEntity
  8
0
  6
Continuous
 62
     7
370
    15
100
AcDbLine
 10
226.2538097387
 20
184.3150883293
 30
0.0
 11
226.2538097387
 21
180.3254514313
 31
0.0
  0
LINE
  5
39E
330
1F
100
AcDbEntity
  8
0
  6
Continuous
 62
     7
370
    15
100
AcDbLine
 10
204.2538098579
 20
180.3254514313
 30
0.0
 11
204.2538098579
 21
184.3150883293
 31
0.0
  0
LWPOLYLINE
  5
39F
330
1F
100
AcDbEntity
  8
0
  6
Continuous
 62
     7
370
    15
100
AcDbPolyline
 90
        3
 70
   128
 43
0.0
 10
167.490890581
 20
154.7125961012
 10
167.498359788
 20
154.713276898
 10
168.5325041002
 20
154.9744570008
  0
LWPOLYLINE
  5
3A0
330
1F
100
AcDbEntity
  8
0
  6
Continuous
 62
     7
370
    15
100
AcDbPolyline
 90
        4
 70
   128
 43
0.0
 10
168.5434490031
 20
127.6714616767
 10
168.5793757027
 20
127.6551775015
 10
168.5931145733
 20
127.6489804811
 10
168.5451142078
 20
127.6711264006
  0
LINE
  5
3A1
330
1F
100
AcDbEntity
  8
0
  6
Continuous
 62
     7
370
    15
100
AcDbLine
 10
168.5661658233
 20
154.9897092706
 30
0.0
 11
168.5325041002
 21
154.9744570008
 31
0.0
  0
LINE
  5
3A2
330
1F
100
AcDbEntity
  8
0
  6
Continuous
 62
     7
370
    15
100
AcDbLine
 10
192.4137867576
 20
156.3254502914
 30
0.0
 11
193.0052138453
 21
156.3254502914
 31
0.0
  0
ARC
  5
3A3
330
1F
100
AcDbEntity
  8
0
  6
Continuous
 62
     7
370
    15
100
AcDbCircle
 10
193.0053014935
 20
158.3252742166
 30
0.0
 40
1.99982392714315
100
AcDbArc
 50
269.9974888442
 51
322.6193195388
  0
LINE
  5
3A4
330
1F
100
AcDbEntity
  8
0
  6
Continuous
 62
     7
370
    15
100
AcDbLine
 10
191.8497498667
 20
156.3254502914
 30
0.0
 11
192.4137867576
 21
156.3254502914
 31
0.0
  0
ARC
  5
3A5
330
1F
100
AcDbEntity
  8
0
  6
Continuous
 62
     7
370
    15
100
AcDbCircle
 10
193.0052460354
 20
124.3255148672
 30
0.0
 40
1.999936094964485
100
AcDbArc
 50
37.3822694099
 51
90.0009222071
  0
ARC
  5
3A6
330
1F
100
AcDbEntity
  8
0
  6
Continuous
 62
     7
370
    15
100
AcDbCircle
 10
174.7537969238
 20
141.3253932719
 30
0.0
 40
14.99994230994089
100
AcDbArc
 50
245.5420823179
 51
270.0000487221
  0
LINE
  5
3A7
330
1F
100
AcDbEntity
  8
0
  6
Continuous
 62
     7
370
    15
100
AcDbLine
 10
174.7538096791
 20
156.3254502914
 30
0.0
 11
191.8497498667
 21
156.3254502914
 31
0.0
  0
ARC
  5
3A8
330
1F
100
AcDbEntity
  8
0
  6
Continuous
 62
     7
370
    15
100
AcDbCircle
 10
174.7538140905
 20
141.3254198877
 30
0.0
 40
15.00003040367312
100
AcDbArc
 50
90.0000168501
 51
114.5037726739
  0
ARC
  5
3A9
330
1F
100
AcDbEntity
  8
0
  6
Continuous
 62
     7
370
    15
100
AcDbCircle
 10
262.7359298202
 20
156.8254506266
 30
0.0
 40
2.000000000000011
100
AcDbArc
 50
245.7503713975
 51
270.0
  0
LWPOLYLINE
  5
3AA
330
1F
100
AcDbEntity
  8
0
  6
Continuous
 62
     7
370
    15
100
AcDbPolyline
 90
        3
 70
   128
 43
0.0
 10
262.7398207372
 20
127.8269767142
 10
262.5676750725
 20
127.8195559359
 10
261.9170307701
 20
127.6501185572
  0
LINE
  5
3AB
330
1F
100
AcDbEntity
  8
0
  6
Continuous
 62
     7
370
    15
100
AcDbLine
 10
193.0052138453
 20
126.3254509619
 30
0.0
 11
192.7183199262
 21
126.3254509619
 31
0.0
  0
LINE
  5
3AC
330
1F
100
AcDbEntity
  8
0
  6
Continuous
 62
     7
370
    15
100
AcDbLine
 10
192.7183199262
 20
126.3254509619
 30
0.0
 11
191.8497498667
 21
126.3254509619
 31
0.0
  0
LINE
  5
3AD
330
1F
100
AcDbEntity
  8
0
  6
Continuous
 62
     7
370
    15
100
AcDbLine
 10
191.8497498667
 20
126.3254509619
 30
0.0
 11
174.7538096791
 21
126.3254509619
 31
0.0
  0
ARC
  5
3AE
330
1F
100
AcDbEntity
  8
0
  6
Continuous
 62
     7
370
    15
100
AcDbCircle
 10
237.5024052596
 20
124.3254506266
 30
0.0
 40
1.999999999999996
100
AcDbArc
 50
90.0
 51
142.6168015821
  0
ARC
  5
3AF
330
1F
100
AcDbEntity
  8
0
  6
Continuous
 62
     7
370
    15
100
AcDbCircle
 10
255.7538097983
 20
141.3254506266
 30
0.0
 40
15.00000000000003
100
AcDbArc
 50
270.0
 51
294.260215352
  0
ARC
  5
3B0
330
1F
100
AcDbEntity
  8
0
  6
Continuous
 62
     7
370
    15
100
AcDbCircle
 10
237.5024052596
 20
158.3254506266
 30
0.0
 40
2.0
100
AcDbArc
 50
217.3831984179
 51
270.0
  0
LINE
  5
3B1
330
1F
100
AcDbEntity
  8
0
  6
Continuous
 62
     7
370
    15
100
AcDbLine
 10
237.5024057513
 20
156.3254502914
 30
0.0
 11
255.7538099175
 21
156.3254502914
 31
0.0
  0
ARC
  5
3B2
330
1F
100
AcDbEntity
  8
0
  6
Continuous
 62
     7
370
    15
100
AcDbCircle
 10
255.7538097983
 20
141.3254506266
 30
0.0
 40
14.99999999999998
100
AcDbArc
 50
65.7503713975
 51
90.0
  0
LINE
  5
3B3
330
1F
100
AcDbEntity
  8
0
  6
Continuous
 62
     7
370
    15
100
AcDbLine
 10
255.7538099175
 20
126.3254509619
 30
0.0
 11
237.5024057513
 21
126.3254509619
 31
0.0
  0
ELLIPSE
  5
3B4
330
1F
100
AcDbEntity
  8
0
  6
Continuous
 62
     7
370
    15
100
AcDbEllipse
 10
188.6586747746
 20
126.1254506266
 30
0.0
 11
0.2473974437610877
 21
0.0
 31
0.0
210
0.0
220
0.0
230
1.0
 40
0.8084157902
 41
1.570796326794897
 42
3.141592653589793
  0
ELLIPSE
  5
3B5
330
1F
100
AcDbEntity
  8
0
  6
Continuous
 62
     7
370
    15
100
AcDbEllipse
 10
187.1928041741
 20
126.1254506266
 30
0.0
 11
0.0
 21
0.2000000000000028
 31
0.0
210
0.0
220
0.0
230
1.0
 40
0.8265378613
 41
4.712388980384843
 42
6.283185307179586
  0
ELLIPSE
  5
3B6
330
1F
100
AcDbEntity
  8
0
  6
Continuous
 62
     7
370
    15
100
AcDbEllipse
 10
177.6781894674
 20
126.1254506266
 30
0.0
 11
0.2460748763876381
 21
2.842170943040401E-14
 31
0.0
210
0.0
220
0.0
230
1.0
 40
0.8127607456
 41
0.0
 42
1.570796326794803
  0
ARC
  5
3B7
330
1F
100
AcDbEntity
  8
0
  6
Continuous
 62
     7
370
    15
100
AcDbCircle
 10
244.9629007074
 20
126.1254506266
 30
0.0
 40
0.2000000000000171
100
AcDbArc
 50
0.0
 51
90.0
  0
ARC
  5
3B8
330
1F
100
AcDbEntity
  8
0
  6
Continuous
 62
     7
370
    15
100
AcDbCircle
 10
246.4018617464
 20
126.1254506266
 30
0.0
 40
0.2000000000000171
100
AcDbArc
 50
90.0
 51
180.0
  0
ARC
  5
3B9
330
1F
100
AcDbEntity
  8
0
  6
Continuous
 62
     7
370
    15
100
AcDbCircle
 10
185.9281451135
 20
126.1272223388
 30
0.0
 40
0.1982368457400421
100
AcDbArc
 50
359.4878466387
 51
89.4781418633
  0
ELLIPSE
  5
3BA
330
1F
100
AcDbEntity
  8
0
  6
Continuous
 62
     7
370
    15
100
AcDbEllipse
 10
179.1434562171
 20
126.1254506266
 30
0.0
 11
0.0
 21
0.2000000000000028
 31
0.0
210
0.0
220
0.0
230
1.0
 40
0.8301314443
 41
0.0
 42
1.570796326794897
  0
ARC
  5
3BB
330
1F
100
AcDbEntity
  8
0
  6
Continuous
 62
     7
370
    15
100
AcDbCircle
 10
180.4034257643
 20
126.1271343574
 30
0.0
 40
0.1983239846019261
100
AcDbArc
 50
90.4942890851
 51
180.4865095309
  0
ELLIPSE
  5
3BC
330
1F
100
AcDbEntity
  8
0
  6
Continuous
 62
     7
370
    15
100
AcDbEllipse
 10
184.0980729241
 20
126.1254506266
 30
0.0
 11
0.0
 21
0.2000000000000028
 31
0.0
210
0.0
220
0.0
230
1.0
 40
0.7959909535
 41
0.0
 42
1.570796326794754
  0
ARC
  5
3BD
330
1F
100
AcDbEntity
  8
0
  6
Continuous
 62
     7
370
    15
100
AcDbCircle
 10
185.3012286622
 20
126.127870758
 30
0.0
 40
0.1975957444396473
100
AcDbArc
 50
90.7185958308
 51
180.7018443997
  0
ELLIPSE
  5
3BE
330
1F
100
AcDbEntity
  8
0
  6
Continuous
 62
     7
370
    15
100
AcDbEllipse
 10
252.1989431225
 20
126.1254506266
 30
0.0
 11
0.4329579995255415
 21
0.0
 31
0.0
210
0.0
220
0.0
230
1.0
 40
0.4619385719
 41
1.570796326794897
 42
3.141592653589651
  0
ELLIPSE
  5
3BF
330
1F
100
AcDbEntity
  8
0
  6
Continuous
 62
     7
370
    15
100
AcDbEllipse
 10
250.3505382932
 20
126.1254506266
 30
0.0
 11
0.0
 21
0.2000000000000028
 31
0.0
210
0.0
220
0.0
230
1.0
 40
0.461974409
 41
4.712388980384838
 42
6.283185307179586
  0
ELLIPSE
  5
3C0
330
1F
100
AcDbEntity
  8
0
  6
Continuous
 62
     7
370
    15
100
AcDbEllipse
 10
180.7218950813
 20
126.1254506266
 30
0.0
 11
0.0
 21
0.2000000000000028
 31
0.0
210
0.0
220
0.0
230
1.0
 40
0.9773495592
 41
4.712388980384703
 42
6.283185307179586
  0
ELLIPSE
  5
3C1
330
1F
100
AcDbEntity
  8
0
  6
Continuous
 62
     7
370
    15
100
AcDbEllipse
 10
182.335385585
 20
126.1254506266
 30
0.0
 11
0.0
 21
0.2000000000000028
 31
0.0
210
0.0
220
0.0
230
1.0
 40
0.7934197679
 41
4.712388980384843
 42
6.283185307179586
  0
LINE
  5
3C2
330
1F
100
AcDbEntity
  8
0
  6
Continuous
 62
     7
370
    15
100
AcDbLine
 10
177.9242626911
 20
125.9254507101
 30
0.0
 11
177.9242626911
 21
126.1254503703
 31
0.0
  0
LINE
  5
3C3
330
1F
100
AcDbEntity
  8
0
  6
Continuous
 62
     7
370
    15
100
AcDbLine
 10
178.9774283355
 20
125.9254507101
 30
0.0
 11
178.9774283355
 21
126.1254503703
 31
0.0
  0
LINE
  5
3C4
330
1F
100
AcDbEntity
  8
0
  6
Continuous
 62
     7
370
    15
100
AcDbLine
 10
250.5815237349
 20
125.6254512197
 30
0.0
 11
245.9018624907
 21
125.6254512197
 31
0.0
  0
ELLIPSE
  5
3C5
330
1F
100
AcDbEntity
  8
0
  6
Continuous
 62
     7
370
    15
100
AcDbEllipse
 10
250.5815254976
 20
125.9254506266
 30
0.0
 11
0.0
 21
0.2999999999999972
 31
0.0
210
0.0
220
0.0
230
1.0
 40
0.461974409
 41
1.570796326794897
 42
3.141592653589793
  0
LINE
  5
3C6
330
1F
100
AcDbEntity
  8
0
  6
Continuous
 62
     7
370
    15
100
AcDbLine
 10
251.1165499276
 20
125.6254512197
 30
0.0
 11
250.5815237349
 21
125.6254512197
 31
0.0
  0
ELLIPSE
  5
3C7
330
1F
100
AcDbEntity
  8
0
  6
Continuous
 62
     7
370
    15
100
AcDbEllipse
 10
251.1165481237
 20
125.9254506266
 30
0.0
 11
0.649436999288298
 21
0.0
 31
0.0
210
0.0
220
0.0
230
1.0
 40
0.4619385719
 41
4.712388980384696
 42
6.283185307179586
  0
LINE
  5
3C8
330
1F
100
AcDbEntity
  8
0
  6
Continuous
 62
     7
370
    15
100
AcDbLine
 10
245.1629008686
 20
125.9254507101
 30
0.0
 11
245.1629008686
 21
126.1254503703
 31
0.0
  0
LINE
  5
3C9
330
1F
100
AcDbEntity
  8
0
  6
Continuous
 62
     7
370
    15
100
AcDbLine
 10
246.2018619811
 20
125.9254507101
 30
0.0
 11
246.2018619811
 21
126.1254503703
 31
0.0
  0
LINE
  5
3CA
330
1F
100
AcDbEntity
  8
0
  6
Continuous
 62
     7
370
    15
100
AcDbLine
 10
250.4429317599
 20
125.9254507101
 30
0.0
 11
250.4429317599
 21
126.1254503703
 31
0.0
  0
LINE
  5
3CB
330
1F
100
AcDbEntity
  8
0
  6
Continuous
 62
     7
370
    15
100
AcDbLine
 10
251.7659835106
 20
125.9254507101
 30
0.0
 11
251.7659835106
 21
126.1254503703
 31
0.0
  0
ELLIPSE
  5
3CC
330
1F
100
AcDbEntity
  8
0
  6
Continuous
 62
     7
370
    15
100
AcDbEllipse
 10
188.0401811652
 20
125.9254506266
 30
0.0
 11
0.37109616564166
 21
2.842170943040401E-14
 31
0.0
210
0.0
220
0.0
230
1.0
 40
0.8084157902
 41
4.712388980384715
 42
6.283185307179586
  0
LINE
  5
3CD
330
1F
100
AcDbEntity
  8
0
  6
Continuous
 62
     7
370
    15
100
AcDbLine
 10
188.0401804632
 20
125.6254512197
 30
0.0
 11
187.6060723847
 21
125.6254512197
 31
0.0
  0
ELLIPSE
  5
3CE
330
1F
100
AcDbEntity
  8
0
  6
Continuous
 62
     7
370
    15
100
AcDbEllipse
 10
187.6060731048
 20
125.9254506266
 30
0.0
 11
-2.842170943040401E-14
 21
0.2999999999999972
 31
0.0
210
0.0
220
0.0
230
1.0
 40
0.8265378613
 41
1.570796326794913
 42
3.141592653589793
  0
LINE
  5
3CF
330
1F
100
AcDbEntity
  8
0
  6
Continuous
 62
     7
370
    15
100
AcDbLine
 10
180.9173658079
 20
125.9254507101
 30
0.0
 11
180.9173658079
 21
126.1254503703
 31
0.0
  0
LINE
  5
3D0
330
1F
100
AcDbEntity
  8
0
  6
Continuous
 62
     7
370
    15
100
AcDbLine
 10
182.4940688496
 20
125.9254507101
 30
0.0
 11
182.4940688496
 21
126.1254503703
 31
0.0
  0
LINE
  5
3D1
330
1F
100
AcDbEntity
  8
0
  6
Continuous
 62
     7
370
    15
100
AcDbLine
 10
178.7283889538
 20
125.6254512197
 30
0.0
 11
178.2933756297
 21
125.6254512197
 31
0.0
  0
ELLIPSE
  5
3D2
330
1F
100
AcDbEntity
  8
0
  6
Continuous
 62
     7
370
    15
100
AcDbEllipse
 10
178.2933766584
 20
125.9254506266
 30
0.0
 11
0.3691123145814856
 21
0.0
 31
0.0
210
0.0
220
0.0
230
1.0
 40
0.8127607456
 41
3.141592653589905
 42
4.712388980384778
  0
ELLIPSE
  5
3D3
330
1F
100
AcDbEntity
  8
0
  6
Continuous
 62
     7
370
    15
100
AcDbEllipse
 10
178.7283904949
 20
125.9254506266
 30
0.0
 11
0.0
 21
0.2999999999999972
 31
0.0
210
0.0
220
0.0
230
1.0
 40
0.8301314443
 41
3.141592653589924
 42
4.712388980384701
  0
LINE
  5
3D4
330
1F
100
AcDbEntity
  8
0
  6
Continuous
 62
     7
370
    15
100
AcDbLine
 10
187.6060723847
 20
125.6254512197
 30
0.0
 11
186.4210016614
 21
125.6254512197
 31
0.0
  0
ARC
  5
3D5
330
1F
100
AcDbEntity
  8
0
  6
Continuous
 62
     7
370
    15
100
AcDbCircle
 10
186.4237124726
 20
125.9227892073
 30
0.0
 40
0.2973503444538997
100
AcDbArc
 50
179.4871540674
 51
269.4776525469
  0
LWPOLYLINE
  5
3D6
330
1F
100
AcDbEntity
  8
0
  6
Continuous
 62
     7
370
    15
100
AcDbPolyline
 90
        3
 70
   128
 43
0.0
 10
183.1257327979
 20
125.6429246939
 10
183.0073579734
 20
125.6254586703
 10
183.0046757644
 20
125.6254512197
  0
LINE
  5
3D7
330
1F
100
AcDbEntity
  8
0
  6
Continuous
 62
     7
370
    15
100
AcDbLine
 10
183.0046757644
 20
125.6254512197
 30
0.0
 11
182.7320962733
 21
125.6254512197
 31
0.0
  0
ELLIPSE
  5
3D8
330
1F
100
AcDbEntity
  8
0
  6
Continuous
 62
     7
370
    15
100
AcDbEllipse
 10
182.732095469
 20
125.9254506266
 30
0.0
 11
-2.842170943040401E-14
 21
0.2999999999999972
 31
0.0
210
0.0
220
0.0
230
1.0
 40
0.7934197679
 41
1.570796326794822
 42
3.141592653589811
  0
ELLIPSE
  5
3D9
330
1F
100
AcDbEntity
  8
0
  6
Continuous
 62
     7
370
    15
100
AcDbEllipse
 10
183.7000774473
 20
125.9254506266
 30
0.0
 11
0.0
 21
0.2999999999999972
 31
0.0
210
0.0
220
0.0
230
1.0
 40
0.7959909535
 41
3.141592653589929
 42
4.712388980384606
  0
LINE
  5
3DA
330
1F
100
AcDbEntity
  8
0
  6
Continuous
 62
     7
370
    15
100
AcDbLine
 10
183.7000757044
 20
125.6254512197
 30
0.0
 11
183.2512043005
 21
125.6254512197
 31
0.0
  0
ELLIPSE
  5
3DB
330
1F
100
AcDbEntity
  8
0
  6
Continuous
 62
     7
370
    15
100
AcDbEllipse
 10
183.2512027527
 20
125.9254506266
 30
0.0
 11
0.3730733402003921
 21
2.842170943040401E-14
 31
0.0
210
0.0
220
0.0
230
1.0
 40
0.8041314339
 41
4.369390625200977
 42
4.71238898038464
  0
LINE
  5
3DC
330
1F
100
AcDbEntity
  8
0
  6
Continuous
 62
     7
370
    15
100
AcDbLine
 10
182.7320962733
 20
125.6254512197
 30
0.0
 11
181.2105685061
 21
125.6254512197
 31
0.0
  0
ELLIPSE
  5
3DD
330
1F
100
AcDbEntity
  8
0
  6
Continuous
 62
     7
370
    15
100
AcDbEllipse
 10
181.2105698609
 20
125.9254506266
 30
0.0
 11
-2.842170943040401E-14
 21
0.2999999999999829
 31
0.0
210
0.0
220
0.0
230
1.0
 40
0.9773495592
 41
1.570796326794804
 42
3.141592653589904
  0
LINE
  5
3DE
330
1F
100
AcDbEntity
  8
0
  6
Continuous
 62
     7
370
    15
100
AcDbLine
 10
183.9388742631
 20
125.9254507101
 30
0.0
 11
183.9388742631
 21
126.1254503703
 31
0.0
  0
LINE
  5
3DF
330
1F
100
AcDbEntity
  8
0
  6
Continuous
 62
     7
370
    15
100
AcDbLine
 10
180.2051089292
 20
125.9254507101
 30
0.0
 11
180.2051089292
 21
126.1254503703
 31
0.0
  0
LINE
  5
3E0
330
1F
100
AcDbEntity
  8
0
  6
Continuous
 62
     7
370
    15
100
AcDbLine
 10
184.8112869596
 20
125.6254512197
 30
0.0
 11
183.7000757044
 21
125.6254512197
 31
0.0
  0
ARC
  5
3E1
330
1F
100
AcDbEntity
  8
0
  6
Continuous
 62
     7
370
    15
100
AcDbCircle
 10
184.8074143108
 20
125.9216832941
 30
0.0
 40
0.2962573869230912
100
AcDbArc
 50
270.7489863891
 51
0.7286328162
  0
LINE
  5
3E2
330
1F
100
AcDbEntity
  8
0
  6
Continuous
 62
     7
370
    15
100
AcDbLine
 10
179.9102335757
 20
125.6254512197
 30
0.0
 11
178.7283889538
 21
125.6254512197
 31
0.0
  0
ARC
  5
3E3
330
1F
100
AcDbEntity
  8
0
  6
Continuous
 62
     7
370
    15
100
AcDbCircle
 10
179.9076502388
 20
125.9229095468
 30
0.0
 40
0.2974695446665854
100
AcDbArc
 50
270.497584241
 51
0.4894608648
  0
LINE
  5
3E4
330
1F
100
AcDbEntity
  8
0
  6
Continuous
 62
     7
370
    15
100
AcDbLine
 10
186.1263740396
 20
125.9254507101
 30
0.0
 11
186.1263740396
 21
126.1254503703
 31
0.0
  0
LINE
  5
3E5
330
1F
100
AcDbEntity
  8
0
  6
Continuous
 62
     7
370
    15
100
AcDbLine
 10
187.3581114745
 20
125.9254507101
 30
0.0
 11
187.3581114745
 21
126.1254503703
 31
0.0
  0
LINE
  5
3E6
330
1F
100
AcDbEntity
  8
0
  6
Continuous
 62
     7
370
    15
100
AcDbLine
 10
245.9018624907
 20
125.6254512197
 30
0.0
 11
245.462900359
 21
125.6254512197
 31
0.0
  0
ARC
  5
3E7
330
1F
100
AcDbEntity
  8
0
  6
Continuous
 62
     7
370
    15
100
AcDbCircle
 10
245.4629007074
 20
125.9254506266
 30
0.0
 40
0.2999999999999972
100
AcDbArc
 50
180.0
 51
270.0
  0
ARC
  5
3E8
330
1F
100
AcDbEntity
  8
0
  6
Continuous
 62
     7
370
    15
100
AcDbCircle
 10
245.9018617464
 20
125.9254506266
 30
0.0
 40
0.2999999999999972
100
AcDbArc
 50
270.0
 51
0.0
  0
LINE
  5
3E9
330
1F
100
AcDbEntity
  8
0
  6
Continuous
 62
     7
370
    15
100
AcDbLine
 10
188.4112771189
 20
125.9254507101
 30
0.0
 11
188.4112771189
 21
126.1254503703
 31
0.0
  0
LINE
  5
3EA
330
1F
100
AcDbEntity
  8
0
  6
Continuous
 62
     7
370
    15
100
AcDbLine
 10
185.1036477422
 20
125.9254507101
 30
0.0
 11
185.1036477422
 21
126.1254503703
 31
0.0
  0
ELLIPSE
  5
3EB
330
1F
100
AcDbEntity
  8
0
  6
Continuous
 62
     7
370
    15
100
AcDbEllipse
 10
251.3834012975
 20
125.9254506266
 30
0.0
 11
0.5327461631881363
 21
0.0
 31
0.0
210
0.0
220
0.0
230
1.0
 40
0.5631199636
 41
4.712388980384698
 42
6.283185307179586
  0
LINE
  5
3EC
330
1F
100
AcDbEntity
  8
0
  6
Continuous
 62
     7
370
    15
100
AcDbLine
 10
251.3833999222
 20
125.6254512197
 30
0.0
 11
251.1165499276
 21
125.6254512197
 31
0.0
  0
ELLIPSE
  5
3ED
330
1F
100
AcDbEntity
  8
0
  6
Continuous
 62
     7
370
    15
100
AcDbEllipse
 10
252.2713115695
 20
126.1254506266
 30
0.0
 11
0.3551641087921097
 21
0.0
 31
0.0
210
0.0
220
0.0
230
1.0
 40
0.5631199636
 41
1.570796326794897
 42
3.141592653589793
  0
LINE
  5
3EE
330
1F
100
AcDbEntity
  8
0
  6
Continuous
 62
     7
370
    15
100
AcDbLine
 10
251.9161462372
 20
125.9254507101
 30
0.0
 11
251.9161462372
 21
126.1254503703
 31
0.0
  0
ARC
  5
3EF
330
1F
100
AcDbEntity
  8
0
  6
Continuous
 62
     7
370
    15
100
AcDbCircle
 10
186.7982908498
 20
126.1446213289
 30
0.0
 40
1.057641354300798
100
AcDbArc
 50
170.7201637366
 51
181.0386083773
  0
LINE
  5
3F0
330
1F
100
AcDbEntity
  8
0
  6
Continuous
 62
     7
370
    15
100
AcDbLine
 10
185.7408232575
 20
125.9254507101
 30
0.0
 11
185.7408232575
 21
126.1254503703
 31
0.0
  0
ARC
  5
3F1
330
1F
100
AcDbEntity
  8
0
  6
Continuous
 62
     7
370
    15
100
AcDbCircle
 10
183.9588332863
 20
125.9016549538
 30
0.0
 40
1.782148842110965
100
AcDbArc
 50
351.9571125318
 51
0.7650522164
  0
LWPOLYLINE
  5
3F2
330
1F
100
AcDbEntity
  8
0
  6
Continuous
 62
     7
370
    15
100
AcDbPolyline
 90
        3
 70
   128
 43
0.0
 10
185.7234522289
 20
125.6523068375
 10
185.5846926158
 20
125.6254586703
 10
185.582077462
 20
125.6254512197
  0
LINE
  5
3F3
330
1F
100
AcDbEntity
  8
0
  6
Continuous
 62
     7
370
    15
100
AcDbLine
 10
185.582077462
 20
125.6254512197
 30
0.0
 11
184.8112869596
 21
125.6254512197
 31
0.0
  0
ARC
  5
3F4
330
1F
100
AcDbEntity
  8
0
  6
Continuous
 62
     7
370
    15
100
AcDbCircle
 10
185.8679803056
 20
126.0277629101
 30
0.0
 40
0.402312847722151
100
AcDbArc
 50
248.9462862869
 51
270.1374313398
  0
LINE
  5
3F5
330
1F
100
AcDbEntity
  8
0
  6
Continuous
 62
     7
370
    15
100
AcDbLine
 10
186.4210016614
 20
125.6254512197
 30
0.0
 11
185.8689453041
 21
125.6254512197
 31
0.0
  0
ARC
  5
3F6
330
1F
100
AcDbEntity
  8
0
  6
Continuous
 62
     7
370
    15
100
AcDbCircle
 10
181.0109613615
 20
126.1675023721
 30
0.0
 40
0.4668414975227216
100
AcDbArc
 50
160.224564074
 51
185.1680763208
  0
LINE
  5
3F7
330
1F
100
AcDbEntity
  8
0
  6
Continuous
 62
     7
370
    15
100
AcDbLine
 10
180.546017695
 20
125.9254507101
 30
0.0
 11
180.546017695
 21
126.1254503703
 31
0.0
  0
LWPOLYLINE
  5
3F8
330
1F
100
AcDbEntity
  8
0
  6
Continuous
 62
     7
370
    15
100
AcDbPolyline
 90
        3
 70
   128
 43
0.0
 10
180.5147625094
 20
125.6410750872
 10
180.4067775195
 20
125.6254586703
 10
180.404140014
 20
125.6254512197
  0
ARC
  5
3F9
330
1F
100
AcDbEntity
  8
0
  6
Continuous
 62
     7
370
    15
100
AcDbCircle
 10
179.5230066476
 20
125.8939825044
 30
0.0
 40
1.023494919979459
100
AcDbArc
 50
345.6939234766
 51
1.76188423
  0
LINE
  5
3FA
330
1F
100
AcDbEntity
  8
0
  6
Continuous
 62
     7
370
    15
100
AcDbLine
 10
180.404140014
 20
125.6254512197
 30
0.0
 11
179.9102335757
 21
125.6254512197
 31
0.0
  0
ELLIPSE
  5
3FB
330
1F
100
AcDbEntity
  8
0
  6
Continuous
 62
     7
370
    15
100
AcDbEllipse
 10
180.6314195811
 20
125.9254506266
 30
0.0
 11
0.3662563927844644
 21
2.842170943040401E-14
 31
0.0
210
0.0
220
0.0
230
1.0
 40
0.8190983309
 41
4.388226515191892
 42
4.712388980384793
  0
LINE
  5
3FC
330
1F
100
AcDbEntity
  8
0
  6
Continuous
 62
     7
370
    15
100
AcDbLine
 10
181.2105685061
 20
125.6254512197
 30
0.0
 11
180.6314199751
 21
125.6254512197
 31
0.0
  0
ARC
  5
3FD
330
1F
100
AcDbEntity
  8
0
  6
Continuous
 62
     7
370
    15
100
AcDbCircle
 10
210.427855693
 20
102.3254506266
 30
0.0
 40
1.500000000000014
100
AcDbArc
 50
221.8103148958
 51
270.0
  0
ARC
  5
3FE
330
1F
100
AcDbEntity
  8
0
  6
Continuous
 62
     7
370
    15
100
AcDbCircle
 10
220.0797639037
 20
102.3254506266
 30
0.0
 40
1.500000000000014
100
AcDbArc
 50
270.0
 51
318.1896851042
  0
LINE
  5
3FF
330
1F
100
AcDbEntity
  8
0
  6
Continuous
 62
     7
370
    15
100
AcDbLine
 10
220.0797641238
 20
100.8254505074
 30
0.0
 11
210.4278554728
 21
100.8254505074
 31
0.0
  0
ARC
  5
400
330
1F
100
AcDbEntity
  8
0
  6
Continuous
 62
     7
370
     0
100
AcDbCircle
 10
205.11624774
 20
141.3254506266
 30
0.0
 40
35.79663521749908
100
AcDbArc
 50
347.3520208914
 51
12.6479791086
  0
LWPOLYLINE
  5
401
330
1F
100
AcDbEntity
  8
0
  6
Continuous
 62
     7
370
     0
100
AcDbPolyline
 90
        9
 70
   128
 43
0.0
 10
207.5638141071
 20
116.4887036509
 10
208.8246567694
 20
116.1925710118
 10
210.162175685
 20
116.0339649147
 10
212.404757371
 20
115.9747886783
 10
214.7186495534
 20
116.0034156716
 10
217.0997012693
 20
115.9869834161
 10
219.4875062963
 20
115.9891329086
 10
221.2371214813
 20
116.1251302189
 10
222.9438054895
 20
116.4887036509
  0
ARC
  5
402
330
1F
100
AcDbEntity
  8
0
  6
Continuous
 62
     7
370
     0
100
AcDbCircle
 10
225.3913718567
 20
141.3254506266
 30
0.0
 40
35.79663521749908
100
AcDbArc
 50
167.3520208914
 51
192.6479791086
  0
LWPOLYLINE
  5
403
330
1F
100
AcDbEntity
  8
0
  6
Continuous
 62
     7
370
     0
100
AcDbPolyline
 90
        9
 70
   128
 43
0.0
 10
222.9438050238
 20
166.1621976024
 10
221.6829623615
 20
166.4583302415
 10
220.3454429803
 20
166.6169363386
 10
218.1028615272
 20
166.676112575
 10
215.7889692283
 20
166.6474855817
 10
213.4079176288
 20
166.6639178372
 10
211.020112369
 20
166.6617683447
 10
209.2704981154
 20
166.5257710344
 10
207.5638145728
 20
166.1621976024
  0
CIRCLE
  5
404
330
1F
100
AcDbEntity
  8
0
  6
Continuous
 62
     7
370
     0
100
AcDbCircle
 10
215.2538097983
 20
141.3254506266
 30
0.0
 40
24.0
  0
LWPOLYLINE
  5
405
330
1F
100
AcDbEntity
  8
0
  6
Continuous
 62
     7
370
     0
100
AcDbPolyline
 90
        9
 70
   128
 43
0.0
 10
222.7162335588
 20
115.5508972085
 10
221.1254838442
 20
115.2252677208
 10
219.3398884086
 20
115.1743206507
 10
217.0965882072
 20
115.2992892391
 10
214.7406213738
 20
115.3571709371
 10
212.5292472595
 20
115.2428957945
 10
210.3301206192
 20
115.1696509993
 10
209.035479795
 20
115.2672219402
 10
207.7913860379
 20
115.5508972085
  0
LWPOLYLINE
  5
406
330
1F
100
AcDbEntity
  8
0
  6
Continuous
 62
     7
370
     0
100
AcDbPolyline
 90
        9
 70
   128
 43
0.0
 10
207.5638141071
 20
116.4887036509
 10
207.6427422984
 20
116.4483121908
 10
207.7102496808
 20
116.3800332076
 10
207.764277566
 20
116.2859510011
 10
207.803180307
 20
116.1689303196
 10
207.8257713987
 20
116.0325399912
 10
207.8313625937
 20
115.8809355772
 10
207.8197829945
 20
115.7187401629
 10
207.7913860379
 20
115.5508972085
  0
LWPOLYLINE
  5
407
330
1F
100
AcDbEntity
  8
0
  6
Continuous
 62
     7
370
     0
100
AcDbPolyline
 90
        9
 70
   128
 43
0.0
 10
222.7162335588
 20
115.5508972085
 10
222.6878366021
 20
115.7187401629
 10
222.6762570029
 20
115.8809355772
 10
222.681848198
 20
116.0325399912
 10
222.7044392897
 20
116.1689303196
 10
222.7433420306
 20
116.2859510011
 10
222.7973699158
 20
116.3800332076
 10
222.8648772983
 20
116.4483121908
 10
222.9438054895
 20
116.4887036509
  0
LWPOLYLINE
  5
408
330
1F
100
AcDbEntity
  8
0
  6
Continuous
 62
     7
370
     0
100
AcDbPolyline
 90
        9
 70
   128
 43
0.0
 10
207.7913865035
 20
167.1000040448
 10
209.3821357524
 20
167.4256335324
 10
211.1677307224
 20
167.4765806026
 10
213.4110306909
 20
167.3516120142
 10
215.7669974661
 20
167.2937303162
 10
217.9783716386
 20
167.4080054587
 10
220.1774985118
 20
167.4812502539
 10
221.472139336
 20
167.3836793131
 10
222.7162330931
 20
167.1000040448
  0
LWPOLYLINE
  5
409
330
1F
100
AcDbEntity
  8
0
  6
Continuous
 62
     7
370
     0
100
AcDbPolyline
 90
        9
 70
   128
 43
0.0
 10
222.9438050238
 20
166.1621976024
 10
222.864876367
 20
166.2025890625
 10
222.7973694501
 20
166.2708680457
 10
222.7433410993
 20
166.3649502522
 10
222.704438824
 20
166.4819709337
 10
222.6818477323
 20
166.6183612621
 10
222.6762565373
 20
166.7699656761
 10
222.6878361365
 20
166.9321610904
 10
222.7162330931
 20
167.1000040448
  0
LWPOLYLINE
  5
40A
330
1F
100
AcDbEntity
  8
0
  6
Continuous
 62
     7
370
     0
100
AcDbPolyline
 90
        9
 70
   128
 43
0.0
 10
207.7913865035
 20
167.1000040448
 10
207.8197834602
 20
166.9321610904
 10
207.8313630594
 20
166.7699656761
 10
207.8257718643
 20
166.6183612621
 10
207.8031807726
 20
166.4819709337
 10
207.7642784974
 20
166.3649502522
 10
207.7102501465
 20
166.2708680457
 10
207.6427432297
 20
166.2025890625
 10
207.5638145728
 20
166.1621976024
  0
ARC
  5
40B
330
1F
100
AcDbEntity
  8
0
  6
Continuous
 62
     7
370
     0
100
AcDbCircle
 10
215.6153455947
 20
139.0114185646
 30
0.0
 40
24.73075828699659
100
AcDbArc
 50
233.6976278171
 51
251.5567304583
  0
LWPOLYLINE
  5
40C
330
1F
100
AcDbEntity
  8
0
  6
Continuous
 62
     7
370
     0
100
AcDbPolyline
 90
        8
 70
   128
 43
0.0
 10
229.5450254863
 20
119.0889078504
 10
229.5641408822
 20
119.1029149419
 10
229.3503744116
 20
118.9473337806
 10
228.843651112
 20
118.5919280476
 10
227.850614447
 20
117.9473187155
 10
226.4466428718
 20
117.1443659193
 10
224.7572460732
 20
116.3311909265
 10
222.7162335588
 20
115.5508972085
  0
ARC
  5
40D
330
1F
100
AcDbEntity
  8
0
  6
Continuous
 62
     7
370
     0
100
AcDbCircle
 10
214.8928581813
 20
143.6406138254
 30
0.0
 40
24.7295002876017
100
AcDbArc
 50
53.6971687403
 51
71.5571863395
  0
LWPOLYLINE
  5
40E
330
1F
100
AcDbEntity
  8
0
  6
Continuous
 62
     7
370
     0
100
AcDbPolyline
 90
        8
 70
   128
 43
0.0
 10
200.9625950417
 20
163.5619934029
 10
200.9434796458
 20
163.5479863113
 10
201.1572461164
 20
163.7035674727
 10
201.6639684847
 20
164.0589750684
 10
202.6570051497
 20
164.7035825378
 10
204.0609767249
 20
165.506535334
 10
205.7503735235
 20
166.3197121895
 10
207.7913865035
 20
167.1000040448
  0
LWPOLYLINE
  5
40F
330
1F
100
AcDbEntity
  8
0
  6
Continuous
 62
     7
370
     0
100
AcDbPolyline
 90
        9
 70
   128
 43
0.0
 10
188.5564311927
 20
133.9736367888
 10
188.1869904285
 20
135.526266539
 10
188.0693997776
 20
137.2858301117
 10
188.1014316862
 20
139.4303881176
 10
188.1300475037
 20
141.6865578
 10
188.0852136349
 20
143.8406402091
 10
188.0870408898
 20
145.9853655039
 10
188.223043788
 20
147.3643510914
 10
188.5564311927
 20
148.6772644645
  0
LWPOLYLINE
  5
410
330
1F
100
AcDbEntity
  8
0
  6
Continuous
 62
     7
370
     0
100
AcDbPolyline
 90
        9
 70
   128
 43
0.0
 10
241.9511884039
 20
148.6772644645
 10
242.3206291681
 20
147.1246347143
 10
242.438219819
 20
145.3650711416
 10
242.4061879104
 20
143.2205131356
 10
242.377572093
 20
140.9643434533
 10
242.4224059617
 20
138.8102610442
 10
242.4205787068
 20
136.6655357494
 10
242.2845758086
 20
135.2865501619
 10
241.9511884039
 20
133.9736367888
  0
ARC
  5
411
330
1F
100
AcDbEntity
  8
0
  6
Continuous
 62
     7
370
     0
100
AcDbCircle
 10
210.3650550738
 20
141.9578145035
 30
0.0
 40
23.22419362151889
100
AcDbArc
 50
200.1077722107
 51
217.1324552152
  0
LINE
  5
412
330
1F
100
AcDbEntity
  8
0
  6
Continuous
 62
     7
370
     0
100
AcDbLine
 10
167.490890581
 20
127.9383051521
 30
0.0
 11
191.8497498667
 21
127.9383051521
 31
0.0
  0
LWPOLYLINE
  5
413
330
1F
100
AcDbEntity
  8
0
  6
Continuous
 62
     7
370
     0
100
AcDbPolyline
 90
        3
 70
   128
 43
0.0
 10
167.490890581
 20
154.7125961012
 10
167.7100941127
 20
154.8011555648
 10
167.7578262573
 20
154.8199869073
  0
LWPOLYLINE
  5
414
330
1F
100
AcDbEntity
  8
0
  6
Continuous
 62
     7
370
     0
100
AcDbPolyline
 90
        4
 70
   128
 43
0.0
 10
167.7645131534
 20
127.8283327198
 10
167.7714980727
 20
127.8255247823
 10
167.7561200744
 20
127.8315681345
 10
167.490890581
 20
127.9383051521
  0
LINE
  5
415
330
1F
100
AcDbEntity
  8
0
  6
Continuous
 62
     7
370
     0
100
AcDbLine
 10
191.8497498667
 20
154.7125961012
 30
0.0
 11
167.490890581
 21
154.7125961012
 31
0.0
  0
ARC
  5
416
330
1F
100
AcDbEntity
  8
0
  6
Continuous
 62
     7
370
     0
100
AcDbCircle
 10
210.4357423596
 20
140.6545145929
 30
0.0
 40
23.30383600698618
100
AcDbArc
 50
142.8968510968
 51
159.8629214773
  0
ARC
  5
417
330
1F
100
AcDbEntity
  8
0
  6
Continuous
 62
     7
370
     0
100
AcDbCircle
 10
220.0652103169
 20
141.9991792298
 30
0.0
 40
23.31105678209089
100
AcDbArc
 50
322.5530925703
 51
339.8621185827
  0
ARC
  5
418
330
1F
100
AcDbEntity
  8
0
  6
Continuous
 62
     7
370
     0
100
AcDbCircle
 10
220.0620869615
 20
140.6500054842
 30
0.0
 40
23.31458017408859
100
AcDbArc
 50
20.139199358
 51
37.4455894889
  0
ARC
  5
419
330
1F
100
AcDbEntity
  8
0
  6
Continuous
 62
     7
370
     0
100
AcDbCircle
 10
191.8764572861
 20
156.6830587622
 30
0.0
 40
1.97064364727076
100
AcDbArc
 50
269.2234672852
 51
326.5906724254
  0
ARC
  5
41A
330
1F
100
AcDbEntity
  8
0
  6
Continuous
 62
     7
370
     0
100
AcDbCircle
 10
191.8764572861
 20
125.9678424911
 30
0.0
 40
1.970643647270768
100
AcDbArc
 50
33.4093275746
 51
90.7765327148
  0
LWPOLYLINE
  5
41B
330
1F
100
AcDbEntity
  8
0
  6
Continuous
 62
     7
370
     0
100
AcDbPolyline
 90
        3
 70
   128
 43
0.0
 10
168.5434490031
 20
127.6714616767
 10
167.4981213694
 20
127.9375768578
 10
167.490890581
 20
127.9383051521
  0
LWPOLYLINE
  5
41C
330
1F
100
AcDbEntity
  8
0
  6
Continuous
 62
     7
370
     0
100
AcDbPolyline
 90
        9
 70
   128
 43
0.0
 10
192.4137867576
 20
156.3254502914
 10
192.6475189215
 20
156.171947842
 10
192.8625333643
 20
156.0307397819
 10
193.0537841802
 20
155.9051378942
 10
193.2167823946
 20
155.7980898148
 10
193.3477039969
 20
155.7121073208
 10
193.4434774851
 20
155.6492095194
 10
193.5018565094
 20
155.6108697629
 10
193.5214683002
 20
155.5979895717
  0
LWPOLYLINE
  5
41D
330
1F
100
AcDbEntity
  8
0
  6
Continuous
 62
     7
370
     0
100
AcDbPolyline
 90
        9
 70
   128
 43
0.0
 10
192.6393586731
 20
126.4735936499
 10
192.8302984273
 20
126.598991578
 10
193.0034331566
 20
126.7126958198
 10
193.1556168532
 20
126.8126416332
 10
193.2840872144
 20
126.8970138705
 10
193.3865122085
 20
126.9642805061
 10
193.461031053
 20
127.0132196448
 10
193.5062896049
 20
127.042943736
 10
193.5214683002
 20
127.0529116816
  0
LINE
  5
41E
330
1F
100
AcDbEntity
  8
0
  6
Continuous
 62
     7
370
     0
100
AcDbLine
 10
191.8497498667
 20
126.4735936499
 30
0.0
 11
192.6393586731
 21
126.4735936499
 31
0.0
  0
ARC
  5
41F
330
1F
100
AcDbEntity
  8
0
  6
Continuous
 62
     7
370
     0
100
AcDbCircle
 10
192.7308512739
 20
124.1328738123
 30
0.0
 40
2.3349681712918
100
AcDbArc
 50
37.0505066592
 51
85.6379959665
  0
LINE
  5
420
330
1F
100
AcDbEntity
  8
0
  6
Continuous
 62
     7
370
     0
100
AcDbLine
 10
192.6393586731
 20
126.4735936499
 30
0.0
 11
192.9084438419
 21
126.4610785371
 31
0.0
  0
LWPOLYLINE
  5
421
330
1F
100
AcDbEntity
  8
0
  6
Continuous
 62
     7
370
     0
100
AcDbPolyline
 90
        9
 70
   128
 43
0.0
 10
192.9084438419
 20
126.4610785371
 10
192.9147023296
 20
126.4325484014
 10
192.9231401121
 20
126.4062571651
 10
192.9335560238
 20
126.3828381276
 10
192.9456986075
 20
126.3628556705
 10
192.959275428
 20
126.3467903561
 10
192.9739586597
 20
126.3350314772
 10
192.9893962627
 20
126.3278602934
 10
193.0052138453
 20
126.3254509619
  0
ARC
  5
422
330
1F
100
AcDbEntity
  8
0
  6
Continuous
 62
     7
370
     0
100
AcDbCircle
 10
174.7255576453
 20
142.4834285322
 30
0.0
 40
16.00985980996863
100
AcDbArc
 50
247.6061174127
 51
270.1011078898
  0
LINE
  5
423
330
1F
100
AcDbEntity
  8
0
  6
Continuous
 62
     7
370
     0
100
AcDbLine
 10
174.7538096791
 20
126.4735936499
 30
0.0
 11
174.7538096791
 21
126.3254509619
 31
0.0
  0
ARC
  5
424
330
1F
100
AcDbEntity
  8
0
  6
Continuous
 62
     7
370
     0
100
AcDbCircle
 10
168.5755805172
 20
127.7573206463
 30
0.0
 40
0.0916744067658559
100
AcDbArc
 50
249.4823434866
 51
303.5567874838
  0
LINE
  5
425
330
1F
100
AcDbEntity
  8
0
  6
Continuous
 62
     7
370
     0
100
AcDbLine
 10
174.7538096791
 20
126.4735936499
 30
0.0
 11
191.8497498667
 21
126.4735936499
 31
0.0
  0
LWPOLYLINE
  5
426
330
1F
100
AcDbEntity
  8
0
  6
Continuous
 62
     7
370
     0
100
AcDbPolyline
 90
        3
 70
   128
 43
0.0
 10
167.490890581
 20
127.9383051521
 10
167.4989558345
 20
127.9376429817
 10
168.6262547558
 20
127.6809248454
  0
LWPOLYLINE
  5
427
330
1F
100
AcDbEntity
  8
0
  6
Continuous
 62
     7
370
     0
100
AcDbPolyline
 90
        9
 70
   128
 43
0.0
 10
192.6393586731
 20
126.4735936499
 10
192.6438644117
 20
126.4428320653
 10
192.6503575927
 20
126.4142767838
 10
192.65866499
 20
126.3886877647
 10
192.668564949
 20
126.3667504615
 10
192.679792974
 20
126.3490497446
 10
192.692049179
 20
126.3360568634
 10
192.7050076013
 20
126.3281201324
 10
192.7183199262
 20
126.3254509619
  0
ARC
  5
428
330
1F
100
AcDbEntity
  8
0
  6
Continuous
 62
     7
370
     0
100
AcDbCircle
 10
237.5024052596
 20
124.3254506266
 30
0.0
 40
2.200000000000003
100
AcDbArc
 50
90.0
 51
118.9519632407
  0
LINE
  5
429
330
1F
100
AcDbEntity
  8
0
  6
Continuous
 62
     7
370
     0
100
AcDbLine
 10
237.5024057513
 20
126.3254509619
 30
0.0
 11
237.5024057513
 21
126.5254506222
 31
0.0
  0
LWPOLYLINE
  5
42A
330
1F
100
AcDbEntity
  8
0
  6
Continuous
 62
     7
370
     0
100
AcDbPolyline
 90
        9
 70
   128
 43
0.0
 10
261.9170307701
 20
127.6501185572
 10
261.9155294782
 20
127.6534536234
 10
261.911074031
 20
127.6633358872
 10
261.9038320666
 20
127.6794039956
 10
261.8940680807
 20
127.701070284
 10
261.8821359759
 20
127.7275431282
 10
261.8684753364
 20
127.7578530214
 10
261.8535853511
 20
127.7908916897
 10
261.8380136376
 20
127.8254502765
  0
LINE
  5
42B
330
1F
100
AcDbEntity
  8
0
  6
Continuous
 62
     7
370
     0
100
AcDbLine
 10
255.7538099175
 20
126.3254509619
 30
0.0
 11
255.7538099175
 21
126.5254506222
 31
0.0
  0
ARC
  5
42C
330
1F
100
AcDbEntity
  8
0
  6
Continuous
 62
     7
370
     0
100
AcDbCircle
 10
255.7538097983
 20
141.3254506266
 30
0.0
 40
14.80000000000004
100
AcDbArc
 50
270.0
 51
294.1941224753
  0
LINE
  5
42D
330
1F
100
AcDbEntity
  8
0
  6
Continuous
 62
     7
370
     0
100
AcDbLine
 10
237.5024057513
 20
126.5254506222
 30
0.0
 11
255.7538099175
 21
126.5254506222
 31
0.0
  0
LINE
  5
42E
330
1F
100
AcDbEntity
  8
0
  6
Continuous
 62
     7
370
     0
100
AcDbLine
 10
188.4112771189
 20
126.1254503703
 30
0.0
 11
187.3581114745
 21
126.1254503703
 31
0.0
  0
LINE
  5
42F
330
1F
100
AcDbEntity
  8
0
  6
Continuous
 62
     7
370
     0
100
AcDbLine
 10
246.2018619811
 20
126.1254503703
 30
0.0
 11
245.1629008686
 21
126.1254503703
 31
0.0
  0
LINE
  5
430
330
1F
100
AcDbEntity
  8
0
  6
Continuous
 62
     7
370
     0
100
AcDbLine
 10
187.3581114745
 20
126.1254503703
 30
0.0
 11
186.1263740396
 21
126.1254503703
 31
0.0
  0
LINE
  5
431
330
1F
100
AcDbEntity
  8
0
  6
Continuous
 62
     7
370
     0
100
AcDbLine
 10
180.2051089292
 20
126.1254503703
 30
0.0
 11
178.9774283355
 21
126.1254503703
 31
0.0
  0
LINE
  5
432
330
1F
100
AcDbEntity
  8
0
  6
Continuous
 62
     7
370
     0
100
AcDbLine
 10
185.1036477422
 20
126.1254503703
 30
0.0
 11
183.9388742631
 21
126.1254503703
 31
0.0
  0
LINE
  5
433
330
1F
100
AcDbEntity
  8
0
  6
Continuous
 62
     7
370
     0
100
AcDbLine
 10
178.9774283355
 20
126.1254503703
 30
0.0
 11
177.9242626911
 21
126.1254503703
 31
0.0
  0
LINE
  5
434
330
1F
100
AcDbEntity
  8
0
  6
Continuous
 62
     7
370
     0
100
AcDbLine
 10
251.7659835106
 20
126.1254503703
 30
0.0
 11
250.4429317599
 21
126.1254503703
 31
0.0
  0
LINE
  5
435
330
1F
100
AcDbEntity
  8
0
  6
Continuous
 62
     7
370
     0
100
AcDbLine
 10
182.4940688496
 20
126.1254503703
 30
0.0
 11
180.9173658079
 21
126.1254503703
 31
0.0
  0
LINE
  5
436
330
1F
100
AcDbEntity
  8
0
  6
Continuous
 62
     7
370
     0
100
AcDbLine
 10
183.9388742631
 20
126.1254503703
 30
0.0
 11
182.4940688496
 21
126.1254503703
 31
0.0
  0
LINE
  5
437
330
1F
100
AcDbEntity
  8
0
  6
Continuous
 62
     7
370
     0
100
AcDbLine
 10
250.4429317599
 20
126.1254503703
 30
0.0
 11
246.2018619811
 21
126.1254503703
 31
0.0
  0
LINE
  5
438
330
1F
100
AcDbEntity
  8
0
  6
Continuous
 62
     7
370
     0
100
AcDbLine
 10
177.9242626911
 20
125.9254507101
 30
0.0
 11
178.9774283355
 21
125.9254507101
 31
0.0
  0
LINE
  5
439
330
1F
100
AcDbEntity
  8
0
  6
Continuous
 62
     7
370
     0
100
AcDbLine
 10
246.2018619811
 20
125.9254507101
 30
0.0
 11
250.4429317599
 21
125.9254507101
 31
0.0
  0
LINE
  5
43A
330
1F
100
AcDbEntity
  8
0
  6
Continuous
 62
     7
370
     0
100
AcDbLine
 10
250.4429317599
 20
125.9254507101
 30
0.0
 11
251.7659835106
 21
125.9254507101
 31
0.0
  0
LINE
  5
43B
330
1F
100
AcDbEntity
  8
0
  6
Continuous
 62
     7
370
     0
100
AcDbLine
 10
245.1629008686
 20
125.9254507101
 30
0.0
 11
246.2018619811
 21
125.9254507101
 31
0.0
  0
LINE
  5
43C
330
1F
100
AcDbEntity
  8
0
  6
Continuous
 62
     7
370
     0
100
AcDbLine
 10
187.3581114745
 20
125.9254507101
 30
0.0
 11
188.4112771189
 21
125.9254507101
 31
0.0
  0
LINE
  5
43D
330
1F
100
AcDbEntity
  8
0
  6
Continuous
 62
     7
370
     0
100
AcDbLine
 10
180.9173658079
 20
125.9254507101
 30
0.0
 11
182.4940688496
 21
125.9254507101
 31
0.0
  0
LINE
  5
43E
330
1F
100
AcDbEntity
  8
0
  6
Continuous
 62
     7
370
     0
100
AcDbLine
 10
186.1263740396
 20
125.9254507101
 30
0.0
 11
187.3581114745
 21
125.9254507101
 31
0.0
  0
LINE
  5
43F
330
1F
100
AcDbEntity
  8
0
  6
Continuous
 62
     7
370
     0
100
AcDbLine
 10
182.4940688496
 20
125.9254507101
 30
0.0
 11
183.9388742631
 21
125.9254507101
 31
0.0
  0
LINE
  5
440
330
1F
100
AcDbEntity
  8
0
  6
Continuous
 62
     7
370
     0
100
AcDbLine
 10
178.9774283355
 20
125.9254507101
 30
0.0
 11
180.2051089292
 21
125.9254507101
 31
0.0
  0
LINE
  5
441
330
1F
100
AcDbEntity
  8
0
  6
Continuous
 62
     7
370
     0
100
AcDbLine
 10
183.9388742631
 20
125.9254507101
 30
0.0
 11
185.1036477422
 21
125.9254507101
 31
0.0
  0
LINE
  5
442
330
1F
100
AcDbEntity
  8
0
  6
Continuous
 62
     7
370
     0
100
AcDbLine
 10
251.7659835106
 20
125.9254507101
 30
0.0
 11
251.9161462372
 21
125.9254507101
 31
0.0
  0
LINE
  5
443
330
1F
100
AcDbEntity
  8
0
  6
Continuous
 62
     7
370
     0
100
AcDbLine
 10
251.9161462372
 20
126.1254503703
 30
0.0
 11
251.7659835106
 21
126.1254503703
 31
0.0
  0
LINE
  5
444
330
1F
100
AcDbEntity
  8
0
  6
Continuous
 62
     7
370
     0
100
AcDbLine
 10
185.7408232575
 20
126.1254503703
 30
0.0
 11
185.1036477422
 21
126.1254503703
 31
0.0
  0
LINE
  5
445
330
1F
100
AcDbEntity
  8
0
  6
Continuous
 62
     7
370
     0
100
AcDbLine
 10
185.1036477422
 20
125.9254507101
 30
0.0
 11
185.7408232575
 21
125.9254507101
 31
0.0
  0
LINE
  5
446
330
1F
100
AcDbEntity
  8
0
  6
Continuous
 62
     7
370
     0
100
AcDbLine
 10
186.1263740396
 20
126.1254503703
 30
0.0
 11
185.7408232575
 21
126.1254503703
 31
0.0
  0
LINE
  5
447
330
1F
100
AcDbEntity
  8
0
  6
Continuous
 62
     7
370
     0
100
AcDbLine
 10
185.7408232575
 20
125.9254507101
 30
0.0
 11
186.1263740396
 21
125.9254507101
 31
0.0
  0
LINE
  5
448
330
1F
100
AcDbEntity
  8
0
  6
Continuous
 62
     7
370
     0
100
AcDbLine
 10
180.546017695
 20
126.1254503703
 30
0.0
 11
180.2051089292
 21
126.1254503703
 31
0.0
  0
LINE
  5
449
330
1F
100
AcDbEntity
  8
0
  6
Continuous
 62
     7
370
     0
100
AcDbLine
 10
180.2051089292
 20
125.9254507101
 30
0.0
 11
180.546017695
 21
125.9254507101
 31
0.0
  0
LINE
  5
44A
330
1F
100
AcDbEntity
  8
0
  6
Continuous
 62
     7
370
     0
100
AcDbLine
 10
180.9173658079
 20
126.1254503703
 30
0.0
 11
180.546017695
 21
126.1254503703
 31
0.0
  0
LINE
  5
44B
330
1F
100
AcDbEntity
  8
0
  6
Continuous
 62
     7
370
     0
100
AcDbLine
 10
180.546017695
 20
125.9254507101
 30
0.0
 11
180.9173658079
 21
125.9254507101
 31
0.0
  0
LINE
  5
44C
330
1F
100
AcDbEntity
  8
0
  6
Continuous
 62
     7
370
     0
100
AcDbLine
 10
210.4278554728
 20
101.3254515207
 30
0.0
 11
210.4278554728
 21
100.8254505074
 31
0.0
  0
LINE
  5
44D
330
1F
100
AcDbEntity
  8
0
  6
Continuous
 62
     7
370
     0
100
AcDbLine
 10
220.0797641238
 20
101.3254515207
 30
0.0
 11
220.0797641238
 21
100.8254505074
 31
0.0
  0
ENDSEC
  0
SECTION
  2
OBJECTS
  0
DICTIONARY
  5
C
330
0
100
AcDbDictionary
281
     1
  3
ACAD_GROUP
350
D
  3
ACAD_LAYOUT
350
1A
  3
ACAD_MATERIAL
350
3B
  3
ACAD_MLEADERSTYLE
350
44F
  3
ACAD_MLINESTYLE
350
17
  3
ACAD_PLOTSETTINGS
350
19
  3
ACAD_PLOTSTYLENAME
350
E
  3
ACAD_TABLESTYLE
350
44E
  3
ACAD_VISUALSTYLE
350
2A
  0
DICTIONARY
  5
D
102
{ACAD_REACTORS
330
C
102
}
330
C
100
AcDbDictionary
281
     1
  0
DICTIONARY
  5
1A
102
{ACAD_REACTORS
330
C
102
}
330
C
100
AcDbDictionary
281
     1
  3
Layout1
350
1E
  3
Layout2
350
26
  3
Model
350
22
  0
DICTIONARY
  5
3B
102
{ACAD_REACTORS
330
C
102
}
330
C
100
AcDbDictionary
281
     1
  3
ByBlock
350
3D
  3
ByLayer
350
3C
  3
Global
350
3E
  0
DICTIONARY
  5
44F
102
{ACAD_REACTORS
330
C
102
}
330
C
100
AcDbDictionary
281
     1
  0
DICTIONARY
  5
17
102
{ACAD_REACTORS
330
C
102
}
330
C
100
AcDbDictionary
281
     1
  3
Standard
350
18
  0
DICTIONARY
  5
19
102
{ACAD_REACTORS
330
C
102
}
330
C
100
AcDbDictionary
281
     1
  0
ACDBDICTIONARYWDFLT
  5
E
102
{ACAD_REACTORS
330
C
102
}
330
C
100
AcDbDictionary
281
     1
  3
Normal
350
F
100
AcDbDictionaryWithDefault
340
F
  0
DICTIONARY
  5
44E
102
{ACAD_REACTORS
330
C
102
}
330
C
100
AcDbDictionary
281
     1
  0
DICTIONARY
  5
2A
102
{ACAD_REACTORS
330
C
102
}
330
C
100
AcDbDictionary
281
     1
  3
2dWireframe
350
2F
  3
3D Hidden
350
31
  3
3dWireframe
350
30
  3
Basic
350
32
  3
Brighten
350
36
  3
ColorChange
350
3A
  3
Conceptual
350
34
  3
Dim
350
35
  3
Facepattern
350
39
  3
Flat
350
2B
  3
FlatWithEdges
350
2C
  3
Gouraud
350
2D
  3
GouraudWithEdges
350
2E
  3
Linepattern
350
38
  3
Realistic
350
33
  3
Thicken
350
37
  0
LAYOUT
  5
1E
102
{ACAD_REACTORS
330
1A
102
}
330
1A
100
AcDbPlotSettings
  1

  2
none_device
  4

  6

 40
0.0
 41
0.0
 42
0.0
 43
0.0
 44
0.0
 45
0.0
 46
0.0
 47
0.0
 48
0.0
 49
0.0
140
0.0
141
0.0
142
1.0
143
1.0
 70
   688
 72
     0
 73
     0
 74
     5
  7

 75
    16
 76
     0
 77
     2
 78
   300
147
1.0
148
0.0
149
0.0
100
AcDbLayout
  1
Layout1
 70
     1
 71
     1
 10
0.0
 20
0.0
 11
420.0
 21
297.0
 12
0.0
 22
0.0
 32
0.0
 14
1.0000000000E+20
 24
1.0000000000E+20
 34
1.0000000000E+20
 15
-1.0000000000E+20
 25
-1.0000000000E+20
 35
-1.0000000000E+20
146
0.0
 13
0.0
 23
0.0
 33
0.0
 16
1.0
 26
0.0
 36
0.0
 17
0.0
 27
1.0
 37
0.0
 76
     0
330
1B
  0
LAYOUT
  5
26
102
{ACAD_REACTORS
330
1A
102
}
330
1A
100
AcDbPlotSettings
  1

  2
none_device
  4

  6

 40
0.0
 41
0.0
 42
0.0
 43
0.0
 44
0.0
 45
0.0
 46
0.0
 47
0.0
 48
0.0
 49
0.0
140
0.0
141
0.0
142
1.0
143
1.0
 70
   688
 72
     0
 73
     0
 74
     5
  7

 75
    16
 76
     0
 77
     2
 78
   300
147
1.0
148
0.0
149
0.0
100
AcDbLayout
  1
Layout2
 70
     1
 71
     2
 10
0.0
 20
0.0
 11
0.0
 21
0.0
 12
0.0
 22
0.0
 32
0.0
 14
0.0
 24
0.0
 34
0.0
 15
0.0
 25
0.0
 35
0.0
146
0.0
 13
0.0
 23
0.0
 33
0.0
 16
1.0
 26
0.0
 36
0.0
 17
0.0
 27
1.0
 37
0.0
 76
     0
330
23
  0
LAYOUT
  5
22
102
{ACAD_REACTORS
330
1A
102
}
330
1A
100
AcDbPlotSettings
  1

  2
none_device
  4

  6

 40
0.0
 41
0.0
 42
0.0
 43
0.0
 44
0.0
 45
0.0
 46
0.0
 47
0.0
 48
0.0
 49
0.0
140
0.0
141
0.0
142
1.0
143
1.0
 70
  1712
 72
     0
 73
     0
 74
     0
  7

 75
     0
 76
     0
 77
     2
 78
   300
147
1.0
148
0.0
149
0.0
100
AcDbLayout
  1
Model
 70
     1
 71
     0
 10
0.0
 20
0.0
 11
594.0
 21
841.0
 12
0.0
 22
0.0
 32
0.0
 14
0.0
 24
0.0
 34
0.0
 15
594.0
 25
841.0
 35
0.0
146
0.0
 13
0.0
 23
0.0
 33
0.0
 16
1.0
 26
0.0
 36
0.0
 17
0.0
 27
1.0
 37
0.0
 76
     0
330
1F
331
29
  0
MATERIAL
  5
3D
102
{ACAD_REACTORS
330
3B
102
}
330
3B
100
AcDbMaterial
  1
ByBlock
 72
     1
 94
      127
  0
MATERIAL
  5
3C
102
{ACAD_REACTORS
330
3B
102
}
330
3B
100
AcDbMaterial
  1
ByLayer
 72
     1
 94
      127
  0
MATERIAL
  5
3E
102
{ACAD_REACTORS
330
3B
102
}
330
3B
100
AcDbMaterial
  1
Global
 72
     1
 94
      127
  0
MLINESTYLE
  5
18
102
{ACAD_REACTORS
330
17
102
}
330
17
100
AcDbMlineStyle
  2
Standard
 70
     0
  3

 62
   256
 51
90.0
 52
90.0
 71
     2
 49
0.5
 62
   256
  6
BYLAYER
 49
-0.5
 62
   256
  6
BYLAYER
  0
ACDBPLACEHOLDER
  5
F
102
{ACAD_REACTORS
330
E
102
}
330
E
  0
VISUALSTYLE
  5
2F
102
{ACAD_REACTORS
330
2A
102
}
330
2A
100
AcDbVisualStyle
  2
2dWireframe
 70
     4
177
     2
291
     0
 71
     0
176
     1
 72
     2
176
     1
 73
     0
176
     1
 90
        0
176
     1
 40
-0.6
176
     1
 41
-30.0
176
     1
 62
     5
 63
     7
421
 16777215
176
     1
 74
     1
176
     1
 91
        4
176
     1
 64
     7
176
     1
 65
   257
176
     1
 75
     1
176
     1
175
     1
176
     1
 42
1.0
176
     1
 92
        0
176
     1
 66
   257
176
     1
 43
1.0
176
     1
 76
     1
176
     1
 77
     6
176
     1
 78
     2
176
     1
 67
     7
176
     1
 79
     5
176
     1
170
     0
176
     1
171
     0
176
     1
290
     0
176
     1
 93
        1
176
     1
 44
0.0
176
     1
173
     0
176
     1
  0
VISUALSTYLE
  5
31
102
{ACAD_REACTORS
330
2A
102
}
330
2A
100
AcDbVisualStyle
  2
3D Hidden
 70
     6
177
     2
291
     0
 71
     1
176
     1
 72
     2
176
     1
 73
     2
176
     1
 90
        0
176
     1
 40
-0.6
176
     1
 41
-30.0
176
     1
 62
     5
 63
     7
421
 16777215
176
     1
 74
     2
176
     1
 91
        2
176
     1
 64
     7
176
     1
 65
   257
176
     1
 75
     2
176
     1
175
     1
176
     1
 42
40.0
176
     1
 92
        0
176
     1
 66
   257
176
     1
 43
1.0
176
     1
 76
     1
176
     1
 77
     6
176
     1
 78
     2
176
     1
 67
     7
176
     1
 79
     3
176
     1
170
     0
176
     1
171
     0
176
     1
290
     0
176
     1
 93
        1
176
     1
 44
0.0
176
     1
173
     0
176
     1
  0
VISUALSTYLE
  5
30
102
{ACAD_REACTORS
330
2A
102
}
330
2A
100
AcDbVisualStyle
  2
3dWireframe
 70
     5
177
     2
291
     0
 71
     0
176
     1
 72
     2
176
     1
 73
     0
176
     1
 90
        0
176
     1
 40
-0.6
176
     1
 41
-30.0
176
     1
 62
     5
 63
     7
421
 16777215
176
     1
 74
     1
176
     1
 91
        4
176
     1
 64
     7
176
     1
 65
   257
176
     1
 75
     1
176
     1
175
     1
176
     1
 42
1.0
176
     1
 92
        0
176
     1
 66
   257
176
     1
 43
1.0
176
     1
 76
     1
176
     1
 77
     6
176
     1
 78
     2
176
     1
 67
     7
176
     1
 79
     5
176
     1
170
     0
176
     1
171
     0
176
     1
290
     0
176
     1
 93
        1
176
     1
 44
0.0
176
     1
173
     0
176
     1
  0
VISUALSTYLE
  5
32
102
{ACAD_REACTORS
330
2A
102
}
330
2A
100
AcDbVisualStyle
  2
Basic
 70
     7
177
     2
291
     1
 71
     1
176
     1
 72
     0
176
     1
 73
     1
176
     1
 90
        0
176
     1
 40
-0.6
176
     1
 41
-30.0
176
     1
 62
     5
 63
     7
421
 16777215
176
     1
 74
     0
176
     1
 91
        4
176
     1
 64
     7
176
     1
 65
   257
176
     1
 75
     1
176
     1
175
     1
176
     1
 42
1.0
176
     1
 92
        8
176
     1
 66
     7
176
     1
 43
1.0
176
     1
 76
     1
176
     1
 77
     6
176
     1
 78
     2
176
     1
 67
     7
176
     1
 79
     5
176
     1
170
     0
176
     1
171
     0
176
     1
290
     0
176
     1
 93
        1
176
     1
 44
0.0
176
     1
173
     0
176
     1
  0
VISUALSTYLE
  5
36
102
{ACAD_REACTORS
330
2A
102
}
330
2A
100
AcDbVisualStyle
  2
Brighten
 70
    12
177
     2
291
     1
 71
     2
176
     1
 72
     2
176
     1
 73
     0
176
     1
 90
        0
176
     1
 40
-0.6
176
     1
 41
-30.0
176
     1
 62
     5
 63
     7
421
 16777215
176
     1
 74
     1
176
     1
 91
        4
176
     1
 64
     7
176
     1
 65
   257
176
     1
 75
     1
176
     1
175
     1
176
     1
 42
1.0
176
     1
 92
        8
176
     1
 66
     7
176
     1
 43
1.0
176
     1
 76
     1
176
     1
 77
     6
176
     1
 78
     2
176
     1
 67
     7
176
     1
 79
     5
176
     1
170
     0
176
     1
171
     0
176
     1
290
     0
176
     1
 93
        1
176
     1
 44
50.0
176
     1
173
     0
176
     1
  0
VISUALSTYLE
  5
3A
102
{ACAD_REACTORS
330
2A
102
}
330
2A
100
AcDbVisualStyle
  2
ColorChange
 70
    16
177
     2
291
     1
 71
     2
176
     1
 72
     2
176
     1
 73
     3
176
     1
 90
        0
176
     1
 40
-0.6
176
     1
 41
-30.0
176
     1
 62
     5
 63
     8
421
  8421504
176
     1
 74
     1
176
     1
 91
        4
176
     1
 64
     7
176
     1
 65
   257
176
     1
 75
     1
176
     1
175
     1
176
     1
 42
1.0
176
     1
 92
        8
176
     1
 66
     8
424
  8421504
176
     1
 43
1.0
176
     1
 76
     1
176
     1
 77
     6
176
     1
 78
     2
176
     1
 67
     7
176
     1
 79
     5
176
     1
170
     0
176
     1
171
     0
176
     1
290
     0
176
     1
 93
        1
176
     1
 44
0.0
176
     1
173
     0
176
     1
  0
VISUALSTYLE
  5
34
102
{ACAD_REACTORS
330
2A
102
}
330
2A
100
AcDbVisualStyle
  2
Conceptual
 70
     9
177
     2
291
     0
 71
     3
176
     1
 72
     2
176
     1
 73
     0
176
     1
 90
        0
176
     1
 40
-0.6
176
     1
 41
-30.0
176
     1
 62
     5
 63
     7
421
 16777215
176
     1
 74
     2
176
     1
 91
        2
176
     1
 64
     7
176
     1
 65
   257
176
     1
 75
     1
176
     1
175
     1
176
     1
 42
40.0
176
     1
 92
        8
176
     1
 66
     7
176
     1
 43
1.0
176
     1
 76
     1
176
     1
 77
     6
176
     1
 78
     2
176
     1
 67
     7
176
     1
 79
     3
176
     1
170
     0
176
     1
171
     0
176
     1
290
     0
176
     1
 93
        1
176
     1
 44
0.0
176
     1
173
     0
176
     1
  0
VISUALSTYLE
  5
35
102
{ACAD_REACTORS
330
2A
102
}
330
2A
100
AcDbVisualStyle
  2
Dim
 70
    11
177
     2
291
     1
 71
     2
176
     1
 72
     2
176
     1
 73
     0
176
     1
 90
        0
176
     1
 40
-0.6
176
     1
 41
-30.0
176
     1
 62
     5
 63
     7
421
 16777215
176
     1
 74
     1
176
     1
 91
        4
176
     1
 64
     7
176
     1
 65
   257
176
     1
 75
     1
176
     1
175
     1
176
     1
 42
1.0
176
     1
 92
        8
176
     1
 66
     7
176
     1
 43
1.0
176
     1
 76
     1
176
     1
 77
     6
176
     1
 78
     2
176
     1
 67
     7
176
     1
 79
     5
176
     1
170
     0
176
     1
171
     0
176
     1
290
     0
176
     1
 93
        1
176
     1
 44
-50.0
176
     1
173
     0
176
     1
  0
VISUALSTYLE
  5
39
102
{ACAD_REACTORS
330
2A
102
}
330
2A
100
AcDbVisualStyle
  2
Facepattern
 70
    15
177
     2
291
     1
 71
     2
176
     1
 72
     2
176
     1
 73
     0
176
     1
 90
        0
176
     1
 40
-0.6
176
     1
 41
-30.0
176
     1
 62
     5
 63
     7
421
 16777215
176
     1
 74
     1
176
     1
 91
        4
176
     1
 64
     7
176
     1
 65
   257
176
     1
 75
     1
176
     1
175
     1
176
     1
 42
1.0
176
     1
 92
        8
176
     1
 66
     7
176
     1
 43
1.0
176
     1
 76
     1
176
     1
 77
     6
176
     1
 78
     2
176
     1
 67
     7
176
     1
 79
     5
176
     1
170
     0
176
     1
171
     0
176
     1
290
     0
176
     1
 93
        1
176
     1
 44
0.0
176
     1
173
     0
176
     1
  0
VISUALSTYLE
  5
2B
102
{ACAD_REACTORS
330
2A
102
}
330
2A
100
AcDbVisualStyle
  2
Flat
 70
     0
177
     2
291
     1
 71
     2
176
     1
 72
     1
176
     1
 73
     1
176
     1
 90
        2
176
     1
 40
-0.6
176
     1
 41
30.0
176
     1
 62
     5
 63
     7
421
 16777215
176
     1
 74
     0
176
     1
 91
        4
176
     1
 64
     7
176
     1
 65
   257
176
     1
 75
     1
176
     1
175
     1
176
     1
 42
1.0
176
     1
 92
        8
176
     1
 66
     7
176
     1
 43
1.0
176
     1
 76
     1
176
     1
 77
     6
176
     1
 78
     2
176
     1
 67
     7
176
     1
 79
     5
176
     1
170
     0
176
     1
171
     0
176
     1
290
     0
176
     1
 93
       13
176
     1
 44
0.0
176
     1
173
     0
176
     1
  0
VISUALSTYLE
  5
2C
102
{ACAD_REACTORS
330
2A
102
}
330
2A
100
AcDbVisualStyle
  2
FlatWithEdges
 70
     1
177
     2
291
     1
 71
     2
176
     1
 72
     1
176
     1
 73
     1
176
     1
 90
        2
176
     1
 40
-0.6
176
     1
 41
30.0
176
     1
 62
     5
 63
     7
421
 16777215
176
     1
 74
     1
176
     1
 91
        4
176
     1
 64
     7
176
     1
 65
   257
176
     1
 75
     1
176
     1
175
     1
176
     1
 42
1.0
176
     1
 92
        0
176
     1
 66
   257
176
     1
 43
1.0
176
     1
 76
     1
176
     1
 77
     6
176
     1
 78
     2
176
     1
 67
     7
176
     1
 79
     5
176
     1
170
     0
176
     1
171
     0
176
     1
290
     0
176
     1
 93
       13
176
     1
 44
0.0
176
     1
173
     0
176
     1
  0
VISUALSTYLE
  5
2D
102
{ACAD_REACTORS
330
2A
102
}
330
2A
100
AcDbVisualStyle
  2
Gouraud
 70
     2
177
     2
291
     1
 71
     2
176
     1
 72
     2
176
     1
 73
     1
176
     1
 90
        2
176
     1
 40
-0.6
176
     1
 41
30.0
176
     1
 62
     5
 63
     7
421
 16777215
176
     1
 74
     0
176
     1
 91
        4
176
     1
 64
     7
176
     1
 65
   257
176
     1
 75
     1
176
     1
175
     1
176
     1
 42
1.0
176
     1
 92
        0
176
     1
 66
     7
176
     1
 43
1.0
176
     1
 76
     1
176
     1
 77
     6
176
     1
 78
     2
176
     1
 67
     7
176
     1
 79
     5
176
     1
170
     0
176
     1
171
     0
176
     1
290
     0
176
     1
 93
       13
176
     1
 44
0.0
176
     1
173
     0
176
     1
  0
VISUALSTYLE
  5
2E
102
{ACAD_REACTORS
330
2A
102
}
330
2A
100
AcDbVisualStyle
  2
GouraudWithEdges
 70
     3
177
     2
291
     1
 71
     2
176
     1
 72
     2
176
     1
 73
     1
176
     1
 90
        2
176
     1
 40
-0.6
176
     1
 41
30.0
176
     1
 62
     5
 63
     7
421
 16777215
176
     1
 74
     1
176
     1
 91
        4
176
     1
 64
     7
176
     1
 65
   257
176
     1
 75
     1
176
     1
175
     1
176
     1
 42
1.0
176
     1
 92
        0
176
     1
 66
   257
176
     1
 43
1.0
176
     1
 76
     1
176
     1
 77
     6
176
     1
 78
     2
176
     1
 67
     7
176
     1
 79
     5
176
     1
170
     0
176
     1
171
     0
176
     1
290
     0
176
     1
 93
       13
176
     1
 44
0.0
176
     1
173
     0
176
     1
  0
VISUALSTYLE
  5
38
102
{ACAD_REACTORS
330
2A
102
}
330
2A
100
AcDbVisualStyle
  2
Linepattern
 70
    14
177
     2
291
     1
 71
     2
176
     1
 72
     2
176
     1
 73
     0
176
     1
 90
        0
176
     1
 40
-0.6
176
     1
 41
-30.0
176
     1
 62
     5
 63
     7
421
 16777215
176
     1
 74
     1
176
     1
 91
        4
176
     1
 64
     7
176
     1
 65
   257
176
     1
 75
     7
176
     1
175
     7
176
     1
 42
1.0
176
     1
 92
        8
176
     1
 66
     7
176
     1
 43
1.0
176
     1
 76
     1
176
     1
 77
     6
176
     1
 78
     2
176
     1
 67
     7
176
     1
 79
     5
176
     1
170
     0
176
     1
171
     0
176
     1
290
     0
176
     1
 93
        1
176
     1
 44
0.0
176
     1
173
     0
176
     1
  0
VISUALSTYLE
  5
33
102
{ACAD_REACTORS
330
2A
102
}
330
2A
100
AcDbVisualStyle
  2
Realistic
 70
     8
177
     2
291
     0
 71
     2
176
     1
 72
     2
176
     1
 73
     0
176
     1
 90
        0
176
     1
 40
-0.6
176
     1
 41
-30.0
176
     1
 62
     5
 63
     7
421
 16777215
176
     1
 74
     1
176
     1
 91
        0
176
     1
 64
     7
176
     1
 65
   257
176
     1
 75
     1
176
     1
175
     1
176
     1
 42
1.0
176
     1
 92
        8
176
     1
 66
     8
424
  7895160
176
     1
 43
1.0
176
     1
 76
     1
176
     1
 77
     6
176
     1
 78
     2
176
     1
 67
     7
176
     1
 79
     5
176
     1
170
     0
176
     1
171
     0
176
     1
290
     0
176
     1
 93
       13
176
     1
 44
0.0
176
     1
173
     0
176
     1
  0
VISUALSTYLE
  5
37
102
{ACAD_REACTORS
330
2A
102
}
330
2A
100
AcDbVisualStyle
  2
Thicken
 70
    13
177
     2
291
     1
 71
     2
176
     1
 72
     2
176
     1
 73
     0
176
     1
 90
        0
176
     1
 40
-0.6
176
     1
 41
-30.0
176
     1
 62
     5
 63
     7
421
 16777215
176
     1
 74
     1
176
     1
 91
        4
176
     1
 64
     7
176
     1
 65
   257
176
     1
 75
     1
176
     1
175
     1
176
     1
 42
1.0
176
     1
 92
       12
176
     1
 66
     7
176
     1
 43
1.0
176
     1
 76
     1
176
     1
 77
     6
176
     1
 78
     2
176
     1
 67
     7
176
     1
 79
     5
176
     1
170
     0
176
     1
171
     0
176
     1
290
     0
176
     1
 93
        1
176
     1
 44
0.0
176
     1
173
     0
176
     1
  0
ENDSEC
  0
EOF
