  0
SECTION
  2
HEADER
  9
$ACADVER
  1
AC1032
  9
$ACADMAINTVER
 90
        4
  9
$DWGCODEPAGE
  3
ANSI_1252
  9
$LASTSAVEDBY
  1
MKramer
  9
$REQUIREDVERSIONS
160
                 0
  9
$INSBASE
 10
0.0
 20
0.0
 30
0.0
  9
$EXTMIN
 10
33.76143973320001
 20
37.46023423129998
 30
0.0
  9
$EXTMAX
 10
531.1170398543
 20
437.2370870284
 30
0.0
  9
$LIMMIN
 10
0.0
 20
0.0
  9
$LIMMAX
 10
594.0
 20
841.0
  9
$ORTHOMODE
 70
     0
  9
$REGENMODE
 70
     1
  9
$FILLMODE
 70
     1
  9
$QTEXTMODE
 70
     0
  9
$MIRRTEXT
 70
     1
  9
$LTSCALE
 40
1.0
  9
$ATTMODE
 70
     1
  9
$TEXTSIZE
 40
10.0
  9
$TRACEWID
 40
1.0
  9
$TEXTSTYLE
  7
STANDARD
  9
$CLAYER
  8
0
  9
$CELTYPE
  6
ByLayer
  9
$CECOLOR
 62
   256
  9
$CELTSCALE
 40
1.0
  9
$DISPSILH
 70
     0
  9
$DIMSCALE
 40
1.0
  9
$DIMASZ
 40
2.5
  9
$DIMEXO
 40
0.0
  9
$DIMDLI
 40
3.75
  9
$DIMRND
 40
0.0
  9
$DIMDLE
 40
0.0
  9
$DIMEXE
 40
1.0
  9
$DIMTP
 40
0.0
  9
$DIMTM
 40
0.0
  9
$DIMTXT
 40
3.5
  9
$DIMCEN
 40
2.5
  9
$DIMTSZ
 40
0.0
  9
$DIMTOL
 70
     0
  9
$DIMLIM
 70
     0
  9
$DIMTIH
 70
     1
  9
$DIMTOH
 70
     1
  9
$DIMSE1
 70
     0
  9
$DIMSE2
 70
     0
  9
$DIMTAD
 70
     1
  9
$DIMZIN
 70
     0
  9
$DIMBLK
  1

  9
$DIMASO
 70
     1
  9
$DIMSHO
 70
     1
  9
$DIMPOST
  1

  9
$DIMAPOST
  1

  9
$DIMALT
 70
     0
  9
$DIMALTD
 70
     3
  9
$DIMALTF
 40
0.0393700787
  9
$DIMLFAC
 40
2.0
  9
$DIMTOFL
 70
     1
  9
$DIMTVP
 40
0.0
  9
$DIMTIX
 70
     0
  9
$DIMSOXD
 70
     0
  9
$DIMSAH
 70
     0
  9
$DIMBLK1
  1

  9
$DIMBLK2
  1

  9
$DIMSTYLE
  2
ISO-25
  9
$DIMCLRD
 70
     0
  9
$DIMCLRE
 70
     0
  9
$DIMCLRT
 70
     0
  9
$DIMTFAC
 40
1.0
  9
$DIMGAP
 40
1.5
  9
$DIMJUST
 70
     0
  9
$DIMSD1
 70
     0
  9
$DIMSD2
 70
     0
  9
$DIMTOLJ
 70
     1
  9
$DIMTZIN
 70
     0
  9
$DIMALTZ
 70
     0
  9
$DIMALTTZ
 70
     0
  9
$DIMUPT
 70
     0
  9
$DIMDEC
 70
     2
  9
$DIMTDEC
 70
     2
  9
$DIMALTU
 70
     2
  9
$DIMALTTD
 70
     2
  9
$DIMTXSTY
  7
STANDARD
  9
$DIMAUNIT
 70
     0
  9
$DIMADEC
 70
     0
  9
$DIMALTRND
 40
0.0
  9
$DIMAZIN
 70
     0
  9
$DIMDSEP
 70
    46
  9
$DIMATFIT
 70
     3
  9
$DIMFRAC
 70
     0
  9
$DIMLDRBLK
  1

  9
$DIMLUNIT
 70
     2
  9
$DIMLWD
 70
    -2
  9
$DIMLWE
 70
    -2
  9
$DIMTMOVE
 70
     2
  9
$DIMFXL
 40
1.0
  9
$DIMFXLON
 70
     0
  9
$DIMJOGANG
 40
0.7853981633974483
  9
$DIMTFILL
 70
     0
  9
$DIMTFILLCLR
 70
     0
  9
$DIMARCSYM
 70
     0
  9
$DIMLTYPE
  6

  9
$DIMLTEX1
  6

  9
$DIMLTEX2
  6

  9
$DIMTXTDIRECTION
 70
     0
  9
$LUNITS
 70
     2
  9
$LUPREC
 70
     2
  9
$SKETCHINC
 40
1.0
  9
$FILLETRAD
 40
10.0
  9
$AUNITS
 70
     0
  9
$AUPREC
 70
     2
  9
$MENU
  1
.
  9
$ELEVATION
 40
0.0
  9
$PELEVATION
 40
0.0
  9
$THICKNESS
 40
0.0
  9
$LIMCHECK
 70
     0
  9
$CHAMFERA
 40
0.0
  9
$CHAMFERB
 40
0.0
  9
$CHAMFERC
 40
0.0
  9
$CHAMFERD
 40
0.0
  9
$SKPOLY
 70
     0
  9
$TDCREATE
 40
2458400.502124167
  9
$TDUCREATE
 40
2458400.4604575
  9
$TDUPDATE
 40
2459915.405378276
  9
$TDUUPDATE
 40
2459915.363711609
  9
$TDINDWG
 40
0.0004588889
  9
$TDUSRTIMER
 40
0.0004588773
  9
$USRTIMER
 70
     1
  9
$ANGBASE
 50
0.0
  9
$ANGDIR
 70
     0
  9
$PDMODE
 70
     0
  9
$PDSIZE
 40
-1.0
  9
$PLINEWID
 40
0.0
  9
$SPLFRAME
 70
     0
  9
$SPLINETYPE
 70
     6
  9
$SPLINESEGS
 70
     8
  9
$HANDSEED
  5
80B
  9
$SURFTAB1
 70
     6
  9
$SURFTAB2
 70
     6
  9
$SURFTYPE
 70
     6
  9
$SURFU
 70
     6
  9
$SURFV
 70
     6
  9
$UCSBASE
  2

  9
$UCSNAME
  2

  9
$UCSORG
 10
0.0
 20
0.0
 30
0.0
  9
$UCSXDIR
 10
1.0
 20
0.0
 30
0.0
  9
$UCSYDIR
 10
0.0
 20
1.0
 30
0.0
  9
$UCSORTHOREF
  2

  9
$UCSORTHOVIEW
 70
     0
  9
$UCSORGTOP
 10
0.0
 20
0.0
 30
0.0
  9
$UCSORGBOTTOM
 10
0.0
 20
0.0
 30
0.0
  9
$UCSORGLEFT
 10
0.0
 20
0.0
 30
0.0
  9
$UCSORGRIGHT
 10
0.0
 20
0.0
 30
0.0
  9
$UCSORGFRONT
 10
0.0
 20
0.0
 30
0.0
  9
$UCSORGBACK
 10
0.0
 20
0.0
 30
0.0
  9
$PUCSBASE
  2

  9
$PUCSNAME
  2

  9
$PUCSORG
 10
0.0
 20
0.0
 30
0.0
  9
$PUCSXDIR
 10
1.0
 20
0.0
 30
0.0
  9
$PUCSYDIR
 10
0.0
 20
1.0
 30
0.0
  9
$PUCSORTHOREF
  2

  9
$PUCSORTHOVIEW
 70
     0
  9
$PUCSORGTOP
 10
0.0
 20
0.0
 30
0.0
  9
$PUCSORGBOTTOM
 10
0.0
 20
0.0
 30
0.0
  9
$PUCSORGLEFT
 10
0.0
 20
0.0
 30
0.0
  9
$PUCSORGRIGHT
 10
0.0
 20
0.0
 30
0.0
  9
$PUCSORGFRONT
 10
0.0
 20
0.0
 30
0.0
  9
$PUCSORGBACK
 10
0.0
 20
0.0
 30
0.0
  9
$USERI1
 70
     0
  9
$USERI2
 70
     0
  9
$USERI3
 70
     0
  9
$USERI4
 70
     0
  9
$USERI5
 70
     0
  9
$USERR1
 40
0.0
  9
$USERR2
 40
0.0
  9
$USERR3
 40
0.0
  9
$USERR4
 40
0.0
  9
$USERR5
 40
0.0
  9
$WORLDVIEW
 70
     1
  9
$SHADEDGE
 70
     3
  9
$SHADEDIF
 70
    70
  9
$TILEMODE
 70
     1
  9
$MAXACTVP
 70
    64
  9
$PINSBASE
 10
0.0
 20
0.0
 30
0.0
  9
$PLIMCHECK
 70
     0
  9
$PEXTMIN
 10
1.000000000000000E+20
 20
1.000000000000000E+20
 30
1.000000000000000E+20
  9
$PEXTMAX
 10
-1.000000000000000E+20
 20
-1.000000000000000E+20
 30
-1.000000000000000E+20
  9
$PLIMMIN
 10
0.0
 20
0.0
  9
$PLIMMAX
 10
0.0
 20
0.0
  9
$UNITMODE
 70
     0
  9
$VISRETAIN
 70
     1
  9
$PLINEGEN
 70
     0
  9
$PSLTSCALE
 70
     1
  9
$TREEDEPTH
 70
  3020
  9
$CMLSTYLE
  2
Standard
  9
$CMLJUST
 70
     0
  9
$CMLSCALE
 40
1.0
  9
$PROXYGRAPHICS
 70
     1
  9
$MEASUREMENT
 70
     0
  9
$CELWEIGHT
370
    -1
  9
$ENDCAPS
280
     0
  9
$JOINSTYLE
280
     0
  9
$LWDISPLAY
290
     0
  9
$INSUNITS
 70
     0
  9
$HYPERLINKBASE
  1

  9
$STYLESHEET
  1

  9
$XEDIT
290
     1
  9
$CEPSNTYPE
380
     0
  9
$PSTYLEMODE
290
     1
  9
$FINGERPRINTGUID
  2
{2cb0910f-6b68-487e-b416-c5db90f94737}
  9
$VERSIONGUID
  2
{FAEB1C32-E019-11D5-929B-00C0DF256EC4}
  9
$EXTNAMES
290
     1
  9
$PSVPSCALE
 40
0.0
  9
$OLESTARTUP
290
     0
  9
$SORTENTS
280
   127
  9
$INDEXCTL
280
     0
  9
$HIDETEXT
280
     1
  9
$XCLIPFRAME
280
     2
  9
$HALOGAP
280
     0
  9
$OBSCOLOR
 70
   257
  9
$OBSLTYPE
280
     0
  9
$INTERSECTIONDISPLAY
280
     0
  9
$INTERSECTIONCOLOR
 70
   257
  9
$DIMASSOC
280
     2
  9
$PROJECTNAME
  1

  9
$CAMERADISPLAY
290
     0
  9
$LENSLENGTH
 40
50.0
  9
$CAMERAHEIGHT
 40
0.0
  9
$STEPSPERSEC
 40
2.0
  9
$STEPSIZE
 40
6.0
  9
$3DDWFPREC
 40
2.0
  9
$PSOLWIDTH
 40
0.25
  9
$PSOLHEIGHT
 40
4.0
  9
$LOFTANG1
 40
1.570796326794897
  9
$LOFTANG2
 40
1.570796326794897
  9
$LOFTMAG1
 40
0.0
  9
$LOFTMAG2
 40
0.0
  9
$LOFTPARAM
 70
     7
  9
$LOFTNORMALS
280
     1
  9
$LATITUDE
 40
37.795
  9
$LONGITUDE
 40
-122.394
  9
$NORTHDIRECTION
 40
0.0
  9
$TIMEZONE
 70
 -8000
  9
$LIGHTGLYPHDISPLAY
280
     1
  9
$TILEMODELIGHTSYNCH
280
     1
  9
$SOLIDHIST
280
     0
  9
$SHOWHIST
280
     1
  9
$DWFFRAME
280
     2
  9
$DGNFRAME
280
     2
  9
$REALWORLDSCALE
290
     1
  9
$INTERFERECOLOR
 62
   256
  9
$CSHADOW
280
     0
  9
$SHADOWPLANELOCATION
 40
0.0
  0
ENDSEC
  0
SECTION
  2
CLASSES
  0
CLASS
  1
ACDBDICTIONARYWDFLT
  2
AcDbDictionaryWithDefault
  3
ObjectDBX Classes
 90
        0
 91
        3
280
     0
281
     0
  0
CLASS
  1
MATERIAL
  2
AcDbMaterial
  3
ObjectDBX Classes
 90
     1153
 91
        3
280
     0
281
     0
  0
CLASS
  1
SCALE
  2
AcDbScale
  3
ObjectDBX Classes
 90
     1153
 91
        3
280
     0
281
     0
  0
CLASS
  1
VISUALSTYLE
  2
AcDbVisualStyle
  3
ObjectDBX Classes
 90
     4095
 91
        3
280
     0
281
     0
  0
CLASS
  1
TABLESTYLE
  2
AcDbTableStyle
  3
ObjectDBX Classes
 90
     4095
 91
        3
280
     0
281
     0
  0
CLASS
  1
MLEADERSTYLE
  2
AcDbMLeaderStyle
  3
ACDB_MLEADERSTYLE_CLASS
 90
     4095
 91
        3
280
     0
281
     0
  0
CLASS
  1
DICTIONARYVAR
  2
AcDbDictionaryVar
  3
ObjectDBX Classes
 90
        0
 91
        3
280
     0
281
     0
  0
CLASS
  1
CELLSTYLEMAP
  2
AcDbCellStyleMap
  3
ObjectDBX Classes
 90
     1152
 91
        3
280
     0
281
     0
  0
ENDSEC
  0
SECTION
  2
TABLES
  0
TABLE
  2
VPORT
  5
78F
330
0
100
AcDbSymbolTable
 70
     1
  0
VPORT
  5
7A6
330
78F
100
AcDbSymbolTableRecord
100
AcDbViewportTableRecord
  2
*ACTIVE
 70
     0
 10
0.0
 20
0.0
 11
1.0
 21
1.0
 12
297.0
 22
420.5
 13
0.0
 23
0.0
 14
10.0
 24
10.0
 15
10.0
 25
10.0
 16
0.0
 26
0.0
 36
1.0
 17
0.0
 27
0.0
 37
0.0
 40
841.0
 41
0.7063020214
 42
50.0
 43
0.0
 44
0.0
 50
0.0
 51
0.0
 71
     0
 72
  2000
 73
     1
 74
     3
 75
     0
 76
     0
 77
     0
 78
     0
281
     0
 65
     0
110
0.0
120
0.0
130
0.0
111
1.0
121
0.0
131
0.0
112
0.0
122
1.0
132
0.0
 79
     0
146
0.0
348
7E3
 60
     3
 61
     5
292
     1
282
     1
141
0.0
142
0.0
 63
   256
  0
ENDTAB
  0
TABLE
  2
LTYPE
  5
78C
330
0
100
AcDbSymbolTable
 70
     6
  0
LTYPE
  5
79A
330
78C
100
AcDbSymbolTableRecord
100
AcDbLinetypeTableRecord
  2
ByBlock
 70
     0
  3

 72
    65
 73
     0
 40
0.0
  0
LTYPE
  5
79B
330
78C
100
AcDbSymbolTableRecord
100
AcDbLinetypeTableRecord
  2
ByLayer
 70
     0
  3

 72
    65
 73
     0
 40
0.0
  0
LTYPE
  5
79C
330
78C
100
AcDbSymbolTableRecord
100
AcDbLinetypeTableRecord
  2
CONTINUOUS
 70
     0
  3
Solid line
 72
    65
 73
     0
 40
0.0
  0
LTYPE
  5
7A8
330
78C
100
AcDbSymbolTableRecord
100
AcDbLinetypeTableRecord
  2
HIDDEN
 70
     0
  3
Hidden __ __ __ __ __ __ __ __ __ __ __ __ __ __
 72
    65
 73
     2
 40
1.905
 49
1.27
 74
     0
 49
-0.635
 74
     0
  0
LTYPE
  5
7A9
330
78C
100
AcDbSymbolTableRecord
100
AcDbLinetypeTableRecord
  2
PHANTOM
 70
     0
  3
Phantom ______  __  __  ______  __  __  ______
 72
    65
 73
     6
 40
12.7
 49
6.35
 74
     0
 49
-1.27
 74
     0
 49
1.27
 74
     0
 49
-1.27
 74
     0
 49
1.27
 74
     0
 49
-1.27
 74
     0
  0
LTYPE
  5
7AA
330
78C
100
AcDbSymbolTableRecord
100
AcDbLinetypeTableRecord
  2
CENTER
 70
     0
  3
Center ____ _ ____ _ ____ _ ____ _ ____ _ ____
 72
    65
 73
     4
 40
10.16
 49
6.35
 74
     0
 49
-1.27
 74
     0
 49
1.27
 74
     0
 49
-1.27
 74
     0
  0
LTYPE
  5
7AB
330
78C
100
AcDbSymbolTableRecord
100
AcDbLinetypeTableRecord
  2
CENTERX2
 70
     0
  3
Center (2x) ________  __  ________  __  _____
 72
    65
 73
     4
 40
20.32
 49
12.7
 74
     0
 49
-2.54
 74
     0
 49
2.54
 74
     0
 49
-2.54
 74
     0
  0
LTYPE
  5
7AC
330
78C
100
AcDbSymbolTableRecord
100
AcDbLinetypeTableRecord
  2
DOT2
 70
     0
  3
Dot (.5x) ........................................
 72
    65
 73
     2
 40
0.635
 49
0.0
 74
     0
 49
-0.635
 74
     0
  0
ENDTAB
  0
TABLE
  2
LAYER
  5
78A
330
0
100
AcDbSymbolTable
 70
     1
  0
LAYER
  5
797
330
78A
100
AcDbSymbolTableRecord
100
AcDbLayerTableRecord
  2
0
 70
     0
 62
     7
  6
CONTINUOUS
370
    -3
390
796
347
7B1
348
0
  0
ENDTAB
  0
TABLE
  2
STYLE
  5
78B
330
0
100
AcDbSymbolTable
 70
     1
  0
STYLE
  5
798
330
78B
100
AcDbSymbolTableRecord
100
AcDbTextStyleTableRecord
  2
STANDARD
 70
     0
 40
0.0
 41
1.0
 50
0.0
 71
     0
 42
10.0
  3
txt
  4

  0
ENDTAB
  0
TABLE
  2
VIEW
  5
78D
330
0
100
AcDbSymbolTable
 70
     0
  0
ENDTAB
  0
TABLE
  2
UCS
  5
78E
330
0
100
AcDbSymbolTable
 70
     0
  0
ENDTAB
  0
TABLE
  2
APPID
  5
790
330
0
100
AcDbSymbolTable
 70
     1
  0
APPID
  5
799
330
790
100
AcDbSymbolTableRecord
100
AcDbRegAppTableRecord
  2
ACAD
 70
     0
  0
ENDTAB
  0
TABLE
  2
DIMSTYLE
  5
791
330
0
100
AcDbSymbolTable
 70
     2
100
AcDbDimStyleTable
  0
DIMSTYLE
105
7B4
330
791
100
AcDbSymbolTableRecord
100
AcDbDimStyleTableRecord
  2
ISO-25
 70
     0
 41
2.5
 42
0.625
 43
3.75
 44
1.25
 73
     0
 74
     0
 77
     1
 78
     8
140
2.5
141
2.5
143
0.0393700787
147
0.625
171
     3
172
     1
178
     0
340
798
  0
DIMSTYLE
105
7B5
330
791
100
AcDbSymbolTableRecord
100
AcDbDimStyleTableRecord
  2
SLDDIMSTYLE0
 70
     0
 41
2.5
 44
0.0
 45
0.000000001
 73
     0
 74
     0
 77
     1
 78
    12
140
6.0
144
2.0
147
1.5
173
     1
178
     0
340
798
  0
ENDTAB
  0
TABLE
  2
BLOCK_RECORD
  5
789
330
0
100
AcDbSymbolTable
 70
     2
  0
BLOCK_RECORD
  5
7A3
102
{ACAD_XDICTIONARY
360
7FC
102
}
330
789
100
AcDbSymbolTableRecord
100
AcDbBlockTableRecord
  2
*Model_Space
340
7A4
 70
     0
280
     1
281
     0
  0
BLOCK_RECORD
  5
7A1
330
789
100
AcDbSymbolTableRecord
100
AcDbBlockTableRecord
  2
*Paper_Space
340
7A2
 70
     0
280
     1
281
     0
  0
BLOCK_RECORD
  5
7B9
330
789
100
AcDbSymbolTableRecord
100
AcDbBlockTableRecord
  2
_D
340
0
 70
     0
280
     1
281
     0
  0
BLOCK_RECORD
  5
7BB
330
789
100
AcDbSymbolTableRecord
100
AcDbBlockTableRecord
  2
_D_1
340
0
 70
     0
280
     1
281
     0
  0
ENDTAB
  0
ENDSEC
  0
SECTION
  2
BLOCKS
  0
BLOCK
  5
7B6
330
7A3
100
AcDbEntity
  8
0
100
AcDbBlockBegin
  2
*Model_Space
 70
     0
 10
0.0
 20
0.0
 30
0.0
  3
*Model_Space
  1

  0
ENDBLK
  5
21
330
7A3
100
AcDbEntity
  8
0
100
AcDbBlockEnd
  0
BLOCK
  5
7B7
330
7A1
100
AcDbEntity
 67
     1
  8
0
100
AcDbBlockBegin
  2
*Paper_Space
 70
     0
 10
0.0
 20
0.0
 30
0.0
  3
*Paper_Space
  1

  0
ENDBLK
  5
1D
330
7A1
100
AcDbEntity
 67
     1
  8
0
100
AcDbBlockEnd
  0
BLOCK
  5
7B8
330
7B9
100
AcDbEntity
  8
0
100
AcDbBlockBegin
  2
_D
 70
     0
 10
0.0
 20
0.0
 30
0.0
  3
_D
  1

  0
SOLID
  5
7A
330
7B9
100
AcDbEntity
  8
0
  6
Continuous
 62
     7
100
AcDbTrace
 10
42.7614395004
 20
152.0299240879
 30
0.0
 11
42.4614395004
 21
149.5299240879
 31
0.0
 12
43.0614395004
 22
149.5299240879
 32
0.0
 13
43.0614395004
 23
149.5299240879
 33
0.0
  0
SOLID
  5
7B
330
7B9
100
AcDbEntity
  8
0
  6
Continuous
 62
     7
100
AcDbTrace
 10
42.7614395004
 20
52.0299240879
 30
0.0
 11
43.0614395004
 21
54.5299240879
 31
0.0
 12
42.4614395004
 22
54.5299240879
 32
0.0
 13
42.4614395004
 23
54.5299240879
 33
0.0
  0
LINE
  5
7C
330
7B9
100
AcDbEntity
  8
0
  6
Continuous
 62
     7
100
AcDbLine
 10
56.6850079902
 20
152.0299240879
 30
0.0
 11
41.7614395004
 21
152.0299240879
 31
0.0
  0
LINE
  5
7D
330
7B9
100
AcDbEntity
  8
0
  6
Continuous
 62
     7
100
AcDbLine
 10
56.6850079902
 20
52.0299240879
 30
0.0
 11
41.7614395004
 21
52.0299240879
 31
0.0
  0
LINE
  5
7E
330
7B9
100
AcDbEntity
  8
0
  6
Continuous
 62
     7
100
AcDbLine
 10
42.7614395004
 20
152.0299240879
 30
0.0
 11
42.7614395004
 21
52.0299240879
 31
0.0
  0
TEXT
  5
7F
330
7B9
100
AcDbEntity
  8
0
  6
Continuous
 62
     7
100
AcDbText
 10
39.7614397332
 20
94.3680541463
 30
0.0
 40
6.0
  1
100
 50
90.0
 41
0.7
 11
42.7614397332
 21
94.3680541463
 31
0.0
100
AcDbText
 73
     1
  0
TEXT
  5
80
330
7B9
100
AcDbEntity
  8
0
  6
Continuous
 62
     7
100
AcDbText
 10
39.7614397332
 20
105.7430548466
 30
0.0
 40
6.0
  1
mm
 50
90.0
 41
0.7
 11
42.7614397332
 21
105.7430548466
 31
0.0
100
AcDbText
 73
     1
  0
ENDBLK
  5
79
330
7B9
100
AcDbEntity
  8
0
100
AcDbBlockEnd
  0
BLOCK
  5
7BA
330
7BB
100
AcDbEntity
  8
0
100
AcDbBlockBegin
  2
_D_1
 70
     0
 10
0.0
 20
0.0
 30
0.0
  3
_D_1
  1

  0
SOLID
  5
85
330
7BB
100
AcDbEntity
  8
0
  6
Continuous
 62
     7
100
AcDbTrace
 10
56.6850079902
 20
38.4602342313
 30
0.0
 11
59.1850079902
 21
38.1602342313
 31
0.0
 12
59.1850079902
 22
38.7602342313
 32
0.0
 13
59.1850079902
 23
38.7602342313
 33
0.0
  0
SOLID
  5
86
330
7BB
100
AcDbEntity
  8
0
  6
Continuous
 62
     7
100
AcDbTrace
 10
156.6850079902
 20
38.4602342313
 30
0.0
 11
154.1850079902
 21
38.7602342313
 31
0.0
 12
154.1850079902
 22
38.1602342313
 32
0.0
 13
154.1850079902
 23
38.1602342313
 33
0.0
  0
LINE
  5
87
330
7BB
100
AcDbEntity
  8
0
  6
Continuous
 62
     7
100
AcDbLine
 10
56.6850079902
 20
52.0299240879
 30
0.0
 11
56.6850079902
 21
37.4602342313
 31
0.0
  0
LINE
  5
88
330
7BB
100
AcDbEntity
  8
0
  6
Continuous
 62
     7
100
AcDbLine
 10
156.6850079902
 20
52.0299240879
 30
0.0
 11
156.6850079902
 21
37.4602342313
 31
0.0
  0
LINE
  5
89
330
7BB
100
AcDbEntity
  8
0
  6
Continuous
 62
     7
100
AcDbLine
 10
56.6850079902
 20
38.4602342313
 30
0.0
 11
156.6850079902
 21
38.4602342313
 31
0.0
  0
TEXT
  5
8A
330
7BB
100
AcDbEntity
  8
0
  6
Continuous
 62
     7
100
AcDbText
 10
93.9626484861
 20
41.4602339984
 30
0.0
 40
6.0
  1
100
 41
0.7
 11
93.9626484861
 21
38.4602339984
 31
0.0
100
AcDbText
 73
     1
  0
TEXT
  5
8B
330
7BB
100
AcDbEntity
  8
0
  6
Continuous
 62
     7
100
AcDbText
 10
105.3376491864
 20
41.4602339984
 30
0.0
 40
6.0
  1
mm
 41
0.7
 11
105.3376491864
 21
38.4602339984
 31
0.0
100
AcDbText
 73
     1
  0
ENDBLK
  5
84
330
7BB
100
AcDbEntity
  8
0
100
AcDbBlockEnd
  0
ENDSEC
  0
SECTION
  2
ENTITIES
  0
LINE
  5
73
330
7A3
100
AcDbEntity
  8
0
  6
Continuous
 62
     7
100
AcDbLine
 10
56.6850079902
 20
152.0299240879
 30
0.0
 11
56.6850079902
 21
52.0299240879
 31
0.0
  0
LINE
  5
74
330
7A3
100
AcDbEntity
  8
0
  6
Continuous
 62
     7
100
AcDbLine
 10
56.6850079902
 20
52.0299240879
 30
0.0
 11
156.6850079902
 21
52.0299240879
 31
0.0
  0
DIMENSION
  5
75
330
7A3
100
AcDbEntity
  8
0
  6
Continuous
 62
     7
100
AcDbDimension
280
     0
  2
_D
 10
42.7614395004
 20
52.0299240879
 30
0.0
 11
42.7614395004
 21
105.4472211621
 31
0.0
 70
   160
  1
<>mm
 71
     5
 42
-1.0
 73
     0
 74
     0
 75
     0
  3
SLDDIMSTYLE0
100
AcDbAlignedDimension
 13
56.6850079902
 23
152.0299240879
 33
0.0
 14
56.6850079902
 24
52.0299240879
 34
0.0
 50
90.0
100
AcDbRotatedDimension
  0
DIMENSION
  5
81
330
7A3
100
AcDbEntity
  8
0
  6
Continuous
 62
     7
100
AcDbDimension
280
     0
  2
_D_1
 10
156.6850079902
 20
38.4602342313
 30
0.0
 11
105.0418155019
 21
38.4602342313
 31
0.0
 70
   160
  1
<>mm
 71
     5
 42
-1.0
 73
     0
 74
     0
 75
     0
  3
SLDDIMSTYLE0
100
AcDbAlignedDimension
 13
56.6850079902
 23
52.0299240879
 33
0.0
 14
156.6850079902
 24
52.0299240879
 34
0.0
100
AcDbRotatedDimension
  0
TEXT
  5
8C
330
7A3
100
AcDbEntity
  8
0
  6
Continuous
 62
     7
100
AcDbText
 10
412.8252631579
 20
40.5435675522
 30
0.0
 40
10.0
  1
KLUDI GmbH & Co KG
 41
0.6222222222
 11
412.8252631579
 21
35.5435675522
 31
0.0
100
AcDbText
 73
     1
  0
TEXT
  5
8D
330
7A3
100
AcDbEntity
  8
0
  6
Continuous
 62
     7
100
AcDbText
 10
210.0873490389
 20
40.5435675522
 30
0.0
 40
10.0
  1
48 670 .. 65
 41
0.6125
 11
210.0873490389
 21
35.5435675522
 31
0.0
100
AcDbText
 73
     1
  0
LWPOLYLINE
  5
8E
330
7A3
100
AcDbEntity
  8
0
  6
Continuous
 62
     7
100
AcDbPolyline
 90
        3
 70
   128
 43
0.0
 10
220.0838491369
 20
436.8524396292
 10
209.3948978979
 20
437.1341013781
 10
198.4493207962
 20
437.2370870284
  0
LWPOLYLINE
  5
8F
330
7A3
100
AcDbEntity
  8
0
  6
Continuous
 62
     7
100
AcDbPolyline
 90
        3
 70
   128
 43
0.0
 10
198.7159285015
 20
437.2370870284
 10
187.7703513998
 20
437.1341013781
 10
177.0814001609
 20
436.8524396292
  0
LINE
  5
90
330
7A3
100
AcDbEntity
  8
0
  6
Continuous
 62
     7
100
AcDbLine
 10
208.9826246772
 20
357.2040715686
 30
0.0
 11
208.9826246772
 21
372.4540712743
 31
0.0
  0
LINE
  5
91
330
7A3
100
AcDbEntity
  8
0
  6
Continuous
 62
     7
100
AcDbLine
 10
188.1826246206
 20
372.4540712743
 30
0.0
 11
188.1826246206
 21
357.2040715686
 31
0.0
  0
LINE
  5
92
330
7A3
100
AcDbEntity
  8
0
  6
Continuous
 62
     7
100
AcDbLine
 10
188.1826246206
 20
357.2040715686
 30
0.0
 11
189.1326248694
 21
356.2540703885
 31
0.0
  0
LINE
  5
93
330
7A3
100
AcDbEntity
  8
0
  6
Continuous
 62
     7
100
AcDbLine
 10
208.0326244283
 20
356.2540703885
 30
0.0
 11
208.9826246772
 21
357.2040715686
 31
0.0
  0
LINE
  5
94
330
7A3
100
AcDbEntity
  8
0
  6
Continuous
 62
     7
100
AcDbLine
 10
205.5826248649
 20
409.9540704362
 30
0.0
 11
205.5826248649
 21
418.9540700487
 31
0.0
  0
LINE
  5
95
330
7A3
100
AcDbEntity
  8
0
  6
Continuous
 62
     7
100
AcDbLine
 10
191.5826244328
 20
418.9540700487
 30
0.0
 11
191.5826244328
 21
409.9540704362
 31
0.0
  0
ARC
  5
96
330
7A3
100
AcDbEntity
  8
0
  6
Continuous
 62
     7
100
AcDbCircle
 10
192.0826246489
 20
409.9540712945
 30
0.0
 40
0.5
100
AcDbArc
 50
180.0
 51
270.0
  0
ARC
  5
97
330
7A3
100
AcDbEntity
  8
0
  6
Continuous
 62
     7
100
AcDbCircle
 10
205.0826246489
 20
409.9540712945
 30
0.0
 40
0.5
100
AcDbArc
 50
270.0
 51
0.0
  0
ARC
  5
98
330
7A3
100
AcDbEntity
  8
0
  6
Continuous
 62
     7
100
AcDbCircle
 10
192.0826246489
 20
418.9540712945
 30
0.0
 40
0.5
100
AcDbArc
 50
90.0
 51
180.0
  0
ARC
  5
99
330
7A3
100
AcDbEntity
  8
0
  6
Continuous
 62
     7
100
AcDbCircle
 10
205.0826246489
 20
418.9540712945
 30
0.0
 40
0.5
100
AcDbArc
 50
0.0
 51
90.0
  0
LINE
  5
9A
330
7A3
100
AcDbEntity
  8
0
  6
Continuous
 62
     7
100
AcDbLine
 10
201.082624593
 20
401.554071667
 30
0.0
 11
201.082624593
 21
408.9540721349
 31
0.0
  0
LINE
  5
9B
330
7A3
100
AcDbEntity
  8
0
  6
Continuous
 62
     7
100
AcDbLine
 10
196.0826247048
 20
408.9540721349
 30
0.0
 11
196.0826247048
 21
401.554071667
 31
0.0
  0
LINE
  5
9C
330
7A3
100
AcDbEntity
  8
0
  6
Continuous
 62
     7
100
AcDbLine
 10
201.082624593
 20
408.9540721349
 30
0.0
 11
201.0326246779
 21
409.4540731482
 31
0.0
  0
LINE
  5
9D
330
7A3
100
AcDbEntity
  8
0
  6
Continuous
 62
     7
100
AcDbLine
 10
196.1326246198
 20
409.4540731482
 30
0.0
 11
196.0826247048
 21
408.9540721349
 31
0.0
  0
LINE
  5
9E
330
7A3
100
AcDbEntity
  8
0
  6
Continuous
 62
     7
100
AcDbLine
 10
177.0826239187
 20
403.3851319424
 30
0.0
 11
177.0826239187
 21
401.554071667
 31
0.0
  0
LINE
  5
9F
330
7A3
100
AcDbEntity
  8
0
  6
Continuous
 62
     7
100
AcDbLine
 10
220.082625379
 20
401.554071667
 30
0.0
 11
220.082625379
 21
403.3851319424
 31
0.0
  0
ARC
  5
A0
330
7A3
100
AcDbEntity
  8
0
  6
Continuous
 62
     7
100
AcDbCircle
 10
210.0826246489
 20
403.3851320695
 30
0.0
 40
10.00000000000001
100
AcDbArc
 50
0.0
 51
9.0468459803
  0
ARC
  5
A1
330
7A3
100
AcDbEntity
  8
0
  6
Continuous
 62
     7
100
AcDbCircle
 10
187.0826246489
 20
403.3851320695
 30
0.0
 40
10.00000000000001
100
AcDbArc
 50
170.9531540197
 51
180.0
  0
LINE
  5
A2
330
7A3
100
AcDbEntity
  8
0
  6
Continuous
 62
     7
100
AcDbLine
 10
221.5826246936
 20
405.5526567123
 30
0.0
 11
221.5826246936
 21
435.3540719918
 31
0.0
  0
LINE
  5
A3
330
7A3
100
AcDbEntity
  8
0
  6
Continuous
 62
     7
100
AcDbLine
 10
175.5826246042
 20
435.3540719918
 30
0.0
 11
175.5826246042
 21
405.5526567123
 31
0.0
  0
ARC
  5
A4
330
7A3
100
AcDbEntity
  8
0
  6
Continuous
 62
     7
100
AcDbCircle
 10
177.0826246489
 20
435.3540712945
 30
0.0
 40
1.5
100
AcDbArc
 50
90.0
 51
180.0
  0
ARC
  5
A5
330
7A3
100
AcDbEntity
  8
0
  6
Continuous
 62
     7
100
AcDbCircle
 10
220.0826246489
 20
435.3540712945
 30
0.0
 40
1.500000000000028
100
AcDbArc
 50
0.0
 51
90.0
  0
ARC
  5
A6
330
7A3
100
AcDbEntity
  8
0
  6
Continuous
 62
     7
100
AcDbCircle
 10
123.5826246489
 20
376.5540712945
 30
0.0
 40
35.00000000000004
100
AcDbArc
 50
45.5846914028
 51
90.0
  0
ARC
  5
A7
330
7A3
100
AcDbEntity
  8
0
  6
Continuous
 62
     7
100
AcDbCircle
 10
123.5826246489
 20
376.5540712945
 30
0.0
 40
35.0
100
AcDbArc
 50
90.0
 51
314.4153085972
  0
LINE
  5
A8
330
7A3
100
AcDbEntity
  8
0
  6
Continuous
 62
     7
100
AcDbLine
 10
217.7056126345
 20
401.554071667
 30
0.0
 11
219.2055560697
 21
401.554071667
 31
0.0
  0
LINE
  5
A9
330
7A3
100
AcDbEntity
  8
0
  6
Continuous
 62
     7
100
AcDbLine
 10
179.4596366633
 20
401.554071667
 30
0.0
 11
177.9596932281
 21
401.554071667
 31
0.0
  0
LINE
  5
AA
330
7A3
100
AcDbEntity
  8
0
  6
Continuous
 62
     7
100
AcDbLine
 10
179.4596366633
 20
401.554071667
 30
0.0
 11
217.7056126345
 21
401.554071667
 31
0.0
  0
LINE
  5
AB
330
7A3
100
AcDbEntity
  8
0
  6
Continuous
 62
     7
100
AcDbLine
 10
198.5826246489
 20
376.5540712945
 30
0.0
 11
193.9588353086
 21
376.5540712945
 31
0.0
  0
LINE
  5
AC
330
7A3
100
AcDbEntity
  8
0
  6
Continuous
 62
     7
100
AcDbLine
 10
193.9588362399
 20
376.5540712945
 30
0.0
 11
191.235053451
 21
376.5540712945
 31
0.0
  0
LINE
  5
AD
330
7A3
100
AcDbEntity
  8
0
  6
Continuous
 62
     7
100
AcDbLine
 10
203.2064130578
 20
376.5540712945
 30
0.0
 11
205.9301958468
 21
376.5540712945
 31
0.0
  0
LINE
  5
AE
330
7A3
100
AcDbEntity
  8
0
  6
Continuous
 62
     7
100
AcDbLine
 10
198.5826246489
 20
376.5540712945
 30
0.0
 11
203.2064139891
 21
376.5540712945
 31
0.0
  0
LINE
  5
AF
330
7A3
100
AcDbEntity
  8
0
  6
Continuous
 62
     7
100
AcDbLine
 10
191.235053451
 20
376.5540712945
 30
0.0
 11
189.9470338646
 21
376.5540712945
 31
0.0
  0
LINE
  5
B0
330
7A3
100
AcDbEntity
  8
0
  6
Continuous
 62
     7
100
AcDbLine
 10
205.9301958468
 20
376.5540712945
 30
0.0
 11
207.2182154331
 21
376.5540712945
 31
0.0
  0
LINE
  5
B1
330
7A3
100
AcDbEntity
  8
0
  6
Continuous
 62
     7
100
AcDbLine
 10
177.9596932281
 20
401.554071667
 30
0.0
 11
177.1862242419
 21
401.554071667
 31
0.0
  0
LINE
  5
B2
330
7A3
100
AcDbEntity
  8
0
  6
Continuous
 62
     7
100
AcDbLine
 10
219.2055560697
 20
401.554071667
 30
0.0
 11
219.9790250558
 21
401.554071667
 31
0.0
  0
LINE
  5
B3
330
7A3
100
AcDbEntity
  8
0
  6
Continuous
 62
     7
100
AcDbLine
 10
189.9470338646
 20
376.5540712945
 30
0.0
 11
185.826673736
 21
376.5540712945
 31
0.0
  0
LINE
  5
B4
330
7A3
100
AcDbEntity
  8
0
  6
Continuous
 62
     7
100
AcDbLine
 10
207.2182154331
 20
376.5540712945
 30
0.0
 11
211.3385755617
 21
376.5540712945
 31
0.0
  0
LINE
  5
B5
330
7A3
100
AcDbEntity
  8
0
  6
Continuous
 62
     7
100
AcDbLine
 10
209.5826245893
 20
373.0314216542
 30
0.0
 11
187.5826247085
 21
373.0314216542
 31
0.0
  0
LINE
  5
B6
330
7A3
100
AcDbEntity
  8
0
  6
Continuous
 62
     7
100
AcDbLine
 10
209.5826245893
 20
372.4540712743
 30
0.0
 11
209.5826245893
 21
373.0314216542
 31
0.0
  0
LINE
  5
B7
330
7A3
100
AcDbEntity
  8
0
  6
Continuous
 62
     7
100
AcDbLine
 10
209.5826245893
 20
372.4540712743
 30
0.0
 11
187.5826247085
 21
372.4540712743
 31
0.0
  0
LINE
  5
B8
330
7A3
100
AcDbEntity
  8
0
  6
Continuous
 62
     7
100
AcDbLine
 10
187.5826247085
 20
372.4540712743
 30
0.0
 11
187.5826247085
 21
373.0314216542
 31
0.0
  0
LINE
  5
B9
330
7A3
100
AcDbEntity
  8
0
  6
Continuous
 62
     7
100
AcDbLine
 10
209.5826245893
 20
373.0314216542
 30
0.0
 11
209.5826245893
 21
376.454071297
 31
0.0
  0
LINE
  5
BA
330
7A3
100
AcDbEntity
  8
0
  6
Continuous
 62
     7
100
AcDbLine
 10
187.5826247085
 20
373.0314216542
 30
0.0
 11
187.5826247085
 21
376.454071297
 31
0.0
  0
LWPOLYLINE
  5
BB
330
7A3
100
AcDbEntity
  8
0
  6
Continuous
 62
     7
100
AcDbPolyline
 90
        6
 70
   128
 43
0.0
 10
218.953797226
 20
436.8530692033
 10
217.2339666683
 20
436.8531399838
 10
215.7647978563
 20
436.8532629184
 10
214.553176989
 20
436.8533187977
 10
213.3718539078
 20
436.8531474344
 10
212.9180148292
 20
436.8533486001
  0
LINE
  5
BC
330
7A3
100
AcDbEntity
  8
0
  6
Continuous
 62
     7
100
AcDbLine
 10
220.0838714886
 20
436.8532368414
 30
0.0
 11
218.953797226
 21
436.8532368414
 31
0.0
  0
LWPOLYLINE
  5
BD
330
7A3
100
AcDbEntity
  8
0
  6
Continuous
 62
     7
100
AcDbPolyline
 90
        6
 70
   128
 43
0.0
 10
178.2114520717
 20
436.8530692033
 10
179.9312826294
 20
436.8531399838
 10
181.4004514415
 20
436.8532629184
 10
182.6120723087
 20
436.8533187977
 10
183.79339539
 20
436.8531474344
 10
184.2472344685
 20
436.8533486001
  0
LINE
  5
BE
330
7A3
100
AcDbEntity
  8
0
  6
Continuous
 62
     7
100
AcDbLine
 10
177.0813778091
 20
436.8532368414
 30
0.0
 11
178.2114520717
 21
436.8532368414
 31
0.0
  0
LINE
  5
BF
330
7A3
100
AcDbEntity
  8
0
  6
Continuous
 62
     7
100
AcDbLine
 10
198.5826246509
 20
431.9459529094
 30
0.0
 11
199.7418220669
 21
431.9452376536
 31
0.0
  0
LINE
  5
C0
330
7A3
100
AcDbEntity
  8
0
  6
Continuous
 62
     7
100
AcDbLine
 10
208.9826246772
 20
357.2040715686
 30
0.0
 11
188.1826246206
 21
357.2040715686
 31
0.0
  0
LINE
  5
C1
330
7A3
100
AcDbEntity
  8
0
  6
Continuous
 62
     7
100
AcDbLine
 10
208.0326244283
 20
356.2540703885
 30
0.0
 11
189.1326248694
 21
356.2540703885
 31
0.0
  0
LINE
  5
C2
330
7A3
100
AcDbEntity
  8
0
  6
Continuous
 62
     7
100
AcDbLine
 10
201.481401087
 20
409.4540731482
 30
0.0
 11
192.0826245148
 21
409.4540731482
 31
0.0
  0
LINE
  5
C3
330
7A3
100
AcDbEntity
  8
0
  6
Continuous
 62
     7
100
AcDbLine
 10
205.082624783
 20
409.4540731482
 30
0.0
 11
201.481401087
 21
409.4540731482
 31
0.0
  0
LINE
  5
C4
330
7A3
100
AcDbEntity
  8
0
  6
Continuous
 62
     7
100
AcDbLine
 10
201.481401087
 20
419.454071062
 30
0.0
 11
205.082624783
 21
419.454071062
 31
0.0
  0
LINE
  5
C5
330
7A3
100
AcDbEntity
  8
0
  6
Continuous
 62
     7
100
AcDbLine
 10
192.0826245148
 20
419.454071062
 30
0.0
 11
201.481401087
 21
419.454071062
 31
0.0
  0
LINE
  5
C6
330
7A3
100
AcDbEntity
  8
0
  6
Continuous
 62
     7
100
AcDbLine
 10
201.082624593
 20
408.9540721349
 30
0.0
 11
196.0826247048
 21
408.9540721349
 31
0.0
  0
LINE
  5
C7
330
7A3
100
AcDbEntity
  8
0
  6
Continuous
 62
     7
100
AcDbLine
 10
211.4161128227
 20
376.4922689612
 30
0.0
 11
211.424304736
 21
376.4055300004
 31
0.0
  0
LINE
  5
C8
330
7A3
100
AcDbEntity
  8
0
  6
Continuous
 62
     7
100
AcDbLine
 10
198.5826246489
 20
353.5540712498
 30
0.0
 11
213.5826243136
 21
353.5540712498
 31
0.0
  0
LINE
  5
C9
330
7A3
100
AcDbEntity
  8
0
  6
Continuous
 62
     7
100
AcDbLine
 10
198.5826246489
 20
353.5540712498
 30
0.0
 11
183.5826249842
 21
353.5540712498
 31
0.0
  0
LINE
  5
CA
330
7A3
100
AcDbEntity
  8
0
  6
Continuous
 62
     7
100
AcDbLine
 10
185.7491364751
 20
376.4922689685
 30
0.0
 11
185.7409445617
 21
376.405531994
 31
0.0
  0
LINE
  5
CB
330
7A3
100
AcDbEntity
  8
0
  6
Continuous
 62
     7
100
AcDbLine
 10
175.8948765743
 20
388.172211448
 30
0.0
 11
177.3188501645
 21
385.6073472149
 31
0.0
  0
ARC
  5
CC
330
7A3
100
AcDbEntity
  8
0
  6
Continuous
 62
     7
100
AcDbCircle
 10
184.1200362048
 20
433.2471544597
 30
0.0
 40
1.267594650406915
100
AcDbArc
 50
197.9210955071
 51
260.75733081
  0
ARC
  5
CD
330
7A3
100
AcDbEntity
  8
0
  6
Continuous
 62
     7
100
AcDbCircle
 10
213.0308597293
 20
433.271196313
 30
0.0
 40
1.293582759472123
100
AcDbArc
 50
281.4926692205
 51
345.407352722
  0
LWPOLYLINE
  5
CE
330
7A3
100
AcDbEntity
  8
0
  6
Continuous
 62
     7
100
AcDbPolyline
 90
        6
 70
   128
 43
0.0
 10
201.3919042472
 20
419.5852906875
 10
201.0585969362
 20
419.7909378878
 10
200.9938118096
 20
419.8089422158
 10
200.9072365288
 20
419.8127792648
 10
200.881956476
 20
419.8047438137
 10
200.8683675483
 20
419.795970755
  0
LWPOLYLINE
  5
CF
330
7A3
100
AcDbEntity
  8
0
  6
Continuous
 62
     7
100
AcDbPolyline
 90
        3
 70
   128
 43
0.0
 10
200.8683675483
 20
419.795970755
 10
200.4091640517
 20
419.6480916313
 10
198.7517246123
 20
419.454071062
  0
LINE
  5
D0
330
7A3
100
AcDbEntity
  8
0
  6
Continuous
 62
     7
100
AcDbLine
 10
197.9084862212
 20
419.454071062
 30
0.0
 11
196.2968733676
 21
419.7959633044
 31
0.0
  0
LWPOLYLINE
  5
D1
330
7A3
100
AcDbEntity
  8
0
  6
Continuous
 62
     7
100
AcDbPolyline
 90
        6
 70
   128
 43
0.0
 10
196.2968733676
 20
419.7959633044
 10
196.2736275561
 20
419.808726149
 10
196.2365162142
 20
419.8150926701
 10
196.159901661
 20
419.8064388208
 10
195.951012294
 20
419.7166220717
 10
195.773341791
 20
419.5852869622
  0
LINE
  5
D2
330
7A3
100
AcDbEntity
  8
0
  6
Continuous
 62
     7
100
AcDbLine
 10
177.1862242419
 20
401.554071667
 30
0.0
 11
163.6867389131
 21
401.554071667
 31
0.0
  0
LINE
  5
D3
330
7A3
100
AcDbEntity
  8
0
  6
Continuous
 62
     7
100
AcDbLine
 10
219.9790250558
 20
401.554071667
 30
0.0
 11
233.4785103846
 21
401.554071667
 31
0.0
  0
LINE
  5
D4
330
7A3
100
AcDbEntity
  8
0
  6
Continuous
 62
     7
100
AcDbLine
 10
163.6867389131
 20
401.554071667
 30
0.0
 11
111.282622074
 21
401.554071667
 31
0.0
  0
LINE
  5
D5
330
7A3
100
AcDbEntity
  8
0
  6
Continuous
 62
     7
100
AcDbLine
 10
233.4785103846
 20
401.554071667
 30
0.0
 11
285.8826272238
 21
401.554071667
 31
0.0
  0
ARC
  5
D6
330
7A3
100
AcDbEntity
  8
0
  6
Continuous
 62
     7
100
AcDbCircle
 10
110.6069247857
 20
354.0783684931
 30
0.0
 40
2.568729258864918
100
AcDbArc
 50
169.327791145
 51
280.672173281
  0
LINE
  5
D7
330
7A3
100
AcDbEntity
  8
0
  6
Continuous
 62
     7
100
AcDbLine
 10
289.0826217879
 20
398.354071515
 30
0.0
 11
289.0826217879
 21
354.5540714137
 31
0.0
  0
LINE
  5
D8
330
7A3
100
AcDbEntity
  8
0
  6
Continuous
 62
     7
100
AcDbLine
 10
286.0826231588
 20
351.5540709219
 30
0.0
 11
111.082626139
 21
351.5540709219
 31
0.0
  0
LWPOLYLINE
  5
D9
330
7A3
100
AcDbEntity
  8
0
  6
Continuous
 62
     7
100
AcDbPolyline
 90
        7
 70
   128
 43
0.0
 10
111.282622074
 20
401.554071667
 10
110.0681550849
 20
401.4714652173
 10
109.3008495916
 20
401.2195480488
 10
108.7864615071
 20
400.8520164959
 10
108.4161154974
 20
400.333804401
 10
108.1486098517
 20
399.4750188164
 10
108.0826275099
 20
398.354071515
  0
LINE
  5
DA
330
7A3
100
AcDbEntity
  8
0
  6
Continuous
 62
     7
100
AcDbLine
 10
108.0826275099
 20
398.354071515
 30
0.0
 11
108.0826275099
 21
354.5540714137
 31
0.0
  0
ARC
  5
DB
330
7A3
100
AcDbEntity
  8
0
  6
Continuous
 62
     7
100
AcDbCircle
 10
286.558324512
 20
354.0783684931
 30
0.0
 40
2.568729258864886
100
AcDbArc
 50
259.327826719
 51
10.672208855
  0
LWPOLYLINE
  5
DC
330
7A3
100
AcDbEntity
  8
0
  6
Continuous
 62
     7
100
AcDbPolyline
 90
        7
 70
   128
 43
0.0
 10
285.8826272238
 20
401.554071667
 10
287.0970942128
 20
401.4714652173
 10
287.8643997062
 20
401.2195480488
 10
288.3787877906
 20
400.8520164959
 10
288.7491338003
 20
400.333804401
 10
289.0166394461
 20
399.4750188164
 10
289.0826217879
 20
398.354071515
  0
LINE
  5
DD
330
7A3
100
AcDbEntity
  8
0
  6
Continuous
 62
     7
100
AcDbLine
 10
196.2968733676
 20
419.7959633044
 30
0.0
 11
195.9401577294
 21
419.454071062
 31
0.0
  0
LINE
  5
DE
330
7A3
100
AcDbEntity
  8
0
  6
Continuous
 62
     7
100
AcDbLine
 10
201.2250915684
 20
419.454071062
 30
0.0
 11
200.8683675483
 21
419.795970755
 31
0.0
  0
LINE
  5
DF
330
7A3
100
AcDbEntity
  8
0
  6
Continuous
 62
     7
100
AcDbLine
 10
216.6722320069
 20
405.0540713094
 30
0.0
 11
201.082624593
 21
405.0540713094
 31
0.0
  0
LINE
  5
E0
330
7A3
100
AcDbEntity
  8
0
  6
Continuous
 62
     7
100
AcDbLine
 10
196.0826247048
 20
405.0540713094
 30
0.0
 11
180.4930172909
 21
405.0540713094
 31
0.0
  0
LWPOLYLINE
  5
E1
330
7A3
100
AcDbEntity
  8
0
  6
Continuous
 62
     7
100
AcDbPolyline
 90
        3
 70
   128
 43
0.0
 10
175.919433688
 20
405.2540709696
 10
175.6588049281
 20
405.3024513147
 10
175.5874488551
 20
405.5526567123
  0
LWPOLYLINE
  5
E2
330
7A3
100
AcDbEntity
  8
0
  6
Continuous
 62
     7
100
AcDbPolyline
 90
        3
 70
   128
 43
0.0
 10
221.2458156098
 20
405.2540709696
 10
221.5064443696
 20
405.3024513147
 10
221.5778004426
 20
405.5526567123
  0
ARC
  5
E3
330
7A3
100
AcDbEntity
  8
0
  6
Continuous
 62
     7
100
AcDbCircle
 10
176.1179802339
 20
405.2526176954
 30
0.0
 40
0.1985518645383754
100
AcDbArc
 50
179.5806273341
 51
269.5743682297999
  0
LINE
  5
E4
330
7A3
100
AcDbEntity
  8
0
  6
Continuous
 62
     7
100
AcDbLine
 10
176.1165052701
 20
405.0540713094
 30
0.0
 11
180.4930172909
 21
405.0540713094
 31
0.0
  0
ARC
  5
E5
330
7A3
100
AcDbEntity
  8
0
  6
Continuous
 62
     7
100
AcDbCircle
 10
221.0472690638
 20
405.2526176954
 30
0.0
 40
0.1985518645383757
100
AcDbArc
 50
270.4256317702001
 51
0.4193726659
  0
LINE
  5
E6
330
7A3
100
AcDbEntity
  8
0
  6
Continuous
 62
     7
100
AcDbLine
 10
221.0487440277
 20
405.0540713094
 30
0.0
 11
216.6722320069
 21
405.0540713094
 31
0.0
  0
LWPOLYLINE
  5
E7
330
7A3
100
AcDbEntity
  8
0
  6
Continuous
 62
     7
100
AcDbPolyline
 90
        4
 70
   128
 43
0.0
 10
289.3568851102
 20
379.23224582
 10
289.2910443295
 20
379.3462841737
 10
289.1128040899
 20
379.6550150461
 10
289.0826217879
 20
379.7072836629
  0
ARC
  5
E8
330
7A3
100
AcDbEntity
  8
0
  6
Continuous
 62
     7
100
AcDbCircle
 10
273.5826246489
 20
376.5540712945
 30
0.0
 40
16.00000000000005
100
AcDbArc
 50
350.3641348063
 51
9.6358651937
  0
LWPOLYLINE
  5
E9
330
7A3
100
AcDbEntity
  8
0
  6
Continuous
 62
     7
100
AcDbPolyline
 90
        4
 70
   128
 43
0.0
 10
289.0826217879
 20
373.400858926
 10
289.1808502424
 20
373.5709908384
 10
289.3286846626
 20
373.8270440105
 10
289.3568851102
 20
373.875896769
  0
LWPOLYLINE
  5
EA
330
7A3
100
AcDbEntity
  8
0
  6
Continuous
 62
     7
100
AcDbPolyline
 90
        4
 70
   128
 43
0.0
 10
107.8083641875
 20
373.875896769
 10
107.8742049683
 20
373.7618584152
 10
108.0524452079
 20
373.4531275428
 10
108.0826275099
 20
373.400858926
  0
ARC
  5
EB
330
7A3
100
AcDbEntity
  8
0
  6
Continuous
 62
     7
100
AcDbCircle
 10
123.5826246489
 20
376.5540712945
 30
0.0
 40
16.0000000000001
100
AcDbArc
 50
170.3641348063
 51
189.6358651937
  0
LWPOLYLINE
  5
EC
330
7A3
100
AcDbEntity
  8
0
  6
Continuous
 62
     7
100
AcDbPolyline
 90
        4
 70
   128
 43
0.0
 10
108.0826275099
 20
379.7072836629
 10
107.9843990553
 20
379.5371517505
 10
107.8365646351
 20
379.2810985784
 10
107.8083641875
 20
379.23224582
  0
ARC
  5
ED
330
7A3
100
AcDbEntity
  8
0
  6
Continuous
 62
     7
100
AcDbCircle
 10
273.5826246489
 20
376.5540712945
 30
0.0
 40
35.0
100
AcDbArc
 50
225.5846914028
 51
90.0
  0
ARC
  5
EE
330
7A3
100
AcDbEntity
  8
0
  6
Continuous
 62
     7
100
AcDbCircle
 10
273.5826246489
 20
376.5540712945
 30
0.0
 40
35.00000000000005
100
AcDbArc
 50
90.0
 51
134.4153085972
  0
ARC
  5
EF
330
7A3
100
AcDbEntity
  8
0
  6
Continuous
 62
     8
100
AcDbCircle
 10
123.5826246489
 20
376.5540712945
 30
0.0
 40
32.60585337309752
100
AcDbArc
 50
50.06145913999999
 51
90.0
  0
ARC
  5
F0
330
7A3
100
AcDbEntity
  8
0
  6
Continuous
 62
     8
100
AcDbCircle
 10
123.5826246489
 20
376.5540712945
 30
0.0
 40
32.60585337309749
100
AcDbArc
 50
90.0
 51
309.93854086
  0
ARC
  5
F1
330
7A3
100
AcDbEntity
  8
0
  6
Continuous
 62
     8
100
AcDbCircle
 10
123.5826246489
 20
376.5540712945
 30
0.0
 40
34.58178191833584
100
AcDbArc
 50
46.2964217029
 51
90.0
  0
ARC
  5
F2
330
7A3
100
AcDbEntity
  8
0
  6
Continuous
 62
     8
100
AcDbCircle
 10
123.5826246489
 20
376.5540712945
 30
0.0
 40
34.58178191833582
100
AcDbArc
 50
90.0
 51
313.7035782971
  0
ARC
  5
F3
330
7A3
100
AcDbEntity
  8
0
  6
Continuous
 62
     8
100
AcDbCircle
 10
218.9993446243
 20
419.3266550389
 30
0.0
 40
31.28886810736915
100
AcDbArc
 50
267.7029770504
 51
272.3421099303
  0
LWPOLYLINE
  5
F4
330
7A3
100
AcDbEntity
  8
0
  6
Continuous
 62
     8
100
AcDbPolyline
 90
        3
 70
   128
 43
0.0
 10
217.7452907015
 20
388.0629281945
 10
217.7268356133
 20
388.5877321906
 10
217.7056126345
 20
389.1912664718
  0
ARC
  5
F5
330
7A3
100
AcDbEntity
  8
0
  6
Continuous
 62
     8
100
AcDbCircle
 10
219.2016767823
 20
382.0883550514
 30
0.0
 40
7.258757371722252
100
AcDbArc
 50
78.0432472283
 51
101.8941758858
  0
ARC
  5
F6
330
7A3
100
AcDbEntity
  8
0
  6
Continuous
 62
     8
100
AcDbCircle
 10
219.0074353998
 20
389.1904598557
 30
0.0
 40
1.698062446045061
100
AcDbArc
 50
318.4384782898
 51
359.9719409381
  0
LINE
  5
F7
330
7A3
100
AcDbEntity
  8
0
  6
Continuous
 62
     8
100
AcDbLine
 10
220.7054976422
 20
400.0540704898
 30
0.0
 11
220.7054976422
 21
389.1896282754
 31
0.0
  0
LINE
  5
F8
330
7A3
100
AcDbEntity
  8
0
  6
Continuous
 62
     8
100
AcDbLine
 10
217.7056126345
 20
389.1912664718
 30
0.0
 11
217.7056126345
 21
400.0540704898
 31
0.0
  0
ARC
  5
F9
330
7A3
100
AcDbEntity
  8
0
  6
Continuous
 62
     8
100
AcDbCircle
 10
178.1578138979
 20
389.1904598557
 30
0.0
 40
1.698062446045061
100
AcDbArc
 50
180.0280590619
 51
221.5615217102
  0
LWPOLYLINE
  5
FA
330
7A3
100
AcDbEntity
  8
0
  6
Continuous
 62
     8
100
AcDbPolyline
 90
       12
 70
   128
 43
0.0
 10
176.4597516555
 20
389.1896282754
 10
176.4597516555
 20
389.1896310694
 10
176.4845266987
 20
389.2418866477
 10
176.6635287601
 20
389.3182057388
 10
176.8758516807
 20
389.342397774
 10
177.1368026782
 20
389.3451582141
 10
177.4579040755
 20
389.3420392148
 10
177.7894921649
 20
389.3252893783
 10
178.7284273703
 20
389.2438256613
 10
179.3346606243
 20
389.1968022532
 10
179.4595770586
 20
389.1912683345
 10
179.4596366633
 20
389.1912664718
  0
LWPOLYLINE
  5
FB
330
7A3
100
AcDbEntity
  8
0
  6
Continuous
 62
     8
100
AcDbPolyline
 90
        3
 70
   128
 43
0.0
 10
179.4596254874
 20
389.1890275724
 10
179.6094920535
 20
388.5909797124
 10
179.7601819087
 20
388.0710139371
  0
ARC
  5
FC
330
7A3
100
AcDbEntity
  8
0
  6
Continuous
 62
     8
100
AcDbCircle
 10
178.2292012279
 20
426.3687092896
 30
0.0
 40
38.3282840334118
100
AcDbArc
 50
267.9935468917
 51
272.2891834184
  0
LINE
  5
FD
330
7A3
100
AcDbEntity
  8
0
  6
Continuous
 62
     8
100
AcDbLine
 10
179.4596366633
 20
389.1900268815
 30
0.0
 11
179.4596366633
 21
400.0540704898
 31
0.0
  0
LINE
  5
FE
330
7A3
100
AcDbEntity
  8
0
  6
Continuous
 62
     8
100
AcDbLine
 10
176.4597516555
 20
400.0540704898
 30
0.0
 11
176.4597516555
 21
389.1896282754
 31
0.0
  0
LINE
  5
FF
330
7A3
100
AcDbEntity
  8
0
  6
Continuous
 62
     8
100
AcDbLine
 10
217.7056126345
 20
400.0540704898
 30
0.0
 11
217.7056126345
 21
401.554071667
 31
0.0
  0
ARC
  5
100
330
7A3
100
AcDbEntity
  8
0
  6
Continuous
 62
     8
100
AcDbCircle
 10
219.2055272852
 20
400.05410131
 30
0.0
 40
1.499970357294148
100
AcDbArc
 50
359.9988227328
 51
89.998900494
  0
LINE
  5
101
330
7A3
100
AcDbEntity
  8
0
  6
Continuous
 62
     8
100
AcDbLine
 10
179.4596366633
 20
400.0540704898
 30
0.0
 11
179.4596366633
 21
401.554071667
 31
0.0
  0
ARC
  5
102
330
7A3
100
AcDbEntity
  8
0
  6
Continuous
 62
     8
100
AcDbCircle
 10
177.9597220125
 20
400.05410131
 30
0.0
 40
1.499970357294148
100
AcDbArc
 50
90.001099506
 51
180.0011772672
  0
LWPOLYLINE
  5
103
330
7A3
100
AcDbEntity
  8
0
  6
Continuous
 62
     8
100
AcDbPolyline
 90
        5
 70
   128
 43
0.0
 10
198.5826246489
 20
389.1013854615
 10
201.9245108638
 20
389.1033170245
 10
208.1433912788
 20
389.1169301666
 10
214.362188806
 20
389.1553751625
 10
217.3928633381
 20
389.1856189317
  0
LWPOLYLINE
  5
104
330
7A3
100
AcDbEntity
  8
0
  6
Continuous
 62
     8
100
AcDbPolyline
 90
        3
 70
   128
 43
0.0
 10
217.405041312
 20
388.0709273241
 10
217.3993546564
 20
388.5906388483
 10
217.3928633381
 20
389.1856189317
  0
LWPOLYLINE
  5
105
330
7A3
100
AcDbEntity
  8
0
  6
Continuous
 62
     8
100
AcDbPolyline
 90
        6
 70
   128
 43
0.0
 10
217.405041312
 20
388.0709273241
 10
217.4049798448
 20
388.0709273241
 10
214.3717069227
 20
388.0830121658
 10
208.1462206367
 20
388.1014281384
 10
201.9256729215
 20
388.1082100294
 10
198.5826246489
 20
388.1092130638
  0
LWPOLYLINE
  5
106
330
7A3
100
AcDbEntity
  8
0
  6
Continuous
 62
     8
100
AcDbPolyline
 90
        6
 70
   128
 43
0.0
 10
198.5826246489
 20
388.1092130638
 10
195.2395763762
 20
388.1082100294
 10
189.019028661
 20
388.1014281384
 10
182.793542375
 20
388.0830121658
 10
179.760269453
 20
388.0709273241
 10
179.7602079857
 20
388.0709273241
  0
LWPOLYLINE
  5
107
330
7A3
100
AcDbEntity
  8
0
  6
Continuous
 62
     8
100
AcDbPolyline
 90
        5
 70
   128
 43
0.0
 10
179.4596366633
 20
389.1890275724
 10
182.8030604917
 20
389.1553751625
 10
189.021858019
 20
389.1169301666
 10
195.240738434
 20
389.1033170245
 10
198.5826246489
 20
389.1013854615
  0
LWPOLYLINE
  5
108
330
7A3
100
AcDbEntity
  8
0
  6
Continuous
 62
     8
100
AcDbPolyline
 90
        3
 70
   128
 43
0.0
 10
217.7452907015
 20
388.0629281945
 10
217.4051549334
 20
388.0710139371
 10
217.4050953288
 20
388.0710130058
  0
LWPOLYLINE
  5
109
330
7A3
100
AcDbEntity
  8
0
  6
Continuous
 62
     8
100
AcDbPolyline
 90
        3
 70
   128
 43
0.0
 10
217.3928633381
 20
389.1856189317
 10
217.3930961687
 20
389.1856207944
 10
217.7056126345
 20
389.1912664718
  0
LWPOLYLINE
  5
10A
330
7A3
100
AcDbEntity
  8
0
  6
Continuous
 62
     8
100
AcDbPolyline
 90
        7
 70
   128
 43
0.0
 10
179.7602079857
 20
388.0709273241
 10
181.7990835804
 20
384.8554057501
 10
183.8619202424
 20
381.8875750027
 10
185.9695944983
 20
379.3832313701
 10
187.6706775326
 20
377.881258583
 10
189.4224552486
 20
376.9033137675
 10
191.235053451
 20
376.5540712945
  0
LWPOLYLINE
  5
10B
330
7A3
100
AcDbEntity
  8
0
  6
Continuous
 62
     8
100
AcDbPolyline
 90
        7
 70
   128
 43
0.0
 10
217.405041312
 20
388.0709273241
 10
215.3661657173
 20
384.8554057501
 10
213.3033290554
 20
381.8875750027
 10
211.1956547994
 20
379.3832313701
 10
209.4945717651
 20
377.881258583
 10
207.7427940492
 20
376.9033137675
 10
205.9301958468
 20
376.5540712945
  0
LWPOLYLINE
  5
10C
330
7A3
100
AcDbEntity
  8
0
  6
Continuous
 62
     8
100
AcDbPolyline
 90
        7
 70
   128
 43
0.0
 10
176.8670190174
 20
388.072353179
 10
179.750952502
 20
384.5007627703
 10
182.6505489696
 20
380.9564847931
 10
184.2891812373
 20
379.2212671566
 10
186.0475126702
 20
377.7777857346
 10
187.9395857502
 20
376.8418776478
 10
189.9470338646
 20
376.5540712945
  0
LWPOLYLINE
  5
10D
330
7A3
100
AcDbEntity
  8
0
  6
Continuous
 62
     8
100
AcDbPolyline
 90
        3
 70
   128
 43
0.0
 10
176.8872492064
 20
388.0639247097
 10
176.8666166861
 20
388.072835604
 10
176.8666185487
 20
388.0728309474
  0
LWPOLYLINE
  5
10E
330
7A3
100
AcDbEntity
  8
0
  6
Continuous
 62
     8
100
AcDbPolyline
 90
        3
 70
   128
 43
0.0
 10
220.2986307491
 20
388.0728309474
 10
220.2986326117
 20
388.072835604
 10
220.2780000914
 20
388.0639247097
  0
LWPOLYLINE
  5
10F
330
7A3
100
AcDbEntity
  8
0
  6
Continuous
 62
     8
100
AcDbPolyline
 90
        7
 70
   128
 43
0.0
 10
220.2982302803
 20
388.072353179
 10
217.4142967958
 20
384.5007627703
 10
214.5147003282
 20
380.9564847931
 10
212.8760680605
 20
379.2212671566
 10
211.1177366275
 20
377.7777857346
 10
209.2256635476
 20
376.8418776478
 10
207.2182154331
 20
376.5540712945
  0
LINE
  5
110
330
7A3
100
AcDbEntity
  8
0
  6
Continuous
 62
     8
100
AcDbLine
 10
220.7054976422
 20
389.1896282754
 30
0.0
 11
220.7094222356
 21
389.1805748887
 31
0.0
  0
LWPOLYLINE
  5
111
330
7A3
100
AcDbEntity
  8
0
  6
Continuous
 62
     8
100
AcDbPolyline
 90
        3
 70
   128
 43
0.0
 10
220.298662414
 20
388.0728374667
 10
220.6033781219
 20
388.5899003095
 10
220.7094129223
 20
389.1805935151
  0
LWPOLYLINE
  5
112
330
7A3
100
AcDbEntity
  8
0
  6
Continuous
 62
     8
100
AcDbPolyline
 90
        3
 70
   128
 43
0.0
 10
176.4558270622
 20
389.1805748887
 10
176.4558382381
 20
389.1805981717
 10
176.4597516555
 20
389.1896282754
  0
LWPOLYLINE
  5
113
330
7A3
100
AcDbEntity
  8
0
  6
Continuous
 62
     8
100
AcDbPolyline
 90
        3
 70
   128
 43
0.0
 10
176.4558363754
 20
389.1805935151
 10
176.5618711758
 20
388.5899003095
 10
176.8665868837
 20
388.0728374667
  0
LWPOLYLINE
  5
114
330
7A3
100
AcDbEntity
  8
0
  6
Continuous
 62
     8
100
AcDbPolyline
 90
        4
 70
   128
 43
0.0
 10
220.7094222356
 20
389.1807341448
 10
220.7331094939
 20
389.1340422876
 10
220.8263143945
 20
389.0453449882
 10
220.9195248831
 20
389.0364927671
  0
LINE
  5
115
330
7A3
100
AcDbEntity
  8
0
  6
Continuous
 62
     8
100
AcDbLine
 10
221.478968491
 20
400.0540704898
 30
0.0
 11
220.7054976422
 21
400.0540704898
 31
0.0
  0
LINE
  5
116
330
7A3
100
AcDbEntity
  8
0
  6
Continuous
 62
     8
100
AcDbLine
 10
221.478968491
 20
388.9880043886
 30
0.0
 11
221.478968491
 21
400.0540704898
 31
0.0
  0
ARC
  5
117
330
7A3
100
AcDbEntity
  8
0
  6
Continuous
 62
     8
100
AcDbCircle
 10
221.3637115255
 20
388.9250360195
 30
0.0
 40
0.1314063132632721
100
AcDbArc
 50
28.7050641567
 51
81.9838458188
  0
ARC
  5
118
330
7A3
100
AcDbEntity
  8
0
  6
Continuous
 62
     8
100
AcDbCircle
 10
224.7037944419
 20
301.0061788998
 30
0.0
 40
88.11161589526978
100
AcDbArc
 50
92.1605304107
 51
92.46153001830001
  0
LINE
  5
119
330
7A3
100
AcDbEntity
  8
0
  6
Continuous
 62
     8
100
AcDbLine
 10
175.7832128603
 20
389.0551583342
 30
0.0
 11
176.2457281399
 21
389.0364927671
 31
0.0
  0
ARC
  5
11A
330
7A3
100
AcDbEntity
  8
0
  6
Continuous
 62
     8
100
AcDbCircle
 10
175.8015377723
 20
388.9250360195
 30
0.0
 40
0.1314063132632721
100
AcDbArc
 50
98.01615418120001
 51
151.2949358433
  0
LINE
  5
11B
330
7A3
100
AcDbEntity
  8
0
  6
Continuous
 62
     8
100
AcDbLine
 10
175.6862808067
 20
388.9880043886
 30
0.0
 11
175.6862808067
 21
400.0540704898
 31
0.0
  0
LINE
  5
11C
330
7A3
100
AcDbEntity
  8
0
  6
Continuous
 62
     8
100
AcDbLine
 10
175.6862808067
 20
400.0540704898
 30
0.0
 11
176.4597516555
 21
400.0540704898
 31
0.0
  0
LWPOLYLINE
  5
11D
330
7A3
100
AcDbEntity
  8
0
  6
Continuous
 62
     8
100
AcDbPolyline
 90
        4
 70
   128
 43
0.0
 10
176.2457281399
 20
389.0364927671
 10
176.3389349032
 20
389.0453449882
 10
176.4321398038
 20
389.1340422876
 10
176.4558270622
 20
389.1807341448
  0
ARC
  5
11E
330
7A3
100
AcDbEntity
  8
0
  6
Continuous
 62
     8
100
AcDbCircle
 10
177.1862522236
 20
400.0541002501
 30
0.0
 40
1.499971417154682
100
AcDbArc
 50
90.00106884129998
 51
180.0011367813
  0
ARC
  5
11F
330
7A3
100
AcDbEntity
  8
0
  6
Continuous
 62
     8
100
AcDbCircle
 10
219.9789970742
 20
400.0541002501
 30
0.0
 40
1.499971417154682
100
AcDbArc
 50
359.9988632187
 51
89.9989311587
  0
LWPOLYLINE
  5
120
330
7A3
100
AcDbEntity
  8
0
  6
Continuous
 62
     8
100
AcDbPolyline
 90
        8
 70
   128
 43
0.0
 10
176.4991894413
 20
388.1434242673
 10
179.1226450402
 20
383.9558915667
 10
181.6095799256
 20
380.3040712106
 10
182.8161604751
 20
378.7689149346
 10
183.9331496555
 20
377.5853209396
 10
184.942626958
 20
376.8236001221
 10
185.4014523376
 20
376.6229047639
 10
185.826673736
 20
376.5540712945
  0
LWPOLYLINE
  5
121
330
7A3
100
AcDbEntity
  8
0
  6
Continuous
 62
     8
100
AcDbPolyline
 90
        5
 70
   128
 43
0.0
 10
176.8675424207
 20
388.0718949682
 10
176.7905965496
 20
388.0901908002
 10
176.6019441236
 20
388.1370363257
 10
176.4991913039
 20
388.1434233359
 10
176.4991913039
 20
388.1434233359
  0
LWPOLYLINE
  5
122
330
7A3
100
AcDbEntity
  8
0
  6
Continuous
 62
     8
100
AcDbPolyline
 90
        5
 70
   128
 43
0.0
 10
220.6660579938
 20
388.1434233359
 10
220.6660579938
 20
388.1434233359
 10
220.5633051742
 20
388.1370363257
 10
220.3746527482
 20
388.0901908002
 10
220.2977068771
 20
388.0718949682
  0
LWPOLYLINE
  5
123
330
7A3
100
AcDbEntity
  8
0
  6
Continuous
 62
     8
100
AcDbPolyline
 90
        8
 70
   128
 43
0.0
 10
220.6660579938
 20
388.1434233359
 10
218.0426023949
 20
383.955891101
 10
215.5556693721
 20
380.3040712106
 10
214.3490888227
 20
378.7689149346
 10
213.2321005735
 20
377.5853212889
 10
212.2226232711
 20
376.8236025377
 10
211.7638006855
 20
376.622918952
 10
211.3385755617
 20
376.5540712945
  0
ARC
  5
124
330
7A3
100
AcDbEntity
  8
0
  6
Continuous
 62
     8
100
AcDbCircle
 10
177.9457355754
 20
389.0364714599
 30
0.0
 40
1.700007435551473
100
AcDbArc
 50
179.9992818766
 51
211.6897966246
  0
ARC
  5
125
330
7A3
100
AcDbEntity
  8
0
  6
Continuous
 62
     8
100
AcDbCircle
 10
219.2194963725
 20
389.0364769126
 30
0.0
 40
1.700026648022329
100
AcDbArc
 50
328.3103871563001
 51
0.0005343425
  0
ARC
  5
126
330
7A3
100
AcDbEntity
  8
0
  6
Continuous
 62
     8
100
AcDbCircle
 10
223.8222937143
 20
512.6335429103
 30
0.0
 40
124.53012266889
100
AcDbArc
 50
268.5476747149
 51
268.7520666244001
  0
ARC
  5
127
330
7A3
100
AcDbEntity
  8
0
  6
Continuous
 62
     8
100
AcDbCircle
 10
219.6820187218
 20
389.0551461321
 30
0.0
 40
1.700017715740643
100
AcDbArc
 50
327.1488455057
 51
0.0004112483
  0
ARC
  5
128
330
7A3
100
AcDbEntity
  8
0
  6
Continuous
 62
     8
100
AcDbCircle
 10
174.1987862274
 20
476.3211642091
 30
0.0
 40
88.20774158881419
100
AcDbArc
 50
271.2058508208
 51
271.4944078399
  0
ARC
  5
129
330
7A3
100
AcDbEntity
  8
0
  6
Continuous
 62
     8
100
AcDbCircle
 10
177.483230576
 20
389.0551461321
 30
0.0
 40
1.700017715740667
100
AcDbArc
 50
179.9995887517
 51
212.8511544943
  0
LWPOLYLINE
  5
12A
330
7A3
100
AcDbEntity
  8
0
  6
Continuous
 62
     8
100
AcDbPolyline
 90
        8
 70
   128
 43
0.0
 10
185.754974005
 20
376.5540712945
 10
185.1472375963
 20
376.682654142
 10
184.4730103437
 20
377.0532660152
 10
183.2941710997
 20
378.070050591
 10
182.1356225807
 20
379.3637818623
 10
180.8949779767
 20
380.9563478887
 10
178.5294130493
 20
384.3466880232
 10
176.055075233
 20
388.1329571328
  0
LWPOLYLINE
  5
12B
330
7A3
100
AcDbEntity
  8
0
  6
Continuous
 62
     8
100
AcDbPolyline
 90
        8
 70
   128
 43
0.0
 10
211.4102752928
 20
376.5540712945
 10
212.0180117015
 20
376.682654142
 10
212.6922389541
 20
377.0532660152
 10
213.871078198
 20
378.070050591
 10
215.029626717
 20
379.3637818623
 10
216.270271321
 20
380.9563478887
 10
218.6358362485
 20
384.3466880232
 10
221.1101740647
 20
388.1329571328
  0
LINE
  5
12C
330
7A3
100
AcDbEntity
  8
0
  6
Continuous
 62
     8
100
AcDbLine
 10
183.068561
 20
433.735302972
 30
0.0
 11
183.068561
 21
435.3540719918
 31
0.0
  0
ARC
  5
12D
330
7A3
100
AcDbEntity
  8
0
  6
Continuous
 62
     8
100
AcDbCircle
 10
185.2712351067
 20
417.4508125629
 30
0.0
 40
14.80121439793749
100
AcDbArc
 50
88.0746200871
 51
92.7211659222
  0
ARC
  5
12E
330
7A3
100
AcDbEntity
  8
0
  6
Continuous
 62
     8
100
AcDbCircle
 10
184.5685992088
 20
433.7353753945
 30
0.0
 40
1.500038210574808
100
AcDbArc
 50
180.0027662653
 51
269.9977673529
  0
ARC
  5
12F
330
7A3
100
AcDbEntity
  8
0
  6
Continuous
 62
     8
100
AcDbCircle
 10
211.8940141911
 20
417.4508125629
 30
0.0
 40
14.80121439793749
100
AcDbArc
 50
87.27883407779998
 51
91.9253799129
  0
ARC
  5
130
330
7A3
100
AcDbEntity
  8
0
  6
Continuous
 62
     8
100
AcDbCircle
 10
212.5966500889
 20
433.7353753945
 30
0.0
 40
1.500038210574808
100
AcDbArc
 50
270.0022326471
 51
359.9972337347
  0
LINE
  5
131
330
7A3
100
AcDbEntity
  8
0
  6
Continuous
 62
     8
100
AcDbLine
 10
214.0966882978
 20
433.735302972
 30
0.0
 11
214.0966882978
 21
435.3540719918
 31
0.0
  0
ARC
  5
132
330
7A3
100
AcDbEntity
  8
0
  6
Continuous
 62
     8
100
AcDbCircle
 10
185.1134516956
 20
33.1111030599
 30
0.0
 40
403.7429185297359
100
AcDbArc
 50
89.90703753319998
 51
90.08442461410002
  0
ARC
  5
133
330
7A3
100
AcDbEntity
  8
0
  6
Continuous
 62
     8
100
AcDbCircle
 10
184.568550349
 20
435.3540813492
 30
0.0
 40
1.499989349047437
100
AcDbArc
 50
91.9105545036
 51
180.0003574285
  0
ARC
  5
134
330
7A3
100
AcDbEntity
  8
0
  6
Continuous
 62
     8
100
AcDbCircle
 10
212.0517976021
 20
33.1111030599
 30
0.0
 40
403.7429185297359
100
AcDbArc
 50
89.91557538590001
 51
90.0929624668
  0
ARC
  5
135
330
7A3
100
AcDbEntity
  8
0
  6
Continuous
 62
     8
100
AcDbCircle
 10
212.5966989487
 20
435.3540813492
 30
0.0
 40
1.499989349047437
100
AcDbArc
 50
359.9996425715
 51
88.08944549640002
  0
LINE
  5
136
330
7A3
100
AcDbEntity
  8
0
  6
Continuous
 62
     8
100
AcDbLine
 10
185.7685247485
 20
436.8532368414
 30
0.0
 11
198.5826246489
 21
436.8532368414
 31
0.0
  0
LINE
  5
137
330
7A3
100
AcDbEntity
  8
0
  6
Continuous
 62
     8
100
AcDbLine
 10
211.3967245493
 20
436.8532368414
 30
0.0
 11
198.5826246489
 21
436.8532368414
 31
0.0
  0
LINE
  5
138
330
7A3
100
AcDbEntity
  8
0
  6
Continuous
 62
     8
100
AcDbLine
 10
185.7685247485
 20
432.2436706595
 30
0.0
 11
211.3967245493
 21
432.2436706595
 31
0.0
  0
LWPOLYLINE
  5
139
330
7A3
100
AcDbEntity
  8
0
  6
Continuous
 62
     8
100
AcDbPolyline
 90
        3
 70
   128
 43
0.0
 10
212.9180148292
 20
436.8533486001
 10
212.8765886698
 20
436.8531139068
 10
212.8587901641
 20
436.8529946975
  0
LINE
  5
13A
330
7A3
100
AcDbEntity
  8
0
  6
Continuous
 62
     8
100
AcDbLine
 10
212.8587901641
 20
436.8532368414
 30
0.0
 11
212.6467075247
 21
436.8532368414
 31
0.0
  0
LINE
  5
13B
330
7A3
100
AcDbEntity
  8
0
  6
Continuous
 62
     8
100
AcDbLine
 10
198.5826246489
 20
437.2275055818
 30
0.0
 11
198.5826246489
 21
436.8531474344
 31
0.0
  0
LINE
  5
13C
330
7A3
100
AcDbEntity
  8
0
  6
Continuous
 62
     8
100
AcDbLine
 10
184.3064591337
 20
436.8532368414
 30
0.0
 11
184.518541773
 21
436.8532368414
 31
0.0
  0
LWPOLYLINE
  5
13D
330
7A3
100
AcDbEntity
  8
0
  6
Continuous
 62
     8
100
AcDbPolyline
 90
        3
 70
   128
 43
0.0
 10
184.2472344685
 20
436.8533486001
 10
184.288660628
 20
436.8531139068
 10
184.3064591337
 20
436.8529946975
  0
LINE
  5
13E
330
7A3
100
AcDbEntity
  8
0
  6
Continuous
 62
     8
100
AcDbLine
 10
198.5826246509
 20
431.9459529094
 30
0.0
 11
195.15422788
 21
431.9438294939
 31
0.0
  0
LWPOLYLINE
  5
13F
330
7A3
100
AcDbEntity
  8
0
  6
Continuous
 62
     8
100
AcDbPolyline
 90
        5
 70
   128
 43
0.0
 10
195.1542369604
 20
431.9438294939
 10
193.2181083646
 20
431.9413298241
 10
191.265375917
 20
431.9380739204
 10
187.714702082
 20
431.9303923718
 10
184.3128601137
 20
431.9207215182
  0
LINE
  5
140
330
7A3
100
AcDbEntity
  8
0
  6
Continuous
 62
     8
100
AcDbLine
 10
184.3564581174
 20
431.9525578491
 30
0.0
 11
184.3128601137
 21
431.9207215182
 31
0.0
  0
LINE
  5
141
330
7A3
100
AcDbEntity
  8
0
  6
Continuous
 62
     8
100
AcDbLine
 10
184.5685407568
 20
432.2353371851
 30
0.0
 11
184.3564581174
 21
431.9525578491
 31
0.0
  0
LINE
  5
142
330
7A3
100
AcDbEntity
  8
0
  6
Continuous
 62
     8
100
AcDbLine
 10
212.596708541
 20
432.2353371851
 30
0.0
 11
212.8087911803
 21
431.9525578491
 31
0.0
  0
LINE
  5
143
330
7A3
100
AcDbEntity
  8
0
  6
Continuous
 62
     8
100
AcDbLine
 10
212.8087911803
 20
431.9525578491
 30
0.0
 11
212.852389184
 21
431.9207215182
 31
0.0
  0
LWPOLYLINE
  5
144
330
7A3
100
AcDbEntity
  8
0
  6
Continuous
 62
     8
100
AcDbPolyline
 90
        5
 70
   128
 43
0.0
 10
202.0110123373
 20
431.9438294939
 10
203.9471409332
 20
431.9413298241
 10
205.8998733807
 20
431.9380739204
 10
209.4505472157
 20
431.9303923718
 10
212.852389184
 20
431.9207215182
  0
LINE
  5
145
330
7A3
100
AcDbEntity
  8
0
  6
Continuous
 62
     8
100
AcDbLine
 10
199.7418220669
 20
431.9452376536
 30
0.0
 11
202.0110214177
 21
431.9438294939
 31
0.0
  0
LINE
  5
146
330
7A3
100
AcDbEntity
  8
0
  6
Continuous
 62
     8
100
AcDbLine
 10
182.856479292
 20
435.3540719918
 30
0.0
 11
183.068561
 21
435.3540719918
 31
0.0
  0
ARC
  5
147
330
7A3
100
AcDbEntity
  8
0
  6
Continuous
 62
     8
100
AcDbCircle
 10
184.356466707
 20
435.3540832508
 30
0.0
 40
1.499987415072432
100
AcDbArc
 50
91.9105186472
 51
180.0004300655
  0
LINE
  5
148
330
7A3
100
AcDbEntity
  8
0
  6
Continuous
 62
     8
100
AcDbLine
 10
214.3087700058
 20
435.3540719918
 30
0.0
 11
214.0966882978
 21
435.3540719918
 31
0.0
  0
ARC
  5
149
330
7A3
100
AcDbEntity
  8
0
  6
Continuous
 62
     8
100
AcDbCircle
 10
212.8087825907
 20
435.3540832508
 30
0.0
 40
1.499987415072428
100
AcDbArc
 50
359.9995699345
 51
88.0894813528
  0
LINE
  5
14A
330
7A3
100
AcDbEntity
  8
0
  6
Continuous
 62
     8
100
AcDbLine
 10
182.856479292
 20
433.452523636
 30
0.0
 11
183.068561
 21
433.735302972
 31
0.0
  0
ARC
  5
14B
330
7A3
100
AcDbEntity
  8
0
  6
Continuous
 62
     8
100
AcDbCircle
 10
184.3565156476
 20
433.4525942053
 30
0.0
 40
1.500036357321958
100
AcDbArc
 50
180.0026954828
 51
269.997802561
  0
LINE
  5
14C
330
7A3
100
AcDbEntity
  8
0
  6
Continuous
 62
     8
100
AcDbLine
 10
214.3087700058
 20
433.452523636
 30
0.0
 11
214.0966882978
 21
433.735302972
 31
0.0
  0
ARC
  5
14D
330
7A3
100
AcDbEntity
  8
0
  6
Continuous
 62
     8
100
AcDbCircle
 10
212.8087336501
 20
433.4525942053
 30
0.0
 40
1.500036357321958
100
AcDbArc
 50
270.002197439
 51
359.9973045172
  0
LINE
  5
14E
330
7A3
100
AcDbEntity
  8
0
  6
Continuous
 62
     8
100
AcDbLine
 10
182.856479292
 20
435.3540719918
 30
0.0
 11
182.856479292
 21
433.452523636
 31
0.0
  0
LINE
  5
14F
330
7A3
100
AcDbEntity
  8
0
  6
Continuous
 62
     8
100
AcDbLine
 10
214.3087700058
 20
435.3540719918
 30
0.0
 11
214.3087700058
 21
433.452523636
 31
0.0
  0
LINE
  5
150
330
7A3
100
AcDbEntity
  8
0
  6
Continuous
 62
     8
100
AcDbLine
 10
211.4102752928
 20
376.5540712945
 30
0.0
 11
211.4161128227
 21
376.4922689612
 31
0.0
  0
LWPOLYLINE
  5
151
330
7A3
100
AcDbEntity
  8
0
  6
Continuous
 62
     8
100
AcDbPolyline
 90
        3
 70
   128
 43
0.0
 10
211.4523189191
 20
376.1089313799
 10
211.4746604163
 20
375.8723858361
 10
211.5659672815
 20
374.9056616531
  0
LWPOLYLINE
  5
152
330
7A3
100
AcDbEntity
  8
0
  6
Continuous
 62
     8
100
AcDbPolyline
 90
       10
 70
   128
 43
0.0
 10
211.5659188528
 20
374.9061805162
 10
211.69744954
 20
373.5101137742
 10
211.872916301
 20
371.6558034963
 10
212.09633593
 20
369.2895535811
 10
212.3701792259
 20
366.3909736521
 10
212.535651033
 20
364.6391894169
 10
212.7158088658
 20
362.7325569711
 10
212.9106881145
 20
360.6712532661
 10
213.2304018412
 20
357.2882314644
 10
213.5826243136
 20
353.5540712498
  0
LWPOLYLINE
  5
153
330
7A3
100
AcDbEntity
  8
0
  6
Continuous
 62
     8
100
AcDbPolyline
 90
       10
 70
   128
 43
0.0
 10
185.599330445
 20
374.9061805162
 10
185.4677997578
 20
373.5101137742
 10
185.2923329968
 20
371.6558034963
 10
185.0689133678
 20
369.2895535811
 10
184.7950700719
 20
366.3909736521
 10
184.6295982648
 20
364.6391894169
 10
184.449440432
 20
362.7325569711
 10
184.2545611832
 20
360.6712532661
 10
183.9348474566
 20
357.2882314644
 10
183.5826249842
 20
353.5540712498
  0
LWPOLYLINE
  5
154
330
7A3
100
AcDbEntity
  8
0
  6
Continuous
 62
     8
100
AcDbPolyline
 90
        3
 70
   128
 43
0.0
 10
185.7129303787
 20
376.108933359
 10
185.6905888814
 20
375.8723858361
 10
185.5992820162
 20
374.9056616531
  0
LWPOLYLINE
  5
155
330
7A3
100
AcDbEntity
  8
0
  6
Continuous
 62
     8
100
AcDbPolyline
 90
        6
 70
   128
 43
0.0
 10
221.2708309341
 20
388.173048707
 10
221.2708290715
 20
388.173048707
 10
221.2330918807
 20
388.1588413812
 10
221.1601376582
 20
388.1385813899
 10
221.1101759273
 20
388.1329571328
 10
221.1101759273
 20
388.1329571328
  0
LWPOLYLINE
  5
156
330
7A3
100
AcDbEntity
  8
0
  6
Continuous
 62
     8
100
AcDbPolyline
 90
        8
 70
   128
 43
0.0
 10
221.2706018288
 20
388.1726305432
 10
218.6151739258
 20
383.3896562889
 10
216.0687666435
 20
379.2117690633
 10
214.8225527305
 20
377.4663724786
 10
213.6472292293
 20
376.1144287443
 10
212.5569745947
 20
375.2346283024
 10
212.0481791023
 20
374.9963725883
 10
211.5659672815
 20
374.9056616531
  0
LWPOLYLINE
  5
157
330
7A3
100
AcDbEntity
  8
0
  6
Continuous
 62
     8
100
AcDbPolyline
 90
        8
 70
   128
 43
0.0
 10
177.3188501645
 20
385.6073472149
 10
178.5501871306
 20
383.3894607111
 10
181.0964826543
 20
379.2117690633
 10
182.3426965672
 20
377.4663724786
 10
183.5180200685
 20
376.1144287443
 10
184.6082747031
 20
375.2346283024
 10
185.1170701954
 20
374.9963725883
 10
185.5992820162
 20
374.9056616531
  0
LWPOLYLINE
  5
158
330
7A3
100
AcDbEntity
  8
0
  6
Continuous
 62
     8
100
AcDbPolyline
 90
        5
 70
   128
 43
0.0
 10
176.0550733704
 20
388.1329571328
 10
176.0550733704
 20
388.1329571328
 10
176.0051116396
 20
388.1385813899
 10
175.932157417
 20
388.1588413812
 10
175.8945878643
 20
388.1729807205
  0
LWPOLYLINE
  5
159
330
7A3
100
AcDbEntity
  8
0
  6
Continuous
 62
     8
100
AcDbPolyline
 90
        3
 70
   128
 43
0.0
 10
175.6862808067
 20
388.9878572396
 10
175.7392395336
 20
388.5673390202
 10
175.8945878643
 20
388.1729807205
  0
LWPOLYLINE
  5
15A
330
7A3
100
AcDbEntity
  8
0
  6
Continuous
 62
     8
100
AcDbPolyline
 90
        3
 70
   128
 43
0.0
 10
221.2708290715
 20
388.173048707
 10
221.4260581929
 20
388.5673343636
 10
221.478968491
 20
388.9878572396
  0
LINE
  5
15B
330
7A3
100
AcDbEntity
  8
0
  6
Continuous
 62
     8
100
AcDbLine
 10
233.4785103846
 20
365.9801905475
 30
0.0
 11
233.4785103846
 21
388.5539857171
 31
0.0
  0
LWPOLYLINE
  5
15C
330
7A3
100
AcDbEntity
  8
0
  6
Continuous
 62
     8
100
AcDbPolyline
 90
       12
 70
   128
 43
0.0
 10
213.5826243136
 20
353.5540712498
 10
217.1255458195
 20
353.6810682587
 10
220.3985821504
 20
354.0619177244
 10
222.7659910966
 20
354.5385369531
 10
224.908422311
 20
355.1658441744
 10
226.8258795191
 20
355.9438412509
 10
228.2925337601
 20
356.7331036053
 10
229.5780234087
 20
357.6284529142
 10
231.6055201042
 20
359.73740867
 10
232.4248530019
 20
361.1064929015
 10
233.0101259101
 20
362.6033182687
 10
233.4785103846
 20
365.9801905475
  0
LWPOLYLINE
  5
15D
330
7A3
100
AcDbEntity
  8
0
  6
Continuous
 62
     8
100
AcDbPolyline
 90
       12
 70
   128
 43
0.0
 10
183.5826249842
 20
353.5540712498
 10
180.0397034783
 20
353.6810682587
 10
176.7666671473
 20
354.0619177244
 10
174.3992582012
 20
354.5385369531
 10
172.2568269867
 20
355.1658441744
 10
170.3393697787
 20
355.9438412509
 10
168.8727155376
 20
356.7331036053
 10
167.587225889
 20
357.6284529142
 10
165.5597291935
 20
359.73740867
 10
164.7403962959
 20
361.1064929015
 10
164.1551233876
 20
362.6033182687
 10
163.6867389131
 20
365.9801905475
  0
LINE
  5
15E
330
7A3
100
AcDbEntity
  8
0
  6
Continuous
 62
     8
100
AcDbLine
 10
163.6867389131
 20
365.9801905475
 30
0.0
 11
163.6867389131
 21
388.5539857171
 31
0.0
  0
LINE
  5
15F
330
7A3
100
AcDbEntity
  8
0
  6
Continuous
 62
     8
100
AcDbLine
 10
182.7976178426
 20
435.3540719918
 30
0.0
 11
182.856479292
 21
435.3540719918
 31
0.0
  0
ARC
  5
160
330
7A3
100
AcDbEntity
  8
0
  6
Continuous
 62
     8
100
AcDbCircle
 10
184.2974338454
 20
435.3542611576
 30
0.0
 40
1.499816014683822
100
AcDbArc
 50
91.9180684099
 51
180.0072264867
  0
LINE
  5
161
330
7A3
100
AcDbEntity
  8
0
  6
Continuous
 62
     8
100
AcDbLine
 10
214.3676314551
 20
435.3540719918
 30
0.0
 11
214.3087700058
 21
435.3540719918
 31
0.0
  0
ARC
  5
162
330
7A3
100
AcDbEntity
  8
0
  6
Continuous
 62
     8
100
AcDbCircle
 10
212.8678154524
 20
435.3542611576
 30
0.0
 40
1.499816014683831
100
AcDbArc
 50
359.9927735133
 51
88.0819315901
  0
LINE
  5
163
330
7A3
100
AcDbEntity
  8
0
  6
Continuous
 62
     8
100
AcDbLine
 10
182.7976178426
 20
433.415386217
 30
0.0
 11
182.856479292
 21
433.452523636
 31
0.0
  0
LINE
  5
164
330
7A3
100
AcDbEntity
  8
0
  6
Continuous
 62
     8
100
AcDbLine
 10
184.313094807
 20
431.920937585
 30
0.0
 11
183.9164398659
 21
431.9960170857
 31
0.0
  0
LWPOLYLINE
  5
165
330
7A3
100
AcDbEntity
  8
0
  6
Continuous
 62
     8
100
AcDbPolyline
 90
        3
 70
   128
 43
0.0
 10
182.9139437575
 20
432.8571067623
 10
182.838327815
 20
433.0694073311
 10
182.7978078324
 20
433.4155538551
  0
LINE
  5
166
330
7A3
100
AcDbEntity
  8
0
  6
Continuous
 62
     8
100
AcDbLine
 10
214.3676314551
 20
433.415386217
 30
0.0
 11
214.3087700058
 21
433.452523636
 31
0.0
  0
LINE
  5
167
330
7A3
100
AcDbEntity
  8
0
  6
Continuous
 62
     8
100
AcDbLine
 10
212.8521544907
 20
431.920937585
 30
0.0
 11
213.2885964636
 21
432.0035496227
 31
0.0
  0
LWPOLYLINE
  5
168
330
7A3
100
AcDbEntity
  8
0
  6
Continuous
 62
     8
100
AcDbPolyline
 90
        3
 70
   128
 43
0.0
 10
214.2827134628
 20
432.9452843837
 10
214.3269214827
 20
433.0694073311
 10
214.3674414653
 20
433.4155538551
  0
LINE
  5
169
330
7A3
100
AcDbEntity
  8
0
  6
Continuous
 62
     8
100
AcDbLine
 10
182.7976178426
 20
435.3540719918
 30
0.0
 11
182.7976178426
 21
433.415386217
 31
0.0
  0
LINE
  5
16A
330
7A3
100
AcDbEntity
  8
0
  6
Continuous
 62
     8
100
AcDbLine
 10
214.3676314551
 20
435.3540719918
 30
0.0
 11
214.3676314551
 21
433.415386217
 31
0.0
  0
LWPOLYLINE
  5
16B
330
7A3
100
AcDbEntity
  8
0
  6
Continuous
 62
     8
100
AcDbPolyline
 90
        8
 70
   128
 43
0.0
 10
216.8309126098
 20
419.0913022927
 10
215.3848294217
 20
417.3737944535
 10
213.6531747926
 20
415.9326174728
 10
211.6370150868
 20
414.7814096383
 10
209.3389403123
 20
413.9263586573
 10
207.7069278855
 20
413.5302820675
 10
205.9944706086
 20
413.2548378281
 10
205.5826248649
 20
413.2154652349
  0
LWPOLYLINE
  5
16C
330
7A3
100
AcDbEntity
  8
0
  6
Continuous
 62
     8
100
AcDbPolyline
 90
        8
 70
   128
 43
0.0
 10
180.334336688
 20
419.0913022927
 10
181.780419876
 20
417.3737944535
 10
183.5120745052
 20
415.9326174728
 10
185.528234211
 20
414.7814096383
 10
187.8263089854
 20
413.9263586573
 10
189.4583214123
 20
413.5302820675
 10
191.1707786892
 20
413.2548378281
 10
191.5826244328
 20
413.2154652349
  0
LWPOLYLINE
  5
16D
330
7A3
100
AcDbEntity
  8
0
  6
Continuous
 62
     8
100
AcDbPolyline
 90
        7
 70
   128
 43
0.0
 10
176.840770622
 20
433.2026684157
 10
176.8905907918
 20
431.2055551879
 10
177.0456764895
 20
429.1681268684
 10
177.2942520726
 20
427.2725576035
 10
177.6616569657
 20
425.3905670218
 10
178.7349056501
 20
422.0095121733
 10
180.334336688
 20
419.0913022927
  0
LWPOLYLINE
  5
16E
330
7A3
100
AcDbEntity
  8
0
  6
Continuous
 62
     8
100
AcDbPolyline
 90
        7
 70
   128
 43
0.0
 10
220.3244786758
 20
433.2026684157
 10
220.274658506
 20
431.2055551879
 10
220.1195728082
 20
429.1681268684
 10
219.8709972251
 20
427.2725576035
 10
219.5035923321
 20
425.3905670218
 10
218.4303436477
 20
422.0095121733
 10
216.8309126098
 20
419.0913022927
  0
LINE
  5
16F
330
7A3
100
AcDbEntity
  8
0
  6
Continuous
 62
     8
100
AcDbLine
 10
163.6867389131
 20
400.0540704898
 30
0.0
 11
175.6862808067
 21
400.0540704898
 31
0.0
  0
LINE
  5
170
330
7A3
100
AcDbEntity
  8
0
  6
Continuous
 62
     8
100
AcDbLine
 10
163.6867389131
 20
400.0540704898
 30
0.0
 11
163.6867389131
 21
401.554071667
 31
0.0
  0
LINE
  5
171
330
7A3
100
AcDbEntity
  8
0
  6
Continuous
 62
     8
100
AcDbLine
 10
233.4785103846
 20
400.0540704898
 30
0.0
 11
221.478968491
 21
400.0540704898
 31
0.0
  0
LINE
  5
172
330
7A3
100
AcDbEntity
  8
0
  6
Continuous
 62
     8
100
AcDbLine
 10
233.4785103846
 20
400.0540704898
 30
0.0
 11
233.4785103846
 21
401.554071667
 31
0.0
  0
ARC
  5
173
330
7A3
100
AcDbEntity
  8
0
  6
Continuous
 62
     8
100
AcDbCircle
 10
178.3042593538
 20
435.3921962747
 30
0.0
 40
1.463985221623822
100
AcDbArc
 50
93.6346224946
 51
181.4922332792
  0
ARC
  5
174
330
7A3
100
AcDbEntity
  8
0
  6
Continuous
 62
     8
100
AcDbCircle
 10
218.860989944
 20
435.3921962747
 30
0.0
 40
1.463985221623794
100
AcDbArc
 50
358.5077667208001
 51
86.3653775054
  0
LINE
  5
175
330
7A3
100
AcDbEntity
  8
0
  6
Continuous
 62
     8
100
AcDbLine
 10
163.6867389131
 20
388.5539857171
 30
0.0
 11
163.6867389131
 21
400.0540704898
 31
0.0
  0
LINE
  5
176
330
7A3
100
AcDbEntity
  8
0
  6
Continuous
 62
     8
100
AcDbLine
 10
233.4785103846
 20
388.5539857171
 30
0.0
 11
233.4785103846
 21
400.0540704898
 31
0.0
  0
LINE
  5
177
330
7A3
100
AcDbEntity
  8
0
  6
Continuous
 62
     8
100
AcDbLine
 10
176.840770622
 20
433.2026684157
 30
0.0
 11
176.840770622
 21
435.3540719918
 31
0.0
  0
LINE
  5
178
330
7A3
100
AcDbEntity
  8
0
  6
Continuous
 62
     8
100
AcDbLine
 10
220.3244786758
 20
433.2026684157
 30
0.0
 11
220.3244786758
 21
435.3540719918
 31
0.0
  0
LINE
  5
179
330
7A3
100
AcDbEntity
  8
0
  6
Continuous
 62
     8
100
AcDbLine
 10
285.8826272238
 20
400.0540704898
 30
0.0
 11
233.4785103846
 21
400.0540704898
 31
0.0
  0
LWPOLYLINE
  5
17A
330
7A3
100
AcDbEntity
  8
0
  6
Continuous
 62
     8
100
AcDbPolyline
 90
        7
 70
   128
 43
0.0
 10
287.5826261986
 20
398.354071515
 10
287.5366784681
 20
399.2306714378
 10
287.4098472346
 20
399.6582975111
 10
287.3188532937
 20
399.7906365863
 10
287.187566613
 20
399.8809301726
 10
286.8161104668
 20
399.9980179093
 10
285.8826272238
 20
400.0540704898
  0
LINE
  5
17B
330
7A3
100
AcDbEntity
  8
0
  6
Continuous
 62
     8
100
AcDbLine
 10
287.5826261986
 20
354.5540714137
 30
0.0
 11
287.5826261986
 21
398.354071515
 31
0.0
  0
LWPOLYLINE
  5
17C
330
7A3
100
AcDbEntity
  8
0
  6
Continuous
 62
     8
100
AcDbPolyline
 90
        8
 70
   128
 43
0.0
 10
286.0826231588
 20
353.0540720991
 10
286.8918828715
 20
353.0963448308
 10
287.2593529571
 20
353.2041230671
 10
287.3555548537
 20
353.26665579
 10
287.4230273116
 20
353.3588585875
 10
287.4888531912
 20
353.521530839
 10
287.5632174361
 20
353.9220703266
 10
287.5826261986
 20
354.5540714137
  0
LINE
  5
17D
330
7A3
100
AcDbEntity
  8
0
  6
Continuous
 62
     8
100
AcDbLine
 10
111.082626139
 20
353.0540720991
 30
0.0
 11
286.0826231588
 21
353.0540720991
 31
0.0
  0
LWPOLYLINE
  5
17E
330
7A3
100
AcDbEntity
  8
0
  6
Continuous
 62
     8
100
AcDbPolyline
 90
        8
 70
   128
 43
0.0
 10
111.082626139
 20
353.0540720991
 10
110.2733664263
 20
353.0963448308
 10
109.9058963407
 20
353.2041230671
 10
109.809694444
 20
353.26665579
 10
109.7422219861
 20
353.3588585875
 10
109.6763961065
 20
353.521530839
 10
109.6020318616
 20
353.9220703266
 10
109.5826230992
 20
354.5540714137
  0
LINE
  5
17F
330
7A3
100
AcDbEntity
  8
0
  6
Continuous
 62
     8
100
AcDbLine
 10
109.5826230992
 20
354.5540714137
 30
0.0
 11
109.5826230992
 21
398.354071515
 31
0.0
  0
LWPOLYLINE
  5
180
330
7A3
100
AcDbEntity
  8
0
  6
Continuous
 62
     8
100
AcDbPolyline
 90
        7
 70
   128
 43
0.0
 10
109.5826230992
 20
398.354071515
 10
109.6285708297
 20
399.2306714378
 10
109.7554020632
 20
399.6582975111
 10
109.846396004
 20
399.7906365863
 10
109.9776826847
 20
399.8809301726
 10
110.349138831
 20
399.9980179093
 10
111.282622074
 20
400.0540704898
  0
LINE
  5
181
330
7A3
100
AcDbEntity
  8
0
  6
Continuous
 62
     8
100
AcDbLine
 10
111.282622074
 20
400.0540704898
 30
0.0
 11
163.6867389131
 21
400.0540704898
 31
0.0
  0
LINE
  5
182
330
7A3
100
AcDbEntity
  8
0
  6
Continuous
 62
     8
100
AcDbLine
 10
111.282622074
 20
400.0540704898
 30
0.0
 11
111.282622074
 21
401.554071667
 31
0.0
  0
LINE
  5
183
330
7A3
100
AcDbEntity
  8
0
  6
Continuous
 62
     8
100
AcDbLine
 10
285.8826272238
 20
400.0540704898
 30
0.0
 11
285.8826272238
 21
401.554071667
 31
0.0
  0
LINE
  5
184
330
7A3
100
AcDbEntity
  8
0
  6
Continuous
 62
     8
100
AcDbLine
 10
109.5826230992
 20
354.5540714137
 30
0.0
 11
108.0826275099
 21
354.5540714137
 31
0.0
  0
LINE
  5
185
330
7A3
100
AcDbEntity
  8
0
  6
Continuous
 62
     8
100
AcDbLine
 10
111.082626139
 20
353.0540720991
 30
0.0
 11
111.082626139
 21
351.5540709219
 31
0.0
  0
LINE
  5
186
330
7A3
100
AcDbEntity
  8
0
  6
Continuous
 62
     8
100
AcDbLine
 10
287.5826261986
 20
398.354071515
 30
0.0
 11
289.0826217879
 21
398.354071515
 31
0.0
  0
LINE
  5
187
330
7A3
100
AcDbEntity
  8
0
  6
Continuous
 62
     8
100
AcDbLine
 10
287.5826261986
 20
354.5540714137
 30
0.0
 11
289.0826217879
 21
354.5540714137
 31
0.0
  0
LINE
  5
188
330
7A3
100
AcDbEntity
  8
0
  6
Continuous
 62
     8
100
AcDbLine
 10
286.0826231588
 20
353.0540720991
 30
0.0
 11
286.0826231588
 21
351.5540709219
 31
0.0
  0
LINE
  5
189
330
7A3
100
AcDbEntity
  8
0
  6
Continuous
 62
     8
100
AcDbLine
 10
109.5826230992
 20
398.354071515
 30
0.0
 11
108.0826275099
 21
398.354071515
 31
0.0
  0
LINE
  5
18A
330
7A3
100
AcDbEntity
  8
0
  6
Continuous
 62
     8
100
AcDbLine
 10
201.3919042472
 20
419.5852906875
 30
0.0
 11
201.5048031278
 21
419.454071062
 31
0.0
  0
LINE
  5
18B
330
7A3
100
AcDbEntity
  8
0
  6
Continuous
 62
     8
100
AcDbLine
 10
195.66044617
 20
419.454071062
 30
0.0
 11
195.773341791
 21
419.5852869622
 31
0.0
  0
ARC
  5
18C
330
7A3
100
AcDbEntity
  8
0
  6
Continuous
 62
     8
100
AcDbCircle
 10
216.6488824752
 20
405.235545701
 30
0.0
 40
0.1829703677133623
100
AcDbArc
 50
277.3317207396
 51
5.8110041254
  0
LINE
  5
18D
330
7A3
100
AcDbEntity
  8
0
  6
Continuous
 62
     8
100
AcDbLine
 10
177.2070244003
 20
404.9575509004
 30
0.0
 11
196.0826247048
 21
404.9575509004
 31
0.0
  0
LINE
  5
18E
330
7A3
100
AcDbEntity
  8
0
  6
Continuous
 62
     8
100
AcDbLine
 10
201.082624593
 20
404.9575509004
 30
0.0
 11
219.9582248975
 21
404.9575509004
 31
0.0
  0
LINE
  5
18F
330
7A3
100
AcDbEntity
  8
0
  6
Continuous
 62
     8
100
AcDbLine
 10
216.8309126098
 20
405.2540709696
 30
0.0
 11
221.2458156098
 21
405.2540709696
 31
0.0
  0
ARC
  5
190
330
7A3
100
AcDbEntity
  8
0
  6
Continuous
 62
     8
100
AcDbCircle
 10
273.5826246489
 20
376.5540712945
 30
0.0
 40
32.60585337309744
100
AcDbArc
 50
230.06145914
 51
90.0
  0
ARC
  5
191
330
7A3
100
AcDbEntity
  8
0
  6
Continuous
 62
     8
100
AcDbCircle
 10
273.5826246489
 20
376.5540712945
 30
0.0
 40
32.6058533730975
100
AcDbArc
 50
90.0
 51
129.93854086
  0
ARC
  5
192
330
7A3
100
AcDbEntity
  8
0
  6
Continuous
 62
     8
100
AcDbCircle
 10
273.5826246489
 20
376.5540712945
 30
0.0
 40
34.58178191833582
100
AcDbArc
 50
226.2964217029
 51
90.0
  0
ARC
  5
193
330
7A3
100
AcDbEntity
  8
0
  6
Continuous
 62
     8
100
AcDbCircle
 10
273.5826246489
 20
376.5540712945
 30
0.0
 40
34.58178191833582
100
AcDbArc
 50
90.0
 51
133.7035782971
  0
LINE
  5
194
330
7A3
100
AcDbEntity
  8
0
  6
Continuous
 62
     7
100
AcDbLine
 10
361.6076541195
 20
341.5540711454
 30
0.0
 11
385.5673541377
 21
341.9722908608
 31
0.0
  0
LINE
  5
195
330
7A3
100
AcDbEntity
  8
0
  6
Continuous
 62
     7
100
AcDbLine
 10
385.5673541377
 20
411.1358517281
 30
0.0
 11
361.6076541195
 21
411.5540714435
 31
0.0
  0
ARC
  5
196
330
7A3
100
AcDbEntity
  8
0
  6
Continuous
 62
     7
100
AcDbCircle
 10
385.5324486669
 20
343.9719847664
 30
0.0
 40
1.999999999999855
100
AcDbArc
 50
271.0
 51
359.3191140165001
  0
ARC
  5
197
330
7A3
100
AcDbEntity
  8
0
  6
Continuous
 62
     7
100
AcDbCircle
 10
385.5324486669
 20
409.1361578225
 30
0.0
 40
1.999999999999894
100
AcDbArc
 50
0.6808859835
 51
89.00000000000001
  0
ARC
  5
198
330
7A3
100
AcDbEntity
  8
0
  6
Continuous
 62
     7
100
AcDbCircle
 10
-812.3829601236
 20
358.2083249658
 30
0.0
 40
1200.0
100
AcDbArc
 50
359.3191140165001
 51
0.0
  0
ARC
  5
199
330
7A3
100
AcDbEntity
  8
0
  6
Continuous
 62
     7
100
AcDbCircle
 10
-812.3829601236
 20
394.8998176231
 30
0.0
 40
1200.0
100
AcDbArc
 50
0.0
 51
0.6808859835
  0
LINE
  5
19A
330
7A3
100
AcDbEntity
  8
0
  6
Continuous
 62
     7
100
AcDbLine
 10
387.6170405248
 20
358.2083241514
 30
0.0
 11
387.6170405248
 21
394.8998184375
 31
0.0
  0
ARC
  5
19B
330
7A3
100
AcDbEntity
  8
0
  6
Continuous
 62
     7
100
AcDbCircle
 10
400.6484129098
 20
366.5540712945
 30
0.0
 40
6.000000000000091
100
AcDbArc
 50
303.537063814
 51
311.4096221093001
  0
ARC
  5
19C
330
7A3
100
AcDbEntity
  8
0
  6
Continuous
 62
     7
100
AcDbCircle
 10
400.6484129098
 20
386.5540712945
 30
0.0
 40
6.00000000000005
100
AcDbArc
 50
48.5903778907
 51
56.7073833481
  0
ARC
  5
19D
330
7A3
100
AcDbEntity
  8
0
  6
Continuous
 62
     7
100
AcDbCircle
 10
391.585666843
 20
366.5540712943
 30
0.0
 40
5.999999999875708
100
AcDbArc
 50
228.5903778903
 51
236.4469111686
  0
ARC
  5
19E
330
7A3
100
AcDbEntity
  8
0
  6
Continuous
 62
     7
100
AcDbCircle
 10
391.585666843
 20
386.5540712946
 30
0.0
 40
5.999999999875759
100
AcDbArc
 50
123.2806108536
 51
131.4096221097
  0
LWPOLYLINE
  5
19F
330
7A3
100
AcDbEntity
  8
0
  6
Continuous
 62
     7
100
AcDbPolyline
 90
        3
 70
   128
 43
0.0
 10
417.6170356688
 20
351.5540709219
 10
415.8347056775
 20
351.6904221348
 10
415.6614547657
 20
351.729904624
  0
LINE
  5
1A0
330
7A3
100
AcDbEntity
  8
0
  6
Continuous
 62
     7
100
AcDbLine
 10
414.9906128707
 20
351.8827868126
 30
0.0
 11
414.0914314023
 21
352.0877057187
 31
0.0
  0
LINE
  5
1A1
330
7A3
100
AcDbEntity
  8
0
  6
Continuous
 62
     7
100
AcDbLine
 10
414.0914314023
 20
401.0204368702
 30
0.0
 11
414.9908878437
 21
401.2254191063
 31
0.0
  0
LWPOLYLINE
  5
1A2
330
7A3
100
AcDbEntity
  8
0
  6
Continuous
 62
     7
100
AcDbPolyline
 90
        3
 70
   128
 43
0.0
 10
415.6614547657
 20
401.3782379649
 10
415.8347056775
 20
401.4177204541
 10
417.6170356688
 20
401.554071667
  0
LINE
  5
1A3
330
7A3
100
AcDbEntity
  8
0
  6
Continuous
 62
     7
100
AcDbLine
 10
404.6170395861
 20
366.054071436
 30
0.0
 11
405.61703975
 21
366.054071436
 31
0.0
  0
LINE
  5
1A4
330
7A3
100
AcDbEntity
  8
0
  6
Continuous
 62
     7
100
AcDbLine
 10
405.61703975
 20
387.0540711529
 30
0.0
 11
404.6170395861
 21
387.0540711529
 31
0.0
  0
ARC
  5
1A5
330
7A3
100
AcDbEntity
  8
0
  6
Continuous
 62
     7
100
AcDbCircle
 10
456.6173928499
 20
354.3837857298
 30
0.0
 40
28.99546076711304
100
AcDbArc
 50
173.9282356936
 51
181.5088356166
  0
ARC
  5
1A6
330
7A3
100
AcDbEntity
  8
0
  6
Continuous
 62
     7
100
AcDbCircle
 10
414.9644535696
 20
391.8668296204
 30
0.0
 40
8.532457286162318
100
AcDbArc
 50
129.4785836138
 51
146.1130642548
  0
ARC
  5
1A7
330
7A3
100
AcDbEntity
  8
0
  6
Continuous
 62
     7
100
AcDbCircle
 10
381.1170398543
 20
435.3540712945
 30
0.0
 40
1.5
100
AcDbArc
 50
90.0
 51
180.0
  0
LINE
  5
1A8
330
7A3
100
AcDbEntity
  8
0
  6
Continuous
 62
     7
100
AcDbLine
 10
379.6170410762
 20
435.3540719918
 30
0.0
 11
379.6170410762
 21
414.4815759234
 31
0.0
  0
LWPOLYLINE
  5
1A9
330
7A3
100
AcDbEntity
  8
0
  6
Continuous
 62
     7
100
AcDbPolyline
 90
        8
 70
   128
 43
0.0
 10
485.6734444449
 20
436.8532368414
 10
472.9141798863
 20
436.9885244838
 10
458.4438485155
 20
437.0440909139
 10
444.3929699311
 20
437.0738969616
 10
430.7615283007
 20
437.0920689277
 10
413.2386437679
 20
437.1885315947
 10
396.4614943663
 20
437.1935868136
 10
381.6205990562
 20
436.8532368414
  0
LWPOLYLINE
  5
1AA
330
7A3
100
AcDbEntity
  8
0
  6
Continuous
 62
     7
100
AcDbPolyline
 90
        3
 70
   128
 43
0.0
 10
383.9907628546
 20
412.5795768074
 10
383.4926021347
 20
411.6909274332
 10
383.2287584493
 20
411.1766734592
  0
ARC
  5
1AB
330
7A3
100
AcDbEntity
  8
0
  6
Continuous
 62
     7
100
AcDbCircle
 10
402.6170398543
 20
401.5540712945
 30
0.0
 40
21.64486082191342
100
AcDbArc
 50
9.0468459803
 51
9.305653843400002
  0
LINE
  5
1AC
330
7A3
100
AcDbEntity
  8
0
  6
Continuous
 62
     7
100
AcDbLine
 10
424.1170399884
 20
401.554071667
 30
0.0
 11
424.1170399884
 21
403.3851319424
 31
0.0
  0
ARC
  5
1AD
330
7A3
100
AcDbEntity
  8
0
  6
Continuous
 62
     7
100
AcDbCircle
 10
414.1170398543
 20
403.3851320695
 30
0.0
 40
10.00000000000007
100
AcDbArc
 50
0.0
 51
9.0468459803
  0
LWPOLYLINE
  5
1AE
330
7A3
100
AcDbEntity
  8
0
  6
Continuous
 62
     7
100
AcDbPolyline
 90
       16
 70
   128
 43
0.0
 10
427.6499935488
 20
354.8409560196
 10
427.6512610788
 20
354.8255575321
 10
427.6619507993
 20
354.9348817638
 10
427.6796235765
 20
355.1895779989
 10
427.7069811771
 20
355.587101864
 10
427.7475458632
 20
356.1243352912
 10
427.8928629184
 20
357.619121062
 10
428.177381965
 20
359.6327857546
 10
428.6933318774
 20
362.0783093817
 10
429.5716454337
 20
364.8290646694
 10
430.7912421475
 20
367.3955214641
 10
432.2291809196
 20
369.522686439
 10
433.8327777634
 20
371.2602684706
 10
435.5497156332
 20
372.657629751
 10
437.3495002339
 20
373.7706030685
 10
438.4727404515
 20
374.2906296126
  0
LWPOLYLINE
  5
1AF
330
7A3
100
AcDbEntity
  8
0
  6
Continuous
 62
     7
100
AcDbPolyline
 90
        8
 70
   128
 43
0.0
 10
518.7182744095
 20
376.7716371246
 10
519.8162515709
 20
377.1117834573
 10
521.0496355841
 20
377.6844119153
 10
522.4078168223
 20
378.545786111
 10
523.8815565655
 20
379.7440136283
 10
526.015447552
 20
381.9210816606
 10
528.3400435994
 20
384.7722358502
 10
530.872607703
 20
388.2146210841
  0
LINE
  5
1B0
330
7A3
100
AcDbEntity
  8
0
  6
Continuous
 62
     7
100
AcDbLine
 10
425.6170402343
 20
405.2540709696
 30
0.0
 11
425.6170402343
 21
409.5181108884
 31
0.0
  0
ARC
  5
1B1
330
7A3
100
AcDbEntity
  8
0
  6
Continuous
 62
     7
100
AcDbCircle
 10
425.4170398543
 20
405.2540712945
 30
0.0
 40
0.2000000000000455
100
AcDbArc
 50
270.0
 51
0.0
  0
LINE
  5
1B2
330
7A3
100
AcDbEntity
  8
0
  6
Continuous
 62
     7
100
AcDbLine
 10
516.6170393179
 20
373.0314216542
 30
0.0
 11
516.6170393179
 21
376.5540712945
 31
0.0
  0
LINE
  5
1B3
330
7A3
100
AcDbEntity
  8
0
  6
Continuous
 62
     7
100
AcDbLine
 10
492.6170428345
 20
376.5540712945
 30
0.0
 11
492.6170428345
 21
373.0314216542
 31
0.0
  0
LWPOLYLINE
  5
1B4
330
7A3
100
AcDbEntity
  8
0
  6
Continuous
 62
     7
100
AcDbPolyline
 90
        6
 70
   128
 43
0.0
 10
445.2192076544
 20
376.2041611214
 10
445.2164136866
 20
376.2037659787
 10
445.2570677797
 20
376.209323617
 10
445.486173133
 20
376.2396913977
 10
446.5066251407
 20
376.3559054957
 10
450.6657403956
 20
376.5538892823
  0
LINE
  5
1B5
330
7A3
100
AcDbEntity
  8
0
  6
Continuous
 62
     7
100
AcDbLine
 10
467.6170405994
 20
374.5540711995
 30
0.0
 11
467.6170405994
 21
376.5540712945
 31
0.0
  0
LINE
  5
1B6
330
7A3
100
AcDbEntity
  8
0
  6
Continuous
 62
     7
100
AcDbLine
 10
445.6170407186
 20
376.2593249582
 30
0.0
 11
445.6170407186
 21
374.5540711995
 31
0.0
  0
LINE
  5
1B7
330
7A3
100
AcDbEntity
  8
0
  6
Continuous
 62
     7
100
AcDbLine
 10
492.6170428345
 20
373.0314216542
 30
0.0
 11
493.6170374105
 21
372.4540712743
 31
0.0
  0
LINE
  5
1B8
330
7A3
100
AcDbEntity
  8
0
  6
Continuous
 62
     7
100
AcDbLine
 10
515.6170372913
 20
372.4540712743
 30
0.0
 11
516.6170393179
 21
373.0314216542
 31
0.0
  0
LINE
  5
1B9
330
7A3
100
AcDbEntity
  8
0
  6
Continuous
 62
     7
100
AcDbLine
 10
467.0170416186
 20
357.2040715686
 30
0.0
 11
467.0170416186
 21
374.5540711995
 31
0.0
  0
LINE
  5
1BA
330
7A3
100
AcDbEntity
  8
0
  6
Continuous
 62
     7
100
AcDbLine
 10
446.2170396993
 20
374.5540711995
 30
0.0
 11
446.2170396993
 21
357.2040715686
 31
0.0
  0
LINE
  5
1BB
330
7A3
100
AcDbEntity
  8
0
  6
Continuous
 62
     7
100
AcDbLine
 10
446.2170396993
 20
357.2040715686
 30
0.0
 11
447.1670390168
 21
356.2540703885
 31
0.0
  0
LINE
  5
1BC
330
7A3
100
AcDbEntity
  8
0
  6
Continuous
 62
     7
100
AcDbLine
 10
466.0670404384
 20
356.2540703885
 30
0.0
 11
467.0170416186
 21
357.2040715686
 31
0.0
  0
ARC
  5
1BD
330
7A3
100
AcDbEntity
  8
0
  6
Continuous
 62
     7
100
AcDbCircle
 10
450.1170398543
 20
409.9540712945
 30
0.0
 40
0.5
100
AcDbArc
 50
180.0
 51
270.0
  0
ARC
  5
1BE
330
7A3
100
AcDbEntity
  8
0
  6
Continuous
 62
     7
100
AcDbCircle
 10
463.1170398543
 20
409.9540712945
 30
0.0
 40
0.5
100
AcDbArc
 50
270.0
 51
0.0
  0
LINE
  5
1BF
330
7A3
100
AcDbEntity
  8
0
  6
Continuous
 62
     7
100
AcDbLine
 10
463.6170399437
 20
409.9540704362
 30
0.0
 11
463.6170399437
 21
418.9540700487
 31
0.0
  0
LINE
  5
1C0
330
7A3
100
AcDbEntity
  8
0
  6
Continuous
 62
     7
100
AcDbLine
 10
449.6170413742
 20
418.9540700487
 30
0.0
 11
449.6170413742
 21
409.9540704362
 31
0.0
  0
ARC
  5
1C1
330
7A3
100
AcDbEntity
  8
0
  6
Continuous
 62
     7
100
AcDbCircle
 10
450.1170398543
 20
418.9540712945
 30
0.0
 40
0.5
100
AcDbArc
 50
90.0
 51
180.0
  0
ARC
  5
1C2
330
7A3
100
AcDbEntity
  8
0
  6
Continuous
 62
     7
100
AcDbCircle
 10
463.1170398543
 20
418.9540712945
 30
0.0
 40
0.5
100
AcDbArc
 50
0.0
 51
90.0
  0
LINE
  5
1C3
330
7A3
100
AcDbEntity
  8
0
  6
Continuous
 62
     7
100
AcDbLine
 10
438.3500405649
 20
374.2338231265
 30
0.0
 11
438.47275349
 21
374.2906352005
 31
0.0
  0
LINE
  5
1C4
330
7A3
100
AcDbEntity
  8
0
  6
Continuous
 62
     7
100
AcDbLine
 10
425.6235175828
 20
413.054070758
 30
0.0
 11
425.7670399795
 21
413.054070758
 31
0.0
  0
LINE
  5
1C5
330
7A3
100
AcDbEntity
  8
0
  6
Continuous
 62
     7
100
AcDbLine
 10
425.7670399795
 20
413.054070758
 30
0.0
 11
426.3675875092
 21
413.2726521663
 31
0.0
  0
ARC
  5
1C6
330
7A3
100
AcDbEntity
  8
0
  6
Continuous
 62
     7
100
AcDbCircle
 10
426.2991831955
 20
413.4605911855
 30
0.0
 40
0.1999999999999886
100
AcDbArc
 50
289.9999999999999
 51
0.0
  0
LINE
  5
1C7
330
7A3
100
AcDbEntity
  8
0
  6
Continuous
 62
     7
100
AcDbLine
 10
426.499183389
 20
413.4605893365
 30
0.0
 11
426.499183389
 21
419.817119228
 31
0.0
  0
LINE
  5
1C8
330
7A3
100
AcDbEntity
  8
0
  6
Continuous
 62
     7
100
AcDbLine
 10
426.5690009171
 20
419.409695404
 30
0.0
 11
427.1116248394
 21
421.0038886837
 31
0.0
  0
ARC
  5
1C9
330
7A3
100
AcDbEntity
  8
0
  6
Continuous
 62
     7
100
AcDbCircle
 10
443.1248518162
 20
414.6667868566
 30
0.0
 40
17.21374059071036
100
AcDbArc
 50
91.3281916542
 51
157.6362722916
  0
LWPOLYLINE
  5
1CA
330
7A3
100
AcDbEntity
  8
0
  6
Continuous
 62
     7
100
AcDbPolyline
 90
        3
 70
   128
 43
0.0
 10
443.4857164571
 20
431.9210158161
 10
443.5061999658
 20
431.9251806907
 10
443.524481828
 20
431.9313199691
  0
LWPOLYLINE
  5
1CB
330
7A3
100
AcDbEntity
  8
0
  6
Continuous
 62
     7
100
AcDbPolyline
 90
        3
 70
   128
 43
0.0
 10
441.8235459427
 20
431.7936928443
 10
442.704226921
 20
431.8742708735
 10
443.6173533151
 20
431.9258437924
  0
LINE
  5
1CC
330
7A3
100
AcDbEntity
  8
0
  6
Continuous
 62
     7
100
AcDbLine
 10
459.1170382748
 20
408.9540721349
 30
0.0
 11
459.0670411537
 21
409.4540731482
 31
0.0
  0
LINE
  5
1CD
330
7A3
100
AcDbEntity
  8
0
  6
Continuous
 62
     7
100
AcDbLine
 10
454.1670401642
 20
409.4540731482
 30
0.0
 11
454.1170393179
 21
408.9540721349
 31
0.0
  0
LINE
  5
1CE
330
7A3
100
AcDbEntity
  8
0
  6
Continuous
 62
     7
100
AcDbLine
 10
459.1170382748
 20
401.554071667
 30
0.0
 11
459.1170382748
 21
408.9540721349
 31
0.0
  0
LINE
  5
1CF
330
7A3
100
AcDbEntity
  8
0
  6
Continuous
 62
     7
100
AcDbLine
 10
454.1170393179
 20
408.9540721349
 30
0.0
 11
454.1170393179
 21
401.554071667
 31
0.0
  0
LINE
  5
1D0
330
7A3
100
AcDbEntity
  8
0
  6
Continuous
 62
     7
100
AcDbLine
 10
361.6076541195
 20
341.5540711454
 30
0.0
 11
361.6076541195
 21
411.5540714435
 31
0.0
  0
LWPOLYLINE
  5
1D1
330
7A3
100
AcDbEntity
  8
0
  6
Continuous
 62
     7
100
AcDbPolyline
 90
       12
 70
   128
 43
0.0
 10
400.6484133253
 20
373.875896769
 10
401.3846778373
 20
373.7618584152
 10
402.0385547603
 20
373.4531275428
 10
402.8255670393
 20
372.7365930996
 10
403.5876599202
 20
371.341426248
 10
403.9624008412
 20
368.855730953
 10
403.8096061969
 20
367.5464143477
 10
403.3900025362
 20
366.284968654
 10
402.7751145015
 20
365.3104634456
 10
401.8378892044
 20
364.5371518529
 10
401.1322801063
 20
364.2810986809
 10
400.6484133253
 20
364.2322461552
  0
LINE
  5
1D2
330
7A3
100
AcDbEntity
  8
0
  6
Continuous
 62
     7
100
AcDbLine
 10
400.6484133253
 20
364.2322461552
 30
0.0
 11
391.5856667856
 21
364.2322461552
 31
0.0
  0
LWPOLYLINE
  5
1D3
330
7A3
100
AcDbEntity
  8
0
  6
Continuous
 62
     7
100
AcDbPolyline
 90
       12
 70
   128
 43
0.0
 10
391.5856667856
 20
364.2322461552
 10
390.8494022737
 20
364.3462838105
 10
390.195526282
 20
364.6550153814
 10
389.4085121403
 20
365.3715498246
 10
388.6464201907
 20
366.7667166761
 10
388.2716783384
 20
369.2524115055
 10
388.4244729827
 20
370.5617285765
 10
388.8440766434
 20
371.8231742702
 10
389.4589656094
 20
372.7976787801
 10
390.3961890439
 20
373.5709908384
 10
391.1018000046
 20
373.8270440105
 10
391.5856667856
 20
373.875896769
  0
LINE
  5
1D4
330
7A3
100
AcDbEntity
  8
0
  6
Continuous
 62
     7
100
AcDbLine
 10
391.5856667856
 20
373.875896769
 30
0.0
 11
400.6484133253
 21
373.875896769
 31
0.0
  0
LINE
  5
1D5
330
7A3
100
AcDbEntity
  8
0
  6
Continuous
 62
     7
100
AcDbLine
 10
404.6170395861
 20
362.0540717117
 30
0.0
 11
404.6170395861
 21
391.0540708772
 31
0.0
  0
LINE
  5
1D6
330
7A3
100
AcDbEntity
  8
0
  6
Continuous
 62
     7
100
AcDbLine
 10
400.6484133253
 20
391.5540709592
 30
0.0
 11
403.9624008412
 21
391.5540709592
 31
0.0
  0
LINE
  5
1D7
330
7A3
100
AcDbEntity
  8
0
  6
Continuous
 62
     7
100
AcDbLine
 10
400.6484133253
 20
361.5540716297
 30
0.0
 11
403.9650374154
 21
361.5540716297
 31
0.0
  0
LWPOLYLINE
  5
1D8
330
7A3
100
AcDbEntity
  8
0
  6
Continuous
 62
     7
100
AcDbPolyline
 90
       12
 70
   128
 43
0.0
 10
400.6484133253
 20
388.8758964337
 10
401.3846778373
 20
388.7618587784
 10
402.0385547603
 20
388.4531272075
 10
402.8255670393
 20
387.7365927644
 10
403.5876599202
 20
386.3414259128
 10
403.9624008412
 20
383.8557310834
 10
403.8096061969
 20
382.5464140124
 10
403.3900025362
 20
381.2849683187
 10
402.7751145015
 20
380.3104638088
 10
401.8378892044
 20
379.5371517505
 10
401.1322801063
 20
379.2810985784
 10
400.6484133253
 20
379.23224582
  0
LINE
  5
1D9
330
7A3
100
AcDbEntity
  8
0
  6
Continuous
 62
     7
100
AcDbLine
 10
400.6484133253
 20
379.23224582
 30
0.0
 11
391.5856667856
 21
379.23224582
 31
0.0
  0
LWPOLYLINE
  5
1DA
330
7A3
100
AcDbEntity
  8
0
  6
Continuous
 62
     7
100
AcDbPolyline
 90
       12
 70
   128
 43
0.0
 10
391.5856667856
 20
379.23224582
 10
390.8494022737
 20
379.3462841737
 10
390.195526282
 20
379.6550150461
 10
389.4085121403
 20
380.3715494893
 10
388.6464201907
 20
381.7667163409
 10
388.2716783384
 20
384.2524116359
 10
388.4244729827
 20
385.5617282412
 10
388.8440766434
 20
386.8231739349
 10
389.4589656094
 20
387.7976791433
 10
390.3961890439
 20
388.570990736
 10
391.1018000046
 20
388.827043908
 10
391.5856667856
 20
388.8758964337
  0
LINE
  5
1DB
330
7A3
100
AcDbEntity
  8
0
  6
Continuous
 62
     7
100
AcDbLine
 10
391.5856667856
 20
388.8758964337
 30
0.0
 11
400.6484133253
 21
388.8758964337
 31
0.0
  0
LINE
  5
1DC
330
7A3
100
AcDbEntity
  8
0
  6
Continuous
 62
     7
100
AcDbLine
 10
388.2690426955
 20
361.5540716297
 30
0.0
 11
391.5856667856
 21
361.5540716297
 31
0.0
  0
LINE
  5
1DD
330
7A3
100
AcDbEntity
  8
0
  6
Continuous
 62
     7
100
AcDbLine
 10
391.5856667856
 20
391.5540709592
 30
0.0
 11
388.3025237421
 21
391.5540709592
 31
0.0
  0
LINE
  5
1DE
330
7A3
100
AcDbEntity
  8
0
  6
Continuous
 62
     7
100
AcDbLine
 10
417.6170356688
 20
351.5540709219
 30
0.0
 11
426.1170403162
 21
351.5540709219
 31
0.0
  0
LINE
  5
1DF
330
7A3
100
AcDbEntity
  8
0
  6
Continuous
 62
     7
100
AcDbLine
 10
426.1170403162
 20
401.554071667
 30
0.0
 11
417.6170356688
 21
401.554071667
 31
0.0
  0
ARC
  5
1E0
330
7A3
100
AcDbEntity
  8
0
  6
Continuous
 62
     7
100
AcDbCircle
 10
426.1170398543
 20
400.0540712945
 30
0.0
 40
1.5
100
AcDbArc
 50
0.0
 51
90.0
  0
LINE
  5
1E1
330
7A3
100
AcDbEntity
  8
0
  6
Continuous
 62
     7
100
AcDbLine
 10
427.6170396308
 20
398.354071515
 30
0.0
 11
427.6170396308
 21
400.0540704898
 31
0.0
  0
LINE
  5
1E2
330
7A3
100
AcDbEntity
  8
0
  6
Continuous
 62
     7
100
AcDbLine
 10
427.6170396308
 20
353.0540720991
 30
0.0
 11
427.6170396308
 21
354.5540714137
 31
0.0
  0
ARC
  5
1E3
330
7A3
100
AcDbEntity
  8
0
  6
Continuous
 62
     7
100
AcDbCircle
 10
426.1170398543
 20
353.0540712945
 30
0.0
 40
1.5
100
AcDbArc
 50
270.0
 51
0.0
  0
ARC
  5
1E4
330
7A3
100
AcDbEntity
  8
0
  6
Continuous
 62
     7
100
AcDbCircle
 10
417.5983313814
 20
363.6444190028
 30
0.0
 40
12.08203838200628
100
AcDbArc
 50
187.4043219369
 51
259.7524410777
  0
ARC
  5
1E5
330
7A3
100
AcDbEntity
  8
0
  6
Continuous
 62
     7
100
AcDbCircle
 10
417.5999787483
 20
389.4621474301
 30
0.0
 40
12.08387520762009
100
AcDbArc
 50
100.2539220882
 51
172.5892736323
  0
LINE
  5
1E6
330
7A3
100
AcDbEntity
  8
0
  6
Continuous
 62
     7
100
AcDbLine
 10
427.6170396308
 20
354.5540714137
 30
0.0
 11
427.6170396308
 21
398.354071515
 31
0.0
  0
LINE
  5
1E7
330
7A3
100
AcDbEntity
  8
0
  6
Continuous
 62
     7
100
AcDbLine
 10
405.61703975
 20
370.4761456198
 30
0.0
 11
405.61703975
 21
376.5540712943
 31
0.0
  0
LINE
  5
1E8
330
7A3
100
AcDbEntity
  8
0
  6
Continuous
 62
     7
100
AcDbLine
 10
405.61703975
 20
382.6319969691
 30
0.0
 11
405.61703975
 21
376.5540712947
 31
0.0
  0
LINE
  5
1E9
330
7A3
100
AcDbEntity
  8
0
  6
Continuous
 62
     7
100
AcDbLine
 10
405.61703975
 20
362.087401884
 30
0.0
 11
405.61703975
 21
370.4761223368
 31
0.0
  0
LINE
  5
1EA
330
7A3
100
AcDbEntity
  8
0
  6
Continuous
 62
     7
100
AcDbLine
 10
405.61703975
 20
391.0207407049
 30
0.0
 11
405.61703975
 21
382.6320202521
 31
0.0
  0
ARC
  5
1EB
330
7A3
100
AcDbEntity
  8
0
  6
Continuous
 62
     7
100
AcDbCircle
 10
413.7082996956
 20
361.1307981979
 30
0.0
 40
7.487805167091858
100
AcDbArc
 50
199.1346695195
 51
222.2739376184
  0
LINE
  5
1EC
330
7A3
100
AcDbEntity
  8
0
  6
Continuous
 62
     7
100
AcDbLine
 10
414.1030189177
 20
352.121639388
 30
0.0
 11
414.8680710761
 21
351.9107134513
 31
0.0
  0
LINE
  5
1ED
330
7A3
100
AcDbEntity
  8
0
  6
Continuous
 62
     7
100
AcDbLine
 10
415.6614547657
 20
351.729904624
 30
0.0
 11
417.6170398543
 21
351.5540709219
 31
0.0
  0
LWPOLYLINE
  5
1EE
330
7A3
100
AcDbEntity
  8
0
  6
Continuous
 62
     7
100
AcDbPolyline
 90
        3
 70
   128
 43
0.0
 10
405.61703975
 20
391.0207500182
 10
405.6182541946
 20
391.0552173353
 10
405.6218407179
 20
391.0895170144
  0
ARC
  5
1EF
330
7A3
100
AcDbEntity
  8
0
  6
Continuous
 62
     7
100
AcDbCircle
 10
415.2103985591
 20
390.7483937657
 30
0.0
 40
9.426491473290849
100
AcDbArc
 50
138.3404529415
 51
165.2289340936
  0
LINE
  5
1F0
330
7A3
100
AcDbEntity
  8
0
  6
Continuous
 62
     7
100
AcDbLine
 10
414.1030189177
 20
400.9865032009
 30
0.0
 11
414.8680710761
 21
401.1974291376
 31
0.0
  0
LINE
  5
1F1
330
7A3
100
AcDbEntity
  8
0
  6
Continuous
 62
     7
100
AcDbLine
 10
415.6614547657
 20
401.3782379649
 30
0.0
 11
417.6170398543
 21
401.554071667
 31
0.0
  0
LINE
  5
1F2
330
7A3
100
AcDbEntity
  8
0
  6
Continuous
 62
     7
100
AcDbLine
 10
400.6484133253
 20
391.5540709592
 30
0.0
 11
391.5856667856
 21
391.5540709592
 31
0.0
  0
LINE
  5
1F3
330
7A3
100
AcDbEntity
  8
0
  6
Continuous
 62
     7
100
AcDbLine
 10
391.5856667856
 20
361.5540716297
 30
0.0
 11
400.6484133253
 21
361.5540716297
 31
0.0
  0
LINE
  5
1F4
330
7A3
100
AcDbEntity
  8
0
  6
Continuous
 62
     7
100
AcDbLine
 10
405.6216553847
 20
362.0199778549
 30
0.0
 11
405.6263492504
 21
361.9868712
 31
0.0
  0
LINE
  5
1F5
330
7A3
100
AcDbEntity
  8
0
  6
Continuous
 62
     7
100
AcDbLine
 10
405.6216553847
 20
391.088164734
 30
0.0
 11
405.6263492504
 21
391.1212713889
 31
0.0
  0
LWPOLYLINE
  5
1F6
330
7A3
100
AcDbEntity
  8
0
  6
Continuous
 62
     7
100
AcDbPolyline
 90
        3
 70
   128
 43
0.0
 10
427.7828066672
 20
357.4509949855
 10
427.7617550517
 20
357.2882314644
 10
427.6800687487
 20
355.1805441699
  0
LINE
  5
1F7
330
7A3
100
AcDbEntity
  8
0
  6
Continuous
 62
     7
100
AcDbLine
 10
439.4992311547
 20
401.554071667
 30
0.0
 11
426.1170403162
 21
401.554071667
 31
0.0
  0
LINE
  5
1F8
330
7A3
100
AcDbEntity
  8
0
  6
Continuous
 62
     7
100
AcDbLine
 10
417.6170398543
 20
401.554071667
 30
0.0
 11
402.6170485715
 21
401.554071667
 31
0.0
  0
LINE
  5
1F9
330
7A3
100
AcDbEntity
  8
0
  6
Continuous
 62
     7
100
AcDbLine
 10
402.6170401896
 20
401.554071667
 30
0.0
 11
402.1953252206
 21
401.554071667
 31
0.0
  0
LINE
  5
1FA
330
7A3
100
AcDbEntity
  8
0
  6
Continuous
 62
     7
100
AcDbLine
 10
402.6170401896
 20
351.5540709219
 30
0.0
 11
402.1953252206
 21
351.5540709219
 31
0.0
  0
LINE
  5
1FB
330
7A3
100
AcDbEntity
  8
0
  6
Continuous
 62
     7
100
AcDbLine
 10
417.6170398543
 20
351.5540709219
 30
0.0
 11
402.6170485715
 21
351.5540709219
 31
0.0
  0
LINE
  5
1FC
330
7A3
100
AcDbEntity
  8
0
  6
Continuous
 62
     7
100
AcDbLine
 10
387.5985910246
 20
401.554071667
 30
0.0
 11
402.1953028688
 21
401.554071667
 31
0.0
  0
LINE
  5
1FD
330
7A3
100
AcDbEntity
  8
0
  6
Continuous
 62
     7
100
AcDbLine
 10
387.5985910246
 20
351.5540709219
 30
0.0
 11
402.1953028688
 21
351.5540709219
 31
0.0
  0
ARC
  5
1FE
330
7A3
100
AcDbEntity
  8
0
  6
Continuous
 62
     7
100
AcDbCircle
 10
406.2701128575
 20
423.8475147914
 30
0.0
 40
18.79490685610085
100
AcDbArc
 50
247.2850261633
 51
270.7149868073
  0
LINE
  5
1FF
330
7A3
100
AcDbEntity
  8
0
  6
Continuous
 62
     7
100
AcDbLine
 10
381.2375088284
 20
436.8532368414
 30
0.0
 11
409.6468213076
 21
436.8532368414
 31
0.0
  0
LINE
  5
200
330
7A3
100
AcDbEntity
  8
0
  6
Continuous
 62
     7
100
AcDbLine
 10
528.1301309416
 20
401.554071667
 30
0.0
 11
439.4992311547
 21
401.554071667
 31
0.0
  0
LWPOLYLINE
  5
201
330
7A3
100
AcDbEntity
  8
0
  6
Continuous
 62
     7
100
AcDbPolyline
 90
        3
 70
   128
 43
0.0
 10
450.6170396755
 20
376.5540712945
 10
446.8667023877
 20
376.3892105805
 10
446.380907769
 20
376.3216011163
  0
LWPOLYLINE
  5
202
330
7A3
100
AcDbEntity
  8
0
  6
Continuous
 62
     7
100
AcDbPolyline
 90
       14
 70
   128
 43
0.0
 10
399.012513558
 20
406.5103934578
 10
396.4900617549
 20
407.5295323006
 10
394.0451164792
 20
408.5173526279
 10
391.7089962462
 20
409.4612070791
 10
389.5116151372
 20
410.3490070871
 10
387.481119583
 20
411.1693793408
 10
385.6435102472
 20
411.9118222467
 10
384.0223272393
 20
412.5668251387
 10
382.638326014
 20
413.1259949378
 10
381.5092389534
 20
413.5821753613
 10
380.6495201836
 20
413.929525154
 10
380.0701816628
 20
414.1635925941
 10
379.7786478946
 20
414.2813788227
 10
379.742117698
 20
414.2961384229
  0
LINE
  5
203
330
7A3
100
AcDbEntity
  8
0
  6
Continuous
 62
     7
100
AcDbLine
 10
406.5046460429
 20
405.0540713094
 30
0.0
 11
416.4953006959
 21
405.0540713094
 31
0.0
  0
LINE
  5
204
330
7A3
100
AcDbEntity
  8
0
  6
Continuous
 62
     7
100
AcDbLine
 10
503.6149715135
 20
376.5540712945
 30
0.0
 11
450.6170396755
 21
376.5540712945
 31
0.0
  0
LWPOLYLINE
  5
205
330
7A3
100
AcDbEntity
  8
0
  6
Continuous
 62
     7
100
AcDbPolyline
 90
        6
 70
   128
 43
0.0
 10
409.6468213076
 20
436.8530692033
 10
414.5612005206
 20
436.8531399838
 10
419.5444815388
 20
436.8532629184
 10
424.6687815586
 20
436.8533187977
 10
432.3875262464
 20
436.8531474344
 10
440.100424091
 20
436.8533486001
  0
LINE
  5
206
330
7A3
100
AcDbEntity
  8
0
  6
Continuous
 62
     7
100
AcDbLine
 10
531.1170389006
 20
389.1900268815
 30
0.0
 11
531.1170389006
 21
400.0540704898
 31
0.0
  0
ARC
  5
207
330
7A3
100
AcDbEntity
  8
0
  6
Continuous
 62
     7
100
AcDbCircle
 10
529.6170398543
 20
400.0540712945
 30
0.0
 40
1.5
100
AcDbArc
 50
0.0
 51
90.0
  0
LINE
  5
208
330
7A3
100
AcDbEntity
  8
0
  6
Continuous
 62
     7
100
AcDbLine
 10
529.6170433114
 20
401.554071667
 30
0.0
 11
528.1301309416
 21
401.554071667
 31
0.0
  0
LINE
  5
209
330
7A3
100
AcDbEntity
  8
0
  6
Continuous
 62
     7
100
AcDbLine
 10
513.8004069278
 20
376.5540712945
 30
0.0
 11
503.6149715135
 21
376.5540712945
 31
0.0
  0
LINE
  5
20A
330
7A3
100
AcDbEntity
  8
0
  6
Continuous
 62
     7
100
AcDbLine
 10
514.7990603993
 20
376.5540712945
 30
0.0
 11
513.8004069278
 21
376.5540712945
 31
0.0
  0
LWPOLYLINE
  5
20B
330
7A3
100
AcDbEntity
  8
0
  6
Continuous
 62
     7
100
AcDbPolyline
 90
        3
 70
   128
 43
0.0
 10
442.6170402268
 20
375.7210798527
 10
440.132275323
 20
374.9953042449
 10
438.4743236998
 20
374.2869245786
  0
LINE
  5
20C
330
7A3
100
AcDbEntity
  8
0
  6
Continuous
 62
     7
100
AcDbLine
 10
427.9635111863
 20
358.1191313885
 30
0.0
 11
427.6170396308
 21
353.5540675245
 31
0.0
  0
LINE
  5
20D
330
7A3
100
AcDbEntity
  8
0
  6
Continuous
 62
     7
100
AcDbLine
 10
531.1170389006
 20
389.1890275724
 30
0.0
 11
531.1170389006
 21
389.1013854615
 31
0.0
  0
LWPOLYLINE
  5
20E
330
7A3
100
AcDbEntity
  8
0
  6
Continuous
 62
     7
100
AcDbPolyline
 90
        3
 70
   128
 43
0.0
 10
531.1170389006
 20
389.1013854615
 10
531.036468322
 20
388.5842173792
 10
530.7974685977
 20
388.1092130638
  0
LINE
  5
20F
330
7A3
100
AcDbEntity
  8
0
  6
Continuous
 62
     7
100
AcDbLine
 10
516.8755446622
 20
376.5540712945
 30
0.0
 11
516.1229242632
 21
376.5540712945
 31
0.0
  0
LINE
  5
210
330
7A3
100
AcDbEntity
  8
0
  6
Continuous
 62
     7
100
AcDbLine
 10
516.1229242632
 20
376.5540712945
 30
0.0
 11
514.7990603993
 21
376.5540712945
 31
0.0
  0
LINE
  5
211
330
7A3
100
AcDbEntity
  8
0
  6
Continuous
 62
     7
100
AcDbLine
 10
516.8755446622
 20
376.5540712945
 30
0.0
 11
518.9990718911
 21
376.8586275134
 31
0.0
  0
LINE
  5
212
330
7A3
100
AcDbEntity
  8
0
  6
Continuous
 62
     7
100
AcDbLine
 10
530.1670675228
 20
387.2556140147
 30
0.0
 11
530.7974685977
 21
388.1092130638
 31
0.0
  0
LINE
  5
213
330
7A3
100
AcDbEntity
  8
0
  6
Continuous
 62
     7
100
AcDbLine
 10
425.7670399795
 20
417.9109552375
 30
0.0
 11
426.073920081
 21
418.8738719992
 31
0.0
  0
ARC
  5
214
330
7A3
100
AcDbEntity
  8
0
  6
Continuous
 62
     7
100
AcDbCircle
 10
436.8152047849
 20
415.1860963967
 30
0.0
 40
11.37922674307296
100
AcDbArc
 50
166.1453846559
 51
180.9217404315
  0
LINE
  5
215
330
7A3
100
AcDbEntity
  8
0
  6
Continuous
 62
     7
100
AcDbLine
 10
425.4170396427
 20
405.0540713094
 30
0.0
 11
416.4953006959
 21
405.0540713094
 31
0.0
  0
LINE
  5
216
330
7A3
100
AcDbEntity
  8
0
  6
Continuous
 62
     7
100
AcDbLine
 10
445.4293605933
 20
431.9525578491
 30
0.0
 11
440.8691060791
 21
431.9207215182
 31
0.0
  0
LINE
  5
217
330
7A3
100
AcDbEntity
  8
0
  6
Continuous
 62
     7
100
AcDbLine
 10
485.9337975333
 20
432.2353371851
 30
0.0
 11
445.4293605933
 21
431.9525578491
 31
0.0
  0
LINE
  5
218
330
7A3
100
AcDbEntity
  8
0
  6
Continuous
 62
     7
100
AcDbLine
 10
488.6170421789
 20
435.3540719918
 30
0.0
 11
488.6170421789
 21
433.7436364464
 31
0.0
  0
ARC
  5
219
330
7A3
100
AcDbEntity
  8
0
  6
Continuous
 62
     7
100
AcDbCircle
 10
487.1170398543
 20
433.7436357036
 30
0.0
 40
1.5
100
AcDbArc
 50
270.4
 51
0.0
  0
LWPOLYLINE
  5
21A
330
7A3
100
AcDbEntity
  8
0
  6
Continuous
 62
     7
100
AcDbPolyline
 90
        8
 70
   128
 43
0.0
 10
487.1275146554
 20
432.2436706595
 10
487.1061463902
 20
432.2435216478
 10
487.0473166058
 20
432.2431118659
 10
487.0018829653
 20
432.2427952162
 10
486.9745467851
 20
432.2426052264
 10
486.9337772081
 20
432.2423183791
 10
486.7319037268
 20
432.2409102193
 10
485.9337975333
 20
432.2353371851
  0
ARC
  5
21B
330
7A3
100
AcDbEntity
  8
0
  6
Continuous
 62
     7
100
AcDbCircle
 10
487.1170398543
 20
435.3540712945
 30
0.0
 40
1.500000000000014
100
AcDbArc
 50
0.0
 51
88.0897868283
  0
LINE
  5
21C
330
7A3
100
AcDbEntity
  8
0
  6
Continuous
 62
     7
100
AcDbLine
 10
516.6170393179
 20
373.0314216542
 30
0.0
 11
509.412871773
 21
373.0314216542
 31
0.0
  0
LINE
  5
21D
330
7A3
100
AcDbEntity
  8
0
  6
Continuous
 62
     7
100
AcDbLine
 10
509.412871773
 20
373.0314216542
 30
0.0
 11
509.412871773
 21
376.454071297
 31
0.0
  0
LINE
  5
21E
330
7A3
100
AcDbEntity
  8
0
  6
Continuous
 62
     7
100
AcDbLine
 10
499.8212103794
 20
376.454071297
 30
0.0
 11
499.8212103794
 21
373.0314216542
 31
0.0
  0
LINE
  5
21F
330
7A3
100
AcDbEntity
  8
0
  6
Continuous
 62
     7
100
AcDbLine
 10
499.8212103794
 20
373.0314216542
 30
0.0
 11
492.6170428345
 21
373.0314216542
 31
0.0
  0
LINE
  5
220
330
7A3
100
AcDbEntity
  8
0
  6
Continuous
 62
     7
100
AcDbLine
 10
445.2999309698
 20
376.2029914384
 30
0.0
 11
442.6169508199
 21
375.7220586728
 31
0.0
  0
LINE
  5
221
330
7A3
100
AcDbEntity
  8
0
  6
Continuous
 62
     7
100
AcDbLine
 10
467.6170405994
 20
374.5540711995
 30
0.0
 11
445.6170407186
 21
374.5540711995
 31
0.0
  0
LINE
  5
222
330
7A3
100
AcDbEntity
  8
0
  6
Continuous
 62
     7
100
AcDbLine
 10
504.6170373509
 20
372.4540712743
 30
0.0
 11
493.6170374105
 21
372.4540712743
 31
0.0
  0
LWPOLYLINE
  5
223
330
7A3
100
AcDbEntity
  8
0
  6
Continuous
 62
     7
100
AcDbPolyline
 90
        3
 70
   128
 43
0.0
 10
499.8212103794
 20
373.0314216542
 10
502.1878202508
 20
372.6070912986
 10
504.6170373509
 20
372.4540712743
  0
LWPOLYLINE
  5
224
330
7A3
100
AcDbEntity
  8
0
  6
Continuous
 62
     7
100
AcDbPolyline
 90
        3
 70
   128
 43
0.0
 10
504.6170373509
 20
372.4540712743
 10
505.8278386543
 20
372.4924287259
 10
509.412871773
 20
373.0314216542
  0
LINE
  5
225
330
7A3
100
AcDbEntity
  8
0
  6
Continuous
 62
     7
100
AcDbLine
 10
515.6170372913
 20
372.4540712743
 30
0.0
 11
504.6170373509
 21
372.4540712743
 31
0.0
  0
LINE
  5
226
330
7A3
100
AcDbEntity
  8
0
  6
Continuous
 62
     7
100
AcDbLine
 10
467.0170416186
 20
357.2040715686
 30
0.0
 11
446.2170396993
 21
357.2040715686
 31
0.0
  0
LINE
  5
227
330
7A3
100
AcDbEntity
  8
0
  6
Continuous
 62
     7
100
AcDbLine
 10
466.0670404384
 20
356.2540703885
 30
0.0
 11
447.1670390168
 21
356.2540703885
 31
0.0
  0
LINE
  5
228
330
7A3
100
AcDbEntity
  8
0
  6
Continuous
 62
     7
100
AcDbLine
 10
463.1170389304
 20
409.4540731482
 30
0.0
 11
450.1170386622
 21
409.4540731482
 31
0.0
  0
LINE
  5
229
330
7A3
100
AcDbEntity
  8
0
  6
Continuous
 62
     7
100
AcDbLine
 10
450.1170386622
 20
419.454071062
 30
0.0
 11
463.1170389304
 21
419.454071062
 31
0.0
  0
LINE
  5
22A
330
7A3
100
AcDbEntity
  8
0
  6
Continuous
 62
     7
100
AcDbLine
 10
425.7670399795
 20
413.054070758
 30
0.0
 11
425.7670399795
 21
417.9109552375
 31
0.0
  0
LWPOLYLINE
  5
22B
330
7A3
100
AcDbEntity
  8
0
  6
Continuous
 62
     7
100
AcDbPolyline
 90
        5
 70
   128
 43
0.0
 10
425.4372400293
 20
415.0029265753
 10
425.4919645438
 20
414.0561589471
 10
425.5804532269
 20
413.3530774585
 10
425.6273406619
 20
413.059204208
 10
425.6235175828
 20
413.0825208
  0
LINE
  5
22C
330
7A3
100
AcDbEntity
  8
0
  6
Continuous
 62
     7
100
AcDbLine
 10
426.3675875092
 20
419.5852869622
 30
0.0
 11
426.0738241548
 21
418.874061989
 31
0.0
  0
LWPOLYLINE
  5
22D
330
7A3
100
AcDbEntity
  8
0
  6
Continuous
 62
     7
100
AcDbPolyline
 90
        6
 70
   128
 43
0.0
 10
426.4977621908
 20
419.7959633044
 10
426.4991815264
 20
419.808726149
 10
426.4969649786
 20
419.8150926701
 10
426.485275949
 20
419.8064388208
 10
426.4313318828
 20
419.7166220717
 10
426.3675875092
 20
419.5852869622
  0
LINE
  5
22E
330
7A3
100
AcDbEntity
  8
0
  6
Continuous
 62
     7
100
AcDbLine
 10
427.1797464291
 20
421.304072576
 30
0.0
 11
427.1405377487
 21
421.2411822251
 31
0.0
  0
LINE
  5
22F
330
7A3
100
AcDbEntity
  8
0
  6
Continuous
 62
     7
100
AcDbLine
 10
427.1797464291
 20
421.304072576
 30
0.0
 11
427.4041998262
 21
421.7379534117
 31
0.0
  0
LINE
  5
230
330
7A3
100
AcDbEntity
  8
0
  6
Continuous
 62
     7
100
AcDbLine
 10
440.9166258822
 20
431.6342019908
 30
0.0
 11
442.6979516695
 21
431.850242751
 31
0.0
  0
LINE
  5
231
330
7A3
100
AcDbEntity
  8
0
  6
Continuous
 62
     7
100
AcDbLine
 10
425.6169452394
 20
409.5178277663
 30
0.0
 11
425.6236256162
 21
412.8040702514
 31
0.0
  0
LINE
  5
232
330
7A3
100
AcDbEntity
  8
0
  6
Continuous
 62
     7
100
AcDbLine
 10
459.1170382748
 20
408.9540721349
 30
0.0
 11
454.1170393179
 21
408.9540721349
 31
0.0
  0
LWPOLYLINE
  5
233
330
7A3
100
AcDbEntity
  8
0
  6
Continuous
 62
     7
100
AcDbPolyline
 90
        3
 70
   128
 43
0.0
 10
408.1698945785
 20
356.1013744644
 10
408.1353359917
 20
356.1378562323
 10
406.9975745926
 20
357.8788762412
  0
LINE
  5
234
330
7A3
100
AcDbEntity
  8
0
  6
Continuous
 62
     7
100
AcDbLine
 10
409.4131124268
 20
398.3191804461
 30
0.0
 11
409.2500732342
 21
398.147068309
 31
0.0
  0
LWPOLYLINE
  5
235
330
7A3
100
AcDbEntity
  8
0
  6
Continuous
 62
     7
100
AcDbPolyline
 90
        3
 70
   128
 43
0.0
 10
408.5755377138
 20
397.4349939696
 10
408.1353276098
 20
396.970284494
 10
406.9975745926
 20
395.2292663477
  0
LINE
  5
236
330
7A3
100
AcDbEntity
  8
0
  6
Continuous
 62
     8
100
AcDbLine
 10
385.5673541377
 20
341.9722908608
 30
0.0
 11
385.5673541377
 21
411.1358517281
 31
0.0
  0
LINE
  5
237
330
7A3
100
AcDbEntity
  8
0
  6
Continuous
 62
     8
100
AcDbLine
 10
387.5323069344
 20
343.9482183627
 30
0.0
 11
387.5323069344
 21
409.1599242262
 31
0.0
  0
LINE
  5
238
330
7A3
100
AcDbEntity
  8
0
  6
Continuous
 62
     8
100
AcDbLine
 10
400.6484133253
 20
388.8758964337
 30
0.0
 11
400.6484133253
 21
391.5540709592
 31
0.0
  0
LINE
  5
239
330
7A3
100
AcDbEntity
  8
0
  6
Continuous
 62
     8
100
AcDbLine
 10
400.6484133253
 20
361.5540716297
 30
0.0
 11
400.6484133253
 21
364.2322461552
 31
0.0
  0
LINE
  5
23A
330
7A3
100
AcDbEntity
  8
0
  6
Continuous
 62
     8
100
AcDbLine
 10
400.6484133253
 20
373.875896769
 30
0.0
 11
400.6484133253
 21
379.23224582
 31
0.0
  0
LINE
  5
23B
330
7A3
100
AcDbEntity
  8
0
  6
Continuous
 62
     8
100
AcDbLine
 10
391.5856667856
 20
373.875896769
 30
0.0
 11
391.5856667856
 21
379.23224582
 31
0.0
  0
LINE
  5
23C
330
7A3
100
AcDbEntity
  8
0
  6
Continuous
 62
     8
100
AcDbLine
 10
391.5856667856
 20
361.5540716297
 30
0.0
 11
391.5856667856
 21
364.2322461552
 31
0.0
  0
LINE
  5
23D
330
7A3
100
AcDbEntity
  8
0
  6
Continuous
 62
     8
100
AcDbLine
 10
391.5856667856
 20
388.8758964337
 30
0.0
 11
391.5856667856
 21
391.5540709592
 31
0.0
  0
LINE
  5
23E
330
7A3
100
AcDbEntity
  8
0
  6
Continuous
 62
     8
100
AcDbLine
 10
417.6170356688
 20
351.5540709219
 30
0.0
 11
415.4489171753
 21
351.7551099382
 31
0.0
  0
LINE
  5
23F
330
7A3
100
AcDbEntity
  8
0
  6
Continuous
 62
     8
100
AcDbLine
 10
417.6170356688
 20
401.554071667
 30
0.0
 11
415.4489171753
 21
401.3530252002
 31
0.0
  0
LWPOLYLINE
  5
240
330
7A3
100
AcDbEntity
  8
0
  6
Continuous
 62
     8
100
AcDbPolyline
 90
        9
 70
   128
 43
0.0
 10
439.5137951771
 20
374.9061805162
 10
436.4377261201
 20
373.5101137742
 10
433.817284281
 20
371.6558034963
 10
431.6465036074
 20
369.2895535811
 10
429.9454038093
 20
366.3909736521
 10
429.2345727856
 20
364.6391894169
 10
428.6526042098
 20
362.7325569711
 10
428.1993090237
 20
360.6712532661
 10
427.7828066672
 20
357.4509949855
  0
LWPOLYLINE
  5
241
330
7A3
100
AcDbEntity
  8
0
  6
Continuous
 62
     8
100
AcDbPolyline
 90
        4
 70
   128
 43
0.0
 10
428.3257537583
 20
388.5540658108
 10
428.1349192435
 20
388.5540658108
 10
427.6919328669
 20
388.5540648795
 10
427.6170396308
 20
388.5540648795
  0
ARC
  5
242
330
7A3
100
AcDbEntity
  8
0
  6
Continuous
 62
     8
100
AcDbCircle
 10
441.5854961992
 20
627.0812456214
 30
0.0
 40
238.9180919725151
100
AcDbArc
 50
266.8185220167
 51
269.5028587987
  0
ARC
  5
243
330
7A3
100
AcDbEntity
  8
0
  6
Continuous
 62
     8
100
AcDbCircle
 10
440.8095101679
 20
211.0801794346
 30
0.0
 40
177.9124068736277
100
AcDbArc
 50
90.41775656420002
 51
94.0236361983
  0
ARC
  5
244
330
7A3
100
AcDbEntity
  8
0
  6
Continuous
 62
     8
100
AcDbCircle
 10
407.1690629964
 20
397.5349188682
 30
0.0
 40
6.394675834334832
100
AcDbArc
 50
141.0593173859
 51
151.265755537
  0
ARC
  5
245
330
7A3
100
AcDbEntity
  8
0
  6
Continuous
 62
     8
100
AcDbCircle
 10
369.8004248186
 20
349.6660682416
 30
0.0
 40
59.85379484079028
100
AcDbArc
 50
50.92960336429999
 51
58.2339871682
  0
LINE
  5
246
330
7A3
100
AcDbEntity
  8
0
  6
Continuous
 62
     8
100
AcDbLine
 10
401.5618340174
 20
400.6091443322
 30
0.0
 11
401.3105482856
 21
400.5540715031
 31
0.0
  0
LINE
  5
247
330
7A3
100
AcDbEntity
  8
0
  6
Continuous
 62
     8
100
AcDbLine
 10
401.5618340174
 20
352.4989982567
 30
0.0
 11
401.3105482856
 21
352.5540710858
 31
0.0
  0
ARC
  5
248
330
7A3
100
AcDbEntity
  8
0
  6
Continuous
 62
     8
100
AcDbCircle
 10
390.5403206578
 20
324.3810090312
 30
0.0
 40
68.50847509999005
100
AcDbArc
 50
77.26862716300002
 51
82.91858798599999
  0
ARC
  5
249
330
7A3
100
AcDbEntity
  8
0
  6
Continuous
 62
     8
100
AcDbCircle
 10
423.392319152
 20
389.860945051
 30
0.0
 40
24.53461957965237
100
AcDbArc
 50
154.1613529228
 51
174.1376104698
  0
LINE
  5
24A
330
7A3
100
AcDbEntity
  8
0
  6
Continuous
 62
     8
100
AcDbLine
 10
404.6170395861
 20
390.9146947286
 30
0.0
 11
405.61703975
 21
390.9146947286
 31
0.0
  0
LWPOLYLINE
  5
24B
330
7A3
100
AcDbEntity
  8
0
  6
Continuous
 62
     8
100
AcDbPolyline
 90
        3
 70
   128
 43
0.0
 10
398.9860137055
 20
392.3669004313
 10
398.9337273935
 20
391.756994041
 10
398.9257012556
 20
391.5540709592
  0
LINE
  5
24C
330
7A3
100
AcDbEntity
  8
0
  6
Continuous
 62
     8
100
AcDbLine
 10
404.6170395861
 20
362.1934478603
 30
0.0
 11
405.61703975
 21
362.1934478603
 31
0.0
  0
LINE
  5
24D
330
7A3
100
AcDbEntity
  8
0
  6
Continuous
 62
     8
100
AcDbLine
 10
401.3105482856
 20
400.5540715031
 30
0.0
 11
387.6037188867
 21
400.5540715031
 31
0.0
  0
LWPOLYLINE
  5
24E
330
7A3
100
AcDbEntity
  8
0
  6
Continuous
 62
     8
100
AcDbPolyline
 90
        4
 70
   128
 43
0.0
 10
439.5123218248
 20
388.9881506062
 10
441.4662626634
 20
389.0105274937
 10
446.0428469876
 20
389.0450003988
 10
450.6195467959
 20
389.0551583342
  0
LWPOLYLINE
  5
24F
330
7A3
100
AcDbEntity
  8
0
  6
Continuous
 62
     8
100
AcDbPolyline
 90
        5
 70
   128
 43
0.0
 10
450.6170322249
 20
388.1329571328
 10
450.6169726203
 20
388.1329571328
 10
446.0448958973
 20
388.1385813899
 10
441.4730445544
 20
388.1588413812
 10
439.5207391182
 20
388.1729807205
  0
LINE
  5
250
330
7A3
100
AcDbEntity
  8
0
  6
Continuous
 62
     8
100
AcDbLine
 10
450.6195467959
 20
389.0551583342
 30
0.0
 11
503.618532891
 21
389.0364927671
 31
0.0
  0
LWPOLYLINE
  5
251
330
7A3
100
AcDbEntity
  8
0
  6
Continuous
 62
     8
100
AcDbPolyline
 90
        3
 70
   128
 43
0.0
 10
527.6934822152
 20
389.1805748887
 10
527.6948903749
 20
389.1805981717
 10
528.1432216117
 20
389.1896282754
  0
LWPOLYLINE
  5
252
330
7A3
100
AcDbEntity
  8
0
  6
Continuous
 62
     8
100
AcDbPolyline
 90
        4
 70
   128
 43
0.0
 10
503.618532891
 20
389.0364927671
 10
514.2989997814
 20
389.0453449882
 10
524.979265506
 20
389.1340422876
 10
527.6934822152
 20
389.1807341448
  0
LWPOLYLINE
  5
253
330
7A3
100
AcDbEntity
  8
0
  6
Continuous
 62
     8
100
AcDbPolyline
 90
        5
 70
   128
 43
0.0
 10
503.615709121
 20
388.1434242673
 10
500.2158303807
 20
388.1426829345
 10
486.6163079689
 20
388.1397716201
 10
473.016785557
 20
388.1371695049
 10
450.6170322249
 20
388.1329571328
  0
LWPOLYLINE
  5
254
330
7A3
100
AcDbEntity
  8
0
  6
Continuous
 62
     8
100
AcDbPolyline
 90
        3
 70
   128
 43
0.0
 10
446.380907769
 20
376.3216011163
 10
443.1531616548
 20
375.8723858361
 10
439.513979579
 20
374.9056616531
  0
LWPOLYLINE
  5
255
330
7A3
100
AcDbEntity
  8
0
  6
Continuous
 62
     8
100
AcDbPolyline
 90
        5
 70
   128
 43
0.0
 10
527.7097840855
 20
388.0718949682
 10
524.9928926179
 20
388.0901908002
 10
514.2989774296
 20
388.1370363257
 10
503.6157761762
 20
388.1434233359
 10
503.615709121
 20
388.1434233359
  0
LWPOLYLINE
  5
256
330
7A3
100
AcDbEntity
  8
0
  6
Continuous
 62
     8
100
AcDbPolyline
 90
       12
 70
   128
 43
0.0
 10
528.1432216117
 20
389.1896282754
 10
528.1432812164
 20
389.1896310694
 10
528.8300459335
 20
389.2418866477
 10
529.7026355813
 20
389.3182057388
 10
530.1441048334
 20
389.342397774
 10
530.4695834467
 20
389.3451582141
 10
530.7200868676
 20
389.3420392148
 10
530.8860410998
 20
389.3252893783
 10
531.0946201036
 20
389.2438256613
 10
531.1169122407
 20
389.1968022532
 10
531.1170389006
 20
389.1912683345
 10
531.1170389006
 20
389.1912664718
  0
LWPOLYLINE
  5
257
330
7A3
100
AcDbEntity
  8
0
  6
Continuous
 62
     8
100
AcDbPolyline
 90
        3
 70
   128
 43
0.0
 10
531.1170389006
 20
389.1890275724
 10
531.0089980314
 20
388.5909797124
 10
530.7005886982
 20
388.0710139371
  0
LWPOLYLINE
  5
258
330
7A3
100
AcDbEntity
  8
0
  6
Continuous
 62
     8
100
AcDbPolyline
 90
       11
 70
   128
 43
0.0
 10
530.7005886982
 20
388.0710130058
 10
530.7005886982
 20
388.0710139371
 10
530.6756590555
 20
388.0563185982
 10
530.566627259
 20
388.0355165772
 10
530.1995148013
 20
388.0390416331
 10
530.0814454505
 20
388.0510584883
 10
530.0380160163
 20
388.0539167173
 10
529.988953943
 20
388.0515567459
 10
529.7520925353
 20
388.0366444088
 10
528.9449338863
 20
388.0403426907
 10
528.1891842434
 20
388.0639247097
  0
LWPOLYLINE
  5
259
330
7A3
100
AcDbEntity
  8
0
  6
Continuous
 62
     8
100
AcDbPolyline
 90
        3
 70
   128
 43
0.0
 10
528.1891842434
 20
388.0639247097
 10
527.7106036494
 20
388.072835604
 10
527.7105440447
 20
388.0728309474
  0
LWPOLYLINE
  5
25A
330
7A3
100
AcDbEntity
  8
0
  6
Continuous
 62
     8
100
AcDbPolyline
 90
        9
 70
   128
 43
0.0
 10
485.9235827873
 20
436.8535832934
 10
486.4749406526
 20
436.8539558224
 10
486.7477138588
 20
436.8536056451
 10
486.8799616644
 20
436.8529797963
 10
486.9430755327
 20
436.8525849156
 10
487.0002587388
 20
436.8523055188
 10
487.0394413421
 20
436.8525402121
 10
487.1504996965
 20
436.8540042512
 10
487.1670399854
 20
436.8534901611
  0
LINE
  5
25B
330
7A3
100
AcDbEntity
  8
0
  6
Continuous
 62
     8
100
AcDbLine
 10
445.4191495726
 20
436.8532368414
 30
0.0
 11
485.9235827873
 21
436.8532368414
 31
0.0
  0
LWPOLYLINE
  5
25C
330
7A3
100
AcDbEntity
  8
0
  6
Continuous
 62
     8
100
AcDbPolyline
 90
        3
 70
   128
 43
0.0
 10
440.100424091
 20
436.8533486001
 10
442.7596462021
 20
436.8531139068
 10
445.4191514353
 20
436.8529946975
  0
ARC
  5
25D
330
7A3
100
AcDbEntity
  8
0
  6
Continuous
 62
     8
100
AcDbCircle
 10
448.7392621324
 20
350.4531874212
 30
0.0
 40
25.99899976904953
100
AcDbArc
 50
93.7234673835
 51
103.6198676556
  0
ARC
  5
25E
330
7A3
100
AcDbEntity
  8
0
  6
Continuous
 62
     8
100
AcDbCircle
 10
530.5577200437
 20
388.5744437559
 30
0.0
 40
0.5233726836077084
100
AcDbArc
 50
285.8330087322
 51
297.2635283467
  0
LINE
  5
25F
330
7A3
100
AcDbEntity
  8
0
  6
Continuous
 62
     8
100
AcDbLine
 10
425.3600846106
 20
412.9821093253
 30
0.0
 11
425.3600846106
 21
412.9464247696
 31
0.0
  0
LINE
  5
260
330
7A3
100
AcDbEntity
  8
0
  6
Continuous
 62
     8
100
AcDbLine
 10
426.2677944327
 20
419.5660905413
 30
0.0
 11
426.0738036657
 21
418.8739837579
 31
0.0
  0
LINE
  5
261
330
7A3
100
AcDbEntity
  8
0
  6
Continuous
 62
     8
100
AcDbLine
 10
425.437244686
 20
415.0029936306
 30
0.0
 11
425.4064952085
 21
414.5420150332
 31
0.0
  0
ARC
  5
262
330
7A3
100
AcDbEntity
  8
0
  6
Continuous
 62
     8
100
AcDbCircle
 10
436.8190237412
 20
415.1336800453
 30
0.0
 40
11.44441671666295
100
AcDbArc
 50
147.7464759826
 51
157.2151432181
  0
ARC
  5
263
330
7A3
100
AcDbEntity
  8
0
  6
Continuous
 62
     8
100
AcDbCircle
 10
440.1015317052
 20
415.495398451
 30
0.0
 40
14.7259299264885
100
AcDbArc
 50
183.71060552
 51
190.5306317019
  0
LINE
  5
264
330
7A3
100
AcDbEntity
  8
0
  6
Continuous
 62
     8
100
AcDbLine
 10
530.7958518217
 20
388.10844286
 30
0.0
 11
530.7974685977
 21
388.1092130638
 31
0.0
  0
LINE
  5
265
330
7A3
100
AcDbEntity
  8
0
  6
Continuous
 62
     7
100
AcDbLine
 10
88.5826252449
 20
278.8303656482
 30
0.0
 11
89.000841235
 21
254.87066563
 31
0.0
  0
LINE
  5
266
330
7A3
100
AcDbEntity
  8
0
  6
Continuous
 62
     7
100
AcDbLine
 10
158.1644058276
 20
254.87066563
 30
0.0
 11
158.5826255429
 21
278.8303656482
 31
0.0
  0
ARC
  5
267
330
7A3
100
AcDbEntity
  8
0
  6
Continuous
 62
     7
100
AcDbCircle
 10
91.0005381209
 20
254.9055711007
 30
0.0
 40
1.999999999999869
100
AcDbArc
 50
181.0
 51
269.3191140165
  0
ARC
  5
268
330
7A3
100
AcDbEntity
  8
0
  6
Continuous
 62
     7
100
AcDbCircle
 10
156.1647111769
 20
254.9055711007
 30
0.0
 40
1.999999999999855
100
AcDbArc
 50
270.6808859835
 51
358.9999999999999
  0
ARC
  5
269
330
7A3
100
AcDbEntity
  8
0
  6
Continuous
 62
     7
100
AcDbCircle
 10
105.2368783203
 20
1452.8209798913
 30
0.0
 40
1200.0
100
AcDbArc
 50
269.3191140165
 51
270.0
  0
ARC
  5
26A
330
7A3
100
AcDbEntity
  8
0
  6
Continuous
 62
     7
100
AcDbCircle
 10
141.9283709775
 20
1452.8209798913
 30
0.0
 40
1200.0
100
AcDbArc
 50
270.0
 51
270.6808859835
  0
LINE
  5
26B
330
7A3
100
AcDbEntity
  8
0
  6
Continuous
 62
     7
100
AcDbLine
 10
105.2368782509
 20
252.8209792428
 30
0.0
 11
141.928372537
 21
252.8209792428
 31
0.0
  0
LWPOLYLINE
  5
26C
330
7A3
100
AcDbEntity
  8
0
  6
Continuous
 62
     7
100
AcDbPolyline
 90
       10
 70
   128
 43
0.0
 10
289.0735246289
 20
223.7121640566
 10
288.9713026632
 20
225.9600787867
 10
288.7773640502
 20
228.0508097239
 10
288.5278292049
 20
229.9427822211
 10
288.2600106347
 20
231.5768556648
 10
287.985114013
 20
232.8992200994
 10
287.68055663
 20
233.8888518491
 10
287.3217292178
 20
234.5028402262
 10
287.0936296929
 20
234.7043914699
 10
286.8995569695
 20
234.8032606744
  0
LWPOLYLINE
  5
26D
330
7A3
100
AcDbEntity
  8
0
  6
Continuous
 62
     7
100
AcDbPolyline
 90
       10
 70
   128
 43
0.0
 10
110.2656923283
 20
234.8032606744
 10
110.0210227121
 20
234.6682431155
 10
109.8435200799
 20
234.5028402262
 10
109.4846926678
 20
233.8888518491
 10
109.1801352847
 20
232.8992200994
 10
108.905238663
 20
231.5768556648
 10
108.6374200929
 20
229.9427822211
 10
108.3878852475
 20
228.0508097239
 10
108.1939466346
 20
225.9600787867
 10
108.0917246688
 20
223.7121640566
  0
ARC
  5
26E
330
7A3
100
AcDbEntity
  8
0
  6
Continuous
 62
     7
100
AcDbCircle
 10
113.5826246488
 20
248.8523529247
 30
0.0
 40
5.999999999875754
100
AcDbArc
 50
138.5903778903
 51
180.0000000009
  0
ARC
  5
26F
330
7A3
100
AcDbEntity
  8
0
  6
Continuous
 62
     7
100
AcDbCircle
 10
133.582624649
 20
248.8523529247
 30
0.0
 40
5.99999999987574
100
AcDbArc
 50
359.9999999991001
 51
41.4096221097
  0
ARC
  5
270
330
7A3
100
AcDbEntity
  8
0
  6
Continuous
 62
     7
100
AcDbCircle
 10
263.5826246488
 20
248.8523529247
 30
0.0
 40
5.99999999987574
100
AcDbArc
 50
138.5903778903
 51
180.0000000009
  0
ARC
  5
271
330
7A3
100
AcDbEntity
  8
0
  6
Continuous
 62
     7
100
AcDbCircle
 10
283.582624649
 20
248.8523529247
 30
0.0
 40
5.999999999875772
100
AcDbArc
 50
359.9999999991001
 51
41.4096221097
  0
ARC
  5
272
330
7A3
100
AcDbEntity
  8
0
  6
Continuous
 62
     7
100
AcDbCircle
 10
113.5826246489
 20
239.7896068578
 30
0.0
 40
6.000000000000028
100
AcDbArc
 50
180.0
 51
221.4096221093
  0
ARC
  5
273
330
7A3
100
AcDbEntity
  8
0
  6
Continuous
 62
     7
100
AcDbCircle
 10
133.5826246489
 20
239.7896068578
 30
0.0
 40
6.000000000000028
100
AcDbArc
 50
318.5903778906999
 51
0.0
  0
ARC
  5
274
330
7A3
100
AcDbEntity
  8
0
  6
Continuous
 62
     7
100
AcDbCircle
 10
263.5826246489
 20
239.7896068578
 30
0.0
 40
6.000000000000061
100
AcDbArc
 50
180.0
 51
221.4096221093
  0
ARC
  5
275
330
7A3
100
AcDbEntity
  8
0
  6
Continuous
 62
     7
100
AcDbCircle
 10
283.5826246489
 20
239.7896068578
 30
0.0
 40
6.000000000000061
100
AcDbArc
 50
318.5903778906999
 51
0.0
  0
LINE
  5
276
330
7A3
100
AcDbEntity
  8
0
  6
Continuous
 62
     7
100
AcDbLine
 10
113.0826227415
 20
235.8209801816
 30
0.0
 11
113.0826227415
 21
234.8209800177
 31
0.0
  0
LINE
  5
277
330
7A3
100
AcDbEntity
  8
0
  6
Continuous
 62
     7
100
AcDbLine
 10
134.0826280463
 20
234.8209800177
 30
0.0
 11
134.0826280463
 21
235.8209801816
 31
0.0
  0
LINE
  5
278
330
7A3
100
AcDbEntity
  8
0
  6
Continuous
 62
     7
100
AcDbLine
 10
263.0826212514
 20
235.8209801816
 30
0.0
 11
263.0826212514
 21
234.8209800177
 31
0.0
  0
LINE
  5
279
330
7A3
100
AcDbEntity
  8
0
  6
Continuous
 62
     7
100
AcDbLine
 10
284.0826265562
 20
234.8209800177
 30
0.0
 11
284.0826265562
 21
235.8209801816
 31
0.0
  0
LINE
  5
27A
330
7A3
100
AcDbEntity
  8
0
  6
Continuous
 62
     7
100
AcDbLine
 10
289.5826228011
 20
239.7896064424
 30
0.0
 11
289.5826228011
 21
248.8523529821
 31
0.0
  0
LINE
  5
27B
330
7A3
100
AcDbEntity
  8
0
  6
Continuous
 62
     7
100
AcDbLine
 10
139.5826242912
 20
239.7896064424
 30
0.0
 11
139.5826242912
 21
248.8523529821
 31
0.0
  0
LINE
  5
27C
330
7A3
100
AcDbEntity
  8
0
  6
Continuous
 62
     7
100
AcDbLine
 10
257.5826250065
 20
248.8523529821
 30
0.0
 11
257.5826250065
 21
239.7896064424
 31
0.0
  0
LINE
  5
27D
330
7A3
100
AcDbEntity
  8
0
  6
Continuous
 62
     7
100
AcDbLine
 10
107.5826264966
 20
248.8523529821
 30
0.0
 11
107.5826264966
 21
239.7896064424
 31
0.0
  0
LINE
  5
27E
330
7A3
100
AcDbEntity
  8
0
  6
Continuous
 62
     7
100
AcDbLine
 10
238.5826237548
 20
278.8303656482
 30
0.0
 11
239.0008434702
 21
254.87066563
 31
0.0
  0
LINE
  5
27F
330
7A3
100
AcDbEntity
  8
0
  6
Continuous
 62
     7
100
AcDbLine
 10
308.1644080628
 20
254.87066563
 30
0.0
 11
308.5826240528
 21
278.8303656482
 31
0.0
  0
ARC
  5
280
330
7A3
100
AcDbEntity
  8
0
  6
Continuous
 62
     7
100
AcDbCircle
 10
241.0005381209
 20
254.9055711007
 30
0.0
 40
1.999999999999894
100
AcDbArc
 50
181.0
 51
269.3191140165
  0
ARC
  5
281
330
7A3
100
AcDbEntity
  8
0
  6
Continuous
 62
     7
100
AcDbCircle
 10
306.1647111769
 20
254.9055711007
 30
0.0
 40
1.999999999999894
100
AcDbArc
 50
270.6808859835
 51
358.9999999999999
  0
ARC
  5
282
330
7A3
100
AcDbEntity
  8
0
  6
Continuous
 62
     7
100
AcDbCircle
 10
255.2368783203
 20
1452.8209798913
 30
0.0
 40
1200.0
100
AcDbArc
 50
269.3191140165
 51
270.0
  0
ARC
  5
283
330
7A3
100
AcDbEntity
  8
0
  6
Continuous
 62
     7
100
AcDbCircle
 10
291.9283709775
 20
1452.8209798913
 30
0.0
 40
1200.0
100
AcDbArc
 50
270.0
 51
270.6808859835
  0
LINE
  5
284
330
7A3
100
AcDbEntity
  8
0
  6
Continuous
 62
     7
100
AcDbLine
 10
255.2368767608
 20
252.8209792428
 30
0.0
 11
291.9283710468
 21
252.8209792428
 31
0.0
  0
LINE
  5
285
330
7A3
100
AcDbEntity
  8
0
  6
Continuous
 62
     7
100
AcDbLine
 10
123.5826216686
 20
278.8303656482
 30
0.0
 11
158.5826255429
 21
278.8303656482
 31
0.0
  0
LINE
  5
286
330
7A3
100
AcDbEntity
  8
0
  6
Continuous
 62
     7
100
AcDbLine
 10
88.5826252449
 20
278.8303656482
 30
0.0
 11
123.5826216686
 21
278.8303656482
 31
0.0
  0
ARC
  5
287
330
7A3
100
AcDbEntity
  8
0
  6
Continuous
 62
     7
100
AcDbCircle
 10
95.7069489349
 20
198.6175258581
 30
0.0
 40
87.10700069153062
100
AcDbArc
 50
1.109518881
 51
21.3416210277
  0
ARC
  5
288
330
7A3
100
AcDbEntity
  8
0
  6
Continuous
 62
     7
100
AcDbCircle
 10
301.4583003628
 20
198.6175258581
 30
0.0
 40
87.10700069153057
100
AcDbArc
 50
158.6583789723
 51
178.890481119
  0
ARC
  5
289
330
7A3
100
AcDbEntity
  8
0
  6
Continuous
 62
     7
100
AcDbCircle
 10
185.3250597548
 20
154.0751858551
 30
0.0
 40
2.29741509277672
100
AcDbArc
 50
169.1703868176
 51
281.1295364534
  0
ARC
  5
28A
330
7A3
100
AcDbEntity
  8
0
  6
Continuous
 62
     7
100
AcDbCircle
 10
211.840189543
 20
154.0751858551
 30
0.0
 40
2.29741509277672
100
AcDbArc
 50
258.8704635466
 51
10.8296131824
  0
LWPOLYLINE
  5
28B
330
7A3
100
AcDbEntity
  8
0
  6
Continuous
 62
     7
100
AcDbPolyline
 90
        3
 70
   128
 43
0.0
 10
182.7976178426
 20
200.3042263888
 10
182.8419860501
 20
197.3044531398
 10
182.856479292
 20
195.0112780534
  0
LWPOLYLINE
  5
28C
330
7A3
100
AcDbEntity
  8
0
  6
Continuous
 62
     7
100
AcDbPolyline
 90
        3
 70
   128
 43
0.0
 10
214.3676314551
 20
200.3042263888
 10
214.3232632477
 20
197.3044531398
 10
214.3087700058
 20
195.0112780534
  0
LINE
  5
28D
330
7A3
100
AcDbEntity
  8
0
  6
Continuous
 62
     7
100
AcDbLine
 10
214.3087700058
 20
195.0112780534
 30
0.0
 11
214.0966882978
 21
154.5068448388
 31
0.0
  0
LINE
  5
28E
330
7A3
100
AcDbEntity
  8
0
  6
Continuous
 62
     7
100
AcDbLine
 10
182.856479292
 20
195.0112780534
 30
0.0
 11
183.068561
 21
154.5068448388
 31
0.0
  0
LINE
  5
28F
330
7A3
100
AcDbEntity
  8
0
  6
Continuous
 62
     7
100
AcDbLine
 10
211.3967245493
 20
151.8209775888
 30
0.0
 11
185.7685247485
 21
151.8209775888
 31
0.0
  0
ARC
  5
290
330
7A3
100
AcDbEntity
  8
0
  6
Continuous
 62
     7
100
AcDbCircle
 10
198.5826246489
 20
237.8209799134
 30
0.0
 40
23.00000000000001
100
AcDbArc
 50
340.9612250535999
 51
199.0387749463999
  0
LINE
  5
291
330
7A3
100
AcDbEntity
  8
0
  6
Continuous
 62
     7
100
AcDbLine
 10
182.7976178426
 20
200.3042263888
 30
0.0
 11
182.856479292
 21
195.0112780534
 31
0.0
  0
LINE
  5
292
330
7A3
100
AcDbEntity
  8
0
  6
Continuous
 62
     7
100
AcDbLine
 10
214.3676314551
 20
200.3042263888
 30
0.0
 11
214.3087700058
 21
195.0112780534
 31
0.0
  0
LINE
  5
293
330
7A3
100
AcDbEntity
  8
0
  6
Continuous
 62
     7
100
AcDbLine
 10
273.5826276291
 20
234.816364383
 30
0.0
 11
229.1938789237
 21
234.7997784593
 31
0.0
  0
LINE
  5
294
330
7A3
100
AcDbEntity
  8
0
  6
Continuous
 62
     7
100
AcDbLine
 10
123.5826216686
 20
234.816364383
 30
0.0
 11
167.971370374
 21
234.7997784593
 31
0.0
  0
LINE
  5
295
330
7A3
100
AcDbEntity
  8
0
  6
Continuous
 62
     7
100
AcDbLine
 10
108.0826275099
 20
222.8209840989
 30
0.0
 11
108.0826275099
 21
214.3209794515
 31
0.0
  0
LINE
  5
296
330
7A3
100
AcDbEntity
  8
0
  6
Continuous
 62
     7
100
AcDbLine
 10
289.0826217879
 20
222.8209840989
 30
0.0
 11
289.0826217879
 21
214.3209794515
 31
0.0
  0
LINE
  5
297
330
7A3
100
AcDbEntity
  8
0
  6
Continuous
 62
     7
100
AcDbLine
 10
109.5826230992
 20
212.8209801369
 30
0.0
 11
111.282622074
 21
212.8209801369
 31
0.0
  0
ARC
  5
298
330
7A3
100
AcDbEntity
  8
0
  6
Continuous
 62
     7
100
AcDbCircle
 10
109.5826246489
 20
214.3209799134
 30
0.0
 40
1.5
100
AcDbArc
 50
180.0
 51
270.0
  0
LINE
  5
299
330
7A3
100
AcDbEntity
  8
0
  6
Continuous
 62
     7
100
AcDbLine
 10
287.5826261986
 20
212.8209801369
 30
0.0
 11
285.8826272238
 21
212.8209801369
 31
0.0
  0
ARC
  5
29A
330
7A3
100
AcDbEntity
  8
0
  6
Continuous
 62
     7
100
AcDbCircle
 10
287.5826246489
 20
214.3209799134
 30
0.0
 40
1.500000000000057
100
AcDbArc
 50
270.0
 51
0.0
  0
LINE
  5
29B
330
7A3
100
AcDbEntity
  8
0
  6
Continuous
 62
     7
100
AcDbLine
 10
273.5826276291
 20
234.8209800177
 30
0.0
 11
286.492948984
 21
234.8209800177
 31
0.0
  0
LINE
  5
29C
330
7A3
100
AcDbEntity
  8
0
  6
Continuous
 62
     7
100
AcDbLine
 10
123.5826216686
 20
234.8209800177
 30
0.0
 11
110.6723003138
 21
234.8209800177
 31
0.0
  0
LINE
  5
29D
330
7A3
100
AcDbEntity
  8
0
  6
Continuous
 62
     7
100
AcDbLine
 10
286.492948984
 20
234.8209800177
 30
0.0
 11
286.8994526613
 21
234.7907194846
 31
0.0
  0
LINE
  5
29E
330
7A3
100
AcDbEntity
  8
0
  6
Continuous
 62
     7
100
AcDbLine
 10
289.0179283965
 20
224.4942152385
 30
0.0
 11
289.0826217879
 21
222.8209840989
 31
0.0
  0
LINE
  5
29F
330
7A3
100
AcDbEntity
  8
0
  6
Continuous
 62
     7
100
AcDbLine
 10
108.1473209012
 20
224.4942152385
 30
0.0
 11
108.0826275099
 21
222.8209840989
 31
0.0
  0
LINE
  5
2A0
330
7A3
100
AcDbEntity
  8
0
  6
Continuous
 62
     7
100
AcDbLine
 10
110.6723003138
 20
234.8209800177
 30
0.0
 11
110.2656774271
 21
234.7911022582
 31
0.0
  0
LWPOLYLINE
  5
2A1
330
7A3
100
AcDbEntity
  8
0
  6
Continuous
 62
     7
100
AcDbPolyline
 90
       10
 70
   128
 43
0.0
 10
163.6867389131
 20
212.8209801369
 10
165.7702527989
 20
212.7677950986
 10
167.8537685472
 20
212.4474517979
 10
169.4517187823
 20
211.9138495975
 10
170.9799595226
 20
211.0979579367
 10
173.4789233703
 20
208.7916139492
 10
175.0719077934
 20
205.7876320534
 10
175.5050007302
 20
203.9600772761
 10
175.6677977789
 20
202.0431211197
 10
175.6862808067
 20
200.9256979429
  0
LWPOLYLINE
  5
2A2
330
7A3
100
AcDbEntity
  8
0
  6
Continuous
 62
     7
100
AcDbPolyline
 90
       10
 70
   128
 43
0.0
 10
233.4785103846
 20
212.8209801369
 10
231.3949964989
 20
212.7677950986
 10
229.3114807505
 20
212.4474517979
 10
227.7135305155
 20
211.9138495975
 10
226.1852897752
 20
211.0979579367
 10
223.6863259274
 20
208.7916139492
 10
222.0933415044
 20
205.7876320534
 10
221.6602485675
 20
203.9600772761
 10
221.4974515188
 20
202.0431211197
 10
221.478968491
 20
200.9256979429
  0
LINE
  5
2A3
330
7A3
100
AcDbEntity
  8
0
  6
Continuous
 62
     7
100
AcDbLine
 10
285.8826272238
 20
212.8209801369
 30
0.0
 11
233.4785103846
 21
212.8209801369
 31
0.0
  0
LINE
  5
2A4
330
7A3
100
AcDbEntity
  8
0
  6
Continuous
 62
     7
100
AcDbLine
 10
111.282622074
 20
212.8209801369
 30
0.0
 11
163.6867389131
 21
212.8209801369
 31
0.0
  0
LINE
  5
2A5
330
7A3
100
AcDbEntity
  8
0
  6
Continuous
 62
     7
100
AcDbLine
 10
221.478968491
 20
200.9256979429
 30
0.0
 11
220.7054976422
 21
112.2947981559
 31
0.0
  0
LINE
  5
2A6
330
7A3
100
AcDbEntity
  8
0
  6
Continuous
 62
     7
100
AcDbLine
 10
175.6862808067
 20
200.9256979429
 30
0.0
 11
176.4597516555
 21
112.2947981559
 31
0.0
  0
ARC
  5
2A7
330
7A3
100
AcDbEntity
  8
0
  6
Continuous
 62
     7
100
AcDbCircle
 10
218.1624942738
 20
111.8600935798
 30
0.0
 40
2.579890346548777
100
AcDbArc
 50
259.7994939228
 51
9.700460806100002
  0
ARC
  5
2A8
330
7A3
100
AcDbEntity
  8
0
  6
Continuous
 62
     7
100
AcDbCircle
 10
179.0027550239
 20
111.8600935798
 30
0.0
 40
2.579890346548777
100
AcDbArc
 50
170.2995391939
 51
280.2005060771999
  0
LINE
  5
2A9
330
7A3
100
AcDbEntity
  8
0
  6
Continuous
 62
     7
100
AcDbLine
 10
217.7056126345
 20
109.3209808671
 30
0.0
 11
179.4596366633
 21
109.3209808671
 31
0.0
  0
LINE
  5
2AA
330
7A3
100
AcDbEntity
  8
0
  6
Continuous
 62
     7
100
AcDbLine
 10
288.2459066857
 20
231.6220080458
 30
0.0
 11
287.9635594834
 21
233.5642551982
 31
0.0
  0
LINE
  5
2AB
330
7A3
100
AcDbEntity
  8
0
  6
Continuous
 62
     7
100
AcDbLine
 10
108.9193426121
 20
231.6220080458
 30
0.0
 11
109.2016898144
 21
233.5642551982
 31
0.0
  0
ARC
  5
2AC
330
7A3
100
AcDbEntity
  8
0
  6
Continuous
 62
     7
100
AcDbCircle
 10
229.1767417304
 20
242.8209799134
 30
0.0
 40
8.000000000000028
100
AcDbArc
 50
189.2817990867
 51
270.0
  0
ARC
  5
2AD
330
7A3
100
AcDbEntity
  8
0
  6
Continuous
 62
     7
100
AcDbCircle
 10
167.9885075673
 20
242.8209799134
 30
0.0
 40
8.000000000000028
100
AcDbArc
 50
270.0
 51
350.7182009133
  0
LWPOLYLINE
  5
2AE
330
7A3
100
AcDbEntity
  8
0
  6
Continuous
 62
     7
100
AcDbPolyline
 90
       12
 70
   128
 43
0.0
 10
129.1503883947
 20
239.7896064424
 10
129.0187068332
 20
239.0533419304
 10
128.6622189034
 20
238.3994650074
 10
127.8348319281
 20
237.6124527284
 10
126.2238375891
 20
236.8503598475
 10
123.3535982717
 20
236.4756189265
 10
121.8417339075
 20
236.6284135707
 10
120.3851379502
 20
237.0480172314
 10
119.2598767627
 20
237.6629052662
 10
118.3669321287
 20
238.6001305633
 10
118.0712707389
 20
239.3057396614
 10
118.0148623932
 20
239.7896064424
  0
LINE
  5
2AF
330
7A3
100
AcDbEntity
  8
0
  6
Continuous
 62
     7
100
AcDbLine
 10
118.0148623932
 20
239.7896064424
 30
0.0
 11
118.0148623932
 21
248.8523529821
 31
0.0
  0
LWPOLYLINE
  5
2B0
330
7A3
100
AcDbEntity
  8
0
  6
Continuous
 62
     7
100
AcDbPolyline
 90
       12
 70
   128
 43
0.0
 10
118.0148623932
 20
248.8523529821
 10
118.1465439547
 20
249.588617494
 10
118.5030318845
 20
250.2424934857
 10
119.3304114092
 20
251.0295076274
 10
120.9414131988
 20
251.791599577
 10
123.8116450656
 20
252.1663414293
 10
125.3235168803
 20
252.013546785
 10
126.7801128376
 20
251.5939431243
 10
127.9053665746
 20
250.9790541582
 10
128.7983112086
 20
250.0418307238
 10
129.093980049
 20
249.3362197631
 10
129.1503883947
 20
248.8523529821
  0
LINE
  5
2B1
330
7A3
100
AcDbEntity
  8
0
  6
Continuous
 62
     7
100
AcDbLine
 10
129.1503883947
 20
248.8523529821
 30
0.0
 11
129.1503883947
 21
239.7896064424
 31
0.0
  0
LWPOLYLINE
  5
2B2
330
7A3
100
AcDbEntity
  8
0
  6
Continuous
 62
     7
100
AcDbPolyline
 90
       12
 70
   128
 43
0.0
 10
133.7891198743
 20
248.8523529821
 10
133.854960655
 20
249.588617494
 10
134.0332083452
 20
250.2424934857
 10
134.4469018329
 20
251.0295076274
 10
135.2523990024
 20
251.791599577
 10
136.6875186611
 20
252.1663414293
 10
137.4434508432
 20
252.013546785
 10
138.1717488218
 20
251.5939431243
 10
138.7343794156
 20
250.9790541582
 10
139.1808517326
 20
250.0418307238
 10
139.3286824275
 20
249.3362197631
 10
139.3568866003
 20
248.8523529821
  0
LWPOLYLINE
  5
2B3
330
7A3
100
AcDbEntity
  8
0
  6
Continuous
 62
     7
100
AcDbPolyline
 90
       12
 70
   128
 43
0.0
 10
107.8083641875
 20
248.8523529821
 10
107.8742049683
 20
249.588617494
 10
108.0524452079
 20
250.2424934857
 10
108.4661386955
 20
251.0295076274
 10
109.271635865
 20
251.791599577
 10
110.7067517985
 20
252.1663414293
 10
111.4626877058
 20
252.013546785
 10
112.1909894098
 20
251.5939431243
 10
112.7536200035
 20
250.9790541582
 10
113.2000885952
 20
250.0418307238
 10
113.3479230154
 20
249.3362197631
 10
113.376123463
 20
248.8523529821
  0
LWPOLYLINE
  5
2B4
330
7A3
100
AcDbEntity
  8
0
  6
Continuous
 62
     7
100
AcDbPolyline
 90
       12
 70
   128
 43
0.0
 10
283.7891258348
 20
248.8523529821
 10
283.8549666155
 20
249.588617494
 10
284.0332068551
 20
250.2424934857
 10
284.4469003428
 20
251.0295076274
 10
285.2523975123
 20
251.791599577
 10
286.6875208963
 20
252.1663414293
 10
287.443449353
 20
252.013546785
 10
288.171751057
 20
251.5939431243
 10
288.7343816508
 20
250.9790541582
 10
289.1808502424
 20
250.0418307238
 10
289.3286846626
 20
249.3362197631
 10
289.3568851102
 20
248.8523529821
  0
LWPOLYLINE
  5
2B5
330
7A3
100
AcDbEntity
  8
0
  6
Continuous
 62
     7
100
AcDbPolyline
 90
       12
 70
   128
 43
0.0
 10
268.0148609031
 20
248.8523529821
 10
268.1465424646
 20
249.588617494
 10
268.5030303944
 20
250.2424934857
 10
269.3304173697
 20
251.0295076274
 10
270.9414117087
 20
251.791599577
 10
273.8116510261
 20
252.1663414293
 10
275.3235153902
 20
252.013546785
 10
276.7801113475
 20
251.5939431243
 10
277.9053725351
 20
250.9790541582
 10
278.798317169
 20
250.0418307238
 10
279.0939785588
 20
249.3362197631
 10
279.1503869045
 20
248.8523529821
  0
LWPOLYLINE
  5
2B6
330
7A3
100
AcDbEntity
  8
0
  6
Continuous
 62
     7
100
AcDbPolyline
 90
       12
 70
   128
 43
0.0
 10
257.8083626974
 20
248.8523529821
 10
257.8741997529
 20
249.588617494
 10
258.0524474431
 20
250.2424934857
 10
258.4661372054
 20
251.0295076274
 10
259.2716381002
 20
251.791599577
 10
260.7067540336
 20
252.1663414293
 10
261.4626862157
 20
252.013546785
 10
262.1909879196
 20
251.5939431243
 10
262.7536185134
 20
250.9790541582
 10
263.2000871051
 20
250.0418307238
 10
263.3479215253
 20
249.3362197631
 10
263.3761294234
 20
248.8523529821
  0
LWPOLYLINE
  5
2B7
330
7A3
100
AcDbEntity
  8
0
  6
Continuous
 62
     7
100
AcDbPolyline
 90
       12
 70
   128
 43
0.0
 10
279.1503869045
 20
239.7896064424
 10
279.0187053431
 20
239.0533419304
 10
278.6622174133
 20
238.3994650074
 10
277.8348378885
 20
237.6124527284
 10
276.223836099
 20
236.8503598475
 10
273.3536042321
 20
236.4756189265
 10
271.8417324174
 20
236.6284135707
 10
270.3851364601
 20
237.0480172314
 10
269.2598827232
 20
237.6629052662
 10
268.3669380892
 20
238.6001305633
 10
268.0712692488
 20
239.3057396614
 10
268.0148609031
 20
239.7896064424
  0
LINE
  5
2B8
330
7A3
100
AcDbEntity
  8
0
  6
Continuous
 62
     7
100
AcDbLine
 10
268.0148609031
 20
239.7896064424
 30
0.0
 11
268.0148609031
 21
248.8523529821
 31
0.0
  0
LINE
  5
2B9
330
7A3
100
AcDbEntity
  8
0
  6
Continuous
 62
     7
100
AcDbLine
 10
279.1503869045
 20
248.8523529821
 30
0.0
 11
279.1503869045
 21
239.7896064424
 31
0.0
  0
LINE
  5
2BA
330
7A3
100
AcDbEntity
  8
0
  6
Continuous
 62
     7
100
AcDbLine
 10
133.7891198743
 20
239.7896064424
 30
0.0
 11
133.7891198743
 21
248.8523529821
 31
0.0
  0
LINE
  5
2BB
330
7A3
100
AcDbEntity
  8
0
  6
Continuous
 62
     7
100
AcDbLine
 10
113.376123463
 20
248.8523529821
 30
0.0
 11
113.376123463
 21
239.7896064424
 31
0.0
  0
LINE
  5
2BC
330
7A3
100
AcDbEntity
  8
0
  6
Continuous
 62
     7
100
AcDbLine
 10
283.7891258348
 20
239.7896064424
 30
0.0
 11
283.7891258348
 21
248.8523529821
 31
0.0
  0
LINE
  5
2BD
330
7A3
100
AcDbEntity
  8
0
  6
Continuous
 62
     7
100
AcDbLine
 10
263.3761294234
 20
248.8523529821
 30
0.0
 11
263.3761294234
 21
239.7896064424
 31
0.0
  0
LINE
  5
2BE
330
7A3
100
AcDbEntity
  8
0
  6
Continuous
 62
     7
100
AcDbLine
 10
109.0826220859
 20
235.8209801816
 30
0.0
 11
138.0826249767
 21
235.8209801816
 31
0.0
  0
LWPOLYLINE
  5
2BF
330
7A3
100
AcDbEntity
  8
0
  6
Continuous
 62
     7
100
AcDbPolyline
 90
       12
 70
   128
 43
0.0
 10
139.3568866003
 20
239.7896064424
 10
139.2910495449
 20
239.0533419304
 10
139.1128018547
 20
238.3994650074
 10
138.6991120923
 20
237.6124527284
 10
137.8936111975
 20
236.8503598475
 10
136.4584952641
 20
236.4756189265
 10
135.702563082
 20
236.6284135707
 10
134.9742613781
 20
237.0480172314
 10
134.4116307843
 20
237.6629052662
 10
133.9651621927
 20
238.6001305633
 10
133.8173277724
 20
239.3057396614
 10
133.7891198743
 20
239.7896064424
  0
LWPOLYLINE
  5
2C0
330
7A3
100
AcDbEntity
  8
0
  6
Continuous
 62
     7
100
AcDbPolyline
 90
       12
 70
   128
 43
0.0
 10
113.376123463
 20
239.7896064424
 10
113.3102826822
 20
239.0533419304
 10
113.1320424426
 20
238.3994650074
 10
112.718348955
 20
237.6124527284
 10
111.9128517855
 20
236.8503598475
 10
110.4777284015
 20
236.4756189265
 10
109.7217999447
 20
236.6284135707
 10
108.9934982408
 20
237.0480172314
 10
108.430867647
 20
237.6629052662
 10
107.9843990553
 20
238.6001305633
 10
107.8365646351
 20
239.3057396614
 10
107.8083641875
 20
239.7896064424
  0
LINE
  5
2C1
330
7A3
100
AcDbEntity
  8
0
  6
Continuous
 62
     7
100
AcDbLine
 10
259.0826243211
 20
235.8209801816
 30
0.0
 11
288.0826272119
 21
235.8209801816
 31
0.0
  0
LWPOLYLINE
  5
2C2
330
7A3
100
AcDbEntity
  8
0
  6
Continuous
 62
     7
100
AcDbPolyline
 90
       12
 70
   128
 43
0.0
 10
289.3568851102
 20
239.7896064424
 10
289.2910443295
 20
239.0533419304
 10
289.1128040899
 20
238.3994650074
 10
288.6991106022
 20
237.6124527284
 10
287.8936134327
 20
236.8503598475
 10
286.4584974993
 20
236.4756189265
 10
285.7025615919
 20
236.6284135707
 10
284.974259888
 20
237.0480172314
 10
284.4116292942
 20
237.6629052662
 10
283.9651607025
 20
238.6001305633
 10
283.8173262823
 20
239.3057396614
 10
283.7891258348
 20
239.7896064424
  0
LWPOLYLINE
  5
2C3
330
7A3
100
AcDbEntity
  8
0
  6
Continuous
 62
     7
100
AcDbPolyline
 90
       12
 70
   128
 43
0.0
 10
263.3761294234
 20
239.7896064424
 10
263.3102886427
 20
239.0533419304
 10
263.1320409525
 20
238.3994650074
 10
262.7183474649
 20
237.6124527284
 10
261.9128502954
 20
236.8503598475
 10
260.4777306367
 20
236.4756189265
 10
259.7217984546
 20
236.6284135707
 10
258.993500476
 20
237.0480172314
 10
258.4308698822
 20
237.6629052662
 10
257.9843975652
 20
238.6001305633
 10
257.8365668703
 20
239.3057396614
 10
257.8083626974
 20
239.7896064424
  0
LINE
  5
2C4
330
7A3
100
AcDbEntity
  8
0
  6
Continuous
 62
     7
100
AcDbLine
 10
229.1767425883
 20
234.8209800177
 30
0.0
 11
273.5826276291
 21
234.8209800177
 31
0.0
  0
LINE
  5
2C5
330
7A3
100
AcDbEntity
  8
0
  6
Continuous
 62
     7
100
AcDbLine
 10
167.9885067094
 20
234.8209800177
 30
0.0
 11
123.5826216686
 21
234.8209800177
 31
0.0
  0
LINE
  5
2C6
330
7A3
100
AcDbEntity
  8
0
  6
Continuous
 62
     7
100
AcDbLine
 10
289.3568851102
 20
248.8523529821
 30
0.0
 11
289.3568851102
 21
239.7896064424
 31
0.0
  0
LINE
  5
2C7
330
7A3
100
AcDbEntity
  8
0
  6
Continuous
 62
     7
100
AcDbLine
 10
139.3568866003
 20
248.8523529821
 30
0.0
 11
139.3568866003
 21
239.7896064424
 31
0.0
  0
LINE
  5
2C8
330
7A3
100
AcDbEntity
  8
0
  6
Continuous
 62
     7
100
AcDbLine
 10
257.8083626974
 20
239.7896064424
 30
0.0
 11
257.8083626974
 21
248.8523529821
 31
0.0
  0
LINE
  5
2C9
330
7A3
100
AcDbEntity
  8
0
  6
Continuous
 62
     7
100
AcDbLine
 10
107.8083641875
 20
239.7896064424
 30
0.0
 11
107.8083641875
 21
248.8523529821
 31
0.0
  0
ARC
  5
2CA
330
7A3
100
AcDbEntity
  8
0
  6
Continuous
 62
     7
100
AcDbCircle
 10
110.4249530723
 20
233.5903463696
 30
0.0
 40
1.223534028726323
100
AcDbArc
 50
85.42340893229999
 51
181.2218927254
  0
ARC
  5
2CB
330
7A3
100
AcDbEntity
  8
0
  6
Continuous
 62
     7
100
AcDbCircle
 10
286.68515199
 20
233.5585855119
 30
0.0
 40
1.278412615228315
100
AcDbArc
 50
0.2541043144
 51
99.07950649729999
  0
LINE
  5
2CC
330
7A3
100
AcDbEntity
  8
0
  6
Continuous
 62
     7
100
AcDbLine
 10
110.6723003138
 20
234.8209800177
 30
0.0
 11
110.6799669612
 21
234.8209800177
 31
0.0
  0
LINE
  5
2CD
330
7A3
100
AcDbEntity
  8
0
  6
Continuous
 62
     7
100
AcDbLine
 10
286.492948984
 20
234.8209800177
 30
0.0
 11
286.4852823365
 21
234.8209800177
 31
0.0
  0
LINE
  5
2CE
330
7A3
100
AcDbEntity
  8
0
  6
Continuous
 62
     7
100
AcDbLine
 10
273.5826276291
 20
278.8303656482
 30
0.0
 11
308.5826240528
 21
278.8303656482
 31
0.0
  0
LINE
  5
2CF
330
7A3
100
AcDbEntity
  8
0
  6
Continuous
 62
     7
100
AcDbLine
 10
238.5826237548
 20
278.8303656482
 30
0.0
 11
273.5826276291
 21
278.8303656482
 31
0.0
  0
LINE
  5
2D0
330
7A3
100
AcDbEntity
  8
0
  6
Continuous
 62
     8
100
AcDbLine
 10
123.5826216686
 20
254.87066563
 30
0.0
 11
158.1644058276
 21
254.87066563
 31
0.0
  0
LINE
  5
2D1
330
7A3
100
AcDbEntity
  8
0
  6
Continuous
 62
     8
100
AcDbLine
 10
89.000841235
 20
254.87066563
 30
0.0
 11
123.5826216686
 21
254.87066563
 31
0.0
  0
LINE
  5
2D2
330
7A3
100
AcDbEntity
  8
0
  6
Continuous
 62
     8
100
AcDbLine
 10
123.5826216686
 20
252.9057128333
 30
0.0
 11
156.1884783257
 21
252.9057128333
 31
0.0
  0
LINE
  5
2D3
330
7A3
100
AcDbEntity
  8
0
  6
Continuous
 62
     8
100
AcDbLine
 10
90.9767724622
 20
252.9057128333
 30
0.0
 11
123.5826216686
 21
252.9057128333
 31
0.0
  0
ARC
  5
2D4
330
7A3
100
AcDbEntity
  8
0
  6
Continuous
 62
     8
100
AcDbCircle
 10
95.9456683827
 20
198.6615134496
 30
0.0
 40
88.31747179824208
100
AcDbArc
 50
1.0874202039
 51
21.333604185
  0
LWPOLYLINE
  5
2D5
330
7A3
100
AcDbEntity
  8
0
  6
Continuous
 62
     8
100
AcDbPolyline
 90
        9
 70
   128
 43
0.0
 10
184.2472344685
 20
200.3375956767
 10
183.9618884075
 20
200.3310279899
 10
183.6888888899
 20
200.3247434252
 10
183.4382886115
 20
200.3189748131
 10
183.2193141851
 20
200.3139326327
 10
183.0400290016
 20
200.3098068737
 10
182.907033344
 20
200.3067446851
 10
182.825225969
 20
200.3048615508
 10
182.7976178426
 20
200.3042263888
  0
LWPOLYLINE
  5
2D6
330
7A3
100
AcDbEntity
  8
0
  6
Continuous
 62
     8
100
AcDbPolyline
 90
        9
 70
   128
 43
0.0
 10
178.2114520717
 20
230.7911984601
 10
177.9416423339
 20
230.6980913483
 10
177.6835095186
 20
230.609013138
 10
177.4465531159
 20
230.5272434816
 10
177.2395033438
 20
230.4557938107
 10
177.0699802834
 20
230.3972937145
 10
176.9442275215
 20
230.3538982735
 10
176.8668737311
 20
230.3272051715
 10
176.840770622
 20
230.3181969539
  0
LWPOLYLINE
  5
2D7
330
7A3
100
AcDbEntity
  8
0
  6
Continuous
 62
     8
100
AcDbPolyline
 90
        9
 70
   128
 43
0.0
 10
212.9180148292
 20
200.3375956767
 10
213.2033608902
 20
200.3310279899
 10
213.4763604078
 20
200.3247434252
 10
213.7269606862
 20
200.3189748131
 10
213.9459351126
 20
200.3139326327
 10
214.1252202962
 20
200.3098068737
 10
214.2582159538
 20
200.3067446851
 10
214.3400233287
 20
200.3048615508
 10
214.3676314551
 20
200.3042263888
  0
ARC
  5
2D8
330
7A3
100
AcDbEntity
  8
0
  6
Continuous
 62
     8
100
AcDbCircle
 10
301.219580915
 20
198.6615134496
 30
0.0
 40
88.31747179824212
100
AcDbArc
 50
158.666395815
 51
178.9125797961
  0
LWPOLYLINE
  5
2D9
330
7A3
100
AcDbEntity
  8
0
  6
Continuous
 62
     8
100
AcDbPolyline
 90
        9
 70
   128
 43
0.0
 10
218.953797226
 20
230.7911984601
 10
219.2236069638
 20
230.6980913483
 10
219.4817397792
 20
230.609013138
 10
219.7186961818
 20
230.5272434816
 10
219.925745954
 20
230.4557938107
 10
220.0952690143
 20
230.3972937145
 10
220.2210217763
 20
230.3538982735
 10
220.2983755667
 20
230.3272051715
 10
220.3244786758
 20
230.3181969539
  0
LWPOLYLINE
  5
2DA
330
7A3
100
AcDbEntity
  8
0
  6
Continuous
 62
     8
100
AcDbPolyline
 90
        3
 70
   128
 43
0.0
 10
212.9180148292
 20
200.3375956767
 10
212.8765886698
 20
197.6783735656
 10
212.8587901641
 20
195.0188683324
  0
LINE
  5
2DB
330
7A3
100
AcDbEntity
  8
0
  6
Continuous
 62
     8
100
AcDbLine
 10
212.8587901641
 20
195.0188701951
 30
0.0
 11
212.6467075247
 21
154.5144369804
 31
0.0
  0
LWPOLYLINE
  5
2DC
330
7A3
100
AcDbEntity
  8
0
  6
Continuous
 62
     8
100
AcDbPolyline
 90
        9
 70
   128
 43
0.0
 10
212.6467075247
 20
154.5144369804
 10
212.6274459112
 20
153.9630791151
 10
212.5825887594
 20
153.6903059088
 10
212.5411877457
 20
153.5580581032
 10
212.5125924174
 20
153.494944235
 10
212.4732123736
 20
153.4377610289
 10
212.4164147351
 20
153.3985784256
 10
211.9499692742
 20
153.2875200712
 10
211.3967245493
 20
153.2709797823
  0
LINE
  5
2DD
330
7A3
100
AcDbEntity
  8
0
  6
Continuous
 62
     8
100
AcDbLine
 10
211.3967245493
 20
153.2709797823
 30
0.0
 11
198.5826246489
 21
153.2709797823
 31
0.0
  0
ARC
  5
2DE
330
7A3
100
AcDbEntity
  8
0
  6
Continuous
 62
     8
100
AcDbCircle
 10
198.5826246318
 20
237.8209801446
 30
0.0
 40
21.55000007877229
100
AcDbArc
 50
340.9612247143
 51
89.9999999546
  0
LINE
  5
2DF
330
7A3
100
AcDbEntity
  8
0
  6
Continuous
 62
     8
100
AcDbLine
 10
185.7685247485
 20
153.2709797823
 30
0.0
 11
198.5826246489
 21
153.2709797823
 31
0.0
  0
LWPOLYLINE
  5
2E0
330
7A3
100
AcDbEntity
  8
0
  6
Continuous
 62
     8
100
AcDbPolyline
 90
        9
 70
   128
 43
0.0
 10
184.518541773
 20
154.5144369804
 10
184.5378033865
 20
153.9630791151
 10
184.5826605383
 20
153.6903059088
 10
184.6240615521
 20
153.5580581032
 10
184.6526568804
 20
153.494944235
 10
184.6920369241
 20
153.4377610289
 10
184.7488345627
 20
153.3985784256
 10
185.2152800236
 20
153.2875200712
 10
185.7685247485
 20
153.2709797823
  0
LINE
  5
2E1
330
7A3
100
AcDbEntity
  8
0
  6
Continuous
 62
     8
100
AcDbLine
 10
184.3064591337
 20
195.0188701951
 30
0.0
 11
184.518541773
 21
154.5144369804
 31
0.0
  0
LWPOLYLINE
  5
2E2
330
7A3
100
AcDbEntity
  8
0
  6
Continuous
 62
     8
100
AcDbPolyline
 90
        3
 70
   128
 43
0.0
 10
184.2472344685
 20
200.3375956767
 10
184.288660628
 20
197.6783735656
 10
184.3064591337
 20
195.0188683324
  0
ARC
  5
2E3
330
7A3
100
AcDbEntity
  8
0
  6
Continuous
 62
     8
100
AcDbCircle
 10
198.582624666
 20
237.8209801446
 30
0.0
 40
21.55000007877231
100
AcDbArc
 50
90.0000000454
 51
199.0387752857
  0
LINE
  5
2E4
330
7A3
100
AcDbEntity
  8
0
  6
Continuous
 62
     8
100
AcDbLine
 10
185.7685247485
 20
151.8209775888
 30
0.0
 11
185.7685247485
 21
153.2709797823
 31
0.0
  0
LWPOLYLINE
  5
2E5
330
7A3
100
AcDbEntity
  8
0
  6
Continuous
 62
     8
100
AcDbPolyline
 90
        9
 70
   128
 43
0.0
 10
183.068561
 20
154.5068448388
 10
183.096176577
 20
154.5069863998
 10
183.178004441
 20
154.5074185335
 10
183.3110326949
 20
154.5081114375
 10
183.490362582
 20
154.5090502106
 10
183.7093919564
 20
154.5101976
 10
183.9600555647
 20
154.5115089022
 10
184.2331230689
 20
154.5129394137
 10
184.518541773
 20
154.5144369804
  0
LINE
  5
2E6
330
7A3
100
AcDbEntity
  8
0
  6
Continuous
 62
     8
100
AcDbLine
 10
211.3967245493
 20
151.8209775888
 30
0.0
 11
211.3967245493
 21
153.2709797823
 31
0.0
  0
LWPOLYLINE
  5
2E7
330
7A3
100
AcDbEntity
  8
0
  6
Continuous
 62
     8
100
AcDbPolyline
 90
        9
 70
   128
 43
0.0
 10
214.0966882978
 20
154.5068448388
 10
214.0690727208
 20
154.5069863998
 10
213.9872448567
 20
154.5074185335
 10
213.8542166028
 20
154.5081114375
 10
213.6748867158
 20
154.5090502106
 10
213.4558573414
 20
154.5101976
 10
213.205193733
 20
154.5115089022
 10
212.9321262289
 20
154.5129394137
 10
212.6467075247
 20
154.5144369804
  0
LWPOLYLINE
  5
2E8
330
7A3
100
AcDbEntity
  8
0
  6
Continuous
 62
     8
100
AcDbPolyline
 90
        9
 70
   128
 43
0.0
 10
184.3064591337
 20
195.0188701951
 10
184.0210404295
 20
195.017374491
 10
183.7479729254
 20
195.0159458422
 10
183.4973093171
 20
195.0146326773
 10
183.2782799426
 20
195.0134852879
 10
183.0989500556
 20
195.0125465148
 10
182.9659218017
 20
195.0118498855
 10
182.8840930063
 20
195.0114214771
 10
182.856479292
 20
195.0112780534
  0
LWPOLYLINE
  5
2E9
330
7A3
100
AcDbEntity
  8
0
  6
Continuous
 62
     8
100
AcDbPolyline
 90
        9
 70
   128
 43
0.0
 10
212.8587901641
 20
195.0188701951
 10
213.1442088682
 20
195.017374491
 10
213.4172763724
 20
195.0159458422
 10
213.6679399807
 20
195.0146326773
 10
213.8869693551
 20
195.0134852879
 10
214.0662992421
 20
195.0125465148
 10
214.1993274961
 20
195.0118498855
 10
214.2811562914
 20
195.0114214771
 10
214.3087700058
 20
195.0112780534
  0
LINE
  5
2EA
330
7A3
100
AcDbEntity
  8
0
  6
Continuous
 62
     8
100
AcDbLine
 10
233.4785103846
 20
214.3209794515
 30
0.0
 11
285.8826272238
 21
214.3209794515
 31
0.0
  0
ARC
  5
2EB
330
7A3
100
AcDbEntity
  8
0
  6
Continuous
 62
     8
100
AcDbCircle
 10
232.2333988575
 20
202.0770049727
 30
0.0
 40
12.30712044923647
100
AcDbArc
 50
84.1934510402
 51
185.3065476529
  0
LINE
  5
2EC
330
7A3
100
AcDbEntity
  8
0
  6
Continuous
 62
     8
100
AcDbLine
 10
219.2055560697
 20
112.307888826
 30
0.0
 11
219.9790250558
 21
200.938788613
 31
0.0
  0
LWPOLYLINE
  5
2ED
330
7A3
100
AcDbEntity
  8
0
  6
Continuous
 62
     8
100
AcDbPolyline
 90
        8
 70
   128
 43
0.0
 10
217.7056126345
 20
110.8209764563
 10
218.3380998719
 20
110.8406310879
 10
218.7181782026
 20
110.909876784
 10
218.8809491742
 20
110.9728788935
 10
218.9771529335
 20
111.0383843981
 10
219.0439585645
 20
111.1349811756
 10
219.15249676
 20
111.4811426007
 10
219.2055560697
 20
112.307888826
  0
LINE
  5
2EE
330
7A3
100
AcDbEntity
  8
0
  6
Continuous
 62
     8
100
AcDbLine
 10
179.4596366633
 20
110.8209764563
 30
0.0
 11
217.7056126345
 21
110.8209764563
 31
0.0
  0
LWPOLYLINE
  5
2EF
330
7A3
100
AcDbEntity
  8
0
  6
Continuous
 62
     8
100
AcDbPolyline
 90
        8
 70
   128
 43
0.0
 10
179.4596366633
 20
110.8209764563
 10
178.8271494258
 20
110.8406310879
 10
178.4470710952
 20
110.909876784
 10
178.2843001235
 20
110.9728788935
 10
178.1880963642
 20
111.0383843981
 10
178.1212907333
 20
111.1349811756
 10
178.0127525378
 20
111.4811426007
 10
177.9596932281
 20
112.307888826
  0
LINE
  5
2F0
330
7A3
100
AcDbEntity
  8
0
  6
Continuous
 62
     8
100
AcDbLine
 10
177.9596932281
 20
112.307888826
 30
0.0
 11
177.1862242419
 21
200.938788613
 31
0.0
  0
ARC
  5
2F1
330
7A3
100
AcDbEntity
  8
0
  6
Continuous
 62
     8
100
AcDbCircle
 10
164.9318504403
 20
202.0770049727
 30
0.0
 40
12.30712044923647
100
AcDbArc
 50
354.6934523471
 51
95.80654895979998
  0
LINE
  5
2F2
330
7A3
100
AcDbEntity
  8
0
  6
Continuous
 62
     8
100
AcDbLine
 10
163.6867389131
 20
214.3209794515
 30
0.0
 11
111.282622074
 21
214.3209794515
 31
0.0
  0
LINE
  5
2F3
330
7A3
100
AcDbEntity
  8
0
  6
Continuous
 62
     8
100
AcDbLine
 10
111.282622074
 20
214.3209794515
 30
0.0
 11
108.0826275099
 21
214.3209794515
 31
0.0
  0
LINE
  5
2F4
330
7A3
100
AcDbEntity
  8
0
  6
Continuous
 62
     8
100
AcDbLine
 10
285.8826272238
 20
214.3209794515
 30
0.0
 11
289.0826217879
 21
214.3209794515
 31
0.0
  0
LWPOLYLINE
  5
2F5
330
7A3
100
AcDbEntity
  8
0
  6
Continuous
 62
     8
100
AcDbPolyline
 90
        3
 70
   128
 43
0.0
 10
273.582344507
 20
234.8209800177
 10
273.5818900216
 20
234.8193492719
 10
273.581830417
 20
234.8156370201
  0
LINE
  5
2F6
330
7A3
100
AcDbEntity
  8
0
  6
Continuous
 62
     8
100
AcDbLine
 10
123.5834263313
 20
234.8209800177
 30
0.0
 11
123.5834263313
 21
234.8161790498
 31
0.0
  0
LWPOLYLINE
  5
2F7
330
7A3
100
AcDbEntity
  8
0
  6
Continuous
 62
     8
100
AcDbPolyline
 90
        9
 70
   128
 43
0.0
 10
175.6862808067
 20
200.9256979429
 10
175.7151015151
 20
200.9259494
 10
175.8004572291
 20
200.926694458
 10
175.9390659679
 20
200.9279051774
 10
176.1256042916
 20
200.9295331292
 10
176.3529010165
 20
200.9315149837
 10
176.6122203369
 20
200.9337780975
 10
176.8935989637
 20
200.9362349265
 10
177.1862242419
 20
200.938788613
  0
LINE
  5
2F8
330
7A3
100
AcDbEntity
  8
0
  6
Continuous
 62
     8
100
AcDbLine
 10
163.6867389131
 20
212.8209801369
 30
0.0
 11
163.6867389131
 21
214.3209794515
 31
0.0
  0
LWPOLYLINE
  5
2F9
330
7A3
100
AcDbEntity
  8
0
  6
Continuous
 62
     8
100
AcDbPolyline
 90
        9
 70
   128
 43
0.0
 10
221.478968491
 20
200.9256979429
 10
221.4501477826
 20
200.9259494
 10
221.3647920687
 20
200.926694458
 10
221.2261833299
 20
200.9279051774
 10
221.0396450061
 20
200.9295331292
 10
220.8123482812
 20
200.9315149837
 10
220.5530289609
 20
200.9337780975
 10
220.2716503341
 20
200.9362349265
 10
219.9790250558
 20
200.938788613
  0
LINE
  5
2FA
330
7A3
100
AcDbEntity
  8
0
  6
Continuous
 62
     8
100
AcDbLine
 10
233.4785103846
 20
212.8209801369
 30
0.0
 11
233.4785103846
 21
214.3209794515
 31
0.0
  0
LWPOLYLINE
  5
2FB
330
7A3
100
AcDbEntity
  8
0
  6
Continuous
 62
     8
100
AcDbPolyline
 90
        9
 70
   128
 43
0.0
 10
220.7054976422
 20
112.2947981559
 10
220.6766769338
 20
112.2950514757
 10
220.5913212199
 20
112.2957965337
 10
220.4527124811
 20
112.2970035278
 10
220.26617602
 20
112.2986352049
 10
220.0388792951
 20
112.3006170594
 10
219.7795581121
 20
112.3028820359
 10
219.4981794853
 20
112.3053332769
 10
219.2055560697
 20
112.307888826
  0
LWPOLYLINE
  5
2FC
330
7A3
100
AcDbEntity
  8
0
  6
Continuous
 62
     8
100
AcDbPolyline
 90
        9
 70
   128
 43
0.0
 10
176.4597516555
 20
112.2947981559
 10
176.4885723639
 20
112.2950514757
 10
176.5739280779
 20
112.2957965337
 10
176.7125368167
 20
112.2970035278
 10
176.8990732778
 20
112.2986352049
 10
177.1263700027
 20
112.3006170594
 10
177.3856911857
 20
112.3028820359
 10
177.6670698125
 20
112.3053332769
 10
177.9596932281
 20
112.307888826
  0
LINE
  5
2FD
330
7A3
100
AcDbEntity
  8
0
  6
Continuous
 62
     8
100
AcDbLine
 10
217.7056126345
 20
109.3209808671
 30
0.0
 11
217.7056126345
 21
110.8209764563
 31
0.0
  0
LINE
  5
2FE
330
7A3
100
AcDbEntity
  8
0
  6
Continuous
 62
     8
100
AcDbLine
 10
179.4596366633
 20
109.3209808671
 30
0.0
 11
179.4596366633
 21
110.8209764563
 31
0.0
  0
ARC
  5
2FF
330
7A3
100
AcDbEntity
  8
0
  6
Continuous
 62
     8
100
AcDbCircle
 10
168.0359248321
 20
242.7397612375
 30
0.0
 40
7.940245197512177
100
AcDbArc
 50
269.5341782718
 51
350.6665006669999
  0
ARC
  5
300
330
7A3
100
AcDbEntity
  8
0
  6
Continuous
 62
     8
100
AcDbCircle
 10
229.1293244657
 20
242.7397612375
 30
0.0
 40
7.940245197512177
100
AcDbArc
 50
189.333499333
 51
270.4658217282
  0
LWPOLYLINE
  5
301
330
7A3
100
AcDbEntity
  8
0
  6
Continuous
 62
     8
100
AcDbPolyline
 90
        7
 70
   128
 43
0.0
 10
229.1767425883
 20
234.8209800177
 10
229.1767425883
 20
234.8209800177
 10
229.1767612148
 20
234.8209567346
 10
229.1771449197
 20
234.8204873481
 10
229.1825279642
 20
234.8138721638
 10
229.1938714731
 20
234.7997868412
 10
229.1938789237
 20
234.7997784593
  0
LWPOLYLINE
  5
302
330
7A3
100
AcDbEntity
  8
0
  6
Continuous
 62
     8
100
AcDbPolyline
 90
        7
 70
   128
 43
0.0
 10
167.9885067094
 20
234.8209800177
 10
167.9885067094
 20
234.8209800177
 10
167.988488083
 20
234.8209567346
 10
167.9881043781
 20
234.8204873481
 10
167.9827213336
 20
234.8138721638
 10
167.9713778246
 20
234.7997868412
 10
167.971370374
 20
234.7997784593
  0
LINE
  5
303
330
7A3
100
AcDbEntity
  8
0
  6
Continuous
 62
     8
100
AcDbLine
 10
107.5826264966
 20
248.8523529821
 30
0.0
 11
107.8083641875
 21
248.8523529821
 31
0.0
  0
LINE
  5
304
330
7A3
100
AcDbEntity
  8
0
  6
Continuous
 62
     8
100
AcDbLine
 10
139.3568866003
 20
248.8523529821
 30
0.0
 11
139.5826242912
 21
248.8523529821
 31
0.0
  0
LINE
  5
305
330
7A3
100
AcDbEntity
  8
0
  6
Continuous
 62
     8
100
AcDbLine
 10
129.1503883947
 20
248.8523529821
 30
0.0
 11
133.7891198743
 21
248.8523529821
 31
0.0
  0
LINE
  5
306
330
7A3
100
AcDbEntity
  8
0
  6
Continuous
 62
     8
100
AcDbLine
 10
113.376123463
 20
248.8523529821
 30
0.0
 11
118.0148623932
 21
248.8523529821
 31
0.0
  0
LINE
  5
307
330
7A3
100
AcDbEntity
  8
0
  6
Continuous
 62
     8
100
AcDbLine
 10
257.5826250065
 20
248.8523529821
 30
0.0
 11
257.8083626974
 21
248.8523529821
 31
0.0
  0
LINE
  5
308
330
7A3
100
AcDbEntity
  8
0
  6
Continuous
 62
     8
100
AcDbLine
 10
289.3568851102
 20
248.8523529821
 30
0.0
 11
289.5826228011
 21
248.8523529821
 31
0.0
  0
LINE
  5
309
330
7A3
100
AcDbEntity
  8
0
  6
Continuous
 62
     8
100
AcDbLine
 10
279.1503869045
 20
248.8523529821
 30
0.0
 11
283.7891258348
 21
248.8523529821
 31
0.0
  0
LINE
  5
30A
330
7A3
100
AcDbEntity
  8
0
  6
Continuous
 62
     8
100
AcDbLine
 10
263.3761294234
 20
248.8523529821
 30
0.0
 11
268.0148609031
 21
248.8523529821
 31
0.0
  0
LINE
  5
30B
330
7A3
100
AcDbEntity
  8
0
  6
Continuous
 62
     8
100
AcDbLine
 10
129.1503883947
 20
239.7896064424
 30
0.0
 11
133.7891198743
 21
239.7896064424
 31
0.0
  0
LINE
  5
30C
330
7A3
100
AcDbEntity
  8
0
  6
Continuous
 62
     8
100
AcDbLine
 10
113.376123463
 20
239.7896064424
 30
0.0
 11
118.0148623932
 21
239.7896064424
 31
0.0
  0
LINE
  5
30D
330
7A3
100
AcDbEntity
  8
0
  6
Continuous
 62
     8
100
AcDbLine
 10
279.1503869045
 20
239.7896064424
 30
0.0
 11
283.7891258348
 21
239.7896064424
 31
0.0
  0
LINE
  5
30E
330
7A3
100
AcDbEntity
  8
0
  6
Continuous
 62
     8
100
AcDbLine
 10
263.3761294234
 20
239.7896064424
 30
0.0
 11
268.0148609031
 21
239.7896064424
 31
0.0
  0
LINE
  5
30F
330
7A3
100
AcDbEntity
  8
0
  6
Continuous
 62
     8
100
AcDbLine
 10
139.3568866003
 20
239.7896064424
 30
0.0
 11
139.5826242912
 21
239.7896064424
 31
0.0
  0
LINE
  5
310
330
7A3
100
AcDbEntity
  8
0
  6
Continuous
 62
     8
100
AcDbLine
 10
107.5826264966
 20
239.7896064424
 30
0.0
 11
107.8083641875
 21
239.7896064424
 31
0.0
  0
LINE
  5
311
330
7A3
100
AcDbEntity
  8
0
  6
Continuous
 62
     8
100
AcDbLine
 10
289.3568851102
 20
239.7896064424
 30
0.0
 11
289.5826228011
 21
239.7896064424
 31
0.0
  0
LINE
  5
312
330
7A3
100
AcDbEntity
  8
0
  6
Continuous
 62
     8
100
AcDbLine
 10
257.5826250065
 20
239.7896064424
 30
0.0
 11
257.8083626974
 21
239.7896064424
 31
0.0
  0
LINE
  5
313
330
7A3
100
AcDbEntity
  8
0
  6
Continuous
 62
     8
100
AcDbLine
 10
109.201697265
 20
233.5642542668
 30
0.0
 11
109.2001177419
 21
233.5660545134
 31
0.0
  0
LINE
  5
314
330
7A3
100
AcDbEntity
  8
0
  6
Continuous
 62
     8
100
AcDbLine
 10
287.9635520328
 20
233.5642542668
 30
0.0
 11
287.9651315559
 21
233.5660545134
 31
0.0
  0
LINE
  5
315
330
7A3
100
AcDbEntity
  8
0
  6
Continuous
 62
     8
100
AcDbLine
 10
287.9651315559
 20
233.5660545134
 30
0.0
 11
287.9715912092
 21
233.5732387357
 31
0.0
  0
LINE
  5
316
330
7A3
100
AcDbEntity
  8
0
  6
Continuous
 62
     8
100
AcDbLine
 10
109.2001177419
 20
233.5660545134
 30
0.0
 11
109.1936580885
 21
233.5732387357
 31
0.0
  0
LINE
  5
317
330
7A3
100
AcDbEntity
  8
0
  6
Continuous
 62
     8
100
AcDbLine
 10
273.5826276291
 20
254.87066563
 30
0.0
 11
308.1644080628
 21
254.87066563
 31
0.0
  0
LINE
  5
318
330
7A3
100
AcDbEntity
  8
0
  6
Continuous
 62
     8
100
AcDbLine
 10
239.0008434702
 20
254.87066563
 30
0.0
 11
273.5826276291
 21
254.87066563
 31
0.0
  0
LINE
  5
319
330
7A3
100
AcDbEntity
  8
0
  6
Continuous
 62
     8
100
AcDbLine
 10
273.5826276291
 20
252.9057128333
 30
0.0
 11
306.1884768356
 21
252.9057128333
 31
0.0
  0
LINE
  5
31A
330
7A3
100
AcDbEntity
  8
0
  6
Continuous
 62
     8
100
AcDbLine
 10
240.9767709721
 20
252.9057128333
 30
0.0
 11
273.5826276291
 21
252.9057128333
 31
0.0
  0
ENDSEC
  0
SECTION
  2
OBJECTS
  0
DICTIONARY
  5
793
330
0
100
AcDbDictionary
281
     1
  3
ACAD_DETAILVIEWSTYLE
350
806
  3
ACAD_GROUP
350
794
  3
ACAD_LAYOUT
350
7A0
  3
ACAD_MATERIAL
350
7AE
  3
ACAD_MLEADERSTYLE
350
7F9
  3
ACAD_MLINESTYLE
350
79D
  3
ACAD_PLOTSETTINGS
350
79F
  3
ACAD_PLOTSTYLENAME
350
795
  3
ACAD_SCALELIST
350
7BC
  3
ACAD_SECTIONVIEWSTYLE
350
807
  3
ACAD_TABLESTYLE
350
7F7
  3
ACAD_VISUALSTYLE
350
7DE
  3
ACDB_RECOMPOSE_DATA
350
80A
  3
AcDbVariableDictionary
350
7FE
  3
APPDATA
350
7FB
  0
DICTIONARY
  5
7FC
330
7A3
100
AcDbDictionary
280
     1
281
     1
  3
DIM_BOUNDING_BOXES_V1
360
7FD
  0
DICTIONARY
  5
806
102
{ACAD_REACTORS
330
793
102
}
330
793
100
AcDbDictionary
281
     1
  0
DICTIONARY
  5
794
102
{ACAD_REACTORS
330
793
102
}
330
793
100
AcDbDictionary
281
     1
  0
DICTIONARY
  5
7A0
102
{ACAD_REACTORS
330
793
102
}
330
793
100
AcDbDictionary
281
     1
  3
Blatt1
350
7A2
  3
Model
350
7A4
  0
DICTIONARY
  5
7AE
102
{ACAD_REACTORS
330
793
102
}
330
793
100
AcDbDictionary
281
     1
  3
ByBlock
350
7B0
  3
ByLayer
350
7AF
  3
Global
350
7B1
  0
DICTIONARY
  5
7F9
102
{ACAD_REACTORS
330
793
102
}
330
793
100
AcDbDictionary
281
     1
  3
Standard
350
7FA
  0
DICTIONARY
  5
79D
102
{ACAD_REACTORS
330
793
102
}
330
793
100
AcDbDictionary
281
     1
  3
Standard
350
79E
  0
DICTIONARY
  5
79F
102
{ACAD_REACTORS
330
793
102
}
330
793
100
AcDbDictionary
281
     1
  0
ACDBDICTIONARYWDFLT
  5
795
102
{ACAD_REACTORS
330
793
102
}
330
793
100
AcDbDictionary
281
     1
  3
Normal
350
796
100
AcDbDictionaryWithDefault
340
796
  0
DICTIONARY
  5
7BC
102
{ACAD_REACTORS
330
793
102
}
330
793
100
AcDbDictionary
281
     1
  3
A0
350
7BD
  3
A1
350
7BE
  3
A2
350
7BF
  3
A3
350
7C0
  3
A4
350
7C1
  3
A5
350
7C2
  3
A6
350
7C3
  3
A7
350
7C4
  3
A8
350
7C5
  3
A9
350
7C6
  3
B0
350
7C7
  3
B1
350
7C8
  3
B2
350
7C9
  3
B3
350
7CA
  3
B4
350
7CB
  3
B5
350
7CC
  3
B6
350
7CD
  3
B7
350
7CE
  3
B8
350
7CF
  3
B9
350
7D0
  3
C0
350
7D1
  3
C1
350
7D2
  3
C2
350
7D3
  3
C3
350
7D4
  3
C4
350
7D5
  3
C5
350
7D6
  3
C6
350
7D7
  3
C7
350
7D8
  3
C8
350
7D9
  3
C9
350
7DA
  3
D0
350
7DB
  3
D1
350
7DC
  3
D2
350
7DD
  0
DICTIONARY
  5
807
102
{ACAD_REACTORS
330
793
102
}
330
793
100
AcDbDictionary
281
     1
  0
DICTIONARY
  5
7F7
102
{ACAD_REACTORS
330
793
102
}
330
793
100
AcDbDictionary
281
     1
  3
Standard
350
7F8
  0
DICTIONARY
  5
7DE
102
{ACAD_REACTORS
330
793
102
}
330
793
100
AcDbDictionary
281
     1
  3
2dWireframe
350
7E3
  3
Basic
350
7E6
  3
Brighten
350
7EA
  3
ColorChange
350
7EE
  3
Conceptual
350
7E8
  3
Dim
350
7E9
  3
EdgeColorOff
350
7F1
  3
Facepattern
350
7ED
  3
Flat
350
7DF
  3
FlatWithEdges
350
7E0
  3
Gouraud
350
7E1
  3
GouraudWithEdges
350
7E2
  3
Hidden
350
7E5
  3
JitterOff
350
7EF
  3
Linepattern
350
7EC
  3
OverhangOff
350
7F0
  3
Realistic
350
7E7
  3
Shaded
350
7F6
  3
Shaded with edges
350
7F5
  3
Shades of Gray
350
7F2
  3
Sketchy
350
7F3
  3
Thicken
350
7EB
  3
Wireframe
350
7E4
  3
X-Ray
350
7F4
  0
XRECORD
  5
80A
102
{ACAD_REACTORS
330
793
102
}
330
793
100
AcDbXrecord
280
     1
 90
        1
330
7F8
  0
DICTIONARY
  5
7FE
102
{ACAD_REACTORS
330
793
102
}
330
793
100
AcDbDictionary
281
     1
  3
CANNOSCALE
350
7FF
  3
CMLEADERSTYLE
350
804
  3
CTABLESTYLE
350
803
  3
MSLTSCALE
350
805
  0
DICTIONARY
  5
7FB
102
{ACAD_REACTORS
330
793
102
}
330
793
100
AcDbDictionary
281
     1
  0
DICTIONARY
  5
7FD
102
{ACAD_REACTORS
330
7FC
102
}
330
7FC
100
AcDbDictionary
281
     1
  0
LAYOUT
  5
7A2
102
{ACAD_REACTORS
330
7A0
102
}
330
7A0
100
AcDbPlotSettings
  1

  2
none_device
  4

  6

 40
0.0
 41
0.0
 42
0.0
 43
0.0
 44
0.0
 45
0.0
 46
0.0
 47
0.0
 48
0.0
 49
0.0
140
0.0
141
0.0
142
1.0
143
1.0
 70
   688
 72
     0
 73
     0
 74
     5
  7

 75
    16
 76
     0
 77
     2
 78
   300
147
1.0
148
0.0
149
0.0
100
AcDbLayout
  1
Blatt1
 70
     1
 71
     1
 10
0.0
 20
0.0
 11
0.0
 21
0.0
 12
0.0
 22
0.0
 32
0.0
 14
1.000000000000000E+20
 24
1.000000000000000E+20
 34
1.000000000000000E+20
 15
-1.000000000000000E+20
 25
-1.000000000000000E+20
 35
-1.000000000000000E+20
146
0.0
 13
0.0
 23
0.0
 33
0.0
 16
1.0
 26
0.0
 36
0.0
 17
0.0
 27
1.0
 37
0.0
 76
     0
330
7A1
  0
LAYOUT
  5
7A4
102
{ACAD_REACTORS
330
7A0
102
}
330
7A0
100
AcDbPlotSettings
  1

  2
none_device
  4
Letter_(8.50_x_11.00_Inches)
  6

 40
6.35
 41
6.35
 42
6.35
 43
6.35
 44
215.9
 45
279.4
 46
0.0
 47
0.0
 48
0.0
 49
0.0
140
0.0
141
0.0
142
1.0
143
1.0
 70
  1712
 72
     0
 73
     0
 74
     0
  7

 75
     0
 76
     0
 77
     2
 78
   300
147
1.0
148
0.0
149
0.0
100
AcDbLayout
  1
Model
 70
     1
 71
     0
 10
0.0
 20
0.0
 11
12.0
 21
9.0
 12
0.0
 22
0.0
 32
0.0
 14
33.76143973320001
 24
37.46023423129998
 34
0.0
 15
531.1170398543
 25
437.2370870284
 35
0.0
146
0.0
 13
0.0
 23
0.0
 33
0.0
 16
1.0
 26
0.0
 36
0.0
 17
0.0
 27
1.0
 37
0.0
 76
     0
330
7A3
331
7A6
  0
MATERIAL
  5
7B0
102
{ACAD_REACTORS
330
7AE
102
}
330
7AE
100
AcDbMaterial
  1
ByBlock
 72
     1
 94
      127
  0
MATERIAL
  5
7AF
102
{ACAD_REACTORS
330
7AE
102
}
330
7AE
100
AcDbMaterial
  1
ByLayer
 72
     1
 94
      127
  0
MATERIAL
  5
7B1
102
{ACAD_REACTORS
330
7AE
102
}
330
7AE
100
AcDbMaterial
  1
Global
 72
     1
 94
      127
  0
MLEADERSTYLE
  5
7FA
102
{ACAD_REACTORS
330
7F9
102
}
330
7F9
100
AcDbMLeaderStyle
179
     2
170
     2
171
     1
172
     0
 90
        2
 40
0.0
 41
0.0
173
     1
 91
-1056964608
340
79A
 92
       -2
290
     1
 42
0.09
291
     1
 43
0.36
  3
Standard
341
0
 44
0.18
300

342
798
174
     1
178
     1
175
     1
176
     0
 93
-1056964608
 45
0.18
292
     0
297
     0
 46
0.18
343
0
 94
-1056964608
 47
1.0
 49
1.0
140
1.0
293
     1
141
0.0
294
     1
177
     0
142
1.0
295
     0
296
     0
143
0.125
271
     0
272
     9
273
     9
298
     0
  0
MLINESTYLE
  5
79E
102
{ACAD_REACTORS
330
79D
102
}
330
79D
100
AcDbMlineStyle
  2
Standard
 70
     0
  3

 62
   256
 51
90.0
 52
90.0
 71
     2
 49
0.5
 62
   256
  6
BYLAYER
 49
-0.5
 62
   256
  6
BYLAYER
  0
ACDBPLACEHOLDER
  5
796
102
{ACAD_REACTORS
330
795
102
}
330
795
  0
SCALE
  5
7BD
102
{ACAD_REACTORS
330
7BC
102
}
330
7BC
100
AcDbScale
 70
     0
300
1:1
140
1.0
141
1.0
290
     1
  0
SCALE
  5
7BE
102
{ACAD_REACTORS
330
7BC
102
}
330
7BC
100
AcDbScale
 70
     0
300
1:2
140
1.0
141
2.0
290
     0
  0
SCALE
  5
7BF
102
{ACAD_REACTORS
330
7BC
102
}
330
7BC
100
AcDbScale
 70
     0
300
1:4
140
1.0
141
4.0
290
     0
  0
SCALE
  5
7C0
102
{ACAD_REACTORS
330
7BC
102
}
330
7BC
100
AcDbScale
 70
     0
300
1:5
140
1.0
141
5.0
290
     0
  0
SCALE
  5
7C1
102
{ACAD_REACTORS
330
7BC
102
}
330
7BC
100
AcDbScale
 70
     0
300
1:8
140
1.0
141
8.0
290
     0
  0
SCALE
  5
7C2
102
{ACAD_REACTORS
330
7BC
102
}
330
7BC
100
AcDbScale
 70
     0
300
1:10
140
1.0
141
10.0
290
     0
  0
SCALE
  5
7C3
102
{ACAD_REACTORS
330
7BC
102
}
330
7BC
100
AcDbScale
 70
     0
300
1:16
140
1.0
141
16.0
290
     0
  0
SCALE
  5
7C4
102
{ACAD_REACTORS
330
7BC
102
}
330
7BC
100
AcDbScale
 70
     0
300
1:20
140
1.0
141
20.0
290
     0
  0
SCALE
  5
7C5
102
{ACAD_REACTORS
330
7BC
102
}
330
7BC
100
AcDbScale
 70
     0
300
1:30
140
1.0
141
30.0
290
     0
  0
SCALE
  5
7C6
102
{ACAD_REACTORS
330
7BC
102
}
330
7BC
100
AcDbScale
 70
     0
300
1:40
140
1.0
141
40.0
290
     0
  0
SCALE
  5
7C7
102
{ACAD_REACTORS
330
7BC
102
}
330
7BC
100
AcDbScale
 70
     0
300
1:50
140
1.0
141
50.0
290
     0
  0
SCALE
  5
7C8
102
{ACAD_REACTORS
330
7BC
102
}
330
7BC
100
AcDbScale
 70
     0
300
1:100
140
1.0
141
100.0
290
     0
  0
SCALE
  5
7C9
102
{ACAD_REACTORS
330
7BC
102
}
330
7BC
100
AcDbScale
 70
     0
300
2:1
140
2.0
141
1.0
290
     0
  0
SCALE
  5
7CA
102
{ACAD_REACTORS
330
7BC
102
}
330
7BC
100
AcDbScale
 70
     0
300
4:1
140
4.0
141
1.0
290
     0
  0
SCALE
  5
7CB
102
{ACAD_REACTORS
330
7BC
102
}
330
7BC
100
AcDbScale
 70
     0
300
8:1
140
8.0
141
1.0
290
     0
  0
SCALE
  5
7CC
102
{ACAD_REACTORS
330
7BC
102
}
330
7BC
100
AcDbScale
 70
     0
300
10:1
140
10.0
141
1.0
290
     0
  0
SCALE
  5
7CD
102
{ACAD_REACTORS
330
7BC
102
}
330
7BC
100
AcDbScale
 70
     0
300
100:1
140
100.0
141
1.0
290
     0
  0
SCALE
  5
7CE
102
{ACAD_REACTORS
330
7BC
102
}
330
7BC
100
AcDbScale
 70
     0
300
1/128" = 1'-0"
140
0.0078125
141
12.0
290
     0
  0
SCALE
  5
7CF
102
{ACAD_REACTORS
330
7BC
102
}
330
7BC
100
AcDbScale
 70
     0
300
1/64" = 1'-0"
140
0.015625
141
12.0
290
     0
  0
SCALE
  5
7D0
102
{ACAD_REACTORS
330
7BC
102
}
330
7BC
100
AcDbScale
 70
     0
300
1/32" = 1'-0"
140
0.03125
141
12.0
290
     0
  0
SCALE
  5
7D1
102
{ACAD_REACTORS
330
7BC
102
}
330
7BC
100
AcDbScale
 70
     0
300
1/16" = 1'-0"
140
0.0625
141
12.0
290
     0
  0
SCALE
  5
7D2
102
{ACAD_REACTORS
330
7BC
102
}
330
7BC
100
AcDbScale
 70
     0
300
3/32" = 1'-0"
140
0.09375
141
12.0
290
     0
  0
SCALE
  5
7D3
102
{ACAD_REACTORS
330
7BC
102
}
330
7BC
100
AcDbScale
 70
     0
300
1/8" = 1'-0"
140
0.125
141
12.0
290
     0
  0
SCALE
  5
7D4
102
{ACAD_REACTORS
330
7BC
102
}
330
7BC
100
AcDbScale
 70
     0
300
3/16" = 1'-0"
140
0.1875
141
12.0
290
     0
  0
SCALE
  5
7D5
102
{ACAD_REACTORS
330
7BC
102
}
330
7BC
100
AcDbScale
 70
     0
300
1/4" = 1'-0"
140
0.25
141
12.0
290
     0
  0
SCALE
  5
7D6
102
{ACAD_REACTORS
330
7BC
102
}
330
7BC
100
AcDbScale
 70
     0
300
3/8" = 1'-0"
140
0.375
141
12.0
290
     0
  0
SCALE
  5
7D7
102
{ACAD_REACTORS
330
7BC
102
}
330
7BC
100
AcDbScale
 70
     0
300
1/2" = 1'-0"
140
0.5
141
12.0
290
     0
  0
SCALE
  5
7D8
102
{ACAD_REACTORS
330
7BC
102
}
330
7BC
100
AcDbScale
 70
     0
300
3/4" = 1'-0"
140
0.75
141
12.0
290
     0
  0
SCALE
  5
7D9
102
{ACAD_REACTORS
330
7BC
102
}
330
7BC
100
AcDbScale
 70
     0
300
1" = 1'-0"
140
1.0
141
12.0
290
     0
  0
SCALE
  5
7DA
102
{ACAD_REACTORS
330
7BC
102
}
330
7BC
100
AcDbScale
 70
     0
300
1-1/2" = 1'-0"
140
1.5
141
12.0
290
     0
  0
SCALE
  5
7DB
102
{ACAD_REACTORS
330
7BC
102
}
330
7BC
100
AcDbScale
 70
     0
300
3" = 1'-0"
140
3.0
141
12.0
290
     0
  0
SCALE
  5
7DC
102
{ACAD_REACTORS
330
7BC
102
}
330
7BC
100
AcDbScale
 70
     0
300
6" = 1'-0"
140
6.0
141
12.0
290
     0
  0
SCALE
  5
7DD
102
{ACAD_REACTORS
330
7BC
102
}
330
7BC
100
AcDbScale
 70
     0
300
1'-0" = 1'-0"
140
12.0
141
12.0
290
     0
  0
TABLESTYLE
  5
7F8
102
{ACAD_REACTORS
330
7F7
102
}
102
{ACAD_XDICTIONARY
360
808
102
}
330
7F7
100
AcDbTableStyle
  3
Standard
 70
     0
 71
     0
 40
0.06
 41
0.06
280
     0
281
     0
  7
STANDARD
140
0.18
170
     2
 62
     0
 63
   257
283
     0
 90
        4
 91
        0
  1

274
    -2
284
     1
 64
     0
275
    -2
285
     1
 65
     0
276
    -2
286
     1
 66
     0
277
    -2
287
     1
 67
     0
278
    -2
288
     1
 68
     0
279
    -2
289
     1
 69
     0
  7
STANDARD
140
0.25
170
     5
 62
     0
 63
   257
283
     0
 90
        4
 91
        0
  1

274
    -2
284
     1
 64
     0
275
    -2
285
     1
 65
     0
276
    -2
286
     1
 66
     0
277
    -2
287
     1
 67
     0
278
    -2
288
     1
 68
     0
279
    -2
289
     1
 69
     0
  7
STANDARD
140
0.18
170
     5
 62
     0
 63
   257
283
     0
 90
        4
 91
        0
  1

274
    -2
284
     1
 64
     0
275
    -2
285
     1
 65
     0
276
    -2
286
     1
 66
     0
277
    -2
287
     1
 67
     0
278
    -2
288
     1
 68
     0
279
    -2
289
     1
 69
     0
  0
VISUALSTYLE
  5
7E3
102
{ACAD_REACTORS
330
7DE
102
}
330
7DE
100
AcDbVisualStyle
  2
2dWireframe
 70
     4
177
     3
291
     0
 70
    58
 90
        0
176
     1
 90
        2
176
     1
 90
        0
176
     1
 90
        0
176
     1
 40
0.6
176
     1
 40
30.0
176
     1
 62
     7
420
 16777215
176
     1
 90
        1
176
     1
 90
        4
176
     1
 62
     7
176
     1
 62
   257
176
     1
 90
        1
176
     1
 90
        1
176
     1
 40
1.0
176
     1
 90
        0
176
     1
 62
   257
176
     1
 40
1.0
176
     1
 90
        1
176
     1
 90
        6
176
     1
 90
        2
176
     1
 62
     7
176
     1
 90
        5
176
     1
 90
        0
176
     1
 90
        0
176
     1
290
     0
176
     1
 90
        1
176
     1
 40
0.0
176
     1
 90
        0
176
     1
290
     1
176
     1
290
     1
176
     1
290
     0
176
     1
290
     0
176
     1
290
     0
176
     1
290
     0
176
     1
290
     0
176
     1
290
     0
176
     1
290
     0
176
     1
 90
       50
176
     1
 40
0.0
176
     1
 40
1.0
176
     1
 90
        0
176
     1
 62
    18
420
        0
176
     1
 90
       50
176
     1
 90
        3
176
     1
 62
     5
420
      255
176
     1
290
     0
176
     1
 90
       50
176
     1
 90
       50
176
     1
 90
       50
176
     1
290
     0
176
     1
 90
       50
176
     1
 62
   256
176
     0
 40
1.0
176
     0
 90
        2
176
     1
  1
strokes_ogs.tif
176
     1
290
     0
176
     1
 40
1.0
176
     1
 40
1.0
176
     1
  0
VISUALSTYLE
  5
7E6
102
{ACAD_REACTORS
330
7DE
102
}
330
7DE
100
AcDbVisualStyle
  2
Basic
 70
     7
177
     3
291
     1
 70
    58
 90
        1
176
     1
 90
        0
176
     1
 90
        1
176
     1
 90
        0
176
     1
 40
0.6
176
     1
 40
30.0
176
     1
 62
     7
420
 16777215
176
     1
 90
        0
176
     1
 90
        4
176
     1
 62
     7
176
     1
 62
   257
176
     1
 90
        1
176
     1
 90
        1
176
     1
 40
1.0
176
     1
 90
        8
176
     1
 62
     7
176
     1
 40
1.0
176
     1
 90
        1
176
     1
 90
        6
176
     1
 90
        2
176
     1
 62
     7
176
     1
 90
        5
176
     1
 90
        0
176
     1
 90
        0
176
     1
290
     0
176
     1
 90
        1
176
     1
 40
0.0
176
     1
 90
        0
176
     1
290
     0
176
     1
290
     1
176
     1
290
     1
176
     1
290
     0
176
     1
290
     0
176
     1
290
     0
176
     1
290
     0
176
     1
290
     0
176
     1
290
     0
176
     1
 90
       50
176
     1
 40
0.0
176
     1
 40
1.0
176
     1
 90
        0
176
     1
 62
    18
420
        0
176
     1
 90
       50
176
     1
 90
        3
176
     1
 62
     5
420
      255
176
     1
290
     0
176
     1
 90
       50
176
     1
 90
       50
176
     1
 90
       50
176
     1
290
     0
176
     1
 90
       50
176
     1
 62
   256
176
     0
 40
1.0
176
     0
 90
        2
176
     1
  1
strokes_ogs.tif
176
     1
290
     0
176
     1
 40
1.0
176
     1
 40
1.0
176
     1
  0
VISUALSTYLE
  5
7EA
102
{ACAD_REACTORS
330
7DE
102
}
330
7DE
100
AcDbVisualStyle
  2
Brighten
 70
    12
177
     3
291
     1
 70
    58
 90
        2
176
     1
 90
        2
176
     1
 90
        0
176
     1
 90
        0
176
     1
 40
0.6
176
     1
 40
30.0
176
     1
 62
     7
420
 16777215
176
     1
 90
        1
176
     1
 90
        4
176
     1
 62
     7
176
     1
 62
   257
176
     1
 90
        1
176
     1
 90
        1
176
     1
 40
1.0
176
     1
 90
        8
176
     1
 62
     7
176
     1
 40
1.0
176
     1
 90
        1
176
     1
 90
        6
176
     1
 90
        2
176
     1
 62
     7
176
     1
 90
        5
176
     1
 90
        0
176
     1
 90
        0
176
     1
290
     0
176
     1
 90
        1
176
     1
 40
50.0
176
     1
 90
        0
176
     1
290
     0
176
     1
290
     1
176
     1
290
     1
176
     1
290
     0
176
     1
290
     0
176
     1
290
     0
176
     1
290
     0
176
     1
290
     0
176
     1
290
     0
176
     1
 90
       50
176
     1
 40
0.0
176
     1
 40
1.0
176
     1
 90
        0
176
     1
 62
    18
420
        0
176
     1
 90
       50
176
     1
 90
        3
176
     1
 62
     5
420
      255
176
     1
290
     0
176
     1
 90
       50
176
     1
 90
       50
176
     1
 90
       50
176
     1
290
     0
176
     1
 90
       50
176
     1
 62
   256
176
     0
 40
1.0
176
     0
 90
        2
176
     1
  1
strokes_ogs.tif
176
     1
290
     0
176
     1
 40
1.0
176
     1
 40
1.0
176
     1
  0
VISUALSTYLE
  5
7EE
102
{ACAD_REACTORS
330
7DE
102
}
330
7DE
100
AcDbVisualStyle
  2
ColorChange
 70
    16
177
     3
291
     1
 70
    58
 90
        2
176
     1
 90
        2
176
     1
 90
        3
176
     1
 90
        0
176
     1
 40
0.6
176
     1
 40
30.0
176
     1
 62
     8
420
  8421504
176
     1
 90
        1
176
     1
 90
        4
176
     1
 62
     7
176
     1
 62
   257
176
     1
 90
        1
176
     1
 90
        1
176
     1
 40
1.0
176
     1
 90
        8
176
     1
 62
     8
420
  8421504
176
     1
 40
1.0
176
     1
 90
        1
176
     1
 90
        6
176
     1
 90
        2
176
     1
 62
     7
176
     1
 90
        5
176
     1
 90
        0
176
     1
 90
        0
176
     1
290
     0
176
     1
 90
        1
176
     1
 40
0.0
176
     1
 90
        0
176
     1
290
     0
176
     1
290
     1
176
     1
290
     1
176
     1
290
     0
176
     1
290
     0
176
     1
290
     0
176
     1
290
     0
176
     1
290
     0
176
     1
290
     0
176
     1
 90
       50
176
     1
 40
0.0
176
     1
 40
1.0
176
     1
 90
        0
176
     1
 62
    18
420
        0
176
     1
 90
       50
176
     1
 90
        3
176
     1
 62
     5
420
      255
176
     1
290
     0
176
     1
 90
       50
176
     1
 90
       50
176
     1
 90
       50
176
     1
290
     0
176
     1
 90
       50
176
     1
 62
   256
176
     0
 40
1.0
176
     0
 90
        2
176
     1
  1
strokes_ogs.tif
176
     1
290
     0
176
     1
 40
1.0
176
     1
 40
1.0
176
     1
  0
VISUALSTYLE
  5
7E8
102
{ACAD_REACTORS
330
7DE
102
}
330
7DE
100
AcDbVisualStyle
  2
Conceptual
 70
     9
177
     3
291
     0
 70
    58
 90
        3
176
     1
 90
        2
176
     1
 90
        0
176
     1
 90
        0
176
     1
 40
0.6
176
     1
 40
30.0
176
     1
 62
     7
420
 16777215
176
     1
 90
        2
176
     1
 90
        2
176
     1
 62
     7
176
     1
 62
   257
176
     1
 90
        1
176
     1
 90
        1
176
     1
 40
179.0
176
     1
 90
        8
176
     1
 62
     7
176
     1
 40
1.0
176
     1
 90
        1
176
     1
 90
        6
176
     1
 90
        2
176
     1
 62
     7
176
     1
 90
        3
176
     1
 90
        0
176
     1
 90
        0
176
     1
290
     0
176
     1
 90
        1
176
     1
 40
0.0
176
     1
 90
        0
176
     1
290
     0
176
     1
290
     1
176
     1
290
     1
176
     1
290
     0
176
     1
290
     0
176
     1
290
     0
176
     1
290
     0
176
     1
290
     0
176
     1
290
     0
176
     1
 90
       50
176
     1
 40
0.0
176
     1
 40
1.0
176
     1
 90
        0
176
     1
 62
    18
420
        0
176
     1
 90
       50
176
     1
 90
        3
176
     1
 62
     5
420
      255
176
     1
290
     0
176
     1
 90
       50
176
     1
 90
       50
176
     1
 90
       50
176
     1
290
     0
176
     1
 90
       50
176
     1
 62
   256
176
     0
 40
1.0
176
     0
 90
        2
176
     1
  1
strokes_ogs.tif
176
     1
290
     0
176
     1
 40
1.0
176
     1
 40
1.0
176
     1
  0
VISUALSTYLE
  5
7E9
102
{ACAD_REACTORS
330
7DE
102
}
330
7DE
100
AcDbVisualStyle
  2
Dim
 70
    11
177
     3
291
     1
 70
    58
 90
        2
176
     1
 90
        2
176
     1
 90
        0
176
     1
 90
        0
176
     1
 40
0.6
176
     1
 40
30.0
176
     1
 62
     7
420
 16777215
176
     1
 90
        1
176
     1
 90
        4
176
     1
 62
     7
176
     1
 62
   257
176
     1
 90
        1
176
     1
 90
        1
176
     1
 40
1.0
176
     1
 90
        8
176
     1
 62
     7
176
     1
 40
1.0
176
     1
 90
        1
176
     1
 90
        6
176
     1
 90
        2
176
     1
 62
     7
176
     1
 90
        5
176
     1
 90
        0
176
     1
 90
        0
176
     1
290
     0
176
     1
 90
        1
176
     1
 40
-50.0
176
     1
 90
        0
176
     1
290
     0
176
     1
290
     1
176
     1
290
     1
176
     1
290
     0
176
     1
290
     0
176
     1
290
     0
176
     1
290
     0
176
     1
290
     0
176
     1
290
     0
176
     1
 90
       50
176
     1
 40
0.0
176
     1
 40
1.0
176
     1
 90
        0
176
     1
 62
    18
420
        0
176
     1
 90
       50
176
     1
 90
        3
176
     1
 62
     5
420
      255
176
     1
290
     0
176
     1
 90
       50
176
     1
 90
       50
176
     1
 90
       50
176
     1
290
     0
176
     1
 90
       50
176
     1
 62
   256
176
     0
 40
1.0
176
     0
 90
        2
176
     1
  1
strokes_ogs.tif
176
     1
290
     0
176
     1
 40
1.0
176
     1
 40
1.0
176
     1
  0
VISUALSTYLE
  5
7F1
102
{ACAD_REACTORS
330
7DE
102
}
330
7DE
100
AcDbVisualStyle
  2
EdgeColorOff
 70
    22
177
     3
291
     1
 70
    58
 90
        2
176
     0
 90
        2
176
     0
 90
        0
176
     0
 90
        0
176
     0
 40
0.6
176
     0
 40
30.0
176
     0
 62
     7
420
 16777215
176
     0
 90
        1
176
     0
 90
        4
176
     0
 62
     7
176
     0
 62
   257
176
     0
 90
        1
176
     0
 90
        1
176
     0
 40
1.0
176
     0
 90
        8
176
     2
 62
     7
176
     0
 40
1.0
176
     0
 90
        1
176
     0
 90
        6
176
     0
 90
        2
176
     0
 62
     7
176
     0
 90
        5
176
     0
 90
        0
176
     0
 90
        0
176
     0
290
     0
176
     0
 90
        1
176
     0
 40
0.0
176
     0
 90
        0
176
     0
290
     0
176
     0
290
     1
176
     0
290
     1
176
     0
290
     0
176
     0
290
     0
176
     0
290
     0
176
     0
290
     0
176
     0
290
     0
176
     0
290
     0
176
     0
 90
       50
176
     0
 40
0.0
176
     0
 40
1.0
176
     0
 90
        0
176
     0
 62
    18
420
        0
176
     0
 90
       50
176
     0
 90
        3
176
     0
 62
     5
420
      255
176
     0
290
     0
176
     0
 90
       50
176
     0
 90
       50
176
     0
 90
       50
176
     0
290
     0
176
     0
 90
       50
176
     0
 62
   256
176
     0
 40
1.0
176
     0
 90
        2
176
     0
  1
strokes_ogs.tif
176
     0
290
     0
176
     0
 40
1.0
176
     0
 40
1.0
176
     0
  0
VISUALSTYLE
  5
7ED
102
{ACAD_REACTORS
330
7DE
102
}
330
7DE
100
AcDbVisualStyle
  2
Facepattern
 70
    15
177
     3
291
     1
 70
    58
 90
        2
176
     1
 90
        2
176
     1
 90
        0
176
     1
 90
        0
176
     1
 40
0.6
176
     1
 40
30.0
176
     1
 62
     7
420
 16777215
176
     1
 90
        1
176
     1
 90
        4
176
     1
 62
     7
176
     1
 62
   257
176
     1
 90
        1
176
     1
 90
        1
176
     1
 40
1.0
176
     1
 90
        8
176
     1
 62
     7
176
     1
 40
1.0
176
     1
 90
        1
176
     1
 90
        6
176
     1
 90
        2
176
     1
 62
     7
176
     1
 90
        5
176
     1
 90
        0
176
     1
 90
        0
176
     1
290
     0
176
     1
 90
        1
176
     1
 40
0.0
176
     1
 90
        0
176
     1
290
     0
176
     1
290
     1
176
     1
290
     1
176
     1
290
     0
176
     1
290
     0
176
     1
290
     0
176
     1
290
     0
176
     1
290
     0
176
     1
290
     0
176
     1
 90
       50
176
     1
 40
0.0
176
     1
 40
1.0
176
     1
 90
        0
176
     1
 62
    18
420
        0
176
     1
 90
       50
176
     1
 90
        3
176
     1
 62
     5
420
      255
176
     1
290
     0
176
     1
 90
       50
176
     1
 90
       50
176
     1
 90
       50
176
     1
290
     0
176
     1
 90
       50
176
     1
 62
   256
176
     0
 40
1.0
176
     0
 90
        2
176
     1
  1
strokes_ogs.tif
176
     1
290
     0
176
     1
 40
1.0
176
     1
 40
1.0
176
     1
  0
VISUALSTYLE
  5
7DF
102
{ACAD_REACTORS
330
7DE
102
}
330
7DE
100
AcDbVisualStyle
  2
Flat
 70
     0
177
     3
291
     1
 70
    58
 90
        2
176
     1
 90
        1
176
     1
 90
        1
176
     1
 90
        2
176
     1
 40
0.6
176
     1
 40
30.0
176
     1
 62
     7
420
 16777215
176
     1
 90
        0
176
     1
 90
        0
176
     1
 62
     7
176
     1
 62
   257
176
     1
 90
        1
176
     1
 90
        1
176
     1
 40
1.0
176
     1
 90
        8
176
     1
 62
     7
176
     1
 40
1.0
176
     1
 90
        1
176
     1
 90
        6
176
     1
 90
        2
176
     1
 62
     7
176
     1
 90
        5
176
     1
 90
        0
176
     1
 90
        0
176
     1
290
     0
176
     1
 90
       13
176
     1
 40
0.0
176
     1
 90
        0
176
     1
290
     0
176
     1
290
     1
176
     1
290
     1
176
     1
290
     0
176
     1
290
     0
176
     1
290
     0
176
     1
290
     0
176
     1
290
     0
176
     1
290
     0
176
     1
 90
       50
176
     1
 40
0.0
176
     1
 40
1.0
176
     1
 90
        0
176
     1
 62
    18
420
        0
176
     1
 90
       50
176
     1
 90
        3
176
     1
 62
     5
420
      255
176
     1
290
     0
176
     1
 90
       50
176
     1
 90
       50
176
     1
 90
       50
176
     1
290
     0
176
     1
 90
       50
176
     1
 62
   256
176
     0
 40
1.0
176
     0
 90
        2
176
     1
  1
strokes_ogs.tif
176
     1
290
     0
176
     1
 40
1.0
176
     1
 40
1.0
176
     1
  0
VISUALSTYLE
  5
7E0
102
{ACAD_REACTORS
330
7DE
102
}
330
7DE
100
AcDbVisualStyle
  2
FlatWithEdges
 70
     1
177
     3
291
     1
 70
    58
 90
        2
176
     1
 90
        1
176
     1
 90
        1
176
     1
 90
        2
176
     1
 40
0.6
176
     1
 40
30.0
176
     1
 62
     7
420
 16777215
176
     1
 90
        1
176
     1
 90
        0
176
     1
 62
     7
176
     1
 62
   257
176
     1
 90
        1
176
     1
 90
        1
176
     1
 40
1.0
176
     1
 90
        0
176
     1
 62
   257
176
     1
 40
1.0
176
     1
 90
        1
176
     1
 90
        6
176
     1
 90
        2
176
     1
 62
     7
176
     1
 90
        5
176
     1
 90
        0
176
     1
 90
        0
176
     1
290
     0
176
     1
 90
       13
176
     1
 40
0.0
176
     1
 90
        0
176
     1
290
     0
176
     1
290
     1
176
     1
290
     1
176
     1
290
     0
176
     1
290
     0
176
     1
290
     0
176
     1
290
     0
176
     1
290
     0
176
     1
290
     0
176
     1
 90
       50
176
     1
 40
0.0
176
     1
 40
1.0
176
     1
 90
        0
176
     1
 62
    18
420
        0
176
     1
 90
       50
176
     1
 90
        3
176
     1
 62
     5
420
      255
176
     1
290
     0
176
     1
 90
       50
176
     1
 90
       50
176
     1
 90
       50
176
     1
290
     0
176
     1
 90
       50
176
     1
 62
   256
176
     0
 40
1.0
176
     0
 90
        2
176
     1
  1
strokes_ogs.tif
176
     1
290
     0
176
     1
 40
1.0
176
     1
 40
1.0
176
     1
  0
VISUALSTYLE
  5
7E1
102
{ACAD_REACTORS
330
7DE
102
}
330
7DE
100
AcDbVisualStyle
  2
Gouraud
 70
     2
177
     3
291
     1
 70
    58
 90
        2
176
     1
 90
        2
176
     1
 90
        1
176
     1
 90
        2
176
     1
 40
0.6
176
     1
 40
30.0
176
     1
 62
     7
420
 16777215
176
     1
 90
        0
176
     1
 90
        0
176
     1
 62
     7
176
     1
 62
   257
176
     1
 90
        1
176
     1
 90
        1
176
     1
 40
1.0
176
     1
 90
        0
176
     1
 62
     7
176
     1
 40
1.0
176
     1
 90
        1
176
     1
 90
        6
176
     1
 90
        2
176
     1
 62
     7
176
     1
 90
        5
176
     1
 90
        0
176
     1
 90
        0
176
     1
290
     0
176
     1
 90
       13
176
     1
 40
0.0
176
     1
 90
        0
176
     1
290
     0
176
     1
290
     1
176
     1
290
     1
176
     1
290
     0
176
     1
290
     0
176
     1
290
     0
176
     1
290
     0
176
     1
290
     0
176
     1
290
     0
176
     1
 90
       50
176
     1
 40
0.0
176
     1
 40
1.0
176
     1
 90
        0
176
     1
 62
    18
420
        0
176
     1
 90
       50
176
     1
 90
        3
176
     1
 62
     5
420
      255
176
     1
290
     0
176
     1
 90
       50
176
     1
 90
       50
176
     1
 90
       50
176
     1
290
     0
176
     1
 90
       50
176
     1
 62
   256
176
     0
 40
1.0
176
     0
 90
        2
176
     1
  1
strokes_ogs.tif
176
     1
290
     0
176
     1
 40
1.0
176
     1
 40
1.0
176
     1
  0
VISUALSTYLE
  5
7E2
102
{ACAD_REACTORS
330
7DE
102
}
330
7DE
100
AcDbVisualStyle
  2
GouraudWithEdges
 70
     3
177
     3
291
     1
 70
    58
 90
        2
176
     1
 90
        2
176
     1
 90
        1
176
     1
 90
        2
176
     1
 40
0.6
176
     1
 40
30.0
176
     1
 62
     7
420
 16777215
176
     1
 90
        1
176
     1
 90
        0
176
     1
 62
     7
176
     1
 62
   257
176
     1
 90
        1
176
     1
 90
        1
176
     1
 40
1.0
176
     1
 90
        0
176
     1
 62
   257
176
     1
 40
1.0
176
     1
 90
        1
176
     1
 90
        6
176
     1
 90
        2
176
     1
 62
     7
176
     1
 90
        5
176
     1
 90
        0
176
     1
 90
        0
176
     1
290
     0
176
     1
 90
       13
176
     1
 40
0.0
176
     1
 90
        0
176
     1
290
     0
176
     1
290
     1
176
     1
290
     1
176
     1
290
     0
176
     1
290
     0
176
     1
290
     0
176
     1
290
     0
176
     1
290
     0
176
     1
290
     0
176
     1
 90
       50
176
     1
 40
0.0
176
     1
 40
1.0
176
     1
 90
        0
176
     1
 62
    18
420
        0
176
     1
 90
       50
176
     1
 90
        3
176
     1
 62
     5
420
      255
176
     1
290
     0
176
     1
 90
       50
176
     1
 90
       50
176
     1
 90
       50
176
     1
290
     0
176
     1
 90
       50
176
     1
 62
   256
176
     0
 40
1.0
176
     0
 90
        2
176
     1
  1
strokes_ogs.tif
176
     1
290
     0
176
     1
 40
1.0
176
     1
 40
1.0
176
     1
  0
VISUALSTYLE
  5
7E5
102
{ACAD_REACTORS
330
7DE
102
}
330
7DE
100
AcDbVisualStyle
  2
Hidden
 70
     6
177
     3
291
     0
 70
    58
 90
        1
176
     1
 90
        2
176
     1
 90
        2
176
     1
 90
        0
176
     1
 40
0.6
176
     1
 40
30.0
176
     1
 62
     7
420
 16777215
176
     1
 90
        2
176
     1
 90
        2
176
     1
 62
     7
176
     1
 62
   257
176
     1
 90
        2
176
     1
 90
        1
176
     1
 40
40.0
176
     1
 90
        0
176
     1
 62
   257
176
     1
 40
1.0
176
     1
 90
        1
176
     1
 90
        6
176
     1
 90
        2
176
     1
 62
     7
176
     1
 90
        3
176
     1
 90
        0
176
     1
 90
        0
176
     1
290
     0
176
     1
 90
        1
176
     1
 40
0.0
176
     1
 90
        0
176
     1
290
     0
176
     1
290
     1
176
     1
290
     1
176
     1
290
     0
176
     1
290
     0
176
     1
290
     0
176
     1
290
     0
176
     1
290
     0
176
     1
290
     0
176
     1
 90
       50
176
     1
 40
0.0
176
     1
 40
1.0
176
     1
 90
        0
176
     1
 62
    18
420
        0
176
     1
 90
       50
176
     1
 90
        3
176
     1
 62
     5
420
      255
176
     1
290
     0
176
     1
 90
       50
176
     1
 90
       50
176
     1
 90
       50
176
     1
290
     0
176
     1
 90
       50
176
     1
 62
   256
176
     0
 40
1.0
176
     0
 90
        2
176
     1
  1
strokes_ogs.tif
176
     1
290
     0
176
     1
 40
1.0
176
     1
 40
1.0
176
     1
  0
VISUALSTYLE
  5
7EF
102
{ACAD_REACTORS
330
7DE
102
}
330
7DE
100
AcDbVisualStyle
  2
JitterOff
 70
    20
177
     3
291
     1
 70
    58
 90
        2
176
     0
 90
        2
176
     0
 90
        0
176
     0
 90
        0
176
     0
 40
0.6
176
     0
 40
30.0
176
     0
 62
     7
420
 16777215
176
     0
 90
        1
176
     0
 90
        4
176
     0
 62
     7
176
     0
 62
   257
176
     0
 90
        1
176
     0
 90
        1
176
     0
 40
1.0
176
     0
 90
       10
176
     2
 62
     7
176
     0
 40
1.0
176
     0
 90
        1
176
     0
 90
        6
176
     0
 90
        2
176
     0
 62
     7
176
     0
 90
        5
176
     0
 90
        0
176
     0
 90
        0
176
     0
290
     0
176
     0
 90
        1
176
     0
 40
0.0
176
     0
 90
        0
176
     0
290
     0
176
     0
290
     1
176
     0
290
     1
176
     0
290
     0
176
     0
290
     0
176
     0
290
     0
176
     0
290
     0
176
     0
290
     0
176
     0
290
     0
176
     0
 90
       50
176
     0
 40
0.0
176
     0
 40
1.0
176
     0
 90
        0
176
     0
 62
    18
420
        0
176
     0
 90
       50
176
     0
 90
        3
176
     0
 62
     5
420
      255
176
     0
290
     0
176
     0
 90
       50
176
     0
 90
       50
176
     0
 90
       50
176
     0
290
     0
176
     0
 90
       50
176
     0
 62
   256
176
     0
 40
1.0
176
     0
 90
        2
176
     0
  1
strokes_ogs.tif
176
     0
290
     0
176
     0
 40
1.0
176
     0
 40
1.0
176
     0
  0
VISUALSTYLE
  5
7EC
102
{ACAD_REACTORS
330
7DE
102
}
330
7DE
100
AcDbVisualStyle
  2
Linepattern
 70
    14
177
     3
291
     1
 70
    58
 90
        2
176
     1
 90
        2
176
     1
 90
        0
176
     1
 90
        0
176
     1
 40
0.6
176
     1
 40
30.0
176
     1
 62
     7
420
 16777215
176
     1
 90
        1
176
     1
 90
        4
176
     1
 62
     7
176
     1
 62
   257
176
     1
 90
        7
176
     1
 90
        7
176
     1
 40
1.0
176
     1
 90
        8
176
     1
 62
     7
176
     1
 40
1.0
176
     1
 90
        1
176
     1
 90
        6
176
     1
 90
        2
176
     1
 62
     7
176
     1
 90
        5
176
     1
 90
        0
176
     1
 90
        0
176
     1
290
     0
176
     1
 90
        1
176
     1
 40
0.0
176
     1
 90
        0
176
     1
290
     0
176
     1
290
     1
176
     1
290
     1
176
     1
290
     0
176
     1
290
     0
176
     1
290
     0
176
     1
290
     0
176
     1
290
     0
176
     1
290
     0
176
     1
 90
       50
176
     1
 40
0.0
176
     1
 40
1.0
176
     1
 90
        0
176
     1
 62
    18
420
        0
176
     1
 90
       50
176
     1
 90
        3
176
     1
 62
     5
420
      255
176
     1
290
     0
176
     1
 90
       50
176
     1
 90
       50
176
     1
 90
       50
176
     1
290
     0
176
     1
 90
       50
176
     1
 62
   256
176
     0
 40
1.0
176
     0
 90
        2
176
     1
  1
strokes_ogs.tif
176
     1
290
     0
176
     1
 40
1.0
176
     1
 40
1.0
176
     1
  0
VISUALSTYLE
  5
7F0
102
{ACAD_REACTORS
330
7DE
102
}
330
7DE
100
AcDbVisualStyle
  2
OverhangOff
 70
    21
177
     3
291
     1
 70
    58
 90
        2
176
     0
 90
        2
176
     0
 90
        0
176
     0
 90
        0
176
     0
 40
0.6
176
     0
 40
30.0
176
     0
 62
     7
420
 16777215
176
     0
 90
        1
176
     0
 90
        4
176
     0
 62
     7
176
     0
 62
   257
176
     0
 90
        1
176
     0
 90
        1
176
     0
 40
1.0
176
     0
 90
        9
176
     2
 62
     7
176
     0
 40
1.0
176
     0
 90
        1
176
     0
 90
        6
176
     0
 90
        2
176
     0
 62
     7
176
     0
 90
        5
176
     0
 90
        0
176
     0
 90
        0
176
     0
290
     0
176
     0
 90
        1
176
     0
 40
0.0
176
     0
 90
        0
176
     0
290
     0
176
     0
290
     1
176
     0
290
     1
176
     0
290
     0
176
     0
290
     0
176
     0
290
     0
176
     0
290
     0
176
     0
290
     0
176
     0
290
     0
176
     0
 90
       50
176
     0
 40
0.0
176
     0
 40
1.0
176
     0
 90
        0
176
     0
 62
    18
420
        0
176
     0
 90
       50
176
     0
 90
        3
176
     0
 62
     5
420
      255
176
     0
290
     0
176
     0
 90
       50
176
     0
 90
       50
176
     0
 90
       50
176
     0
290
     0
176
     0
 90
       50
176
     0
 62
   256
176
     0
 40
1.0
176
     0
 90
        2
176
     0
  1
strokes_ogs.tif
176
     0
290
     0
176
     0
 40
1.0
176
     0
 40
1.0
176
     0
  0
VISUALSTYLE
  5
7E7
102
{ACAD_REACTORS
330
7DE
102
}
330
7DE
100
AcDbVisualStyle
  2
Realistic
 70
     8
177
     3
291
     0
 70
    58
 90
        2
176
     1
 90
        3
176
     1
 90
        0
176
     1
 90
        2
176
     1
 40
0.6
176
     1
 40
30.0
176
     1
 62
     7
420
 16777215
176
     1
 90
        0
176
     1
 90
        0
176
     1
 62
     7
176
     1
 62
   257
176
     1
 90
        1
176
     1
 90
        1
176
     1
 40
1.0
176
     1
 90
        8
176
     1
 62
   257
176
     1
 40
1.0
176
     1
 90
        1
176
     1
 90
        6
176
     1
 90
        2
176
     1
 62
     7
176
     1
 90
        3
176
     1
 90
        0
176
     1
 90
        0
176
     1
290
     0
176
     1
 90
       13
176
     1
 40
0.0
176
     1
 90
        0
176
     1
290
     0
176
     1
290
     1
176
     1
290
     1
176
     1
290
     0
176
     1
290
     0
176
     1
290
     0
176
     1
290
     0
176
     1
290
     0
176
     1
290
     0
176
     1
 90
       50
176
     1
 40
0.0
176
     1
 40
1.0
176
     1
 90
        0
176
     1
 62
    18
420
        0
176
     1
 90
       50
176
     1
 90
        3
176
     1
 62
     5
420
      255
176
     1
290
     0
176
     1
 90
       50
176
     1
 90
       50
176
     1
 90
       50
176
     1
290
     0
176
     1
 90
       50
176
     1
 62
   256
176
     0
 40
1.0
176
     0
 90
        2
176
     1
  1
strokes_ogs.tif
176
     1
290
     0
176
     1
 40
1.0
176
     1
 40
1.0
176
     1
  0
VISUALSTYLE
  5
7F6
102
{ACAD_REACTORS
330
7DE
102
}
330
7DE
100
AcDbVisualStyle
  2
Shaded
 70
    27
177
     3
291
     0
 70
    58
 90
        2
176
     1
 90
        2
176
     1
 90
        1
176
     1
 90
        2
176
     1
 40
0.6
176
     1
 40
30.0
176
     1
 62
     7
420
 16777215
176
     1
 90
        0
176
     1
 90
        4
176
     1
 62
     7
176
     1
 62
   257
176
     1
 90
        1
176
     1
 90
        1
176
     1
 40
1.0
176
     1
 90
        8
176
     1
 62
   257
176
     1
 40
1.0
176
     1
 90
        1
176
     1
 90
        6
176
     1
 90
        2
176
     1
 62
     8
420
  7895160
176
     1
 90
        3
176
     1
 90
        0
176
     1
 90
        0
176
     1
290
     0
176
     1
 90
        5
176
     1
 40
0.0
176
     1
 90
        0
176
     1
290
     0
176
     1
290
     1
176
     1
290
     1
176
     1
290
     0
176
     1
290
     0
176
     1
290
     0
176
     1
290
     0
176
     1
290
     0
176
     1
290
     0
176
     1
 90
       50
176
     1
 40
0.0
176
     1
 40
1.0
176
     1
 90
        0
176
     1
 62
    18
420
        0
176
     1
 90
       50
176
     1
 90
        3
176
     1
 62
     5
420
      255
176
     1
290
     0
176
     1
 90
       50
176
     1
 90
       50
176
     1
 90
       50
176
     1
290
     0
176
     1
 90
       50
176
     1
 62
   256
176
     0
 40
1.0
176
     0
 90
        2
176
     1
  1
strokes_ogs.tif
176
     1
290
     0
176
     1
 40
1.0
176
     1
 40
1.0
176
     1
  0
VISUALSTYLE
  5
7F5
102
{ACAD_REACTORS
330
7DE
102
}
330
7DE
100
AcDbVisualStyle
  2
Shaded with edges
 70
    26
177
     3
291
     0
 70
    58
 90
        2
176
     1
 90
        2
176
     1
 90
        1
176
     1
 90
        2
176
     1
 40
0.6
176
     1
 40
30.0
176
     1
 62
     7
420
 16777215
176
     1
 90
        1
176
     1
 90
       10
176
     1
 62
     7
176
     1
 62
   257
176
     1
 90
        2
176
     1
 90
        1
176
     1
 40
1.0
176
     1
 90
        8
176
     1
 62
   257
176
     1
 40
1.0
176
     1
 90
        1
176
     1
 90
        6
176
     1
 90
        2
176
     1
 62
     7
176
     1
 90
        3
176
     1
 90
        0
176
     1
 90
        0
176
     1
290
     0
176
     1
 90
        5
176
     1
 40
0.0
176
     1
 90
        0
176
     1
290
     0
176
     1
290
     1
176
     1
290
     1
176
     1
290
     0
176
     1
290
     0
176
     1
290
     0
176
     1
290
     0
176
     1
290
     0
176
     1
290
     0
176
     1
 90
       50
176
     1
 40
0.0
176
     1
 40
1.0
176
     1
 90
        0
176
     1
 62
    18
420
        0
176
     1
 90
       50
176
     1
 90
        3
176
     1
 62
     5
420
      255
176
     1
290
     0
176
     1
 90
       50
176
     1
 90
       50
176
     1
 90
       50
176
     1
290
     0
176
     1
 90
       50
176
     1
 62
   256
176
     0
 40
1.0
176
     0
 90
        2
176
     1
  1
strokes_ogs.tif
176
     1
290
     0
176
     1
 40
1.0
176
     1
 40
1.0
176
     1
  0
VISUALSTYLE
  5
7F2
102
{ACAD_REACTORS
330
7DE
102
}
330
7DE
100
AcDbVisualStyle
  2
Shades of Gray
 70
    23
177
     3
291
     0
 70
    58
 90
        2
176
     1
 90
        2
176
     1
 90
        3
176
     1
 90
        0
176
     1
 40
0.6
176
     1
 40
30.0
176
     1
 62
     7
420
 16777215
176
     1
 90
        2
176
     1
 90
        2
176
     1
 62
     7
176
     1
 62
     7
176
     1
 90
        1
176
     1
 90
        1
176
     1
 40
40.0
176
     1
 90
        8
176
     1
 62
     7
176
     1
 40
1.0
176
     1
 90
        1
176
     1
 90
        6
176
     1
 90
        2
176
     1
 62
     7
176
     1
 90
        3
176
     1
 90
        0
176
     1
 90
        0
176
     1
290
     0
176
     1
 90
        1
176
     1
 40
0.0
176
     1
 90
        0
176
     1
290
     0
176
     1
290
     1
176
     1
290
     1
176
     1
290
     0
176
     1
290
     0
176
     1
290
     0
176
     1
290
     0
176
     1
290
     0
176
     1
290
     0
176
     1
 90
       50
176
     1
 40
0.0
176
     1
 40
1.0
176
     1
 90
        0
176
     1
 62
    18
420
        0
176
     1
 90
       50
176
     1
 90
        3
176
     1
 62
     5
420
      255
176
     1
290
     0
176
     1
 90
       50
176
     1
 90
       50
176
     1
 90
       50
176
     1
290
     0
176
     1
 90
       50
176
     1
 62
   256
176
     0
 40
1.0
176
     0
 90
        2
176
     1
  1
strokes_ogs.tif
176
     1
290
     0
176
     1
 40
1.0
176
     1
 40
1.0
176
     1
  0
VISUALSTYLE
  5
7F3
102
{ACAD_REACTORS
330
7DE
102
}
330
7DE
100
AcDbVisualStyle
  2
Sketchy
 70
    24
177
     3
291
     0
 70
    58
 90
        1
176
     1
 90
        2
176
     1
 90
        2
176
     1
 90
        0
176
     1
 40
0.6
176
     1
 40
30.0
176
     1
 62
     7
420
 16777215
176
     1
 90
        2
176
     1
 90
        2
176
     1
 62
     7
176
     1
 62
     7
176
     1
 90
        1
176
     1
 90
        1
176
     1
 40
40.0
176
     1
 90
       11
176
     1
 62
     7
176
     1
 40
1.0
176
     1
 90
        1
176
     1
 90
        6
176
     1
 90
        2
176
     1
 62
     7
176
     1
 90
        6
176
     1
 90
        0
176
     1
 90
        0
176
     1
290
     0
176
     1
 90
        1
176
     1
 40
0.0
176
     1
 90
        0
176
     1
290
     0
176
     1
290
     1
176
     1
290
     1
176
     1
290
     0
176
     1
290
     0
176
     1
290
     0
176
     1
290
     0
176
     1
290
     0
176
     1
290
     0
176
     1
 90
       50
176
     1
 40
0.0
176
     1
 40
1.0
176
     1
 90
        0
176
     1
 62
    18
420
        0
176
     1
 90
       50
176
     1
 90
        3
176
     1
 62
     5
420
      255
176
     1
290
     0
176
     1
 90
       50
176
     1
 90
       50
176
     1
 90
       50
176
     1
290
     0
176
     1
 90
       50
176
     1
 62
   256
176
     0
 40
1.0
176
     0
 90
        2
176
     1
  1
strokes_ogs.tif
176
     1
290
     0
176
     1
 40
1.0
176
     1
 40
1.0
176
     1
  0
VISUALSTYLE
  5
7EB
102
{ACAD_REACTORS
330
7DE
102
}
330
7DE
100
AcDbVisualStyle
  2
Thicken
 70
    13
177
     3
291
     1
 70
    58
 90
        2
176
     1
 90
        2
176
     1
 90
        0
176
     1
 90
        0
176
     1
 40
0.6
176
     1
 40
30.0
176
     1
 62
     7
420
 16777215
176
     1
 90
        1
176
     1
 90
        4
176
     1
 62
     7
176
     1
 62
   257
176
     1
 90
        1
176
     1
 90
        1
176
     1
 40
1.0
176
     1
 90
       12
176
     1
 62
     7
176
     1
 40
1.0
176
     1
 90
        1
176
     1
 90
        6
176
     1
 90
        2
176
     1
 62
     7
176
     1
 90
        5
176
     1
 90
        0
176
     1
 90
        0
176
     1
290
     0
176
     1
 90
        1
176
     1
 40
0.0
176
     1
 90
        0
176
     1
290
     0
176
     1
290
     1
176
     1
290
     1
176
     1
290
     0
176
     1
290
     0
176
     1
290
     0
176
     1
290
     0
176
     1
290
     0
176
     1
290
     0
176
     1
 90
       50
176
     1
 40
0.0
176
     1
 40
1.0
176
     1
 90
        0
176
     1
 62
    18
420
        0
176
     1
 90
       50
176
     1
 90
        3
176
     1
 62
     5
420
      255
176
     1
290
     0
176
     1
 90
       50
176
     1
 90
       50
176
     1
 90
       50
176
     1
290
     0
176
     1
 90
       50
176
     1
 62
   256
176
     0
 40
1.0
176
     0
 90
        2
176
     1
  1
strokes_ogs.tif
176
     1
290
     0
176
     1
 40
1.0
176
     1
 40
1.0
176
     1
  0
VISUALSTYLE
  5
7E4
102
{ACAD_REACTORS
330
7DE
102
}
330
7DE
100
AcDbVisualStyle
  2
Wireframe
 70
     5
177
     3
291
     0
 70
    58
 90
        0
176
     1
 90
        2
176
     1
 90
        0
176
     1
 90
        0
176
     1
 40
0.6
176
     1
 40
30.0
176
     1
 62
     7
420
 16777215
176
     1
 90
        1
176
     1
 90
        4
176
     1
 62
     7
176
     1
 62
   257
176
     1
 90
        1
176
     1
 90
        1
176
     1
 40
1.0
176
     1
 90
        0
176
     1
 62
   257
176
     1
 40
1.0
176
     1
 90
        1
176
     1
 90
        6
176
     1
 90
        2
176
     1
 62
     7
176
     1
 90
        3
176
     1
 90
        0
176
     1
 90
        0
176
     1
290
     0
176
     1
 90
        1
176
     1
 40
0.0
176
     1
 90
        0
176
     1
290
     0
176
     1
290
     1
176
     1
290
     1
176
     1
290
     0
176
     1
290
     0
176
     1
290
     0
176
     1
290
     0
176
     1
290
     0
176
     1
290
     0
176
     1
 90
       50
176
     1
 40
0.0
176
     1
 40
1.0
176
     1
 90
        0
176
     1
 62
    18
420
        0
176
     1
 90
       50
176
     1
 90
        3
176
     1
 62
     5
420
      255
176
     1
290
     0
176
     1
 90
       50
176
     1
 90
       50
176
     1
 90
       50
176
     1
290
     0
176
     1
 90
       50
176
     1
 62
   256
176
     0
 40
1.0
176
     0
 90
        2
176
     1
  1
strokes_ogs.tif
176
     1
290
     0
176
     1
 40
1.0
176
     1
 40
1.0
176
     1
  0
VISUALSTYLE
  5
7F4
102
{ACAD_REACTORS
330
7DE
102
}
330
7DE
100
AcDbVisualStyle
  2
X-Ray
 70
    25
177
     3
291
     0
 70
    58
 90
        2
176
     1
 90
        2
176
     1
 90
        1
176
     1
 90
        1
176
     1
 40
0.5
176
     1
 40
30.0
176
     1
 62
     7
420
 16777215
176
     1
 90
        1
176
     1
 90
        0
176
     1
 62
     7
176
     1
 62
   257
176
     1
 90
        1
176
     1
 90
        1
176
     1
 40
1.0
176
     1
 90
        8
176
     1
 62
     7
176
     1
 40
1.0
176
     1
 90
        1
176
     1
 90
        6
176
     1
 90
        2
176
     1
 62
     7
176
     1
 90
        3
176
     1
 90
        0
176
     1
 90
        0
176
     1
290
     0
176
     1
 90
       13
176
     1
 40
0.0
176
     1
 90
        0
176
     1
290
     0
176
     1
290
     1
176
     1
290
     1
176
     1
290
     0
176
     1
290
     0
176
     1
290
     0
176
     1
290
     0
176
     1
290
     0
176
     1
290
     0
176
     1
 90
       50
176
     1
 40
0.0
176
     1
 40
1.0
176
     1
 90
        0
176
     1
 62
    18
420
        0
176
     1
 90
       50
176
     1
 90
        3
176
     1
 62
     5
420
      255
176
     1
290
     0
176
     1
 90
       50
176
     1
 90
       50
176
     1
 90
       50
176
     1
290
     0
176
     1
 90
       50
176
     1
 62
   256
176
     0
 40
1.0
176
     0
 90
        2
176
     1
  1
strokes_ogs.tif
176
     1
290
     0
176
     1
 40
1.0
176
     1
 40
1.0
176
     1
  0
DICTIONARYVAR
  5
7FF
102
{ACAD_REACTORS
330
7FE
102
}
330
7FE
100
DictionaryVariables
280
     0
  1
1:1
  0
DICTIONARYVAR
  5
804
102
{ACAD_REACTORS
330
7FE
102
}
330
7FE
100
DictionaryVariables
280
     0
  1
Standard
  0
DICTIONARYVAR
  5
803
102
{ACAD_REACTORS
330
7FE
102
}
330
7FE
100
DictionaryVariables
280
     0
  1
Standard
  0
DICTIONARYVAR
  5
805
102
{ACAD_REACTORS
330
7FE
102
}
330
7FE
100
DictionaryVariables
280
     0
  1
0
  0
DICTIONARY
  5
808
330
7F8
100
AcDbDictionary
280
     1
281
     1
  3
ACAD_ROUNDTRIP_2008_TABLESTYLE_CELLSTYLEMAP
360
809
  0
CELLSTYLEMAP
  5
809
102
{ACAD_REACTORS
330
808
102
}
330
808
100
AcDbCellStyleMap
 90
        3
300
CELLSTYLE
  1
TABLEFORMAT_BEGIN
 90
        5
170
     1
 91
        0
 92
    32768
 62
   257
 93
        1
300
CONTENTFORMAT
  1
CONTENTFORMAT_BEGIN
 90
        0
 91
        0
 92
        4
 93
        0
300

 40
0.0
140
1.0
 94
        5
 62
     0
340
798
144
0.25
309
CONTENTFORMAT_END
171
     1
301
MARGIN
  1
CELLMARGIN_BEGIN
 40
0.06
 40
0.06
 40
0.06
 40
0.06
 40
0.06
 40
0.06
309
CELLMARGIN_END
 94
        6
 95
        1
302
GRIDFORMAT
  1
GRIDFORMAT_BEGIN
 90
        0
 91
        1
 62
     0
 92
       -2
340
79A
 93
        0
 40
0.045
309
GRIDFORMAT_END
 95
        2
302
GRIDFORMAT
  1
GRIDFORMAT_BEGIN
 90
        0
 91
        1
 62
     0
 92
       -2
340
79A
 93
        0
 40
0.045
309
GRIDFORMAT_END
 95
        4
302
GRIDFORMAT
  1
GRIDFORMAT_BEGIN
 90
        0
 91
        1
 62
     0
 92
       -2
340
79A
 93
        0
 40
0.045
309
GRIDFORMAT_END
 95
        8
302
GRIDFORMAT
  1
GRIDFORMAT_BEGIN
 90
        0
 91
        1
 62
     0
 92
       -2
340
79A
 93
        0
 40
0.045
309
GRIDFORMAT_END
 95
       16
302
GRIDFORMAT
  1
GRIDFORMAT_BEGIN
 90
        0
 91
        1
 62
     0
 92
       -2
340
79A
 93
        0
 40
0.045
309
GRIDFORMAT_END
 95
       32
302
GRIDFORMAT
  1
GRIDFORMAT_BEGIN
 90
        0
 91
        1
 62
     0
 92
       -2
340
79A
 93
        0
 40
0.045
309
GRIDFORMAT_END
309
TABLEFORMAT_END
  1
CELLSTYLE_BEGIN
 90
        1
 91
        1
300
_TITLE
309
CELLSTYLE_END
300
CELLSTYLE
  1
TABLEFORMAT_BEGIN
 90
        5
170
     1
 91
        0
 92
        0
 62
   257
 93
        1
300
CONTENTFORMAT
  1
CONTENTFORMAT_BEGIN
 90
        0
 91
        0
 92
        4
 93
        0
300

 40
0.0
140
1.0
 94
        5
 62
     0
340
798
144
0.18
309
CONTENTFORMAT_END
171
     1
301
MARGIN
  1
CELLMARGIN_BEGIN
 40
0.06
 40
0.06
 40
0.06
 40
0.06
 40
0.06
 40
0.06
309
CELLMARGIN_END
 94
        6
 95
        1
302
GRIDFORMAT
  1
GRIDFORMAT_BEGIN
 90
        0
 91
        1
 62
     0
 92
       -2
340
79A
 93
        0
 40
0.045
309
GRIDFORMAT_END
 95
        2
302
GRIDFORMAT
  1
GRIDFORMAT_BEGIN
 90
        0
 91
        1
 62
     0
 92
       -2
340
79A
 93
        0
 40
0.045
309
GRIDFORMAT_END
 95
        4
302
GRIDFORMAT
  1
GRIDFORMAT_BEGIN
 90
        0
 91
        1
 62
     0
 92
       -2
340
79A
 93
        0
 40
0.045
309
GRIDFORMAT_END
 95
        8
302
GRIDFORMAT
  1
GRIDFORMAT_BEGIN
 90
        0
 91
        1
 62
     0
 92
       -2
340
79A
 93
        0
 40
0.045
309
GRIDFORMAT_END
 95
       16
302
GRIDFORMAT
  1
GRIDFORMAT_BEGIN
 90
        0
 91
        1
 62
     0
 92
       -2
340
79A
 93
        0
 40
0.045
309
GRIDFORMAT_END
 95
       32
302
GRIDFORMAT
  1
GRIDFORMAT_BEGIN
 90
        0
 91
        1
 62
     0
 92
       -2
340
79A
 93
        0
 40
0.045
309
GRIDFORMAT_END
309
TABLEFORMAT_END
  1
CELLSTYLE_BEGIN
 90
        2
 91
        1
300
_HEADER
309
CELLSTYLE_END
300
CELLSTYLE
  1
TABLEFORMAT_BEGIN
 90
        5
170
     1
 91
        0
 92
        0
 62
   257
 93
        1
300
CONTENTFORMAT
  1
CONTENTFORMAT_BEGIN
 90
        0
 91
        0
 92
        4
 93
        0
300

 40
0.0
140
1.0
 94
        2
 62
     0
340
798
144
0.18
309
CONTENTFORMAT_END
171
     1
301
MARGIN
  1
CELLMARGIN_BEGIN
 40
0.06
 40
0.06
 40
0.06
 40
0.06
 40
0.06
 40
0.06
309
CELLMARGIN_END
 94
        6
 95
        1
302
GRIDFORMAT
  1
GRIDFORMAT_BEGIN
 90
        0
 91
        1
 62
     0
 92
       -2
340
79A
 93
        0
 40
0.045
309
GRIDFORMAT_END
 95
        2
302
GRIDFORMAT
  1
GRIDFORMAT_BEGIN
 90
        0
 91
        1
 62
     0
 92
       -2
340
79A
 93
        0
 40
0.045
309
GRIDFORMAT_END
 95
        4
302
GRIDFORMAT
  1
GRIDFORMAT_BEGIN
 90
        0
 91
        1
 62
     0
 92
       -2
340
79A
 93
        0
 40
0.045
309
GRIDFORMAT_END
 95
        8
302
GRIDFORMAT
  1
GRIDFORMAT_BEGIN
 90
        0
 91
        1
 62
     0
 92
       -2
340
79A
 93
        0
 40
0.045
309
GRIDFORMAT_END
 95
       16
302
GRIDFORMAT
  1
GRIDFORMAT_BEGIN
 90
        0
 91
        1
 62
     0
 92
       -2
340
79A
 93
        0
 40
0.045
309
GRIDFORMAT_END
 95
       32
302
GRIDFORMAT
  1
GRIDFORMAT_BEGIN
 90
        0
 91
        1
 62
     0
 92
       -2
340
79A
 93
        0
 40
0.045
309
GRIDFORMAT_END
309
TABLEFORMAT_END
  1
CELLSTYLE_BEGIN
 90
        3
 91
        2
300
_DATA
309
CELLSTYLE_END
  0
ENDSEC
  0
EOF
