  0
SECTION
  2
HEADER
  9
$ACADVER
  1
AC1015
  9
$ACADMAINTVER
 70
     6
  9
$DWGCODEPAGE
  3
ANSI_1252
  9
$INSBASE
 10
0.0
 20
0.0
 30
0.0
  9
$EXTMIN
 10
0.0
 20
0.0
 30
0.0
  9
$EXTMAX
 10
841.0
 20
1189.0
 30
0.0
  9
$LIMMIN
 10
0.0
 20
0.0
  9
$LIMMAX
 10
841.0
 20
1189.0
  9
$ORTHOMODE
 70
     0
  9
$REGENMODE
 70
     1
  9
$FILLMODE
 70
     1
  9
$QTEXTMODE
 70
     0
  9
$MIRRTEXT
 70
     1
  9
$LTSCALE
 40
1.0
  9
$ATTMODE
 70
     1
  9
$TEXTSIZE
 40
10.0
  9
$TRACEWID
 40
1.0
  9
$TEXTSTYLE
  7
Standard
  9
$CLAYER
  8
0
  9
$CELTYPE
  6
ByLayer
  9
$CECOLOR
 62
   256
  9
$CELTSCALE
 40
1.0
  9
$DISPSILH
 70
     0
  9
$DIMSCALE
 40
1.0
  9
$DIMASZ
 40
2.5
  9
$DIMEXO
 40
0.0
  9
$DIMDLI
 40
3.75
  9
$DIMRND
 40
0.0
  9
$DIMDLE
 40
0.0
  9
$DIMEXE
 40
1.0
  9
$DIMTP
 40
0.0
  9
$DIMTM
 40
0.0
  9
$DIMTXT
 40
3.5
  9
$DIMCEN
 40
2.5
  9
$DIMTSZ
 40
0.0
  9
$DIMTOL
 70
     0
  9
$DIMLIM
 70
     0
  9
$DIMTIH
 70
     1
  9
$DIMTOH
 70
     1
  9
$DIMSE1
 70
     0
  9
$DIMSE2
 70
     0
  9
$DIMTAD
 70
     1
  9
$DIMZIN
 70
     0
  9
$DIMBLK
  1

  9
$DIMASO
 70
     1
  9
$DIMSHO
 70
     1
  9
$DIMPOST
  1

  9
$DIMAPOST
  1

  9
$DIMALT
 70
     0
  9
$DIMALTD
 70
     3
  9
$DIMALTF
 40
0.0393700787
  9
$DIMLFAC
 40
0.5
  9
$DIMTOFL
 70
     1
  9
$DIMTVP
 40
0.0
  9
$DIMTIX
 70
     0
  9
$DIMSOXD
 70
     0
  9
$DIMSAH
 70
     0
  9
$DIMBLK1
  1

  9
$DIMBLK2
  1

  9
$DIMSTYLE
  2
ISO-25
  9
$DIMCLRD
 70
     0
  9
$DIMCLRE
 70
     0
  9
$DIMCLRT
 70
     0
  9
$DIMTFAC
 40
1.0
  9
$DIMGAP
 40
1.5
  9
$DIMJUST
 70
     0
  9
$DIMSD1
 70
     0
  9
$DIMSD2
 70
     0
  9
$DIMTOLJ
 70
     0
  9
$DIMTZIN
 70
     0
  9
$DIMALTZ
 70
     0
  9
$DIMALTTZ
 70
     0
  9
$DIMUPT
 70
     0
  9
$DIMDEC
 70
     2
  9
$DIMTDEC
 70
     2
  9
$DIMALTU
 70
     2
  9
$DIMALTTD
 70
     3
  9
$DIMTXSTY
  7
Standard
  9
$DIMAUNIT
 70
     0
  9
$DIMADEC
 70
     2
  9
$DIMALTRND
 40
0.0
  9
$DIMAZIN
 70
     0
  9
$DIMDSEP
 70
    44
  9
$DIMATFIT
 70
     3
  9
$DIMFRAC
 70
     0
  9
$DIMLDRBLK
  1

  9
$DIMLUNIT
 70
     2
  9
$DIMLWD
 70
    -2
  9
$DIMLWE
 70
    -2
  9
$DIMTMOVE
 70
     0
  9
$LUNITS
 70
     2
  9
$LUPREC
 70
     2
  9
$SKETCHINC
 40
1.0
  9
$FILLETRAD
 40
10.0
  9
$AUNITS
 70
     0
  9
$AUPREC
 70
     2
  9
$MENU
  1
.
  9
$ELEVATION
 40
0.0
  9
$PELEVATION
 40
0.0
  9
$THICKNESS
 40
0.0
  9
$LIMCHECK
 70
     0
  9
$CHAMFERA
 40
0.0
  9
$CHAMFERB
 40
0.0
  9
$CHAMFERC
 40
0.0
  9
$CHAMFERD
 40
0.0
  9
$SKPOLY
 70
     0
  9
$TDCREATE
 40
2458794.639343495
  9
$TDUCREATE
 40
2458794.597676829
  9
$TDUPDATE
 40
2458794.63934441
  9
$TDUUPDATE
 40
2458794.597677743
  9
$TDINDWG
 40
0.0000000116
  9
$TDUSRTIMER
 40
0.0000000116
  9
$USRTIMER
 70
     1
  9
$ANGBASE
 50
0.0
  9
$ANGDIR
 70
     0
  9
$PDMODE
 70
     0
  9
$PDSIZE
 40
-1.0
  9
$PLINEWID
 40
0.0
  9
$SPLFRAME
 70
     0
  9
$SPLINETYPE
 70
     6
  9
$SPLINESEGS
 70
     8
  9
$HANDSEED
  5
137
  9
$SURFTAB1
 70
     6
  9
$SURFTAB2
 70
     6
  9
$SURFTYPE
 70
     6
  9
$SURFU
 70
     6
  9
$SURFV
 70
     6
  9
$UCSBASE
  2

  9
$UCSNAME
  2

  9
$UCSORG
 10
0.0
 20
0.0
 30
0.0
  9
$UCSXDIR
 10
1.0
 20
0.0
 30
0.0
  9
$UCSYDIR
 10
0.0
 20
1.0
 30
0.0
  9
$UCSORTHOREF
  2

  9
$UCSORTHOVIEW
 70
     0
  9
$UCSORGTOP
 10
0.0
 20
0.0
 30
0.0
  9
$UCSORGBOTTOM
 10
0.0
 20
0.0
 30
0.0
  9
$UCSORGLEFT
 10
0.0
 20
0.0
 30
0.0
  9
$UCSORGRIGHT
 10
0.0
 20
0.0
 30
0.0
  9
$UCSORGFRONT
 10
0.0
 20
0.0
 30
0.0
  9
$UCSORGBACK
 10
0.0
 20
0.0
 30
0.0
  9
$PUCSBASE
  2

  9
$PUCSNAME
  2

  9
$PUCSORG
 10
0.0
 20
0.0
 30
0.0
  9
$PUCSXDIR
 10
1.0
 20
0.0
 30
0.0
  9
$PUCSYDIR
 10
0.0
 20
1.0
 30
0.0
  9
$PUCSORTHOREF
  2

  9
$PUCSORTHOVIEW
 70
     0
  9
$PUCSORGTOP
 10
0.0
 20
0.0
 30
0.0
  9
$PUCSORGBOTTOM
 10
0.0
 20
0.0
 30
0.0
  9
$PUCSORGLEFT
 10
0.0
 20
0.0
 30
0.0
  9
$PUCSORGRIGHT
 10
0.0
 20
0.0
 30
0.0
  9
$PUCSORGFRONT
 10
0.0
 20
0.0
 30
0.0
  9
$PUCSORGBACK
 10
0.0
 20
0.0
 30
0.0
  9
$USERI1
 70
     0
  9
$USERI2
 70
     0
  9
$USERI3
 70
     0
  9
$USERI4
 70
     0
  9
$USERI5
 70
     0
  9
$USERR1
 40
0.0
  9
$USERR2
 40
0.0
  9
$USERR3
 40
0.0
  9
$USERR4
 40
0.0
  9
$USERR5
 40
0.0
  9
$WORLDVIEW
 70
     1
  9
$SHADEDGE
 70
     3
  9
$SHADEDIF
 70
    70
  9
$TILEMODE
 70
     1
  9
$MAXACTVP
 70
    64
  9
$PINSBASE
 10
0.0
 20
0.0
 30
0.0
  9
$PLIMCHECK
 70
     0
  9
$PEXTMIN
 10
1.0000000000E+20
 20
1.0000000000E+20
 30
1.0000000000E+20
  9
$PEXTMAX
 10
-1.0000000000E+20
 20
-1.0000000000E+20
 30
-1.0000000000E+20
  9
$PLIMMIN
 10
0.0
 20
0.0
  9
$PLIMMAX
 10
420.0
 20
297.0
  9
$UNITMODE
 70
     0
  9
$VISRETAIN
 70
     1
  9
$PLINEGEN
 70
     0
  9
$PSLTSCALE
 70
     1
  9
$TREEDEPTH
 70
  3020
  9
$CMLSTYLE
  2
Standard
  9
$CMLJUST
 70
     0
  9
$CMLSCALE
 40
20.0
  9
$PROXYGRAPHICS
 70
     1
  9
$MEASUREMENT
 70
     1
  9
$CELWEIGHT
370
    -1
  9
$ENDCAPS
280
     0
  9
$JOINSTYLE
280
     0
  9
$LWDISPLAY
290
     1
  9
$INSUNITS
 70
     4
  9
$HYPERLINKBASE
  1

  9
$STYLESHEET
  1

  9
$XEDIT
290
     1
  9
$CEPSNTYPE
380
     0
  9
$PSTYLEMODE
290
     1
  9
$FINGERPRINTGUID
  2
{8116df21-74e9-4118-a259-4e7e6d23d0d8}
  9
$VERSIONGUID
  2
{FAEB1C32-E019-11D5-929B-00C0DF256EC4}
  9
$EXTNAMES
290
     1
  9
$PSVPSCALE
 40
0.0
  9
$OLESTARTUP
290
     0
  0
ENDSEC
  0
SECTION
  2
CLASSES
  0
CLASS
  1
ACDBDICTIONARYWDFLT
  2
AcDbDictionaryWithDefault
  3
ObjectDBX Classes
 90
        0
280
     0
281
     0
  0
CLASS
  1
VISUALSTYLE
  2
AcDbVisualStyle
  3
ObjectDBX Classes
 90
     4095
280
     0
281
     0
  0
CLASS
  1
MATERIAL
  2
AcDbMaterial
  3
ObjectDBX Classes
 90
     1153
280
     0
281
     0
  0
CLASS
  1
SCALE
  2
AcDbScale
  3
ObjectDBX Classes
 90
     1153
280
     0
281
     0
  0
CLASS
  1
TABLESTYLE
  2
AcDbTableStyle
  3
ObjectDBX Classes
 90
     4095
280
     0
281
     0
  0
CLASS
  1
MLEADERSTYLE
  2
AcDbMLeaderStyle
  3
ACDB_MLEADERSTYLE_CLASS
 90
     4095
280
     0
281
     0
  0
CLASS
  1
SUN
  2
AcDbSun
  3
SCENEOE
 90
     1153
280
     0
281
     0
  0
CLASS
  1
ACDBPLACEHOLDER
  2
AcDbPlaceHolder
  3
ObjectDBX Classes
 90
        0
280
     0
281
     0
  0
CLASS
  1
LAYOUT
  2
AcDbLayout
  3
ObjectDBX Classes
 90
        0
280
     0
281
     0
  0
ENDSEC
  0
SECTION
  2
TABLES
  0
TABLE
  2
VPORT
  5
8
330
0
100
AcDbSymbolTable
 70
     1
  0
VPORT
  5
29
330
8
100
AcDbSymbolTableRecord
100
AcDbViewportTableRecord
  2
*Active
 70
     0
 10
0.0
 20
0.0
 11
1.0
 21
1.0
 12
420.5
 22
594.5
 13
0.0
 23
0.0
 14
10.0
 24
10.0
 15
10.0
 25
10.0
 16
0.0
 26
0.0
 36
1.0
 17
0.0
 27
0.0
 37
0.0
 40
1189.0
 41
0.7073170732
 42
50.0
 43
0.0
 44
0.0
 50
0.0
 51
0.0
 71
     0
 72
  2000
 73
     1
 74
     3
 75
     0
 76
     0
 77
     0
 78
     0
281
     0
 65
     1
110
0.0
120
0.0
130
0.0
111
1.0
121
0.0
131
0.0
112
0.0
122
1.0
132
0.0
 79
     0
146
0.0
  0
ENDTAB
  0
TABLE
  2
LTYPE
  5
5
330
0
100
AcDbSymbolTable
 70
     6
  0
LTYPE
  5
14
330
5
100
AcDbSymbolTableRecord
100
AcDbLinetypeTableRecord
  2
ByBlock
 70
     0
  3

 72
    65
 73
     0
 40
0.0
  0
LTYPE
  5
15
330
5
100
AcDbSymbolTableRecord
100
AcDbLinetypeTableRecord
  2
ByLayer
 70
     0
  3

 72
    65
 73
     0
 40
0.0
  0
LTYPE
  5
16
330
5
100
AcDbSymbolTableRecord
100
AcDbLinetypeTableRecord
  2
Continuous
 70
     0
  3
Solid line
 72
    65
 73
     0
 40
0.0
  0
LTYPE
  5
6E
330
5
100
AcDbSymbolTableRecord
100
AcDbLinetypeTableRecord
  2
HIDDEN
 70
     0
  3
Hidden __ __ __ __ __ __ __ __ __ __ __ __ __ __
 72
    65
 73
     2
 40
1.905
 49
1.27
 74
     0
 49
-0.635
 74
     0
  0
LTYPE
  5
6F
330
5
100
AcDbSymbolTableRecord
100
AcDbLinetypeTableRecord
  2
PHANTOM
 70
     0
  3
Phantom ______  __  __  ______  __  __  ______
 72
    65
 73
     6
 40
12.7
 49
6.35
 74
     0
 49
-1.27
 74
     0
 49
1.27
 74
     0
 49
-1.27
 74
     0
 49
1.27
 74
     0
 49
-1.27
 74
     0
  0
LTYPE
  5
70
330
5
100
AcDbSymbolTableRecord
100
AcDbLinetypeTableRecord
  2
CENTER
 70
     0
  3
Center ____ _ ____ _ ____ _ ____ _ ____ _ ____
 72
    65
 73
     4
 40
10.16
 49
6.35
 74
     0
 49
-1.27
 74
     0
 49
1.27
 74
     0
 49
-1.27
 74
     0
  0
LTYPE
  5
71
330
5
100
AcDbSymbolTableRecord
100
AcDbLinetypeTableRecord
  2
CENTERX2
 70
     0
  3
Center (2x) ________  __  ________  __  _____
 72
    65
 73
     4
 40
20.32
 49
12.7
 74
     0
 49
-2.54
 74
     0
 49
2.54
 74
     0
 49
-2.54
 74
     0
  0
LTYPE
  5
72
330
5
100
AcDbSymbolTableRecord
100
AcDbLinetypeTableRecord
  2
DOT2
 70
     0
  3
Dot (.5x) ........................................
 72
    65
 73
     2
 40
0.635
 49
0.0
 74
     0
 49
-0.635
 74
     0
  0
ENDTAB
  0
TABLE
  2
LAYER
  5
2
330
0
100
AcDbSymbolTable
 70
     1
  0
LAYER
  5
10
330
2
100
AcDbSymbolTableRecord
100
AcDbLayerTableRecord
  2
0
 70
     0
 62
     7
  6
Continuous
370
    -3
390
F
  0
ENDTAB
  0
TABLE
  2
STYLE
  5
3
330
0
100
AcDbSymbolTable
 70
     3
  0
STYLE
  5
11
330
3
100
AcDbSymbolTableRecord
100
AcDbTextStyleTableRecord
  2
Standard
 70
     0
 40
0.0
 41
1.0
 50
0.0
 71
     0
 42
10.0
  3
txt
  4

  0
STYLE
  5
76
330
3
100
AcDbSymbolTableRecord
100
AcDbTextStyleTableRecord
  2
SLDTEXTSTYLE0
 70
     0
 40
0.0
 41
0.96
 50
0.0
 71
     0
 42
10.0
  3
ISOCP3
  4

  0
STYLE
  5
8D
330
3
100
AcDbSymbolTableRecord
100
AcDbTextStyleTableRecord
  2
SLDTEXTSTYLE1
 70
     0
 40
0.0
 41
0.605
 50
0.0
 71
     0
 42
10.0
  3
TXT
  4

  0
ENDTAB
  0
TABLE
  2
VIEW
  5
6
330
0
100
AcDbSymbolTable
 70
     0
  0
ENDTAB
  0
TABLE
  2
UCS
  5
7
330
0
100
AcDbSymbolTable
 70
     0
  0
ENDTAB
  0
TABLE
  2
APPID
  5
9
330
0
100
AcDbSymbolTable
 70
     1
  0
APPID
  5
12
330
9
100
AcDbSymbolTableRecord
100
AcDbRegAppTableRecord
  2
ACAD
 70
     0
  0
ENDTAB
  0
TABLE
  2
DIMSTYLE
  5
A
330
0
100
AcDbSymbolTable
 70
     2
100
AcDbDimStyleTable
  0
DIMSTYLE
105
27
330
A
100
AcDbSymbolTableRecord
100
AcDbDimStyleTableRecord
  2
ISO-25
 70
     0
 41
2.5
 42
0.625
 43
3.75
 44
1.25
 73
     0
 74
     0
 77
     1
 78
     8
140
2.5
141
2.5
143
0.0393700787
147
0.625
171
     3
172
     1
178
     0
271
     2
272
     2
274
     3
278
    44
283
     0
284
     8
340
11
  0
DIMSTYLE
105
77
102
{ACAD_REACTORS
330
75
330
82
102
}
330
A
100
AcDbSymbolTableRecord
100
AcDbDimStyleTableRecord
  2
SLDDIMSTYLE0
 70
     0
 41
2.5
 44
0.0
 45
0.000000001
 73
     0
 74
     0
 77
     1
 78
    12
 79
     3
140
6.0
144
0.5
147
1.5
173
     1
178
     0
271
     2
272
     2
276
     2
284
    12
340
76
  0
ENDTAB
  0
TABLE
  2
BLOCK_RECORD
  5
1
330
0
100
AcDbSymbolTable
 70
     3
  0
BLOCK_RECORD
  5
1F
330
1
100
AcDbSymbolTableRecord
100
AcDbBlockTableRecord
  2
*Model_Space
340
22
  0
BLOCK_RECORD
  5
1B
330
1
100
AcDbSymbolTableRecord
100
AcDbBlockTableRecord
  2
*Paper_Space
340
1E
  0
BLOCK_RECORD
  5
23
330
1
100
AcDbSymbolTableRecord
100
AcDbBlockTableRecord
  2
*Paper_Space0
340
26
  0
BLOCK_RECORD
  5
78
330
1
100
AcDbSymbolTableRecord
100
AcDbBlockTableRecord
  2
_D
340
0
  0
BLOCK_RECORD
  5
83
330
1
100
AcDbSymbolTableRecord
100
AcDbBlockTableRecord
  2
_D_1
340
0
  0
ENDTAB
  0
ENDSEC
  0
SECTION
  2
BLOCKS
  0
BLOCK
  5
20
330
1F
100
AcDbEntity
  8
0
100
AcDbBlockBegin
  2
*Model_Space
 70
     0
 10
0.0
 20
0.0
 30
0.0
  3
*Model_Space
  1

  0
ENDBLK
  5
21
330
1F
100
AcDbEntity
  8
0
100
AcDbBlockEnd
  0
BLOCK
  5
1C
330
1B
100
AcDbEntity
 67
     1
  8
0
100
AcDbBlockBegin
  2
*Paper_Space
 70
     0
 10
0.0
 20
0.0
 30
0.0
  3
*Paper_Space
  1

  0
ENDBLK
  5
1D
330
1B
100
AcDbEntity
 67
     1
  8
0
100
AcDbBlockEnd
  0
BLOCK
  5
24
330
23
100
AcDbEntity
  8
0
100
AcDbBlockBegin
  2
*Paper_Space0
 70
     0
 10
0.0
 20
0.0
 30
0.0
  3
*Paper_Space0
  1

  0
ENDBLK
  5
25
330
23
100
AcDbEntity
  8
0
100
AcDbBlockEnd
  0
BLOCK
  5
79
330
78
100
AcDbEntity
  8
0
100
AcDbBlockBegin
  2
_D
 70
     0
 10
0.0
 20
0.0
 30
0.0
  3
_D
  1

  0
SOLID
  5
7B
330
78
100
AcDbEntity
  8
0
  6
Continuous
 62
     7
370
    18
100
AcDbTrace
 10
42.7614395004
 20
152.0299240879
 30
0.0
 11
42.4614395004
 21
149.5299240879
 31
0.0
 12
43.0614395004
 22
149.5299240879
 32
0.0
 13
43.0614395004
 23
149.5299240879
 33
0.0
  0
SOLID
  5
7C
330
78
100
AcDbEntity
  8
0
  6
Continuous
 62
     7
370
    18
100
AcDbTrace
 10
42.7614395004
 20
52.0299240879
 30
0.0
 11
43.0614395004
 21
54.5299240879
 31
0.0
 12
42.4614395004
 22
54.5299240879
 32
0.0
 13
42.4614395004
 23
54.5299240879
 33
0.0
  0
LINE
  5
7D
330
78
100
AcDbEntity
  8
0
  6
Continuous
 62
     7
370
     0
100
AcDbLine
 10
56.6850079902
 20
152.0299240879
 30
0.0
 11
41.7614395004
 21
152.0299240879
 31
0.0
  0
LINE
  5
7E
330
78
100
AcDbEntity
  8
0
  6
Continuous
 62
     7
370
     0
100
AcDbLine
 10
56.6850079902
 20
52.0299240879
 30
0.0
 11
41.7614395004
 21
52.0299240879
 31
0.0
  0
LINE
  5
7F
330
78
100
AcDbEntity
  8
0
  6
Continuous
 62
     7
370
     0
100
AcDbLine
 10
42.7614395004
 20
152.0299240879
 30
0.0
 11
42.7614395004
 21
52.0299240879
 31
0.0
  0
MTEXT
  5
80
330
78
100
AcDbEntity
  8
0
  6
Continuous
 62
     7
370
    18
100
AcDbMText
 10
35.0270332946
 20
94.3680541463
 30
0.0
 40
6.0
 41
0.0
 71
     1
 72
     1
  1
100
  7
SLDTEXTSTYLE0
 11
-7.044195017643634E-15
 21
1.0
 31
0.0
 73
     1
 44
1.0
  0
MTEXT
  5
81
330
78
100
AcDbEntity
  8
0
  6
Continuous
 62
     7
370
    18
100
AcDbMText
 10
35.0270332946
 20
105.7430548466
 30
0.0
 40
6.0
 41
0.0
 71
     1
 72
     1
  1
mm
  7
SLDTEXTSTYLE0
 11
-7.044195017643634E-15
 21
1.0
 31
0.0
 73
     1
 44
1.0
  0
ENDBLK
  5
7A
330
78
100
AcDbEntity
  8
0
100
AcDbBlockEnd
  0
BLOCK
  5
84
330
83
100
AcDbEntity
  8
0
100
AcDbBlockBegin
  2
_D_1
 70
     0
 10
0.0
 20
0.0
 30
0.0
  3
_D_1
  1

  0
SOLID
  5
86
330
83
100
AcDbEntity
  8
0
  6
Continuous
 62
     7
370
    18
100
AcDbTrace
 10
56.6850079902
 20
38.4602342313
 30
0.0
 11
59.1850079902
 21
38.1602342313
 31
0.0
 12
59.1850079902
 22
38.7602342313
 32
0.0
 13
59.1850079902
 23
38.7602342313
 33
0.0
  0
SOLID
  5
87
330
83
100
AcDbEntity
  8
0
  6
Continuous
 62
     7
370
    18
100
AcDbTrace
 10
156.6850079902
 20
38.4602342313
 30
0.0
 11
154.1850079902
 21
38.7602342313
 31
0.0
 12
154.1850079902
 22
38.1602342313
 32
0.0
 13
154.1850079902
 23
38.1602342313
 33
0.0
  0
LINE
  5
88
330
83
100
AcDbEntity
  8
0
  6
Continuous
 62
     7
370
     0
100
AcDbLine
 10
56.6850079902
 20
52.0299240879
 30
0.0
 11
56.6850079902
 21
37.4602342313
 31
0.0
  0
LINE
  5
89
330
83
100
AcDbEntity
  8
0
  6
Continuous
 62
     7
370
     0
100
AcDbLine
 10
156.6850079902
 20
52.0299240879
 30
0.0
 11
156.6850079902
 21
37.4602342313
 31
0.0
  0
LINE
  5
8A
330
83
100
AcDbEntity
  8
0
  6
Continuous
 62
     7
370
     0
100
AcDbLine
 10
56.6850079902
 20
38.4602342313
 30
0.0
 11
156.6850079902
 21
38.4602342313
 31
0.0
  0
MTEXT
  5
8B
330
83
100
AcDbEntity
  8
0
  6
Continuous
 62
     7
370
    18
100
AcDbMText
 10
93.9626484861
 20
46.1946404371
 30
0.0
 40
6.0
 41
0.0
 71
     1
 72
     1
  1
100
  7
SLDTEXTSTYLE0
 73
     1
 44
1.0
  0
MTEXT
  5
8C
330
83
100
AcDbEntity
  8
0
  6
Continuous
 62
     7
370
    18
100
AcDbMText
 10
105.3376491864
 20
46.1946404371
 30
0.0
 40
6.0
 41
0.0
 71
     1
 72
     1
  1
mm
  7
SLDTEXTSTYLE0
 73
     1
 44
1.0
  0
ENDBLK
  5
85
330
83
100
AcDbEntity
  8
0
100
AcDbBlockEnd
  0
ENDSEC
  0
SECTION
  2
ENTITIES
  0
LINE
  5
73
330
1F
100
AcDbEntity
  8
0
  6
Continuous
 62
     7
370
    18
100
AcDbLine
 10
56.6850079902
 20
152.0299240879
 30
0.0
 11
56.6850079902
 21
52.0299240879
 31
0.0
  0
LINE
  5
74
330
1F
100
AcDbEntity
  8
0
  6
Continuous
 62
     7
370
    18
100
AcDbLine
 10
56.6850079902
 20
52.0299240879
 30
0.0
 11
156.6850079902
 21
52.0299240879
 31
0.0
  0
DIMENSION
  5
75
330
1F
100
AcDbEntity
  8
0
  6
Continuous
 62
     7
370
    18
100
AcDbDimension
  2
_D
 10
42.7614395004
 20
52.0299240879
 30
0.0
 11
42.7614395004
 21
105.4472211621
 31
0.0
 70
   160
  1
<>mm
 71
     2
 42
-1.0
  3
SLDDIMSTYLE0
100
AcDbAlignedDimension
 13
56.6850079902
 23
152.0299240879
 33
0.0
 14
56.6850079902
 24
52.0299240879
 34
0.0
 50
90.0
100
AcDbRotatedDimension
  0
DIMENSION
  5
82
330
1F
100
AcDbEntity
  8
0
  6
Continuous
 62
     7
370
    18
100
AcDbDimension
  2
_D_1
 10
156.6850079902
 20
38.4602342313
 30
0.0
 11
105.0418155019
 21
38.4602342313
 31
0.0
 70
   160
  1
<>mm
 71
     2
 42
-1.0
  3
SLDDIMSTYLE0
100
AcDbAlignedDimension
 13
56.6850079902
 23
52.0299240879
 33
0.0
 14
156.6850079902
 24
52.0299240879
 34
0.0
100
AcDbRotatedDimension
  0
MTEXT
  5
8E
330
1F
100
AcDbEntity
  8
0
  6
Continuous
 62
     7
370
     0
100
AcDbMText
 10
658.0168509251
 20
48.4342449499
 30
0.0
 40
10.0
 41
0.0
 71
     1
 72
     1
  1
KLUDI GmbH & Co KG
  7
SLDTEXTSTYLE1
 73
     1
 44
1.0
  0
MTEXT
  5
8F
330
1F
100
AcDbEntity
  8
0
  6
Continuous
 62
     7
370
     0
100
AcDbMText
 10
362.6071641649
 20
48.4342449499
 30
0.0
 40
10.0
 41
0.0
 71
     1
 72
     1
  1
61 072 05
  7
SLDTEXTSTYLE1
 73
     1
 44
1.0
  0
ARC
  5
90
330
1F
100
AcDbEntity
  8
0
  6
Continuous
 62
     7
370
    25
100
AcDbCircle
 10
236.5923720546
 20
441.4387076044
 30
0.0
 40
86.00000000000009
100
AcDbArc
 50
179.2841916867
 51
269.2853085744
  0
ARC
  5
91
330
1F
100
AcDbEntity
  8
0
  6
Continuous
 62
     7
370
    25
100
AcDbCircle
 10
236.5923720546
 20
441.4387076044
 30
0.0
 40
114.0
100
AcDbArc
 50
179.2841916867
 51
269.284080618
  0
LINE
  5
92
330
1F
100
AcDbEntity
  8
0
  6
Continuous
 62
     7
370
    25
100
AcDbLine
 10
150.599083422
 20
442.5130958772
 30
0.0
 11
152.0432611468
 21
558.1040745507
 31
0.0
  0
LINE
  5
93
330
1F
100
AcDbEntity
  8
0
  6
Continuous
 62
     7
370
    25
100
AcDbLine
 10
124.0454462432
 20
558.4538753837
 30
0.0
 11
122.6012685184
 21
442.8628967102
 31
0.0
  0
LINE
  5
94
330
1F
100
AcDbEntity
  8
0
  6
Continuous
 62
     7
370
    25
100
AcDbLine
 10
235.5179837818
 20
355.4454189719
 30
0.0
 11
230.6183007307
 21
355.8165541569
 31
0.0
  0
ARC
  5
95
330
1F
100
AcDbEntity
  8
0
  6
Continuous
 62
     7
370
    25
100
AcDbCircle
 10
236.6443585097
 20
441.4165947544
 30
0.0
 40
85.97855421816087
100
AcDbArc
 50
269.2493667191
 51
183.3201815779
  0
SPLINE
  5
96
330
1F
100
AcDbEntity
  8
0
  6
Continuous
 62
     7
370
    25
100
AcDbSpline
210
0.0
220
0.0
230
1.0
 70
     8
 71
     3
 72
    50
 73
    46
 74
     0
 42
0.000000001
 43
0.00000001
 40
0.0
 40
0.0
 40
0.0
 40
0.0
 40
0.023788260403585
 40
0.0469222757308375
 40
0.0693223034052762
 40
0.0910798761733125
 40
0.1190047842432736
 40
0.1456995447934359
 40
0.1712098982736971
 40
0.1954555197236652
 40
0.2185360884097375
 40
0.2403729521160304
 40
0.2609832894171628
 40
0.2804140127800297
 40
0.2986044815634136
 40
0.318806983010823
 40
0.3372982575873114
 40
0.3541010856062258
 40
0.3705192691232886
 40
0.3871012776823509
 40
0.4150336082194852
 40
0.4432897503300375
 40
0.4719629676566008
 40
0.5009506573121147
 40
0.5303609387245908
 40
0.5600484664404708
 40
0.5824808490388947
 40
0.6049665017922448
 40
0.6275430212175469
 40
0.6502366851980015
 40
0.672967966513283
 40
0.6958272163818935
 40
0.7187707271095397
 40
0.7417464677136638
 40
0.7642317693926487
 40
0.7858560270555288
 40
0.8066522740360328
 40
0.8266535293477224
 40
0.8519780531618389
 40
0.8760582650210622
 40
0.9008319253650742
 40
0.9267766102117777
 40
0.9539728240829917
 40
0.9818672050299334
 40
1.0
 40
1.0
 40
1.0
 40
1.0
 10
235.1681829488081
 20
327.4476040682915
 30
0.0
 10
238.7831294908904
 20
327.5015365747843
 30
0.0
 10
245.9136012245134
 20
327.6079182898646
 30
0.0
 10
256.3687149966262
 20
329.0186236835218
 30
0.0
 10
266.3557738349447
 20
331.236322204447
 30
0.0
 10
276.7989070453197
 20
334.5638656785384
 30
0.0
 10
287.47138753657
 20
339.1686552311335
 30
0.0
 10
298.0719131428726
 20
345.1915214064923
 30
0.0
 10
307.5301670215708
 20
351.9581463687688
 30
0.0
 10
315.8560983735658
 20
359.2675652009194
 30
0.0
 10
323.0691929569402
 20
366.9220452562029
 30
0.0
 10
329.2249308672672
 20
374.7570683011681
 30
0.0
 10
334.3892769166407
 20
382.6207733582033
 30
0.0
 10
338.6412545270462
 20
390.3843660554916
 30
0.0
 10
342.2720930143968
 20
398.3880924741243
 30
0.0
 10
345.2307136989908
 20
406.5149917252783
 30
0.0
 10
347.4952046555948
 20
414.6404568451804
 30
0.0
 10
349.0662704021487
 20
422.3406238670657
 30
0.0
 10
350.0840020143652
 20
429.8412060859645
 30
0.0
 10
350.7217021324462
 20
439.0783535182778
 30
0.0
 10
350.4997474784742
 20
450.1514384924629
 30
0.0
 10
348.7946589616816
 20
462.9532844697496
 30
0.0
 10
345.6077735264172
 20
475.6344242074333
 30
0.0
 10
340.9203394068536
 20
488.0311651866426
 30
0.0
 10
334.7504039431829
 20
499.933467012105
 30
0.0
 10
327.7783645710832
 20
510.2030134978916
 30
0.0
 10
320.4653239968144
 20
518.8743880023184
 30
0.0
 10
313.1713793019929
 20
526.095997245435
 30
0.0
 10
305.2268541696733
 20
532.6572576614303
 30
0.0
 10
296.6916003604418
 20
538.4946066920612
 30
0.0
 10
287.6235433530352
 20
543.5555423532014
 30
0.0
 10
278.0985564108568
 20
547.7852862620869
 30
0.0
 10
268.1913994745066
 20
551.1385386933
 30
0.0
 10
258.0729527001766
 20
553.5565378907908
 30
0.0
 10
247.9772075611243
 20
555.0173365843646
 30
0.0
 10
238.1232004629829
 20
555.5651630685519
 30
0.0
 10
228.6364252158394
 20
555.2874423348483
 30
0.0
 10
218.6470409872418
 20
554.1761941757851
 30
0.0
 10
208.3009791864042
 20
552.063779600997
 30
0.0
 10
197.5232575330685
 20
548.7284531865745
 30
0.0
 10
187.0362829449099
 20
544.3189873328294
 30
0.0
 10
176.6207210217103
 20
538.6514128936979
 30
0.0
 10
166.5148825470444
 20
531.6051659479709
 30
0.0
 10
157.9945205100973
 20
524.3934870215439
 30
0.0
 10
153.3576194165063
 20
519.1561720540377
 30
0.0
 10
151.5308730400141
 20
517.0928875572725
 30
0.0
  0
LINE
  5
97
330
1F
100
AcDbEntity
  8
0
  6
Continuous
 62
     7
370
    25
100
AcDbLine
 10
350.5834755907
 20
440.0145184987
 30
0.0
 11
351.9826789227
 21
552.0057781132
 31
0.0
  0
LINE
  5
98
330
1F
100
AcDbEntity
  8
0
  6
Continuous
 62
     7
370
    25
100
AcDbLine
 10
323.9848640191
 20
552.3555789462
 30
0.0
 11
323.5183643324
 21
515.0172691192
 31
0.0
  0
LINE
  5
99
330
1F
100
AcDbEntity
  8
0
  6
Continuous
 62
     7
370
    25
100
AcDbLine
 10
315.735139585
 20
612.4633325788
 30
0.0
 11
317.3356281317
 21
572.3385687719
 31
0.0
  0
LINE
  5
9A
330
1F
100
AcDbEntity
  8
0
  6
Continuous
 62
     7
370
    25
100
AcDbLine
 10
359.1290907871
 20
571.8164070211
 30
0.0
 11
361.7315497838
 21
611.8886597818
 31
0.0
  0
ARC
  5
9B
330
1F
100
AcDbEntity
  8
0
  6
Continuous
 62
     7
370
    25
100
AcDbCircle
 10
321.0139379285
 20
555.3929314222
 30
0.0
 40
3.000000000000011
100
AcDbArc
 50
227.6865827802
 51
269.2841916867
  0
ARC
  5
9C
330
1F
100
AcDbEntity
  8
0
  6
Continuous
 62
     7
370
    25
100
AcDbCircle
 10
355.0285623345
 20
554.9679574022
 30
0.0
 40
3.000000000000038
100
AcDbArc
 50
269.2841916867
 51
310.9032582143
  0
LINE
  5
9D
330
1F
100
AcDbEntity
  8
0
  6
Continuous
 62
     7
370
    25
100
AcDbLine
 10
122.2180041606
 20
572.2777842171
 30
0.0
 11
122.0456023215
 21
558.4788611575
 31
0.0
  0
LINE
  5
9E
330
1F
100
AcDbEntity
  8
0
  6
Continuous
 62
     7
370
    25
100
AcDbLine
 10
154.0431050685
 20
558.0790887769
 30
0.0
 11
154.2155069076
 21
571.8780118366
 31
0.0
  0
LINE
  5
9F
330
1F
100
AcDbEntity
  8
0
  6
Continuous
 62
     7
370
    25
100
AcDbLine
 10
161.964533847
 20
631.7858792789
 30
0.0
 11
161.453663057
 21
633.7924181185
 31
0.0
  0
LINE
  5
A0
330
1F
100
AcDbEntity
  8
0
  6
Continuous
 62
     7
370
    25
100
AcDbLine
 10
116.5289659858
 20
634.3537010798
 30
0.0
 11
115.9681236482
 21
632.360552076
 31
0.0
  0
LINE
  5
A1
330
1F
100
AcDbEntity
  8
0
  6
Continuous
 62
     7
370
    25
100
AcDbLine
 10
115.9681236482
 20
632.360552076
 30
0.0
 11
117.5686121949
 21
592.2357882691
 31
0.0
  0
LINE
  5
A2
330
1F
100
AcDbEntity
  8
0
  6
Continuous
 62
     7
370
    25
100
AcDbLine
 10
159.3620748503
 20
591.7136265183
 30
0.0
 11
161.964533847
 21
631.7858792789
 31
0.0
  0
LINE
  5
A3
330
1F
100
AcDbEntity
  8
0
  6
Continuous
 62
     7
370
    25
100
AcDbLine
 10
359.1290907871
 20
571.8164070211
 30
0.0
 11
357.207160691
 21
569.9419089739
 31
0.0
  0
LINE
  5
A4
330
1F
100
AcDbEntity
  8
0
  6
Continuous
 62
     7
370
    25
100
AcDbLine
 10
357.207160691
 20
569.9419089739
 30
0.0
 11
357.017805906
 21
554.7860839453
 31
0.0
  0
LINE
  5
A5
330
1F
100
AcDbEntity
  8
0
  6
Continuous
 62
     7
370
    25
100
AcDbLine
 10
319.020771394
 20
555.2608136472
 30
0.0
 11
319.2101261789
 21
570.4166386758
 31
0.0
  0
LINE
  5
A6
330
1F
100
AcDbEntity
  8
0
  6
Continuous
 62
     7
370
    25
100
AcDbLine
 10
319.2101261789
 20
570.4166386758
 30
0.0
 11
317.3356281317
 21
572.3385687719
 31
0.0
  0
LINE
  5
A7
330
1F
100
AcDbEntity
  8
0
  6
Continuous
 62
     7
370
    25
100
AcDbLine
 10
338.7333446844
 20
612.1759961803
 30
0.0
 11
361.7315497838
 21
611.8886597818
 31
0.0
  0
LINE
  5
A8
330
1F
100
AcDbEntity
  8
0
  6
Continuous
 62
     7
370
    25
100
AcDbLine
 10
315.735139585
 20
612.4633325788
 30
0.0
 11
338.7333446844
 21
612.1759961803
 31
0.0
  0
SPLINE
  5
A9
330
1F
100
AcDbEntity
  8
0
  6
Continuous
 62
     7
370
    25
100
AcDbSpline
210
0.0
220
0.0
230
1.0
 70
    24
 71
     3
 72
    18
 73
    14
 74
     0
 42
0.000000001
 43
0.00000001
 40
0.0
 40
0.0
 40
0.0
 40
0.0
 40
0.0262680756370184
 40
0.086255036710829
 40
0.1333258330790484
 40
0.181613209442302
 40
0.2753240764204973
 40
0.3711673636382112
 40
0.5253781786699767
 40
0.6812917836605785
 40
0.8403006357443163
 40
0.9998547169723162
 40
1.0
 40
1.0
 40
1.0
 40
1.0
 10
357.0178059060204
 20
554.7860839452767
 30
0.0
 10
357.0170621346489
 20
554.7265530030179
 30
0.0
 10
357.0146198534615
 20
554.5310745187568
 30
0.0
 10
357.0112484151362
 20
554.2612269446797
 30
0.0
 10
357.0080106853831
 20
554.0020813115544
 30
0.0
 10
357.0046789855475
 20
553.7354143785066
 30
0.0
 10
357.0014120517213
 20
553.4739312717027
 30
0.0
 10
356.9979023177711
 20
553.1930146122152
 30
0.0
 10
356.9950969560001
 20
552.9684754110026
 30
0.0
 10
356.9930620336876
 20
552.8056016474005
 30
0.0
 10
356.9920438278581
 20
552.7241051616243
 30
0.0
 10
356.9915818686758
 20
552.6871302724891
 30
0.0
 10
356.9917365603443
 20
552.6995116845468
 30
0.0
 10
356.9917367010717
 20
552.6995229482674
 30
0.0
  0
SPLINE
  5
AA
330
1F
100
AcDbEntity
  8
0
  6
Continuous
 62
     7
370
    25
100
AcDbSpline
210
0.0
220
0.0
230
1.0
 70
    24
 71
     3
 72
    16
 73
    12
 74
     0
 42
0.000000001
 43
0.00000001
 40
0.0
 40
0.0
 40
0.0
 40
0.0
 40
0.2015753537841095
 40
0.404277544821504
 40
0.5630310317986797
 40
0.7241292116618802
 40
0.8035833415285677
 40
0.8852272480255694
 40
0.9421633791685817
 40
0.9995675977530128
 40
1.0
 40
1.0
 40
1.0
 40
1.0
 10
318.9947018485273
 20
553.1742253974431
 30
0.0
 10
318.9948100251509
 20
553.1828837790111
 30
0.0
 10
318.9950269831222
 20
553.2002489438327
 30
0.0
 10
318.9967884150348
 20
553.3412327266342
 30
0.0
 10
318.999722196281
 20
553.5760505330398
 30
0.0
 10
319.0033389363092
 20
553.8655318845911
 30
0.0
 10
319.0076610548962
 20
554.2114712441814
 30
0.0
 10
319.011504829027
 20
554.5191242470353
 30
0.0
 10
319.0159375401328
 20
554.8739153547974
 30
0.0
 10
319.0191081592898
 20
555.1276895027488
 30
0.0
 10
319.0207590514507
 20
555.2598257607274
 30
0.0
 10
319.0207713939677
 20
555.2608136471918
 30
0.0
  0
LINE
  5
AB
330
1F
100
AcDbEntity
  8
0
  6
Continuous
 62
     7
370
    25
100
AcDbLine
 10
337.9837714709
 20
552.1806785297
 30
0.0
 11
354.9910836739
 21
551.9681915197
 31
0.0
  0
LINE
  5
AC
330
1F
100
AcDbEntity
  8
0
  6
Continuous
 62
     7
370
    25
100
AcDbLine
 10
320.9764592679
 20
552.3931655397
 30
0.0
 11
337.9837714709
 21
552.1806785297
 31
0.0
  0
LINE
  5
AD
330
1F
100
AcDbEntity
  8
0
  6
Continuous
 62
     7
370
    25
100
AcDbLine
 10
122.0456023215
 20
558.4788611575
 30
0.0
 11
154.0431050685
 21
558.0790887769
 31
0.0
  0
LINE
  5
AE
330
1F
100
AcDbEntity
  8
0
  6
Continuous
 62
     7
370
    25
100
AcDbLine
 10
115.9681236482
 20
632.360552076
 30
0.0
 11
161.964533847
 21
631.7858792789
 31
0.0
  0
LINE
  5
AF
330
1F
100
AcDbEntity
  8
0
  6
Continuous
 62
     7
370
    25
100
AcDbLine
 10
116.5289659858
 20
634.3537010798
 30
0.0
 11
161.453663057
 21
633.7924181185
 31
0.0
  0
LINE
  5
B0
330
1F
100
AcDbEntity
  8
0
  6
Continuous
 62
     7
370
    25
100
AcDbLine
 10
157.2271118498
 20
572.7881232647
 30
0.0
 11
157.4401447542
 21
589.8391284711
 31
0.0
  0
LINE
  5
B1
330
1F
100
AcDbEntity
  8
0
  6
Continuous
 62
     7
370
    25
100
AcDbLine
 10
119.2300773378
 20
573.2628529667
 30
0.0
 11
157.2271118498
 21
572.7881232647
 31
0.0
  0
SPLINE
  5
B2
330
1F
100
AcDbEntity
  8
0
  6
Continuous
 62
     7
370
    25
100
AcDbSpline
210
0.0
220
0.0
230
1.0
 70
    24
 71
     3
 72
     9
 73
     5
 74
     0
 42
0.000000001
 43
0.00000001
 40
0.0
 40
0.0
 40
0.0
 40
0.0
 40
0.7456629823534464
 40
1.0
 40
1.0
 40
1.0
 40
1.0
 10
119.4431102421317
 20
590.3138581729875
 30
0.0
 10
119.3900362040224
 20
586.0658491489086
 30
0.0
 10
119.3188592254607
 20
580.3688933865732
 30
0.0
 10
119.2480792943623
 20
574.7037170265168
 30
0.0
 10
119.2300773377775
 20
573.2628529666583
 30
0.0
  0
LINE
  5
B3
330
1F
100
AcDbEntity
  8
0
  6
Continuous
 62
     7
370
    25
100
AcDbLine
 10
117.5686121949
 20
592.2357882691
 30
0.0
 11
119.4431102421
 21
590.313858173
 31
0.0
  0
LINE
  5
B4
330
1F
100
AcDbEntity
  8
0
  6
Continuous
 62
     7
370
    25
100
AcDbLine
 10
157.4401447542
 20
589.8391284711
 30
0.0
 11
159.3620748503
 21
591.7136265183
 31
0.0
  0
LINE
  5
B5
330
1F
100
AcDbEntity
  8
0
  6
Continuous
 62
     7
370
    25
100
AcDbLine
 10
119.3116623105
 20
572.3140956508
 30
0.0
 11
157.1218487577
 21
571.8417004028
 31
0.0
  0
LINE
  5
B6
330
1F
100
AcDbEntity
  8
0
  6
Continuous
 62
     8
370
    18
100
AcDbLine
 10
122.6012685184
 20
442.8628967102
 30
0.0
 11
150.599083422
 21
442.5130958772
 31
0.0
  0
LINE
  5
B7
330
1F
100
AcDbEntity
  8
0
  6
Continuous
 62
     8
370
    18
100
AcDbLine
 10
319.020771394
 20
555.2608136472
 30
0.0
 11
357.017805906
 21
554.7860839453
 31
0.0
  0
SPLINE
  5
B8
330
1F
100
AcDbEntity
  8
0
  6
Continuous
 62
     7
370
    25
100
AcDbSpline
210
0.0
220
0.0
230
1.0
 70
     8
 71
     3
 72
    55
 73
    51
 74
     0
 42
0.000000001
 43
0.00000001
 40
0.0
 40
0.0
 40
0.0
 40
0.0
 40
0.0146435292261903
 40
0.0275312080937604
 40
0.0386817001821973
 40
0.0481444920107555
 40
0.0582999400079804
 40
0.0665792115852088
 40
0.0756934122846181
 40
0.091845781244723
 40
0.1089899604218178
 40
0.1271270381749921
 40
0.1464358414838156
 40
0.1760253560987352
 40
0.2024246784964822
 40
0.2258292702652976
 40
0.2476567224506361
 40
0.2724276114055531
 40
0.2955811311098285
 40
0.3210925530625025
 40
0.3486215022931261
 40
0.3904866611455659
 40
0.4327281259666649
 40
0.4539273494077024
 40
0.475092695477521
 40
0.4939343934338191
 40
0.5096718096265046
 40
0.5223048415303678
 40
0.531850059077692
 40
0.5396711852385314
 40
0.5498521559206523
 40
0.5675345853316052
 40
0.5898817748223055
 40
0.6168190377287687
 40
0.6400886188239077
 40
0.6655052826423572
 40
0.6900376961817346
 40
0.7132106726241204
 40
0.7420586948753293
 40
0.768477018986902
 40
0.7924890810228132
 40
0.8141723297383762
 40
0.8335869452399822
 40
0.8529184451092151
 40
0.8834892530344116
 40
0.9157939480243522
 40
0.9469848359416142
 40
0.9760578133944583
 40
0.9907037653381439
 40
1.0
 40
1.0
 40
1.0
 40
1.0
 10
481.4660165845821
 20
327.5354117562608
 30
0.0
 10
482.019169855755
 20
327.620449895182
 30
0.0
 10
483.0591498756785
 20
327.7803295705239
 30
0.0
 10
484.7166709607382
 20
328.3216202929995
 30
0.0
 10
486.3026616439955
 20
329.0197110919347
 30
0.0
 10
487.9253700272378
 20
329.9239611630115
 30
0.0
 10
489.5898917915098
 20
331.0400423793577
 30
0.0
 10
491.4742438392082
 20
332.6608428413113
 30
0.0
 10
493.0305331318789
 20
334.4595362799527
 30
0.0
 10
494.3677569067069
 20
336.4343322466938
 30
0.0
 10
495.6303157002528
 20
338.7849863895936
 30
0.0
 10
496.6730683857177
 20
341.1634536889542
 30
0.0
 10
497.7262801741034
 20
343.9714146389227
 30
0.0
 10
498.8387071200642
 20
347.4759716990868
 30
0.0
 10
499.9559584690617
 20
351.6568138176481
 30
0.0
 10
500.9298271619814
 20
355.7687161784414
 30
0.0
 10
501.8537968354207
 20
360.0583101799817
 30
0.0
 10
502.7531592219313
 20
364.6208209798011
 30
0.0
 10
503.6845454710549
 20
369.7464193760752
 30
0.0
 10
504.6508100901068
 20
375.3928383731723
 30
0.0
 10
505.8465762936655
 20
382.8494256313347
 30
0.0
 10
507.2420827771161
 20
392.2463295497513
 30
0.0
 10
508.5688320378929
 20
401.690883460633
 30
0.0
 10
509.621538164895
 20
409.5450891281753
 30
0.0
 10
510.3877866204299
 20
415.3362589683234
 30
0.0
 10
511.0866208944491
 20
420.6865770092914
 30
0.0
 10
511.6777125232232
 20
425.2612956006408
 30
0.0
 10
512.1510739847183
 20
428.9568266944497
 30
0.0
 10
512.5240820552726
 20
431.8906755301502
 30
0.0
 10
512.8677247655232
 20
434.589653553343
 30
0.0
 10
513.3138322983145
 20
438.0910525538422
 30
0.0
 10
513.942880682488
 20
443.0228894221806
 30
0.0
 10
514.7826158148239
 20
449.5895120420382
 30
0.0
 10
515.6853183466794
 20
456.6565135313574
 30
0.0
 10
516.6311076127205
 20
463.9242426291677
 30
0.0
 10
517.5496027285133
 20
470.8359592376561
 30
0.0
 10
518.4612905757019
 20
477.5692029064918
 30
0.0
 10
519.4142414789036
 20
484.4101442994865
 30
0.0
 10
520.3966233725029
 20
491.1487060940559
 30
0.0
 10
521.3827577309856
 20
497.614102399113
 30
0.0
 10
522.2743286985427
 20
503.1696229215555
 30
0.0
 10
523.0816925591238
 20
507.887452798735
 30
0.0
 10
523.8273751307814
 20
511.9982712780356
 30
0.0
 10
524.6668644290498
 20
516.3724158336513
 30
0.0
 10
525.6429629373197
 20
521.0042945358283
 30
0.0
 10
526.7298385643136
 20
525.4736788020014
 30
0.0
 10
527.709860422908
 20
528.8872210775536
 30
0.0
 10
528.3822375256643
 20
530.7897579528396
 30
0.0
 10
528.766511506063
 20
531.6406687624275
 30
0.0
 10
528.7329484682646
 20
531.606918237607
 30
0.0
 10
528.7199166645919
 20
531.5938136367677
 30
0.0
  0
SPLINE
  5
B9
330
1F
100
AcDbEntity
  8
0
  6
Continuous
 62
     7
370
    25
100
AcDbSpline
210
0.0
220
0.0
230
1.0
 70
     8
 71
     3
 72
    41
 73
    37
 74
     0
 42
0.000000001
 43
0.00000001
 40
0.0
 40
0.0
 40
0.0
 40
0.0
 40
0.0270846856802834
 40
0.0596218791148591
 40
0.0923606524075593
 40
0.1222325556549169
 40
0.1467814545274348
 40
0.1623114988469092
 40
0.1745335875739561
 40
0.1839058580918437
 40
0.1948940021748213
 40
0.2168653590205781
 40
0.2452546872443776
 40
0.2800184816922283
 40
0.3102963102636946
 40
0.3442791879704858
 40
0.3790863118590146
 40
0.4120177554232791
 40
0.4610412472129534
 40
0.5053878296724863
 40
0.5450188354723748
 40
0.5800326506685709
 40
0.6115727197584612
 40
0.6663747036896813
 40
0.7250131357507639
 40
0.7865355623829247
 40
0.818485246132703
 40
0.8498565359396084
 40
0.8782111035909863
 40
0.89166269903879
 40
0.9060873843476382
 40
0.9255067185911751
 40
0.9437388297040105
 40
0.9652199100526315
 40
0.9899327298194507
 40
1.0
 40
1.0
 40
1.0
 40
1.0
 10
519.7375170720153
 20
486.5665178711275
 30
0.0
 10
519.982806909923
 20
484.8945796448885
 30
0.0
 10
520.522766695186
 20
481.2141197721384
 30
0.0
 10
521.3556806400202
 20
475.1124507394537
 30
0.0
 10
522.2154403925301
 20
468.7187473022661
 30
0.0
 10
523.0071615107487
 20
462.7239097074351
 30
0.0
 10
523.6416099934178
 20
457.8494956340689
 30
0.0
 10
524.1147761968654
 20
454.1760368338685
 30
0.0
 10
524.4493003689329
 20
451.5570509202971
 30
0.0
 10
524.7436044094134
 20
449.2519713762084
 30
0.0
 10
525.1267237195169
 20
446.2511780342697
 30
0.0
 10
525.6832459137526
 20
441.8909785367543
 30
0.0
 10
526.456578624942
 20
435.8325014970649
 30
0.0
 10
527.3021160290134
 20
429.1966521636788
 30
0.0
 10
528.1956110091344
 20
422.2164683449383
 30
0.0
 10
529.0957870849056
 20
415.3158076414918
 30
0.0
 10
530.0195159338894
 20
408.3570581168876
 30
0.0
 10
531.0720957173993
 20
400.5527686750142
 30
0.0
 10
532.2220955128172
 20
392.3981727695849
 30
0.0
 10
533.4310805066333
 20
384.2421992217303
 30
0.0
 10
534.5105519886332
 20
377.3442550188394
 30
0.0
 10
535.4843973178018
 20
371.5405121284022
 30
0.0
 10
536.5995737080332
 20
365.2860138146837
 30
0.0
 10
537.9505244394386
 20
358.3713621263796
 30
0.0
 10
539.6328773593415
 20
351.0742528016411
 30
0.0
 10
541.1890787600823
 20
345.5918607435972
 30
0.0
 10
542.5846118232521
 20
341.7061129139617
 30
0.0
 10
543.6958333025005
 20
339.085093003812
 30
0.0
 10
544.9921946601922
 20
336.6072828280203
 30
0.0
 10
546.4272903145119
 20
334.5048175581052
 30
0.0
 10
547.950173144071
 20
332.6962011627426
 30
0.0
 10
549.7599871385157
 20
331.0294883992308
 30
0.0
 10
552.0304707827943
 20
329.4630387949302
 30
0.0
 10
554.690532683038
 20
328.2472934502148
 30
0.0
 10
557.1446951373406
 20
327.5235267205684
 30
0.0
 10
558.6811947491259
 20
327.5526632840619
 30
0.0
 10
559.1259422108938
 20
327.5610970074152
 30
0.0
  0
LINE
  5
BA
330
1F
100
AcDbEntity
  8
0
  6
Continuous
 62
     7
370
    25
100
AcDbLine
 10
560.9496577393
 20
327.5410794422
 30
0.0
 11
561.4660165846
 21
327.5354117563
 31
0.0
  0
SPLINE
  5
BB
330
1F
100
AcDbEntity
  8
0
  6
Continuous
 62
     7
370
    25
100
AcDbSpline
210
0.0
220
0.0
230
1.0
 70
     8
 71
     3
 72
    69
 73
    65
 74
     0
 42
0.000000001
 43
0.00000001
 40
0.0
 40
0.0
 40
0.0
 40
0.0
 40
0.0113281555024825
 40
0.0325756985633765
 40
0.0527839907036969
 40
0.071957389627225
 40
0.0901557660740059
 40
0.1155197433581275
 40
0.1382294735696639
 40
0.1578577198537199
 40
0.1743216494309772
 40
0.1822380575335297
 40
0.1923855812395563
 40
0.2050462127965859
 40
0.2184309656854817
 40
0.2305991076702383
 40
0.242139891197705
 40
0.2555532788228513
 40
0.26307416595259
 40
0.270370284687095
 40
0.2832463619717103
 40
0.2934752264049708
 40
0.3010696000702141
 40
0.3066634191589423
 40
0.3164214193181857
 40
0.3297721473923028
 40
0.3459177616307395
 40
0.3668147695487523
 40
0.3893559110179899
 40
0.4104997112829149
 40
0.4290077698832038
 40
0.4449580317821845
 40
0.4610860950507285
 40
0.4795226052111883
 40
0.5003313924195611
 40
0.5231028483385838
 40
0.5465304221277466
 40
0.5766671458055493
 40
0.6076399660838284
 40
0.6279567276084478
 40
0.6461203755777158
 40
0.6621052392401572
 40
0.6759703879879548
 40
0.6882228809977919
 40
0.7007712645692464
 40
0.7137754849713974
 40
0.7277377309927172
 40
0.7439706358963678
 40
0.762509926957476
 40
0.7833196784246375
 40
0.8064653327549048
 40
0.8251831721223833
 40
0.8429938166854972
 40
0.8592176397919773
 40
0.873822769143287
 40
0.8907526151697519
 40
0.904846667440349
 40
0.9161454937389684
 40
0.9277949656604844
 40
0.9420472103057467
 40
0.9588484836969864
 40
0.9729695660127349
 40
0.9868151574155084
 40
1.0
 40
1.0
 40
1.0
 40
1.0
 10
545.9004190140752
 20
499.5052168043845
 30
0.0
 10
545.7062774224237
 20
500.7832267544351
 30
0.0
 10
545.1479960705423
 20
504.4583234535155
 30
0.0
 10
544.2311766382027
 20
509.9792161662497
 30
0.0
 10
543.1758791092046
 20
515.9868165755452
 30
0.0
 10
542.1666756250762
 20
521.284688800006
 30
0.0
 10
541.0440439433493
 20
526.636638593355
 30
0.0
 10
539.8344784081436
 20
531.7573304235508
 30
0.0
 10
538.5540336190267
 20
536.3719180661725
 30
0.0
 10
537.3622023076392
 20
539.9472990268893
 30
0.0
 10
536.410044426842
 20
542.3440545130702
 30
0.0
 10
535.545494331327
 20
544.2351927090785
 30
0.0
 10
534.5796030006534
 20
546.0890622684262
 30
0.0
 10
533.2357855232186
 20
548.1977753259852
 30
0.0
 10
531.4898288666733
 20
550.3222948206298
 30
0.0
 10
529.2795226152695
 20
552.3089945143864
 30
0.0
 10
526.3590261347139
 20
554.1041702854794
 30
0.0
 10
523.2830400790481
 20
555.1447308110044
 30
0.0
 10
520.3825944264723
 20
555.4823183593835
 30
0.0
 10
517.5457118281953
 20
555.3874300436179
 30
0.0
 10
514.5757170234325
 20
554.6799843349987
 30
0.0
 10
511.8923137088282
 20
553.3898274738804
 30
0.0
 10
510.088731683718
 20
552.1450538328534
 30
0.0
 10
508.6481288806744
 20
550.9162417557959
 30
0.0
 10
507.2749871861267
 20
549.4866745615794
 30
0.0
 10
505.6790395203208
 20
547.3879564405095
 30
0.0
 10
504.007286460852
 20
544.4860166527262
 30
0.0
 10
502.5101208689107
 20
541.0454562342951
 30
0.0
 10
501.1693452804863
 20
537.165748519573
 30
0.0
 10
499.9607343114631
 20
532.9230220012278
 30
0.0
 10
498.9196238787607
 20
528.7125644312595
 30
0.0
 10
498.003237522037
 20
524.6021131338798
 30
0.0
 10
497.112198804347
 20
520.2430358551953
 30
0.0
 10
496.1519178774685
 20
515.1246467843688
 30
0.0
 10
495.0770640568633
 20
508.9787641918419
 30
0.0
 10
493.9241681900504
 20
501.8624373660696
 30
0.0
 10
492.6204686862408
 20
493.2221800656568
 30
0.0
 10
491.1657841493709
 20
483.0608691437421
 30
0.0
 10
489.7810604388823
 20
472.7529616928523
 30
0.0
 10
488.5900811642167
 20
463.7034466924358
 30
0.0
 10
487.659999006013
 20
456.4928330630984
 30
0.0
 10
486.8438781686644
 20
450.0795950708064
 30
0.0
 10
486.1232220747482
 20
444.4345753608137
 30
0.0
 10
485.461406214079
 20
439.2474863524317
 30
0.0
 10
484.8148753961527
 20
434.1853357077972
 30
0.0
 10
484.1434571331042
 20
428.9178506133995
 30
0.0
 10
483.4059032471091
 20
423.2040622685042
 30
0.0
 10
482.5715570072649
 20
416.8403307008214
 30
0.0
 10
481.6218996362801
 20
409.7233283373688
 30
0.0
 10
480.5620863496533
 20
401.9494150789232
 30
0.0
 10
479.4903970075669
 20
394.4698290286977
 30
0.0
 10
478.4758570762556
 20
387.6941879579437
 30
0.0
 10
477.584953616281
 20
382.0089368395487
 30
0.0
 10
476.7597015796325
 20
377.0601373028619
 30
0.0
 10
475.9527072071884
 20
372.4864656437378
 30
0.0
 10
475.1912077159902
 20
368.4178846285545
 30
0.0
 10
474.4903211805513
 20
364.9503377125899
 30
0.0
 10
473.8830327528192
 20
362.1571590827226
 30
0.0
 10
473.2939952464542
 20
359.6277401696111
 30
0.0
 10
472.6437957540049
 20
357.0537836738166
 30
0.0
 10
471.9948133988912
 20
354.7509248693977
 30
0.0
 10
471.3708572356838
 20
352.8411229759812
 30
0.0
 10
470.9104600557673
 20
351.6709068508076
 30
0.0
 10
470.857691020509
 20
351.5081158593653
 30
0.0
 10
470.8319514625151
 20
351.4287100460014
 30
0.0
  0
LINE
  5
BC
330
1F
100
AcDbEntity
  8
0
  6
Continuous
 62
     7
370
    25
100
AcDbLine
 10
545.9004190141
 20
442.6879962937
 30
0.0
 11
545.9004190141
 21
341.4588540362
 31
0.0
  0
LINE
  5
BD
330
1F
100
AcDbEntity
  8
0
  6
Continuous
 62
     7
370
    25
100
AcDbLine
 10
573.9004190141
 20
341.4589117656
 30
0.0
 11
573.9004190141
 21
442.6879962937
 31
0.0
  0
LINE
  5
BE
330
1F
100
AcDbEntity
  8
0
  6
Continuous
 62
     7
370
    25
100
AcDbLine
 10
573.9004190141
 20
442.6879962937
 30
0.0
 11
573.9004190141
 21
558.346251222
 31
0.0
  0
LINE
  5
BF
330
1F
100
AcDbEntity
  8
0
  6
Continuous
 62
     7
370
    25
100
AcDbLine
 10
545.9004190141
 20
558.346251222
 30
0.0
 11
545.9004190141
 21
442.6879962937
 31
0.0
  0
ARC
  5
C0
330
1F
100
AcDbEntity
  8
0
  6
Continuous
 62
     7
370
    25
100
AcDbCircle
 10
479.9004190141
 20
341.4387076044
 30
0.0
 40
14.00000000000008
100
AcDbArc
 50
259.5599532897
 51
278.403575695
  0
LINE
  5
C1
330
1F
100
AcDbEntity
  8
0
  6
Continuous
 62
     7
370
    25
100
AcDbLine
 10
465.9004190141
 20
341.4399157623
 30
0.0
 11
465.9004190141
 21
341.4387076044
 31
0.0
  0
LINE
  5
C2
330
1F
100
AcDbEntity
  8
0
  6
Continuous
 62
     7
370
    25
100
AcDbLine
 10
465.9004190141
 20
440.1894189152
 30
0.0
 11
465.9004190141
 21
341.4399157623
 31
0.0
  0
LINE
  5
C3
330
1F
100
AcDbEntity
  8
0
  6
Continuous
 62
     7
370
    25
100
AcDbLine
 10
493.9004190141
 20
501.612958612
 30
0.0
 11
493.9004190141
 21
552.2897679746
 31
0.0
  0
LINE
  5
C4
330
1F
100
AcDbEntity
  8
0
  6
Continuous
 62
     7
370
    25
100
AcDbLine
 10
465.9004190141
 20
552.2897679746
 30
0.0
 11
465.9004190141
 21
440.1894189152
 31
0.0
  0
LINE
  5
C5
330
1F
100
AcDbEntity
  8
0
  6
Continuous
 62
     7
370
    25
100
AcDbLine
 10
456.9004239445
 20
612.1758080394
 30
0.0
 11
459.8958951552
 21
555.0232851585
 31
0.0
  0
LINE
  5
C6
330
1F
100
AcDbEntity
  8
0
  6
Continuous
 62
     7
370
    25
100
AcDbLine
 10
499.9049428729
 20
555.0232851585
 30
0.0
 11
502.9004140837
 21
612.1758080394
 31
0.0
  0
SPLINE
  5
C7
330
1F
100
AcDbEntity
  8
0
  6
Continuous
 62
     7
370
    25
100
AcDbSpline
210
0.0
220
0.0
230
1.0
 70
     8
 71
     3
 72
    15
 73
    11
 74
     0
 42
0.000000001
 43
0.00000001
 40
0.0
 40
0.0
 40
0.0
 40
0.0
 40
0.1256499580583762
 40
0.2810458228901007
 40
0.3559713543526908
 40
0.4337045132724031
 40
0.5508374048387592
 40
0.7133391887291863
 40
0.8608355720103582
 40
0.9999999999999999
 40
0.9999999999999999
 40
0.9999999999999999
 40
0.9999999999999999
 10
496.870233514574
 20
552.155875072551
 30
0.0
 10
496.9390138515034
 20
552.1596631940516
 30
0.0
 10
497.0928573281722
 20
552.1681362229392
 30
0.0
 10
497.2903531534417
 20
552.1903634108494
 30
0.0
 10
497.6496396940201
 20
552.2615705787766
 30
0.0
 10
498.1141687874202
 20
552.4103412134883
 30
0.0
 10
498.7667480178682
 20
552.7671573714641
 30
0.0
 10
499.3999267522926
 20
553.4182785792233
 30
0.0
 10
499.8320752752311
 20
554.2820056053699
 30
0.0
 10
499.8838995635924
 20
554.8868246097344
 30
0.0
 10
499.9090585569469
 20
555.1804444121989
 30
0.0
  0
SPLINE
  5
C8
330
1F
100
AcDbEntity
  8
0
  6
Continuous
 62
     7
370
    25
100
AcDbSpline
210
0.0
220
0.0
230
1.0
 70
     8
 71
     3
 72
    18
 73
    14
 74
     0
 42
0.000000001
 43
0.00000001
 40
0.0
 40
0.0
 40
0.0
 40
0.0
 40
0.016037870530981
 40
0.1744117309655011
 40
0.3037926227284327
 40
0.4148769897537151
 40
0.5106105759375139
 40
0.590556825428073
 40
0.6512581572735912
 40
0.71410874362087
 40
0.8144163339686812
 40
0.9946035553338736
 40
1.0
 40
1.0
 40
1.0
 40
1.0
 10
459.9105437632372
 20
555.0376829914727
 30
0.0
 10
459.9071200244322
 20
555.0039613756137
 30
0.0
 10
459.8698868886362
 20
554.6372390366628
 30
0.0
 10
460.0996366269126
 20
554.0012010138653
 30
0.0
 10
460.5255769237017
 20
553.2786368753553
 30
0.0
 10
461.04378517346
 20
552.7864801558784
 30
0.0
 10
461.5511773614064
 20
552.4761260599643
 30
0.0
 10
461.9803379925442
 20
552.310623598026
 30
0.0
 10
462.2775320401715
 20
552.235094835801
 30
0.0
 10
462.5004966490526
 20
552.1946886179287
 30
0.0
 10
462.7255685966053
 20
552.1678534123245
 30
0.0
 10
462.8430616032095
 20
552.1553865038237
 30
0.0
 10
462.9560790276845
 20
552.1499284007796
 30
0.0
 10
462.9593653744333
 20
552.1497696887998
 30
0.0
  0
LINE
  5
C9
330
1F
100
AcDbEntity
  8
0
  6
Continuous
 62
     7
370
    25
100
AcDbLine
 10
543.9004190141
 20
572.1167868407
 30
0.0
 11
543.9004190141
 21
558.2789749672
 31
0.0
  0
LINE
  5
CA
330
1F
100
AcDbEntity
  8
0
  6
Continuous
 62
     7
370
    25
100
AcDbLine
 10
575.9004190141
 20
558.2789749672
 30
0.0
 11
575.9004190141
 21
572.1167868407
 31
0.0
  0
LINE
  5
CB
330
1F
100
AcDbEntity
  8
0
  6
Continuous
 62
     7
370
    25
100
AcDbLine
 10
536.9004239445
 20
632.0730275366
 30
0.0
 11
539.99522507
 21
573.0253252904
 31
0.0
  0
LINE
  5
CC
330
1F
100
AcDbEntity
  8
0
  6
Continuous
 62
     7
370
    25
100
AcDbLine
 10
579.8056129581
 20
573.0253252904
 30
0.0
 11
582.9004140837
 21
632.0730275366
 31
0.0
  0
LINE
  5
CD
330
1F
100
AcDbEntity
  8
0
  6
Continuous
 62
     7
370
    25
100
AcDbLine
 10
582.9002901306
 20
632.0741775993
 30
0.0
 11
582.3643947487
 21
634.0739991083
 31
0.0
  0
LINE
  5
CE
330
1F
100
AcDbEntity
  8
0
  6
Continuous
 62
     7
370
    25
100
AcDbLine
 10
537.4364432795
 20
634.0739991083
 30
0.0
 11
536.9005478976
 21
632.0741775993
 31
0.0
  0
SPLINE
  5
CF
330
1F
100
AcDbEntity
  8
0
  6
Continuous
 62
     7
370
    25
100
AcDbSpline
210
0.0
220
0.0
230
1.0
 70
     8
 71
     3
 72
    13
 73
     9
 74
     0
 42
0.000000001
 43
0.00000001
 40
0.0
 40
0.0
 40
0.0
 40
0.0
 40
0.1704887900811117
 40
0.3416317744219298
 40
0.5139597386214209
 40
0.7200488118319873
 40
0.944648327594217
 40
1.0
 40
1.0
 40
1.0
 40
1.0
 10
579.0448762073556
 20
572.102582377114
 30
0.0
 10
579.0728086265927
 20
572.1095612689547
 30
0.0
 10
579.1287806464733
 20
572.123545831822
 30
0.0
 10
579.293064284459
 20
572.1928437433497
 30
0.0
 10
579.510133707137
 20
572.3443820614899
 30
0.0
 10
579.7025572358395
 20
572.5994838350833
 30
0.0
 10
579.8095907474625
 20
572.8555325672119
 30
0.0
 10
579.7960791725128
 20
573.0073589567265
 30
0.0
 10
579.7934076772598
 20
573.0373779204964
 30
0.0
  0
SPLINE
  5
D0
330
1F
100
AcDbEntity
  8
0
  6
Continuous
 62
     7
370
    25
100
AcDbSpline
210
0.0
220
0.0
230
1.0
 70
     8
 71
     3
 72
    12
 73
     8
 74
     0
 42
0.000000001
 43
0.00000001
 40
0.0
 40
0.0
 40
0.0
 40
0.0
 40
0.291067610890017
 40
0.5295498979446243
 40
0.7340045494563453
 40
0.9150905877483537
 40
1.0
 40
1.0
 40
1.0
 40
1.0
 10
539.9938503377708
 20
573.0778199876911
 30
0.0
 10
540.0075195974415
 20
572.9520919584927
 30
0.0
 10
540.0323885790554
 20
572.7233503790804
 30
0.0
 10
540.1986359453791
 20
572.4509191059127
 30
0.0
 10
540.3791306566008
 20
572.2770554187406
 30
0.0
 10
540.525295059359
 20
572.1876383944386
 30
0.0
 10
540.5840226667201
 20
572.1638462183674
 30
0.0
 10
540.60276932804
 20
572.156251427997
 30
0.0
  0
SPLINE
  5
D1
330
1F
100
AcDbEntity
  8
0
  6
Continuous
 62
     7
370
    25
100
AcDbSpline
210
0.0
220
0.0
230
1.0
 70
     8
 71
     3
 72
     9
 73
     5
 74
     0
 42
0.000000001
 43
0.00000001
 40
0.0
 40
0.0
 40
0.0
 40
0.0
 40
0.8328764695756264
 40
1.0
 40
1.0
 40
1.0
 40
1.0
 10
561.3921051618165
 20
327.5899098438859
 30
0.0
 10
560.9795146197989
 20
327.5251650820202
 30
0.0
 10
560.4841343838465
 20
327.4474287498859
 30
0.0
 10
559.9840027743327
 20
327.4475789639816
 30
0.0
 10
559.9004190140739
 20
327.4476040682915
 30
0.0
  0
SPLINE
  5
D2
330
1F
100
AcDbEntity
  8
0
  6
Continuous
 62
     7
370
    25
100
AcDbSpline
210
0.0
220
0.0
230
1.0
 70
     8
 71
     3
 72
     9
 73
     5
 74
     0
 42
0.000000001
 43
0.00000001
 40
0.0
 40
0.0
 40
0.0
 40
0.0
 40
0.091747196316739
 40
1.0
 40
1.0
 40
1.0
 40
1.0
 10
479.9004190140738
 20
327.4476040682915
 30
0.0
 10
479.9490035885597
 20
327.4475029129401
 30
0.0
 10
480.4785519174066
 20
327.4464003686059
 30
0.0
 10
480.9959250696218
 20
327.5797788330732
 30
0.0
 10
481.4658306856717
 20
327.7009201973765
 30
0.0
  0
LINE
  5
D3
330
1F
100
AcDbEntity
  8
0
  6
Continuous
 62
     7
370
    25
100
AcDbLine
 10
479.598586683
 20
355.4414381012
 30
0.0
 11
478.7061814763
 21
355.2772572959
 31
0.0
  0
SPLINE
  5
D4
330
1F
100
AcDbEntity
  8
0
  6
Continuous
 62
     7
370
    25
100
AcDbSpline
210
0.0
220
0.0
230
1.0
 70
     8
 71
     3
 72
    19
 73
    15
 74
     0
 42
0.000000001
 43
0.00000001
 40
0.0
 40
0.0
 40
0.0
 40
0.0
 40
0.0048657721104687
 40
0.1190128625072289
 40
0.2370683853142362
 40
0.3484484174577195
 40
0.4634542583769543
 40
0.574110229186855
 40
0.6883277352827037
 40
0.7961837530048086
 40
0.9073361122835695
 40
0.9932402459612147
 40
0.9947682154440234
 40
1.0
 40
1.0
 40
1.0
 40
1.0
 10
559.9004190140739
 20
327.4476040682915
 30
0.0
 10
559.9361920804351
 20
327.4477185165431
 30
0.0
 10
560.8111724394922
 20
327.4505178284965
 30
0.0
 10
562.5567491244402
 20
327.6241848115667
 30
0.0
 10
564.9977206415915
 20
328.3298673865866
 30
0.0
 10
567.2769000655964
 20
329.4663594358244
 30
0.0
 10
569.2757346853527
 20
330.9577997462445
 30
0.0
 10
570.9925779516427
 20
332.7942910766153
 30
0.0
 10
572.3315319634859
 20
334.862115974498
 30
0.0
 10
573.2872761638214
 20
337.1332061287019
 30
0.0
 10
573.8022034582185
 20
339.3332226089269
 30
0.0
 10
573.8883777120548
 20
340.7952569482859
 30
0.0
 10
573.9015427588754
 20
341.4784547328167
 30
0.0
 10
573.8907663221755
 20
341.5273731675923
 30
0.0
 10
573.8824257827459
 20
341.5652341178715
 30
0.0
  0
SPLINE
  5
D5
330
1F
100
AcDbEntity
  8
0
  6
Continuous
 62
     7
370
    25
100
AcDbSpline
210
0.0
220
0.0
230
1.0
 70
     8
 71
     3
 72
    15
 73
    11
 74
     0
 42
0.000000001
 43
0.00000001
 40
0.0
 40
0.0
 40
0.0
 40
0.0
 40
0.0011863886458521
 40
0.0015147304941625
 40
0.1385326582349798
 40
0.3529466948231438
 40
0.5674099222666814
 40
0.7818916346970928
 40
0.9933554828314242
 40
1.0
 40
1.0
 40
1.0
 40
1.0
 10
545.9047838897495
 20
341.4866051133976
 30
0.0
 10
545.9027590626458
 20
341.4780995581217
 30
0.0
 10
545.9001738496383
 20
341.4672400274011
 30
0.0
 10
545.9186378871002
 20
340.4525060425391
 30
0.0
 10
546.1648360453855
 20
337.8766302463403
 30
0.0
 10
547.762236874002
 20
333.9613516755211
 30
0.0
 10
550.9232530686312
 20
330.3626057148878
 30
0.0
 10
555.0791008222185
 20
328.0254929342993
 30
0.0
 10
558.258298609894
 20
327.4540821481241
 30
0.0
 10
559.8518719293893
 20
327.4477955840229
 30
0.0
 10
559.9004190140739
 20
327.4476040682915
 30
0.0
  0
SPLINE
  5
D6
330
1F
100
AcDbEntity
  8
0
  6
Continuous
 62
     7
370
    25
100
AcDbSpline
210
0.0
220
0.0
230
1.0
 70
     8
 71
     3
 72
    45
 73
    41
 74
     0
 42
0.000000001
 43
0.00000001
 40
0.0
 40
0.0
 40
0.0
 40
0.0
 40
0.002459919063223
 40
0.0455477913369821
 40
0.0750644275447255
 40
0.1199360403894257
 40
0.161988235524653
 40
0.1907581372649108
 40
0.2344653598703422
 40
0.2762461069594219
 40
0.3048221986821259
 40
0.3482286884096734
 40
0.388960449745211
 40
0.4167844144331164
 40
0.4590211307361497
 40
0.5024504593698942
 40
0.503222933126048
 40
0.519708803975139
 40
0.5361946753565023
 40
0.5697430018573988
 40
0.5866400861148671
 40
0.6037277717948598
 40
0.6202191391320999
 40
0.6367105056899929
 40
0.6702701964944533
 40
0.6871730066235052
 40
0.7042664295644694
 40
0.7366240516341358
 40
0.7695355101687656
 40
0.7861068797734032
 40
0.80285732614159
 40
0.8193246525436426
 40
0.8357919755894566
 40
0.8692978603046835
 40
0.8861724519983316
 40
0.903235505103243
 40
0.9351652116354456
 40
0.9676229010376853
 40
0.9839618734964325
 40
1.0
 40
1.0
 40
1.0
 40
1.0
 10
479.9004190140738
 20
327.4476040682915
 30
0.0
 10
479.8646458687076
 20
327.4476695727254
 30
0.0
 10
479.2022713276222
 20
327.4488824509583
 30
0.0
 10
478.1095292689941
 20
327.5311375562885
 30
0.0
 10
476.4293783022753
 20
327.8495362514606
 30
0.0
 10
474.807769925784
 20
328.3573626167386
 30
0.0
 10
473.2804494617196
 20
329.0749149996847
 30
0.0
 10
471.8584504147654
 20
329.9460850338981
 30
0.0
 10
470.543951424482
 20
330.972020348077
 30
0.0
 10
469.3799607139664
 20
332.1616624475754
 30
0.0
 10
468.3576957859888
 20
333.4660115999468
 30
0.0
 10
467.4940981875649
 20
334.8669618316916
 30
0.0
 10
466.8263075921293
 20
336.3585928496412
 30
0.0
 10
466.3276418147721
 20
337.8943824475883
 30
0.0
 10
465.990839781374
 20
339.5171209703279
 30
0.0
 10
465.901559164877
 20
340.7772129040547
 30
0.0
 10
465.9000052450219
 20
341.6609964931005
 30
0.0
 10
465.9123847730539
 20
342.1525418601703
 30
0.0
 10
465.9865583325167
 20
343.1187704795681
 30
0.0
 10
466.137122186109
 20
344.0840487516656
 30
0.0
 10
466.3647789343108
 20
345.0412609056125
 30
0.0
 10
466.572634019016
 20
345.746797056788
 30
0.0
 10
466.8151894173853
 20
346.4348640400265
 30
0.0
 10
467.1840736428398
 20
347.3313742478124
 30
0.0
 10
467.6253128500395
 20
348.2032942663217
 30
0.0
 10
468.1373901411075
 20
349.0437119266298
 30
0.0
 10
468.6833844004321
 20
349.8413931104233
 30
0.0
 10
469.4363420435227
 20
350.7775407780215
 30
0.0
 10
470.275201316772
 20
351.6268288271248
 30
0.0
 10
471.0038437322092
 20
352.2587643741211
 30
0.0
 10
471.5755036959237
 20
352.7047453978286
 30
0.0
 10
472.1681816176135
 20
353.1196327015082
 30
0.0
 10
472.9879464442685
 20
353.6329553477525
 30
0.0
 10
473.8518949055894
 20
354.084440846239
 30
0.0
 10
474.7548114968234
 20
354.4694533597986
 30
0.0
 10
475.6552287986636
 20
354.7983170376584
 30
0.0
 10
476.7977508655527
 20
355.1197439674796
 30
0.0
 10
477.9562653017923
 20
355.3215979333834
 30
0.0
 10
478.8948700910726
 20
355.4162140991269
 30
0.0
 10
479.3654720869834
 20
355.433082346771
 30
0.0
 10
479.5985866829524
 20
355.441438101248
 30
0.0
  0
SPLINE
  5
D7
330
1F
100
AcDbEntity
  8
0
  6
Continuous
 62
     7
370
    25
100
AcDbSpline
210
0.0
220
0.0
230
1.0
 70
     8
 71
     3
 72
     9
 73
     5
 74
     0
 42
0.000000001
 43
0.00000001
 40
0.0
 40
0.0
 40
0.0
 40
0.0
 40
0.9152509019028404
 40
1.0
 40
1.0
 40
1.0
 40
1.0
 10
481.6147679341688
 20
327.5633300925642
 30
0.0
 10
481.0925169797093
 20
327.5085511445365
 30
0.0
 10
480.5219073759673
 20
327.4486998535801
 30
0.0
 10
479.9489745540054
 20
327.4476896796233
 30
0.0
 10
479.9004190140738
 20
327.4476040682915
 30
0.0
  0
LINE
  5
D8
330
1F
100
AcDbEntity
  8
0
  6
Continuous
 62
     7
370
    25
100
AcDbLine
 10
486.1599035288
 20
555.2608136472
 30
0.0
 11
488.361691336
 21
570.4166386758
 31
0.0
  0
ELLIPSE
  5
D9
330
1F
100
AcDbEntity
  8
0
  6
Continuous
 62
     7
370
    25
100
AcDbEllipse
 10
479.9004190141
 20
552.2343728323
 30
0.0
 11
-1.932676241267473E-12
 21
20.10419593964843
 31
0.0
210
0.0
220
0.0
230
1.0
 40
0.9863800104
 41
5.842364029932715
 42
6.724006584426278
  0
LINE
  5
DA
330
1F
100
AcDbEntity
  8
0
  6
Continuous
 62
     7
370
    25
100
AcDbLine
 10
471.4391466921
 20
570.4166386758
 30
0.0
 11
473.6409344994
 21
555.2608136472
 31
0.0
  0
LWPOLYLINE
  5
DB
330
1F
100
AcDbEntity
  8
0
  6
Continuous
 62
     7
370
    25
100
AcDbPolyline
 90
       25
 70
   128
 43
0.0
 10
456.9004239445
 20
612.1758080394
 10
456.9004190141
 20
612.1759961803
 10
457.1146422552
 20
612.2151218148
 10
457.7533214051
 20
612.2535186128
 10
458.8045590794
 20
612.2904713146
 10
460.2487727095
 20
612.3252915612
 10
462.0590593279
 20
612.3573307174
 10
464.20169672
 20
612.3859919542
 10
466.6367716054
 20
612.410741367
 10
469.3189231463
 20
612.4311179212
 10
472.1981879341
 20
612.4467420401
 10
475.2209307139
 20
612.4573226759
 10
478.3308435067
 20
612.4626627313
 10
481.4699945215
 20
612.4626627313
 10
484.5799073143
 20
612.4573226759
 10
487.602650094
 20
612.4467420401
 10
490.4819148819
 20
612.4311179212
 10
493.1640664227
 20
612.410741367
 10
495.5991413081
 20
612.3859919542
 10
497.7417787003
 20
612.3573307174
 10
499.5520653186
 20
612.3252915612
 10
500.9962789487
 20
612.2904713146
 10
502.0475166231
 20
612.2535186128
 10
502.6861957729
 20
612.2151218148
 10
502.9004190141
 20
612.1759961803
  0
LINE
  5
DC
330
1F
100
AcDbEntity
  8
0
  6
Continuous
 62
     7
370
    25
100
AcDbLine
 10
488.361691336
 20
570.4166386758
 30
0.0
 11
471.4391466921
 21
570.4166386758
 31
0.0
  0
SPLINE
  5
DD
330
1F
100
AcDbEntity
  8
0
  6
Continuous
 62
     7
370
    25
100
AcDbSpline
210
0.0
220
0.0
230
1.0
 70
     8
 71
     3
 72
    26
 73
    22
 74
     0
 42
0.000000001
 43
0.00000001
 40
0.0
 40
0.0
 40
0.0
 40
0.0
 40
0.0131381118604749
 40
0.0431408960631996
 40
0.0666835946831236
 40
0.0908347719858149
 40
0.1377047395432129
 40
0.185641247947676
 40
0.2627705727593672
 40
0.3407515566443527
 40
0.4202806441326383
 40
0.5000824307552639
 40
0.6008646821476732
 40
0.7021962277512854
 40
0.7815576600230878
 40
0.8620912126005004
 40
0.9018106144618073
 40
0.9426246934419984
 40
0.971087267723433
 40
0.9997838405801858
 40
0.9999999999999999
 40
0.9999999999999999
 40
0.9999999999999999
 40
0.9999999999999999
 10
473.6409344993891
 20
555.2608136471918
 30
0.0
 10
473.6544746786908
 20
555.2012827021993
 30
0.0
 10
473.6989358215201
 20
555.0058042089627
 30
0.0
 10
473.8657436493427
 20
554.7359567576838
 30
0.0
 10
474.1164276608988
 20
554.476810699237
 30
0.0
 10
474.4662352635206
 20
554.2101457784034
 30
0.0
 10
474.9547975931122
 20
553.948647610731
 30
0.0
 10
475.7020031320822
 20
553.6678073361675
 30
0.0
 10
476.6183639231105
 20
553.442805208229
 30
0.0
 10
477.6948364517604
 20
553.2818311886147
 30
0.0
 10
478.7919114916857
 20
553.1931138902178
 30
0.0
 10
479.9976679811177
 20
553.1622966129129
 30
0.0
 10
481.3045390767564
 20
553.204333861158
 30
0.0
 10
482.6039361366094
 20
553.3403943760933
 30
0.0
 10
483.7927015872863
 20
553.57625944239
 30
0.0
 10
484.6770263503184
 20
553.865506181179
 30
0.0
 10
485.3404795382585
 20
554.2114762527862
 30
0.0
 10
485.7469411385775
 20
554.5191233326711
 30
0.0
 10
486.0364506368292
 20
554.873915576817
 30
0.0
 10
486.1374668442994
 20
555.1276895024671
 30
0.0
 10
486.159737030811
 20
555.2598257607253
 30
0.0
 10
486.1599035287589
 20
555.2608136471918
 30
0.0
  0
ARC
  5
DE
330
1F
100
AcDbEntity
  8
0
  6
Continuous
 62
     7
370
    25
100
AcDbCircle
 10
493.1722143933
 20
620.9315507926
 30
0.0
 40
68.87538914805705
100
AcDbArc
 50
270.6057871945
 51
272.9056678297
  0
ARC
  5
DF
330
1F
100
AcDbEntity
  8
0
  6
Continuous
 62
     7
370
    25
100
AcDbCircle
 10
466.6717376347
 20
622.8180074465
 30
0.0
 40
70.76219998858545
100
AcDbArc
 50
267.1591755329
 51
269.3754550198
  0
LWPOLYLINE
  5
E0
330
1F
100
AcDbEntity
  8
0
  6
Continuous
 62
     7
370
    25
100
AcDbPolyline
 90
       21
 70
   128
 43
0.0
 10
462.9312489515
 20
552.1951459534
 10
463.1011840482
 20
552.2139188214
 10
463.7242415435
 20
552.2463406268
 10
464.7456102138
 20
552.2771456135
 10
466.1401405727
 20
552.3055752605
 10
467.8734946546
 20
552.3309295354
 10
469.9029915292
 20
552.3525841318
 10
472.1786582481
 20
552.3700058419
 10
474.6444603441
 20
552.3827656852
 10
477.2396815861
 20
552.390549472
 10
479.9004190141
 20
552.3931655397
 10
482.561156442
 20
552.390549472
 10
485.156377684
 20
552.3827656852
 10
487.62217978
 20
552.3700058419
 10
489.8978464989
 20
552.3525841318
 10
491.9273433736
 20
552.3309295354
 10
493.6606974555
 20
552.3055752605
 10
495.0552278143
 20
552.2771456135
 10
496.0765964846
 20
552.2463406268
 10
496.69965398
 20
552.2139188214
 10
496.8587999862
 20
552.1970014027
  0
ARC
  5
E1
330
1F
100
AcDbEntity
  8
0
  6
Continuous
 62
     7
370
    25
100
AcDbCircle
 10
494.0080391095
 20
578.3060246585
 30
0.0
 40
26.23465631488607
100
AcDbArc
 50
269.7649599645
 51
275.23216183
  0
LWPOLYLINE
  5
E2
330
1F
100
AcDbEntity
  8
0
  6
Continuous
 62
     7
370
    25
100
AcDbPolyline
 90
       25
 70
   128
 43
0.0
 10
465.9004190141
 20
552.0715890847
 10
464.7207581937
 20
552.09988142
 10
463.8798790265
 20
552.1313477615
 10
463.4539234299
 20
552.1640917439
 10
463.4539234299
 20
552.1972653154
 10
463.8798790265
 20
552.2300092978
 10
464.7207581937
 20
552.2614756393
 10
465.9547826026
 20
552.290849378
 10
467.5499916693
 20
552.3173697497
 10
469.4650703168
 20
552.3403498905
 10
471.6504190141
 20
552.359194627
 10
474.0494383779
 20
552.3734158904
 10
476.5999950668
 20
552.3826453573
 10
479.2360310023
 20
552.3866439895
 10
481.8892742383
 20
552.3853082244
 10
484.4910071687
 20
552.3786726578
 10
486.9738462772
 20
552.3669091472
 10
489.2734873351
 20
552.3503223615
 10
491.330370847
 20
552.3293418896
 10
493.0912246102
 20
552.3045111148
 10
494.5104434374
 20
552.2764731411
 10
495.5512703062
 20
552.2459541373
 10
496.1867483476
 20
552.2137445295
 10
496.4004190141
 20
552.1806785297
 10
496.4004190141
 20
552.1806785297
  0
LWPOLYLINE
  5
E3
330
1F
100
AcDbEntity
  8
0
  6
Continuous
 62
     7
370
    25
100
AcDbPolyline
 90
       24
 70
   128
 43
0.0
 10
543.9004190141
 20
558.2789749672
 10
544.1186381596
 20
558.3118751528
 10
544.7673431469
 20
558.3438779071
 10
545.8288389948
 20
558.3741102784
 10
547.2741708637
 20
558.4017476064
 10
549.0639138681
 20
558.4260360168
 10
551.1492484841
 20
558.4463129852
 10
553.4732922196
 20
558.4620254086
 10
555.9726512198
 20
558.4727446932
 10
558.5791494865
 20
558.4781784448
 10
561.2216885416
 20
558.4781784448
 10
563.8281868083
 20
558.4727446932
 10
566.3275458085
 20
558.4620254086
 10
568.651589544
 20
558.4463129852
 10
570.7369241601
 20
558.4260360168
 10
572.5266671644
 20
558.4017476064
 10
573.9719990334
 20
558.3741102784
 10
575.0334948813
 20
558.3438779071
 10
575.6821998685
 20
558.3118751528
 10
575.9004190141
 20
558.2789749672
 10
575.6821998685
 20
558.2460747816
 10
575.0334948813
 20
558.2140720273
 10
573.9719990334
 20
558.183839656
 10
573.9004190141
 20
558.1822054814
  0
ARC
  5
E4
330
1F
100
AcDbEntity
  8
0
  6
Continuous
 62
     7
370
    25
100
AcDbCircle
 10
545.996519303
 20
580.8844315733
 30
0.0
 40
22.70242949094971
100
AcDbArc
 50
264.7023735546
 51
269.7574639573
  0
LWPOLYLINE
  5
E5
330
1F
100
AcDbEntity
  8
0
  6
Continuous
 62
     7
370
    25
100
AcDbPolyline
 90
       22
 70
   128
 43
0.0
 10
544.9004190141
 20
558.2789749672
 10
545.1161803589
 20
558.3106445892
 10
545.7572573322
 20
558.3414031338
 10
546.8052073167
 20
558.3703657338
 10
548.2298826993
 20
558.3966991878
 10
549.9902981632
 20
558.4196459302
 10
552.0358097607
 20
558.4385458253
 10
554.3075718474
 20
558.4528551572
 10
556.7402299641
 20
558.4621622727
 10
559.2638009661
 20
558.4661994229
 10
561.8056863103
 20
558.4648504664
 10
564.2927605832
 20
558.4581542102
 10
566.6534751863
 20
558.4463032934
 10
568.8199166586
 20
558.4296386454
 10
570.7297604234
 20
558.4086396776
 10
572.3280637527
 20
558.3839104922
 10
573.5688463699
 20
558.3561625028
 10
574.4164132181
 20
558.3261939685
 10
574.8463813422
 20
558.2948670295
 10
574.8463813422
 20
558.2630829049
 10
574.4164132181
 20
558.2317559659
 10
573.9004190141
 20
558.2116987124
  0
ARC
  5
E6
330
1F
100
AcDbEntity
  8
0
  6
Continuous
 62
     7
370
    25
100
AcDbCircle
 10
545.9998141823
 20
567.154797833
 30
0.0
 40
8.94365145118509
100
AcDbArc
 50
262.9390776814
 51
269.3632309008
  0
SPLINE
  5
E7
330
1F
100
AcDbEntity
  8
0
  6
Continuous
 62
     7
370
    25
100
AcDbSpline
210
0.0
220
0.0
230
1.0
 70
     8
 71
     3
 72
     9
 73
     5
 74
     0
 42
0.000000001
 43
0.00000001
 40
0.0
 40
0.0
 40
0.0
 40
0.0
 40
0.7456629823534464
 40
1.0
 40
1.0
 40
1.0
 40
1.0
 10
568.3616913360243
 20
590.3138581729875
 30
0.0
 10
567.7978551804028
 20
586.0658491489086
 30
0.0
 10
567.0417010344082
 20
580.3688933865732
 30
0.0
 10
566.0795211701914
 20
574.7037170265168
 30
0.0
 10
565.8348032130868
 20
573.2628529666583
 30
0.0
  0
ELLIPSE
  5
E8
330
1F
100
AcDbEntity
  8
0
  6
Continuous
 62
     7
370
    25
100
AcDbEllipse
 10
559.9004190141
 20
572.1315923295
 30
0.0
 11
0.0
 21
20.10419593964878
 31
0.0
210
0.0
220
0.0
230
1.0
 40
0.9863800104
 41
5.842364029932781
 42
6.7240065844264
  0
LINE
  5
E9
330
1F
100
AcDbEntity
  8
0
  6
Continuous
 62
     7
370
    25
100
AcDbLine
 10
553.9660348151
 20
573.2628529667
 30
0.0
 11
551.4391466921
 21
590.313858173
 31
0.0
  0
LWPOLYLINE
  5
EA
330
1F
100
AcDbEntity
  8
0
  6
Continuous
 62
     7
370
    25
100
AcDbPolyline
 90
       25
 70
   128
 43
0.0
 10
536.9004190141
 20
632.0732156775
 10
537.1146422552
 20
632.112341312
 10
537.7533214051
 20
632.15073811
 10
538.8045590794
 20
632.1876908118
 10
540.2487727095
 20
632.2225110584
 10
542.0590593279
 20
632.2545502145
 10
544.20169672
 20
632.2832114513
 10
546.6367716054
 20
632.3079608642
 10
549.3189231463
 20
632.3283374184
 10
552.1981879341
 20
632.3439615373
 10
555.2209307139
 20
632.3545421731
 10
558.3308435067
 20
632.3598822285
 10
561.4699945215
 20
632.3598822285
 10
564.5799073143
 20
632.3545421731
 10
567.602650094
 20
632.3439615373
 10
570.4819148819
 20
632.3283374184
 10
573.1640664227
 20
632.3079608642
 10
575.5991413081
 20
632.2832114513
 10
577.7417787003
 20
632.2545502145
 10
579.5520653186
 20
632.2225110584
 10
580.9962789487
 20
632.1876908118
 10
582.0475166231
 20
632.15073811
 10
582.6861957729
 20
632.112341312
 10
582.9004190141
 20
632.0732156775
 10
582.9004140837
 20
632.0730275366
  0
LWPOLYLINE
  5
EB
330
1F
100
AcDbEntity
  8
0
  6
Continuous
 62
     7
370
    25
100
AcDbPolyline
 90
       24
 70
   128
 43
0.0
 10
537.4363173989
 20
634.0730595991
 10
537.6455492536
 20
634.1112736092
 10
538.2693472241
 20
634.1487757645
 10
539.2960911345
 20
634.1848674709
 10
540.7066546884
 20
634.2188764082
 10
542.4747617557
 20
634.2501690542
 10
544.5674758471
 20
634.2781624862
 10
546.9458136586
 20
634.3023352395
 10
549.5654712569
 20
634.3222370215
 10
552.3776493774
 20
634.3374970995
 10
555.3299624626
 20
634.3478312072
 10
558.3674145058
 20
634.3530468397
 10
561.4334235224
 20
634.3530468397
 10
564.4708755655
 20
634.3478312072
 10
567.4231886507
 20
634.3374970995
 10
570.2353667712
 20
634.3222370215
 10
572.8550243695
 20
634.3023352395
 10
575.2333621811
 20
634.2781624862
 10
577.3260762725
 20
634.2501690542
 10
579.0941833398
 20
634.2188764082
 10
580.5047468936
 20
634.1848674709
 10
581.531490804
 20
634.1487757645
 10
582.1552887745
 20
634.1112736092
 10
582.3643947487
 20
634.0739991083
  0
LINE
  5
EC
330
1F
100
AcDbEntity
  8
0
  6
Continuous
 62
     7
370
    25
100
AcDbLine
 10
568.361691336
 20
590.313858173
 30
0.0
 11
551.4391466921
 21
590.313858173
 31
0.0
  0
LWPOLYLINE
  5
ED
330
1F
100
AcDbEntity
  8
0
  6
Continuous
 62
     7
370
    25
100
AcDbPolyline
 90
       22
 70
   128
 43
0.0
 10
541.0006728721
 20
572.0842428255
 10
541.2050210888
 20
572.113101456
 10
541.8338161363
 20
572.1475184987
 10
542.8661892379
 20
572.1803803351
 10
544.2790788844
 20
572.2109528861
 10
546.040923456
 20
572.2385532114
 10
548.1123662563
 20
572.2625647654
 10
550.4471346759
 20
572.2824511695
 10
552.9930738466
 20
572.2977681945
 10
555.6933116943
 20
572.3081736833
 10
558.4875293675
 20
572.3134351944
 10
561.3133086607
 20
572.3134351944
 10
564.1075263338
 20
572.3081736833
 10
566.8077641815
 20
572.2977681945
 10
569.3537033522
 20
572.2824511695
 10
571.6884717719
 20
572.2625647654
 10
573.7599145721
 20
572.2385532114
 10
575.5217591437
 20
572.2109528861
 10
576.9346487903
 20
572.1803803351
 10
577.9670218919
 20
572.1475184987
 10
578.5958169393
 20
572.113101456
 10
578.8037694077
 20
572.082255932
  0
ARC
  5
EE
330
1F
100
AcDbEntity
  8
0
  6
Continuous
 62
     7
370
    25
100
AcDbCircle
 10
575.980180948
 20
606.3982257439
 30
0.0
 40
34.44625657845493
100
AcDbArc
 50
269.867328798
 51
274.669018832
  0
ARC
  5
EF
330
1F
100
AcDbEntity
  8
0
  6
Continuous
 62
     7
370
    25
100
AcDbCircle
 10
543.7439213878
 20
603.5223534811
 30
0.0
 40
31.57067985543937
100
AcDbArc
 50
265.01755061
 51
270.2840195477
  0
SPLINE
  5
F0
330
1F
100
AcDbEntity
  8
0
  6
Continuous
 62
     7
370
    25
100
AcDbSpline
210
0.0
220
0.0
230
1.0
 70
     8
 71
     3
 72
    21
 73
    17
 74
     0
 42
0.000000001
 43
0.00000001
 40
0.0
 40
0.0
 40
0.0
 40
0.0
 40
0.0056880450766203
 40
0.0173252778016346
 40
0.0375993542336284
 40
0.0959910236449123
 40
0.3193587565270836
 40
0.4997609455571973
 40
0.661443029560091
 40
0.8232409301108318
 40
0.8830528216017854
 40
0.9381317523158097
 40
0.9617692707406148
 40
0.9856283412978247
 40
0.9951332708650813
 40
1.0
 40
1.0
 40
1.0
 40
1.0
 10
565.8348032130868
 20
573.2628529666583
 30
0.0
 10
565.8291213112398
 20
573.2400058123909
 30
0.0
 10
565.8118147451669
 20
573.1704154189728
 30
0.0
 10
565.7221821318777
 20
573.0390819472984
 30
0.0
 10
565.4259006468534
 20
572.8070259744874
 30
0.0
 10
564.2258405573589
 20
572.400539295289
 30
0.0
 10
562.3057339719841
 20
572.3324430022457
 30
0.0
 10
559.9781179776267
 20
572.3157818752467
 30
0.0
 10
557.9005578630865
 20
572.3242735095295
 30
0.0
 10
556.3172809898493
 20
572.3822871645714
 30
0.0
 10
555.1895815814736
 20
572.5577955218841
 30
0.0
 10
554.6349029190176
 20
572.7108489246757
 30
0.0
 10
554.2548551748598
 20
572.8978762114234
 30
0.0
 10
554.0668337951779
 20
573.0475411294904
 30
0.0
 10
553.9844101578092
 20
573.1854528985481
 30
0.0
 10
553.9706832199417
 20
573.2432730949093
 30
0.0
 10
553.9660348150611
 20
573.2628529666589
 30
0.0
  0
LWPOLYLINE
  5
F1
330
1F
100
AcDbEntity
  8
0
  6
Continuous
 62
     7
370
    25
100
AcDbPolyline
 90
        3
 70
   128
 43
0.0
 10
576.2004190141
 20
572.0778980268
 10
576.1475631367
 20
572.0615122931
 10
575.9004190141
 20
572.039009213
  0
LWPOLYLINE
  5
F2
330
1F
100
AcDbEntity
  8
0
  6
Continuous
 62
     7
370
    25
100
AcDbPolyline
 90
        3
 70
   128
 43
0.0
 10
543.9004190141
 20
572.039009213
 10
543.8114997331
 20
572.045232827
 10
543.6004190141
 20
572.0778980268
  0
SPLINE
  5
F3
330
1F
100
AcDbEntity
  8
0
  6
Continuous
 62
     8
370
    18
100
AcDbSpline
210
0.0
220
0.0
230
1.0
 70
     8
 71
     3
 72
    14
 73
    10
 74
     0
 42
0.000000001
 43
0.00000001
 40
0.0
 40
0.0
 40
0.0
 40
0.0
 40
0.006465223601607
 40
0.2127197951555463
 40
0.4219943042713762
 40
0.6313818648767955
 40
0.8408167540662138
 40
0.9746638014920986
 40
1.0
 40
1.0
 40
1.0
 40
1.0
 10
559.9004190140739
 20
327.4476040682915
 30
0.0
 10
559.8518718601928
 20
327.4477419299822
 30
0.0
 10
558.254565832539
 20
327.4522778768271
 30
0.0
 10
555.0648282141976
 20
328.0176181601176
 30
0.0
 10
550.9015824235613
 20
330.340624723388
 30
0.0
 10
547.6690078772116
 20
333.9352527525274
 30
0.0
 10
546.1902413144182
 20
337.8424995386004
 30
0.0
 10
545.640573704737
 20
340.6387442883452
 30
0.0
 10
545.8647398889898
 20
341.8167057160214
 30
0.0
 10
545.9004190140739
 20
342.0041944457001
 30
0.0
  0
SPLINE
  5
F4
330
1F
100
AcDbEntity
  8
0
  6
Continuous
 62
     8
370
    18
100
AcDbSpline
210
0.0
220
0.0
230
1.0
 70
     8
 71
     3
 72
    21
 73
    17
 74
     0
 42
0.000000001
 43
0.00000001
 40
0.0
 40
0.0
 40
0.0
 40
0.0
 40
0.0826663618949006
 40
0.1871682812496291
 40
0.2864044585715881
 40
0.3852971951037692
 40
0.4842448664350321
 40
0.5270013874575781
 40
0.6369206788834979
 40
0.6939989658329174
 40
0.7528938600006302
 40
0.8117295478675484
 40
0.8725812315751684
 40
0.9322772704406413
 40
0.9940970148824189
 40
1.0
 40
1.0
 40
1.0
 40
1.0
 10
478.7061814763268
 20
355.2772572958811
 30
0.0
 10
477.5364456235153
 20
355.1342352881901
 30
0.0
 10
474.8879989752264
 20
354.8104133278815
 30
0.0
 10
471.2904871575696
 20
352.7000094072225
 30
0.0
 10
468.3067968459256
 20
349.5622735396831
 30
0.0
 10
466.4360063374201
 20
345.7152655356589
 30
0.0
 10
465.9080509139845
 20
342.2904750276152
 30
0.0
 10
466.1248204071615
 20
338.725857479464
 30
0.0
 10
467.0006012404383
 20
335.8135941539527
 30
0.0
 10
468.6717700716447
 20
333.0687482727081
 30
0.0
 10
470.3189422052123
 20
331.1999979277509
 30
0.0
 10
472.3146849959033
 20
329.6239954230585
 30
0.0
 10
474.574922103949
 20
328.4313952858178
 30
0.0
 10
477.0540185297575
 20
327.6642235484059
 30
0.0
 10
478.8584830841742
 20
327.4544362962774
 30
0.0
 10
479.8168811860927
 20
327.4481518462017
 30
0.0
 10
479.9004190140738
 20
327.4476040682915
 30
0.0
  0
ARC
  5
F5
330
1F
100
AcDbEntity
  8
0
  6
Continuous
 62
     8
370
    18
100
AcDbCircle
 10
470.8303220861
 20
320.092033374
 30
0.0
 40
235.1855751472357
100
AcDbArc
 50
89.3152638618
 51
92.6647996476
  0
ARC
  5
F6
330
1F
100
AcDbEntity
  8
0
  6
Continuous
 62
     8
370
    18
100
AcDbCircle
 10
489.3433951059
 20
341.6693978662
 30
0.0
 40
213.6151387751822
100
AcDbArc
 50
87.1660298575
 51
90.8539066332
  0
LWPOLYLINE
  5
F7
330
1F
100
AcDbEntity
  8
0
  6
Continuous
 62
     8
370
    18
100
AcDbPolyline
 90
        3
 70
   128
 43
0.0
 10
496.9090585569
 20
552.1806785297
 10
496.69965398
 20
552.1474382379
 10
496.6636273979
 20
552.1447114589
  0
LWPOLYLINE
  5
F8
330
1F
100
AcDbEntity
  8
0
  6
Continuous
 62
     8
370
    18
100
AcDbPolyline
 90
        4
 70
   128
 43
0.0
 10
463.1646619514
 20
552.1427687319
 10
463.1011840482
 20
552.1474382379
 10
462.8917794712
 20
552.1806785297
 10
462.9312489515
 20
552.1951459534
  0
LINE
  5
F9
330
1F
100
AcDbEntity
  8
0
  6
Continuous
 62
     8
370
    18
100
AcDbLine
 10
496.8587999862
 20
552.1970014027
 30
0.0
 11
496.9090585569
 21
552.1806785297
 31
0.0
  0
ARC
  5
FA
330
1F
100
AcDbEntity
  8
0
  6
Continuous
 62
     8
370
    18
100
AcDbCircle
 10
569.098837889
 20
354.2619957381
 30
0.0
 40
219.025179806353
100
AcDbArc
 50
87.19804998
 51
90.853885084
  0
ARC
  5
FB
330
1F
100
AcDbEntity
  8
0
  6
Continuous
 62
     8
370
    18
100
AcDbCircle
 10
551.0775420295
 20
332.1735200496
 30
0.0
 40
241.1066358211303
100
AcDbArc
 50
89.3135717551
 51
92.6344931808
  0
LINE
  5
FC
330
1F
100
AcDbEntity
  8
0
  6
Continuous
 62
     8
370
    18
100
AcDbLine
 10
540.9938503378
 20
572.0778980268
 30
0.0
 11
541.0006728721
 21
572.0842428255
 31
0.0
  0
LWPOLYLINE
  5
FD
330
1F
100
AcDbEntity
  8
0
  6
Continuous
 62
     8
370
    18
100
AcDbPolyline
 90
        3
 70
   128
 43
0.0
 10
578.8037694077
 20
572.082255932
 10
578.8069876904
 20
572.0778980268
 10
578.7840921634
 20
572.0662774425
  0
LINE
  5
FE
330
1F
100
AcDbEntity
  8
0
  6
Continuous
 62
     8
370
    18
100
AcDbLine
 10
541.0019892675
 20
572.070968221
 30
0.0
 11
540.9938503378
 21
572.0778980268
 31
0.0
  0
SPLINE
  5
FF
330
1F
100
AcDbEntity
  8
0
  6
Continuous
 62
     7
370
    25
100
AcDbSpline
210
0.0
220
0.0
230
1.0
 70
     8
 71
     3
 72
    78
 73
    74
 74
     0
 42
0.000000001
 43
0.00000001
 40
0.0
 40
0.0
 40
0.0
 40
0.0
 40
0.0235538051734696
 40
0.0469168573615774
 40
0.068421205453497
 40
0.0881200792261376
 40
0.1059278698082066
 40
0.1218899087230997
 40
0.1360016590263701
 40
0.1482240668844946
 40
0.165267085599206
 40
0.1808218554800823
 40
0.1948612649362324
 40
0.207597835719958
 40
0.2216816316741655
 40
0.2350555140891848
 40
0.2499335425344196
 40
0.2656810768135902
 40
0.2805537956512185
 40
0.294542805045348
 40
0.3071944778173671
 40
0.3148775969483988
 40
0.3209217472317646
 40
0.3255479050577568
 40
0.3314180398940048
 40
0.3394044697350524
 40
0.3496031659848803
 40
0.3616757913025554
 40
0.3736074238424056
 40
0.3836891330688444
 40
0.3933923010376759
 40
0.4040507093841479
 40
0.415408450815503
 40
0.4253129199092061
 40
0.4335145260754242
 40
0.4406638506969318
 40
0.448929895542549
 40
0.4599960565400455
 40
0.4728035884472307
 40
0.4873530379594618
 40
0.5026706436119862
 40
0.5165231243358372
 40
0.5288892297156658
 40
0.5397868010293309
 40
0.5506451051609214
 40
0.5610260392626601
 40
0.5732584098741301
 40
0.5874045397727944
 40
0.6034411745520419
 40
0.6211880834244776
 40
0.641784088008214
 40
0.6605536736191988
 40
0.6774554175846914
 40
0.6925991593459524
 40
0.7064933386433321
 40
0.7172407960222358
 40
0.7275445512036669
 40
0.7392911956689866
 40
0.7527766709255961
 40
0.7679686326033126
 40
0.784813005093236
 40
0.8103975521610381
 40
0.8348486492673415
 40
0.8582536195661272
 40
0.8803908570347622
 40
0.900653660691034
 40
0.9189685206450933
 40
0.9307105868863484
 40
0.943703924761328
 40
0.957988522495149
 40
0.973481116758923
 40
0.9886549190165967
 40
1.0
 40
1.0
 40
1.0
 40
1.0
 10
234.5907798844871
 20
198.1171933828964
 30
0.0
 10
230.9454354319607
 20
197.6534340648528
 30
0.0
 10
223.6842687349701
 20
196.7296712327114
 30
0.0
 10
213.2261240630164
 20
195.3786571929911
 30
0.0
 10
203.5789598918895
 20
194.1114830738236
 30
0.0
 10
195.0324053709994
 20
192.9422648201551
 30
0.0
 10
187.5673584816181
 20
191.8916261838373
 30
0.0
 10
181.1491316468419
 20
190.9465255332094
 30
0.0
 10
175.7154702582919
 20
190.107832804416
 30
0.0
 10
170.3737064674284
 20
189.2480141024216
 30
0.0
 10
165.1289908571782
 20
188.3620204015299
 30
0.0
 10
160.0107515052864
 20
187.4266122802734
 30
0.0
 10
155.6522466580963
 20
186.5686838781963
 30
0.0
 10
151.697328237744
 20
185.7324739637787
 30
0.0
 10
148.0198749630875
 20
184.8854349164496
 30
0.0
 10
144.4184161450353
 20
183.9599977070848
 30
0.0
 10
140.9885092752812
 20
182.9631553350364
 30
0.0
 10
137.8010693530025
 20
181.8933391981979
 30
0.0
 10
134.7842619910118
 20
180.6724846602202
 30
0.0
 10
132.0386388675181
 20
179.2857341493198
 30
0.0
 10
129.8025628191129
 20
177.8249816332884
 30
0.0
 10
128.2131567598133
 20
176.5172122326733
 30
0.0
 10
127.1419574047704
 20
175.4754507752005
 30
0.0
 10
126.1323653348348
 20
174.3310362808242
 30
0.0
 10
124.9718434848335
 20
172.746160850784
 30
0.0
 10
123.7114060099745
 20
170.4073133806106
 30
0.0
 10
122.6764147965878
 20
167.1310670564551
 30
0.0
 10
122.4485862589773
 20
163.0537697476476
 30
0.0
 10
123.3473824193859
 20
159.1279328728731
 30
0.0
 10
124.9228929545785
 20
155.9922387447934
 30
0.0
 10
126.7427628310846
 20
153.6162104219302
 30
0.0
 10
128.7521965273543
 20
151.7108959191254
 30
0.0
 10
130.8398271149744
 20
150.2035574731137
 30
0.0
 10
132.8585895690612
 20
149.0374154960756
 30
0.0
 10
134.5732634044515
 20
148.2017870235277
 30
0.0
 10
136.0322434902105
 20
147.5672120725529
 30
0.0
 10
137.731303506663
 20
146.8974482258515
 30
0.0
 10
139.9084087662149
 20
146.1361369234137
 30
0.0
 10
142.7251594968365
 20
145.26447054741
 30
0.0
 10
146.1444560952417
 20
144.3278636497049
 30
0.0
 10
149.9880102396124
 20
143.3928104500609
 30
0.0
 10
153.9559689557152
 20
142.5263470481486
 30
0.0
 10
157.7343431695376
 20
141.7616100308899
 30
0.0
 10
161.3855895440514
 20
141.0659593455507
 30
0.0
 10
164.9616846911349
 20
140.419681836424
 30
0.0
 10
168.8170108868221
 20
139.7557599316202
 30
0.0
 10
173.2435217719341
 20
139.0304332810109
 30
0.0
 10
178.5821960448985
 20
138.1898266264826
 30
0.0
 10
184.8961232010619
 20
137.2393896292847
 30
0.0
 10
192.3792461239478
 20
136.1700309773291
 30
0.0
 10
200.5647780488002
 20
135.0430206689211
 30
0.0
 10
208.8891511083885
 20
133.9300277125797
 30
0.0
 10
216.5697117632535
 20
132.9344049249266
 30
0.0
 10
223.6041007796441
 20
132.0284240341298
 30
0.0
 10
229.7420688296019
 20
131.242881025764
 30
0.0
 10
235.1475340406666
 20
130.5543845460816
 30
0.0
 10
240.220677159558
 20
129.9119633883666
 30
0.0
 10
245.7024483064046
 20
129.2119273587872
 30
0.0
 10
251.8989261968462
 20
128.4137269659906
 30
0.0
 10
258.7973471115599
 20
127.5157974036603
 30
0.0
 10
267.3701625313784
 20
126.3876197211137
 30
0.0
 10
276.9977827337185
 20
125.0632667397993
 30
0.0
 10
286.9878731620312
 20
123.6276492490254
 30
0.0
 10
295.8475814300106
 20
122.2499302153884
 30
0.0
 10
303.4839305842695
 20
120.9676144541878
 30
0.0
 10
309.8034405899759
 20
119.7956067256732
 30
0.0
 10
314.4283910086093
 20
118.8368322021536
 30
0.0
 10
317.9054357320442
 20
118.0486219956729
 30
0.0
 10
320.6468956106615
 20
117.3662168392838
 30
0.0
 10
323.1678387201695
 20
116.659358763428
 30
0.0
 10
325.2688101366332
 20
115.9830688219486
 30
0.0
 10
326.6215327628255
 20
115.43802461661
 30
0.0
 10
326.7152450386455
 20
115.4085069930528
 30
0.0
 10
326.755336220037
 20
115.3958790167293
 30
0.0
  0
SPLINE
  5
100
330
1F
100
AcDbEntity
  8
0
  6
Continuous
 62
     7
370
    25
100
AcDbSpline
210
0.0
220
0.0
230
1.0
 70
     8
 71
     3
 72
    13
 73
     9
 74
     0
 42
0.000000001
 43
0.00000001
 40
0.0
 40
0.0
 40
0.0
 40
0.0
 40
0.0075371329017779
 40
0.1837454281515587
 40
0.3728739073441923
 40
0.5742690338616486
 40
0.7887511101749329
 40
1.0
 40
1.0
 40
1.0
 40
1.0
 10
281.7418205252754
 20
124.3671509810683
 30
0.0
 10
281.6388763656724
 20
124.3519932005279
 30
0.0
 10
279.1292325888602
 20
123.9824663643245
 30
0.0
 10
273.7145437064734
 20
123.23190997798
 30
0.0
 10
265.3213390987584
 20
122.0823346642198
 30
0.0
 10
256.0327759456048
 20
120.8666467052622
 30
0.0
 10
246.2047472654708
 20
119.5949667148656
 30
0.0
 10
239.4478015501865
 20
118.7355163041048
 30
0.0
 10
236.0949862877465
 20
118.3090546192061
 30
0.0
  0
SPLINE
  5
101
330
1F
100
AcDbEntity
  8
0
  6
Continuous
 62
     7
370
    25
100
AcDbSpline
210
0.0
220
0.0
230
1.0
 70
     8
 71
     3
 72
    78
 73
    74
 74
     0
 42
0.000000001
 43
0.00000001
 40
0.0
 40
0.0
 40
0.0
 40
0.0
 40
0.0198168882239023
 40
0.0429160948265226
 40
0.0676309331312497
 40
0.0928318016860378
 40
0.116854609874391
 40
0.1397876274726546
 40
0.1615377176254362
 40
0.1825255142114319
 40
0.1998648478201852
 40
0.2178215307167762
 40
0.2365046060363348
 40
0.255908377022913
 40
0.2750181566405879
 40
0.2891974762063715
 40
0.3017644940771819
 40
0.3127030258846809
 40
0.319569845800798
 40
0.3252290678772169
 40
0.3299495860527427
 40
0.335991045117678
 40
0.3439805806242581
 40
0.3540092715814817
 40
0.3617154460274156
 40
0.3698608863967055
 40
0.376761927582777
 40
0.382168311321918
 40
0.3864064108798931
 40
0.3913476339557939
 40
0.4007116708291565
 40
0.4121304520003342
 40
0.4296668412968213
 40
0.4456117854332541
 40
0.4606535788202197
 40
0.4757826132345958
 40
0.4910658596646173
 40
0.5102252473516952
 40
0.5286393635115962
 40
0.5462213022993502
 40
0.5635533592939183
 40
0.5765381336451323
 40
0.590886047454578
 40
0.606563805711461
 40
0.6235335029508918
 40
0.6418600797594107
 40
0.6615052035170746
 40
0.6766057264936699
 40
0.6903487892838881
 40
0.7025697724085351
 40
0.7132537078927956
 40
0.7251099177213072
 40
0.7342866623910855
 40
0.7407828337052936
 40
0.7476057185187797
 40
0.7575025063107745
 40
0.7704460634082316
 40
0.7821473213148047
 40
0.7955581730876602
 40
0.809200099328059
 40
0.8222249372223982
 40
0.8386605230849624
 40
0.8540750979036158
 40
0.8684285827789189
 40
0.8817083223599677
 40
0.894467409520134
 40
0.9073472829019285
 40
0.9268237934504827
 40
0.9464065873996889
 40
0.9655503809352299
 40
0.9841014283211539
 40
0.9936722043932528
 40
1.0
 40
1.0
 40
1.0
 40
1.0
 10
236.0960395363128
 20
90.30897564752956
 30
0.0
 10
239.1737263887756
 20
90.70013781641873
 30
0.0
 10
245.8388646947648
 20
91.54725127555146
 30
0.0
 10
256.27420435488
 20
92.88866436356278
 30
0.0
 10
267.3208779105085
 20
94.32521482754579
 30
0.0
 10
278.1295935074652
 20
95.79503502416165
 30
0.0
 10
288.1915380123512
 20
97.2168009544804
 30
0.0
 10
297.2207509632614
 20
98.58922825536168
 30
0.0
 10
305.2730442135408
 20
99.8941101562618
 30
0.0
 10
312.0666148481752
 20
101.1029607020094
 30
0.0
 10
317.9779200285462
 20
102.2595138411586
 30
0.0
 10
323.2131901346789
 20
103.387968495999
 30
0.0
 10
328.1526687015424
 20
104.6086287126305
 30
0.0
 10
332.6348982309587
 20
105.9082731824864
 30
0.0
 10
336.2499421576476
 20
107.1712034118992
 30
0.0
 10
339.2192895716018
 20
108.4640531340663
 30
0.0
 10
341.5898016345694
 20
109.7321083859431
 30
0.0
 10
343.5520478024078
 20
111.0528879027651
 30
0.0
 10
344.9969603597639
 20
112.2510963431819
 30
0.0
 10
346.0370091332187
 20
113.2614857963232
 30
0.0
 10
347.0607732299044
 20
114.4205018505108
 30
0.0
 10
348.2363512384171
 20
116.0333545031055
 30
0.0
 10
349.4935174902886
 20
118.3856879750682
 30
0.0
 10
350.3666452054147
 20
121.1954752375041
 30
0.0
 10
350.6777324525405
 20
124.2145517338672
 30
0.0
 10
350.4570865839892
 20
126.9340494599164
 30
0.0
 10
349.8507163545206
 20
129.2627845227786
 30
0.0
 10
349.1258792462442
 20
131.0236309562251
 30
0.0
 10
348.3668466419004
 20
132.4352391187631
 30
0.0
 10
347.3843570207725
 20
133.9299592838161
 30
0.0
 10
345.9212162091185
 20
135.6642015969069
 30
0.0
 10
343.5188507676968
 20
137.7922135170313
 30
0.0
 10
340.4634691207737
 20
139.6966194674207
 30
0.0
 10
337.173808257287
 20
141.2028015029486
 30
0.0
 10
334.1125840182237
 20
142.3381330037567
 30
0.0
 10
330.7202000961195
 20
143.4115261911438
 30
0.0
 10
326.7085043142059
 20
144.5107483759192
 30
0.0
 10
322.022424197272
 20
145.6262004895981
 30
0.0
 10
316.6119550018505
 20
146.7626183048238
 30
0.0
 10
310.936945195077
 20
147.8477920836593
 30
0.0
 10
305.4791797435001
 20
148.8036747759461
 30
0.0
 10
300.0896579260297
 20
149.6906758196009
 30
0.0
 10
294.6557890118863
 20
150.5474094822767
 30
0.0
 10
288.4461644756626
 20
151.4815760148041
 30
0.0
 10
281.4209194653598
 20
152.4856327859438
 30
0.0
 10
273.5581791390597
 20
153.5749917720745
 30
0.0
 10
265.7119153406488
 20
154.6271338445605
 30
0.0
 10
258.3850632740813
 20
155.5801782116123
 30
0.0
 10
252.0967505817319
 20
156.3932238264254
 30
0.0
 10
246.4390759082202
 20
157.1191641544399
 30
0.0
 10
241.050443661297
 20
157.8067684053854
 30
0.0
 10
236.1254170324542
 20
158.4301500131662
 30
0.0
 10
231.8568222478082
 20
158.9738526271884
 30
0.0
 10
228.3774124191592
 20
159.4190764800032
 30
0.0
 10
224.7978185578438
 20
159.8789049904358
 30
0.0
 10
220.2481107602682
 20
160.4663911195364
 30
0.0
 10
215.0004183655926
 20
161.1480031641907
 30
0.0
 10
209.3003696978619
 20
161.8964764434027
 30
0.0
 10
203.5984348395449
 20
162.6637677257294
 30
0.0
 10
197.841663641209
 20
163.4573119161295
 30
0.0
 10
191.8258813667844
 20
164.306171272752
 30
0.0
 10
185.7918056122815
 20
165.1875283271402
 30
0.0
 10
179.8759761782729
 20
166.0992921842153
 30
0.0
 10
174.6547365440716
 20
166.944770617782
 30
0.0
 10
170.0325476629298
 20
167.7297531979102
 30
0.0
 10
165.8619660789328
 20
168.4861301255187
 30
0.0
 10
161.390752060777
 20
169.3540334852522
 30
0.0
 10
156.8009782768254
 20
170.3269081763958
 30
0.0
 10
152.4636243713514
 20
171.3833948117561
 30
0.0
 10
149.1770750007893
 20
172.3355319434657
 30
0.0
 10
147.246388684203
 20
173.011830081385
 30
0.0
 10
146.4647246484721
 20
173.3577809956612
 30
0.0
 10
146.4735274055237
 20
173.3348670793208
 30
0.0
 10
146.4770309936777
 20
173.325747104138
 30
0.0
  0
SPLINE
  5
102
330
1F
100
AcDbEntity
  8
0
  6
Continuous
 62
     7
370
    25
100
AcDbSpline
210
0.0
220
0.0
230
1.0
 70
     8
 71
     3
 72
    13
 73
     9
 74
     0
 42
0.000000001
 43
0.00000001
 40
0.0
 40
0.0
 40
0.0
 40
0.0
 40
0.0207596692119537
 40
0.1952271598931744
 40
0.382095363413368
 40
0.5809396716682517
 40
0.7926625827272931
 40
1.0
 40
1.0
 40
1.0
 40
1.0
 10
191.4180070376259
 20
164.3724235593122
 30
0.0
 10
191.6876604069886
 20
164.4119158310505
 30
0.0
 10
194.2235226559878
 20
164.7833073002728
 30
0.0
 10
199.4744248985257
 20
165.5155833830738
 30
0.0
 10
207.3359014888164
 20
166.5905685724296
 30
0.0
 10
216.0102321433647
 20
167.7283886443176
 30
0.0
 10
225.1689369840152
 20
168.9176328885961
 30
0.0
 10
231.4737902144989
 20
169.7202392723206
 30
0.0
 10
234.593226478714
 20
170.1173427999928
 30
0.0
  0
LINE
  5
103
330
1F
100
AcDbEntity
  8
0
  6
Continuous
 62
     7
370
    25
100
AcDbLine
 10
234.5794450973
 20
118.2131282508
 30
0.0
 11
157.2131922576
 21
118.2131282508
 31
0.0
  0
LINE
  5
104
330
1F
100
AcDbEntity
  8
0
  6
Continuous
 62
     7
370
    25
100
AcDbLine
 10
157.2131922576
 20
90.2131282508
 30
0.0
 11
234.5862450416
 21
90.2131282508
 31
0.0
  0
LINE
  5
105
330
1F
100
AcDbEntity
  8
0
  6
Continuous
 62
     7
370
    25
100
AcDbLine
 10
236.1058449113
 20
170.2131282508
 30
0.0
 11
320.4864811745
 21
170.2131282508
 31
0.0
  0
LINE
  5
106
330
1F
100
AcDbEntity
  8
0
  6
Continuous
 62
     7
370
    25
100
AcDbLine
 10
320.4864811745
 20
198.2131282508
 30
0.0
 11
236.0981053895
 21
198.2131282508
 31
0.0
  0
SPLINE
  5
107
330
1F
100
AcDbEntity
  8
0
  6
Continuous
 62
     7
370
    25
100
AcDbSpline
210
0.0
220
0.0
230
1.0
 70
     8
 71
     3
 72
     9
 73
     5
 74
     0
 42
0.000000001
 43
0.00000001
 40
0.0
 40
0.0
 40
0.0
 40
0.0
 40
0.3911803199176038
 40
0.9999999999999999
 40
0.9999999999999999
 40
0.9999999999999999
 40
0.9999999999999999
 10
236.099797223932
 20
198.1789637048938
 30
0.0
 10
235.9023257562933
 20
198.1916040968918
 30
0.0
 10
235.3975164456402
 20
198.2239175629696
 30
0.0
 10
234.8983244136987
 20
198.13605129037
 30
0.0
 10
234.5944064805125
 20
198.0825565743959
 30
0.0
  0
LINE
  5
108
330
1F
100
AcDbEntity
  8
0
  6
Continuous
 62
     7
370
    25
100
AcDbLine
 10
234.5843311281
 20
90.2318043392
 30
0.0
 11
236.0951114701
 21
90.3171599755
 31
0.0
  0
SPLINE
  5
109
330
1F
100
AcDbEntity
  8
0
  6
Continuous
 62
     7
370
    25
100
AcDbSpline
210
0.0
220
0.0
230
1.0
 70
     8
 71
     3
 72
     9
 73
     5
 74
     0
 42
0.000000001
 43
0.00000001
 40
0.0
 40
0.0
 40
0.0
 40
0.0
 40
0.7727168515386948
 40
1.0
 40
1.0
 40
1.0
 40
1.0
 10
234.5966305179791
 20
170.0771985106083
 30
0.0
 10
234.9825421661052
 20
170.1469549029439
 30
0.0
 10
235.4819639754752
 20
170.2372290987204
 30
0.0
 10
235.9847514777195
 20
170.1963991415605
 30
0.0
 10
236.0990266042365
 20
170.1871191803456
 30
0.0
  0
SPLINE
  5
10A
330
1F
100
AcDbEntity
  8
0
  6
Continuous
 62
     7
370
    25
100
AcDbSpline
210
0.0
220
0.0
230
1.0
 70
     8
 71
     3
 72
     9
 73
     5
 74
     0
 42
0.000000001
 43
0.00000001
 40
0.0
 40
0.0
 40
0.0
 40
0.0
 40
0.8525463317332522
 40
1.0
 40
1.0
 40
1.0
 40
1.0
 10
236.0909644687961
 20
118.3469772072311
 30
0.0
 10
235.6642281201378
 20
118.2719653835909
 30
0.0
 10
235.1636848267418
 20
118.1839797564782
 30
0.0
 10
234.6609123369797
 20
118.2243157803763
 30
0.0
 10
234.5867766890606
 20
118.2302634750633
 30
0.0
  0
CIRCLE
  5
10B
330
1F
100
AcDbEntity
  8
0
  6
Continuous
 62
     7
370
    25
100
AcDbCircle
 10
338.7335016572
 20
184.2120309535
 30
0.0
 40
21.19890270322453
  0
CIRCLE
  5
10C
330
1F
100
AcDbEntity
  8
0
  6
Continuous
 62
     7
370
    25
100
AcDbCircle
 10
338.733502068
 20
184.2118559941
 30
0.0
 40
22.99872774377271
  0
ARC
  5
10D
330
1F
100
AcDbEntity
  8
0
  6
Continuous
 62
     7
370
    25
100
AcDbCircle
 10
338.6945922164
 20
184.2131282508
 30
0.0
 40
21.20000003826853
100
AcDbArc
 50
270.0034426312
 51
89.9965573688
  0
CIRCLE
  5
10E
330
1F
100
AcDbEntity
  8
0
  6
Continuous
 62
     7
370
    25
100
AcDbCircle
 10
338.6774682671
 20
184.2120924304
 30
0.0
 40
18.62896418008811
  0
ARC
  5
10F
330
1F
100
AcDbEntity
  8
0
  6
Continuous
 62
     7
370
    25
100
AcDbCircle
 10
338.5448088135
 20
184.2131282508
 30
0.0
 40
18.63000003503654
100
AcDbArc
 50
270.0035139184
 51
89.9964860816
  0
CIRCLE
  5
110
330
1F
100
AcDbEntity
  8
0
  6
Continuous
 62
     7
370
    25
100
AcDbCircle
 10
338.5085574893
 20
184.2127622748
 30
0.0
 40
6.749634024521667
  0
CIRCLE
  5
111
330
1F
100
AcDbEntity
  8
0
  6
Continuous
 62
     7
370
    25
100
AcDbCircle
 10
138.7913258121
 20
104.2125599085
 30
0.0
 40
9.999431658237617
  0
ARC
  5
112
330
1F
100
AcDbEntity
  8
0
  6
Continuous
 62
     7
370
    25
100
AcDbCircle
 10
138.7533447258
 20
104.2131282508
 30
0.0
 40
10.00000001829787
100
AcDbArc
 50
270.0034660775
 51
89.9965339225
  0
CIRCLE
  5
113
330
1F
100
AcDbEntity
  8
0
  6
Continuous
 62
     7
370
    25
100
AcDbCircle
 10
338.5460539
 20
184.2136965931
 30
0.0
 40
9.999431658237588
  0
ARC
  5
114
330
1F
100
AcDbEntity
  8
0
  6
Continuous
 62
     7
370
    25
100
AcDbCircle
 10
338.5078677757
 20
184.2131282508
 30
0.0
 40
10.0000000182979
100
AcDbArc
 50
270.0034660774
 51
89.9965339225
  0
LINE
  5
115
330
1F
100
AcDbEntity
  8
0
  6
Continuous
 62
     7
370
    25
100
AcDbLine
 10
132.7294321316
 20
107.677229866
 30
0.0
 11
132.7294321316
 21
100.7490266357
 31
0.0
  0
LINE
  5
116
330
1F
100
AcDbEntity
  8
0
  6
Continuous
 62
     7
370
    25
100
AcDbLine
 10
132.7294321316
 20
100.7490266357
 30
0.0
 11
138.7289638967
 21
97.2849250206
 31
0.0
  0
LINE
  5
117
330
1F
100
AcDbEntity
  8
0
  6
Continuous
 62
     7
370
    25
100
AcDbLine
 10
138.7289638967
 20
97.2849250206
 30
0.0
 11
144.7284956617
 21
100.7490266357
 31
0.0
  0
LINE
  5
118
330
1F
100
AcDbEntity
  8
0
  6
Continuous
 62
     7
370
    25
100
AcDbLine
 10
144.7284956617
 20
100.7490266357
 30
0.0
 11
144.7284956617
 21
107.677229866
 31
0.0
  0
LINE
  5
119
330
1F
100
AcDbEntity
  8
0
  6
Continuous
 62
     7
370
    25
100
AcDbLine
 10
144.7284956617
 20
107.677229866
 30
0.0
 11
138.7289638967
 21
111.1413314811
 31
0.0
  0
LINE
  5
11A
330
1F
100
AcDbEntity
  8
0
  6
Continuous
 62
     7
370
    25
100
AcDbLine
 10
138.7289638967
 20
111.1413314811
 30
0.0
 11
132.7294321316
 21
107.677229866
 31
0.0
  0
LINE
  5
11B
330
1F
100
AcDbEntity
  8
0
  6
Continuous
 62
     7
370
    25
100
AcDbLine
 10
144.5286094715
 20
107.677229866
 30
0.0
 11
144.7284956617
 21
107.677229866
 31
0.0
  0
LINE
  5
11C
330
1F
100
AcDbEntity
  8
0
  6
Continuous
 62
     7
370
    25
100
AcDbLine
 10
144.5286094715
 20
107.677229866
 30
0.0
 11
141.5288435889
 21
109.4092806735
 31
0.0
  0
LINE
  5
11D
330
1F
100
AcDbEntity
  8
0
  6
Continuous
 62
     7
370
    25
100
AcDbLine
 10
141.5288435889
 20
109.4092806735
 30
0.0
 11
138.6290208015
 21
111.0836248048
 31
0.0
  0
LINE
  5
11E
330
1F
100
AcDbEntity
  8
0
  6
Continuous
 62
     7
370
    25
100
AcDbLine
 10
138.6290208015
 20
97.3426316968
 30
0.0
 11
141.5288435889
 21
99.0169758281
 31
0.0
  0
LINE
  5
11F
330
1F
100
AcDbEntity
  8
0
  6
Continuous
 62
     7
370
    25
100
AcDbLine
 10
141.5288435889
 20
99.0169758281
 30
0.0
 11
144.5286094715
 21
100.7490266357
 31
0.0
  0
LINE
  5
120
330
1F
100
AcDbEntity
  8
0
  6
Continuous
 62
     7
370
    25
100
AcDbLine
 10
144.5286094715
 20
100.7490266357
 30
0.0
 11
144.7284956617
 21
100.7490266357
 31
0.0
  0
LINE
  5
121
330
1F
100
AcDbEntity
  8
0
  6
Continuous
 62
     7
370
    25
100
AcDbLine
 10
144.5286094715
 20
100.7490266357
 30
0.0
 11
144.5286094715
 21
104.2131282508
 31
0.0
  0
LINE
  5
122
330
1F
100
AcDbEntity
  8
0
  6
Continuous
 62
     7
370
    25
100
AcDbLine
 10
144.5286094715
 20
104.2131282508
 30
0.0
 11
144.5286094715
 21
107.677229866
 31
0.0
  0
ARC
  5
123
330
1F
100
AcDbEntity
  8
0
  6
Continuous
 62
     7
370
    25
100
AcDbCircle
 10
138.5296367651
 20
104.2132525333
 30
0.0
 40
6.000071066627929
100
AcDbArc
 50
130.4753580794
 51
165.1699591151
  0
ARC
  5
124
330
1F
100
AcDbEntity
  8
0
  6
Continuous
 62
     7
370
    25
100
AcDbCircle
 10
138.5290796378
 20
104.2139960967
 30
0.0
 40
5.999130403394041
100
AcDbArc
 50
59.9978081317
 51
109.5286446641
  0
ARC
  5
125
330
1F
100
AcDbEntity
  8
0
  6
Continuous
 62
     7
370
    25
100
AcDbCircle
 10
138.5285283628
 20
104.2132165994
 30
0.0
 40
6.000081109297176
100
AcDbArc
 50
359.9991563443
 51
59.9969713084
  0
ARC
  5
126
330
1F
100
AcDbEntity
  8
0
  6
Continuous
 62
     7
370
    25
100
AcDbCircle
 10
138.5285283628
 20
104.2130399022
 30
0.0
 40
6.000081109297188
100
AcDbArc
 50
300.0030286916
 51
0.0008436557
  0
ARC
  5
127
330
1F
100
AcDbEntity
  8
0
  6
Continuous
 62
     7
370
    25
100
AcDbCircle
 10
138.5290804911
 20
104.2122510947
 30
0.0
 40
5.999121914007553
100
AcDbArc
 50
250.4713179312
 51
300.002229273
  0
ARC
  5
128
330
1F
100
AcDbEntity
  8
0
  6
Continuous
 62
     7
370
    25
100
AcDbCircle
 10
138.5296367651
 20
104.2130039684
 30
0.0
 40
6.000071066614718
100
AcDbArc
 50
194.8300408848
 51
229.5246419207
  0
CIRCLE
  5
129
330
1F
100
AcDbEntity
  8
0
  6
Continuous
 62
     7
370
    25
100
AcDbCircle
 10
138.966171364
 20
104.2144005076
 30
0.0
 40
22.99872774377252
  0
CIRCLE
  5
12A
330
1F
100
AcDbEntity
  8
0
  6
Continuous
 62
     7
370
    25
100
AcDbCircle
 10
138.9911608049
 20
104.2143708641
 30
0.0
 40
22.46285900239098
  0
CIRCLE
  5
12B
330
1F
100
AcDbEntity
  8
0
  6
Continuous
 62
     7
370
    25
100
AcDbCircle
 10
138.9911575487
 20
104.2142255482
 30
0.0
 40
21.19890270322467
  0
ARC
  5
12C
330
1F
100
AcDbEntity
  8
0
  6
Continuous
 62
     7
370
    25
100
AcDbCircle
 10
138.9525620535
 20
104.2131282508
 30
0.0
 40
21.20000003826852
100
AcDbArc
 50
270.0034426312
 51
89.9965573688
  0
CIRCLE
  5
12D
330
1F
100
AcDbEntity
  8
0
  6
Continuous
 62
     7
370
    25
100
AcDbCircle
 10
138.9351599713
 20
104.2141640713
 30
0.0
 40
18.62896418008801
  0
ARC
  5
12E
330
1F
100
AcDbEntity
  8
0
  6
Continuous
 62
     7
370
    25
100
AcDbCircle
 10
138.8152715374
 20
104.2131282508
 30
0.0
 40
18.63000003503654
100
AcDbArc
 50
270.0035139184
 51
89.9964860816
  0
SPLINE
  5
12F
330
1F
100
AcDbEntity
  8
0
  6
Continuous
 62
     8
370
    18
100
AcDbSpline
210
0.0
220
0.0
230
1.0
 70
     8
 71
     3
 72
    13
 73
     9
 74
     0
 42
0.000000001
 43
0.00000001
 40
0.0
 40
0.0
 40
0.0
 40
0.0
 40
0.213253684977785
 40
0.4277495455755078
 40
0.6423596743533001
 40
0.8574520418073902
 40
0.9948392408140675
 40
1.0
 40
1.0
 40
1.0
 40
1.0
 10
236.0957397116861
 20
118.3035783791096
 30
0.0
 10
236.1299574500268
 20
118.1517903509501
 30
0.0
 10
236.1985922406866
 20
117.8473301486525
 30
0.0
 10
236.1753605729149
 20
115.4160797613762
 30
0.0
 10
236.0254557926795
 20
111.8326344648623
 30
0.0
 10
235.781650615087
 20
107.9076071036532
 30
0.0
 10
235.5960594076308
 20
105.2922667018673
 30
0.0
 10
235.5207116472239
 20
104.2508320084188
 30
0.0
 10
235.5179837817981
 20
104.213128250828
 30
0.0
  0
SPLINE
  5
130
330
1F
100
AcDbEntity
  8
0
  6
Continuous
 62
     8
370
    18
100
AcDbSpline
210
0.0
220
0.0
230
1.0
 70
     8
 71
     3
 72
    14
 73
    10
 74
     0
 42
0.000000001
 43
0.00000001
 40
0.0
 40
0.0
 40
0.0
 40
0.0
 40
0.0041389989697133
 40
0.0136203845413362
 40
0.216843221409443
 40
0.420707629171066
 40
0.6142995233982044
 40
0.807221426551059
 40
1.0
 40
1.0
 40
1.0
 40
1.0
 10
235.5179837817981
 20
104.213128250828
 30
0.0
 10
235.5197114637012
 20
104.1831052695963
 30
0.0
 10
235.5253968219381
 20
104.0843073350124
 30
0.0
 10
235.6156519318507
 20
102.5117273974947
 30
0.0
 10
235.7828613019252
 20
99.48097299997602
 30
0.0
 10
235.9697273143769
 20
95.59660505307369
 30
0.0
 10
236.0840424224797
 20
92.63531753431572
 30
0.0
 10
236.132274994684
 20
90.69270320762551
 30
0.0
 10
236.1080777769485
 20
90.4371534033491
 30
0.0
 10
236.0959836640306
 20
90.30942598349313
 30
0.0
  0
SPLINE
  5
131
330
1F
100
AcDbEntity
  8
0
  6
Continuous
 62
     8
370
    18
100
AcDbSpline
210
0.0
220
0.0
230
1.0
 70
     8
 71
     3
 72
    13
 73
     9
 74
     0
 42
0.000000001
 43
0.00000001
 40
0.0
 40
0.0
 40
0.0
 40
0.0
 40
0.2118337851088801
 40
0.4267167624156392
 40
0.6417142141308296
 40
0.8571947748545109
 40
0.9948299268062925
 40
1.0
 40
1.0
 40
1.0
 40
1.0
 10
234.5915308626549
 20
170.1292850387177
 30
0.0
 10
234.5965214316338
 20
170.2802173817438
 30
0.0
 10
234.6065744051769
 20
170.584254628337
 30
0.0
 10
234.7342327071374
 20
173.0105792157076
 30
0.0
 10
234.9634164805921
 20
176.5935118721639
 30
0.0
 10
235.2468003333464
 20
180.5186687806138
 30
0.0
 10
235.4398378993376
 20
183.1339897014829
 30
0.0
 10
235.5152534616929
 20
184.1754244898023
 30
0.0
 10
235.517983781798
 20
184.2131282508279
 30
0.0
  0
SPLINE
  5
132
330
1F
100
AcDbEntity
  8
0
  6
Continuous
 62
     8
370
    18
100
AcDbSpline
210
0.0
220
0.0
230
1.0
 70
     8
 71
     3
 72
    15
 73
    11
 74
     0
 42
0.000000001
 43
0.00000001
 40
0.0
 40
0.0
 40
0.0
 40
0.0
 40
0.0041325184390823
 40
0.0135990587785928
 40
0.2165037047420557
 40
0.4200489170778571
 40
0.6133376998018059
 40
0.8059575404727093
 40
0.9986843812390443
 40
1.0
 40
1.0
 40
1.0
 40
1.0
 10
235.517983781798
 20
184.2131282508279
 30
0.0
 10
235.5162545824421
 20
184.2431512825314
 30
0.0
 10
235.510564230656
 20
184.3419493832214
 30
0.0
 10
235.4197458693166
 20
185.914505860464
 30
0.0
 10
235.2384805635954
 20
188.9474652306206
 30
0.0
 10
234.9985069359223
 20
192.8221150686645
 30
0.0
 10
234.8032184819453
 20
195.8173394667017
 30
0.0
 10
234.6653184577867
 20
197.6360844253674
 30
0.0
 10
234.6032701803977
 20
198.2033664688088
 30
0.0
 10
234.5910298815807
 20
198.116504552263
 30
0.0
 10
234.5909468916681
 20
198.1159156235961
 30
0.0
  0
SPLINE
  5
133
330
1F
100
AcDbEntity
  8
0
  6
Continuous
 62
     8
370
    18
100
AcDbSpline
210
0.0
220
0.0
230
1.0
 70
     8
 71
     3
 72
    27
 73
    23
 74
     0
 42
0.000000001
 43
0.00000001
 40
0.0
 40
0.0
 40
0.0
 40
0.0
 40
0.0476492580326353
 40
0.0973482745001187
 40
0.1476179374251039
 40
0.19832187144719
 40
0.2475219752121176
 40
0.2972377532737214
 40
0.3475244127145847
 40
0.3982454422669479
 40
0.4892298250975216
 40
0.5383324836756184
 40
0.594257378418439
 40
0.6433856795146073
 40
0.6930246231607634
 40
0.7432284106913831
 40
0.7938618817513756
 40
0.8394434038710654
 40
0.9320458916111564
 40
0.9871758981546699
 40
0.9928088053742963
 40
1.0
 40
1.0
 40
1.0
 40
1.0
 10
234.5857239311495
 20
90.21441290970415
 30
0.0
 10
234.5902302822886
 20
90.22209354118446
 30
0.0
 10
234.5994368371395
 20
90.23778520675393
 30
0.0
 10
234.6187923588822
 20
90.36781085953578
 30
0.0
 10
234.6424679781564
 20
90.57950220174807
 30
0.0
 10
234.6703215244822
 20
90.87714969824955
 30
0.0
 10
234.7020127596987
 20
91.25501043249884
 30
0.0
 10
234.737392120377
 20
91.71041604641754
 30
0.0
 10
234.7768242602596
 20
92.24780852300366
 30
0.0
 10
234.8315585958307
 20
93.02724303727784
 30
0.0
 10
234.8920140246436
 20
93.92908652830803
 30
0.0
 10
234.9593972484963
 20
94.96745435065222
 30
0.0
 10
235.0153243975035
 20
95.845900116413
 30
0.0
 10
235.0740356386804
 20
96.78253016231528
 30
0.0
 10
235.1326483585634
 20
97.7292581209794
 30
0.0
 10
235.1936324358579
 20
98.72530108600006
 30
0.0
 10
235.254360382532
 20
99.72766121440007
 30
0.0
 10
235.3338327035547
 20
101.052760557341
 30
0.0
 10
235.4163354129332
 20
102.4494641295153
 30
0.0
 10
235.4811619720427
 20
103.5699493938843
 30
0.0
 10
235.5096230880353
 20
104.0667742203153
 30
0.0
 10
235.514979910427
 20
104.1605454515077
 30
0.0
 10
235.5179837817982
 20
104.213128250828
 30
0.0
  0
SPLINE
  5
134
330
1F
100
AcDbEntity
  8
0
  6
Continuous
 62
     8
370
    18
100
AcDbSpline
210
0.0
220
0.0
230
1.0
 70
     8
 71
     3
 72
    25
 73
    21
 74
     0
 42
0.000000001
 43
0.00000001
 40
0.0
 40
0.0
 40
0.0
 40
0.0
 40
0.005198607537004
 40
0.0681034890430991
 40
0.1430934788468523
 40
0.196297980859448
 40
0.2501415202902847
 40
0.304697261914131
 40
0.3597968338177233
 40
0.4129256322366939
 40
0.4666966395029891
 40
0.521183106292368
 40
0.5762157904460936
 40
0.6829839350714261
 40
0.7374530311675409
 40
0.7924687179511813
 40
0.8456301805692131
 40
0.8992502154862605
 40
0.9535304337861751
 40
1.0
 40
1.0
 40
1.0
 40
1.0
 10
235.5179837817981
 20
104.213128250828
 30
0.0
 10
235.51522416699
 20
104.2508301691476
 30
0.0
 10
235.4790722944917
 20
104.7447378478685
 30
0.0
 10
235.4024151326281
 20
105.7826397615625
 30
0.0
 10
235.3005393757496
 20
107.1533887738775
 30
0.0
 10
235.2061621816785
 20
108.4297614313406
 30
0.0
 10
235.1253620180003
 20
109.5339331765315
 30
0.0
 10
235.0476494245888
 20
110.613375935202
 30
0.0
 10
234.975175273608
 20
111.6424016223549
 30
0.0
 10
234.9085358372473
 20
112.6140665279566
 30
0.0
 10
234.848021275268
 20
113.5238074265132
 30
0.0
 10
234.7931507489527
 20
114.3780656744394
 30
0.0
 10
234.7292694044781
 20
115.412211880321
 30
0.0
 10
234.6784377941857
 20
116.2929283477206
 30
0.0
 10
234.6404342265581
 20
116.9987213107076
 30
0.0
 10
234.618098738268
 20
117.437541307533
 30
0.0
 10
234.6017341403475
 20
117.7809950614157
 30
0.0
 10
234.5910630198801
 20
118.025769818136
 30
0.0
 10
234.5853914733721
 20
118.1770513017615
 30
0.0
 10
234.585609954922
 20
118.1962979374422
 30
0.0
 10
234.5857107267787
 20
118.2051752051751
 30
0.0
  0
SPLINE
  5
135
330
1F
100
AcDbEntity
  8
0
  6
Continuous
 62
     8
370
    18
100
AcDbSpline
210
0.0
220
0.0
230
1.0
 70
     8
 71
     3
 72
    28
 73
    24
 74
     0
 42
0.000000001
 43
0.00000001
 40
0.0
 40
0.0
 40
0.0
 40
0.0
 40
0.0895272628515782
 40
0.1425129594967476
 40
0.1681324131131448
 40
0.1939172237638123
 40
0.2904644433325829
 40
0.3434680519761204
 40
0.3690961556773944
 40
0.3948896052404601
 40
0.4196461742279634
 40
0.444402741801009
 40
0.5228224878041348
 40
0.592009872176858
 40
0.6663737888151376
 40
0.7165458547585691
 40
0.7672470981356496
 40
0.7927019662550733
 40
0.8415409399121057
 40
0.9188872882400794
 40
0.9871048561477693
 40
0.9927689681310333
 40
1.0
 40
1.0
 40
1.0
 40
1.0
 10
236.1022069121556
 20
198.2017105912005
 30
0.0
 10
236.1094195168427
 20
198.1743119871783
 30
0.0
 10
236.1209008199329
 20
198.1306978296478
 30
0.0
 10
236.124272860193
 20
197.8877268261629
 30
0.0
 10
236.1242219661927
 20
197.6983238900998
 30
0.0
 10
236.1217456876994
 20
197.3867233585981
 30
0.0
 10
236.1122459585068
 20
196.9008310889938
 30
0.0
 10
236.0947170976727
 20
196.2825073104203
 30
0.0
 10
236.0817705074827
 20
195.8741553947959
 30
0.0
 10
236.0711377188048
 20
195.5577343394328
 30
0.0
 10
236.0594782880299
 20
195.2274241155414
 30
0.0
 10
236.0377778546324
 20
194.6381048525326
 30
0.0
 10
236.0032140262493
 20
193.7662000501798
 30
0.0
 10
235.9493310812854
 20
192.5181341643759
 30
0.0
 10
235.8946873509094
 20
191.33464656985
 30
0.0
 10
235.8397921385944
 20
190.2033623642938
 30
0.0
 10
235.7972321786831
 20
189.3567842168636
 30
0.0
 10
235.753125378395
 20
188.5003870720227
 30
0.0
 10
235.6973627195729
 20
187.4409888059673
 30
0.0
 10
235.6215933448809
 20
186.0482936345547
 30
0.0
 10
235.5598800837996
 20
184.9492378190852
 30
0.0
 10
235.5263327150962
 20
184.35948271109
 30
0.0
 10
235.5209834278106
 20
184.2657112045386
 30
0.0
 10
235.517983781798
 20
184.2131282508279
 30
0.0
  0
SPLINE
  5
136
330
1F
100
AcDbEntity
  8
0
  6
Continuous
 62
     8
370
    18
100
AcDbSpline
210
0.0
220
0.0
230
1.0
 70
     8
 71
     3
 72
    25
 73
    21
 74
     0
 42
0.000000001
 43
0.00000001
 40
0.0
 40
0.0
 40
0.0
 40
0.0
 40
0.0051799396241368
 40
0.142385050401718
 40
0.2154720047269198
 40
0.2558221450834642
 40
0.3033983821664265
 40
0.3583001536347191
 40
0.4201774868303262
 40
0.4715891358523639
 40
0.5122751772078196
 40
0.5739370995197548
 40
0.6357911812527214
 40
0.687185482624659
 40
0.7278585076755715
 40
0.7895013930542489
 40
0.8512670204712949
 40
0.9025851751806511
 40
0.9431954680058584
 40
1.0
 40
1.0
 40
1.0
 40
1.0
 10
235.517983781798
 20
184.2131282508279
 30
0.0
 10
235.5207408243998
 20
184.1754276857573
 30
0.0
 10
235.5965258099991
 20
183.1391227773499
 30
0.0
 10
235.7092057449704
 20
181.5657803414301
 30
0.0
 10
235.8264100074152
 20
179.8086546717768
 30
0.0
 10
235.8956917250398
 20
178.7136646616456
 30
0.0
 10
235.952550355963
 20
177.7698551231978
 30
0.0
 10
236.0111915013431
 20
176.7271718242027
 30
0.0
 10
236.0626422501946
 20
175.7190951451115
 30
0.0
 10
236.1017075356945
 20
174.8568442939406
 30
0.0
 10
236.1340602171159
 20
174.0500427085038
 30
0.0
 10
236.1606859478258
 20
173.256790982279
 30
0.0
 10
236.1789572673485
 20
172.508192544101
 30
0.0
 10
236.1871631751969
 20
171.9328935686945
 30
0.0
 10
236.1892327155535
 20
171.4294658047065
 30
0.0
 10
236.1844537589677
 20
170.9790907631439
 30
0.0
 10
236.1710776325596
 20
170.6151471768903
 30
0.0
 10
236.1530780756321
 20
170.3937254470867
 30
0.0
 10
236.1315726562327
 20
170.2494583108681
 30
0.0
 10
236.1136414798508
 20
170.2296730470889
 30
0.0
 10
236.1031854523995
 20
170.2181358642069
 30
0.0
  0
ENDSEC
  0
SECTION
  2
OBJECTS
  0
DICTIONARY
  5
C
330
0
100
AcDbDictionary
281
     1
  3
ACAD_GROUP
350
D
  3
ACAD_LAYOUT
350
1A
  3
ACAD_MLINESTYLE
350
17
  3
ACAD_PLOTSETTINGS
350
19
  3
ACAD_PLOTSTYLENAME
350
E
  3
ACAD_SCALELIST
350
47
  0
DICTIONARY
  5
D
102
{ACAD_REACTORS
330
C
102
}
330
C
100
AcDbDictionary
281
     1
  0
DICTIONARY
  5
1A
102
{ACAD_REACTORS
330
C
102
}
330
C
100
AcDbDictionary
281
     1
  3
Layout1
350
1E
  3
Layout2
350
26
  3
Model
350
22
  0
DICTIONARY
  5
17
102
{ACAD_REACTORS
330
C
102
}
330
C
100
AcDbDictionary
281
     1
  3
Standard
350
18
  0
DICTIONARY
  5
19
102
{ACAD_REACTORS
330
C
102
}
330
C
100
AcDbDictionary
281
     1
  0
ACDBDICTIONARYWDFLT
  5
E
102
{ACAD_REACTORS
330
C
102
}
330
C
100
AcDbDictionary
281
     1
  3
Normal
350
F
100
AcDbDictionaryWithDefault
340
F
  0
DICTIONARY
  5
47
102
{ACAD_REACTORS
330
C
102
}
330
C
100
AcDbDictionary
281
     1
  3
A0
350
48
  3
A1
350
49
  3
A2
350
4A
  3
A3
350
4B
  3
A4
350
4C
  3
A5
350
4D
  3
A6
350
4E
  3
A7
350
4F
  3
A8
350
50
  3
A9
350
51
  3
B0
350
52
  3
B1
350
53
  3
B2
350
54
  3
B3
350
55
  3
B4
350
56
  3
B5
350
57
  3
B6
350
58
  3
B7
350
59
  3
B8
350
5A
  3
B9
350
5B
  3
C0
350
5C
  3
C1
350
5D
  3
C2
350
5E
  3
C3
350
5F
  3
C4
350
60
  3
C5
350
61
  3
C6
350
62
  3
C7
350
63
  3
C8
350
64
  3
C9
350
65
  3
D0
350
66
  3
D1
350
67
  3
D2
350
68
  0
LAYOUT
  5
1E
102
{ACAD_REACTORS
330
1A
102
}
330
1A
100
AcDbPlotSettings
  1

  2
none_device
  4

  6

 40
0.0
 41
0.0
 42
0.0
 43
0.0
 44
0.0
 45
0.0
 46
0.0
 47
0.0
 48
0.0
 49
0.0
140
0.0
141
0.0
142
1.0
143
1.0
 70
   688
 72
     1
 73
     0
 74
     5
  7

 75
    16
147
1.0
148
0.0
149
0.0
100
AcDbLayout
  1
Layout1
 70
     1
 71
     1
 10
0.0
 20
0.0
 11
420.0
 21
297.0
 12
0.0
 22
0.0
 32
0.0
 14
1.0000000000E+20
 24
1.0000000000E+20
 34
1.0000000000E+20
 15
-1.0000000000E+20
 25
-1.0000000000E+20
 35
-1.0000000000E+20
146
0.0
 13
0.0
 23
0.0
 33
0.0
 16
1.0
 26
0.0
 36
0.0
 17
0.0
 27
1.0
 37
0.0
 76
     0
330
1B
  0
LAYOUT
  5
26
102
{ACAD_REACTORS
330
1A
102
}
330
1A
100
AcDbPlotSettings
  1

  2
none_device
  4

  6

 40
0.0
 41
0.0
 42
0.0
 43
0.0
 44
0.0
 45
0.0
 46
0.0
 47
0.0
 48
0.0
 49
0.0
140
0.0
141
0.0
142
1.0
143
1.0
 70
   688
 72
     1
 73
     0
 74
     5
  7

 75
    16
147
1.0
148
0.0
149
0.0
100
AcDbLayout
  1
Layout2
 70
     1
 71
     2
 10
0.0
 20
0.0
 11
0.0
 21
0.0
 12
0.0
 22
0.0
 32
0.0
 14
0.0
 24
0.0
 34
0.0
 15
0.0
 25
0.0
 35
0.0
146
0.0
 13
0.0
 23
0.0
 33
0.0
 16
1.0
 26
0.0
 36
0.0
 17
0.0
 27
1.0
 37
0.0
 76
     0
330
23
  0
LAYOUT
  5
22
102
{ACAD_REACTORS
330
1A
102
}
330
1A
100
AcDbPlotSettings
  1

  2
none_device
  4
Letter_(8.50_x_11.00_Inches)
  6

 40
6.35
 41
6.35
 42
6.35000508
 43
6.35000508
 44
215.9
 45
279.4
 46
0.0
 47
0.0
 48
0.0
 49
0.0
140
0.0
141
0.0
142
1.0
143
1.0
 70
  1712
 72
     1
 73
     0
 74
     0
  7

 75
     0
147
1.0
148
0.0
149
0.0
100
AcDbLayout
  1
Model
 70
     1
 71
     0
 10
0.0
 20
0.0
 11
841.0
 21
1189.0
 12
0.0
 22
0.0
 32
0.0
 14
0.0
 24
0.0
 34
0.0
 15
841.0
 25
1189.0
 35
0.0
146
0.0
 13
0.0
 23
0.0
 33
0.0
 16
1.0
 26
0.0
 36
0.0
 17
0.0
 27
1.0
 37
0.0
 76
     0
330
1F
331
29
  0
MLINESTYLE
  5
18
102
{ACAD_REACTORS
330
17
102
}
330
17
100
AcDbMlineStyle
  2
Standard
 70
     0
  3

 62
   256
 51
90.0
 52
90.0
 71
     2
 49
0.5
 62
   256
  6
BYLAYER
 49
-0.5
 62
   256
  6
BYLAYER
  0
ACDBPLACEHOLDER
  5
F
102
{ACAD_REACTORS
330
E
102
}
330
E
  0
SCALE
  5
48
102
{ACAD_REACTORS
330
47
102
}
330
47
100
AcDbScale
 70
     0
300
1:1
140
1.0
141
1.0
290
     1
  0
SCALE
  5
49
102
{ACAD_REACTORS
330
47
102
}
330
47
100
AcDbScale
 70
     0
300
1:2
140
1.0
141
2.0
290
     0
  0
SCALE
  5
4A
102
{ACAD_REACTORS
330
47
102
}
330
47
100
AcDbScale
 70
     0
300
1:4
140
1.0
141
4.0
290
     0
  0
SCALE
  5
4B
102
{ACAD_REACTORS
330
47
102
}
330
47
100
AcDbScale
 70
     0
300
1:5
140
1.0
141
5.0
290
     0
  0
SCALE
  5
4C
102
{ACAD_REACTORS
330
47
102
}
330
47
100
AcDbScale
 70
     0
300
1:8
140
1.0
141
8.0
290
     0
  0
SCALE
  5
4D
102
{ACAD_REACTORS
330
47
102
}
330
47
100
AcDbScale
 70
     0
300
1:10
140
1.0
141
10.0
290
     0
  0
SCALE
  5
4E
102
{ACAD_REACTORS
330
47
102
}
330
47
100
AcDbScale
 70
     0
300
1:16
140
1.0
141
16.0
290
     0
  0
SCALE
  5
4F
102
{ACAD_REACTORS
330
47
102
}
330
47
100
AcDbScale
 70
     0
300
1:20
140
1.0
141
20.0
290
     0
  0
SCALE
  5
50
102
{ACAD_REACTORS
330
47
102
}
330
47
100
AcDbScale
 70
     0
300
1:30
140
1.0
141
30.0
290
     0
  0
SCALE
  5
51
102
{ACAD_REACTORS
330
47
102
}
330
47
100
AcDbScale
 70
     0
300
1:40
140
1.0
141
40.0
290
     0
  0
SCALE
  5
52
102
{ACAD_REACTORS
330
47
102
}
330
47
100
AcDbScale
 70
     0
300
1:50
140
1.0
141
50.0
290
     0
  0
SCALE
  5
53
102
{ACAD_REACTORS
330
47
102
}
330
47
100
AcDbScale
 70
     0
300
1:100
140
1.0
141
100.0
290
     0
  0
SCALE
  5
54
102
{ACAD_REACTORS
330
47
102
}
330
47
100
AcDbScale
 70
     0
300
2:1
140
2.0
141
1.0
290
     0
  0
SCALE
  5
55
102
{ACAD_REACTORS
330
47
102
}
330
47
100
AcDbScale
 70
     0
300
4:1
140
4.0
141
1.0
290
     0
  0
SCALE
  5
56
102
{ACAD_REACTORS
330
47
102
}
330
47
100
AcDbScale
 70
     0
300
8:1
140
8.0
141
1.0
290
     0
  0
SCALE
  5
57
102
{ACAD_REACTORS
330
47
102
}
330
47
100
AcDbScale
 70
     0
300
10:1
140
10.0
141
1.0
290
     0
  0
SCALE
  5
58
102
{ACAD_REACTORS
330
47
102
}
330
47
100
AcDbScale
 70
     0
300
100:1
140
100.0
141
1.0
290
     0
  0
SCALE
  5
59
102
{ACAD_REACTORS
330
47
102
}
330
47
100
AcDbScale
 70
     0
300
1/128" = 1'-0"
140
0.0078125
141
12.0
290
     0
  0
SCALE
  5
5A
102
{ACAD_REACTORS
330
47
102
}
330
47
100
AcDbScale
 70
     0
300
1/64" = 1'-0"
140
0.015625
141
12.0
290
     0
  0
SCALE
  5
5B
102
{ACAD_REACTORS
330
47
102
}
330
47
100
AcDbScale
 70
     0
300
1/32" = 1'-0"
140
0.03125
141
12.0
290
     0
  0
SCALE
  5
5C
102
{ACAD_REACTORS
330
47
102
}
330
47
100
AcDbScale
 70
     0
300
1/16" = 1'-0"
140
0.0625
141
12.0
290
     0
  0
SCALE
  5
5D
102
{ACAD_REACTORS
330
47
102
}
330
47
100
AcDbScale
 70
     0
300
3/32" = 1'-0"
140
0.09375
141
12.0
290
     0
  0
SCALE
  5
5E
102
{ACAD_REACTORS
330
47
102
}
330
47
100
AcDbScale
 70
     0
300
1/8" = 1'-0"
140
0.125
141
12.0
290
     0
  0
SCALE
  5
5F
102
{ACAD_REACTORS
330
47
102
}
330
47
100
AcDbScale
 70
     0
300
3/16" = 1'-0"
140
0.1875
141
12.0
290
     0
  0
SCALE
  5
60
102
{ACAD_REACTORS
330
47
102
}
330
47
100
AcDbScale
 70
     0
300
1/4" = 1'-0"
140
0.25
141
12.0
290
     0
  0
SCALE
  5
61
102
{ACAD_REACTORS
330
47
102
}
330
47
100
AcDbScale
 70
     0
300
3/8" = 1'-0"
140
0.375
141
12.0
290
     0
  0
SCALE
  5
62
102
{ACAD_REACTORS
330
47
102
}
330
47
100
AcDbScale
 70
     0
300
1/2" = 1'-0"
140
0.5
141
12.0
290
     0
  0
SCALE
  5
63
102
{ACAD_REACTORS
330
47
102
}
330
47
100
AcDbScale
 70
     0
300
3/4" = 1'-0"
140
0.75
141
12.0
290
     0
  0
SCALE
  5
64
102
{ACAD_REACTORS
330
47
102
}
330
47
100
AcDbScale
 70
     0
300
1" = 1'-0"
140
1.0
141
12.0
290
     0
  0
SCALE
  5
65
102
{ACAD_REACTORS
330
47
102
}
330
47
100
AcDbScale
 70
     0
300
1-1/2" = 1'-0"
140
1.5
141
12.0
290
     0
  0
SCALE
  5
66
102
{ACAD_REACTORS
330
47
102
}
330
47
100
AcDbScale
 70
     0
300
3" = 1'-0"
140
3.0
141
12.0
290
     0
  0
SCALE
  5
67
102
{ACAD_REACTORS
330
47
102
}
330
47
100
AcDbScale
 70
     0
300
6" = 1'-0"
140
6.0
141
12.0
290
     0
  0
SCALE
  5
68
102
{ACAD_REACTORS
330
47
102
}
330
47
100
AcDbScale
 70
     0
300
1'-0" = 1'-0"
140
12.0
141
12.0
290
     0
  0
ENDSEC
  0
EOF
