  0
SECTION
  2
HEADER
  9
$ACADVER
  1
AC1014
  9
$ACADMAINTVER
 70
     9
  9
$DWGCODEPAGE
  3
ANSI_1252
  9
$INSBASE
 10
0.0
 20
0.0
 30
0.0
  9
$EXTMIN
 10
0.0
 20
0.0
 30
0.0
  9
$EXTMAX
 10
841.0
 20
594.0
 30
0.0
  9
$LIMMIN
 10
0.0
 20
0.0
  9
$LIMMAX
 10
841.0
 20
594.0
  9
$ORTHOMODE
 70
     0
  9
$REGENMODE
 70
     1
  9
$FILLMODE
 70
     1
  9
$QTEXTMODE
 70
     0
  9
$MIRRTEXT
 70
     1
  9
$DRAGMODE
 70
     2
  9
$LTSCALE
 40
1.0
  9
$OSMODE
 70
    37
  9
$ATTMODE
 70
     1
  9
$TEXTSIZE
 40
10.0
  9
$TRACEWID
 40
1.0
  9
$TEXTSTYLE
  7
STANDARD
  9
$CLAYER
  8
0
  9
$CELTYPE
  6
BYLAYER
  9
$CECOLOR
 62
   256
  9
$CELTSCALE
 40
1.0
  9
$DELOBJ
 70
     1
  9
$DISPSILH
 70
     0
  9
$DIMSCALE
 40
1.0
  9
$DIMASZ
 40
2.5
  9
$DIMEXO
 40
0.0
  9
$DIMDLI
 40
3.75
  9
$DIMRND
 40
0.0
  9
$DIMDLE
 40
0.0
  9
$DIMEXE
 40
1.0
  9
$DIMTP
 40
0.0
  9
$DIMTM
 40
0.0
  9
$DIMTXT
 40
3.5
  9
$DIMCEN
 40
2.5
  9
$DIMTSZ
 40
0.0
  9
$DIMTOL
 70
     0
  9
$DIMLIM
 70
     0
  9
$DIMTIH
 70
     1
  9
$DIMTOH
 70
     1
  9
$DIMSE1
 70
     0
  9
$DIMSE2
 70
     0
  9
$DIMTAD
 70
     1
  9
$DIMZIN
 70
     0
  9
$DIMBLK
  1

  9
$DIMASO
 70
     1
  9
$DIMSHO
 70
     1
  9
$DIMPOST
  1

  9
$DIMAPOST
  1

  9
$DIMALT
 70
     0
  9
$DIMALTD
 70
     3
  9
$DIMALTF
 40
0.0393700787
  9
$DIMLFAC
 40
1.0
  9
$DIMTOFL
 70
     1
  9
$DIMTVP
 40
0.0
  9
$DIMTIX
 70
     0
  9
$DIMSOXD
 70
     0
  9
$DIMSAH
 70
     0
  9
$DIMBLK1
  1

  9
$DIMBLK2
  1

  9
$DIMSTYLE
  2
ISO-25
  9
$DIMCLRD
 70
     0
  9
$DIMCLRE
 70
     0
  9
$DIMCLRT
 70
     0
  9
$DIMTFAC
 40
1.0
  9
$DIMGAP
 40
1.5
  9
$DIMJUST
 70
     0
  9
$DIMSD1
 70
     0
  9
$DIMSD2
 70
     0
  9
$DIMTOLJ
 70
     0
  9
$DIMTZIN
 70
     0
  9
$DIMALTZ
 70
     0
  9
$DIMALTTZ
 70
     0
  9
$DIMFIT
 70
     3
  9
$DIMUPT
 70
     0
  9
$DIMUNIT
 70
     2
  9
$DIMDEC
 70
     2
  9
$DIMTDEC
 70
     2
  9
$DIMALTU
 70
     2
  9
$DIMALTTD
 70
     3
  9
$DIMTXSTY
  7
STANDARD
  9
$DIMAUNIT
 70
     0
  9
$LUNITS
 70
     2
  9
$LUPREC
 70
     2
  9
$SKETCHINC
 40
1.0
  9
$FILLETRAD
 40
10.0
  9
$AUNITS
 70
     0
  9
$AUPREC
 70
     2
  9
$MENU
  1
.
  9
$ELEVATION
 40
0.0
  9
$PELEVATION
 40
0.0
  9
$THICKNESS
 40
0.0
  9
$LIMCHECK
 70
     0
  9
$CHAMFERA
 40
0.0
  9
$CHAMFERB
 40
0.0
  9
$CHAMFERC
 40
0.0
  9
$CHAMFERD
 40
0.0
  9
$SKPOLY
 70
     0
  9
$TDCREATE
 40
2457378.36069338
  9
$TDUPDATE
 40
2457378.360693924
  9
$TDINDWG
 40
0.0000000116
  9
$TDUSRTIMER
 40
0.0000000116
  9
$USRTIMER
 70
     1
  9
$ANGBASE
 50
0.0
  9
$ANGDIR
 70
     0
  9
$PDMODE
 70
     0
  9
$PDSIZE
 40
-1.0
  9
$PLINEWID
 40
0.0
  9
$COORDS
 70
     1
  9
$SPLFRAME
 70
     0
  9
$SPLINETYPE
 70
     6
  9
$SPLINESEGS
 70
     8
  9
$ATTDIA
 70
     0
  9
$ATTREQ
 70
     1
  9
$HANDLING
 70
     1
  9
$HANDSEED
  5
183
  9
$SURFTAB1
 70
     6
  9
$SURFTAB2
 70
     6
  9
$SURFTYPE
 70
     6
  9
$SURFU
 70
     6
  9
$SURFV
 70
     6
  9
$UCSNAME
  2

  9
$UCSORG
 10
0.0
 20
0.0
 30
0.0
  9
$UCSXDIR
 10
1.0
 20
0.0
 30
0.0
  9
$UCSYDIR
 10
0.0
 20
1.0
 30
0.0
  9
$PUCSNAME
  2

  9
$PUCSORG
 10
0.0
 20
0.0
 30
0.0
  9
$PUCSXDIR
 10
1.0
 20
0.0
 30
0.0
  9
$PUCSYDIR
 10
0.0
 20
1.0
 30
0.0
  9
$USERI1
 70
     0
  9
$USERI2
 70
     0
  9
$USERI3
 70
     0
  9
$USERI4
 70
     0
  9
$USERI5
 70
     0
  9
$USERR1
 40
0.0
  9
$USERR2
 40
0.0
  9
$USERR3
 40
0.0
  9
$USERR4
 40
0.0
  9
$USERR5
 40
0.0
  9
$WORLDVIEW
 70
     1
  9
$SHADEDGE
 70
     3
  9
$SHADEDIF
 70
    70
  9
$TILEMODE
 70
     1
  9
$MAXACTVP
 70
    64
  9
$PINSBASE
 10
0.0
 20
0.0
 30
0.0
  9
$PLIMCHECK
 70
     0
  9
$PEXTMIN
 10
1.0000000000E+20
 20
1.0000000000E+20
 30
1.0000000000E+20
  9
$PEXTMAX
 10
-1.0000000000E+20
 20
-1.0000000000E+20
 30
-1.0000000000E+20
  9
$PLIMMIN
 10
0.0
 20
0.0
  9
$PLIMMAX
 10
420.0
 20
297.0
  9
$UNITMODE
 70
     0
  9
$VISRETAIN
 70
     1
  9
$PLINEGEN
 70
     0
  9
$PSLTSCALE
 70
     1
  9
$TREEDEPTH
 70
  3020
  9
$PICKSTYLE
 70
     1
  9
$CMLSTYLE
  2
STANDARD
  9
$CMLJUST
 70
     0
  9
$CMLSCALE
 40
20.0
  9
$PROXYGRAPHICS
 70
     1
  9
$MEASUREMENT
 70
     1
  0
ENDSEC
  0
SECTION
  2
CLASSES
  0
CLASS
  1
ACDBDICTIONARYWDFLT
  2
AcDbDictionaryWithDefault
  3
ObjectDBX Classes
 90
        0
280
     0
281
     0
  0
CLASS
  1
VISUALSTYLE
  2
AcDbVisualStyle
  3
ObjectDBX Classes
 90
     4095
280
     0
281
     0
  0
CLASS
  1
MATERIAL
  2
AcDbMaterial
  3
ObjectDBX Classes
 90
     1153
280
     0
281
     0
  0
CLASS
  1
SCALE
  2
AcDbScale
  3
ObjectDBX Classes
 90
     1153
280
     0
281
     0
  0
CLASS
  1
SUN
  2
AcDbSun
  3
SCENEOE
 90
     1153
280
     0
281
     0
  0
CLASS
  1
XRECORD
  2
AcDbXrecord
  3
ObjectDBX Classes
 90
        0
280
     0
281
     0
  0
CLASS
  1
LWPOLYLINE
  2
AcDbPolyline
  3
ObjectDBX Classes
 90
        0
280
     0
281
     1
  0
CLASS
  1
HATCH
  2
AcDbHatch
  3
ObjectDBX Classes
 90
        0
280
     0
281
     1
  0
ENDSEC
  0
SECTION
  2
TABLES
  0
TABLE
  2
VPORT
  5
8
330
0
100
AcDbSymbolTable
 70
     1
  0
VPORT
  5
29
330
8
100
AcDbSymbolTableRecord
100
AcDbViewportTableRecord
  2
*ACTIVE
 70
     0
 10
0.0
 20
0.0
 11
1.0
 21
1.0
 12
420.5
 22
297.0
 13
0.0
 23
0.0
 14
10.0
 24
10.0
 15
10.0
 25
10.0
 16
0.0
 26
0.0
 36
1.0
 17
0.0
 27
0.0
 37
0.0
 40
594.0
 41
1.4158249158
 42
50.0
 43
0.0
 44
0.0
 50
0.0
 51
0.0
 71
     0
 72
  2000
 73
     1
 74
     3
 75
     0
 76
     0
 77
     0
 78
     0
  0
ENDTAB
  0
TABLE
  2
LTYPE
  5
5
330
0
100
AcDbSymbolTable
 70
     6
  0
LTYPE
  5
14
330
5
100
AcDbSymbolTableRecord
100
AcDbLinetypeTableRecord
  2
BYBLOCK
 70
     0
  3

 72
    65
 73
     0
 40
0.0
  0
LTYPE
  5
15
330
5
100
AcDbSymbolTableRecord
100
AcDbLinetypeTableRecord
  2
BYLAYER
 70
     0
  3

 72
    65
 73
     0
 40
0.0
  0
LTYPE
  5
16
330
5
100
AcDbSymbolTableRecord
100
AcDbLinetypeTableRecord
  2
CONTINUOUS
 70
     0
  3
Solid line
 72
    65
 73
     0
 40
0.0
  0
LTYPE
  5
6A
330
5
100
AcDbSymbolTableRecord
100
AcDbLinetypeTableRecord
  2
HIDDEN
 70
     0
  3
Hidden __ __ __ __ __ __ __ __ __ __ __ __ __ __
 72
    65
 73
     2
 40
1.905
 49
1.27
 74
     0
 49
-0.635
 74
     0
  0
LTYPE
  5
6B
330
5
100
AcDbSymbolTableRecord
100
AcDbLinetypeTableRecord
  2
PHANTOM
 70
     0
  3
Phantom ______  __  __  ______  __  __  ______
 72
    65
 73
     6
 40
12.7
 49
6.35
 74
     0
 49
-1.27
 74
     0
 49
1.27
 74
     0
 49
-1.27
 74
     0
 49
1.27
 74
     0
 49
-1.27
 74
     0
  0
LTYPE
  5
6C
330
5
100
AcDbSymbolTableRecord
100
AcDbLinetypeTableRecord
  2
CENTER
 70
     0
  3
Center ____ _ ____ _ ____ _ ____ _ ____ _ ____
 72
    65
 73
     4
 40
10.16
 49
6.35
 74
     0
 49
-1.27
 74
     0
 49
1.27
 74
     0
 49
-1.27
 74
     0
  0
LTYPE
  5
6D
330
5
100
AcDbSymbolTableRecord
100
AcDbLinetypeTableRecord
  2
CENTERX2
 70
     0
  3
Center (2x) ________  __  ________  __  _____
 72
    65
 73
     4
 40
20.32
 49
12.7
 74
     0
 49
-2.54
 74
     0
 49
2.54
 74
     0
 49
-2.54
 74
     0
  0
LTYPE
  5
6E
330
5
100
AcDbSymbolTableRecord
100
AcDbLinetypeTableRecord
  2
DOT2
 70
     0
  3
Dot (.5x) ........................................
 72
    65
 73
     2
 40
0.635
 49
0.0
 74
     0
 49
-0.635
 74
     0
  0
ENDTAB
  0
TABLE
  2
LAYER
  5
2
330
0
100
AcDbSymbolTable
 70
     1
  0
LAYER
  5
10
330
2
100
AcDbSymbolTableRecord
100
AcDbLayerTableRecord
  2
0
 70
     0
 62
     7
  6
CONTINUOUS
  0
ENDTAB
  0
TABLE
  2
STYLE
  5
3
330
0
100
AcDbSymbolTable
 70
     3
  0
STYLE
  5
11
330
3
100
AcDbSymbolTableRecord
100
AcDbTextStyleTableRecord
  2
STANDARD
 70
     0
 40
0.0
 41
1.0
 50
0.0
 71
     0
 42
10.0
  3
txt
  4

  0
STYLE
  5
72
330
3
100
AcDbSymbolTableRecord
100
AcDbTextStyleTableRecord
  2
SLDTEXTSTYLE0
 70
     0
 40
0.0
 41
0.96
 50
0.0
 71
     0
 42
10.0
  3
ISOCP3
  4

  0
STYLE
  5
89
330
3
100
AcDbSymbolTableRecord
100
AcDbTextStyleTableRecord
  2
SLDTEXTSTYLE1
 70
     0
 40
0.0
 41
0.605
 50
0.0
 71
     0
 42
10.0
  3
TXT
  4

  0
ENDTAB
  0
TABLE
  2
VIEW
  5
6
330
0
100
AcDbSymbolTable
 70
     0
  0
ENDTAB
  0
TABLE
  2
UCS
  5
7
330
0
100
AcDbSymbolTable
 70
     0
  0
ENDTAB
  0
TABLE
  2
APPID
  5
9
330
0
100
AcDbSymbolTable
 70
     1
  0
APPID
  5
12
330
9
100
AcDbSymbolTableRecord
100
AcDbRegAppTableRecord
  2
ACAD
 70
     0
  0
ENDTAB
  0
TABLE
  2
DIMSTYLE
  5
A
330
0
100
AcDbSymbolTable
 70
     2
  0
DIMSTYLE
105
27
330
A
100
AcDbSymbolTableRecord
100
AcDbDimStyleTableRecord
  2
ISO-25
 70
     0
  3

  4

  5

  6

  7

 40
1.0
 41
2.5
 42
0.625
 43
3.75
 44
1.25
 45
0.0
 46
0.0
 47
0.0
 48
0.0
140
2.5
141
2.5
142
0.0
143
0.0393700787
144
1.0
145
0.0
146
1.0
147
0.625
 71
     0
 72
     0
 73
     0
 74
     0
 75
     0
 76
     0
 77
     1
 78
     8
170
     0
171
     3
172
     1
173
     0
174
     0
175
     0
176
     0
177
     0
178
     0
270
     2
271
     2
272
     2
273
     2
274
     3
340
11
275
     0
280
     0
281
     0
282
     0
283
     0
284
     8
285
     0
286
     0
287
     3
288
     0
  0
DIMSTYLE
105
73
102
{ACAD_REACTORS
330
71
330
7E
102
}
330
A
100
AcDbSymbolTableRecord
100
AcDbDimStyleTableRecord
  2
SLDDIMSTYLE0
 70
     0
  3

  4

  5

  6

  7

 40
1.0
 41
2.5
 42
0.0625
 43
0.38
 44
0.0
 45
0.000000001
 46
0.0
 47
0.0
 48
0.0
140
6.0
141
0.09
142
0.0
143
25.4
144
1.0
145
0.0
146
1.0
147
1.5
 71
     0
 72
     0
 73
     0
 74
     0
 75
     0
 76
     0
 77
     1
 78
    12
170
     0
171
     2
172
     0
173
     1
174
     0
175
     0
176
     0
177
     0
178
     0
270
     2
271
     2
272
     2
273
     2
274
     2
340
72
275
     0
280
     0
281
     0
282
     0
283
     1
284
    12
285
     0
286
     0
287
     3
288
     0
  0
ENDTAB
  0
TABLE
  2
BLOCK_RECORD
  5
1
330
0
100
AcDbSymbolTable
 70
     3
  0
BLOCK_RECORD
  5
1F
330
1
100
AcDbSymbolTableRecord
100
AcDbBlockTableRecord
  2
*MODEL_SPACE
  0
BLOCK_RECORD
  5
1B
330
1
100
AcDbSymbolTableRecord
100
AcDbBlockTableRecord
  2
*PAPER_SPACE
  0
BLOCK_RECORD
  5
23
330
1
100
AcDbSymbolTableRecord
100
AcDbBlockTableRecord
  2
*PAPER_SPACE0
  0
BLOCK_RECORD
  5
74
330
1
100
AcDbSymbolTableRecord
100
AcDbBlockTableRecord
  2
_D
  0
BLOCK_RECORD
  5
7F
330
1
100
AcDbSymbolTableRecord
100
AcDbBlockTableRecord
  2
_D_1
  0
ENDTAB
  0
ENDSEC
  0
SECTION
  2
BLOCKS
  0
BLOCK
  5
20
330
1F
100
AcDbEntity
  8
0
100
AcDbBlockBegin
  2
*MODEL_SPACE
 70
     0
 10
0.0
 20
0.0
 30
0.0
  3
*MODEL_SPACE
  1

  0
ENDBLK
  5
21
330
1F
100
AcDbEntity
  8
0
100
AcDbBlockEnd
  0
BLOCK
  5
1C
330
1B
100
AcDbEntity
 67
     1
  8
0
100
AcDbBlockBegin
  2
*PAPER_SPACE
 70
     0
 10
0.0
 20
0.0
 30
0.0
  3
*PAPER_SPACE
  1

  0
ENDBLK
  5
1D
330
1B
100
AcDbEntity
 67
     1
  8
0
100
AcDbBlockEnd
  0
BLOCK
  5
24
330
23
100
AcDbEntity
  8
0
100
AcDbBlockBegin
  2
*PAPER_SPACE0
 70
     0
 10
0.0
 20
0.0
 30
0.0
  3
*PAPER_SPACE0
  1
*PAPER_SPACE0
  0
ENDBLK
  5
25
330
23
100
AcDbEntity
  8
0
100
AcDbBlockEnd
  0
BLOCK
  5
75
330
74
100
AcDbEntity
  8
0
100
AcDbBlockBegin
  2
_D
 70
     0
 10
0.0
 20
0.0
 30
0.0
  3
_D
  1
_D
  0
SOLID
  5
77
330
74
100
AcDbEntity
  8
0
  6
CONTINUOUS
 62
     7
100
AcDbTrace
 10
42.7614395004
 20
152.0299240879
 30
0.0
 11
42.4614395004
 21
149.5299240879
 31
0.0
 12
43.0614395004
 22
149.5299240879
 32
0.0
 13
43.0614395004
 23
149.5299240879
 33
0.0
  0
SOLID
  5
78
330
74
100
AcDbEntity
  8
0
  6
CONTINUOUS
 62
     7
100
AcDbTrace
 10
42.7614395004
 20
52.0299240879
 30
0.0
 11
43.0614395004
 21
54.5299240879
 31
0.0
 12
42.4614395004
 22
54.5299240879
 32
0.0
 13
42.4614395004
 23
54.5299240879
 33
0.0
  0
LINE
  5
79
330
74
100
AcDbEntity
  8
0
  6
CONTINUOUS
 62
     7
100
AcDbLine
 10
56.6850079902
 20
152.0299240879
 30
0.0
 11
41.7614395004
 21
152.0299240879
 31
0.0
  0
LINE
  5
7A
330
74
100
AcDbEntity
  8
0
  6
CONTINUOUS
 62
     7
100
AcDbLine
 10
56.6850079902
 20
52.0299240879
 30
0.0
 11
41.7614395004
 21
52.0299240879
 31
0.0
  0
LINE
  5
7B
330
74
100
AcDbEntity
  8
0
  6
CONTINUOUS
 62
     7
100
AcDbLine
 10
42.7614395004
 20
152.0299240879
 30
0.0
 11
42.7614395004
 21
52.0299240879
 31
0.0
  0
MTEXT
  5
7C
330
74
100
AcDbEntity
  8
0
  6
CONTINUOUS
 62
     7
100
AcDbMText
 10
35.0270332946
 20
94.3680541463
 30
0.0
 40
6.0
 41
0.0
 71
     1
 72
     1
  1
100
  7
SLDTEXTSTYLE0
 11
-7.044195017643634E-15
 21
1.0
 31
0.0
  0
MTEXT
  5
7D
330
74
100
AcDbEntity
  8
0
  6
CONTINUOUS
 62
     7
100
AcDbMText
 10
35.0270332946
 20
105.7430548466
 30
0.0
 40
6.0
 41
0.0
 71
     1
 72
     1
  1
mm
  7
SLDTEXTSTYLE0
 11
-7.044195017643634E-15
 21
1.0
 31
0.0
  0
ENDBLK
  5
76
330
74
100
AcDbEntity
  8
0
100
AcDbBlockEnd
  0
BLOCK
  5
80
330
7F
100
AcDbEntity
  8
0
100
AcDbBlockBegin
  2
_D_1
 70
     0
 10
0.0
 20
0.0
 30
0.0
  3
_D_1
  1
_D_1
  0
SOLID
  5
82
330
7F
100
AcDbEntity
  8
0
  6
CONTINUOUS
 62
     7
100
AcDbTrace
 10
56.6850079902
 20
38.4602342313
 30
0.0
 11
59.1850079902
 21
38.1602342313
 31
0.0
 12
59.1850079902
 22
38.7602342313
 32
0.0
 13
59.1850079902
 23
38.7602342313
 33
0.0
  0
SOLID
  5
83
330
7F
100
AcDbEntity
  8
0
  6
CONTINUOUS
 62
     7
100
AcDbTrace
 10
156.6850079902
 20
38.4602342313
 30
0.0
 11
154.1850079902
 21
38.7602342313
 31
0.0
 12
154.1850079902
 22
38.1602342313
 32
0.0
 13
154.1850079902
 23
38.1602342313
 33
0.0
  0
LINE
  5
84
330
7F
100
AcDbEntity
  8
0
  6
CONTINUOUS
 62
     7
100
AcDbLine
 10
56.6850079902
 20
52.0299240879
 30
0.0
 11
56.6850079902
 21
37.4602342313
 31
0.0
  0
LINE
  5
85
330
7F
100
AcDbEntity
  8
0
  6
CONTINUOUS
 62
     7
100
AcDbLine
 10
156.6850079902
 20
52.0299240879
 30
0.0
 11
156.6850079902
 21
37.4602342313
 31
0.0
  0
LINE
  5
86
330
7F
100
AcDbEntity
  8
0
  6
CONTINUOUS
 62
     7
100
AcDbLine
 10
56.6850079902
 20
38.4602342313
 30
0.0
 11
156.6850079902
 21
38.4602342313
 31
0.0
  0
MTEXT
  5
87
330
7F
100
AcDbEntity
  8
0
  6
CONTINUOUS
 62
     7
100
AcDbMText
 10
93.9626484861
 20
46.1946404371
 30
0.0
 40
6.0
 41
0.0
 71
     1
 72
     1
  1
100
  7
SLDTEXTSTYLE0
  0
MTEXT
  5
88
330
7F
100
AcDbEntity
  8
0
  6
CONTINUOUS
 62
     7
100
AcDbMText
 10
105.3376491864
 20
46.1946404371
 30
0.0
 40
6.0
 41
0.0
 71
     1
 72
     1
  1
mm
  7
SLDTEXTSTYLE0
  0
ENDBLK
  5
81
330
7F
100
AcDbEntity
  8
0
100
AcDbBlockEnd
  0
ENDSEC
  0
SECTION
  2
ENTITIES
  0
LINE
  5
6F
330
1F
100
AcDbEntity
  8
0
  6
CONTINUOUS
 62
     7
100
AcDbLine
 10
56.6850079902
 20
152.0299240879
 30
0.0
 11
56.6850079902
 21
52.0299240879
 31
0.0
  0
LINE
  5
70
330
1F
100
AcDbEntity
  8
0
  6
CONTINUOUS
 62
     7
100
AcDbLine
 10
56.6850079902
 20
52.0299240879
 30
0.0
 11
156.6850079902
 21
52.0299240879
 31
0.0
  0
DIMENSION
  5
71
330
1F
100
AcDbEntity
  8
0
  6
CONTINUOUS
 62
     7
100
AcDbDimension
  2
_D
 10
42.7614395004
 20
52.0299240879
 30
0.0
 11
42.7614395004
 21
105.4472211621
 31
0.0
 70
   160
  1
<>mm
  3
SLDDIMSTYLE0
100
AcDbAlignedDimension
 13
56.6850079902
 23
152.0299240879
 33
0.0
 14
56.6850079902
 24
52.0299240879
 34
0.0
 50
90.0
100
AcDbRotatedDimension
  0
DIMENSION
  5
7E
330
1F
100
AcDbEntity
  8
0
  6
CONTINUOUS
 62
     7
100
AcDbDimension
  2
_D_1
 10
156.6850079902
 20
38.4602342313
 30
0.0
 11
105.0418155019
 21
38.4602342313
 31
0.0
 70
   160
  1
<>mm
  3
SLDDIMSTYLE0
100
AcDbAlignedDimension
 13
56.6850079902
 23
52.0299240879
 33
0.0
 14
156.6850079902
 24
52.0299240879
 34
0.0
100
AcDbRotatedDimension
  0
MTEXT
  5
8A
330
1F
100
AcDbEntity
  8
0
  6
CONTINUOUS
 62
     7
100
AcDbMText
 10
347.5532847896
 20
48.6198453877
 30
0.0
 40
10.0
 41
0.0
 71
     1
 72
     1
  1
64 425 05-00
  7
SLDTEXTSTYLE1
  0
MTEXT
  5
8B
330
1F
100
AcDbEntity
  8
0
  6
CONTINUOUS
 62
     7
100
AcDbMText
 10
664.658399795
 20
48.4342449499
 30
0.0
 40
10.0
 41
0.0
 71
     1
 72
     1
  1
KLUDI GmbH & Co KG
  7
SLDTEXTSTYLE1
  0
LINE
  5
8C
330
1F
100
AcDbEntity
  8
0
  6
CONTINUOUS
 62
     7
100
AcDbLine
 10
353.6094799064
 20
415.9202471643
 30
0.0
 11
353.6094799064
 21
418.2202472153
 31
0.0
  0
LINE
  5
8D
330
1F
100
AcDbEntity
  8
0
  6
CONTINUOUS
 62
     7
100
AcDbLine
 10
350.1094802641
 20
418.2202472153
 30
0.0
 11
350.1094802641
 21
415.9202471643
 31
0.0
  0
LINE
  5
8E
330
1F
100
AcDbEntity
  8
0
  6
CONTINUOUS
 62
     7
100
AcDbLine
 10
265.6094803833
 20
415.9202471643
 30
0.0
 11
265.6094803833
 21
418.2202472153
 31
0.0
  0
LINE
  5
8F
330
1F
100
AcDbEntity
  8
0
  6
CONTINUOUS
 62
     7
100
AcDbLine
 10
262.1094807409
 20
418.2202472153
 30
0.0
 11
262.1094807409
 21
415.9202471643
 31
0.0
  0
LINE
  5
90
330
1F
100
AcDbEntity
  8
0
  6
CONTINUOUS
 62
     7
100
AcDbLine
 10
243.6094805025
 20
415.9202471643
 30
0.0
 11
243.6094805025
 21
418.2202472153
 31
0.0
  0
LINE
  5
91
330
1F
100
AcDbEntity
  8
0
  6
CONTINUOUS
 62
     7
100
AcDbLine
 10
240.1094808601
 20
418.2202472153
 30
0.0
 11
240.1094808601
 21
415.9202471643
 31
0.0
  0
LINE
  5
92
330
1F
100
AcDbEntity
  8
0
  6
CONTINUOUS
 62
     7
100
AcDbLine
 10
221.6094806217
 20
415.9202471643
 30
0.0
 11
221.6094806217
 21
418.2202472153
 31
0.0
  0
LINE
  5
93
330
1F
100
AcDbEntity
  8
0
  6
CONTINUOUS
 62
     7
100
AcDbLine
 10
218.1094809793
 20
418.2202472153
 30
0.0
 11
218.1094809793
 21
415.9202471643
 31
0.0
  0
LINE
  5
94
330
1F
100
AcDbEntity
  8
0
  6
CONTINUOUS
 62
     7
100
AcDbLine
 10
155.6094809793
 20
415.9202471643
 30
0.0
 11
155.6094809793
 21
418.2202472153
 31
0.0
  0
LINE
  5
95
330
1F
100
AcDbEntity
  8
0
  6
CONTINUOUS
 62
     7
100
AcDbLine
 10
152.1094813369
 20
418.2202472153
 30
0.0
 11
152.1094813369
 21
415.9202471643
 31
0.0
  0
ARC
  5
96
330
1F
100
AcDbEntity
  8
0
  6
CONTINUOUS
 62
     7
100
AcDbCircle
 10
353.4094806217
 20
415.9202472153
 30
0.0
 40
0.2000000000000455
100
AcDbArc
 50
270.0
 51
0.0
  0
ARC
  5
97
330
1F
100
AcDbEntity
  8
0
  6
CONTINUOUS
 62
     7
100
AcDbCircle
 10
350.3094806217
 20
415.9202472153
 30
0.0
 40
0.1999999999999886
100
AcDbArc
 50
180.0
 51
270.0
  0
LINE
  5
98
330
1F
100
AcDbEntity
  8
0
  6
CONTINUOUS
 62
     7
100
AcDbLine
 10
331.6094800256
 20
415.9202471643
 30
0.0
 11
331.6094800256
 21
418.2202472153
 31
0.0
  0
LINE
  5
99
330
1F
100
AcDbEntity
  8
0
  6
CONTINUOUS
 62
     7
100
AcDbLine
 10
328.1094803833
 20
418.2202472153
 30
0.0
 11
328.1094803833
 21
415.9202471643
 31
0.0
  0
LINE
  5
9A
330
1F
100
AcDbEntity
  8
0
  6
CONTINUOUS
 62
     7
100
AcDbLine
 10
309.6094801448
 20
415.9202471643
 30
0.0
 11
309.6094801448
 21
418.2202472153
 31
0.0
  0
LINE
  5
9B
330
1F
100
AcDbEntity
  8
0
  6
CONTINUOUS
 62
     7
100
AcDbLine
 10
306.1094805025
 20
418.2202472153
 30
0.0
 11
306.1094805025
 21
415.9202471643
 31
0.0
  0
LINE
  5
9C
330
1F
100
AcDbEntity
  8
0
  6
CONTINUOUS
 62
     7
100
AcDbLine
 10
287.6094802641
 20
415.9202471643
 30
0.0
 11
287.6094802641
 21
418.2202472153
 31
0.0
  0
LINE
  5
9D
330
1F
100
AcDbEntity
  8
0
  6
CONTINUOUS
 62
     7
100
AcDbLine
 10
284.1094806217
 20
418.2202472153
 30
0.0
 11
284.1094806217
 21
415.9202471643
 31
0.0
  0
ARC
  5
9E
330
1F
100
AcDbEntity
  8
0
  6
CONTINUOUS
 62
     7
100
AcDbCircle
 10
265.4094806217
 20
415.9202472153
 30
0.0
 40
0.2000000000000455
100
AcDbArc
 50
270.0
 51
0.0
  0
ARC
  5
9F
330
1F
100
AcDbEntity
  8
0
  6
CONTINUOUS
 62
     7
100
AcDbCircle
 10
262.3094806217
 20
415.9202472153
 30
0.0
 40
0.2000000000000455
100
AcDbArc
 50
180.0
 51
270.0
  0
ARC
  5
A0
330
1F
100
AcDbEntity
  8
0
  6
CONTINUOUS
 62
     7
100
AcDbCircle
 10
243.4094806217
 20
415.9202472153
 30
0.0
 40
0.2000000000000455
100
AcDbArc
 50
270.0
 51
0.0
  0
ARC
  5
A1
330
1F
100
AcDbEntity
  8
0
  6
CONTINUOUS
 62
     7
100
AcDbCircle
 10
240.3094806217
 20
415.9202472153
 30
0.0
 40
0.2000000000000455
100
AcDbArc
 50
180.0
 51
270.0
  0
ARC
  5
A2
330
1F
100
AcDbEntity
  8
0
  6
CONTINUOUS
 62
     7
100
AcDbCircle
 10
221.4094806217
 20
415.9202472153
 30
0.0
 40
0.2000000000000455
100
AcDbArc
 50
270.0
 51
0.0
  0
ARC
  5
A3
330
1F
100
AcDbEntity
  8
0
  6
CONTINUOUS
 62
     7
100
AcDbCircle
 10
218.3094806217
 20
415.9202472153
 30
0.0
 40
0.2000000000000455
100
AcDbArc
 50
180.0
 51
270.0
  0
LINE
  5
A4
330
1F
100
AcDbEntity
  8
0
  6
CONTINUOUS
 62
     7
100
AcDbLine
 10
199.6094807409
 20
415.9202471643
 30
0.0
 11
199.6094807409
 21
418.2202472153
 31
0.0
  0
LINE
  5
A5
330
1F
100
AcDbEntity
  8
0
  6
CONTINUOUS
 62
     7
100
AcDbLine
 10
196.1094810985
 20
418.2202472153
 30
0.0
 11
196.1094810985
 21
415.9202471643
 31
0.0
  0
LINE
  5
A6
330
1F
100
AcDbEntity
  8
0
  6
CONTINUOUS
 62
     7
100
AcDbLine
 10
177.6094808601
 20
415.9202471643
 30
0.0
 11
177.6094808601
 21
418.2202472153
 31
0.0
  0
LINE
  5
A7
330
1F
100
AcDbEntity
  8
0
  6
CONTINUOUS
 62
     7
100
AcDbLine
 10
174.1094812177
 20
418.2202472153
 30
0.0
 11
174.1094812177
 21
415.9202471643
 31
0.0
  0
ARC
  5
A8
330
1F
100
AcDbEntity
  8
0
  6
CONTINUOUS
 62
     7
100
AcDbCircle
 10
155.4094806217
 20
415.9202472153
 30
0.0
 40
0.2000000000000455
100
AcDbArc
 50
270.0
 51
0.0
  0
ARC
  5
A9
330
1F
100
AcDbEntity
  8
0
  6
CONTINUOUS
 62
     7
100
AcDbCircle
 10
152.3094806217
 20
415.9202472153
 30
0.0
 40
0.2000000000000455
100
AcDbArc
 50
180.0
 51
270.0
  0
ARC
  5
AA
330
1F
100
AcDbEntity
  8
0
  6
CONTINUOUS
 62
     7
100
AcDbCircle
 10
309.4094806217
 20
415.9202472153
 30
0.0
 40
0.2000000000000455
100
AcDbArc
 50
270.0
 51
0.0
  0
ARC
  5
AB
330
1F
100
AcDbEntity
  8
0
  6
CONTINUOUS
 62
     7
100
AcDbCircle
 10
306.3094806217
 20
415.9202472153
 30
0.0
 40
0.2000000000000455
100
AcDbArc
 50
180.0
 51
270.0
  0
ARC
  5
AC
330
1F
100
AcDbEntity
  8
0
  6
CONTINUOUS
 62
     7
100
AcDbCircle
 10
331.4094806217
 20
415.9202472153
 30
0.0
 40
0.2000000000000455
100
AcDbArc
 50
270.0
 51
0.0
  0
ARC
  5
AD
330
1F
100
AcDbEntity
  8
0
  6
CONTINUOUS
 62
     7
100
AcDbCircle
 10
328.3094806217
 20
415.9202472153
 30
0.0
 40
0.2000000000000455
100
AcDbArc
 50
180.0
 51
270.0
  0
ARC
  5
AE
330
1F
100
AcDbEntity
  8
0
  6
CONTINUOUS
 62
     7
100
AcDbCircle
 10
177.4094806217
 20
415.9202472153
 30
0.0
 40
0.2000000000000455
100
AcDbArc
 50
270.0
 51
0.0
  0
ARC
  5
AF
330
1F
100
AcDbEntity
  8
0
  6
CONTINUOUS
 62
     7
100
AcDbCircle
 10
174.3094806217
 20
415.9202472153
 30
0.0
 40
0.2000000000000455
100
AcDbArc
 50
180.0
 51
270.0
  0
ARC
  5
B0
330
1F
100
AcDbEntity
  8
0
  6
CONTINUOUS
 62
     7
100
AcDbCircle
 10
287.4094806217
 20
415.9202472153
 30
0.0
 40
0.2000000000000455
100
AcDbArc
 50
270.0
 51
0.0
  0
ARC
  5
B1
330
1F
100
AcDbEntity
  8
0
  6
CONTINUOUS
 62
     7
100
AcDbCircle
 10
284.3094806217
 20
415.9202472153
 30
0.0
 40
0.2000000000000455
100
AcDbArc
 50
180.0
 51
270.0
  0
ARC
  5
B2
330
1F
100
AcDbEntity
  8
0
  6
CONTINUOUS
 62
     7
100
AcDbCircle
 10
199.4094806217
 20
415.9202472153
 30
0.0
 40
0.2000000000000455
100
AcDbArc
 50
270.0
 51
0.0
  0
ARC
  5
B3
330
1F
100
AcDbEntity
  8
0
  6
CONTINUOUS
 62
     7
100
AcDbCircle
 10
196.3094806217
 20
415.9202472153
 30
0.0
 40
0.2000000000000455
100
AcDbArc
 50
180.0
 51
270.0
  0
ARC
  5
B4
330
1F
100
AcDbEntity
  8
0
  6
CONTINUOUS
 62
     7
100
AcDbCircle
 10
268.3594806218
 20
434.7202472153
 30
0.0
 40
1.499999999926786
100
AcDbArc
 50
270.0000000018
 51
289.6148291729
  0
ARC
  5
B5
330
1F
100
AcDbEntity
  8
0
  6
CONTINUOUS
 62
     7
100
AcDbCircle
 10
237.3594806215
 20
434.7202472153
 30
0.0
 40
1.499999999926786
100
AcDbArc
 50
250.2327775107
 51
269.9999999982
  0
LINE
  5
B6
330
1F
100
AcDbEntity
  8
0
  6
CONTINUOUS
 62
     7
100
AcDbLine
 10
242.2333256699
 20
454.3262674275
 30
0.0
 11
241.3997221165
 21
453.0581301811
 31
0.0
  0
SPLINE
  5
B7
330
1F
100
AcDbEntity
  8
0
  6
CONTINUOUS
 62
     7
100
AcDbSpline
210
0.0
220
0.0
230
1.0
 70
     8
 71
     3
 72
    13
 73
     9
 74
     0
 42
0.000000001
 43
0.00000001
 40
0.0
 40
0.0
 40
0.0
 40
0.0
 40
0.2390257618183529
 40
0.3678576680584283
 40
0.4995195735549817
 40
0.6312516728525851
 40
0.7602883860164181
 40
1.0
 40
1.0
 40
1.0
 40
1.0
 10
238.3682494409526
 20
453.220247364353
 30
0.0
 10
238.2418646019398
 20
453.2078576284494
 30
0.0
 10
238.0473599100458
 20
453.1887899793278
 30
0.0
 10
237.812572347001
 20
453.0650770071575
 30
0.0
 10
237.6506919983046
 20
452.9361775020174
 30
0.0
 10
237.5200993746405
 20
452.775539966379
 30
0.0
 10
237.3938265272354
 20
452.5415752170366
 30
0.0
 10
237.3730118425692
 20
452.3468401593466
 30
0.0
 10
237.3594808749999
 20
452.2202490630854
 30
0.0
  0
LINE
  5
B8
330
1F
100
AcDbEntity
  8
0
  6
CONTINUOUS
 62
     7
100
AcDbLine
 10
268.3594803684
 20
441.22024726
 30
0.0
 11
268.3594803684
 21
452.2202490631
 31
0.0
  0
LINE
  5
B9
330
1F
100
AcDbEntity
  8
0
  6
CONTINUOUS
 62
     7
100
AcDbLine
 10
237.359480875
 20
452.2202490631
 30
0.0
 11
237.359480875
 21
441.22024726
 31
0.0
  0
SPLINE
  5
BA
330
1F
100
AcDbEntity
  8
0
  6
CONTINUOUS
 62
     7
100
AcDbSpline
210
0.0
220
0.0
230
1.0
 70
     8
 71
     3
 72
    13
 73
     9
 74
     0
 42
0.000000001
 43
0.00000001
 40
0.0
 40
0.0
 40
0.0
 40
0.0
 40
0.2397116139835818
 40
0.368748327147415
 40
0.5004804264450183
 40
0.6321423319415717
 40
0.7609742381816471
 40
0.9999999999999999
 40
0.9999999999999999
 40
0.9999999999999999
 40
0.9999999999999999
 10
268.3594803683604
 20
452.2202490630854
 30
0.0
 10
268.345949400791
 20
452.3468401593466
 30
0.0
 10
268.3251347161249
 20
452.5415752170366
 30
0.0
 10
268.1988618687197
 20
452.775539966379
 30
0.0
 10
268.0682692450557
 20
452.9361775020175
 30
0.0
 10
267.9063888963593
 20
453.0650770071575
 30
0.0
 10
267.6716013333144
 20
453.1887899793278
 30
0.0
 10
267.4770966414204
 20
453.2078576284495
 30
0.0
 10
267.3507118024076
 20
453.220247364353
 30
0.0
  0
LINE
  5
BB
330
1F
100
AcDbEntity
  8
0
  6
CONTINUOUS
 62
     7
100
AcDbLine
 10
264.859480726
 20
459.9702461425
 30
0.0
 11
264.859480726
 21
467.7202469471
 31
0.0
  0
LINE
  5
BC
330
1F
100
AcDbEntity
  8
0
  6
CONTINUOUS
 62
     7
100
AcDbLine
 10
240.8594805174
 20
467.7202469471
 30
0.0
 11
240.8594805174
 21
459.9702461425
 31
0.0
  0
LINE
  5
BD
330
1F
100
AcDbEntity
  8
0
  6
CONTINUOUS
 62
     7
100
AcDbLine
 10
264.1369662605
 20
453.1740910176
 30
0.0
 11
263.6078455843
 21
454.2327477399
 31
0.0
  0
LINE
  5
BE
330
1F
100
AcDbEntity
  8
0
  6
CONTINUOUS
 62
     7
100
AcDbLine
 10
127.8594806217
 20
418.2202472153
 30
0.0
 11
377.8594806217
 21
418.2202472153
 31
0.0
  0
LINE
  5
BF
330
1F
100
AcDbEntity
  8
0
  6
CONTINUOUS
 62
     7
100
AcDbLine
 10
127.8594806217
 20
426.2202475953
 30
0.0
 11
127.8594806217
 21
418.2202472153
 31
0.0
  0
LINE
  5
C0
330
1F
100
AcDbEntity
  8
0
  6
CONTINUOUS
 62
     7
100
AcDbLine
 10
127.8594806217
 20
426.2202475953
 30
0.0
 11
377.8594806217
 21
426.2202475953
 31
0.0
  0
LINE
  5
C1
330
1F
100
AcDbEntity
  8
0
  6
CONTINUOUS
 62
     7
100
AcDbLine
 10
377.8594806217
 20
426.2202475953
 30
0.0
 11
377.8594806217
 21
418.2202472153
 31
0.0
  0
LINE
  5
C2
330
1F
100
AcDbEntity
  8
0
  6
CONTINUOUS
 62
     7
100
AcDbLine
 10
350.3094836496
 20
415.7202472712
 30
0.0
 11
353.4094839715
 21
415.7202472712
 31
0.0
  0
LINE
  5
C3
330
1F
100
AcDbEntity
  8
0
  6
CONTINUOUS
 62
     7
100
AcDbLine
 10
262.3094804011
 20
415.7202472712
 30
0.0
 11
265.409480723
 21
415.7202472712
 31
0.0
  0
LINE
  5
C4
330
1F
100
AcDbEntity
  8
0
  6
CONTINUOUS
 62
     7
100
AcDbLine
 10
240.3094805204
 20
415.7202472712
 30
0.0
 11
243.4094808422
 21
415.7202472712
 31
0.0
  0
LINE
  5
C5
330
1F
100
AcDbEntity
  8
0
  6
CONTINUOUS
 62
     7
100
AcDbLine
 10
218.3094806396
 20
415.7202472712
 30
0.0
 11
221.4094809614
 21
415.7202472712
 31
0.0
  0
LINE
  5
C6
330
1F
100
AcDbEntity
  8
0
  6
CONTINUOUS
 62
     7
100
AcDbLine
 10
152.3094772719
 20
415.7202472712
 30
0.0
 11
155.4094775938
 21
415.7202472712
 31
0.0
  0
LINE
  5
C7
330
1F
100
AcDbEntity
  8
0
  6
CONTINUOUS
 62
     7
100
AcDbLine
 10
306.3094801627
 20
415.7202472712
 30
0.0
 11
309.4094804846
 21
415.7202472712
 31
0.0
  0
LINE
  5
C8
330
1F
100
AcDbEntity
  8
0
  6
CONTINUOUS
 62
     7
100
AcDbLine
 10
328.3094837688
 20
415.7202472712
 30
0.0
 11
331.4094840907
 21
415.7202472712
 31
0.0
  0
LINE
  5
C9
330
1F
100
AcDbEntity
  8
0
  6
CONTINUOUS
 62
     7
100
AcDbLine
 10
174.3094771527
 20
415.7202472712
 30
0.0
 11
177.4094774746
 21
415.7202472712
 31
0.0
  0
LINE
  5
CA
330
1F
100
AcDbEntity
  8
0
  6
CONTINUOUS
 62
     7
100
AcDbLine
 10
284.3094802819
 20
415.7202472712
 30
0.0
 11
287.4094806038
 21
415.7202472712
 31
0.0
  0
LINE
  5
CB
330
1F
100
AcDbEntity
  8
0
  6
CONTINUOUS
 62
     7
100
AcDbLine
 10
196.3094807588
 20
415.7202472712
 30
0.0
 11
199.4094810806
 21
415.7202472712
 31
0.0
  0
SPLINE
  5
CC
330
1F
100
AcDbEntity
  8
0
  6
CONTINUOUS
 62
     7
100
AcDbSpline
210
0.0
220
0.0
230
1.0
 70
    24
 71
     3
 72
    22
 73
    18
 74
     0
 42
0.000000001
 43
0.00000001
 40
0.0
 40
0.0
 40
0.0
 40
0.0
 40
0.125
 40
0.125
 40
0.25
 40
0.25
 40
0.375
 40
0.375
 40
0.5
 40
0.5
 40
0.625
 40
0.625
 40
0.75
 40
0.75
 40
0.875
 40
0.875
 40
1.0
 40
1.0
 40
1.0
 40
1.0
 10
252.9384790946801
 20
441.2202472153415
 30
0.0
 10
251.9952121858919
 20
441.2202472153415
 30
0.0
 10
251.0158767448907
 20
441.2202472153415
 30
0.0
 10
249.0305129016877
 20
441.2202472153415
 30
0.0
 10
248.0246820186688
 20
441.2202472153415
 30
0.0
 10
246.0475504378221
 20
441.2202472153415
 30
0.0
 10
245.0766509104854
 20
441.2202472153415
 30
0.0
 10
243.2373091222715
 20
441.2202472153415
 30
0.0
 10
242.3693505130648
 20
441.2202472153415
 30
0.0
 10
240.79665695623
 20
441.2202472153415
 30
0.0
 10
240.0922848742698
 20
441.2202472153415
 30
0.0
 10
238.8868685625814
 20
441.2202472153415
 30
0.0
 10
238.3859134987063
 20
441.2202472153415
 30
0.0
 10
237.5995234122752
 20
441.2202472153415
 30
0.0
 10
237.3139046349185
 20
441.2202472153415
 30
0.0
 10
236.9440464411688
 20
441.2202472153415
 30
0.0
 10
236.8594806214094
 20
441.2202472153415
 30
0.0
 10
236.8594806211986
 20
441.2202472153415
 30
0.0
  0
SPLINE
  5
CD
330
1F
100
AcDbEntity
  8
0
  6
CONTINUOUS
 62
     7
100
AcDbSpline
210
0.0
220
0.0
230
1.0
 70
    24
 71
     3
 72
    22
 73
    18
 74
     0
 42
0.000000001
 43
0.00000001
 40
0.0
 40
0.0
 40
0.0
 40
0.0
 40
0.2500000000000007
 40
0.2500000000000007
 40
0.5000000000000013
 40
0.5000000000000013
 40
0.6250000000000018
 40
0.6250000000000018
 40
0.750000000000002
 40
0.750000000000002
 40
0.8750000000000022
 40
0.8750000000000022
 40
0.9375000000000019
 40
0.9375000000000019
 40
0.968750000000001
 40
0.968750000000001
 40
1.0
 40
1.0
 40
1.0
 40
1.0
 10
236.8594806216801
 20
441.2202472153415
 30
0.0
 10
236.8594806216801
 20
441.2202472153415
 30
0.0
 10
236.8594806216801
 20
441.2211050050952
 30
0.0
 10
236.8594806216801
 20
441.2142227965222
 30
0.0
 10
236.8594806216801
 20
441.2066978908575
 30
0.0
 10
236.8594806216801
 20
441.1647099973873
 30
0.0
 10
236.8594806216801
 20
441.1454668052418
 30
0.0
 10
236.8594806216801
 20
441.0881697803601
 30
0.0
 10
236.8594806216801
 20
441.0504977698357
 30
0.0
 10
236.8594806216801
 20
440.9408046893682
 30
0.0
 10
236.8594806216818
 20
440.8700472212162
 30
0.0
 10
236.8594806216818
 20
440.7034994800536
 30
0.0
 10
236.8594806216804
 20
440.6381118306202
 30
0.0
 10
236.8594806216804
 20
440.5073448735869
 30
0.0
 10
236.8594806216801
 20
440.4578513191708
 30
0.0
 10
236.8594806216801
 20
440.3473416479251
 30
0.0
 10
236.8594806216801
 20
440.2846934908815
 30
0.0
 10
236.8594806216801
 20
440.2202472161711
 30
0.0
  0
SPLINE
  5
CE
330
1F
100
AcDbEntity
  8
0
  6
CONTINUOUS
 62
     7
100
AcDbSpline
210
0.0
220
0.0
230
1.0
 70
    24
 71
     3
 72
    22
 73
    18
 74
     0
 42
0.000000001
 43
0.00000001
 40
0.0
 40
0.0
 40
0.0
 40
0.0
 40
0.125
 40
0.125
 40
0.25
 40
0.25
 40
0.375
 40
0.375
 40
0.5
 40
0.5
 40
0.625
 40
0.625
 40
0.75
 40
0.75
 40
0.875
 40
0.875
 40
1.0
 40
1.0
 40
1.0
 40
1.0
 10
268.8594806219106
 20
441.2202472153415
 30
0.0
 10
268.8594806219463
 20
441.2202472153415
 30
0.0
 10
268.7757521000119
 20
441.2202472153415
 30
0.0
 10
268.4099764545347
 20
441.2202472153415
 30
0.0
 10
268.127614278761
 20
441.2202472153415
 30
0.0
 10
267.3505348557227
 20
441.2202472153415
 30
0.0
 10
266.8556410598537
 20
441.2202472153415
 30
0.0
 10
265.6648663652541
 20
441.2202472153415
 30
0.0
 10
264.9690712431939
 20
441.2202472153415
 30
0.0
 10
263.4150259248754
 20
441.2202472153415
 30
0.0
 10
262.5571245254873
 20
441.2202472153415
 30
0.0
 10
260.7378905613118
 20
441.2202472153415
 30
0.0
 10
259.7770247105361
 20
441.2202472153415
 30
0.0
 10
257.8184772703506
 20
441.2202472153415
 30
0.0
 10
256.8211862983027
 20
441.2202472153415
 30
0.0
 10
254.8504115074487
 20
441.2202472153415
 30
0.0
 10
253.8771244653534
 20
441.2202472153415
 30
0.0
 10
252.9384790946809
 20
441.2202472153415
 30
0.0
  0
SPLINE
  5
CF
330
1F
100
AcDbEntity
  8
0
  6
CONTINUOUS
 62
     7
100
AcDbSpline
210
0.0
220
0.0
230
1.0
 70
    24
 71
     3
 72
    22
 73
    18
 74
     0
 42
0.000000001
 43
0.00000001
 40
0.0
 40
0.0
 40
0.0
 40
0.0
 40
0.03125
 40
0.03125
 40
0.0625
 40
0.0625
 40
0.1249999999999997
 40
0.1249999999999997
 40
0.2499999999999999
 40
0.2499999999999999
 40
0.3749999999999999
 40
0.3749999999999999
 40
0.4999999999999999
 40
0.4999999999999999
 40
0.7499999999999999
 40
0.7499999999999999
 40
1.0
 40
1.0
 40
1.0
 40
1.0
 10
268.8594806216801
 20
440.2202472160051
 30
0.0
 10
268.8594806216801
 20
440.2853606862277
 30
0.0
 10
268.8594806216774
 20
440.3484404214761
 30
0.0
 10
268.8594806216774
 20
440.4602473714799
 30
0.0
 10
268.8594806216801
 20
440.5099917299261
 30
0.0
 10
268.8594806216801
 20
440.6405243613852
 30
0.0
 10
268.8594806216801
 20
440.7070254765604
 30
0.0
 10
268.8594806216801
 20
440.8726109214813
 30
0.0
 10
268.8594806216801
 20
440.9430700640078
 30
0.0
 10
268.8594806216801
 20
441.0520750490705
 30
0.0
 10
268.8594806216801
 20
441.0892292221029
 30
0.0
 10
268.8594806216801
 20
441.1458777086995
 30
0.0
 10
268.8594806216801
 20
441.1649944183256
 30
0.0
 10
268.8594806216801
 20
441.206730063768
 30
0.0
 10
268.8594806216801
 20
441.2142508610685
 30
0.0
 10
268.8594806216801
 20
441.2211009663583
 30
0.0
 10
268.8594806216801
 20
441.2202472153415
 30
0.0
 10
268.8594806216801
 20
441.2202472153415
 30
0.0
  0
LINE
  5
D0
330
1F
100
AcDbEntity
  8
0
  6
CONTINUOUS
 62
     7
100
AcDbLine
 10
237.359480875
 20
433.2202468801
 30
0.0
 11
237.8595498748
 21
433.2202468801
 31
0.0
  0
LINE
  5
D1
330
1F
100
AcDbEntity
  8
0
  6
CONTINUOUS
 62
     7
100
AcDbLine
 10
267.8594048493
 20
433.2202468801
 30
0.0
 11
268.3594803684
 21
433.2202468801
 31
0.0
  0
SPLINE
  5
D2
330
1F
100
AcDbEntity
  8
0
  6
CONTINUOUS
 62
     7
100
AcDbSpline
210
0.0
220
0.0
230
1.0
 70
    24
 71
     3
 72
    16
 73
    12
 74
     0
 42
0.000000001
 43
0.00000001
 40
0.0
 40
0.0
 40
0.0
 40
0.0
 40
0.1232483664698321
 40
0.3895903805378275
 40
0.5720004629094683
 40
0.6992440728602641
 40
0.8397512496093599
 40
0.8933093677629382
 40
0.9472629275476737
 40
0.9787411590876335
 40
1.0
 40
1.0
 40
1.0
 40
1.0
 10
268.8594813816393
 20
433.321188277315
 30
0.0
 10
268.8594813816393
 20
433.3165714216847
 30
0.0
 10
268.8594813816393
 20
433.3019774551
 30
0.0
 10
268.8594813816393
 20
433.358564602069
 30
0.0
 10
268.8594813816393
 20
433.479266270865
 30
0.0
 10
268.8594813816393
 20
433.662100647549
 30
0.0
 10
268.8594813816393
 20
433.8790256700217
 30
0.0
 10
268.8594813816393
 20
434.1540866430171
 30
0.0
 10
268.8594813816393
 20
434.3624775634827
 30
0.0
 10
268.8594813816393
 20
434.5664614424606
 30
0.0
 10
268.8594813816393
 20
434.6760648835523
 30
0.0
 10
268.8594813816393
 20
434.7202471259345
 30
0.0
  0
SPLINE
  5
D3
330
1F
100
AcDbEntity
  8
0
  6
CONTINUOUS
 62
     7
100
AcDbSpline
210
0.0
220
0.0
230
1.0
 70
    24
 71
     3
 72
    14
 73
    10
 74
     0
 42
0.000000001
 43
0.00000001
 40
0.0
 40
0.0
 40
0.0
 40
0.0
 40
0.0306706051530485
 40
0.0682339641501874
 40
0.1296115697904307
 40
0.2586680413640303
 40
0.4926185150832874
 40
0.7316303037015616
 40
1.0
 40
1.0
 40
1.0
 40
1.0
 10
236.8594798617209
 20
434.7202471259345
 30
0.0
 10
236.8594798617209
 20
434.6564283138301
 30
0.0
 10
236.8594798617209
 20
434.5144483784649
 30
0.0
 10
236.8594798617209
 20
434.2823947186276
 30
0.0
 10
236.8594798617209
 20
433.9789826742274
 30
0.0
 10
236.8594798617209
 20
433.6438312847739
 30
0.0
 10
236.8594798617209
 20
433.4307872897915
 30
0.0
 10
236.8594798617209
 20
433.3175464567563
 30
0.0
 10
236.8594798617209
 20
433.3199271779153
 30
0.0
 10
236.8594798617209
 20
433.3211864146699
 30
0.0
  0
LINE
  5
D4
330
1F
100
AcDbEntity
  8
0
  6
CONTINUOUS
 62
     7
100
AcDbLine
 10
268.8594813816
 20
434.7202471259
 30
0.0
 11
268.8594813816
 21
440.2202470961
 31
0.0
  0
LINE
  5
D5
330
1F
100
AcDbEntity
  8
0
  6
CONTINUOUS
 62
     7
100
AcDbLine
 10
236.8594798617
 20
440.2202470961
 30
0.0
 11
236.8594798617
 21
434.7202471259
 31
0.0
  0
SPLINE
  5
D6
330
1F
100
AcDbEntity
  8
0
  6
CONTINUOUS
 62
     7
100
AcDbSpline
210
0.0
220
0.0
230
1.0
 70
    24
 71
     3
 72
    10
 73
     6
 74
     0
 42
0.000000001
 43
0.00000001
 40
0.0
 40
0.0
 40
0.0
 40
0.0
 40
0.5
 40
0.5
 40
1.0
 40
1.0
 40
1.0
 40
1.0
 10
263.6078453226801
 20
454.2327472153415
 30
0.0
 10
263.6078453226801
 20
454.2327472153415
 30
0.0
 10
263.5071011512667
 20
454.1642073235645
 30
0.0
 10
263.0301389832827
 20
453.8397127655431
 30
0.0
 10
262.6523853911623
 20
453.5827133782858
 30
0.0
 10
262.1196102102435
 20
453.2202472154223
 30
0.0
  0
LINE
  5
D7
330
1F
100
AcDbEntity
  8
0
  6
CONTINUOUS
 62
     7
100
AcDbLine
 10
267.8594802864
 20
426.2202475953
 30
0.0
 11
267.8594802864
 21
433.2202468801
 31
0.0
  0
LINE
  5
D8
330
1F
100
AcDbEntity
  8
0
  6
CONTINUOUS
 62
     7
100
AcDbLine
 10
237.859480957
 20
426.2202475953
 30
0.0
 11
237.859480957
 21
433.2202468801
 31
0.0
  0
LINE
  5
D9
330
1F
100
AcDbEntity
  8
0
  6
CONTINUOUS
 62
     7
100
AcDbLine
 10
267.8594802864
 20
433.2202468801
 30
0.0
 11
237.859480957
 21
433.2202468801
 31
0.0
  0
SPLINE
  5
DA
330
1F
100
AcDbEntity
  8
0
  6
CONTINUOUS
 62
     7
100
AcDbSpline
210
0.0
220
0.0
230
1.0
 70
    24
 71
     3
 72
    15
 73
    11
 74
     0
 42
0.000000001
 43
0.00000001
 40
0.0
 40
0.0
 40
0.0
 40
0.0
 40
0.085287827899692
 40
0.1817381134625396
 40
0.2903590961593878
 40
0.4117221267913036
 40
0.5456259230950328
 40
0.6907449700084477
 40
0.8444051736626351
 40
1.0
 40
1.0
 40
1.0
 40
1.0
 10
252.8594806254493
 20
453.220247364353
 30
0.0
 10
252.2143966045286
 20
453.220247364353
 30
0.0
 10
250.8398000662648
 20
453.220247364353
 30
0.0
 10
248.6847566427643
 20
453.220247364353
 30
0.0
 10
246.3726758481876
 20
453.220247364353
 30
0.0
 10
244.0137123295308
 20
453.220247364353
 30
0.0
 10
241.7789306658058
 20
453.220247364353
 30
0.0
 10
239.9212807546006
 20
453.220247364353
 30
0.0
 10
238.621457166676
 20
453.220247364353
 30
0.0
 10
238.4521525880663
 20
453.220247364353
 30
0.0
 10
238.3669707350577
 20
453.220247364353
 30
0.0
  0
LINE
  5
DB
330
1F
100
AcDbEntity
  8
0
  6
CONTINUOUS
 62
     7
100
AcDbLine
 10
252.9380012137
 20
453.2202473644
 30
0.0
 11
252.8594806254
 21
453.2202473644
 31
0.0
  0
SPLINE
  5
DC
330
1F
100
AcDbEntity
  8
0
  6
CONTINUOUS
 62
     7
100
AcDbSpline
210
0.0
220
0.0
230
1.0
 70
    24
 71
     3
 72
    16
 73
    12
 74
     0
 42
0.000000001
 43
0.00000001
 40
0.0
 40
0.0
 40
0.0
 40
0.0
 40
0.0034634287100371
 40
0.161194345313303
 40
0.3141432042701751
 40
0.4584303481262728
 40
0.5914482296387753
 40
0.7119296466662282
 40
0.8197148374951034
 40
0.9153989594158566
 40
1.0
 40
1.0
 40
1.0
 40
1.0
 10
267.3497348450268
 20
453.220247364353
 30
0.0
 10
267.3530469683414
 20
453.220247364353
 30
0.0
 10
267.507199282127
 20
453.220247364353
 30
0.0
 10
267.0012711106627
 20
453.220247364353
 30
0.0
 10
265.8281147830068
 20
453.220247364353
 30
0.0
 10
263.9465102486946
 20
453.220247364353
 30
0.0
 10
261.7316714888877
 20
453.220247364353
 30
0.0
 10
259.3853635691069
 20
453.220247364353
 30
0.0
 10
257.0882441932367
 20
453.220247364353
 30
0.0
 10
254.9464523021672
 20
453.220247364353
 30
0.0
 10
253.5794730988871
 20
453.220247364353
 30
0.0
 10
252.9380012137494
 20
453.220247364353
 30
0.0
  0
LINE
  5
DD
330
1F
100
AcDbEntity
  8
0
  6
CONTINUOUS
 62
     7
100
AcDbLine
 10
240.8594805174
 20
467.7202469471
 30
0.0
 11
241.6094801746
 21
467.7202469471
 31
0.0
  0
LINE
  5
DE
330
1F
100
AcDbEntity
  8
0
  6
CONTINUOUS
 62
     7
100
AcDbLine
 10
241.6094801746
 20
467.7202469471
 30
0.0
 11
241.6094801746
 21
474.2202489439
 31
0.0
  0
LINE
  5
DF
330
1F
100
AcDbEntity
  8
0
  6
CONTINUOUS
 62
     7
100
AcDbLine
 10
241.6094801746
 20
474.2202489439
 30
0.0
 11
264.1094810687
 21
474.2202489439
 31
0.0
  0
LINE
  5
E0
330
1F
100
AcDbEntity
  8
0
  6
CONTINUOUS
 62
     7
100
AcDbLine
 10
264.1094810687
 20
474.2202489439
 30
0.0
 11
264.1094810687
 21
467.7202469471
 31
0.0
  0
LINE
  5
E1
330
1F
100
AcDbEntity
  8
0
  6
CONTINUOUS
 62
     7
100
AcDbLine
 10
264.1094810687
 20
467.7202469471
 30
0.0
 11
264.859480726
 21
467.7202469471
 31
0.0
  0
SPLINE
  5
E2
330
1F
100
AcDbEntity
  8
0
  6
CONTINUOUS
 62
     7
100
AcDbSpline
210
0.0
220
0.0
230
1.0
 70
     8
 71
     3
 72
    10
 73
     6
 74
     0
 42
0.000000001
 43
0.00000001
 40
0.0
 40
0.0
 40
0.0
 40
0.0
 40
0.5
 40
0.5
 40
1.0
 40
1.0
 40
1.0
 40
1.0
 10
264.1101556316801
 20
458.4095383953415
 30
0.0
 10
264.3353231506757
 20
458.5899765308851
 30
0.0
 10
264.5310853585802
 20
458.8310163725368
 30
0.0
 10
264.793801569081
 20
459.3782068603709
 30
0.0
 10
264.8594806216801
 20
459.6817020156432
 30
0.0
 10
264.8594806216801
 20
459.9702472153415
 30
0.0
  0
SPLINE
  5
E3
330
1F
100
AcDbEntity
  8
0
  6
CONTINUOUS
 62
     7
100
AcDbSpline
210
0.0
220
0.0
230
1.0
 70
     8
 71
     3
 72
    10
 73
     6
 74
     0
 42
0.000000001
 43
0.00000001
 40
0.0
 40
0.0
 40
0.0
 40
0.0
 40
0.5
 40
0.5
 40
1.0
 40
1.0
 40
1.0
 40
1.0
 10
241.6088056116801
 20
458.4095383953415
 30
0.0
 10
241.3836380926846
 20
458.5899765308851
 30
0.0
 10
241.1878758847801
 20
458.8310163725368
 30
0.0
 10
240.9251596742793
 20
459.3782068603709
 30
0.0
 10
240.8594806216801
 20
459.6817020156432
 30
0.0
 10
240.8594806216801
 20
459.9702472153415
 30
0.0
  0
SPLINE
  5
E4
330
1F
100
AcDbEntity
  8
0
  6
CONTINUOUS
 62
     7
100
AcDbSpline
210
0.0
220
0.0
230
1.0
 70
    24
 71
     3
 72
     8
 73
     4
 74
     0
 42
0.000000001
 43
0.00000001
 40
0.0
 40
0.0
 40
0.0
 40
0.0
 40
1.0
 40
1.0
 40
1.0
 40
1.0
 10
264.1094806216801
 20
474.7202472156651
 30
0.0
 10
264.1094806216801
 20
474.5940984138049
 30
0.0
 10
264.1094806216801
 20
474.4243542373402
 30
0.0
 10
264.1094806216801
 20
474.2202472169528
 30
0.0
  0
SPLINE
  5
E5
330
1F
100
AcDbEntity
  8
0
  6
CONTINUOUS
 62
     7
100
AcDbSpline
210
0.0
220
0.0
230
1.0
 70
    24
 71
     3
 72
     8
 73
     4
 74
     0
 42
0.000000001
 43
0.00000001
 40
0.0
 40
0.0
 40
0.0
 40
0.0
 40
1.0
 40
1.0
 40
1.0
 40
1.0
 10
241.6094806216801
 20
474.2202472152169
 30
0.0
 10
241.6094806216801
 20
474.4243542360492
 30
0.0
 10
241.6094806216801
 20
474.5940984120961
 30
0.0
 10
241.6094806216801
 20
474.7202472141374
 30
0.0
  0
LINE
  5
E6
330
1F
100
AcDbEntity
  8
0
  6
CONTINUOUS
 62
     7
100
AcDbLine
 10
241.6094801746
 20
474.7202462319
 30
0.0
 11
264.1094810687
 21
474.7202462319
 31
0.0
  0
SPLINE
  5
E7
330
1F
100
AcDbEntity
  8
0
  6
CONTINUOUS
 62
     7
100
AcDbSpline
210
0.0
220
0.0
230
1.0
 70
     8
 71
     3
 72
    14
 73
    10
 74
     0
 42
0.000000001
 43
0.00000001
 40
0.0
 40
0.0
 40
0.0
 40
0.0
 40
0.25
 40
0.25
 40
0.5
 40
0.5
 40
0.75
 40
0.75
 40
1.0
 40
1.0
 40
1.0
 40
1.0
 10
264.1101556316801
 20
458.4095383953415
 30
0.0
 10
263.8436413759711
 20
458.1959670263861
 30
0.0
 10
263.5954204109572
 20
457.9201461936336
 30
0.0
 10
263.2092838650487
 20
457.2656693933584
 30
0.0
 10
263.0732828478959
 20
456.8875760599361
 30
0.0
 10
262.9605432099783
 20
456.1061684109761
 30
0.0
 10
262.9841216023928
 20
455.7050513397062
 30
0.0
 10
263.1695085824082
 20
454.9681164837817
 30
0.0
 10
263.3296397285841
 20
454.6333795791936
 30
0.0
 10
263.5249142356801
 20
454.3531824253415
 30
0.0
  0
SPLINE
  5
E8
330
1F
100
AcDbEntity
  8
0
  6
CONTINUOUS
 62
     7
100
AcDbSpline
210
0.0
220
0.0
230
1.0
 70
     8
 71
     3
 72
    14
 73
    10
 74
     0
 42
0.000000001
 43
0.00000001
 40
0.0
 40
0.0
 40
0.0
 40
0.0
 40
0.25
 40
0.25
 40
0.5
 40
0.5
 40
0.75
 40
0.75
 40
1.0
 40
1.0
 40
1.0
 40
1.0
 10
241.6088056116801
 20
458.4095383953415
 30
0.0
 10
241.8753198673892
 20
458.1959670263861
 30
0.0
 10
242.1235408324031
 20
457.9201461936336
 30
0.0
 10
242.5096773783115
 20
457.2656693933584
 30
0.0
 10
242.6456783954643
 20
456.8875760599361
 30
0.0
 10
242.7584180333819
 20
456.1061684109761
 30
0.0
 10
242.7348396409674
 20
455.7050513397062
 30
0.0
 10
242.549452660952
 20
454.9681164837817
 30
0.0
 10
242.3893215147761
 20
454.6333795791936
 30
0.0
 10
242.1940470076801
 20
454.3531824253415
 30
0.0
  0
LINE
  5
E9
330
1F
100
AcDbEntity
  8
0
  6
CONTINUOUS
 62
     8
100
AcDbLine
 10
353.6094799064
 20
415.9202471643
 30
0.0
 11
350.1094802641
 21
415.9202471643
 31
0.0
  0
LINE
  5
EA
330
1F
100
AcDbEntity
  8
0
  6
CONTINUOUS
 62
     8
100
AcDbLine
 10
265.6094803833
 20
415.9202471643
 30
0.0
 11
262.1094807409
 21
415.9202471643
 31
0.0
  0
LINE
  5
EB
330
1F
100
AcDbEntity
  8
0
  6
CONTINUOUS
 62
     8
100
AcDbLine
 10
243.6094805025
 20
415.9202471643
 30
0.0
 11
240.1094808601
 21
415.9202471643
 31
0.0
  0
LINE
  5
EC
330
1F
100
AcDbEntity
  8
0
  6
CONTINUOUS
 62
     8
100
AcDbLine
 10
221.6094806217
 20
415.9202471643
 30
0.0
 11
218.1094809793
 21
415.9202471643
 31
0.0
  0
LINE
  5
ED
330
1F
100
AcDbEntity
  8
0
  6
CONTINUOUS
 62
     8
100
AcDbLine
 10
155.6094809793
 20
415.9202471643
 30
0.0
 11
152.1094813369
 21
415.9202471643
 31
0.0
  0
LINE
  5
EE
330
1F
100
AcDbEntity
  8
0
  6
CONTINUOUS
 62
     8
100
AcDbLine
 10
331.6094800256
 20
415.9202471643
 30
0.0
 11
328.1094803833
 21
415.9202471643
 31
0.0
  0
LINE
  5
EF
330
1F
100
AcDbEntity
  8
0
  6
CONTINUOUS
 62
     8
100
AcDbLine
 10
309.6094801448
 20
415.9202471643
 30
0.0
 11
306.1094805025
 21
415.9202471643
 31
0.0
  0
LINE
  5
F0
330
1F
100
AcDbEntity
  8
0
  6
CONTINUOUS
 62
     8
100
AcDbLine
 10
287.6094802641
 20
415.9202471643
 30
0.0
 11
284.1094806217
 21
415.9202471643
 31
0.0
  0
LINE
  5
F1
330
1F
100
AcDbEntity
  8
0
  6
CONTINUOUS
 62
     8
100
AcDbLine
 10
199.6094807409
 20
415.9202471643
 30
0.0
 11
196.1094810985
 21
415.9202471643
 31
0.0
  0
LINE
  5
F2
330
1F
100
AcDbEntity
  8
0
  6
CONTINUOUS
 62
     8
100
AcDbLine
 10
177.6094808601
 20
415.9202471643
 30
0.0
 11
174.1094812177
 21
415.9202471643
 31
0.0
  0
LINE
  5
F3
330
1F
100
AcDbEntity
  8
0
  6
CONTINUOUS
 62
     8
100
AcDbLine
 10
241.6088058971
 20
458.4095394972
 30
0.0
 11
264.1101553463
 21
458.4095394972
 31
0.0
  0
SPLINE
  5
F4
330
1F
100
AcDbEntity
  8
0
  6
CONTINUOUS
 62
     7
100
AcDbSpline
210
0.0
220
0.0
230
1.0
 70
    24
 71
     3
 72
     8
 73
     4
 74
     0
 42
0.000000001
 43
0.00000001
 40
0.0
 40
0.0
 40
0.0
 40
0.0
 40
1.0
 40
1.0
 40
1.0
 40
1.0
 10
241.6094806215287
 20
216.9675879779265
 30
0.0
 10
241.6094806215287
 20
216.3810487248554
 30
0.0
 10
241.6094806216801
 20
215.7849161374331
 30
0.0
 10
241.6094806216801
 20
215.1766127034507
 30
0.0
  0
ARC
  5
F5
330
1F
100
AcDbEntity
  8
0
  6
CONTINUOUS
 62
     7
100
AcDbCircle
 10
252.8594806217
 20
212.7917647059
 30
0.0
 40
12.00000000014072
100
AcDbArc
 50
20.3641348111
 51
159.6358651961
  0
SPLINE
  5
F6
330
1F
100
AcDbEntity
  8
0
  6
CONTINUOUS
 62
     7
100
AcDbSpline
210
0.0
220
0.0
230
1.0
 70
    24
 71
     3
 72
     8
 73
     4
 74
     0
 42
0.000000001
 43
0.00000001
 40
0.0
 40
0.0
 40
0.0
 40
0.0
 40
1.0
 40
1.0
 40
1.0
 40
1.0
 10
264.1094806218029
 20
216.9675879788319
 30
0.0
 10
264.1094806218029
 20
216.3810487282344
 30
0.0
 10
264.1094806216801
 20
215.784916143427
 30
0.0
 10
264.1094806216801
 20
215.1766127120802
 30
0.0
  0
ARC
  5
F7
330
1F
100
AcDbEntity
  8
0
  6
CONTINUOUS
 62
     7
100
AcDbCircle
 10
252.8594806227
 20
212.7917647059
 30
0.0
 40
11.49999999986975
100
AcDbArc
 50
11.9687455737
 51
168.0312544724
  0
LINE
  5
F8
330
1F
100
AcDbEntity
  8
0
  6
CONTINUOUS
 62
     7
100
AcDbLine
 10
264.1094810687
 20
210.4069167445
 30
0.0
 11
264.1094810687
 21
215.1766126672
 31
0.0
  0
ARC
  5
F9
330
1F
100
AcDbEntity
  8
0
  6
CONTINUOUS
 62
     7
100
AcDbCircle
 10
252.8594806227
 20
212.7917647059
 30
0.0
 40
11.50000000060113
100
AcDbArc
 50
191.9687455448
 51
348.0312544213
  0
LINE
  5
FA
330
1F
100
AcDbEntity
  8
0
  6
CONTINUOUS
 62
     7
100
AcDbLine
 10
241.6094801746
 20
215.1766126672
 30
0.0
 11
241.6094801746
 21
210.4069167445
 31
0.0
  0
ARC
  5
FB
330
1F
100
AcDbEntity
  8
0
  6
CONTINUOUS
 62
     7
100
AcDbCircle
 10
252.8594806217
 20
212.7917647059
 30
0.0
 40
11.99999999966309
100
AcDbArc
 50
200.3641347923
 51
339.6358652119
  0
SPLINE
  5
FC
330
1F
100
AcDbEntity
  8
0
  6
CONTINUOUS
 62
     7
100
AcDbSpline
210
0.0
220
0.0
230
1.0
 70
    24
 71
     3
 72
     8
 73
     4
 74
     0
 42
0.000000001
 43
0.00000001
 40
0.0
 40
0.0
 40
0.0
 40
0.0
 40
1.0
 40
1.0
 40
1.0
 40
1.0
 10
241.6094806216801
 20
208.6159414360959
 30
0.0
 10
241.6094806216801
 20
209.202480686388
 30
0.0
 10
241.6094806216801
 20
209.7986132702525
 30
0.0
 10
241.6094806216801
 20
210.406916701251
 30
0.0
  0
SPLINE
  5
FD
330
1F
100
AcDbEntity
  8
0
  6
CONTINUOUS
 62
     7
100
AcDbSpline
210
0.0
220
0.0
230
1.0
 70
    24
 71
     3
 72
     8
 73
     4
 74
     0
 42
0.000000001
 43
0.00000001
 40
0.0
 40
0.0
 40
0.0
 40
0.0
 40
1.0
 40
1.0
 40
1.0
 40
1.0
 10
264.1094806216801
 20
210.4069166991831
 30
0.0
 10
264.1094806216801
 20
209.7986132696667
 30
0.0
 10
264.1094806216801
 20
209.2024806845688
 30
0.0
 10
264.1094806216801
 20
208.6159414356962
 30
0.0
  0
ARC
  5
FE
330
1F
100
AcDbEntity
  8
0
  6
CONTINUOUS
 62
     7
100
AcDbCircle
 10
252.8594806217
 20
212.7917647059
 30
0.0
 40
12.00000000010246
100
AcDbArc
 50
339.6358652076
 51
20.3641348091
  0
ARC
  5
FF
330
1F
100
AcDbEntity
  8
0
  6
CONTINUOUS
 62
     7
100
AcDbCircle
 10
252.8594806217
 20
212.7917647059
 30
0.0
 40
11.99999999992666
100
AcDbArc
 50
159.6358651957
 51
200.3641347981
  0
ARC
  5
100
330
1F
100
AcDbEntity
  8
0
  6
CONTINUOUS
 62
     7
100
AcDbCircle
 10
252.8594806217
 20
212.7917647059
 30
0.0
 40
15.5000000000682
100
AcDbArc
 50
270.3102703984
 51
90.3102703735
  0
ARC
  5
101
330
1F
100
AcDbEntity
  8
0
  6
CONTINUOUS
 62
     7
100
AcDbCircle
 10
252.8594806217
 20
212.7917647059
 30
0.0
 40
15.5000000000682
100
AcDbArc
 50
90.3102703735
 51
270.3102703984
  0
ARC
  5
102
330
1F
100
AcDbEntity
  8
0
  6
CONTINUOUS
 62
     7
100
AcDbCircle
 10
252.8594806218
 20
212.7917647059
 30
0.0
 40
16.99999999993056
100
AcDbArc
 50
19.7499227966
 51
90.2828935949
  0
SPLINE
  5
103
330
1F
100
AcDbEntity
  8
0
  6
CONTINUOUS
 62
     7
100
AcDbSpline
210
0.0
220
0.0
230
1.0
 70
    24
 71
     3
 72
    22
 73
    18
 74
     0
 42
0.000000001
 43
0.00000001
 40
0.0
 40
0.0
 40
0.0
 40
0.0
 40
0.2499999999999995
 40
0.2499999999999995
 40
0.499999999999999
 40
0.499999999999999
 40
0.6249999999999989
 40
0.6249999999999989
 40
0.7499999999999984
 40
0.7499999999999984
 40
0.8749999999999981
 40
0.8749999999999981
 40
0.9374999999999983
 40
0.9374999999999983
 40
0.9687499999999992
 40
0.9687499999999992
 40
1.0
 40
1.0
 40
1.0
 40
1.0
 10
268.8594806216801
 20
212.7917647065074
 30
0.0
 10
268.8594806216801
 20
213.2977116800091
 30
0.0
 10
268.8594806216801
 20
213.8036619913151
 30
0.0
 10
268.8594806216801
 20
214.815529158486
 30
0.0
 10
268.8594806216801
 20
215.3215770758768
 30
0.0
 10
268.8594806216801
 20
216.0787480737858
 30
0.0
 10
268.8594806216801
 20
216.3308421865675
 30
0.0
 10
268.8594806216801
 20
216.8339685018067
 30
0.0
 10
268.8594806216801
 20
217.0843540818865
 30
0.0
 10
268.8594806216801
 20
217.5778631261047
 30
0.0
 10
268.8594806216784
 20
217.8244654592253
 30
0.0
 10
268.8594806216784
 20
218.1655082786027
 30
0.0
 10
268.8594806216798
 20
218.2748109738158
 30
0.0
 10
268.8594806216798
 20
218.4140492200323
 30
0.0
 10
268.8594806216801
 20
218.4559587256752
 30
0.0
 10
268.8594806216801
 20
218.5170800662293
 30
0.0
 10
268.8594806216801
 20
218.5363273524151
 30
0.0
 10
268.8594806216801
 20
218.5363273525733
 30
0.0
  0
ARC
  5
104
330
1F
100
AcDbEntity
  8
0
  6
CONTINUOUS
 62
     7
100
AcDbCircle
 10
252.8594806217
 20
212.7917647059
 30
0.0
 40
17.00000000011045
100
AcDbArc
 50
90.2828935944
 51
160.2500771917
  0
SPLINE
  5
105
330
1F
100
AcDbEntity
  8
0
  6
CONTINUOUS
 62
     7
100
AcDbSpline
210
0.0
220
0.0
230
1.0
 70
    24
 71
     3
 72
    22
 73
    18
 74
     0
 42
0.000000001
 43
0.00000001
 40
0.0
 40
0.0
 40
0.0
 40
0.0
 40
0.0312500000000003
 40
0.0312500000000003
 40
0.0625000000000006
 40
0.0625000000000006
 40
0.1250000000000008
 40
0.1250000000000008
 40
0.2500000000000006
 40
0.2500000000000006
 40
0.3750000000000004
 40
0.3750000000000004
 40
0.5000000000000004
 40
0.5000000000000004
 40
0.7500000000000002
 40
0.7500000000000002
 40
1.0
 40
1.0
 40
1.0
 40
1.0
 10
236.8594806216801
 20
218.536327353074
 30
0.0
 10
236.8594806216801
 20
218.536327352994
 30
0.0
 10
236.8594806216827
 20
218.5167788506157
 30
0.0
 10
236.8594806216827
 20
218.4543172728473
 30
0.0
 10
236.8594806216801
 20
218.4116435519247
 30
0.0
 10
236.8594806216801
 20
218.2713792164895
 30
0.0
 10
236.8594806216801
 20
218.159336736055
 30
0.0
 10
236.8594806216801
 20
217.817024394798
 30
0.0
 10
236.8594806216801
 20
217.5696063556279
 30
0.0
 10
236.8594806216801
 20
217.075253481151
 30
0.0
 10
236.8594806216801
 20
216.8260963169397
 30
0.0
 10
236.8594806216801
 20
216.3257656917804
 30
0.0
 10
236.8594806216801
 20
216.0745491182816
 30
0.0
 10
236.8594806216801
 20
215.3191166298047
 30
0.0
 10
236.8594806216801
 20
214.8131631692992
 30
0.0
 10
236.8594806216801
 20
213.8024893670658
 30
0.0
 10
236.8594806216801
 20
213.2971242180016
 30
0.0
 10
236.8594806216801
 20
212.7917647052573
 30
0.0
  0
ARC
  5
106
330
1F
100
AcDbEntity
  8
0
  6
CONTINUOUS
 62
     7
100
AcDbCircle
 10
252.8594806217
 20
212.7917647059
 30
0.0
 40
17.00000000010266
100
AcDbArc
 50
199.7499227966
 51
270.2828935672
  0
SPLINE
  5
107
330
1F
100
AcDbEntity
  8
0
  6
CONTINUOUS
 62
     7
100
AcDbSpline
210
0.0
220
0.0
230
1.0
 70
    24
 71
     3
 72
    22
 73
    18
 74
     0
 42
0.000000001
 43
0.00000001
 40
0.0
 40
0.0
 40
0.0
 40
0.0
 40
0.2500000000000007
 40
0.2500000000000007
 40
0.5000000000000013
 40
0.5000000000000013
 40
0.6250000000000018
 40
0.6250000000000018
 40
0.750000000000002
 40
0.750000000000002
 40
0.8750000000000022
 40
0.8750000000000022
 40
0.9375000000000019
 40
0.9375000000000019
 40
0.968750000000001
 40
0.968750000000001
 40
1.0
 40
1.0
 40
1.0
 40
1.0
 10
236.8594806216801
 20
212.7917647052573
 30
0.0
 10
236.8594806216801
 20
212.2858177317556
 30
0.0
 10
236.8594806216801
 20
211.7798674204496
 30
0.0
 10
236.8594806216801
 20
210.7680002532787
 30
0.0
 10
236.8594806216801
 20
210.2619523358879
 30
0.0
 10
236.8594806216801
 20
209.5047813379789
 30
0.0
 10
236.8594806216801
 20
209.2526872251972
 30
0.0
 10
236.8594806216801
 20
208.7495609099581
 30
0.0
 10
236.8594806216801
 20
208.4991753298783
 30
0.0
 10
236.8594806216801
 20
208.0056662856599
 30
0.0
 10
236.8594806216817
 20
207.7590639525393
 30
0.0
 10
236.8594806216817
 20
207.418021133162
 30
0.0
 10
236.8594806216803
 20
207.3087184379489
 30
0.0
 10
236.8594806216803
 20
207.1694801917324
 30
0.0
 10
236.8594806216801
 20
207.1275706860895
 30
0.0
 10
236.8594806216801
 20
207.0664493455354
 30
0.0
 10
236.8594806216801
 20
207.0472020593496
 30
0.0
 10
236.8594806216801
 20
207.0472020591914
 30
0.0
  0
ARC
  5
108
330
1F
100
AcDbEntity
  8
0
  6
CONTINUOUS
 62
     7
100
AcDbCircle
 10
252.8594806217
 20
212.7917647059
 30
0.0
 40
17.00000000007806
100
AcDbArc
 50
270.2828935672
 51
340.2500772036
  0
SPLINE
  5
109
330
1F
100
AcDbEntity
  8
0
  6
CONTINUOUS
 62
     7
100
AcDbSpline
210
0.0
220
0.0
230
1.0
 70
    24
 71
     3
 72
    22
 73
    18
 74
     0
 42
0.000000001
 43
0.00000001
 40
0.0
 40
0.0
 40
0.0
 40
0.0
 40
0.03125
 40
0.03125
 40
0.0625
 40
0.0625
 40
0.1249999999999997
 40
0.1249999999999997
 40
0.2499999999999999
 40
0.2499999999999999
 40
0.3749999999999999
 40
0.3749999999999999
 40
0.4999999999999999
 40
0.4999999999999999
 40
0.7499999999999999
 40
0.7499999999999999
 40
1.0
 40
1.0
 40
1.0
 40
1.0
 10
268.8594806216801
 20
207.0472020586907
 30
0.0
 10
268.8594806216801
 20
207.0472020588186
 30
0.0
 10
268.8594806216774
 20
207.0667505610571
 30
0.0
 10
268.8594806216774
 20
207.1292121387728
 30
0.0
 10
268.8594806216801
 20
207.1718858596795
 30
0.0
 10
268.8594806216801
 20
207.3121501950884
 30
0.0
 10
268.8594806216801
 20
207.4241926755231
 30
0.0
 10
268.8594806216801
 20
207.7665050167882
 30
0.0
 10
268.8594806216801
 20
208.0139230559483
 30
0.0
 10
268.8594806216801
 20
208.5082759304757
 30
0.0
 10
268.8594806216801
 20
208.7574330947032
 30
0.0
 10
268.8594806216801
 20
209.2577637198854
 30
0.0
 10
268.8594806216801
 20
209.5089802933906
 30
0.0
 10
268.8594806216801
 20
210.2644127818779
 30
0.0
 10
268.8594806216801
 20
210.7703662423934
 30
0.0
 10
268.8594806216801
 20
211.7810400446632
 30
0.0
 10
268.8594806216801
 20
212.2864051937452
 30
0.0
 10
268.8594806216801
 20
212.7917647065074
 30
0.0
  0
LINE
  5
10A
330
1F
100
AcDbEntity
  8
0
  6
CONTINUOUS
 62
     7
100
AcDbLine
 10
377.8594806217
 20
337.7917647059
 30
0.0
 11
127.8594806217
 21
337.7917647059
 31
0.0
  0
LINE
  5
10B
330
1F
100
AcDbEntity
  8
0
  6
CONTINUOUS
 62
     7
100
AcDbLine
 10
127.8594806217
 20
87.7917647059
 30
0.0
 11
377.8594806217
 21
87.7917647059
 31
0.0
  0
LINE
  5
10C
330
1F
100
AcDbEntity
  8
0
  6
CONTINUOUS
 62
     7
100
AcDbLine
 10
377.8594806217
 20
87.7917647059
 30
0.0
 11
377.8594806217
 21
337.7917647059
 31
0.0
  0
LINE
  5
10D
330
1F
100
AcDbEntity
  8
0
  6
CONTINUOUS
 62
     7
100
AcDbLine
 10
127.8594806217
 20
337.7917647059
 30
0.0
 11
127.8594806217
 21
87.7917647059
 31
0.0
  0
LINE
  5
10E
330
1F
100
AcDbEntity
  8
0
  6
CONTINUOUS
 62
     8
100
AcDbLine
 10
252.9380012137
 20
198.2919774647
 30
0.0
 11
252.8594806254
 21
198.2917651231
 31
0.0
  0
LINE
  5
10F
330
1F
100
AcDbEntity
  8
0
  6
CONTINUOUS
 62
     8
100
AcDbLine
 10
252.7809600296
 20
227.2915519471
 30
0.0
 11
252.8594806179
 21
227.2917642886
 31
0.0
  0
LINE
  5
110
330
1F
100
AcDbEntity
  8
0
  6
CONTINUOUS
 62
     7
100
AcDbLine
 10
468.6824221558
 20
415.9202471643
 30
0.0
 11
468.6824221558
 21
418.2202472153
 31
0.0
  0
LINE
  5
111
330
1F
100
AcDbEntity
  8
0
  6
CONTINUOUS
 62
     7
100
AcDbLine
 10
465.1824225134
 20
418.2202472153
 30
0.0
 11
465.1824225134
 21
415.9202471643
 31
0.0
  0
ARC
  5
112
330
1F
100
AcDbEntity
  8
0
  6
CONTINUOUS
 62
     7
100
AcDbCircle
 10
468.4824217982
 20
415.9202472153
 30
0.0
 40
0.2000000000000455
100
AcDbArc
 50
270.0
 51
0.0
  0
ARC
  5
113
330
1F
100
AcDbEntity
  8
0
  6
CONTINUOUS
 62
     7
100
AcDbCircle
 10
465.3824217982
 20
415.9202472153
 30
0.0
 40
0.2000000000000455
100
AcDbArc
 50
180.0
 51
270.0
  0
LINE
  5
114
330
1F
100
AcDbEntity
  8
0
  6
CONTINUOUS
 62
     7
100
AcDbLine
 10
490.6824220366
 20
415.9202471643
 30
0.0
 11
490.6824220366
 21
418.2202472153
 31
0.0
  0
LINE
  5
115
330
1F
100
AcDbEntity
  8
0
  6
CONTINUOUS
 62
     7
100
AcDbLine
 10
487.1824223942
 20
418.2202472153
 30
0.0
 11
487.1824223942
 21
415.9202471643
 31
0.0
  0
ARC
  5
116
330
1F
100
AcDbEntity
  8
0
  6
CONTINUOUS
 62
     7
100
AcDbCircle
 10
490.4824217982
 20
415.9202472153
 30
0.0
 40
0.2000000000000455
100
AcDbArc
 50
270.0
 51
0.0
  0
ARC
  5
117
330
1F
100
AcDbEntity
  8
0
  6
CONTINUOUS
 62
     7
100
AcDbCircle
 10
487.3824217982
 20
415.9202472153
 30
0.0
 40
0.2000000000000455
100
AcDbArc
 50
180.0
 51
270.0
  0
LINE
  5
118
330
1F
100
AcDbEntity
  8
0
  6
CONTINUOUS
 62
     7
100
AcDbLine
 10
512.6824219174
 20
415.9202471643
 30
0.0
 11
512.6824219174
 21
418.2202472153
 31
0.0
  0
LINE
  5
119
330
1F
100
AcDbEntity
  8
0
  6
CONTINUOUS
 62
     7
100
AcDbLine
 10
509.182422275
 20
418.2202472153
 30
0.0
 11
509.182422275
 21
415.9202471643
 31
0.0
  0
ARC
  5
11A
330
1F
100
AcDbEntity
  8
0
  6
CONTINUOUS
 62
     7
100
AcDbCircle
 10
512.4824217982
 20
415.9202472153
 30
0.0
 40
0.2000000000000455
100
AcDbArc
 50
270.0
 51
0.0
  0
ARC
  5
11B
330
1F
100
AcDbEntity
  8
0
  6
CONTINUOUS
 62
     7
100
AcDbCircle
 10
509.3824217982
 20
415.9202472153
 30
0.0
 40
0.2000000000000455
100
AcDbArc
 50
180.0
 51
270.0
  0
ARC
  5
11C
330
1F
100
AcDbEntity
  8
0
  6
CONTINUOUS
 62
     7
100
AcDbCircle
 10
534.4824217982
 20
415.9202472153
 30
0.0
 40
0.2000000000000455
100
AcDbArc
 50
270.0
 51
0.0
  0
ARC
  5
11D
330
1F
100
AcDbEntity
  8
0
  6
CONTINUOUS
 62
     7
100
AcDbCircle
 10
531.3824217982
 20
415.9202472153
 30
0.0
 40
0.2000000000000455
100
AcDbArc
 50
180.0
 51
270.0
  0
LINE
  5
11E
330
1F
100
AcDbEntity
  8
0
  6
CONTINUOUS
 62
     7
100
AcDbLine
 10
534.6824217982
 20
415.9202471643
 30
0.0
 11
534.6824217982
 21
418.2202472153
 31
0.0
  0
LINE
  5
11F
330
1F
100
AcDbEntity
  8
0
  6
CONTINUOUS
 62
     7
100
AcDbLine
 10
531.1824221558
 20
418.2202472153
 30
0.0
 11
531.1824221558
 21
415.9202471643
 31
0.0
  0
LINE
  5
120
330
1F
100
AcDbEntity
  8
0
  6
CONTINUOUS
 62
     7
100
AcDbLine
 10
556.6824216789
 20
415.9202471643
 30
0.0
 11
556.6824216789
 21
418.2202472153
 31
0.0
  0
LINE
  5
121
330
1F
100
AcDbEntity
  8
0
  6
CONTINUOUS
 62
     7
100
AcDbLine
 10
553.1824220366
 20
418.2202472153
 30
0.0
 11
553.1824220366
 21
415.9202471643
 31
0.0
  0
ARC
  5
122
330
1F
100
AcDbEntity
  8
0
  6
CONTINUOUS
 62
     7
100
AcDbCircle
 10
556.4824217982
 20
415.9202472153
 30
0.0
 40
0.2000000000000455
100
AcDbArc
 50
270.0
 51
0.0
  0
ARC
  5
123
330
1F
100
AcDbEntity
  8
0
  6
CONTINUOUS
 62
     7
100
AcDbCircle
 10
553.3824217982
 20
415.9202472153
 30
0.0
 40
0.2000000000000455
100
AcDbArc
 50
180.0
 51
270.0
  0
ARC
  5
124
330
1F
100
AcDbEntity
  8
0
  6
CONTINUOUS
 62
     7
100
AcDbCircle
 10
578.4824217981
 20
415.9202472153
 30
0.0
 40
0.2000000000001592
100
AcDbArc
 50
270.0
 51
0.0
  0
ARC
  5
125
330
1F
100
AcDbEntity
  8
0
  6
CONTINUOUS
 62
     7
100
AcDbCircle
 10
575.3824217982
 20
415.9202472153
 30
0.0
 40
0.2000000000000455
100
AcDbArc
 50
180.0
 51
270.0
  0
LINE
  5
126
330
1F
100
AcDbEntity
  8
0
  6
CONTINUOUS
 62
     7
100
AcDbLine
 10
578.6824215597
 20
415.9202471643
 30
0.0
 11
578.6824215597
 21
418.2202472153
 31
0.0
  0
LINE
  5
127
330
1F
100
AcDbEntity
  8
0
  6
CONTINUOUS
 62
     7
100
AcDbLine
 10
575.1824219174
 20
418.2202472153
 30
0.0
 11
575.1824219174
 21
415.9202471643
 31
0.0
  0
LINE
  5
128
330
1F
100
AcDbEntity
  8
0
  6
CONTINUOUS
 62
     7
100
AcDbLine
 10
600.6824214405
 20
415.9202471643
 30
0.0
 11
600.6824214405
 21
418.2202472153
 31
0.0
  0
LINE
  5
129
330
1F
100
AcDbEntity
  8
0
  6
CONTINUOUS
 62
     7
100
AcDbLine
 10
597.1824217982
 20
418.2202472153
 30
0.0
 11
597.1824217982
 21
415.9202471643
 31
0.0
  0
ARC
  5
12A
330
1F
100
AcDbEntity
  8
0
  6
CONTINUOUS
 62
     7
100
AcDbCircle
 10
600.4824217982
 20
415.9202472153
 30
0.0
 40
0.2000000000000455
100
AcDbArc
 50
270.0
 51
0.0
  0
ARC
  5
12B
330
1F
100
AcDbEntity
  8
0
  6
CONTINUOUS
 62
     7
100
AcDbCircle
 10
597.3824217982
 20
415.9202472153
 30
0.0
 40
0.2000000000000455
100
AcDbArc
 50
180.0
 51
270.0
  0
ARC
  5
12C
330
1F
100
AcDbEntity
  8
0
  6
CONTINUOUS
 62
     7
100
AcDbCircle
 10
622.4824217982
 20
415.9202472153
 30
0.0
 40
0.2000000000000455
100
AcDbArc
 50
270.0
 51
0.0
  0
ARC
  5
12D
330
1F
100
AcDbEntity
  8
0
  6
CONTINUOUS
 62
     7
100
AcDbCircle
 10
619.3824217982
 20
415.9202472153
 30
0.0
 40
0.2000000000000455
100
AcDbArc
 50
180.0
 51
270.0
  0
LINE
  5
12E
330
1F
100
AcDbEntity
  8
0
  6
CONTINUOUS
 62
     7
100
AcDbLine
 10
622.6824213213
 20
415.9202471643
 30
0.0
 11
622.6824213213
 21
418.2202472153
 31
0.0
  0
LINE
  5
12F
330
1F
100
AcDbEntity
  8
0
  6
CONTINUOUS
 62
     7
100
AcDbLine
 10
619.1824216789
 20
418.2202472153
 30
0.0
 11
619.1824216789
 21
415.9202471643
 31
0.0
  0
LINE
  5
130
330
1F
100
AcDbEntity
  8
0
  6
CONTINUOUS
 62
     7
100
AcDbLine
 10
644.6824212021
 20
415.9202471643
 30
0.0
 11
644.6824212021
 21
418.2202472153
 31
0.0
  0
LINE
  5
131
330
1F
100
AcDbEntity
  8
0
  6
CONTINUOUS
 62
     7
100
AcDbLine
 10
641.1824215597
 20
418.2202472153
 30
0.0
 11
641.1824215597
 21
415.9202471643
 31
0.0
  0
ARC
  5
132
330
1F
100
AcDbEntity
  8
0
  6
CONTINUOUS
 62
     7
100
AcDbCircle
 10
644.4824217982
 20
415.9202472153
 30
0.0
 40
0.2000000000000455
100
AcDbArc
 50
270.0
 51
0.0
  0
ARC
  5
133
330
1F
100
AcDbEntity
  8
0
  6
CONTINUOUS
 62
     7
100
AcDbCircle
 10
641.3824217982
 20
415.9202472153
 30
0.0
 40
0.2000000000000455
100
AcDbArc
 50
180.0
 51
270.0
  0
ARC
  5
134
330
1F
100
AcDbEntity
  8
0
  6
CONTINUOUS
 62
     7
100
AcDbCircle
 10
666.4824217982
 20
415.9202472153
 30
0.0
 40
0.2000000000000455
100
AcDbArc
 50
270.0
 51
0.0
  0
ARC
  5
135
330
1F
100
AcDbEntity
  8
0
  6
CONTINUOUS
 62
     7
100
AcDbCircle
 10
663.3824217982
 20
415.9202472153
 30
0.0
 40
0.2000000000000455
100
AcDbArc
 50
180.0
 51
270.0
  0
LINE
  5
136
330
1F
100
AcDbEntity
  8
0
  6
CONTINUOUS
 62
     7
100
AcDbLine
 10
666.6824210829
 20
415.9202471643
 30
0.0
 11
666.6824210829
 21
418.2202472153
 31
0.0
  0
LINE
  5
137
330
1F
100
AcDbEntity
  8
0
  6
CONTINUOUS
 62
     7
100
AcDbLine
 10
663.1824214405
 20
418.2202472153
 30
0.0
 11
663.1824214405
 21
415.9202471643
 31
0.0
  0
SPLINE
  5
138
330
1F
100
AcDbEntity
  8
0
  6
CONTINUOUS
 62
     7
100
AcDbSpline
210
0.0
220
0.0
230
1.0
 70
     8
 71
     3
 72
     9
 73
     5
 74
     0
 42
0.000000001
 43
0.00000001
 40
0.0
 40
0.0
 40
0.0
 40
0.0
 40
0.5098590945577597
 40
1.0
 40
1.0
 40
1.0
 40
1.0
 10
582.653582880537
 20
440.2202470961321
 30
0.0
 10
582.7103971777448
 20
440.4187191033423
 30
0.0
 10
582.821828547341
 20
440.8079874508693
 30
0.0
 10
582.4605068017162
 20
441.0419026846735
 30
0.0
 10
582.2834082341594
 20
441.156554109167
 30
0.0
  0
LINE
  5
139
330
1F
100
AcDbEntity
  8
0
  6
CONTINUOUS
 62
     7
100
AcDbLine
 10
548.9324208743
 20
440.2202470961
 30
0.0
 11
548.9324208743
 21
434.7202471259
 31
0.0
  0
ARC
  5
13A
330
1F
100
AcDbEntity
  8
0
  6
CONTINUOUS
 62
     7
100
AcDbCircle
 10
581.4324217983
 20
434.7202472153
 30
0.0
 40
1.499999999926786
100
AcDbArc
 50
270.0000000008
 51
0.0
  0
ARC
  5
13B
330
1F
100
AcDbEntity
  8
0
  6
CONTINUOUS
 62
     7
100
AcDbCircle
 10
550.432421798
 20
434.7202472153
 30
0.0
 40
1.499999999926786
100
AcDbArc
 50
180.0
 51
270.0000000028
  0
LINE
  5
13C
330
1F
100
AcDbEntity
  8
0
  6
CONTINUOUS
 62
     7
100
AcDbLine
 10
582.932422722
 20
434.7202471259
 30
0.0
 11
582.932422722
 21
440.2202470961
 31
0.0
  0
SPLINE
  5
13D
330
1F
100
AcDbEntity
  8
0
  6
CONTINUOUS
 62
     7
100
AcDbSpline
210
0.0
220
0.0
230
1.0
 70
     8
 71
     3
 72
    11
 73
     7
 74
     0
 42
0.000000001
 43
0.00000001
 40
0.0
 40
0.0
 40
0.0
 40
0.0
 40
0.2377913410016027
 40
0.490780644941218
 40
0.748832513460174
 40
1.0
 40
1.0
 40
1.0
 40
1.0
 10
581.4261034524841
 20
452.2202490630854
 30
0.0
 10
581.4187213847764
 20
452.3198272406414
 30
0.0
 10
581.4034854391134
 20
452.5253479378927
 30
0.0
 10
581.2561147608387
 20
452.8142842540408
 30
0.0
 10
581.0250667443858
 20
453.0539524878035
 30
0.0
 10
580.8217654098189
 20
453.1366851351826
 30
0.0
 10
580.721489006917
 20
453.1774922075976
 30
0.0
  0
LINE
  5
13E
330
1F
100
AcDbEntity
  8
0
  6
CONTINUOUS
 62
     7
100
AcDbLine
 10
581.4324215448
 20
441.22024726
 30
0.0
 11
581.4324215448
 21
452.2202490631
 31
0.0
  0
LINE
  5
13F
330
1F
100
AcDbEntity
  8
0
  6
CONTINUOUS
 62
     7
100
AcDbLine
 10
550.4324220515
 20
452.2202490631
 30
0.0
 11
550.4324220515
 21
441.22024726
 31
0.0
  0
LINE
  5
140
330
1F
100
AcDbEntity
  8
0
  6
CONTINUOUS
 62
     7
100
AcDbLine
 10
581.9324225581
 20
426.2202475953
 30
0.0
 11
581.9324225581
 21
433.2202468801
 31
0.0
  0
LINE
  5
141
330
1F
100
AcDbEntity
  8
0
  6
CONTINUOUS
 62
     7
100
AcDbLine
 10
549.9324210382
 20
433.2202468801
 30
0.0
 11
549.9324210382
 21
426.2202475953
 31
0.0
  0
LINE
  5
142
330
1F
100
AcDbEntity
  8
0
  6
CONTINUOUS
 62
     7
100
AcDbLine
 10
577.9324219025
 20
459.9702461425
 30
0.0
 11
577.9324219025
 21
474.2202489439
 31
0.0
  0
LINE
  5
143
330
1F
100
AcDbEntity
  8
0
  6
CONTINUOUS
 62
     7
100
AcDbLine
 10
553.9324216938
 20
474.2202489439
 30
0.0
 11
553.9324216938
 21
459.9702461425
 31
0.0
  0
SPLINE
  5
144
330
1F
100
AcDbEntity
  8
0
  6
CONTINUOUS
 62
     7
100
AcDbSpline
210
0.0
220
0.0
230
1.0
 70
     8
 71
     3
 72
    10
 73
     6
 74
     0
 42
0.000000001
 43
0.00000001
 40
0.0
 40
0.0
 40
0.0
 40
0.0
 40
0.2774768397800126
 40
0.5619457436452703
 40
1.0
 40
1.0
 40
1.0
 40
1.0
 10
553.9324216938419
 20
459.9702461424578
 30
0.0
 10
553.9447511658591
 20
459.8053589494845
 30
0.0
 10
553.9697207969352
 20
459.4714296156111
 30
0.0
 10
554.1907031143093
 20
458.9047812878053
 30
0.0
 10
554.4964049384065
 20
458.5964660832309
 30
0.0
 10
554.6817470735712
 20
458.4095394972075
 30
0.0
  0
SPLINE
  5
145
330
1F
100
AcDbEntity
  8
0
  6
CONTINUOUS
 62
     7
100
AcDbSpline
210
0.0
220
0.0
230
1.0
 70
     8
 71
     3
 72
    10
 73
     6
 74
     0
 42
0.000000001
 43
0.00000001
 40
0.0
 40
0.0
 40
0.0
 40
0.0
 40
0.2774775225482835
 40
0.561946089172823
 40
0.9999999999999999
 40
0.9999999999999999
 40
0.9999999999999999
 40
0.9999999999999999
 10
577.1830965227289
 20
458.4095394972075
 30
0.0
 10
577.3040573686197
 20
458.5222711085158
 30
0.0
 10
577.5490266679964
 20
458.7505746032245
 30
0.0
 10
577.8530262205164
 20
459.2773648607023
 30
0.0
 10
577.9024543886188
 20
459.7087214739593
 30
0.0
 10
577.9324219024581
 20
459.9702461424578
 30
0.0
  0
SPLINE
  5
146
330
1F
100
AcDbEntity
  8
0
  6
CONTINUOUS
 62
     7
100
AcDbSpline
210
0.0
220
0.0
230
1.0
 70
     8
 71
     3
 72
     9
 73
     5
 74
     0
 42
0.000000001
 43
0.00000001
 40
0.0
 40
0.0
 40
0.0
 40
0.0
 40
0.0729730190776532
 40
1.0
 40
1.0
 40
1.0
 40
1.0
 10
555.327437671165
 20
454.4271631899584
 30
0.0
 10
555.3061771254013
 20
454.4011487081014
 30
0.0
 10
555.0148290897519
 20
454.0446541819615
 30
0.0
 10
554.799212281303
 20
453.6361306486618
 30
0.0
 10
554.5993296823306
 20
453.2574183109511
 30
0.0
  0
SPLINE
  5
147
330
1F
100
AcDbEntity
  8
0
  6
CONTINUOUS
 62
     7
100
AcDbSpline
210
0.0
220
0.0
230
1.0
 70
     8
 71
     3
 72
     9
 73
     5
 74
     0
 42
0.000000001
 43
0.00000001
 40
0.0
 40
0.0
 40
0.0
 40
0.0
 40
0.5035237609479274
 40
1.0
 40
1.0
 40
1.0
 40
1.0
 10
577.2267969718976
 20
453.2178855303038
 30
0.0
 10
577.1369620650134
 20
453.4349817884867
 30
0.0
 10
576.9585496168796
 20
453.8661357379529
 30
0.0
 10
576.6706038807018
 20
454.233300254642
 30
0.0
 10
576.5276456645531
 20
454.4155887130011
 30
0.0
  0
SPLINE
  5
148
330
1F
100
AcDbEntity
  8
0
  6
CONTINUOUS
 62
     7
100
AcDbSpline
210
0.0
220
0.0
230
1.0
 70
     8
 71
     3
 72
    11
 73
     7
 74
     0
 42
0.000000001
 43
0.00000001
 40
0.0
 40
0.0
 40
0.0
 40
0.0
 40
0.2710919047589099
 40
0.5622149138252469
 40
0.7889066562483944
 40
1.0
 40
1.0
 40
1.0
 40
1.0
 10
554.6817470735712
 20
458.4095394972075
 30
0.0
 10
554.9698822398242
 20
458.1162457172607
 30
0.0
 10
555.5674430109915
 20
457.5079865463904
 30
0.0
 10
555.8656218765681
 20
456.3127356940238
 30
0.0
 10
555.7501794021568
 20
455.2046480573495
 30
0.0
 10
555.424180199256
 20
454.6301816556723
 30
0.0
 10
555.2669883168144
 20
454.3531826499213
 30
0.0
  0
SPLINE
  5
149
330
1F
100
AcDbEntity
  8
0
  6
CONTINUOUS
 62
     7
100
AcDbSpline
210
0.0
220
0.0
230
1.0
 70
     8
 71
     3
 72
    11
 73
     7
 74
     0
 42
0.000000001
 43
0.00000001
 40
0.0
 40
0.0
 40
0.0
 40
0.0
 40
0.2710916323611722
 40
0.5622149385899075
 40
0.7889061027985513
 40
0.9999999999999999
 40
0.9999999999999999
 40
0.9999999999999999
 40
0.9999999999999999
 10
576.5978552794857
 20
454.3531826499213
 30
0.0
 10
576.4043772295595
 20
454.7159620509644
 30
0.0
 10
576.0031245276211
 20
455.4683275773464
 30
0.0
 10
576.0549685904812
 20
456.699118074617
 30
0.0
 10
576.4789281895399
 20
457.7293816245658
 30
0.0
 10
576.9540158355438
 20
458.1882699150417
 30
0.0
 10
577.1830965227289
 20
458.4095394972075
 30
0.0
  0
LINE
  5
14A
330
1F
100
AcDbEntity
  8
0
  6
CONTINUOUS
 62
     7
100
AcDbLine
 10
577.9324219025
 20
474.2202489439
 30
0.0
 11
577.4324218205
 21
474.7202462319
 31
0.0
  0
LINE
  5
14B
330
1F
100
AcDbEntity
  8
0
  6
CONTINUOUS
 62
     7
100
AcDbLine
 10
554.4324217758
 20
474.7202462319
 30
0.0
 11
553.9324216938
 21
474.2202489439
 31
0.0
  0
LINE
  5
14C
330
1F
100
AcDbEntity
  8
0
  6
CONTINUOUS
 62
     7
100
AcDbLine
 10
440.9324217982
 20
418.2202472153
 30
0.0
 11
690.9324217982
 21
418.2202472153
 31
0.0
  0
LINE
  5
14D
330
1F
100
AcDbEntity
  8
0
  6
CONTINUOUS
 62
     7
100
AcDbLine
 10
440.9324217982
 20
426.2202475953
 30
0.0
 11
690.9324217982
 21
426.2202475953
 31
0.0
  0
LINE
  5
14E
330
1F
100
AcDbEntity
  8
0
  6
CONTINUOUS
 62
     7
100
AcDbLine
 10
690.9324217982
 20
426.2202475953
 30
0.0
 11
690.9324217982
 21
418.2202472153
 31
0.0
  0
LINE
  5
14F
330
1F
100
AcDbEntity
  8
0
  6
CONTINUOUS
 62
     7
100
AcDbLine
 10
440.9324217982
 20
426.2202475953
 30
0.0
 11
440.9324217982
 21
418.2202472153
 31
0.0
  0
LINE
  5
150
330
1F
100
AcDbEntity
  8
0
  6
CONTINUOUS
 62
     7
100
AcDbLine
 10
465.3824184484
 20
415.7202472712
 30
0.0
 11
468.4824187702
 21
415.7202472712
 31
0.0
  0
LINE
  5
151
330
1F
100
AcDbEntity
  8
0
  6
CONTINUOUS
 62
     7
100
AcDbLine
 10
487.3824183292
 20
415.7202472712
 30
0.0
 11
490.482418651
 21
415.7202472712
 31
0.0
  0
LINE
  5
152
330
1F
100
AcDbEntity
  8
0
  6
CONTINUOUS
 62
     7
100
AcDbLine
 10
509.3824219352
 20
415.7202472712
 30
0.0
 11
512.4824222571
 21
415.7202472712
 31
0.0
  0
LINE
  5
153
330
1F
100
AcDbEntity
  8
0
  6
CONTINUOUS
 62
     7
100
AcDbLine
 10
531.382421816
 20
415.7202472712
 30
0.0
 11
534.4824221379
 21
415.7202472712
 31
0.0
  0
LINE
  5
154
330
1F
100
AcDbEntity
  8
0
  6
CONTINUOUS
 62
     7
100
AcDbLine
 10
553.3824216968
 20
415.7202472712
 30
0.0
 11
556.4824220187
 21
415.7202472712
 31
0.0
  0
LINE
  5
155
330
1F
100
AcDbEntity
  8
0
  6
CONTINUOUS
 62
     7
100
AcDbLine
 10
575.3824215776
 20
415.7202472712
 30
0.0
 11
578.4824218995
 21
415.7202472712
 31
0.0
  0
LINE
  5
156
330
1F
100
AcDbEntity
  8
0
  6
CONTINUOUS
 62
     7
100
AcDbLine
 10
597.3824214584
 20
415.7202472712
 30
0.0
 11
600.4824217803
 21
415.7202472712
 31
0.0
  0
LINE
  5
157
330
1F
100
AcDbEntity
  8
0
  6
CONTINUOUS
 62
     7
100
AcDbLine
 10
619.3824213392
 20
415.7202472712
 30
0.0
 11
622.4824216611
 21
415.7202472712
 31
0.0
  0
LINE
  5
158
330
1F
100
AcDbEntity
  8
0
  6
CONTINUOUS
 62
     7
100
AcDbLine
 10
641.3824249453
 20
415.7202472712
 30
0.0
 11
644.4824252671
 21
415.7202472712
 31
0.0
  0
LINE
  5
159
330
1F
100
AcDbEntity
  8
0
  6
CONTINUOUS
 62
     7
100
AcDbLine
 10
663.3824248261
 20
415.7202472712
 30
0.0
 11
666.4824251479
 21
415.7202472712
 31
0.0
  0
SPLINE
  5
15A
330
1F
100
AcDbEntity
  8
0
  6
CONTINUOUS
 62
     7
100
AcDbSpline
210
0.0
220
0.0
230
1.0
 70
    24
 71
     3
 72
    22
 73
    18
 74
     0
 42
0.000000001
 43
0.00000001
 40
0.0
 40
0.0
 40
0.0
 40
0.0
 40
0.125
 40
0.125
 40
0.25
 40
0.25
 40
0.375
 40
0.375
 40
0.5
 40
0.5
 40
0.625
 40
0.625
 40
0.75
 40
0.75
 40
0.875
 40
0.875
 40
1.0
 40
1.0
 40
1.0
 40
1.0
 10
581.9322267731501
 20
441.2202472153415
 30
0.0
 10
581.9368841202506
 20
441.2202472153415
 30
0.0
 10
581.8578264216752
 20
441.2202472153415
 30
0.0
 10
581.5002217029707
 20
441.2202472153415
 30
0.0
 10
581.2213461190655
 20
441.2202472153415
 30
0.0
 10
580.448760578741
 20
441.2202472153415
 30
0.0
 10
579.9548570811354
 20
441.2202472153415
 30
0.0
 10
578.76265738507
 20
441.2202472153415
 30
0.0
 10
578.064436461987
 20
441.2202472153415
 30
0.0
 10
576.5020431119463
 20
441.2202472153415
 30
0.0
 10
575.6382233501631
 20
441.2202472153415
 30
0.0
 10
573.804523377005
 20
441.2202472153415
 30
0.0
 10
572.8351261199143
 20
441.2202472153415
 30
0.0
 10
570.8583915693463
 20
441.2202472153415
 30
0.0
 10
569.85146320842
 20
441.2202472153415
 30
0.0
 10
567.8618707310598
 20
441.2202472153415
 30
0.0
 10
566.8794144241272
 20
441.2202472153415
 30
0.0
 10
565.9324218006317
 20
441.2202472153415
 30
0.0
  0
ARC
  5
15B
330
1F
100
AcDbEntity
  8
0
  6
CONTINUOUS
 62
     7
100
AcDbCircle
 10
581.9322208504
 20
440.2202540046
 30
0.0
 40
0.9999932554359551
100
AcDbArc
 50
359.9996041697
 51
89.9996487736
  0
SPLINE
  5
15C
330
1F
100
AcDbEntity
  8
0
  6
CONTINUOUS
 62
     7
100
AcDbSpline
210
0.0
220
0.0
230
1.0
 70
     8
 71
     3
 72
    22
 73
    18
 74
     0
 42
0.000000001
 43
0.00000001
 40
0.0
 40
0.0
 40
0.0
 40
0.0
 40
0.2500000000000007
 40
0.2500000000000007
 40
0.5000000000000013
 40
0.5000000000000013
 40
0.6250000000000018
 40
0.6250000000000018
 40
0.750000000000002
 40
0.750000000000002
 40
0.8750000000000022
 40
0.8750000000000022
 40
0.9375000000000019
 40
0.9375000000000019
 40
0.968750000000001
 40
0.968750000000001
 40
1.0
 40
1.0
 40
1.0
 40
1.0
 10
565.9324217987751
 20
441.2202472153415
 30
0.0
 10
566.4383687722768
 20
441.2202472153415
 30
0.0
 10
566.9443190835827
 20
441.2211050050952
 30
0.0
 10
567.9561862507537
 20
441.2142227965222
 30
0.0
 10
568.4622341681446
 20
441.2066978908575
 30
0.0
 10
569.2194051660535
 20
441.1647099973873
 30
0.0
 10
569.4714992788353
 20
441.1454668052418
 30
0.0
 10
569.9746255940743
 20
441.0881697803601
 30
0.0
 10
570.2250111741541
 20
441.0504977698357
 30
0.0
 10
570.7185202183724
 20
440.9408046893682
 30
0.0
 10
570.9651225514931
 20
440.8700472212162
 30
0.0
 10
571.3061653708704
 20
440.7034994800536
 30
0.0
 10
571.4154680660835
 20
440.6381118306202
 30
0.0
 10
571.5547063123
 20
440.5073448735869
 30
0.0
 10
571.596615817943
 20
440.4578513191708
 30
0.0
 10
571.657737158497
 20
440.3473416479251
 30
0.0
 10
571.6769844446827
 20
440.2846934908815
 30
0.0
 10
571.6769844448411
 20
440.2202472161711
 30
0.0
  0
ARC
  5
15D
330
1F
100
AcDbEntity
  8
0
  6
CONTINUOUS
 62
     7
100
AcDbCircle
 10
549.9326227459
 20
440.2202540046
 30
0.0
 40
0.9999932554359551
100
AcDbArc
 50
90.0003512264
 51
180.0003958303
  0
SPLINE
  5
15E
330
1F
100
AcDbEntity
  8
0
  6
CONTINUOUS
 62
     7
100
AcDbSpline
210
0.0
220
0.0
230
1.0
 70
    24
 71
     3
 72
    22
 73
    18
 74
     0
 42
0.000000001
 43
0.00000001
 40
0.0
 40
0.0
 40
0.0
 40
0.0
 40
0.1249999999999999
 40
0.1249999999999999
 40
0.2499999999999998
 40
0.2499999999999998
 40
0.3749999999999998
 40
0.3749999999999998
 40
0.4999999999999999
 40
0.4999999999999999
 40
0.6249999999999999
 40
0.6249999999999999
 40
0.7499999999999999
 40
0.7499999999999999
 40
0.875
 40
0.875
 40
1.0
 40
1.0
 40
1.0
 40
1.0
 10
565.9324217981688
 20
441.2202472153415
 30
0.0
 10
564.9901177808083
 20
441.2202472153415
 30
0.0
 10
564.0129524586349
 20
441.2202472153415
 30
0.0
 10
562.0344557039779
 20
441.2202472153415
 30
0.0
 10
561.0333278123776
 20
441.2202472153415
 30
0.0
 10
559.0675565818202
 20
441.2202472153415
 30
0.0
 10
558.1033094524092
 20
441.2202472153415
 30
0.0
 10
556.2779097395021
 20
441.2202472153415
 30
0.0
 10
555.4172239371972
 20
441.2202472153415
 30
0.0
 10
553.8579845679618
 20
441.2202472153415
 30
0.0
 10
553.1597734303716
 20
441.2202472153415
 30
0.0
 10
551.9640467876924
 20
441.2202472153415
 30
0.0
 10
551.4666083469536
 20
441.2202472153415
 30
0.0
 10
550.6837980155603
 20
441.2202472153415
 30
0.0
 10
550.3982439866054
 20
441.2202472153415
 30
0.0
 10
550.0251283025024
 20
441.2202472153415
 30
0.0
 10
549.9372513514345
 20
441.2202472153415
 30
0.0
 10
549.9326168229907
 20
441.2202472153415
 30
0.0
  0
SPLINE
  5
15F
330
1F
100
AcDbEntity
  8
0
  6
CONTINUOUS
 62
     7
100
AcDbSpline
210
0.0
220
0.0
230
1.0
 70
     8
 71
     3
 72
    22
 73
    18
 74
     0
 42
0.000000001
 43
0.00000001
 40
0.0
 40
0.0
 40
0.0
 40
0.0
 40
0.0312500000000003
 40
0.0312500000000003
 40
0.0625000000000006
 40
0.0625000000000006
 40
0.1250000000000008
 40
0.1250000000000008
 40
0.2500000000000006
 40
0.2500000000000006
 40
0.3750000000000004
 40
0.3750000000000004
 40
0.5000000000000004
 40
0.5000000000000004
 40
0.7500000000000002
 40
0.7500000000000002
 40
1.0
 40
1.0
 40
1.0
 40
1.0
 10
560.1878591509584
 20
440.2202472157563
 30
0.0
 10
560.1878591510383
 20
440.2853606859753
 30
0.0
 10
560.2074076534167
 20
440.3484404217081
 30
0.0
 10
560.269869231185
 20
440.4602473716711
 30
0.0
 10
560.3125429521077
 20
440.5099917300998
 30
0.0
 10
560.4528072875429
 20
440.6405243615104
 30
0.0
 10
560.5648497679774
 20
440.7070254766653
 30
0.0
 10
560.9071621092344
 20
440.8726109215385
 30
0.0
 10
561.1545801484044
 20
440.9430700640576
 30
0.0
 10
561.6489330228815
 20
441.0520750490928
 30
0.0
 10
561.8980901870927
 20
441.0892292221195
 30
0.0
 10
562.398420812252
 20
441.1458777087079
 30
0.0
 10
562.6496373857508
 20
441.164994418332
 30
0.0
 10
563.4050698742278
 20
441.20673006377
 30
0.0
 10
563.9110233347332
 20
441.2142508610693
 30
0.0
 10
564.9216971369666
 20
441.2211009663582
 30
0.0
 10
565.4270622860308
 20
441.2202472153415
 30
0.0
 10
565.9324217987751
 20
441.2202472153415
 30
0.0
  0
LINE
  5
160
330
1F
100
AcDbEntity
  8
0
  6
CONTINUOUS
 62
     7
100
AcDbLine
 10
571.6769842825
 20
440.2202470961
 30
0.0
 11
571.6769842825
 21
434.7202471259
 31
0.0
  0
SPLINE
  5
161
330
1F
100
AcDbEntity
  8
0
  6
CONTINUOUS
 62
     7
100
AcDbSpline
210
0.0
220
0.0
230
1.0
 70
     8
 71
     3
 72
    36
 73
    32
 74
     0
 42
0.000000001
 43
0.00000001
 40
0.0
 40
0.0
 40
0.0
 40
0.0
 40
0.0312500000000004
 40
0.0312500000000004
 40
0.0625000000000007
 40
0.0625000000000007
 40
0.1250000000000009
 40
0.1250000000000009
 40
0.1875000000000008
 40
0.1875000000000008
 40
0.2500000000000008
 40
0.2500000000000008
 40
0.3750000000000006
 40
0.3750000000000006
 40
0.5000000000000003
 40
0.5000000000000003
 40
0.625
 40
0.625
 40
0.7499999999999998
 40
0.7499999999999998
 40
0.8124999999999997
 40
0.8124999999999997
 40
0.8749999999999993
 40
0.8749999999999993
 40
0.9062499999999996
 40
0.9062499999999996
 40
0.9374999999999997
 40
0.9374999999999997
 40
0.9687499999999999
 40
0.9687499999999999
 40
1.0
 40
1.0
 40
1.0
 40
1.0
 10
571.6769844450682
 20
434.720247214571
 30
0.0
 10
571.6769844448659
 20
434.5870882170543
 30
0.0
 10
571.6225655066415
 20
434.461711052477
 30
0.0
 10
571.4637089989245
 20
434.2513781448837
 30
0.0
 10
571.3631874550264
 20
434.1659648451506
 30
0.0
 10
571.0374726477957
 20
433.9431966713962
 30
0.0
 10
570.7964119014022
 20
433.8427457282637
 30
0.0
 10
570.2999378195469
 20
433.6775571648197
 30
0.0
 10
570.0472874746448
 20
433.6166174969001
 30
0.0
 10
569.5401039119902
 20
433.5176312891668
 30
0.0
 10
569.2848631627191
 20
433.4799161057342
 30
0.0
 10
568.5161207630265
 20
433.3883422959127
 30
0.0
 10
567.999440576169
 20
433.3554637599264
 30
0.0
 10
566.9636999526465
 20
433.3140516760261
 30
0.0
 10
566.445689012803
 20
433.3059785664948
 30
0.0
 10
565.4094861634263
 20
433.3060892558902
 30
0.0
 10
564.8911192087268
 20
433.3142833015074
 30
0.0
 10
563.8557313976918
 20
433.3560228899398
 30
0.0
 10
563.3379827106958
 20
433.3891286449016
 30
0.0
 10
562.5664339672279
 20
433.4817854644574
 30
0.0
 10
562.3097523411627
 20
433.5200619361128
 30
0.0
 10
561.8015017438597
 20
433.620276296936
 30
0.0
 10
561.5487497318364
 20
433.682129406593
 30
0.0
 10
561.1814843979192
 20
433.8055642277719
 30
0.0
 10
561.0610118509262
 20
433.8518678030011
 30
0.0
 10
560.8259749069043
 20
433.960110857335
 30
0.0
 10
560.7108332969966
 20
434.0222346042941
 30
0.0
 10
560.4971384710408
 20
434.1697609953025
 30
0.0
 10
560.3976685826367
 20
434.2552027198311
 30
0.0
 10
560.2420514625964
 20
434.4627939929842
 30
0.0
 10
560.1878591515004
 20
434.5886665412925
 30
0.0
 10
560.1878591513806
 20
434.7202472148797
 30
0.0
  0
LINE
  5
162
330
1F
100
AcDbEntity
  8
0
  6
CONTINUOUS
 62
     7
100
AcDbLine
 10
560.1878593138
 20
440.2202470961
 30
0.0
 11
560.1878593138
 21
434.7202471259
 31
0.0
  0
LWPOLYLINE
  5
163
330
1F
100
AcDbEntity
  8
0
  6
CONTINUOUS
 62
     7
100
AcDbPolyline
 90
        3
 70
   128
 43
0.0
 10
580.4322090394
 20
453.2202473644
 10
580.6272969044
 20
453.201032317
 10
580.779191891
 20
453.1581169728
  0
LINE
  5
164
330
1F
100
AcDbEntity
  8
0
  6
CONTINUOUS
 62
     7
100
AcDbLine
 10
581.4232955149
 20
452.353361136
 30
0.0
 11
581.4321943021
 21
452.2202490631
 31
0.0
  0
ARC
  5
165
330
1F
100
AcDbEntity
  8
0
  6
CONTINUOUS
 62
     7
100
AcDbCircle
 10
551.432640536
 20
452.2202561225
 30
0.0
 40
0.9999912418788005
100
AcDbArc
 50
90.0003425803
 51
180.0004044778
  0
SPLINE
  5
166
330
1F
100
AcDbEntity
  8
0
  6
CONTINUOUS
 62
     7
100
AcDbSpline
210
0.0
220
0.0
230
1.0
 70
    24
 71
     3
 72
    38
 73
    34
 74
     0
 42
0.000000001
 43
0.00000001
 40
0.0
 40
0.0
 40
0.0
 40
0.0
 40
0.0625
 40
0.0625
 40
0.125
 40
0.125
 40
0.1875
 40
0.1875
 40
0.25
 40
0.25
 40
0.3124999999999999
 40
0.3124999999999999
 40
0.3749999999999999
 40
0.3749999999999999
 40
0.4374999999999999
 40
0.4374999999999999
 40
0.4999999999999999
 40
0.4999999999999999
 40
0.5624999999999999
 40
0.5624999999999999
 40
0.6249999999999999
 40
0.6249999999999999
 40
0.6875
 40
0.6875
 40
0.75
 40
0.75
 40
0.8125
 40
0.8125
 40
0.875
 40
0.875
 40
0.9375000000000001
 40
0.9375000000000001
 40
1.0
 40
1.0
 40
1.0
 40
1.0
 10
580.432421798597
 20
453.2202472153415
 30
0.0
 10
580.4324217987336
 20
453.2202472153415
 30
0.0
 10
580.3947414948178
 20
453.2202472153415
 30
0.0
 10
580.2121762158679
 20
453.2202472153415
 30
0.0
 10
580.0672022043829
 20
453.2202472153415
 30
0.0
 10
579.6323803114965
 20
453.2202472153415
 30
0.0
 10
579.3422947386198
 20
453.2202472153415
 30
0.0
 10
578.5784143638946
 20
453.2202472153415
 30
0.0
 10
578.1041926265896
 20
453.2202472153415
 30
0.0
 10
576.941914962505
 20
453.2202472153415
 30
0.0
 10
576.25331151777
 20
453.2202472153415
 30
0.0
 10
574.6559129144081
 20
453.2202472153415
 30
0.0
 10
573.7467131307906
 20
453.2202472153415
 30
0.0
 10
571.7410414559793
 20
453.2202472153415
 30
0.0
 10
570.6446909066563
 20
453.2202472153415
 30
0.0
 10
568.34261372216
 20
453.2202472153415
 30
0.0
 10
567.137695497659
 20
453.2202472153415
 30
0.0
 10
564.7275721663436
 20
453.2202472153415
 30
0.0
 10
563.5234957810549
 20
453.2202472153415
 30
0.0
 10
561.2243556203796
 20
453.2202472153415
 30
0.0
 10
560.1300821048505
 20
453.2202472153415
 30
0.0
 10
558.1287855254102
 20
453.2202472153415
 30
0.0
 10
557.2218646887654
 20
453.2202472153415
 30
0.0
 10
555.628240903922
 20
453.2202472153415
 30
0.0
 10
554.941126169967
 20
453.2202472153415
 30
0.0
 10
553.7804974081952
 20
453.2202472153415
 30
0.0
 10
553.306439453715
 20
453.2202472153415
 30
0.0
 10
552.5415100885866
 20
453.2202472153415
 30
0.0
 10
552.2502187950747
 20
453.2202472153415
 30
0.0
 10
551.811870553739
 20
453.2202472153415
 30
0.0
 10
551.6645814773726
 20
453.2202472153415
 30
0.0
 10
551.4766379107135
 20
453.2202472153414
 30
0.0
 10
551.4358972590109
 20
453.2202472153415
 30
0.0
 10
551.43263440215
 20
453.2202472153415
 30
0.0
  0
LINE
  5
167
330
1F
100
AcDbEntity
  8
0
  6
CONTINUOUS
 62
     7
100
AcDbLine
 10
571.5001861959
 20
426.2202475953
 30
0.0
 11
571.5001861959
 21
433.2202468801
 31
0.0
  0
LINE
  5
168
330
1F
100
AcDbEntity
  8
0
  6
CONTINUOUS
 62
     7
100
AcDbLine
 10
560.3646574004
 20
433.2202468801
 30
0.0
 11
560.3646574004
 21
426.2202475953
 31
0.0
  0
LINE
  5
169
330
1F
100
AcDbEntity
  8
0
  6
CONTINUOUS
 62
     7
100
AcDbLine
 10
569.8380957751
 20
433.2202468801
 30
0.0
 11
571.5001861959
 21
433.2202468801
 31
0.0
  0
LINE
  5
16A
330
1F
100
AcDbEntity
  8
0
  6
CONTINUOUS
 62
     7
100
AcDbLine
 10
560.3646574004
 20
433.2202468801
 30
0.0
 11
562.0266979954
 21
433.2202468801
 31
0.0
  0
LINE
  5
16B
330
1F
100
AcDbEntity
  8
0
  6
CONTINUOUS
 62
     7
100
AcDbLine
 10
581.9324225581
 20
433.2202468801
 30
0.0
 11
571.5001861959
 21
433.2202468801
 31
0.0
  0
LINE
  5
16C
330
1F
100
AcDbEntity
  8
0
  6
CONTINUOUS
 62
     7
100
AcDbLine
 10
560.3646574004
 20
433.2202468801
 30
0.0
 11
549.9324210382
 21
433.2202468801
 31
0.0
  0
LINE
  5
16D
330
1F
100
AcDbEntity
  8
0
  6
CONTINUOUS
 62
     7
100
AcDbLine
 10
561.7565986163
 20
474.2202489439
 30
0.0
 11
561.7565986163
 21
467.7202469471
 31
0.0
  0
LINE
  5
16E
330
1F
100
AcDbEntity
  8
0
  6
CONTINUOUS
 62
     7
100
AcDbLine
 10
561.7565986163
 20
467.7202469471
 30
0.0
 11
570.10824498
 21
467.7202469471
 31
0.0
  0
LINE
  5
16F
330
1F
100
AcDbEntity
  8
0
  6
CONTINUOUS
 62
     7
100
AcDbLine
 10
570.10824498
 20
467.7202469471
 30
0.0
 11
570.10824498
 21
474.2202489439
 31
0.0
  0
LINE
  5
170
330
1F
100
AcDbEntity
  8
0
  6
CONTINUOUS
 62
     7
100
AcDbLine
 10
570.10824498
 20
474.2202489439
 30
0.0
 11
577.9324219025
 21
474.2202489439
 31
0.0
  0
LINE
  5
171
330
1F
100
AcDbEntity
  8
0
  6
CONTINUOUS
 62
     7
100
AcDbLine
 10
553.9324216938
 20
474.2202489439
 30
0.0
 11
561.7565986163
 21
474.2202489439
 31
0.0
  0
SPLINE
  5
172
330
1F
100
AcDbEntity
  8
0
  6
CONTINUOUS
 62
     7
100
AcDbSpline
210
0.0
220
0.0
230
1.0
 70
     8
 71
     3
 72
     8
 73
     4
 74
     0
 42
0.000000001
 43
0.00000001
 40
0.0
 40
0.0
 40
0.0
 40
0.0
 40
1.0
 40
1.0
 40
1.0
 40
1.0
 10
561.7565985261058
 20
474.2202472145034
 30
0.0
 10
562.343137779177
 20
474.4243542363973
 30
0.0
 10
562.9392703665993
 20
474.5940984132995
 30
0.0
 10
563.5475738005817
 20
474.7202472156021
 30
0.0
  0
LINE
  5
173
330
1F
100
AcDbEntity
  8
0
  6
CONTINUOUS
 62
     7
100
AcDbLine
 10
563.5475738368
 20
474.7202462319
 30
0.0
 11
568.3172697595
 21
474.7202462319
 31
0.0
  0
SPLINE
  5
174
330
1F
100
AcDbEntity
  8
0
  6
CONTINUOUS
 62
     7
100
AcDbSpline
210
0.0
220
0.0
230
1.0
 70
     8
 71
     3
 72
     8
 73
     4
 74
     0
 42
0.000000001
 43
0.00000001
 40
0.0
 40
0.0
 40
0.0
 40
0.0
 40
1.0
 40
1.0
 40
1.0
 40
1.0
 10
570.1082450679365
 20
474.2202472152169
 30
0.0
 10
569.5217058176444
 20
474.4243542360492
 30
0.0
 10
568.9255732337799
 20
474.5940984120961
 30
0.0
 10
568.3172698027814
 20
474.7202472141374
 30
0.0
  0
LINE
  5
175
330
1F
100
AcDbEntity
  8
0
  6
CONTINUOUS
 62
     7
100
AcDbLine
 10
568.3172697595
 20
474.7202462319
 30
0.0
 11
577.4324218205
 21
474.7202462319
 31
0.0
  0
LINE
  5
176
330
1F
100
AcDbEntity
  8
0
  6
CONTINUOUS
 62
     7
100
AcDbLine
 10
554.4324217758
 20
474.7202462319
 30
0.0
 11
563.5475738368
 21
474.7202462319
 31
0.0
  0
LINE
  5
177
330
1F
100
AcDbEntity
  8
0
  6
CONTINUOUS
 62
     8
100
AcDbLine
 10
468.6824221558
 20
415.9202471643
 30
0.0
 11
465.1824225134
 21
415.9202471643
 31
0.0
  0
LINE
  5
178
330
1F
100
AcDbEntity
  8
0
  6
CONTINUOUS
 62
     8
100
AcDbLine
 10
490.6824220366
 20
415.9202471643
 30
0.0
 11
487.1824223942
 21
415.9202471643
 31
0.0
  0
LINE
  5
179
330
1F
100
AcDbEntity
  8
0
  6
CONTINUOUS
 62
     8
100
AcDbLine
 10
512.6824219174
 20
415.9202471643
 30
0.0
 11
509.182422275
 21
415.9202471643
 31
0.0
  0
LINE
  5
17A
330
1F
100
AcDbEntity
  8
0
  6
CONTINUOUS
 62
     8
100
AcDbLine
 10
534.6824217982
 20
415.9202471643
 30
0.0
 11
531.1824221558
 21
415.9202471643
 31
0.0
  0
LINE
  5
17B
330
1F
100
AcDbEntity
  8
0
  6
CONTINUOUS
 62
     8
100
AcDbLine
 10
556.6824216789
 20
415.9202471643
 30
0.0
 11
553.1824220366
 21
415.9202471643
 31
0.0
  0
LINE
  5
17C
330
1F
100
AcDbEntity
  8
0
  6
CONTINUOUS
 62
     8
100
AcDbLine
 10
578.6824215597
 20
415.9202471643
 30
0.0
 11
575.1824219174
 21
415.9202471643
 31
0.0
  0
LINE
  5
17D
330
1F
100
AcDbEntity
  8
0
  6
CONTINUOUS
 62
     8
100
AcDbLine
 10
600.6824214405
 20
415.9202471643
 30
0.0
 11
597.1824217982
 21
415.9202471643
 31
0.0
  0
LINE
  5
17E
330
1F
100
AcDbEntity
  8
0
  6
CONTINUOUS
 62
     8
100
AcDbLine
 10
622.6824213213
 20
415.9202471643
 30
0.0
 11
619.1824216789
 21
415.9202471643
 31
0.0
  0
LINE
  5
17F
330
1F
100
AcDbEntity
  8
0
  6
CONTINUOUS
 62
     8
100
AcDbLine
 10
644.6824212021
 20
415.9202471643
 30
0.0
 11
641.1824215597
 21
415.9202471643
 31
0.0
  0
LINE
  5
180
330
1F
100
AcDbEntity
  8
0
  6
CONTINUOUS
 62
     8
100
AcDbLine
 10
666.6824210829
 20
415.9202471643
 30
0.0
 11
663.1824214405
 21
415.9202471643
 31
0.0
  0
LINE
  5
181
330
1F
100
AcDbEntity
  8
0
  6
CONTINUOUS
 62
     8
100
AcDbLine
 10
554.6817470736
 20
458.4095394972
 30
0.0
 11
565.9324217982
 21
458.4095394972
 31
0.0
  0
LINE
  5
182
330
1F
100
AcDbEntity
  8
0
  6
CONTINUOUS
 62
     8
100
AcDbLine
 10
565.9324217982
 20
458.4095394972
 30
0.0
 11
577.1830965227
 21
458.4095394972
 31
0.0
  0
ENDSEC
  0
SECTION
  2
OBJECTS
  0
DICTIONARY
  5
C
330
0
100
AcDbDictionary
  3
ACAD_GROUP
350
D
  3
ACAD_MLINESTYLE
350
17
  3
ACAD_SCALELIST
350
47
  0
DICTIONARY
  5
D
102
{ACAD_REACTORS
330
C
102
}
330
C
100
AcDbDictionary
  0
DICTIONARY
  5
17
102
{ACAD_REACTORS
330
C
102
}
330
C
100
AcDbDictionary
  3
STANDARD
350
18
  0
DICTIONARY
  5
47
102
{ACAD_REACTORS
330
C
102
}
330
C
100
AcDbDictionary
  0
MLINESTYLE
  5
18
102
{ACAD_REACTORS
330
17
102
}
330
17
100
AcDbMlineStyle
  2
Standard
 70
     0
  3

 62
   256
 51
90.0
 52
90.0
 71
     2
 49
0.5
 62
   256
  6
BYLAYER
 49
-0.5
 62
   256
  6
BYLAYER
  0
ENDSEC
  0
EOF
