  0
SECTION
  2
HEADER
  9
$ACADVER
  1
AC1015
  9
$ACADMAINTVER
 70
     6
  9
$DWGCODEPAGE
  3
ANSI_1252
  9
$INSBASE
 10
0.0
 20
0.0
 30
0.0
  9
$EXTMIN
 10
0.0
 20
0.0
 30
0.0
  9
$EXTMAX
 10
594.0
 20
841.0
 30
0.0
  9
$LIMMIN
 10
0.0
 20
0.0
  9
$LIMMAX
 10
594.0
 20
841.0
  9
$ORTHOMODE
 70
     0
  9
$REGENMODE
 70
     1
  9
$FILLMODE
 70
     1
  9
$QTEXTMODE
 70
     0
  9
$MIRRTEXT
 70
     1
  9
$LTSCALE
 40
1.0
  9
$ATTMODE
 70
     1
  9
$TEXTSIZE
 40
10.0
  9
$TRACEWID
 40
1.0
  9
$TEXTSTYLE
  7
Standard
  9
$CLAYER
  8
0
  9
$CELTYPE
  6
ByLayer
  9
$CECOLOR
 62
   256
  9
$CELTSCALE
 40
1.0
  9
$DISPSILH
 70
     0
  9
$DIMSCALE
 40
1.0
  9
$DIMASZ
 40
2.5
  9
$DIMEXO
 40
0.0
  9
$DIMDLI
 40
3.75
  9
$DIMRND
 40
0.0
  9
$DIMDLE
 40
0.0
  9
$DIMEXE
 40
1.0
  9
$DIMTP
 40
0.0
  9
$DIMTM
 40
0.0
  9
$DIMTXT
 40
3.5
  9
$DIMCEN
 40
2.5
  9
$DIMTSZ
 40
0.0
  9
$DIMTOL
 70
     0
  9
$DIMLIM
 70
     0
  9
$DIMTIH
 70
     1
  9
$DIMTOH
 70
     1
  9
$DIMSE1
 70
     0
  9
$DIMSE2
 70
     0
  9
$DIMTAD
 70
     1
  9
$DIMZIN
 70
     0
  9
$DIMBLK
  1

  9
$DIMASO
 70
     1
  9
$DIMSHO
 70
     1
  9
$DIMPOST
  1

  9
$DIMAPOST
  1

  9
$DIMALT
 70
     0
  9
$DIMALTD
 70
     3
  9
$DIMALTF
 40
0.0393700787
  9
$DIMLFAC
 40
1.0
  9
$DIMTOFL
 70
     1
  9
$DIMTVP
 40
0.0
  9
$DIMTIX
 70
     0
  9
$DIMSOXD
 70
     0
  9
$DIMSAH
 70
     0
  9
$DIMBLK1
  1

  9
$DIMBLK2
  1

  9
$DIMSTYLE
  2
ISO-25
  9
$DIMCLRD
 70
     0
  9
$DIMCLRE
 70
     0
  9
$DIMCLRT
 70
     0
  9
$DIMTFAC
 40
1.0
  9
$DIMGAP
 40
1.5
  9
$DIMJUST
 70
     0
  9
$DIMSD1
 70
     0
  9
$DIMSD2
 70
     0
  9
$DIMTOLJ
 70
     0
  9
$DIMTZIN
 70
     0
  9
$DIMALTZ
 70
     0
  9
$DIMALTTZ
 70
     0
  9
$DIMUPT
 70
     0
  9
$DIMDEC
 70
     2
  9
$DIMTDEC
 70
     2
  9
$DIMALTU
 70
     2
  9
$DIMALTTD
 70
     3
  9
$DIMTXSTY
  7
Standard
  9
$DIMAUNIT
 70
     0
  9
$DIMADEC
 70
     2
  9
$DIMALTRND
 40
0.0
  9
$DIMAZIN
 70
     0
  9
$DIMDSEP
 70
    44
  9
$DIMATFIT
 70
     3
  9
$DIMFRAC
 70
     0
  9
$DIMLDRBLK
  1

  9
$DIMLUNIT
 70
     2
  9
$DIMLWD
 70
    -2
  9
$DIMLWE
 70
    -2
  9
$DIMTMOVE
 70
     0
  9
$LUNITS
 70
     2
  9
$LUPREC
 70
     2
  9
$SKETCHINC
 40
1.0
  9
$FILLETRAD
 40
10.0
  9
$AUNITS
 70
     0
  9
$AUPREC
 70
     2
  9
$MENU
  1
.
  9
$ELEVATION
 40
0.0
  9
$PELEVATION
 40
0.0
  9
$THICKNESS
 40
0.0
  9
$LIMCHECK
 70
     0
  9
$CHAMFERA
 40
0.0
  9
$CHAMFERB
 40
0.0
  9
$CHAMFERC
 40
0.0
  9
$CHAMFERD
 40
0.0
  9
$SKPOLY
 70
     0
  9
$TDCREATE
 40
2459692.458174537
  9
$TDUCREATE
 40
2459692.374841204
  9
$TDUPDATE
 40
2459692.45817544
  9
$TDUUPDATE
 40
2459692.374842106
  9
$TDINDWG
 40
0.0000000116
  9
$TDUSRTIMER
 40
0.0000000116
  9
$USRTIMER
 70
     1
  9
$ANGBASE
 50
0.0
  9
$ANGDIR
 70
     0
  9
$PDMODE
 70
     0
  9
$PDSIZE
 40
-1.0
  9
$PLINEWID
 40
0.0
  9
$SPLFRAME
 70
     0
  9
$SPLINETYPE
 70
     6
  9
$SPLINESEGS
 70
     8
  9
$HANDSEED
  5
15C
  9
$SURFTAB1
 70
     6
  9
$SURFTAB2
 70
     6
  9
$SURFTYPE
 70
     6
  9
$SURFU
 70
     6
  9
$SURFV
 70
     6
  9
$UCSBASE
  2

  9
$UCSNAME
  2

  9
$UCSORG
 10
0.0
 20
0.0
 30
0.0
  9
$UCSXDIR
 10
1.0
 20
0.0
 30
0.0
  9
$UCSYDIR
 10
0.0
 20
1.0
 30
0.0
  9
$UCSORTHOREF
  2

  9
$UCSORTHOVIEW
 70
     0
  9
$UCSORGTOP
 10
0.0
 20
0.0
 30
0.0
  9
$UCSORGBOTTOM
 10
0.0
 20
0.0
 30
0.0
  9
$UCSORGLEFT
 10
0.0
 20
0.0
 30
0.0
  9
$UCSORGRIGHT
 10
0.0
 20
0.0
 30
0.0
  9
$UCSORGFRONT
 10
0.0
 20
0.0
 30
0.0
  9
$UCSORGBACK
 10
0.0
 20
0.0
 30
0.0
  9
$PUCSBASE
  2

  9
$PUCSNAME
  2

  9
$PUCSORG
 10
0.0
 20
0.0
 30
0.0
  9
$PUCSXDIR
 10
1.0
 20
0.0
 30
0.0
  9
$PUCSYDIR
 10
0.0
 20
1.0
 30
0.0
  9
$PUCSORTHOREF
  2

  9
$PUCSORTHOVIEW
 70
     0
  9
$PUCSORGTOP
 10
0.0
 20
0.0
 30
0.0
  9
$PUCSORGBOTTOM
 10
0.0
 20
0.0
 30
0.0
  9
$PUCSORGLEFT
 10
0.0
 20
0.0
 30
0.0
  9
$PUCSORGRIGHT
 10
0.0
 20
0.0
 30
0.0
  9
$PUCSORGFRONT
 10
0.0
 20
0.0
 30
0.0
  9
$PUCSORGBACK
 10
0.0
 20
0.0
 30
0.0
  9
$USERI1
 70
     0
  9
$USERI2
 70
     0
  9
$USERI3
 70
     0
  9
$USERI4
 70
     0
  9
$USERI5
 70
     0
  9
$USERR1
 40
0.0
  9
$USERR2
 40
0.0
  9
$USERR3
 40
0.0
  9
$USERR4
 40
0.0
  9
$USERR5
 40
0.0
  9
$WORLDVIEW
 70
     1
  9
$SHADEDGE
 70
     3
  9
$SHADEDIF
 70
    70
  9
$TILEMODE
 70
     1
  9
$MAXACTVP
 70
    64
  9
$PINSBASE
 10
0.0
 20
0.0
 30
0.0
  9
$PLIMCHECK
 70
     0
  9
$PEXTMIN
 10
1.0000000000E+20
 20
1.0000000000E+20
 30
1.0000000000E+20
  9
$PEXTMAX
 10
-1.0000000000E+20
 20
-1.0000000000E+20
 30
-1.0000000000E+20
  9
$PLIMMIN
 10
0.0
 20
0.0
  9
$PLIMMAX
 10
420.0
 20
297.0
  9
$UNITMODE
 70
     0
  9
$VISRETAIN
 70
     1
  9
$PLINEGEN
 70
     0
  9
$PSLTSCALE
 70
     1
  9
$TREEDEPTH
 70
  3020
  9
$CMLSTYLE
  2
Standard
  9
$CMLJUST
 70
     0
  9
$CMLSCALE
 40
20.0
  9
$PROXYGRAPHICS
 70
     1
  9
$MEASUREMENT
 70
     1
  9
$CELWEIGHT
370
    -1
  9
$ENDCAPS
280
     0
  9
$JOINSTYLE
280
     0
  9
$LWDISPLAY
290
     1
  9
$INSUNITS
 70
     4
  9
$HYPERLINKBASE
  1

  9
$STYLESHEET
  1

  9
$XEDIT
290
     1
  9
$CEPSNTYPE
380
     0
  9
$PSTYLEMODE
290
     1
  9
$FINGERPRINTGUID
  2
{8f7240b5-91ec-4773-915e-2e607fc55f73}
  9
$VERSIONGUID
  2
{FAEB1C32-E019-11D5-929B-00C0DF256EC4}
  9
$EXTNAMES
290
     1
  9
$PSVPSCALE
 40
0.0
  9
$OLESTARTUP
290
     0
  0
ENDSEC
  0
SECTION
  2
CLASSES
  0
CLASS
  1
ACDBDICTIONARYWDFLT
  2
AcDbDictionaryWithDefault
  3
ObjectDBX Classes
 90
        0
280
     0
281
     0
  0
CLASS
  1
VISUALSTYLE
  2
AcDbVisualStyle
  3
ObjectDBX Classes
 90
     4095
280
     0
281
     0
  0
CLASS
  1
MATERIAL
  2
AcDbMaterial
  3
ObjectDBX Classes
 90
     1153
280
     0
281
     0
  0
CLASS
  1
SCALE
  2
AcDbScale
  3
ObjectDBX Classes
 90
     1153
280
     0
281
     0
  0
CLASS
  1
TABLESTYLE
  2
AcDbTableStyle
  3
ObjectDBX Classes
 90
     4095
280
     0
281
     0
  0
CLASS
  1
MLEADERSTYLE
  2
AcDbMLeaderStyle
  3
ACDB_MLEADERSTYLE_CLASS
 90
     4095
280
     0
281
     0
  0
CLASS
  1
SUN
  2
AcDbSun
  3
SCENEOE
 90
     1153
280
     0
281
     0
  0
CLASS
  1
ACDBPLACEHOLDER
  2
AcDbPlaceHolder
  3
ObjectDBX Classes
 90
        0
280
     0
281
     0
  0
CLASS
  1
LAYOUT
  2
AcDbLayout
  3
ObjectDBX Classes
 90
        0
280
     0
281
     0
  0
ENDSEC
  0
SECTION
  2
TABLES
  0
TABLE
  2
VPORT
  5
8
330
0
100
AcDbSymbolTable
 70
     1
  0
VPORT
  5
29
330
8
100
AcDbSymbolTableRecord
100
AcDbViewportTableRecord
  2
*Active
 70
     0
 10
0.0
 20
0.0
 11
1.0
 21
1.0
 12
297.0
 22
420.5
 13
0.0
 23
0.0
 14
10.0
 24
10.0
 15
10.0
 25
10.0
 16
0.0
 26
0.0
 36
1.0
 17
0.0
 27
0.0
 37
0.0
 40
841.0
 41
0.7063020214
 42
50.0
 43
0.0
 44
0.0
 50
0.0
 51
0.0
 71
     0
 72
  2000
 73
     1
 74
     3
 75
     0
 76
     0
 77
     0
 78
     0
281
     0
 65
     1
110
0.0
120
0.0
130
0.0
111
1.0
121
0.0
131
0.0
112
0.0
122
1.0
132
0.0
 79
     0
146
0.0
  0
ENDTAB
  0
TABLE
  2
LTYPE
  5
5
330
0
100
AcDbSymbolTable
 70
     6
  0
LTYPE
  5
14
330
5
100
AcDbSymbolTableRecord
100
AcDbLinetypeTableRecord
  2
ByBlock
 70
     0
  3

 72
    65
 73
     0
 40
0.0
  0
LTYPE
  5
15
330
5
100
AcDbSymbolTableRecord
100
AcDbLinetypeTableRecord
  2
ByLayer
 70
     0
  3

 72
    65
 73
     0
 40
0.0
  0
LTYPE
  5
16
330
5
100
AcDbSymbolTableRecord
100
AcDbLinetypeTableRecord
  2
Continuous
 70
     0
  3
Solid line
 72
    65
 73
     0
 40
0.0
  0
LTYPE
  5
6E
330
5
100
AcDbSymbolTableRecord
100
AcDbLinetypeTableRecord
  2
HIDDEN
 70
     0
  3
Hidden __ __ __ __ __ __ __ __ __ __ __ __ __ __
 72
    65
 73
     2
 40
1.905
 49
1.27
 74
     0
 49
-0.635
 74
     0
  0
LTYPE
  5
6F
330
5
100
AcDbSymbolTableRecord
100
AcDbLinetypeTableRecord
  2
PHANTOM
 70
     0
  3
Phantom ______  __  __  ______  __  __  ______
 72
    65
 73
     6
 40
12.7
 49
6.35
 74
     0
 49
-1.27
 74
     0
 49
1.27
 74
     0
 49
-1.27
 74
     0
 49
1.27
 74
     0
 49
-1.27
 74
     0
  0
LTYPE
  5
70
330
5
100
AcDbSymbolTableRecord
100
AcDbLinetypeTableRecord
  2
CENTER
 70
     0
  3
Center ____ _ ____ _ ____ _ ____ _ ____ _ ____
 72
    65
 73
     4
 40
10.16
 49
6.35
 74
     0
 49
-1.27
 74
     0
 49
1.27
 74
     0
 49
-1.27
 74
     0
  0
LTYPE
  5
71
330
5
100
AcDbSymbolTableRecord
100
AcDbLinetypeTableRecord
  2
CENTERX2
 70
     0
  3
Center (2x) ________  __  ________  __  _____
 72
    65
 73
     4
 40
20.32
 49
12.7
 74
     0
 49
-2.54
 74
     0
 49
2.54
 74
     0
 49
-2.54
 74
     0
  0
LTYPE
  5
72
330
5
100
AcDbSymbolTableRecord
100
AcDbLinetypeTableRecord
  2
DOT2
 70
     0
  3
Dot (.5x) ........................................
 72
    65
 73
     2
 40
0.635
 49
0.0
 74
     0
 49
-0.635
 74
     0
  0
ENDTAB
  0
TABLE
  2
LAYER
  5
2
330
0
100
AcDbSymbolTable
 70
     1
  0
LAYER
  5
10
330
2
100
AcDbSymbolTableRecord
100
AcDbLayerTableRecord
  2
0
 70
     0
 62
     7
  6
Continuous
370
    -3
390
F
  0
ENDTAB
  0
TABLE
  2
STYLE
  5
3
330
0
100
AcDbSymbolTable
 70
     3
  0
STYLE
  5
11
330
3
100
AcDbSymbolTableRecord
100
AcDbTextStyleTableRecord
  2
Standard
 70
     0
 40
0.0
 41
1.0
 50
0.0
 71
     0
 42
10.0
  3
txt
  4

  0
STYLE
  5
76
330
3
100
AcDbSymbolTableRecord
100
AcDbTextStyleTableRecord
  2
SLDTEXTSTYLE0
 70
     0
 40
0.0
 41
0.96
 50
0.0
 71
     0
 42
10.0
  3
ISOCP3
  4

  0
STYLE
  5
8D
330
3
100
AcDbSymbolTableRecord
100
AcDbTextStyleTableRecord
  2
SLDTEXTSTYLE1
 70
     0
 40
0.0
 41
0.605
 50
0.0
 71
     0
 42
10.0
  3
TXT
  4

  0
ENDTAB
  0
TABLE
  2
VIEW
  5
6
330
0
100
AcDbSymbolTable
 70
     0
  0
ENDTAB
  0
TABLE
  2
UCS
  5
7
330
0
100
AcDbSymbolTable
 70
     0
  0
ENDTAB
  0
TABLE
  2
APPID
  5
9
330
0
100
AcDbSymbolTable
 70
     1
  0
APPID
  5
12
330
9
100
AcDbSymbolTableRecord
100
AcDbRegAppTableRecord
  2
ACAD
 70
     0
  0
ENDTAB
  0
TABLE
  2
DIMSTYLE
  5
A
330
0
100
AcDbSymbolTable
 70
     2
100
AcDbDimStyleTable
  0
DIMSTYLE
105
27
330
A
100
AcDbSymbolTableRecord
100
AcDbDimStyleTableRecord
  2
ISO-25
 70
     0
 41
2.5
 42
0.625
 43
3.75
 44
1.25
 73
     0
 74
     0
 77
     1
 78
     8
140
2.5
141
2.5
143
0.0393700787
147
0.625
171
     3
172
     1
178
     0
271
     2
272
     2
274
     3
278
    44
283
     0
284
     8
340
11
  0
DIMSTYLE
105
77
102
{ACAD_REACTORS
330
75
330
82
102
}
330
A
100
AcDbSymbolTableRecord
100
AcDbDimStyleTableRecord
  2
SLDDIMSTYLE0
 70
     0
 41
2.5
 44
0.0
 45
0.000000001
 73
     0
 74
     0
 77
     1
 78
    12
 79
     3
140
6.0
147
1.5
173
     1
178
     0
271
     2
272
     2
276
     2
284
    12
340
76
  0
ENDTAB
  0
TABLE
  2
BLOCK_RECORD
  5
1
330
0
100
AcDbSymbolTable
 70
     3
  0
BLOCK_RECORD
  5
1F
330
1
100
AcDbSymbolTableRecord
100
AcDbBlockTableRecord
  2
*Model_Space
340
22
  0
BLOCK_RECORD
  5
1B
330
1
100
AcDbSymbolTableRecord
100
AcDbBlockTableRecord
  2
*Paper_Space
340
1E
  0
BLOCK_RECORD
  5
23
330
1
100
AcDbSymbolTableRecord
100
AcDbBlockTableRecord
  2
*Paper_Space0
340
26
  0
BLOCK_RECORD
  5
78
330
1
100
AcDbSymbolTableRecord
100
AcDbBlockTableRecord
  2
_D
340
0
  0
BLOCK_RECORD
  5
83
330
1
100
AcDbSymbolTableRecord
100
AcDbBlockTableRecord
  2
_D_1
340
0
  0
ENDTAB
  0
ENDSEC
  0
SECTION
  2
BLOCKS
  0
BLOCK
  5
20
330
1F
100
AcDbEntity
  8
0
100
AcDbBlockBegin
  2
*Model_Space
 70
     0
 10
0.0
 20
0.0
 30
0.0
  3
*Model_Space
  1

  0
ENDBLK
  5
21
330
1F
100
AcDbEntity
  8
0
100
AcDbBlockEnd
  0
BLOCK
  5
1C
330
1B
100
AcDbEntity
 67
     1
  8
0
100
AcDbBlockBegin
  2
*Paper_Space
 70
     0
 10
0.0
 20
0.0
 30
0.0
  3
*Paper_Space
  1

  0
ENDBLK
  5
1D
330
1B
100
AcDbEntity
 67
     1
  8
0
100
AcDbBlockEnd
  0
BLOCK
  5
24
330
23
100
AcDbEntity
  8
0
100
AcDbBlockBegin
  2
*Paper_Space0
 70
     0
 10
0.0
 20
0.0
 30
0.0
  3
*Paper_Space0
  1

  0
ENDBLK
  5
25
330
23
100
AcDbEntity
  8
0
100
AcDbBlockEnd
  0
BLOCK
  5
79
330
78
100
AcDbEntity
  8
0
100
AcDbBlockBegin
  2
_D
 70
     0
 10
0.0
 20
0.0
 30
0.0
  3
_D
  1

  0
SOLID
  5
7B
330
78
100
AcDbEntity
  8
0
  6
Continuous
 62
     7
370
    18
100
AcDbTrace
 10
42.7614395004
 20
152.0299240879
 30
0.0
 11
42.4614395004
 21
149.5299240879
 31
0.0
 12
43.0614395004
 22
149.5299240879
 32
0.0
 13
43.0614395004
 23
149.5299240879
 33
0.0
  0
SOLID
  5
7C
330
78
100
AcDbEntity
  8
0
  6
Continuous
 62
     7
370
    18
100
AcDbTrace
 10
42.7614395004
 20
52.0299240879
 30
0.0
 11
43.0614395004
 21
54.5299240879
 31
0.0
 12
42.4614395004
 22
54.5299240879
 32
0.0
 13
42.4614395004
 23
54.5299240879
 33
0.0
  0
LINE
  5
7D
330
78
100
AcDbEntity
  8
0
  6
Continuous
 62
     7
370
     0
100
AcDbLine
 10
56.6850079902
 20
152.0299240879
 30
0.0
 11
41.7614395004
 21
152.0299240879
 31
0.0
  0
LINE
  5
7E
330
78
100
AcDbEntity
  8
0
  6
Continuous
 62
     7
370
     0
100
AcDbLine
 10
56.6850079902
 20
52.0299240879
 30
0.0
 11
41.7614395004
 21
52.0299240879
 31
0.0
  0
LINE
  5
7F
330
78
100
AcDbEntity
  8
0
  6
Continuous
 62
     7
370
     0
100
AcDbLine
 10
42.7614395004
 20
152.0299240879
 30
0.0
 11
42.7614395004
 21
52.0299240879
 31
0.0
  0
MTEXT
  5
80
330
78
100
AcDbEntity
  8
0
  6
Continuous
 62
     7
370
    18
100
AcDbMText
 10
35.0270332946
 20
94.3680541463
 30
0.0
 40
6.0
 41
0.0
 71
     1
 72
     1
  1
100
  7
SLDTEXTSTYLE0
 11
-7.044195017643634E-15
 21
1.0
 31
0.0
 73
     1
 44
1.0
  0
MTEXT
  5
81
330
78
100
AcDbEntity
  8
0
  6
Continuous
 62
     7
370
    18
100
AcDbMText
 10
35.0270332946
 20
105.7430548466
 30
0.0
 40
6.0
 41
0.0
 71
     1
 72
     1
  1
mm
  7
SLDTEXTSTYLE0
 11
-7.044195017643634E-15
 21
1.0
 31
0.0
 73
     1
 44
1.0
  0
ENDBLK
  5
7A
330
78
100
AcDbEntity
  8
0
100
AcDbBlockEnd
  0
BLOCK
  5
84
330
83
100
AcDbEntity
  8
0
100
AcDbBlockBegin
  2
_D_1
 70
     0
 10
0.0
 20
0.0
 30
0.0
  3
_D_1
  1

  0
SOLID
  5
86
330
83
100
AcDbEntity
  8
0
  6
Continuous
 62
     7
370
    18
100
AcDbTrace
 10
56.6850079902
 20
38.4602342313
 30
0.0
 11
59.1850079902
 21
38.1602342313
 31
0.0
 12
59.1850079902
 22
38.7602342313
 32
0.0
 13
59.1850079902
 23
38.7602342313
 33
0.0
  0
SOLID
  5
87
330
83
100
AcDbEntity
  8
0
  6
Continuous
 62
     7
370
    18
100
AcDbTrace
 10
156.6850079902
 20
38.4602342313
 30
0.0
 11
154.1850079902
 21
38.7602342313
 31
0.0
 12
154.1850079902
 22
38.1602342313
 32
0.0
 13
154.1850079902
 23
38.1602342313
 33
0.0
  0
LINE
  5
88
330
83
100
AcDbEntity
  8
0
  6
Continuous
 62
     7
370
     0
100
AcDbLine
 10
56.6850079902
 20
52.0299240879
 30
0.0
 11
56.6850079902
 21
37.4602342313
 31
0.0
  0
LINE
  5
89
330
83
100
AcDbEntity
  8
0
  6
Continuous
 62
     7
370
     0
100
AcDbLine
 10
156.6850079902
 20
52.0299240879
 30
0.0
 11
156.6850079902
 21
37.4602342313
 31
0.0
  0
LINE
  5
8A
330
83
100
AcDbEntity
  8
0
  6
Continuous
 62
     7
370
     0
100
AcDbLine
 10
56.6850079902
 20
38.4602342313
 30
0.0
 11
156.6850079902
 21
38.4602342313
 31
0.0
  0
MTEXT
  5
8B
330
83
100
AcDbEntity
  8
0
  6
Continuous
 62
     7
370
    18
100
AcDbMText
 10
93.9626484861
 20
46.1946404371
 30
0.0
 40
6.0
 41
0.0
 71
     1
 72
     1
  1
100
  7
SLDTEXTSTYLE0
 73
     1
 44
1.0
  0
MTEXT
  5
8C
330
83
100
AcDbEntity
  8
0
  6
Continuous
 62
     7
370
    18
100
AcDbMText
 10
105.3376491864
 20
46.1946404371
 30
0.0
 40
6.0
 41
0.0
 71
     1
 72
     1
  1
mm
  7
SLDTEXTSTYLE0
 73
     1
 44
1.0
  0
ENDBLK
  5
85
330
83
100
AcDbEntity
  8
0
100
AcDbBlockEnd
  0
ENDSEC
  0
SECTION
  2
ENTITIES
  0
LINE
  5
73
330
1F
100
AcDbEntity
  8
0
  6
Continuous
 62
     7
370
    18
100
AcDbLine
 10
56.6850079902
 20
152.0299240879
 30
0.0
 11
56.6850079902
 21
52.0299240879
 31
0.0
  0
LINE
  5
74
330
1F
100
AcDbEntity
  8
0
  6
Continuous
 62
     7
370
    18
100
AcDbLine
 10
56.6850079902
 20
52.0299240879
 30
0.0
 11
156.6850079902
 21
52.0299240879
 31
0.0
  0
DIMENSION
  5
75
330
1F
100
AcDbEntity
  8
0
  6
Continuous
 62
     7
370
    18
100
AcDbDimension
  2
_D
 10
42.7614395004
 20
52.0299240879
 30
0.0
 11
42.7614395004
 21
105.4472211621
 31
0.0
 70
   160
  1
<>mm
 71
     2
 42
-1.0
  3
SLDDIMSTYLE0
100
AcDbAlignedDimension
 13
56.6850079902
 23
152.0299240879
 33
0.0
 14
56.6850079902
 24
52.0299240879
 34
0.0
 50
90.0
100
AcDbRotatedDimension
  0
DIMENSION
  5
82
330
1F
100
AcDbEntity
  8
0
  6
Continuous
 62
     7
370
    18
100
AcDbDimension
  2
_D_1
 10
156.6850079902
 20
38.4602342313
 30
0.0
 11
105.0418155019
 21
38.4602342313
 31
0.0
 70
   160
  1
<>mm
 71
     2
 42
-1.0
  3
SLDDIMSTYLE0
100
AcDbAlignedDimension
 13
56.6850079902
 23
52.0299240879
 33
0.0
 14
156.6850079902
 24
52.0299240879
 34
0.0
100
AcDbRotatedDimension
  0
MTEXT
  5
8E
330
1F
100
AcDbEntity
  8
0
  6
Continuous
 62
     7
370
     0
100
AcDbMText
 10
412.8252631579
 20
48.4342449499
 30
0.0
 40
10.0
 41
0.0
 71
     1
 72
     1
  1
KLUDI GmbH & Co KG
  7
SLDTEXTSTYLE1
 73
     1
 44
1.0
  0
MTEXT
  5
8F
330
1F
100
AcDbEntity
  8
0
  6
Continuous
 62
     7
370
     0
100
AcDbMText
 10
210.0873490389
 20
48.4342449499
 30
0.0
 40
10.0
 41
0.0
 71
     1
 72
     1
  1
20 266 .. 15
  7
SLDTEXTSTYLE1
 73
     1
 44
1.0
  0
LINE
  5
90
330
1F
100
AcDbEntity
  8
0
  6
Continuous
 62
     7
370
    25
100
AcDbLine
 10
163.8693842466
 20
371.461946694
 30
0.0
 11
163.8693842466
 21
384.7207956322
 31
0.0
  0
LINE
  5
91
330
1F
100
AcDbEntity
  8
0
  6
Continuous
 62
     7
370
    25
100
AcDbLine
 10
142.8693842466
 20
384.7207956322
 30
0.0
 11
142.8693842466
 21
371.4619466964
 31
0.0
  0
SPLINE
  5
92
330
1F
100
AcDbEntity
  8
0
  6
Continuous
 62
     7
370
    25
100
AcDbSpline
210
0.0
220
0.0
230
1.0
 70
    24
 71
     3
 72
     9
 73
     5
 74
     0
 42
0.00000001
 43
0.00000001
 40
0.0
 40
0.0
 40
0.0
 40
0.0
 40
0.4999999999999994
 40
1.0
 40
1.0
 40
1.0
 40
1.0
 10
163.8693842466212
 20
401.4790411463215
 30
0.0
 10
163.8693842466212
 20
401.8404063705416
 30
0.0
 10
163.8693842466212
 20
402.5631368189817
 30
0.0
 10
163.8693842466212
 20
402.667896901389
 30
0.0
 10
163.8693842466212
 20
402.7202769425928
 30
0.0
  0
SPLINE
  5
93
330
1F
100
AcDbEntity
  8
0
  6
Continuous
 62
     7
370
    25
100
AcDbSpline
210
0.0
220
0.0
230
1.0
 70
    24
 71
     3
 72
    14
 73
    10
 74
     0
 42
0.00000001
 43
0.00000001
 40
0.0
 40
0.0
 40
0.0
 40
0.0
 40
0.1435191418308286
 40
0.2962866785723146
 40
0.4583005661616575
 40
0.5859196118433124
 40
0.718742911261344
 40
0.8567699020966891
 40
1.0
 40
1.0
 40
1.0
 40
1.0
 10
163.8693842466214
 20
384.5245409362856
 30
0.0
 10
163.8693842466214
 20
385.6850399070754
 30
0.0
 10
163.8693842466214
 20
388.0808205754633
 30
0.0
 10
163.8693842466213
 20
391.421330313617
 30
0.0
 10
163.8693842466213
 20
394.3068691408697
 30
0.0
 10
163.8693842466213
 20
396.7051050256206
 30
0.0
 10
163.8693842466213
 20
398.6379353572667
 30
0.0
 10
163.8693842466213
 20
400.3045764364043
 30
0.0
 10
163.8693842466212
 20
401.0827542881536
 30
0.0
 10
163.8693842466212
 20
401.4790411529296
 30
0.0
  0
SPLINE
  5
94
330
1F
100
AcDbEntity
  8
0
  6
Continuous
 62
     7
370
    25
100
AcDbSpline
210
0.0
220
0.0
230
1.0
 70
     8
 71
     3
 72
    26
 73
    22
 74
     0
 42
0.00000001
 43
0.00000001
 40
0.0
 40
0.0
 40
0.0
 40
0.0
 40
0.0136168320242314
 40
0.0560758750689746
 40
0.1395919210856082
 40
0.213161851237097
 40
0.2762878327893816
 40
0.329389518152865
 40
0.3746485183432011
 40
0.4177053989014575
 40
0.4598381272416265
 40
0.5010465878008545
 40
0.5804883986384379
 40
0.6237771023695184
 40
0.6773518788240006
 40
0.7418533505830952
 40
0.817342315135851
 40
0.8591932246154945
 40
0.90364551288573
 40
0.9506123451827182
 40
1.0
 40
1.0
 40
1.0
 40
1.0
 10
163.7129187469346
 20
400.1165527357187
 30
0.0
 10
163.7405663739631
 20
400.2350051540936
 30
0.0
 10
163.8544228771826
 20
400.7228075300491
 30
0.0
 10
163.9049064662046
 20
401.656529350802
 30
0.0
 10
163.6887967137732
 20
404.3457812309192
 30
0.0
 10
162.8998015540471
 20
406.6663135684485
 30
0.0
 10
161.7889949474935
 20
408.6372121084675
 30
0.0
 10
160.478374362466
 20
410.1333835614194
 30
0.0
 10
159.0530118375151
 20
411.2150084300995
 30
0.0
 10
157.6097377624047
 20
411.9744957423638
 30
0.0
 10
156.1113533504312
 20
412.4968652222614
 30
0.0
 10
154.1059938604675
 20
412.8747256403229
 30
0.0
 10
152.0229391460414
 20
412.8276931070597
 30
0.0
 10
149.8791740468806
 20
412.2632552391551
 30
0.0
 10
148.0858192889862
 20
411.3950158410141
 30
0.0
 10
146.220756879756
 20
409.9493085795294
 30
0.0
 10
144.8319595019835
 20
408.2209151334436
 30
0.0
 10
143.903271791655
 20
406.4880761558431
 30
0.0
 10
143.3361141707847
 20
404.9633618881703
 30
0.0
 10
142.946034881269
 20
403.2758133893017
 30
0.0
 10
142.8953588551685
 20
402.0879135478262
 30
0.0
 10
142.8693842466213
 20
401.4790411529296
 30
0.0
  0
SPLINE
  5
95
330
1F
100
AcDbEntity
  8
0
  6
Continuous
 62
     7
370
    25
100
AcDbSpline
210
0.0
220
0.0
230
1.0
 70
     8
 71
     3
 72
     9
 73
     5
 74
     0
 42
0.00000001
 43
0.00000001
 40
0.0
 40
0.0
 40
0.0
 40
0.0
 40
0.1050659844321765
 40
1.0
 40
1.0
 40
1.0
 40
1.0
 10
143.0510304826452
 20
399.8708051682648
 30
0.0
 10
143.0348502258308
 20
399.92772083921
 30
0.0
 10
142.8808493196213
 20
400.4694344228479
 30
0.0
 10
142.8747989384968
 20
401.0022269748771
 30
0.0
 10
142.8693842466213
 20
401.4790411529291
 30
0.0
  0
SPLINE
  5
96
330
1F
100
AcDbEntity
  8
0
  6
Continuous
 62
     7
370
    25
100
AcDbSpline
210
0.0
220
0.0
230
1.0
 70
    24
 71
     3
 72
    14
 73
    10
 74
     0
 42
0.00000001
 43
0.00000001
 40
0.0
 40
0.0
 40
0.0
 40
0.0
 40
0.1435191418308289
 40
0.2962866785723147
 40
0.4583005661616578
 40
0.5859196118433119
 40
0.7187429112613438
 40
0.8567699020966885
 40
0.9999999999999999
 40
0.9999999999999999
 40
0.9999999999999999
 40
0.9999999999999999
 10
142.8693842466213
 20
401.4790411529291
 30
0.0
 10
142.8693842466213
 20
401.0815511275966
 30
0.0
 10
142.8693842466213
 20
400.2609567603992
 30
0.0
 10
142.8693842466213
 20
398.3905161618111
 30
0.0
 10
142.8693842466213
 20
396.1593323075357
 30
0.0
 10
142.8693842466213
 20
393.6500050148447
 30
0.0
 10
142.8693842466213
 20
390.9901503084617
 30
0.0
 10
142.8693842466214
 20
387.9576278860051
 30
0.0
 10
142.8693842466214
 20
385.6829301536582
 30
0.0
 10
142.8693842466214
 20
384.5245409362855
 30
0.0
  0
SPLINE
  5
97
330
1F
100
AcDbEntity
  8
0
  6
Continuous
 62
     7
370
    25
100
AcDbSpline
210
0.0
220
0.0
230
1.0
 70
    24
 71
     3
 72
     9
 73
     5
 74
     0
 42
0.00000001
 43
0.00000001
 40
0.0
 40
0.0
 40
0.0
 40
0.0
 40
0.4999999999998917
 40
1.0
 40
1.0
 40
1.0
 40
1.0
 10
142.8693842466212
 20
402.7202769562805
 30
0.0
 10
142.8693842466212
 20
402.667896915062
 30
0.0
 10
142.8693842466212
 20
402.5631368326251
 30
0.0
 10
142.8693842466212
 20
401.84040638392
 30
0.0
 10
142.8693842466213
 20
401.4790411595674
 30
0.0
  0
LINE
  5
98
330
1F
100
AcDbEntity
  8
0
  6
Continuous
 62
     7
370
    25
100
AcDbLine
 10
178.3693842466
 20
296.4619467002
 30
0.0
 11
178.3693842466
 21
302.6619467002
 31
0.0
  0
LINE
  5
99
330
1F
100
AcDbEntity
  8
0
  6
Continuous
 62
     7
370
    25
100
AcDbLine
 10
128.3693842466
 20
302.6619467002
 30
0.0
 11
128.3693842466
 21
296.4619467002
 31
0.0
  0
ARC
  5
9A
330
1F
100
AcDbEntity
  8
0
  6
Continuous
 62
     7
370
    25
100
AcDbCircle
 10
129.1693842466
 20
302.6619467002
 30
0.0
 40
0.799999999999983
100
AcDbArc
 50
90.0
 51
180.0
  0
ARC
  5
9B
330
1F
100
AcDbEntity
  8
0
  6
Continuous
 62
     7
370
    25
100
AcDbCircle
 10
177.5693842466
 20
302.6619467002
 30
0.0
 40
0.799999999999983
100
AcDbArc
 50
0.0
 51
90.0
  0
LINE
  5
9C
330
1F
100
AcDbEntity
  8
0
  6
Continuous
 62
     7
370
    25
100
AcDbLine
 10
171.3693842466
 20
303.4619467002
 30
0.0
 11
171.3693842466
 21
442.6619467002
 31
0.0
  0
LINE
  5
9D
330
1F
100
AcDbEntity
  8
0
  6
Continuous
 62
     7
370
    25
100
AcDbLine
 10
135.3693842466
 20
442.6619467002
 30
0.0
 11
135.3693842466
 21
303.4619467002
 31
0.0
  0
LINE
  5
9E
330
1F
100
AcDbEntity
  8
0
  6
Continuous
 62
     7
370
    25
100
AcDbLine
 10
171.3693842466
 20
447.3191715955
 30
0.0
 11
171.3693842466
 21
467.6619467002
 31
0.0
  0
LINE
  5
9F
330
1F
100
AcDbEntity
  8
0
  6
Continuous
 62
     7
370
    25
100
AcDbLine
 10
135.3693842466
 20
467.6619467002
 30
0.0
 11
135.3693842466
 21
447.3156201588
 31
0.0
  0
ARC
  5
A0
330
1F
100
AcDbEntity
  8
0
  6
Continuous
 62
     7
370
    25
100
AcDbCircle
 10
170.5693842466
 20
442.6619467002
 30
0.0
 40
0.799999999999983
100
AcDbArc
 50
0.0
 51
90.0
  0
ARC
  5
A1
330
1F
100
AcDbEntity
  8
0
  6
Continuous
 62
     7
370
    25
100
AcDbCircle
 10
136.1693842466
 20
442.6619467002
 30
0.0
 40
0.799999999999983
100
AcDbArc
 50
90.0
 51
180.0
  0
ARC
  5
A2
330
1F
100
AcDbEntity
  8
0
  6
Continuous
 62
     7
370
    25
100
AcDbCircle
 10
136.1693842466
 20
467.6619467002
 30
0.0
 40
0.8000000000000682
100
AcDbArc
 50
90.0
 51
180.0
  0
ARC
  5
A3
330
1F
100
AcDbEntity
  8
0
  6
Continuous
 62
     7
370
    25
100
AcDbCircle
 10
170.5693842466
 20
467.6619467002
 30
0.0
 40
0.8000000000000682
100
AcDbArc
 50
0.0
 51
90.0
  0
LINE
  5
A4
330
1F
100
AcDbEntity
  8
0
  6
Continuous
 62
     7
370
    25
100
AcDbLine
 10
169.8693842466
 20
443.4619467002
 30
0.0
 11
169.8693842466
 21
443.8631904918
 31
0.0
  0
LINE
  5
A5
330
1F
100
AcDbEntity
  8
0
  6
Continuous
 62
     7
370
    25
100
AcDbLine
 10
136.8693842466
 20
443.8631904918
 30
0.0
 11
136.8693842466
 21
443.4619467002
 31
0.0
  0
ARC
  5
A6
330
1F
100
AcDbEntity
  8
0
  6
Continuous
 62
     7
370
    25
100
AcDbCircle
 10
137.8693842466
 20
443.8631904918
 30
0.0
 40
1.000000000000034
100
AcDbArc
 50
168.6348556495
 51
180.0
  0
ARC
  5
A7
330
1F
100
AcDbEntity
  8
0
  6
Continuous
 62
     7
370
    25
100
AcDbCircle
 10
168.8693842466
 20
443.8631904918
 30
0.0
 40
1.000000000000034
100
AcDbArc
 50
0.0
 51
11.3651443505
  0
ARC
  5
A8
330
1F
100
AcDbEntity
  8
0
  6
Continuous
 62
     7
370
    25
100
AcDbCircle
 10
170.2222950757
 20
437.3601788137
 30
0.0
 40
34.00000000000001
100
AcDbArc
 50
164.472606992
 51
168.6348556495
  0
ARC
  5
A9
330
1F
100
AcDbEntity
  8
0
  6
Continuous
 62
     7
370
    25
100
AcDbCircle
 10
136.5164734175
 20
437.3601788137
 30
0.0
 40
34.00000000000001
100
AcDbArc
 50
11.3651443505
 51
15.527393008
  0
SPLINE
  5
AA
330
1F
100
AcDbEntity
  8
0
  6
Continuous
 62
     7
370
    25
100
AcDbSpline
210
0.0
220
0.0
230
1.0
 70
     8
 71
     3
 72
    13
 73
     9
 74
     0
 42
0.00000001
 43
0.00000001
 40
0.0
 40
0.0
 40
0.0
 40
0.0
 40
0.0064525902636138
 40
0.2332540554557843
 40
0.4772814041721018
 40
0.708501754900243
 40
0.9830404933022149
 40
1.0
 40
1.0
 40
1.0
 40
1.0
 10
135.3735929672715
 20
447.3582343674661
 30
0.0
 10
135.3728393161325
 20
447.3551427164881
 30
0.0
 10
135.3455956546904
 20
447.2433829271326
 30
0.0
 10
135.4077667976547
 20
446.9509904387247
 30
0.0
 10
135.6809160091176
 20
446.6250812546061
 30
0.0
 10
136.0453941944563
 20
446.4918210801034
 30
0.0
 10
136.2787251392251
 20
446.4510245882894
 30
0.0
 10
136.4400147011671
 20
446.4634231281615
 30
0.0
 10
136.4493986046795
 20
446.4641444811149
 30
0.0
  0
SPLINE
  5
AB
330
1F
100
AcDbEntity
  8
0
  6
Continuous
 62
     7
370
    25
100
AcDbSpline
210
0.0
220
0.0
230
1.0
 70
     8
 71
     3
 72
    12
 73
     8
 74
     0
 42
0.00000001
 43
0.00000001
 40
0.0
 40
0.0
 40
0.0
 40
0.0
 40
0.2531151610372412
 40
0.4953217889096239
 40
0.721381621352378
 40
0.9567139773635306
 40
1.0
 40
1.0
 40
1.0
 40
1.0
 10
170.3177889709275
 20
446.4840244048595
 30
0.0
 10
170.4436740557757
 20
446.4821661857079
 30
0.0
 10
170.6900189415126
 20
446.4785298312886
 30
0.0
 10
171.0194201771928
 20
446.6063441612897
 30
0.0
 10
171.3112210485406
 20
446.9019684672426
 30
0.0
 10
171.3894723838938
 20
447.2094876739885
 30
0.0
 10
171.3619487491917
 20
447.3401261793234
 30
0.0
 10
171.3576726900152
 20
447.3604221171814
 30
0.0
  0
SPLINE
  5
AC
330
1F
100
AcDbEntity
  8
0
  6
Continuous
 62
     7
370
    25
100
AcDbSpline
210
0.0
220
0.0
230
1.0
 70
    11
 71
     3
 72
    95
 73
    91
 74
     0
 42
0.00000001
 43
0.00000001
 40
0.0
 40
0.0
 40
0.0
 40
0.0
 40
0.0312500000000013
 40
0.0312500000000013
 40
0.0468750000000015
 40
0.0468750000000015
 40
0.0625000000000016
 40
0.0625000000000016
 40
0.0937500000000018
 40
0.0937500000000018
 40
0.1093750000000019
 40
0.1093750000000019
 40
0.1250000000000024
 40
0.1250000000000024
 40
0.1562500000000032
 40
0.1562500000000032
 40
0.1718750000000035
 40
0.1718750000000035
 40
0.1875000000000037
 40
0.203125000000004
 40
0.203125000000004
 40
0.2187500000000043
 40
0.2187500000000043
 40
0.2500000000000048
 40
0.2500000000000048
 40
0.2656250000000051
 40
0.2656250000000051
 40
0.2812500000000054
 40
0.2812500000000054
 40
0.3125000000000059
 40
0.3125000000000059
 40
0.3281250000000062
 40
0.3281250000000062
 40
0.3437500000000065
 40
0.3437500000000065
 40
0.3750000000000069
 40
0.3750000000000069
 40
0.4062500000000074
 40
0.4062500000000074
 40
0.4218750000000076
 40
0.4218750000000076
 40
0.4375000000000074
 40
0.4375000000000074
 40
0.4687500000000067
 40
0.4687500000000067
 40
0.5000000000000059
 40
0.5000000000000059
 40
0.5312500000000052
 40
0.5312500000000052
 40
0.5468750000000049
 40
0.5468750000000049
 40
0.5625000000000046
 40
0.5781250000000042
 40
0.5781250000000042
 40
0.5937500000000039
 40
0.5937500000000039
 40
0.6250000000000032
 40
0.6250000000000032
 40
0.6406250000000033
 40
0.6406250000000033
 40
0.6562500000000034
 40
0.6562500000000034
 40
0.6875000000000036
 40
0.6875000000000036
 40
0.7031250000000036
 40
0.7031250000000036
 40
0.7187500000000036
 40
0.7187500000000036
 40
0.7500000000000034
 40
0.7500000000000034
 40
0.7656250000000033
 40
0.7656250000000033
 40
0.7812500000000032
 40
0.7968750000000031
 40
0.7968750000000031
 40
0.812500000000003
 40
0.812500000000003
 40
0.8437500000000027
 40
0.8437500000000027
 40
0.8750000000000023
 40
0.8750000000000023
 40
0.906250000000002
 40
0.906250000000002
 40
0.9218750000000016
 40
0.9218750000000016
 40
0.9375000000000011
 40
0.9375000000000011
 40
0.9687500000000006
 40
0.9687500000000006
 40
1.0
 40
1.0
 40
1.0
 40
1.0
 10
142.9275112742894
 20
372.0136064449287
 30
0.0
 10
142.8546213644852
 20
371.6686823957727
 30
0.0
 10
142.8506390023034
 20
371.3259461273734
 30
0.0
 10
142.9437996334094
 20
370.8149891860685
 30
0.0
 10
142.9914983991241
 20
370.6451986832483
 30
0.0
 10
143.1209459451056
 20
370.3066987488284
 30
0.0
 10
143.2031617249567
 20
370.1375146474343
 30
0.0
 10
143.4960368878506
 20
369.6425407320082
 30
0.0
 10
143.7533932392959
 20
369.3257159498921
 30
0.0
 10
144.2317525196588
 20
368.870038698272
 30
0.0
 10
144.4073651861989
 20
368.720932228242
 30
0.0
 10
144.7878568091029
 20
368.4317671975538
 30
0.0
 10
144.9908865436945
 20
368.2929995429596
 30
0.0
 10
145.6371298862252
 20
367.8935964103786
 30
0.0
 10
146.1171459149904
 20
367.6497007821255
 30
0.0
 10
146.9127115095494
 20
367.3182179657834
 30
0.0
 10
147.1905337186087
 20
367.2136707075641
 30
0.0
 10
147.7593346483943
 20
367.020745537528
 30
0.0
 10
148.3442157333064
 20
366.8427044720981
 30
0.0
 10
148.9607708621829
 20
366.6939815183382
 30
0.0
 10
149.5933786695531
 20
366.5601172362782
 30
0.0
 10
149.9194710370212
 20
366.5003571064823
 30
0.0
 10
150.9091066786221
 20
366.3463669518345
 30
0.0
 10
151.5795962356058
 20
366.2774077748587
 30
0.0
 10
152.6009996249756
 20
366.2231712892643
 30
0.0
 10
152.9440977298971
 20
366.2133518728268
 30
0.0
 10
153.6357145404845
 20
366.2107342281282
 30
0.0
 10
153.9821278917238
 20
366.2180303032933
 30
0.0
 10
155.0076397019842
 20
366.2648405345643
 30
0.0
 10
155.6793639800048
 20
366.3289841565647
 30
0.0
 10
156.6689251922574
 20
366.4748798876145
 30
0.0
 10
156.9975056324447
 20
366.5322487869051
 30
0.0
 10
157.636677471858
 20
366.6619192140986
 30
0.0
 10
157.9478148422063
 20
366.7341868741344
 30
0.0
 10
158.8564898596886
 20
366.9727518296019
 30
0.0
 10
159.429531869936
 20
367.1605986835942
 30
0.0
 10
160.5075791626512
 20
367.5961463752232
 30
0.0
 10
160.9965083203694
 20
367.8375187816832
 30
0.0
 10
161.6534767946576
 20
368.2315584566933
 30
0.0
 10
161.8598949908948
 20
368.3683802698671
 30
0.0
 10
162.2470597936125
 20
368.6532048042949
 30
0.0
 10
162.4283780222235
 20
368.8018812192651
 30
0.0
 10
162.9220407837252
 20
369.255622296239
 30
0.0
 10
163.1883624838961
 20
369.5706272753478
 30
0.0
 10
163.5969857043125
 20
370.2253495509736
 30
0.0
 10
163.7386240154619
 20
370.5677333688082
 30
0.0
 10
163.8831091189532
 20
371.2491495606989
 30
0.0
 10
163.8888425577847
 20
371.5912504559922
 30
0.0
 10
163.7956508703455
 20
372.1065334709702
 30
0.0
 10
163.7471974030007
 20
372.2788457139375
 30
0.0
 10
163.6180634994438
 20
372.6166036106738
 30
0.0
 10
163.4565041153939
 20
372.9494259019147
 30
0.0
 10
163.2311831362933
 20
373.2725427986897
 30
0.0
 10
162.9736026238957
 20
373.590749349422
 30
0.0
 10
162.8279235824104
 20
373.7481023515768
 30
0.0
 10
162.3459540882319
 20
374.2074011637368
 30
0.0
 10
161.9694670555934
 20
374.4933641180202
 30
0.0
 10
161.3244632489325
 20
374.8928666213105
 30
0.0
 10
161.0959861090695
 20
375.0210915595142
 30
0.0
 10
160.6113092994343
 20
375.2673736072243
 30
0.0
 10
160.3557763826034
 20
375.3849412619388
 30
0.0
 10
159.5643084403252
 20
375.7147756174876
 30
0.0
 10
158.9987701700144
 20
375.9070033954745
 30
0.0
 10
158.0935033977793
 20
376.1537648445236
 30
0.0
 10
157.7803692549674
 20
376.2293941703063
 30
0.0
 10
157.1446527143607
 20
376.3639479604749
 30
0.0
 10
156.8223358712247
 20
376.4229506122885
 30
0.0
 10
155.8423535789249
 20
376.5757741525671
 30
0.0
 10
155.1717825743984
 20
376.6456448424767
 30
0.0
 10
154.1391362238475
 20
376.7007341422362
 30
0.0
 10
153.7936921728605
 20
376.7105162120268
 30
0.0
 10
153.1075758401631
 20
376.7131709277569
 30
0.0
 10
152.4239545031673
 20
376.6990416097923
 30
0.0
 10
151.7452746964196
 20
376.6516702264644
 30
0.0
 10
151.0691132403782
 20
376.5873576984743
 30
0.0
 10
150.7306473993089
 20
376.5464315947355
 30
0.0
 10
149.7390434201867
 20
376.4002569326146
 30
0.0
 10
149.1050702526893
 20
376.2717679371032
 30
0.0
 10
147.8904614282322
 20
375.9536906885305
 30
0.0
 10
147.305857356524
 20
375.7618033245285
 30
0.0
 10
146.2392337657217
 20
375.331122666929
 30
0.0
 10
145.7512986826035
 20
375.0913754483934
 30
0.0
 10
145.0886053136697
 20
374.6945288589895
 30
0.0
 10
144.8789206399461
 20
374.555537468926
 30
0.0
 10
144.4920601312749
 20
374.2709574616301
 30
0.0
 10
144.3136557729374
 20
374.124713037692
 30
0.0
 10
143.8226852296409
 20
373.6743362961553
 30
0.0
 10
143.5532575160341
 20
373.3575928066738
 30
0.0
 10
143.1402325900276
 20
372.6963014444769
 30
0.0
 10
143.0004011840936
 20
372.3585304940846
 30
0.0
 10
142.9275112742894
 20
372.0136064449287
 30
0.0
  0
SPLINE
  5
AD
330
1F
100
AcDbEntity
  8
0
  6
Continuous
 62
     7
370
    25
100
AcDbSpline
210
0.0
220
0.0
230
1.0
 70
     8
 71
     3
 72
    22
 73
    18
 74
     0
 42
0.00000001
 43
0.00000001
 40
0.0
 40
0.0
 40
0.0
 40
0.0
 40
0.125
 40
0.125
 40
0.2499999999999999
 40
0.2499999999999999
 40
0.3749999999999999
 40
0.3749999999999999
 40
0.5
 40
0.5
 40
0.6250000000000001
 40
0.6250000000000001
 40
0.75
 40
0.75
 40
0.875
 40
0.875
 40
1.0
 40
1.0
 40
1.0
 40
1.0
 10
163.8693842466212
 20
402.7202769494367
 30
0.0
 10
163.8693842466212
 20
404.0947237353822
 30
0.0
 10
163.59609735164
 20
405.4686297352092
 30
0.0
 10
162.5441413243456
 20
408.0082762433335
 30
0.0
 10
161.7658860918083
 20
409.1730175091777
 30
0.0
 10
159.8221248063652
 20
411.1167787946267
 30
0.0
 10
158.6573835405226
 20
411.8950340271682
 30
0.0
 10
156.117737032398
 20
412.9469900544696
 30
0.0
 10
154.7438310325689
 20
413.2202769494534
 30
0.0
 10
151.9949374606734
 20
413.2202769494534
 30
0.0
 10
150.6210314608444
 20
412.9469900544696
 30
0.0
 10
148.0813849527197
 20
411.8950340271682
 30
0.0
 10
146.9166436868772
 20
411.1167787946267
 30
0.0
 10
144.972882401434
 20
409.1730175091777
 30
0.0
 10
144.1946271688968
 20
408.0082762433335
 30
0.0
 10
143.1426711416023
 20
405.4686297352092
 30
0.0
 10
142.8693842466212
 20
404.0947237353822
 30
0.0
 10
142.8693842466212
 20
402.7202769494367
 30
0.0
  0
ARC
  5
AE
330
1F
100
AcDbEntity
  8
0
  6
Continuous
 62
     7
370
    25
100
AcDbCircle
 10
149.6693842466
 20
467.6619467002
 30
0.0
 40
0.8000000000000682
100
AcDbArc
 50
90.0
 51
180.0
  0
LINE
  5
AF
330
1F
100
AcDbEntity
  8
0
  6
Continuous
 62
     7
370
    25
100
AcDbLine
 10
149.6693842466
 20
468.4619467002
 30
0.0
 11
157.0693842466
 21
468.4619467002
 31
0.0
  0
LINE
  5
B0
330
1F
100
AcDbEntity
  8
0
  6
Continuous
 62
     7
370
    25
100
AcDbLine
 10
157.0693842466
 20
459.4619467002
 30
0.0
 11
149.6693842466
 21
459.4619467002
 31
0.0
  0
ARC
  5
B1
330
1F
100
AcDbEntity
  8
0
  6
Continuous
 62
     7
370
    25
100
AcDbCircle
 10
149.6693842466
 20
460.2619467002
 30
0.0
 40
0.8000000000000114
100
AcDbArc
 50
180.0
 51
270.0
  0
LINE
  5
B2
330
1F
100
AcDbEntity
  8
0
  6
Continuous
 62
     7
370
    25
100
AcDbLine
 10
148.8693842466
 20
460.2619467002
 30
0.0
 11
148.8693842466
 21
467.6619467002
 31
0.0
  0
LINE
  5
B3
330
1F
100
AcDbEntity
  8
0
  6
Continuous
 62
     7
370
    25
100
AcDbLine
 10
157.8693842466
 20
467.6619467002
 30
0.0
 11
157.8693842466
 21
460.2619467002
 31
0.0
  0
ARC
  5
B4
330
1F
100
AcDbEntity
  8
0
  6
Continuous
 62
     7
370
    25
100
AcDbCircle
 10
157.0693842466
 20
467.6619467002
 30
0.0
 40
0.8000000000000682
100
AcDbArc
 50
0.0
 51
90.0
  0
ARC
  5
B5
330
1F
100
AcDbEntity
  8
0
  6
Continuous
 62
     7
370
    25
100
AcDbCircle
 10
157.0693842466
 20
460.2619467002
 30
0.0
 40
0.8000000000000114
100
AcDbArc
 50
270.0
 51
0.0
  0
LINE
  5
B6
330
1F
100
AcDbEntity
  8
0
  6
Continuous
 62
     7
370
    25
100
AcDbLine
 10
147.4232775667
 20
296.4619467002
 30
0.0
 11
128.3693842466
 21
296.4619467002
 31
0.0
  0
LINE
  5
B7
330
1F
100
AcDbEntity
  8
0
  6
Continuous
 62
     7
370
    25
100
AcDbLine
 10
178.3693842466
 20
296.4619467002
 30
0.0
 11
147.4232775667
 21
296.4619467002
 31
0.0
  0
LINE
  5
B8
330
1F
100
AcDbEntity
  8
0
  6
Continuous
 62
     7
370
    25
100
AcDbLine
 10
129.1693842466
 20
303.4619467002
 30
0.0
 11
177.5693842466
 21
303.4619467002
 31
0.0
  0
SPLINE
  5
B9
330
1F
100
AcDbEntity
  8
0
  6
Continuous
 62
     7
370
    25
100
AcDbSpline
210
0.0
220
0.0
230
1.0
 70
    24
 71
     3
 72
    22
 73
    18
 74
     0
 42
0.00000001
 43
0.00000001
 40
0.0
 40
0.0
 40
0.0
 40
0.0
 40
0.1249999999999999
 40
0.1249999999999999
 40
0.2499999999999999
 40
0.2499999999999999
 40
0.3749999999999998
 40
0.3749999999999998
 40
0.4999999999999999
 40
0.4999999999999999
 40
0.6249999999999999
 40
0.6249999999999999
 40
0.75
 40
0.75
 40
0.875
 40
0.875
 40
1.0
 40
1.0
 40
1.0
 40
1.0
 10
149.6693842466207
 20
468.461946700239
 30
0.0
 10
149.6693842466207
 20
468.461946700239
 30
0.0
 10
149.6682555263735
 20
468.4619467002389
 30
0.0
 10
149.6443492440923
 20
468.4619467002388
 30
0.0
 10
149.622283521938
 20
468.461946700239
 30
0.0
 10
149.5481061951844
 20
468.461946700239
 30
0.0
 10
149.4962800444766
 20
468.461946700239
 30
0.0
 10
149.3597562960136
 20
468.4619467002389
 30
0.0
 10
149.2734938810718
 20
468.461946700239
 30
0.0
 10
149.0683518928687
 20
468.461946700239
 30
0.0
 10
148.9507074847103
 20
468.461946700239
 30
0.0
 10
148.688408932617
 20
468.4619467002389
 30
0.0
 10
148.543455527834
 20
468.4619467002389
 30
0.0
 10
148.2434857874575
 20
468.461946700239
 30
0.0
 10
148.0868285195951
 20
468.4619467002389
 30
0.0
 10
147.7636281908588
 20
468.4619467002389
 30
0.0
 10
147.5964203987523
 20
468.461946700239
 30
0.0
 10
147.4293021519145
 20
468.461946700239
 30
0.0
  0
SPLINE
  5
BA
330
1F
100
AcDbEntity
  8
0
  6
Continuous
 62
     7
370
    25
100
AcDbSpline
210
0.0
220
0.0
230
1.0
 70
    24
 71
     3
 72
    22
 73
    18
 74
     0
 42
0.00000001
 43
0.00000001
 40
0.0
 40
0.0
 40
0.0
 40
0.0
 40
0.1250000000000001
 40
0.1250000000000001
 40
0.2500000000000001
 40
0.2500000000000001
 40
0.3750000000000002
 40
0.3750000000000002
 40
0.5000000000000002
 40
0.5000000000000002
 40
0.6250000000000002
 40
0.6250000000000002
 40
0.7500000000000002
 40
0.7500000000000002
 40
0.8750000000000001
 40
0.8750000000000001
 40
1.0
 40
1.0
 40
1.0
 40
1.0
 10
159.3094663413268
 20
468.461946700239
 30
0.0
 10
159.1434898771682
 20
468.4619467002389
 30
0.0
 10
158.9774169333084
 20
468.461946700239
 30
0.0
 10
158.6545079645557
 20
468.461946700239
 30
0.0
 10
158.4971351097237
 20
468.4619467002389
 30
0.0
 10
158.1938503543822
 20
468.4619467002389
 30
0.0
 10
158.0500074256081
 20
468.4619467002389
 30
0.0
 10
157.78851236522
 20
468.461946700239
 30
0.0
 10
157.6686504234291
 20
468.4619467002389
 30
0.0
 10
157.4638428766468
 20
468.4619467002389
 30
0.0
 10
157.3792481664623
 20
468.4619467002389
 30
0.0
 10
157.2422769904677
 20
468.4619467002389
 30
0.0
 10
157.1902830378195
 20
468.4619467002389
 30
0.0
 10
157.1168972251382
 20
468.4619467002389
 30
0.0
 10
157.0946943217631
 20
468.461946700239
 30
0.0
 10
157.0705752318002
 20
468.461946700239
 30
0.0
 10
157.0693842466206
 20
468.461946700239
 30
0.0
 10
157.0693842466206
 20
468.461946700239
 30
0.0
  0
LINE
  5
BB
330
1F
100
AcDbEntity
  8
0
  6
Continuous
 62
     7
370
    25
100
AcDbLine
 10
171.323923008
 20
447.3191715955
 30
0.0
 11
171.3203187697
 21
447.3512114636
 31
0.0
  0
LINE
  5
BC
330
1F
100
AcDbEntity
  8
0
  6
Continuous
 62
     7
370
    25
100
AcDbLine
 10
170.2899853684
 20
446.4619467002
 30
0.0
 11
136.4487831248
 21
446.4619467002
 31
0.0
  0
LINE
  5
BD
330
1F
100
AcDbEntity
  8
0
  6
Continuous
 62
     7
370
    25
100
AcDbLine
 10
153.3693842466
 20
443.4619467002
 30
0.0
 11
170.5693842466
 21
443.4619467002
 31
0.0
  0
LINE
  5
BE
330
1F
100
AcDbEntity
  8
0
  6
Continuous
 62
     7
370
    25
100
AcDbLine
 10
136.1693842466
 20
443.4619467002
 30
0.0
 11
153.3693842466
 21
443.4619467002
 31
0.0
  0
LINE
  5
BF
330
1F
100
AcDbEntity
  8
0
  6
Continuous
 62
     7
370
    25
100
AcDbLine
 10
159.3094663413
 20
468.4619467002
 30
0.0
 11
170.5693842466
 21
468.4619467002
 31
0.0
  0
LINE
  5
C0
330
1F
100
AcDbEntity
  8
0
  6
Continuous
 62
     7
370
    25
100
AcDbLine
 10
136.1693842466
 20
468.4619467002
 30
0.0
 11
147.4293021519
 21
468.4619467002
 31
0.0
  0
LINE
  5
C1
330
1F
100
AcDbEntity
  8
0
  6
Continuous
 62
     7
370
    18
100
AcDbLine
 10
149.6693842466
 20
467.6619467002
 30
0.0
 11
148.8693842466
 21
467.6619467002
 31
0.0
  0
LINE
  5
C2
330
1F
100
AcDbEntity
  8
0
  6
Continuous
 62
     7
370
    18
100
AcDbLine
 10
149.6693842466
 20
467.6619467002
 30
0.0
 11
149.6693842466
 21
468.4619467002
 31
0.0
  0
LINE
  5
C3
330
1F
100
AcDbEntity
  8
0
  6
Continuous
 62
     7
370
    18
100
AcDbLine
 10
157.0693842466
 20
467.6619467002
 30
0.0
 11
149.6693842466
 21
467.6619467002
 31
0.0
  0
LINE
  5
C4
330
1F
100
AcDbEntity
  8
0
  6
Continuous
 62
     7
370
    18
100
AcDbLine
 10
157.0693842466
 20
460.2619467002
 30
0.0
 11
157.0693842466
 21
467.6619467002
 31
0.0
  0
LINE
  5
C5
330
1F
100
AcDbEntity
  8
0
  6
Continuous
 62
     7
370
    18
100
AcDbLine
 10
149.6693842466
 20
460.2619467002
 30
0.0
 11
157.0693842466
 21
460.2619467002
 31
0.0
  0
LINE
  5
C6
330
1F
100
AcDbEntity
  8
0
  6
Continuous
 62
     7
370
    18
100
AcDbLine
 10
149.6693842466
 20
467.6619467002
 30
0.0
 11
149.6693842466
 21
460.2619467002
 31
0.0
  0
LINE
  5
C7
330
1F
100
AcDbEntity
  8
0
  6
Continuous
 62
     7
370
    18
100
AcDbLine
 10
157.0693842466
 20
467.6619467002
 30
0.0
 11
157.0693842466
 21
468.4619467002
 31
0.0
  0
LINE
  5
C8
330
1F
100
AcDbEntity
  8
0
  6
Continuous
 62
     7
370
    18
100
AcDbLine
 10
149.6693842466
 20
459.4619467002
 30
0.0
 11
149.6693842466
 21
460.2619467002
 31
0.0
  0
LINE
  5
C9
330
1F
100
AcDbEntity
  8
0
  6
Continuous
 62
     7
370
    18
100
AcDbLine
 10
157.0693842466
 20
459.4619467002
 30
0.0
 11
157.0693842466
 21
460.2619467002
 31
0.0
  0
LINE
  5
CA
330
1F
100
AcDbEntity
  8
0
  6
Continuous
 62
     7
370
    18
100
AcDbLine
 10
157.8693842466
 20
467.6619467002
 30
0.0
 11
157.0693842466
 21
467.6619467002
 31
0.0
  0
LINE
  5
CB
330
1F
100
AcDbEntity
  8
0
  6
Continuous
 62
     7
370
    18
100
AcDbLine
 10
178.3693842466
 20
302.6619467002
 30
0.0
 11
128.3693842466
 21
302.6619467002
 31
0.0
  0
SPLINE
  5
CC
330
1F
100
AcDbEntity
  8
0
  6
Continuous
 62
     7
370
    18
100
AcDbSpline
210
0.0
220
0.0
230
1.0
 70
    24
 71
     3
 72
     8
 73
     4
 74
     0
 42
0.00000001
 43
0.00000001
 40
0.0
 40
0.0
 40
0.0
 40
0.0
 40
1.0
 40
1.0
 40
1.0
 40
1.0
 10
156.6793062031871
 20
457.3406263566793
 30
0.0
 10
154.497905750503
 20
457.3406263566793
 30
0.0
 10
152.2408627427106
 20
457.3406263566793
 30
0.0
 10
150.0594622900271
 20
457.3406263566793
 30
0.0
  0
SPLINE
  5
CD
330
1F
100
AcDbEntity
  8
0
  6
Continuous
 62
     7
370
    18
100
AcDbSpline
210
0.0
220
0.0
230
1.0
 70
     8
 71
     3
 72
    21
 73
    17
 74
     0
 42
0.00000001
 43
0.00000001
 40
0.0
 40
0.0
 40
0.0
 40
0.0
 40
0.0351002472297384
 40
0.0700652891713298
 40
0.1049983694210895
 40
0.1400030143326199
 40
0.2085180087362819
 40
0.2768584892933157
 40
0.4095185876183534
 40
0.5360900747248863
 40
0.6582820748322912
 40
0.7752213172418012
 40
0.8322233449811113
 40
0.8890975713829641
 40
0.9445807527626592
 40
1.0
 40
1.0
 40
1.0
 40
1.0
 10
159.5857492294527
 20
460.2619467002389
 30
0.0
 10
159.5849412919676
 20
460.2068504326619
 30
0.0
 10
159.5833285291528
 20
460.0968701269742
 30
0.0
 10
159.5703118171658
 20
459.9325390195305
 30
0.0
 10
159.5495091762702
 20
459.7693235519127
 30
0.0
 10
159.5108765828586
 20
459.5558573718335
 30
0.0
 10
159.4430767425778
 20
459.2953342164165
 30
0.0
 10
159.2956982139254
 20
458.9016043716416
 30
0.0
 10
159.0450585910745
 20
458.4561559261577
 30
0.0
 10
158.6550751699107
 20
458.0138058344435
 30
0.0
 10
158.2033152988539
 20
457.6786538902318
 30
0.0
 10
157.7893648552555
 20
457.4892918079036
 30
0.0
 10
157.4492136048116
 20
457.3932117157174
 30
0.0
 10
157.1931529015798
 20
457.3488642459753
 30
0.0
 10
156.9356271465236
 20
457.3285454784663
 30
0.0
 10
156.764713674321
 20
457.3366009452403
 30
0.0
 10
156.6793062031745
 20
457.3406263566792
 30
0.0
  0
SPLINE
  5
CE
330
1F
100
AcDbEntity
  8
0
  6
Continuous
 62
     7
370
    18
100
AcDbSpline
210
0.0
220
0.0
230
1.0
 70
     8
 71
     3
 72
    21
 73
    17
 74
     0
 42
0.00000001
 43
0.00000001
 40
0.0
 40
0.0
 40
0.0
 40
0.0
 40
0.0276447721780825
 40
0.0552428195415967
 40
0.0828588255560675
 40
0.1105573478725324
 40
0.167419926807062
 40
0.2244273239294111
 40
0.3414926866829844
 40
0.4633589029261931
 40
0.5906748595160447
 40
0.7227374015014348
 40
0.7913815171671945
 40
0.8602228214983669
 40
0.9300718087027425
 40
1.0
 40
1.0
 40
1.0
 40
1.0
 10
150.059462290038
 20
457.3406263567013
 30
0.0
 10
150.0169002913561
 20
457.3380126928745
 30
0.0
 10
149.9318482316984
 20
457.3327897827997
 30
0.0
 10
149.8042223310769
 20
457.3329215997839
 30
0.0
 10
149.6768560306706
 20
457.3389165916493
 30
0.0
 10
149.5053974737921
 20
457.3556594009469
 30
0.0
 10
149.2912802635749
 20
457.3928958435044
 30
0.0
 10
148.950907846064
 20
457.4886622335181
 30
0.0
 10
148.537105669208
 20
457.6777295928795
 30
0.0
 10
148.0844693787793
 20
458.012993414259
 30
0.0
 10
147.694457220917
 20
458.4550421057393
 30
0.0
 10
147.4434714521563
 20
458.900976809838
 30
0.0
 10
147.2957420202154
 20
459.294701333021
 30
0.0
 10
147.2144367097444
 20
459.6089409347727
 30
0.0
 10
147.1625883381945
 20
459.9326511639958
 30
0.0
 10
147.156210159979
 20
460.1521400640339
 30
0.0
 10
147.1530192637886
 20
460.261946700239
 30
0.0
  0
LINE
  5
CF
330
1F
100
AcDbEntity
  8
0
  6
Continuous
 62
     7
370
    18
100
AcDbLine
 10
147.1530192638
 20
460.2619467002
 30
0.0
 11
147.1530192638
 21
467.6619467002
 31
0.0
  0
SPLINE
  5
D0
330
1F
100
AcDbEntity
  8
0
  6
Continuous
 62
     7
370
    18
100
AcDbSpline
210
0.0
220
0.0
230
1.0
 70
    24
 71
     3
 72
    20
 73
    16
 74
     0
 42
0.00000001
 43
0.00000001
 40
0.0
 40
0.0
 40
0.0
 40
0.0
 40
0.1250000000000001
 40
0.1250000000000001
 40
0.2500000000000002
 40
0.2500000000000002
 40
0.5000000000000002
 40
0.5000000000000002
 40
0.6250000000000002
 40
0.6250000000000002
 40
0.7500000000000001
 40
0.7500000000000001
 40
0.8750000000000001
 40
0.8750000000000001
 40
1.0
 40
1.0
 40
1.0
 40
1.0
 10
148.8693842466207
 20
467.661946700239
 30
0.0
 10
148.8693842466207
 20
467.6619467002389
 30
0.0
 10
148.8691871418819
 20
467.6619467002389
 30
0.0
 10
148.8553238283803
 20
467.6619467002389
 30
0.0
 10
148.8416828636803
 20
467.661946700239
 30
0.0
 10
148.7674338848138
 20
467.661946700239
 30
0.0
 10
148.672194779654
 20
467.661946700239
 30
0.0
 10
148.4375582187097
 20
467.661946700239
 30
0.0
 10
148.3438804241892
 20
467.661946700239
 30
0.0
 10
148.131950384598
 20
467.661946700239
 30
0.0
 10
148.0140368583328
 20
467.661946700239
 30
0.0
 10
147.7690756368262
 20
467.6619467002389
 30
0.0
 10
147.6423666603904
 20
467.661946700239
 30
0.0
 10
147.3934993353904
 20
467.661946700239
 30
0.0
 10
147.2716797056316
 20
467.661946700239
 30
0.0
 10
147.1530192637886
 20
467.661946700239
 30
0.0
  0
SPLINE
  5
D1
330
1F
100
AcDbEntity
  8
0
  6
Continuous
 62
     7
370
    18
100
AcDbSpline
210
0.0
220
0.0
230
1.0
 70
    24
 71
     3
 72
    20
 73
    16
 74
     0
 42
0.00000001
 43
0.00000001
 40
0.0
 40
0.0
 40
0.0
 40
0.0
 40
0.125
 40
0.125
 40
0.25
 40
0.25
 40
0.375
 40
0.375
 40
0.5
 40
0.5
 40
0.75
 40
0.75
 40
0.875
 40
0.875
 40
1.0
 40
1.0
 40
1.0
 40
1.0
 10
159.5857492294527
 20
467.6619467002389
 30
0.0
 10
159.4670887876096
 20
467.6619467002389
 30
0.0
 10
159.3452691578509
 20
467.661946700239
 30
0.0
 10
159.0964018328509
 20
467.6619467002388
 30
0.0
 10
158.969692856415
 20
467.6619467002389
 30
0.0
 10
158.7247316349086
 20
467.661946700239
 30
0.0
 10
158.6068181086433
 20
467.6619467002389
 30
0.0
 10
158.3948880690521
 20
467.661946700239
 30
0.0
 10
158.3012102745316
 20
467.6619467002389
 30
0.0
 10
158.0665737135873
 20
467.661946700239
 30
0.0
 10
157.9713346084275
 20
467.661946700239
 30
0.0
 10
157.897085629561
 20
467.661946700239
 30
0.0
 10
157.883444664861
 20
467.6619467002389
 30
0.0
 10
157.8695813513594
 20
467.661946700239
 30
0.0
 10
157.8693842466207
 20
467.6619467002389
 30
0.0
 10
157.8693842466207
 20
467.6619467002389
 30
0.0
  0
LINE
  5
D2
330
1F
100
AcDbEntity
  8
0
  6
Continuous
 62
     7
370
    18
100
AcDbLine
 10
159.5857492295
 20
467.6619467002
 30
0.0
 11
159.5857492295
 21
460.2619467002
 31
0.0
  0
LWPOLYLINE
  5
D3
330
1F
100
AcDbEntity
  8
0
  6
Continuous
 62
     7
370
    18
100
AcDbPolyline
 90
        9
 70
   128
 43
0.0
 10
147.1530192638
 20
467.6619467002
 10
147.158327962
 20
467.8180189579
 10
147.1740500464
 20
467.9680934461
 10
147.199581326
 20
468.1064028867
 10
147.2339406482
 20
468.2276321252
 10
147.2758076034
 20
468.3271223901
 10
147.323573268
 20
468.4010503262
 10
147.3754020343
 20
468.4465749246
 10
147.4293021519
 20
468.4619467002
  0
LWPOLYLINE
  5
D4
330
1F
100
AcDbEntity
  8
0
  6
Continuous
 62
     7
370
    18
100
AcDbPolyline
 90
        9
 70
   128
 43
0.0
 10
159.5857492295
 20
467.6619467002
 10
159.5804405312
 20
467.8180189579
 10
159.5647184468
 20
467.9680934461
 10
159.5391871672
 20
468.1064028867
 10
159.504827845
 20
468.2276321252
 10
159.4629608899
 20
468.3271223901
 10
159.4151952253
 20
468.4010503262
 10
159.3633664589
 20
468.4465749246
 10
159.3094663413
 20
468.4619467002
  0
SPLINE
  5
D5
330
1F
100
AcDbEntity
  8
0
  6
Continuous
 62
     7
370
    18
100
AcDbSpline
210
0.0
220
0.0
230
1.0
 70
     8
 71
     3
 72
    17
 73
    13
 74
     0
 42
0.00000001
 43
0.00000001
 40
0.0
 40
0.0
 40
0.0
 40
0.0
 40
0.1035083395295508
 40
0.2080724418561604
 40
0.3147552425949548
 40
0.4226603412130658
 40
0.5322669597272591
 40
0.639498877956873
 40
0.7457077227003388
 40
0.8492588875091043
 40
0.952835375509509
 40
0.9999999999999999
 40
0.9999999999999999
 40
0.9999999999999999
 40
0.9999999999999999
 10
153.3693842449613
 20
413.7202769494366
 30
0.0
 10
152.6462451663552
 20
413.6787229488456
 30
0.0
 10
151.1925911460991
 20
413.5951911057965
 30
0.0
 10
149.1090895351038
 20
412.9333207489978
 30
0.0
 10
147.2034989485935
 20
411.9159429679032
 30
0.0
 10
145.5359741676318
 20
410.542395853375
 30
0.0
 10
144.1700194572137
 20
408.8789848678477
 30
0.0
 10
143.1477324458156
 20
406.9703186386686
 30
0.0
 10
142.5070892491276
 20
404.8841807488898
 30
0.0
 10
142.3107400937642
 20
402.7015372617323
 30
0.0
 10
142.438803149208
 20
400.9022200068493
 30
0.0
 10
142.7667687485465
 20
399.9286343209974
 30
0.0
 10
142.8693842466213
 20
399.6240140185216
 30
0.0
  0
SPLINE
  5
D6
330
1F
100
AcDbEntity
  8
0
  6
Continuous
 62
     7
370
    18
100
AcDbSpline
210
0.0
220
0.0
230
1.0
 70
     8
 71
     3
 72
    17
 73
    13
 74
     0
 42
0.00000001
 43
0.00000001
 40
0.0
 40
0.0
 40
0.0
 40
0.0
 40
0.0832413117273535
 40
0.1823555998902907
 40
0.282387408606422
 40
0.3850811694748888
 40
0.4881715862140141
 40
0.5933032686898124
 40
0.6976602409174657
 40
0.8002304833760003
 40
0.900371304890976
 40
1.0
 40
1.0
 40
1.0
 40
1.0
 10
163.8693842466213
 20
399.543853976379
 30
0.0
 10
164.0226284525376
 20
400.0968793725214
 30
0.0
 10
164.3583384325908
 20
401.3083845227339
 30
0.0
 10
164.414409740983
 20
403.312786348371
 30
0.0
 10
164.1079331493098
 20
405.4033691766469
 30
0.0
 10
163.4055877652417
 20
407.3800607832983
 30
0.0
 10
162.3539125729971
 20
409.1793853671938
 30
0.0
 10
160.9881535162958
 20
410.7454647151112
 30
0.0
 10
159.3442941430656
 20
412.0359872056087
 30
0.0
 10
157.484374638258
 20
412.9877386500245
 30
0.0
 10
155.4684639698095
 20
413.6038830371419
 30
0.0
 10
154.0678806489225
 20
413.6815453433477
 30
0.0
 10
153.3693842466207
 20
413.7202769494365
 30
0.0
  0
LINE
  5
D7
330
1F
100
AcDbEntity
  8
0
  6
Continuous
 62
     7
370
    18
100
AcDbLine
 10
153.3693842466
 20
442.6619467002
 30
0.0
 11
135.3693842466
 21
442.6619467002
 31
0.0
  0
LINE
  5
D8
330
1F
100
AcDbEntity
  8
0
  6
Continuous
 62
     7
370
    18
100
AcDbLine
 10
171.3693842466
 20
442.6619467002
 30
0.0
 11
153.3693842466
 21
442.6619467002
 31
0.0
  0
LINE
  5
D9
330
1F
100
AcDbEntity
  8
0
  6
Continuous
 62
     7
370
    18
100
AcDbLine
 10
147.1530192638
 20
467.6619467002
 30
0.0
 11
135.3693842466
 21
467.6619467002
 31
0.0
  0
LINE
  5
DA
330
1F
100
AcDbEntity
  8
0
  6
Continuous
 62
     7
370
    18
100
AcDbLine
 10
171.3693842466
 20
467.6619467002
 30
0.0
 11
159.5857492295
 21
467.6619467002
 31
0.0
  0
SPLINE
  5
DB
330
1F
100
AcDbEntity
  8
0
  6
Continuous
 62
     7
370
    18
100
AcDbSpline
210
0.0
220
0.0
230
1.0
 70
     8
 71
     3
 72
     9
 73
     5
 74
     0
 42
0.00000001
 43
0.00000001
 40
0.0
 40
0.0
 40
0.0
 40
0.0
 40
0.4112589403431041
 40
1.0
 40
1.0
 40
1.0
 40
1.0
 10
135.4085767267765
 20
447.3156201587676
 30
0.0
 10
135.4094422542131
 20
447.2245332727614
 30
0.0
 10
135.4115468344464
 20
447.0030502189702
 30
0.0
 10
135.760118768597
 20
446.977178464425
 30
0.0
 10
135.9653373784754
 20
446.9619467002389
 30
0.0
  0
SPLINE
  5
DC
330
1F
100
AcDbEntity
  8
0
  6
Continuous
 62
     7
370
    18
100
AcDbSpline
210
0.0
220
0.0
230
1.0
 70
     8
 71
     3
 72
    10
 73
     6
 74
     0
 42
0.00000001
 43
0.00000001
 40
0.0
 40
0.0
 40
0.0
 40
0.0
 40
0.3885710808597057
 40
0.7823666478226032
 40
1.0
 40
1.0
 40
1.0
 40
1.0
 10
170.7734311147657
 20
446.9619467002389
 30
0.0
 10
170.9077584079498
 20
446.9727959293049
 30
0.0
 10
171.1782190759105
 20
446.9946402594517
 30
0.0
 10
171.3705951162308
 20
447.1077701498469
 30
0.0
 10
171.3361746900943
 20
447.2636775670707
 30
0.0
 10
171.323923008028
 20
447.3191715955301
 30
0.0
  0
LINE
  5
DD
330
1F
100
AcDbEntity
  8
0
  6
Continuous
 62
     7
370
    18
100
AcDbLine
 10
135.9653373785
 20
446.9619467002
 30
0.0
 11
170.7734311148
 21
446.9619467002
 31
0.0
  0
ARC
  5
DE
330
1F
100
AcDbEntity
  8
0
  6
Continuous
 62
     7
370
    18
100
AcDbCircle
 10
170.281566528
 20
446.9538065951
 30
0.0
 40
0.4919319394104295
100
AcDbArc
 50
270.9805981979
 51
0.9481290407
  0
ARC
  5
DF
330
1F
100
AcDbEntity
  8
0
  6
Continuous
 62
     7
370
    18
100
AcDbCircle
 10
136.4572019652
 20
446.9538065951
 30
0.0
 40
0.4919319394104858
100
AcDbArc
 50
179.0518709593
 51
269.0194018021
  0
LINE
  5
E0
330
1F
100
AcDbEntity
  8
0
  6
Continuous
 62
     7
370
    18
100
AcDbLine
 10
169.8693842466
 20
443.8631904918
 30
0.0
 11
136.8693842466
 21
443.8631904918
 31
0.0
  0
LINE
  5
E1
330
1F
100
AcDbEntity
  8
0
  6
Continuous
 62
     7
370
    18
100
AcDbLine
 10
152.9891799391
 20
444.0602514518
 30
0.0
 11
169.8497754839
 21
444.0602514518
 31
0.0
  0
LINE
  5
E2
330
1F
100
AcDbEntity
  8
0
  6
Continuous
 62
     7
370
    18
100
AcDbLine
 10
136.8889930094
 20
444.0602514518
 30
0.0
 11
152.9891799391
 21
444.0602514518
 31
0.0
  0
ARC
  5
E3
330
1F
100
AcDbEntity
  8
0
  6
Continuous
 62
     7
370
    25
100
AcDbCircle
 10
334.47031431
 20
302.6619467002
 30
0.0
 40
0.8000000000000114
100
AcDbArc
 50
90.0
 51
180.0
  0
ARC
  5
E4
330
1F
100
AcDbEntity
  8
0
  6
Continuous
 62
     7
370
    25
100
AcDbCircle
 10
382.87031431
 20
302.6619467002
 30
0.0
 40
0.7999999999999545
100
AcDbArc
 50
0.0
 51
90.0
  0
LINE
  5
E5
330
1F
100
AcDbEntity
  8
0
  6
Continuous
 62
     7
370
    25
100
AcDbLine
 10
383.67031431
 20
296.4619467002
 30
0.0
 11
383.67031431
 21
302.6619467002
 31
0.0
  0
LINE
  5
E6
330
1F
100
AcDbEntity
  8
0
  6
Continuous
 62
     7
370
    25
100
AcDbLine
 10
333.67031431
 20
302.6619467002
 30
0.0
 11
333.67031431
 21
296.4619467002
 31
0.0
  0
LINE
  5
E7
330
1F
100
AcDbEntity
  8
0
  6
Continuous
 62
     7
370
    25
100
AcDbLine
 10
376.67031431
 20
446.9619467002
 30
0.0
 11
376.67031431
 21
457.3406263567
 31
0.0
  0
LINE
  5
E8
330
1F
100
AcDbEntity
  8
0
  6
Continuous
 62
     7
370
    25
100
AcDbLine
 10
340.67031431
 20
467.6619467002
 30
0.0
 11
340.67031431
 21
452.1671573184
 31
0.0
  0
ARC
  5
E9
330
1F
100
AcDbEntity
  8
0
  6
Continuous
 62
     7
370
    25
100
AcDbCircle
 10
341.47031431
 20
467.6619467002
 30
0.0
 40
0.8000000000000682
100
AcDbArc
 50
90.0
 51
180.0
  0
LINE
  5
EA
330
1F
100
AcDbEntity
  8
0
  6
Continuous
 62
     7
370
    25
100
AcDbLine
 10
376.67031431
 20
413.7202769496
 30
0.0
 11
376.67031431
 21
442.6619467002
 31
0.0
  0
LINE
  5
EB
330
1F
100
AcDbEntity
  8
0
  6
Continuous
 62
     7
370
    25
100
AcDbLine
 10
376.67031431
 20
303.4619467002
 30
0.0
 11
376.67031431
 21
391.7202769494
 31
0.0
  0
LINE
  5
EC
330
1F
100
AcDbEntity
  8
0
  6
Continuous
 62
     7
370
    25
100
AcDbLine
 10
340.67031431
 20
442.6619467002
 30
0.0
 11
340.67031431
 21
303.4619467002
 31
0.0
  0
ARC
  5
ED
330
1F
100
AcDbEntity
  8
0
  6
Continuous
 62
     7
370
    25
100
AcDbCircle
 10
375.87031431
 20
442.6619467002
 30
0.0
 40
0.8000000000000114
100
AcDbArc
 50
0.0
 51
90.0
  0
ARC
  5
EE
330
1F
100
AcDbEntity
  8
0
  6
Continuous
 62
     7
370
    25
100
AcDbCircle
 10
341.47031431
 20
442.6619467002
 30
0.0
 40
0.8000000000000114
100
AcDbArc
 50
90.0
 51
180.0
  0
ARC
  5
EF
330
1F
100
AcDbEntity
  8
0
  6
Continuous
 62
     7
370
    25
100
AcDbCircle
 10
341.17031431
 20
452.1671573184
 30
0.0
 40
0.4999999999999938
100
AcDbArc
 50
181.23126319
 51
253.5
  0
ARC
  5
F0
330
1F
100
AcDbEntity
  8
0
  6
Continuous
 62
     7
370
    25
100
AcDbCircle
 10
376.17031431
 20
446.9619467002
 30
0.0
 40
0.5
100
AcDbArc
 50
270.0
 51
0.0
  0
ARC
  5
F1
330
1F
100
AcDbEntity
  8
0
  6
Continuous
 62
     7
370
    25
100
AcDbCircle
 10
375.5232251391
 20
437.3601788137
 30
0.0
 40
34.00000000000004
100
AcDbArc
 50
156.8411463701
 51
168.6348556495
  0
ARC
  5
F2
330
1F
100
AcDbEntity
  8
0
  6
Continuous
 62
     7
370
    25
100
AcDbCircle
 10
341.8174034809
 20
437.3601788137
 30
0.0
 40
34.00000000000001
100
AcDbArc
 50
11.3651443505
 51
15.527393008
  0
ARC
  5
F3
330
1F
100
AcDbEntity
  8
0
  6
Continuous
 62
     7
370
    25
100
AcDbCircle
 10
343.17031431
 20
443.8631904918
 30
0.0
 40
1.000000000000034
100
AcDbArc
 50
168.6348556495
 51
180.0
  0
ARC
  5
F4
330
1F
100
AcDbEntity
  8
0
  6
Continuous
 62
     7
370
    25
100
AcDbCircle
 10
374.17031431
 20
443.8631904918
 30
0.0
 40
1.0
100
AcDbArc
 50
0.0
 51
11.3651443505
  0
LINE
  5
F5
330
1F
100
AcDbEntity
  8
0
  6
Continuous
 62
     7
370
    25
100
AcDbLine
 10
375.17031431
 20
443.4619467002
 30
0.0
 11
375.17031431
 21
443.8631904918
 31
0.0
  0
LINE
  5
F6
330
1F
100
AcDbEntity
  8
0
  6
Continuous
 62
     7
370
    25
100
AcDbLine
 10
342.17031431
 20
443.8631904918
 30
0.0
 11
342.17031431
 21
443.4619467002
 31
0.0
  0
LINE
  5
F7
330
1F
100
AcDbEntity
  8
0
  6
Continuous
 62
     7
370
    25
100
AcDbLine
 10
376.6744483623
 20
413.1924474535
 30
0.0
 11
376.670133267
 21
413.868536706
 31
0.0
  0
LINE
  5
F8
330
1F
100
AcDbEntity
  8
0
  6
Continuous
 62
     7
370
    25
100
AcDbLine
 10
376.6701359476
 20
391.5724805291
 30
0.0
 11
376.6753527328
 21
392.248028377
 31
0.0
  0
LINE
  5
F9
330
1F
100
AcDbEntity
  8
0
  6
Continuous
 62
     7
370
    25
100
AcDbLine
 10
471.9244327596
 20
379.4707390055
 30
0.0
 11
479.5794312466
 21
366.211892694
 31
0.0
  0
LINE
  5
FA
330
1F
100
AcDbEntity
  8
0
  6
Continuous
 62
     7
370
    25
100
AcDbLine
 10
497.7659024435
 20
376.7120005698
 30
0.0
 11
490.1109008517
 21
389.9708522589
 31
0.0
  0
LINE
  5
FB
330
1F
100
AcDbEntity
  8
0
  6
Continuous
 62
     7
370
    25
100
AcDbLine
 10
393.8143906544
 20
392.2202769494
 30
0.0
 11
449.840659107
 21
392.2202769494
 31
0.0
  0
LINE
  5
FC
330
1F
100
AcDbEntity
  8
0
  6
Continuous
 62
     7
370
    25
100
AcDbLine
 10
376.655010756
 20
392.2202769494
 30
0.0
 11
389.5519324744
 21
392.2202769494
 31
0.0
  0
LINE
  5
FD
330
1F
100
AcDbEntity
  8
0
  6
Continuous
 62
     7
370
    25
100
AcDbLine
 10
449.8406709006
 20
413.2202769494
 30
0.0
 11
376.6550160384
 21
413.2202769494
 31
0.0
  0
SPLINE
  5
FE
330
1F
100
AcDbEntity
  8
0
  6
Continuous
 62
     7
370
    25
100
AcDbSpline
210
0.0
220
0.0
230
1.0
 70
     8
 71
     3
 72
    19
 73
    15
 74
     0
 42
0.00000001
 43
0.00000001
 40
0.0
 40
0.0
 40
0.0
 40
0.0
 40
0.1087148038529713
 40
0.2037806296519523
 40
0.285192553436137
 40
0.3529463584523622
 40
0.4070385353735127
 40
0.4522766586675021
 40
0.5090411050946624
 40
0.5796203784628307
 40
0.664010740295923
 40
0.7622077205656377
 40
0.8742061179282261
 40
1.0
 40
1.0
 40
1.0
 40
1.0
 10
449.8406591070364
 20
392.2202769493773
 30
0.0
 10
450.8143172270121
 20
392.1883925572707
 30
0.0
 10
452.6393921728558
 20
392.1286268099275
 30
0.0
 10
455.1618150107117
 20
391.6938643379008
 30
0.0
 10
457.2783972850523
 20
391.1396652529793
 30
0.0
 10
458.9973905101957
 20
390.5383991058754
 30
0.0
 10
460.3754689065704
 20
389.955421267403
 30
0.0
 10
461.6324301046159
 20
389.3441818820279
 30
0.0
 10
462.9842417930701
 20
388.594634597161
 30
0.0
 10
464.577663230556
 20
387.5655029089448
 30
0.0
 10
466.3780515497633
 20
386.183826292188
 30
0.0
 10
468.3046194983108
 20
384.3786817447178
 30
0.0
 10
470.2858178117023
 20
382.1012679069892
 30
0.0
 10
471.4096133189171
 20
380.2899405201453
 30
0.0
 10
472.0041094894556
 20
379.3317348784987
 30
0.0
  0
SPLINE
  5
FF
330
1F
100
AcDbEntity
  8
0
  6
Continuous
 62
     7
370
    25
100
AcDbSpline
210
0.0
220
0.0
230
1.0
 70
     8
 71
     3
 72
    21
 73
    17
 74
     0
 42
0.00000001
 43
0.00000001
 40
0.0
 40
0.0
 40
0.0
 40
0.0
 40
0.1033618801453693
 40
0.1989880309717822
 40
0.2808798026723385
 40
0.3332879312201972
 40
0.3779646055179294
 40
0.4149090933864248
 40
0.4489600858211826
 40
0.5060591061052901
 40
0.5770543789449174
 40
0.6619421438291248
 40
0.7347358750976166
 40
0.8153443506846506
 40
0.9037662196239878
 40
1.0
 40
1.0
 40
1.0
 40
1.0
 10
490.0976265804433
 20
389.9622666440958
 30
0.0
 10
489.21906059433
 20
391.3930897466572
 30
0.0
 10
487.5276815732673
 20
394.1476514036936
 30
0.0
 10
484.6222865731809
 20
397.6755855291405
 30
0.0
 10
482.0144218436476
 20
400.3480542463568
 30
0.0
 10
479.8398153430982
 20
402.27553123074
 30
0.0
 10
478.1411019222711
 20
403.63477570743
 30
0.0
 10
476.6262890911735
 20
404.7439083485784
 30
0.0
 10
474.9044746695262
 20
405.9089458859646
 30
0.0
 10
472.6561112275
 20
407.2786077691533
 30
0.0
 10
469.5880692274699
 20
408.8763149929451
 30
0.0
 10
466.1633544524087
 20
410.3176739856311
 30
0.0
 10
462.4846730367481
 20
411.5213815898626
 30
0.0
 10
458.664485425996
 20
412.4328845126199
 30
0.0
 10
454.4005592260597
 20
413.088391245073
 30
0.0
 10
451.4029058773309
 20
413.1750924086039
 30
0.0
 10
449.8406709006348
 20
413.2202769494534
 30
0.0
  0
SPLINE
  5
100
330
1F
100
AcDbEntity
  8
0
  6
Continuous
 62
     7
370
    25
100
AcDbSpline
210
0.0
220
0.0
230
1.0
 70
     8
 71
     3
 72
    20
 73
    16
 74
     0
 42
0.00000001
 43
0.00000001
 40
0.0
 40
0.0
 40
0.0
 40
0.0
 40
0.2362169753944833
 40
0.3456790727152366
 40
0.4002594617720673
 40
0.4625508181431607
 40
0.6219277327241638
 40
0.6602390218342366
 40
0.6952156744433424
 40
0.7282576756722973
 40
0.7455576350751899
 40
0.7644528585625254
 40
0.8104980327845893
 40
0.8730059427329672
 40
1.0
 40
1.0
 40
1.0
 40
1.0
 10
376.669438992554
 20
457.3406263566793
 30
0.0
 10
376.6759669406389
 20
457.6907174536128
 30
0.0
 10
376.6855199164017
 20
458.20303950647
 30
0.0
 10
376.9165883678003
 20
458.7359275361572
 30
0.0
 10
377.1245531323137
 20
458.9984249693292
 30
0.0
 10
377.429119931551
 20
459.2442561896567
 30
0.0
 10
377.7184861898083
 20
459.3533509073764
 30
0.0
 10
378.0265976554936
 20
459.4170868605011
 30
0.0
 10
378.1788454374555
 20
459.4384915693281
 30
0.0
 10
378.3047670714393
 20
459.4496158574059
 30
0.0
 10
378.3943193276121
 20
459.4549473466654
 30
0.0
 10
378.4864967431892
 20
459.4589618387586
 30
0.0
 10
378.5884730279939
 20
459.4611443364656
 30
0.0
 10
378.7043988013102
 20
459.4620099328667
 30
0.0
 10
378.7206006089277
 20
459.4619188379324
 30
0.0
 10
378.7314581916464
 20
459.4618577909919
 30
0.0
  0
LINE
  5
101
330
1F
100
AcDbEntity
  8
0
  6
Continuous
 62
     7
370
    25
100
AcDbLine
 10
389.5320606327
 20
392.2085306267
 30
0.0
 11
389.6734775924
 21
392.067113667
 31
0.0
  0
LINE
  5
102
330
1F
100
AcDbEntity
  8
0
  6
Continuous
 62
     7
370
    25
100
AcDbLine
 10
393.6734775924
 20
392.067113667
 30
0.0
 11
393.8221197184
 21
392.215755793
 31
0.0
  0
LINE
  5
103
330
1F
100
AcDbEntity
  8
0
  6
Continuous
 62
     7
370
    25
100
AcDbLine
 10
334.47031431
 20
303.4619467002
 30
0.0
 11
382.87031431
 21
303.4619467002
 31
0.0
  0
LINE
  5
104
330
1F
100
AcDbEntity
  8
0
  6
Continuous
 62
     7
370
    25
100
AcDbLine
 10
382.9528968611
 20
296.4619467002
 30
0.0
 11
333.67031431
 21
296.4619467002
 31
0.0
  0
LINE
  5
105
330
1F
100
AcDbEntity
  8
0
  6
Continuous
 62
     7
370
    25
100
AcDbLine
 10
383.67031431
 20
296.4619467002
 30
0.0
 11
382.9528968611
 21
296.4619467002
 31
0.0
  0
LINE
  5
106
330
1F
100
AcDbEntity
  8
0
  6
Continuous
 62
     7
370
    25
100
AcDbLine
 10
341.47031431
 20
468.4619467002
 30
0.0
 11
374.8120436073
 21
468.4619467002
 31
0.0
  0
LINE
  5
107
330
1F
100
AcDbEntity
  8
0
  6
Continuous
 62
     7
370
    25
100
AcDbLine
 10
375.87031431
 20
443.4619467002
 30
0.0
 11
341.47031431
 21
443.4619467002
 31
0.0
  0
SPLINE
  5
108
330
1F
100
AcDbEntity
  8
0
  6
Continuous
 62
     7
370
    25
100
AcDbSpline
210
0.0
220
0.0
230
1.0
 70
     8
 71
     3
 72
    24
 73
    20
 74
     0
 42
0.00000001
 43
0.00000001
 40
0.0
 40
0.0
 40
0.0
 40
0.0
 40
0.0453220696584591
 40
0.090572636369567
 40
0.1357745118588709
 40
0.1809505816117546
 40
0.2261237703340832
 40
0.2713170071156495
 40
0.3165531905603185
 40
0.3618551541473938
 40
0.4072456320846913
 40
0.4527472259051367
 40
0.4983823720458608
 40
0.5810759246686409
 40
0.6639619544130401
 40
0.7471702086684651
 40
0.8308289356113697
 40
0.9150643259125613
 40
1.0
 40
1.0
 40
1.0
 40
1.0
 10
363.1361017743168
 20
446.4619467002389
 30
0.0
 10
363.0049172520614
 20
446.4624289939062
 30
0.0
 10
362.7427551725029
 20
446.4633928203439
 30
0.0
 10
362.3471243109084
 20
446.4712627128705
 30
0.0
 10
361.9503217968455
 20
446.4839086715972
 30
0.0
 10
361.5522089127813
 20
446.5018402845028
 30
0.0
 10
361.1529104940086
 20
446.5249895921104
 30
0.0
 10
360.752482657176
 20
446.5534422597773
 30
0.0
 10
360.3510018190859
 20
446.5872418138238
 30
0.0
 10
359.9485405317443
 20
446.6264420807354
 30
0.0
 10
359.545175131014
 20
446.6710929367894
 30
0.0
 10
359.1409792752104
 20
446.721244657109
 30
0.0
 10
358.6269098313247
 20
446.7919559571712
 30
0.0
 10
358.0037466911502
 20
446.889551251075
 30
0.0
 10
357.2736850631913
 20
447.021993156734
 30
0.0
 10
356.5462119338563
 20
447.1720701617754
 30
0.0
 10
355.8220409550083
 20
447.3401116811175
 30
0.0
 10
355.1006087695943
 20
447.5246997609544
 30
0.0
 10
354.6264765850359
 20
447.6615769634128
 30
0.0
 10
354.3884291574362
 20
447.7302988662985
 30
0.0
  0
LINE
  5
109
330
1F
100
AcDbEntity
  8
0
  6
Continuous
 62
     7
370
    25
100
AcDbLine
 10
354.3884291574
 20
447.7302988663
 30
0.0
 11
341.0283067717
 21
451.6877474113
 31
0.0
  0
LINE
  5
10A
330
1F
100
AcDbEntity
  8
0
  6
Continuous
 62
     7
370
    25
100
AcDbLine
 10
376.17031431
 20
446.4619467002
 30
0.0
 11
363.1361017743
 21
446.4619467002
 31
0.0
  0
SPLINE
  5
10B
330
1F
100
AcDbEntity
  8
0
  6
Continuous
 62
     7
370
    25
100
AcDbSpline
210
0.0
220
0.0
230
1.0
 70
     8
 71
     3
 72
    13
 73
     9
 74
     0
 42
0.00000001
 43
0.00000001
 40
0.0
 40
0.0
 40
0.0
 40
0.0
 40
0.1752680660832501
 40
0.3554416824526262
 40
0.5307637016624288
 40
0.7120137709071861
 40
0.8730262470980401
 40
1.0
 40
1.0
 40
1.0
 40
1.0
 10
374.3623072845836
 20
408.4215002449955
 30
0.0
 10
374.5515192578908
 20
408.9086790208908
 30
0.0
 10
374.9352390286136
 20
409.8966721426795
 30
0.0
 10
375.519151232556
 20
411.1100133633165
 30
0.0
 10
376.0408916387217
 20
412.1100690498543
 30
0.0
 10
376.4216060413626
 20
412.7897581294015
 30
0.0
 10
376.6428263257126
 20
413.1720315064567
 30
0.0
 10
376.6511732186039
 20
413.1861061692211
 30
0.0
 10
376.6548533817799
 20
413.1923117185548
 30
0.0
  0
SPLINE
  5
10C
330
1F
100
AcDbEntity
  8
0
  6
Continuous
 62
     7
370
    25
100
AcDbSpline
210
0.0
220
0.0
230
1.0
 70
     8
 71
     3
 72
    15
 73
    11
 74
     0
 42
0.00000001
 43
0.00000001
 40
0.0
 40
0.0
 40
0.0
 40
0.0
 40
0.0398893354278906
 40
0.1825056168190761
 40
0.3292230515522317
 40
0.473374639938767
 40
0.6209120916014135
 40
0.7818511720550918
 40
0.9466094334797266
 40
1.0
 40
1.0
 40
1.0
 40
1.0
 10
376.6548691632903
 20
392.2482058312472
 30
0.0
 10
376.6599251491517
 20
392.2395260333882
 30
0.0
 10
376.6830577937139
 20
392.199813367205
 30
0.0
 10
376.5774092266729
 20
392.3810505831697
 30
0.0
 10
376.3580170828437
 20
392.7640848746829
 30
0.0
 10
376.0161522960933
 20
393.3812359504983
 30
0.0
 10
375.5829298149181
 20
394.2056317723569
 30
0.0
 10
375.072707145562
 20
395.2609266720448
 30
0.0
 10
374.6496525703303
 20
396.2449555125292
 30
0.0
 10
374.4188056340152
 20
396.8661955638489
 30
0.0
 10
374.3623072845836
 20
397.0182401959356
 30
0.0
  0
SPLINE
  5
10D
330
1F
100
AcDbEntity
  8
0
  6
Continuous
 62
     7
370
    25
100
AcDbSpline
210
0.0
220
0.0
230
1.0
 70
    24
 71
     3
 72
    17
 73
    13
 74
     0
 42
0.00000001
 43
0.00000001
 40
0.0
 40
0.0
 40
0.0
 40
0.0
 40
0.0992032616652148
 40
0.2012834246392224
 40
0.3004866863044328
 40
0.4025668492784383
 40
0.5017701109436746
 40
0.603850273917706
 40
0.7030535355830162
 40
0.8051336985571231
 40
0.9043369602225126
 40
1.0
 40
1.0
 40
1.0
 40
1.0
 10
489.628156395201
 20
372.0136064449287
 30
0.0
 10
489.1244369194688
 20
371.7227798776775
 30
0.0
 10
488.1023900690838
 20
371.1326927530226
 30
0.0
 10
486.5849634829725
 20
370.2565940783525
 30
0.0
 10
485.1151801576503
 20
369.4080026307312
 30
0.0
 10
483.7587093470842
 20
368.6248330920906
 30
0.0
 10
482.5300406989692
 20
367.9154511792688
 30
0.0
 10
481.486419957526
 20
367.3129081918155
 30
0.0
 10
480.636673375095
 20
366.8223000388496
 30
0.0
 10
480.0274977757506
 20
366.4705875144271
 30
0.0
 10
479.6458843980374
 20
366.2502599035159
 30
0.0
 10
479.6065613334198
 20
366.2275564099099
 30
0.0
 10
479.5872570008245
 20
366.2164108952887
 30
0.0
  0
SPLINE
  5
10E
330
1F
100
AcDbEntity
  8
0
  6
Continuous
 62
     7
370
    25
100
AcDbSpline
210
0.0
220
0.0
230
1.0
 70
    24
 71
     3
 72
    16
 73
    12
 74
     0
 42
0.00000001
 43
0.00000001
 40
0.0
 40
0.0
 40
0.0
 40
0.0
 40
0.0489731156470404
 40
0.1657323758720037
 40
0.2792010372306729
 40
0.3959602974556597
 40
0.5094289588142861
 40
0.6261882190392297
 40
0.7396568803977708
 40
0.856416140622626
 40
0.9999999999999999
 40
0.9999999999999999
 40
0.9999999999999999
 40
0.9999999999999999
 10
497.7350863357558
 20
376.6942088816934
 30
0.0
 10
497.7422577704031
 20
376.6983493682562
 30
0.0
 10
497.7665269819244
 20
376.7123613964122
 30
0.0
 10
497.5351773521627
 20
376.5787897917792
 30
0.0
 10
497.0517610619498
 20
376.2996854350703
 30
0.0
 10
496.3210710281526
 20
375.8778155561164
 30
0.0
 10
495.3696485925375
 20
375.3285040160898
 30
0.0
 10
494.2366835522938
 20
374.6743773655552
 30
0.0
 10
492.9343389055633
 20
373.9224580111642
 30
0.0
 10
491.4024269458824
 20
373.0379960873574
 30
0.0
 10
490.258856067429
 20
372.3777460692184
 30
0.0
 10
489.628156395201
 20
372.0136064449287
 30
0.0
  0
SPLINE
  5
10F
330
1F
100
AcDbEntity
  8
0
  6
Continuous
 62
     7
370
    25
100
AcDbSpline
210
0.0
220
0.0
230
1.0
 70
     8
 71
     3
 72
    17
 73
    13
 74
     0
 42
0.00000001
 43
0.00000001
 40
0.0
 40
0.0
 40
0.0
 40
0.0
 40
0.1103519921488626
 40
0.2324566682067604
 40
0.3518337382804692
 40
0.4427481641982864
 40
0.533942002102787
 40
0.6186902832332591
 40
0.7072309763296337
 40
0.8075448172170462
 40
0.9207770088170283
 40
1.0
 40
1.0
 40
1.0
 40
1.0
 10
393.8143906544033
 20
392.2233686633792
 30
0.0
 10
393.7964248303857
 20
392.2281583652006
 30
0.0
 10
393.7585797900618
 20
392.2382478806267
 30
0.0
 10
393.3565406100833
 20
392.3349369376971
 30
0.0
 10
392.7705134528958
 20
392.4399341625804
 30
0.0
 10
392.0915998721259
 20
392.5058850914544
 30
0.0
 10
391.4364060727372
 20
392.5131460178248
 30
0.0
 10
390.8204180784953
 20
392.4680964927221
 30
0.0
 10
390.2750784042565
 20
392.3888731988111
 30
0.0
 10
389.8298221473838
 20
392.2978785694419
 30
0.0
 10
389.5491167210635
 20
392.2278241484384
 30
0.0
 10
389.5511113837745
 20
392.2282023490543
 30
0.0
 10
389.5519324743997
 20
392.2283580330096
 30
0.0
  0
LINE
  5
110
330
1F
100
AcDbEntity
  8
0
  6
Continuous
 62
     7
370
    25
100
AcDbLine
 10
374.3623072846
 20
397.0247139305
 30
0.0
 11
374.3623072846
 21
397.0182401959
 31
0.0
  0
LINE
  5
111
330
1F
100
AcDbEntity
  8
0
  6
Continuous
 62
     7
370
    25
100
AcDbLine
 10
374.3623072846
 20
408.421500245
 30
0.0
 11
374.3623072846
 21
408.4150243123
 31
0.0
  0
SPLINE
  5
112
330
1F
100
AcDbEntity
  8
0
  6
Continuous
 62
     7
370
    25
100
AcDbSpline
210
0.0
220
0.0
230
1.0
 70
     8
 71
     3
 72
    20
 73
    16
 74
     0
 42
0.00000001
 43
0.00000001
 40
0.0
 40
0.0
 40
0.0
 40
0.0
 40
0.1249999999999974
 40
0.1249999999999974
 40
0.1874999999999962
 40
0.1874999999999962
 40
0.2499999999999949
 40
0.2499999999999949
 40
0.4999999999999967
 40
0.4999999999999967
 40
0.7499999999999983
 40
0.7499999999999983
 40
0.8749999999999991
 40
0.8749999999999991
 40
1.0
 40
1.0
 40
1.0
 40
1.0
 10
374.3623072845889
 20
408.4150243122683
 30
0.0
 10
374.2134971925488
 20
408.0051793508729
 30
0.0
 10
374.0721056199076
 20
407.5777691358185
 30
0.0
 10
373.8784048160371
 20
406.9079239630559
 30
0.0
 10
373.816914916142
 20
406.679831546852
 30
0.0
 10
373.7015040578481
 20
406.2133203868817
 30
0.0
 10
373.6473621160075
 20
405.9737667617281
 30
0.0
 10
373.4024648899097
 20
404.762525414025
 30
0.0
 10
373.2910807795957
 20
403.7625797375111
 30
0.0
 10
373.2899630055568
 20
401.6920331256956
 30
0.0
 10
373.4003452585742
 20
400.6908699463409
 30
0.0
 10
373.6936223448077
 20
399.2347933805437
 30
0.0
 10
373.810746080633
 20
398.7662697923951
 30
0.0
 10
374.0697439802292
 20
397.8690305024575
 30
0.0
 10
374.2120256455364
 20
397.4384715023775
 30
0.0
 10
374.3623072845836
 20
397.0247139304572
 30
0.0
  0
SPLINE
  5
113
330
1F
100
AcDbEntity
  8
0
  6
Continuous
 62
     7
370
    25
100
AcDbSpline
210
0.0
220
0.0
230
1.0
 70
    24
 71
     3
 72
    22
 73
    18
 74
     0
 42
0.00000001
 43
0.00000001
 40
0.0
 40
0.0
 40
0.0
 40
0.0
 40
0.1249999999999999
 40
0.1249999999999999
 40
0.2499999999999999
 40
0.2499999999999999
 40
0.3749999999999998
 40
0.3749999999999998
 40
0.4999999999999999
 40
0.4999999999999999
 40
0.6249999999999999
 40
0.6249999999999999
 40
0.75
 40
0.75
 40
0.875
 40
0.875
 40
1.0
 40
1.0
 40
1.0
 40
1.0
 10
378.0233280128052
 20
468.461946700239
 30
0.0
 10
377.8463806406589
 20
468.461946700239
 30
0.0
 10
377.6694788343651
 20
468.4619467002389
 30
0.0
 10
377.3165491743229
 20
468.4619467002388
 30
0.0
 10
377.1404925839668
 20
468.461946700239
 30
0.0
 10
376.789592339988
 20
468.461946700239
 30
0.0
 10
376.6171135087723
 20
468.461946700239
 30
0.0
 10
376.2882117298113
 20
468.4619467002389
 30
0.0
 10
376.1288181412583
 20
468.461946700239
 30
0.0
 10
375.8351823968648
 20
468.461946700239
 30
0.0
 10
375.7018297312019
 20
468.461946700239
 30
0.0
 10
375.4592524221869
 20
468.4619467002389
 30
0.0
 10
375.3502597309865
 20
468.4619467002389
 30
0.0
 10
375.1609591292844
 20
468.461946700239
 30
0.0
 10
375.079219322599
 20
468.4619467002389
 30
0.0
 10
374.9348678366606
 20
468.4619467002389
 30
0.0
 10
374.873542353033
 20
468.461946700239
 30
0.0
 10
374.8120436073005
 20
468.461946700239
 30
0.0
  0
LINE
  5
114
330
1F
100
AcDbEntity
  8
0
  6
Continuous
 62
     7
370
    25
100
AcDbLine
 10
447.87031431
 20
459.4619467002
 30
0.0
 11
378.4485228327
 21
459.4619467002
 31
0.0
  0
LINE
  5
115
330
1F
100
AcDbEntity
  8
0
  6
Continuous
 62
     7
370
    25
100
AcDbLine
 10
378.0233280128
 20
468.4619467002
 30
0.0
 11
447.87031431
 21
468.4619467002
 31
0.0
  0
ARC
  5
116
330
1F
100
AcDbEntity
  8
0
  6
Continuous
 62
     7
370
    25
100
AcDbCircle
 10
447.87031431
 20
460.2619467002
 30
0.0
 40
0.8000000000000114
100
AcDbArc
 50
270.0
 51
0.0
  0
LINE
  5
117
330
1F
100
AcDbEntity
  8
0
  6
Continuous
 62
     7
370
    25
100
AcDbLine
 10
448.67031431
 20
467.6619467002
 30
0.0
 11
448.67031431
 21
460.2619467002
 31
0.0
  0
ARC
  5
118
330
1F
100
AcDbEntity
  8
0
  6
Continuous
 62
     7
370
    25
100
AcDbCircle
 10
447.87031431
 20
467.6619467002
 30
0.0
 40
0.8000000000000682
100
AcDbArc
 50
0.0
 51
90.0
  0
LINE
  5
119
330
1F
100
AcDbEntity
  8
0
  6
Continuous
 62
     7
370
    25
100
AcDbLine
 10
389.8930140471
 20
392.067113667
 30
0.0
 11
389.6734775924
 21
392.067113667
 31
0.0
  0
LINE
  5
11A
330
1F
100
AcDbEntity
  8
0
  6
Continuous
 62
     7
370
    25
100
AcDbLine
 10
393.6734775924
 20
392.067113667
 30
0.0
 11
389.8930140471
 21
392.067113667
 31
0.0
  0
LINE
  5
11B
330
1F
100
AcDbEntity
  8
0
  6
Continuous
 62
     7
370
    18
100
AcDbLine
 10
383.67031431
 20
302.6619467002
 30
0.0
 11
333.67031431
 21
302.6619467002
 31
0.0
  0
SPLINE
  5
11C
330
1F
100
AcDbEntity
  8
0
  6
Continuous
 62
     7
370
    18
100
AcDbSpline
210
0.0
220
0.0
230
1.0
 70
     8
 71
     3
 72
    21
 73
    17
 74
     0
 42
0.00000001
 43
0.00000001
 40
0.0
 40
0.0
 40
0.0
 40
0.0
 40
0.0276447721780825
 40
0.0552428195415967
 40
0.0828588255560675
 40
0.1105573478725324
 40
0.167419926807062
 40
0.2244273239294111
 40
0.3414926866829844
 40
0.4633589029261931
 40
0.5906748595160447
 40
0.7227374015014348
 40
0.7913815171671945
 40
0.8602228214983669
 40
0.9300718087027425
 40
1.0
 40
1.0
 40
1.0
 40
1.0
 10
376.3633755669003
 20
457.3406263567013
 30
0.0
 10
376.3553215789404
 20
457.3380126928745
 30
0.0
 10
376.3392272157605
 20
457.3327897827997
 30
0.0
 10
376.3138643376159
 20
457.3329215997839
 30
0.0
 10
376.28766270144
 20
457.3389165916493
 30
0.0
 10
376.2510748863936
 20
457.3556594009469
 30
0.0
 10
376.2029118747346
 20
457.3928958435044
 30
0.0
 10
376.1211172620023
 20
457.4886622335181
 30
0.0
 10
376.0118951965604
 20
457.6777295928795
 30
0.0
 10
375.8789037242856
 20
458.012993414259
 30
0.0
 10
375.7536473901094
 20
458.4550421057393
 30
0.0
 10
375.6672591221258
 20
458.900976809838
 30
0.0
 10
375.6147635159676
 20
459.294701333021
 30
0.0
 10
375.5853450628534
 20
459.6089409347727
 30
0.0
 10
375.566348708433
 20
459.9326511639958
 30
0.0
 10
375.5639978229523
 20
460.1521400640339
 30
0.0
 10
375.5628217141528
 20
460.261946700239
 30
0.0
  0
SPLINE
  5
11D
330
1F
100
AcDbEntity
  8
0
  6
Continuous
 62
     7
370
    18
100
AcDbSpline
210
0.0
220
0.0
230
1.0
 70
    24
 71
     3
 72
     8
 73
     4
 74
     0
 42
0.00000001
 43
0.00000001
 40
0.0
 40
0.0
 40
0.0
 40
0.0
 40
1.0
 40
1.0
 40
1.0
 40
1.0
 10
376.6703143099745
 20
457.3406263566793
 30
0.0
 10
376.6703143099736
 20
457.3406263566793
 30
0.0
 10
376.5674178507522
 20
457.3406263566793
 30
0.0
 10
376.3633755668984
 20
457.3406263566793
 30
0.0
  0
LINE
  5
11E
330
1F
100
AcDbEntity
  8
0
  6
Continuous
 62
     7
370
    18
100
AcDbLine
 10
375.5628217142
 20
467.6619467002
 30
0.0
 11
340.67031431
 21
467.6619467002
 31
0.0
  0
LINE
  5
11F
330
1F
100
AcDbEntity
  8
0
  6
Continuous
 62
     7
370
    18
100
AcDbLine
 10
375.5628217142
 20
460.2619467002
 30
0.0
 11
375.5628217142
 21
467.6619467002
 31
0.0
  0
SPLINE
  5
120
330
1F
100
AcDbEntity
  8
0
  6
Continuous
 62
     7
370
    18
100
AcDbSpline
210
0.0
220
0.0
230
1.0
 70
     8
 71
     3
 72
    12
 73
     8
 74
     0
 42
0.00000001
 43
0.00000001
 40
0.0
 40
0.0
 40
0.0
 40
0.0
 40
0.25
 40
0.25
 40
0.5
 40
0.5
 40
1.0
 40
1.0
 40
1.0
 40
1.0
 10
354.4121546160685
 20
448.2097087337327
 30
0.0
 10
355.1236430763979
 20
448.004810485925
 30
0.0
 10
355.84655664666
 20
447.8234547927598
 30
0.0
 10
357.3160619773197
 20
447.5098295404844
 30
0.0
 10
358.0675959971591
 20
447.3770281056014
 30
0.0
 10
360.309145941099
 20
447.0627155120171
 30
0.0
 10
361.7927021635886
 20
446.9619467002389
 30
0.0
 10
363.2636957018694
 20
446.9619467002389
 30
0.0
  0
LINE
  5
121
330
1F
100
AcDbEntity
  8
0
  6
Continuous
 62
     7
370
    18
100
AcDbLine
 10
340.67031431
 20
452.1671573184
 30
0.0
 11
354.4121546161
 21
448.2097087337
 31
0.0
  0
LINE
  5
122
330
1F
100
AcDbEntity
  8
0
  6
Continuous
 62
     7
370
    18
100
AcDbLine
 10
363.2636957019
 20
446.9619467002
 30
0.0
 11
376.67031431
 21
446.9619467002
 31
0.0
  0
ARC
  5
123
330
1F
100
AcDbEntity
  8
0
  6
Continuous
 62
     7
370
    18
100
AcDbCircle
 10
374.7866258995
 20
467.6858005234
 30
0.0
 40
0.776562262550644
100
AcDbArc
 50
358.2397568356
 51
88.1243132558
  0
LINE
  5
124
330
1F
100
AcDbEntity
  8
0
  6
Continuous
 62
     7
370
    18
100
AcDbLine
 10
376.67031431
 20
442.6619467002
 30
0.0
 11
340.67031431
 21
442.6619467002
 31
0.0
  0
SPLINE
  5
125
330
1F
100
AcDbEntity
  8
0
  6
Continuous
 62
     7
370
    18
100
AcDbSpline
210
0.0
220
0.0
230
1.0
 70
     8
 71
     3
 72
    89
 73
    85
 74
     0
 42
0.00000001
 43
0.00000001
 40
0.0
 40
0.0
 40
0.0
 40
0.0
 40
0.0067588991193856
 40
0.0135190056876774
 40
0.0202811084987658
 40
0.0308804104858675
 40
0.0347159257175203
 40
0.0500772180289224
 40
0.065481928090795
 40
0.0732048277868002
 40
0.1042390859129632
 40
0.1198692108284564
 40
0.127713762354039
 40
0.1434606839735636
 40
0.1553239294613657
 40
0.159288626981678
 40
0.1831693350034964
 40
0.1991764101966442
 40
0.2152424975442514
 40
0.231357795631191
 40
0.2555868058887543
 40
0.2636721621948201
 40
0.2798428946446414
 40
0.2879281618703768
 40
0.2960082996406761
 40
0.3081139513410155
 40
0.3161721026650908
 40
0.3201967107942711
 40
0.3362585183063611
 40
0.3442659077797012
 40
0.3522549828935771
 40
0.3681718225869747
 40
0.3760987335786544
 40
0.3840028735513613
 40
0.3997401487820079
 40
0.4075745410051287
 40
0.4153856641130769
 40
0.4309397713569858
 40
0.4386864604266836
 40
0.4464152784898358
 40
0.4618213468472562
 40
0.469504540391285
 40
0.4771666214092153
 40
0.4924671335295078
 40
0.5077567310808784
 40
0.5154053158008358
 40
0.5307200040319319
 40
0.5384048954709044
 40
0.5461029408638158
 40
0.561545311463285
 40
0.5692921502969023
 40
0.5770594217022564
 40
0.5926581205953662
 40
0.6004930485014646
 40
0.6083513049287508
 40
0.6241362775107635
 40
0.6320642217674909
 40
0.6400139277202644
 40
0.6559732461423008
 40
0.6639815427369471
 40
0.6720064321378464
 40
0.684070788898816
 40
0.6961606051503103
 40
0.7042319941526114
 40
0.7163514348501114
 40
0.7284798980180306
 40
0.7365673532960962
 40
0.752735605972751
 40
0.7769430098381572
 40
0.7809704852190485
 40
0.8010611153698615
 40
0.8170695113539198
 40
0.8330073850327008
 40
0.8488711264844185
 40
0.8725170545421559
 40
0.8803613997596165
 40
0.8959901275021214
 40
0.9115451703634939
 40
0.9270342418734443
 40
0.9578333576507202
 40
0.9693452048017738
 40
0.9731790952539702
 40
0.9866075966982687
 40
1.0
 40
1.0
 40
1.0
 40
1.0
 10
376.6701871527345
 20
391.7202769494366
 30
0.0
 10
376.6698732144907
 20
391.7207813284494
 30
0.0
 10
376.6692452819193
 20
391.7217901765803
 30
0.0
 10
376.6642484842474
 20
391.7299512698075
 30
0.0
 10
376.654784101157
 20
391.7454463996859
 30
0.0
 10
376.6421424775324
 20
391.7661871632239
 30
0.0
 10
376.6194912628036
 20
391.8034040168153
 30
0.0
 10
376.5856292138033
 20
391.8591689647075
 30
0.0
 10
376.5348873672519
 20
391.9431759765141
 30
0.0
 10
376.4502298134576
 20
392.0840568850273
 30
0.0
 10
376.3432417041616
 20
392.2635306794709
 30
0.0
 10
376.2128335176972
 20
392.4861277736503
 30
0.0
 10
376.1112557161124
 20
392.6612439212034
 30
0.0
 10
376.0126908957212
 20
392.8328933456781
 30
0.0
 10
375.9186077701256
 20
392.9991379590581
 30
0.0
 10
375.7961386992168
 20
393.2175002035773
 30
0.0
 10
375.6530007820917
 20
393.4767784326629
 30
0.0
 10
375.4590858421558
 20
393.8383291058055
 30
0.0
 10
375.2856332670728
 20
394.170330063629
 30
0.0
 10
375.0767325527511
 20
394.5821253192457
 30
0.0
 10
374.8928941402963
 20
394.9599165407314
 30
0.0
 10
374.7076730082709
 20
395.3562727775654
 30
0.0
 10
374.5838902163889
 20
395.6297683282925
 30
0.0
 10
374.4607358920251
 20
395.9118898419413
 30
0.0
 10
374.3536532018404
 20
396.1635627506306
 30
0.0
 10
374.2477257836933
 20
396.4211831321343
 30
0.0
 10
374.158306552335
 20
396.6469306313521
 30
0.0
 10
374.055367939865
 20
396.9131174894246
 30
0.0
 10
373.9545862407956
 20
397.1846918088181
 30
0.0
 10
373.8432462200854
 20
397.502199427469
 30
0.0
 10
373.7351091521658
 20
397.8232208291653
 30
0.0
 10
373.6317529570082
 20
398.1507587546992
 30
0.0
 10
373.5341419801536
 20
398.4842297549627
 30
0.0
 10
373.4409795054864
 20
398.8201911214276
 30
0.0
 10
373.3543890831452
 20
399.1615834835355
 30
0.0
 10
373.275282167226
 20
399.5076953313109
 30
0.0
 10
373.2016732307079
 20
399.8554023295748
 30
0.0
 10
373.1362461265985
 20
400.20732922077
 30
0.0
 10
373.079761017744
 20
400.5626169333588
 30
0.0
 10
373.0295631384241
 20
400.9188276331722
 30
0.0
 10
372.9888177441858
 20
401.2779107469384
 30
0.0
 10
372.9580572258529
 20
401.6387038439793
 30
0.0
 10
372.9340785687156
 20
401.99964340584
 30
0.0
 10
372.9168875038326
 20
402.4522085707835
 30
0.0
 10
372.9170088191466
 20
402.9054971672489
 30
0.0
 10
372.9300964206081
 20
403.3581733742817
 30
0.0
 10
372.9509236583535
 20
403.7199012912861
 30
0.0
 10
372.9818125028912
 20
404.0800189067648
 30
0.0
 10
373.0194237174308
 20
404.4399071366303
 30
0.0
 10
373.0668052859372
 20
404.7975206980675
 30
0.0
 10
373.123324191163
 20
405.1518879603882
 30
0.0
 10
373.1859656324472
 20
405.5051236952846
 30
0.0
 10
373.2572287294752
 20
405.8546381369908
 30
0.0
 10
373.3362533739012
 20
406.1996340403959
 30
0.0
 10
373.4205579987931
 20
406.5428118612239
 30
0.0
 10
373.51193716913
 20
406.880935155602
 30
0.0
 10
373.6094110463135
 20
407.2133743513584
 30
0.0
 10
373.7110594175493
 20
407.543056605305
 30
0.0
 10
373.8179920030742
 20
407.8665047798509
 30
0.0
 10
373.9292028973247
 20
408.1832048126837
 30
0.0
 10
374.0289947698784
 20
408.4568759472693
 30
0.0
 10
374.1459426307389
 20
408.7637589816935
 30
0.0
 10
374.2655492019954
 20
409.0630271177409
 30
0.0
 10
374.3868943875348
 20
409.3558679810554
 30
0.0
 10
374.5095826047803
 20
409.642008310671
 30
0.0
 10
374.6331001489967
 20
409.9196459477664
 30
0.0
 10
374.7722378897255
 20
410.2236887114614
 30
0.0
 10
374.9572206588558
 20
410.6151453276058
 30
0.0
 10
375.1244027072137
 20
410.9525992602457
 30
0.0
 10
375.3024994260161
 20
411.3025526064371
 30
0.0
 10
375.4475138262283
 20
411.5809612816242
 30
0.0
 10
375.6276996182252
 20
411.9168902135935
 30
0.0
 10
375.7855000711729
 20
412.2044066072875
 30
0.0
 10
375.957979207714
 20
412.5123546567656
 30
0.0
 10
376.0925679021488
 20
412.7473182650133
 30
0.0
 10
376.2144858028331
 20
412.9573370541239
 30
0.0
 10
376.3077760667392
 20
413.1164303431753
 30
0.0
 10
376.4060128467491
 20
413.2821386450681
 30
0.0
 10
376.5173582302167
 20
413.4682743372146
 30
0.0
 10
376.5936374102144
 20
413.5943203648051
 30
0.0
 10
376.6325197830389
 20
413.6583166295959
 30
0.0
 10
376.6516437862003
 20
413.6897791312326
 30
0.0
 10
376.6666076553131
 20
413.7143618554111
 30
0.0
 10
376.6689947698937
 20
413.7183070213556
 30
0.0
 10
376.6701867207802
 20
413.7202769494367
 30
0.0
  0
LINE
  5
126
330
1F
100
AcDbEntity
  8
0
  6
Continuous
 62
     7
370
    18
100
AcDbLine
 10
375.1463192874
 20
444.0602514518
 30
0.0
 11
375.1507055472
 21
444.0602514518
 31
0.0
  0
LINE
  5
127
330
1F
100
AcDbEntity
  8
0
  6
Continuous
 62
     7
370
    18
100
AcDbLine
 10
342.1899230727
 20
444.0602514518
 30
0.0
 11
375.1463192874
 21
444.0602514518
 31
0.0
  0
LINE
  5
128
330
1F
100
AcDbEntity
  8
0
  6
Continuous
 62
     7
370
    18
100
AcDbLine
 10
375.17031431
 20
443.8631904918
 30
0.0
 11
342.17031431
 21
443.8631904918
 31
0.0
  0
SPLINE
  5
129
330
1F
100
AcDbEntity
  8
0
  6
Continuous
 62
     7
370
    18
100
AcDbSpline
210
0.0
220
0.0
230
1.0
 70
    24
 71
     3
 72
    22
 73
    18
 74
     0
 42
0.00000001
 43
0.00000001
 40
0.0
 40
0.0
 40
0.0
 40
0.0
 40
0.1250000000000005
 40
0.1250000000000005
 40
0.2500000000000011
 40
0.2500000000000011
 40
0.3750000000000016
 40
0.3750000000000016
 40
0.5000000000000021
 40
0.5000000000000021
 40
0.6250000000000016
 40
0.6250000000000016
 40
0.7500000000000009
 40
0.7500000000000009
 40
0.8750000000000004
 40
0.8750000000000004
 40
1.0
 40
1.0
 40
1.0
 40
1.0
 10
490.1109008517071
 20
389.9708522588787
 30
0.0
 10
490.1109008517071
 20
389.9708522588787
 30
0.0
 10
489.8742283090588
 20
389.8342073375457
 30
0.0
 10
488.9632109412107
 20
389.3082236506773
 30
0.0
 10
488.2892245624428
 20
388.9190918372622
 30
0.0
 10
486.6058839626099
 20
387.947200711798
 30
0.0
 10
485.597192064189
 20
387.3648237974051
 30
0.0
 10
483.3978015791765
 20
386.0949868469827
 30
0.0
 10
482.2079683588224
 20
385.4080264375686
 30
0.0
 10
479.8273652524484
 20
384.0335648267888
 30
0.0
 10
478.6375320320944
 20
383.3466044173747
 30
0.0
 10
476.4381415470818
 20
382.0767674669523
 30
0.0
 10
475.4294496486609
 20
381.4943905525594
 30
0.0
 10
473.746109048828
 20
380.5224994270952
 30
0.0
 10
473.0721226700601
 20
380.1333676136801
 30
0.0
 10
472.1611053022119
 20
379.6073839268117
 30
0.0
 10
471.9244327595637
 20
379.4707390054787
 30
0.0
 10
471.9244327595636
 20
379.4707390054787
 30
0.0
  0
SPLINE
  5
12A
330
1F
100
AcDbEntity
  8
0
  6
Continuous
 62
     7
370
    18
100
AcDbSpline
210
0.0
220
0.0
230
1.0
 70
     8
 71
     3
 72
    22
 73
    18
 74
     0
 42
0.00000001
 43
0.00000001
 40
0.0
 40
0.0
 40
0.0
 40
0.0
 40
0.125
 40
0.125
 40
0.25
 40
0.25
 40
0.375
 40
0.375
 40
0.5
 40
0.5
 40
0.625
 40
0.625
 40
0.75
 40
0.75
 40
0.875
 40
0.875
 40
1.0
 40
1.0
 40
1.0
 40
1.0
 10
449.8406709006348
 20
413.2202769494534
 30
0.0
 10
449.8406709006348
 20
413.2202769494534
 30
0.0
 10
449.8406708204185
 20
412.9469900544695
 30
0.0
 10
449.8406704946714
 20
411.8950340271681
 30
0.0
 10
449.8406702489654
 20
411.1167787946267
 30
0.0
 10
449.840669579709
 20
409.1730175091777
 30
0.0
 10
449.8406691556331
 20
408.0082762433335
 30
0.0
 10
449.8406681191065
 20
405.4686297352092
 30
0.0
 10
449.8406675054578
 20
404.0947237353822
 30
0.0
 10
449.8406661058131
 20
401.3458301634911
 30
0.0
 10
449.8406653179184
 20
399.9719241636643
 30
0.0
 10
449.8406636596915
 20
397.432277655538
 30
0.0
 10
449.8406627885717
 20
396.2675363896912
 30
0.0
 10
449.8406611781573
 20
394.3237751042316
 30
0.0
 10
449.8406604434799
 20
393.5455198716821
 30
0.0
 10
449.8406594036378
 20
392.4935638443666
 30
0.0
 10
449.8406591070365
 20
392.2202769493774
 30
0.0
 10
449.8406591070364
 20
392.2202769493773
 30
0.0
  0
SPLINE
  5
12B
330
1F
100
AcDbEntity
  8
0
  6
Continuous
 62
     7
370
    18
100
AcDbSpline
210
0.0
220
0.0
230
1.0
 70
    24
 71
     3
 72
    20
 73
    16
 74
     0
 42
0.00000001
 43
0.00000001
 40
0.0
 40
0.0
 40
0.0
 40
0.0
 40
0.1250000000000001
 40
0.1250000000000001
 40
0.2500000000000002
 40
0.2500000000000002
 40
0.5000000000000002
 40
0.5000000000000002
 40
0.6250000000000002
 40
0.6250000000000002
 40
0.7500000000000001
 40
0.7500000000000001
 40
0.8750000000000001
 40
0.8750000000000001
 40
1.0
 40
1.0
 40
1.0
 40
1.0
 10
378.0233280128052
 20
467.661946700239
 30
0.0
 10
377.888915822071
 20
467.6619467002389
 30
0.0
 10
377.7539333218527
 20
467.6619467002389
 30
0.0
 10
377.4800223792308
 20
467.6619467002389
 30
0.0
 10
377.34132195808
 20
467.661946700239
 30
0.0
 10
376.9301524278894
 20
467.661946700239
 30
0.0
 10
376.6653482309123
 20
467.661946700239
 30
0.0
 10
376.3289834472724
 20
467.661946700239
 30
0.0
 10
376.2260157541671
 20
467.661946700239
 30
0.0
 10
376.0405239840514
 20
467.661946700239
 30
0.0
 10
375.9581690810376
 20
467.661946700239
 30
0.0
 10
375.8151389026741
 20
467.6619467002389
 30
0.0
 10
375.754632801321
 20
467.661946700239
 30
0.0
 10
375.6502228683144
 20
467.661946700239
 30
0.0
 10
375.6064882106576
 20
467.661946700239
 30
0.0
 10
375.5628217141528
 20
467.661946700239
 30
0.0
  0
LINE
  5
12C
330
1F
100
AcDbEntity
  8
0
  6
Continuous
 62
     7
370
    18
100
AcDbLine
 10
378.0233280128
 20
467.6619467002
 30
0.0
 11
378.0233280128
 21
468.4619467002
 31
0.0
  0
LINE
  5
12D
330
1F
100
AcDbEntity
  8
0
  6
Continuous
 62
     7
370
    18
100
AcDbLine
 10
378.0233280128
 20
467.6619467002
 30
0.0
 11
378.0233280128
 21
460.2619467002
 31
0.0
  0
SPLINE
  5
12E
330
1F
100
AcDbEntity
  8
0
  6
Continuous
 62
     7
370
    18
100
AcDbSpline
210
0.0
220
0.0
230
1.0
 70
     8
 71
     3
 72
    17
 73
    13
 74
     0
 42
0.00000001
 43
0.00000001
 40
0.0
 40
0.0
 40
0.0
 40
0.0
 40
0.0571821084760977
 40
0.1151571412022654
 40
0.174120176473636
 40
0.2342566777818133
 40
0.3505549998483427
 40
0.4811250368318574
 40
0.591165886042496
 40
0.7403127443770092
 40
0.8960290661571496
 40
0.9999999999999999
 40
0.9999999999999999
 40
0.9999999999999999
 40
0.9999999999999999
 10
378.0233280128052
 20
460.261946700239
 30
0.0
 10
378.0237751521034
 20
460.2364661896407
 30
0.0
 10
378.0246756310238
 20
460.1851518391373
 30
0.0
 10
378.0318629601254
 20
460.1085509869022
 30
0.0
 10
378.043309797423
 20
460.0326251668891
 30
0.0
 10
378.0643092540478
 20
459.9355723580745
 30
0.0
 10
378.1020605257418
 20
459.818318785546
 30
0.0
 10
378.1574261929434
 20
459.7015929738036
 30
0.0
 10
378.2267044299494
 20
459.5979054496942
 30
0.0
 10
378.3045957022788
 20
459.5162659381025
 30
0.0
 10
378.3824138046386
 20
459.4689557317332
 30
0.0
 10
378.4296220693158
 20
459.4639506027246
 30
0.0
 10
378.4485228326659
 20
459.4619467002389
 30
0.0
  0
LINE
  5
12F
330
1F
100
AcDbEntity
  8
0
  6
Continuous
 62
     7
370
    18
100
AcDbLine
 10
447.87031431
 20
467.6619467002
 30
0.0
 11
378.0233280128
 21
467.6619467002
 31
0.0
  0
LINE
  5
130
330
1F
100
AcDbEntity
  8
0
  6
Continuous
 62
     7
370
    18
100
AcDbLine
 10
447.87031431
 20
460.2619467002
 30
0.0
 11
447.87031431
 21
467.6619467002
 31
0.0
  0
LINE
  5
131
330
1F
100
AcDbEntity
  8
0
  6
Continuous
 62
     7
370
    18
100
AcDbLine
 10
447.87031431
 20
459.4619467002
 30
0.0
 11
447.87031431
 21
460.2619467002
 31
0.0
  0
LINE
  5
132
330
1F
100
AcDbEntity
  8
0
  6
Continuous
 62
     7
370
    18
100
AcDbLine
 10
447.87031431
 20
467.6619467002
 30
0.0
 11
447.87031431
 21
468.4619467002
 31
0.0
  0
LINE
  5
133
330
1F
100
AcDbEntity
  8
0
  6
Continuous
 62
     7
370
    18
100
AcDbLine
 10
448.67031431
 20
467.6619467002
 30
0.0
 11
447.87031431
 21
467.6619467002
 31
0.0
  0
LINE
  5
134
330
1F
100
AcDbEntity
  8
0
  6
Continuous
 62
     7
370
    25
100
AcDbLine
 10
142.8693842466
 20
215.2150981912
 30
0.0
 11
142.8693842466
 21
138.6651433024
 31
0.0
  0
LINE
  5
135
330
1F
100
AcDbEntity
  8
0
  6
Continuous
 62
     7
370
    25
100
AcDbLine
 10
163.8693842466
 20
138.6651433024
 30
0.0
 11
163.8693842466
 21
215.195907768
 31
0.0
  0
SPLINE
  5
136
330
1F
100
AcDbEntity
  8
0
  6
Continuous
 62
     7
370
    25
100
AcDbSpline
210
0.0
220
0.0
230
1.0
 70
    24
 71
     3
 72
    19
 73
    15
 74
     0
 42
0.00000001
 43
0.00000001
 40
0.0
 40
0.0
 40
0.0
 40
0.0
 40
0.1087148038529715
 40
0.2037806296519517
 40
0.2851925534361368
 40
0.352946358452362
 40
0.4070385353735124
 40
0.4522766586675022
 40
0.5090411050946619
 40
0.5796203784628303
 40
0.6640107402959223
 40
0.7622077205656375
 40
0.8742061179282257
 40
1.0
 40
1.0
 40
1.0
 40
1.0
 10
142.8693842466212
 20
138.6651433023689
 30
0.0
 10
142.8693842466212
 20
137.2905673448294
 30
0.0
 10
142.8693842466212
 20
134.7139913477771
 30
0.0
 10
142.8693842466212
 20
131.1529266998074
 30
0.0
 10
142.8693842466213
 20
128.1648142288871
 30
0.0
 10
142.8693842466213
 20
125.7380042576586
 30
0.0
 10
142.8693842466213
 20
123.7924856879055
 30
0.0
 10
142.8693842466213
 20
122.0179562917322
 30
0.0
 10
142.8693842466213
 20
120.1095212395017
 30
0.0
 10
142.8693842466213
 20
117.8599919279867
 30
0.0
 10
142.8693842466213
 20
115.3182764191624
 30
0.0
 10
142.8693842466213
 20
112.5984277756868
 30
0.0
 10
142.8693842466213
 20
109.801457048037
 30
0.0
 10
142.8693842466214
 20
108.2149342451028
 30
0.0
 10
142.8693842466214
 20
107.3756518981267
 30
0.0
  0
SPLINE
  5
137
330
1F
100
AcDbEntity
  8
0
  6
Continuous
 62
     7
370
    25
100
AcDbSpline
210
0.0
220
0.0
230
1.0
 70
    24
 71
     3
 72
    19
 73
    15
 74
     0
 42
0.00000001
 43
0.00000001
 40
0.0
 40
0.0
 40
0.0
 40
0.0
 40
0.1087148038529715
 40
0.2037806296519516
 40
0.2851925534361366
 40
0.3529463584523619
 40
0.4070385353735124
 40
0.4522766586675022
 40
0.5090411050946617
 40
0.5796203784628302
 40
0.6640107402959223
 40
0.762207720565637
 40
0.8742061179282256
 40
1.0
 40
1.0
 40
1.0
 40
1.0
 10
163.8693842466214
 20
107.3756518981268
 30
0.0
 10
163.8693842466214
 20
108.0946072184787
 30
0.0
 10
163.8693842466214
 20
109.4422541136622
 30
0.0
 10
163.8693842466213
 20
111.7369328346699
 30
0.0
 10
163.8693842466213
 20
113.8947936775725
 30
0.0
 10
163.8693842466213
 20
115.832799676729
 30
0.0
 10
163.8693842466213
 20
117.510330316281
 30
0.0
 10
163.8693842466213
 20
119.1379711472343
 30
0.0
 10
163.8693842466213
 20
121.0015445877286
 30
0.0
 10
163.8693842466213
 20
123.376869780024
 30
0.0
 10
163.8693842466213
 20
126.3292817121713
 30
0.0
 10
163.8693842466212
 20
129.8893961267339
 30
0.0
 10
163.8693842466212
 20
134.0671354195453
 30
0.0
 10
163.8693842466212
 20
137.0743202111353
 30
0.0
 10
163.8693842466212
 20
138.6651433023691
 30
0.0
  0
LINE
  5
138
330
1F
100
AcDbEntity
  8
0
  6
Continuous
 62
     7
370
    25
100
AcDbLine
 10
163.8693842466
 20
99.8331432988
 30
0.0
 11
163.8693842466
 21
107.4881433024
 31
0.0
  0
LINE
  5
139
330
1F
100
AcDbEntity
  8
0
  6
Continuous
 62
     7
370
    25
100
AcDbLine
 10
142.8693842466
 20
107.4881433024
 30
0.0
 11
142.8693842466
 21
99.8331433002
 31
0.0
  0
ARC
  5
13A
330
1F
100
AcDbEntity
  8
0
  6
Continuous
 62
     7
370
    25
100
AcDbCircle
 10
153.3693842466
 20
229.835495798
 30
0.0
 40
18.00000000000001
100
AcDbArc
 50
290.2033829341
 51
249.7966170659
  0
SPLINE
  5
13B
330
1F
100
AcDbEntity
  8
0
  6
Continuous
 62
     7
370
    25
100
AcDbSpline
210
0.0
220
0.0
230
1.0
 70
     8
 71
     3
 72
    20
 73
    16
 74
     0
 42
0.00000001
 43
0.00000001
 40
0.0
 40
0.0
 40
0.0
 40
0.0
 40
0.125
 40
0.125
 40
0.25
 40
0.25
 40
0.375
 40
0.375
 40
0.5
 40
0.5
 40
0.75
 40
0.75
 40
0.875
 40
0.875
 40
1.0
 40
1.0
 40
1.0
 40
1.0
 10
159.5857492294527
 20
212.9429883938516
 30
0.0
 10
159.4670887876096
 20
212.8993218973469
 30
0.0
 10
159.3452691578509
 20
212.85558723969
 30
0.0
 10
159.0964018328509
 20
212.7511773066835
 30
0.0
 10
158.969692856415
 20
212.6906712053303
 30
0.0
 10
158.7247316349086
 20
212.5476410269668
 30
0.0
 10
158.6068181086433
 20
212.465286123953
 30
0.0
 10
158.3948880690521
 20
212.2797943538373
 30
0.0
 10
158.3012102745316
 20
212.1768266607321
 30
0.0
 10
158.0665737135873
 20
211.8404618770921
 30
0.0
 10
157.9713346084275
 20
211.5756576801151
 30
0.0
 10
157.897085629561
 20
211.1644881499244
 30
0.0
 10
157.883444664861
 20
211.0257877287736
 30
0.0
 10
157.8695813513594
 20
210.7518767861518
 30
0.0
 10
157.8693842466207
 20
210.6168942859334
 30
0.0
 10
157.8693842466207
 20
210.4824820951992
 30
0.0
  0
LINE
  5
13C
330
1F
100
AcDbEntity
  8
0
  6
Continuous
 62
     7
370
    25
100
AcDbLine
 10
157.8693842466
 20
210.4824820952
 30
0.0
 11
157.8693842466
 21
140.635495798
 31
0.0
  0
LINE
  5
13D
330
1F
100
AcDbEntity
  8
0
  6
Continuous
 62
     7
370
    25
100
AcDbLine
 10
148.8693842466
 20
140.635495798
 30
0.0
 11
148.8693842466
 21
210.4824820952
 31
0.0
  0
SPLINE
  5
13E
330
1F
100
AcDbEntity
  8
0
  6
Continuous
 62
     7
370
    25
100
AcDbSpline
210
0.0
220
0.0
230
1.0
 70
     8
 71
     3
 72
    20
 73
    16
 74
     0
 42
0.00000001
 43
0.00000001
 40
0.0
 40
0.0
 40
0.0
 40
0.0
 40
0.1250000000000001
 40
0.1250000000000001
 40
0.2500000000000002
 40
0.2500000000000002
 40
0.5000000000000002
 40
0.5000000000000002
 40
0.6250000000000002
 40
0.6250000000000002
 40
0.7500000000000001
 40
0.7500000000000001
 40
0.8750000000000001
 40
0.8750000000000001
 40
1.0
 40
1.0
 40
1.0
 40
1.0
 10
148.8693842466207
 20
210.4824820951991
 30
0.0
 10
148.8693842466207
 20
210.6168942859334
 30
0.0
 10
148.8691871418819
 20
210.7518767861517
 30
0.0
 10
148.8553238283803
 20
211.0257877287735
 30
0.0
 10
148.8416828636803
 20
211.1644881499243
 30
0.0
 10
148.7674338848138
 20
211.575657680115
 30
0.0
 10
148.672194779654
 20
211.840461877092
 30
0.0
 10
148.4375582187097
 20
212.176826660732
 30
0.0
 10
148.3438804241892
 20
212.2797943538373
 30
0.0
 10
148.131950384598
 20
212.4652861239529
 30
0.0
 10
148.0140368583328
 20
212.5476410269667
 30
0.0
 10
147.7690756368262
 20
212.6906712053303
 30
0.0
 10
147.6423666603904
 20
212.7511773066834
 30
0.0
 10
147.3934993353904
 20
212.85558723969
 30
0.0
 10
147.2716797056316
 20
212.8993218973468
 30
0.0
 10
147.1530192637886
 20
212.9429883938515
 30
0.0
  0
LINE
  5
13F
330
1F
100
AcDbEntity
  8
0
  6
Continuous
 62
     7
370
    25
100
AcDbLine
 10
157.0693842466
 20
139.835495798
 30
0.0
 11
149.6693842466
 21
139.835495798
 31
0.0
  0
ARC
  5
140
330
1F
100
AcDbEntity
  8
0
  6
Continuous
 62
     7
370
    25
100
AcDbCircle
 10
157.0693842466
 20
140.635495798
 30
0.0
 40
0.8000000000000114
100
AcDbArc
 50
270.0
 51
0.0
  0
ARC
  5
141
330
1F
100
AcDbEntity
  8
0
  6
Continuous
 62
     7
370
    25
100
AcDbCircle
 10
149.6693842466
 20
140.635495798
 30
0.0
 40
0.799999999999983
100
AcDbArc
 50
180.0
 51
270.0
  0
LINE
  5
142
330
1F
100
AcDbEntity
  8
0
  6
Continuous
 62
     7
370
    25
100
AcDbLine
 10
162.1904128356
 20
214.1435028234
 30
0.0
 11
162.1862294805
 21
214.1435028234
 31
0.0
  0
SPLINE
  5
143
330
1F
100
AcDbEntity
  8
0
  6
Continuous
 62
     7
370
    25
100
AcDbSpline
210
0.0
220
0.0
230
1.0
 70
     8
 71
     3
 72
    11
 73
     7
 74
     0
 42
0.00000001
 43
0.00000001
 40
0.0
 40
0.0
 40
0.0
 40
0.0
 40
0.0852901718204829
 40
0.3474908324816343
 40
0.6186045071629249
 40
1.0
 40
1.0
 40
1.0
 40
1.0
 10
163.8424022135785
 20
215.1959077680392
 30
0.0
 10
163.8499560010164
 20
215.2013253879054
 30
0.0
 10
163.880731784781
 20
215.2233979573138
 30
0.0
 10
163.6778386313825
 20
215.0786627243117
 30
0.0
 10
163.1949143952397
 20
214.7409355060196
 30
0.0
 10
162.5609618640497
 20
214.3638888427066
 30
0.0
 10
162.1904128356152
 20
214.1435028234209
 30
0.0
  0
LINE
  5
144
330
1F
100
AcDbEntity
  8
0
  6
Continuous
 62
     7
370
    25
100
AcDbLine
 10
144.5520120228
 20
214.1435028234
 30
0.0
 11
144.5478281212
 21
214.1435028234
 31
0.0
  0
LINE
  5
145
330
1F
100
AcDbEntity
  8
0
  6
Continuous
 62
     7
370
    25
100
AcDbLine
 10
142.9275112743
 20
98.8776537128
 30
0.0
 11
142.9030664139
 21
99.8337891446
 31
0.0
  0
SPLINE
  5
146
330
1F
100
AcDbEntity
  8
0
  6
Continuous
 62
     7
370
    25
100
AcDbSpline
210
0.0
220
0.0
230
1.0
 70
     8
 71
     3
 72
    25
 73
    21
 74
     0
 42
0.00000001
 43
0.00000001
 40
0.0
 40
0.0
 40
0.0
 40
0.0
 40
0.0417825458400188
 40
0.0965459465463873
 40
0.1528974895831759
 40
0.2076608902895539
 40
0.2640124333263515
 40
0.3187758340327668
 40
0.3751273770696019
 40
0.4298907777760609
 40
0.4862423208129419
 40
0.5410057215194358
 40
0.5973572645563534
 40
0.6521206652628561
 40
0.708472208299785
 40
0.763235609006267
 40
0.8195871520431751
 40
0.8743505527496158
 40
0.9307020957864813
 40
1.0
 40
1.0
 40
1.0
 40
1.0
 10
163.8399516319967
 20
99.83419599271335
 30
0.0
 10
163.8354736477116
 20
99.44936081595849
 30
0.0
 10
163.825126474682
 20
98.56013121883426
 30
0.0
 10
163.4581174659402
 20
97.17960775936318
 30
0.0
 10
162.812128966222
 20
95.75572522780953
 30
0.0
 10
161.8807408310226
 20
94.43527023318678
 30
0.0
 10
160.7199273019284
 20
93.27923249423587
 30
0.0
 10
159.3382034029206
 20
92.29956761325201
 30
0.0
 10
157.800469491073
 20
91.54162625136858
 30
0.0
 10
156.1223271521212
 20
91.01322322793249
 30
0.0
 10
154.3815450267856
 20
90.7388243835728
 30
0.0
 10
152.5960500232513
 20
90.72125840200368
 30
0.0
 10
150.848509871809
 20
90.96133737031705
 30
0.0
 10
149.1569758543804
 20
91.45659143070107
 30
0.0
 10
147.5996182216277
 20
92.18407182263266
 30
0.0
 10
146.193061760797
 20
93.13634400588388
 30
0.0
 10
145.0002975866724
 20
94.26907870411527
 30
0.0
 10
144.0416105600672
 20
95.57148413108376
 30
0.0
 10
143.2694128165201
 20
97.10337900305014
 30
0.0
 10
143.0490469614687
 20
98.2469525621508
 30
0.0
 10
142.9275112742894
 20
98.87765371280332
 30
0.0
  0
ARC
  5
147
330
1F
100
AcDbEntity
  8
0
  6
Continuous
 62
     7
370
    25
100
AcDbCircle
 10
153.3693842466
 20
229.835495798
 30
0.0
 40
25.00000000000003
100
AcDbArc
 50
294.8345874897
 51
76.2406578816
  0
ARC
  5
148
330
1F
100
AcDbEntity
  8
0
  6
Continuous
 62
     7
370
    25
100
AcDbCircle
 10
153.3693842466
 20
229.835495798
 30
0.0
 40
25.00000000000003
100
AcDbArc
 50
76.2406578816
 51
245.1654125103
  0
LINE
  5
149
330
1F
100
AcDbEntity
  8
0
  6
Continuous
 62
     7
370
    18
100
AcDbLine
 10
159.5857492295
 20
212.9429883939
 30
0.0
 11
159.3094663413
 21
213.6937665007
 31
0.0
  0
ARC
  5
14A
330
1F
100
AcDbEntity
  8
0
  6
Continuous
 62
     7
370
    18
100
AcDbCircle
 10
153.3693842466
 20
229.835495798
 30
0.0
 40
17.19999999999999
100
AcDbArc
 50
290.2033829341
 51
249.7966170659
  0
LINE
  5
14B
330
1F
100
AcDbEntity
  8
0
  6
Continuous
 62
     7
370
    18
100
AcDbLine
 10
147.1530192638
 20
212.9429883939
 30
0.0
 11
147.4293021519
 21
213.6937665007
 31
0.0
  0
SPLINE
  5
14C
330
1F
100
AcDbEntity
  8
0
  6
Continuous
 62
     7
370
    18
100
AcDbSpline
210
0.0
220
0.0
230
1.0
 70
     8
 71
     3
 72
    22
 73
    18
 74
     0
 42
0.00000001
 43
0.00000001
 40
0.0
 40
0.0
 40
0.0
 40
0.0
 40
0.1249999999999999
 40
0.1249999999999999
 40
0.2499999999999999
 40
0.2499999999999999
 40
0.3749999999999998
 40
0.3749999999999998
 40
0.4999999999999999
 40
0.4999999999999999
 40
0.6249999999999999
 40
0.6249999999999999
 40
0.75
 40
0.75
 40
0.875
 40
0.875
 40
1.0
 40
1.0
 40
1.0
 40
1.0
 10
149.6693842466207
 20
210.4824820951991
 30
0.0
 10
149.6693842466207
 20
210.6594294673455
 30
0.0
 10
149.6682555263735
 20
210.8363312736393
 30
0.0
 10
149.6443492440923
 20
211.1892609336815
 30
0.0
 10
149.622283521938
 20
211.3653175240376
 30
0.0
 10
149.5481061951844
 20
211.7162177680163
 30
0.0
 10
149.4962800444766
 20
211.8886965992321
 30
0.0
 10
149.3597562960136
 20
212.217598378193
 30
0.0
 10
149.2734938810718
 20
212.3769919667461
 30
0.0
 10
149.0683518928687
 20
212.6706277111396
 30
0.0
 10
148.9507074847103
 20
212.8039803768024
 30
0.0
 10
148.688408932617
 20
213.0465576858174
 30
0.0
 10
148.543455527834
 20
213.1555503770179
 30
0.0
 10
148.2434857874575
 20
213.34485097872
 30
0.0
 10
148.0868285195951
 20
213.4265907854054
 30
0.0
 10
147.7636281908588
 20
213.5709422713438
 30
0.0
 10
147.5964203987523
 20
213.6322677549713
 30
0.0
 10
147.4293021519145
 20
213.6937665007039
 30
0.0
  0
SPLINE
  5
14D
330
1F
100
AcDbEntity
  8
0
  6
Continuous
 62
     7
370
    18
100
AcDbSpline
210
0.0
220
0.0
230
1.0
 70
     8
 71
     3
 72
    22
 73
    18
 74
     0
 42
0.00000001
 43
0.00000001
 40
0.0
 40
0.0
 40
0.0
 40
0.0
 40
0.1250000000000001
 40
0.1250000000000001
 40
0.2500000000000001
 40
0.2500000000000001
 40
0.3750000000000002
 40
0.3750000000000002
 40
0.5000000000000002
 40
0.5000000000000002
 40
0.6250000000000002
 40
0.6250000000000002
 40
0.7500000000000002
 40
0.7500000000000002
 40
0.8750000000000001
 40
0.8750000000000001
 40
1.0
 40
1.0
 40
1.0
 40
1.0
 10
159.3094663413268
 20
213.693766500704
 30
0.0
 10
159.1434898771682
 20
213.6326879257427
 30
0.0
 10
158.9774169333084
 20
213.5718422545237
 30
0.0
 10
158.6545079645557
 20
213.4278528227937
 30
0.0
 10
158.4971351097237
 20
213.346004979456
 30
0.0
 10
158.1938503543822
 20
213.1546423419532
 30
0.0
 10
158.0500074256081
 20
213.0462258567077
 30
0.0
 10
157.78851236522
 20
212.8044039651396
 30
0.0
 10
157.6686504234291
 20
212.6684602045442
 30
0.0
 10
157.4638428766468
 20
212.3745763821159
 30
0.0
 10
157.3792481664623
 20
212.2181612025167
 30
0.0
 10
157.2422769904677
 20
211.8881928236305
 30
0.0
 10
157.1902830378195
 20
211.7144026190825
 30
0.0
 10
157.1168972251382
 20
211.3672887416854
 30
0.0
 10
157.0946943217631
 20
211.1919175673744
 30
0.0
 10
157.0705752318002
 20
210.8386351996688
 30
0.0
 10
157.0693842466206
 20
210.6606332066916
 30
0.0
 10
157.0693842466206
 20
210.4824820951992
 30
0.0
  0
LINE
  5
14E
330
1F
100
AcDbEntity
  8
0
  6
Continuous
 62
     7
370
    18
100
AcDbLine
 10
157.0693842466
 20
140.635495798
 30
0.0
 11
157.0693842466
 21
210.4824820952
 31
0.0
  0
LINE
  5
14F
330
1F
100
AcDbEntity
  8
0
  6
Continuous
 62
     7
370
    18
100
AcDbLine
 10
149.6693842466
 20
140.635495798
 30
0.0
 11
157.0693842466
 21
140.635495798
 31
0.0
  0
LINE
  5
150
330
1F
100
AcDbEntity
  8
0
  6
Continuous
 62
     7
370
    18
100
AcDbLine
 10
149.6693842466
 20
210.4824820952
 30
0.0
 11
149.6693842466
 21
140.635495798
 31
0.0
  0
LINE
  5
151
330
1F
100
AcDbEntity
  8
0
  6
Continuous
 62
     7
370
    18
100
AcDbLine
 10
157.8693842466
 20
210.4824820952
 30
0.0
 11
157.0693842466
 21
210.4824820952
 31
0.0
  0
LINE
  5
152
330
1F
100
AcDbEntity
  8
0
  6
Continuous
 62
     7
370
    18
100
AcDbLine
 10
157.0693842466
 20
140.635495798
 30
0.0
 11
157.8693842466
 21
140.635495798
 31
0.0
  0
LINE
  5
153
330
1F
100
AcDbEntity
  8
0
  6
Continuous
 62
     7
370
    18
100
AcDbLine
 10
148.8693842466
 20
210.4824820952
 30
0.0
 11
149.6693842466
 21
210.4824820952
 31
0.0
  0
LINE
  5
154
330
1F
100
AcDbEntity
  8
0
  6
Continuous
 62
     7
370
    18
100
AcDbLine
 10
148.8693842466
 20
140.635495798
 30
0.0
 11
149.6693842466
 21
140.635495798
 31
0.0
  0
LINE
  5
155
330
1F
100
AcDbEntity
  8
0
  6
Continuous
 62
     7
370
    18
100
AcDbLine
 10
149.6693842466
 20
139.835495798
 30
0.0
 11
149.6693842466
 21
140.635495798
 31
0.0
  0
LINE
  5
156
330
1F
100
AcDbEntity
  8
0
  6
Continuous
 62
     7
370
    18
100
AcDbLine
 10
157.0693842466
 20
139.835495798
 30
0.0
 11
157.0693842466
 21
140.635495798
 31
0.0
  0
SPLINE
  5
157
330
1F
100
AcDbEntity
  8
0
  6
Continuous
 62
     7
370
    18
100
AcDbSpline
210
0.0
220
0.0
230
1.0
 70
     8
 71
     3
 72
    22
 73
    18
 74
     0
 42
0.00000001
 43
0.00000001
 40
0.0
 40
0.0
 40
0.0
 40
0.0
 40
0.125
 40
0.125
 40
0.2499999999999999
 40
0.2499999999999999
 40
0.3749999999999999
 40
0.3749999999999999
 40
0.5
 40
0.5
 40
0.6250000000000001
 40
0.6250000000000001
 40
0.75
 40
0.75
 40
0.875
 40
0.875
 40
1.0
 40
1.0
 40
1.0
 40
1.0
 10
163.8693842466212
 20
138.6651433023691
 30
0.0
 10
163.8693842466212
 20
138.6651426025467
 30
0.0
 10
163.59609735164
 20
138.665141988898
 30
0.0
 10
162.5441413243456
 20
138.6651409523714
 30
0.0
 10
161.7658860918083
 20
138.6651405282956
 30
0.0
 10
159.8221248063652
 20
138.6651398590391
 30
0.0
 10
158.6573835405226
 20
138.6651396133331
 30
0.0
 10
156.117737032398
 20
138.6651392875859
 30
0.0
 10
154.7438310325689
 20
138.6651392073696
 30
0.0
 10
151.9949374606734
 20
138.6651392073695
 30
0.0
 10
150.6210314608444
 20
138.6651392875859
 30
0.0
 10
148.0813849527197
 20
138.665139613333
 30
0.0
 10
146.9166436868772
 20
138.665139859039
 30
0.0
 10
144.972882401434
 20
138.6651405282954
 30
0.0
 10
144.1946271688968
 20
138.6651409523712
 30
0.0
 10
143.1426711416023
 20
138.6651419888979
 30
0.0
 10
142.8693842466212
 20
138.6651426025465
 30
0.0
 10
142.8693842466212
 20
138.6651433023689
 30
0.0
  0
SPLINE
  5
158
330
1F
100
AcDbEntity
  8
0
  6
Continuous
 62
     7
370
    18
100
AcDbSpline
210
0.0
220
0.0
230
1.0
 70
     8
 71
     3
 72
    22
 73
    18
 74
     0
 42
0.00000001
 43
0.00000001
 40
0.0
 40
0.0
 40
0.0
 40
0.0
 40
0.125
 40
0.125
 40
0.2500000000000001
 40
0.2500000000000001
 40
0.375
 40
0.375
 40
0.5
 40
0.5
 40
0.6249999999999999
 40
0.6249999999999999
 40
0.7499999999999999
 40
0.7499999999999999
 40
0.875
 40
0.875
 40
1.0
 40
1.0
 40
1.0
 40
1.0
 10
163.8693842466214
 20
107.4881433023691
 30
0.0
 10
163.8693842466214
 20
106.2978417491821
 30
0.0
 10
163.5960973516392
 20
105.108008528828
 30
0.0
 10
162.544141324343
 20
102.9086180438156
 30
0.0
 10
161.765886091805
 20
101.8999261453946
 30
0.0
 10
159.8221248063616
 20
100.2165855455617
 30
0.0
 10
158.6573835405194
 20
99.54259916679372
 30
0.0
 10
156.1177370323962
 20
98.63158179894558
 30
0.0
 10
154.7438310325682
 20
98.39490925629732
 30
0.0
 10
151.9949374606747
 20
98.39490925629735
 30
0.0
 10
150.6210314608467
 20
98.63158179894555
 30
0.0
 10
148.0813849527235
 20
99.54259916679365
 30
0.0
 10
146.9166436868813
 20
100.2165855455616
 30
0.0
 10
144.9728824014378
 20
101.8999261453944
 30
0.0
 10
144.1946271688998
 20
102.9086180438154
 30
0.0
 10
143.1426711416036
 20
105.1080085288279
 30
0.0
 10
142.8693842466214
 20
106.2978417491819
 30
0.0
 10
142.8693842466214
 20
107.4881433023689
 30
0.0
  0
ARC
  5
159
330
1F
100
AcDbEntity
  8
0
  6
Continuous
 62
     7
370
    18
100
AcDbCircle
 10
153.3693842466
 20
229.835495798
 30
0.0
 40
24.20000000000002
100
AcDbArc
 50
76.2406578816
 51
244.2856787749
  0
ARC
  5
15A
330
1F
100
AcDbEntity
  8
0
  6
Continuous
 62
     7
370
    18
100
AcDbCircle
 10
153.3693842466
 20
229.835495798
 30
0.0
 40
24.20000000000002
100
AcDbArc
 50
295.7143212251
 51
76.2406578816
  0
ENDSEC
  0
SECTION
  2
OBJECTS
  0
DICTIONARY
  5
C
330
0
100
AcDbDictionary
281
     1
  3
ACAD_GROUP
350
D
  3
ACAD_LAYOUT
350
1A
  3
ACAD_MLINESTYLE
350
17
  3
ACAD_PLOTSETTINGS
350
19
  3
ACAD_PLOTSTYLENAME
350
E
  3
ACAD_SCALELIST
350
47
  3
DWGPROPS
350
15B
  0
DICTIONARY
  5
D
102
{ACAD_REACTORS
330
C
102
}
330
C
100
AcDbDictionary
281
     1
  0
DICTIONARY
  5
1A
102
{ACAD_REACTORS
330
C
102
}
330
C
100
AcDbDictionary
281
     1
  3
Layout1
350
1E
  3
Layout2
350
26
  3
Model
350
22
  0
DICTIONARY
  5
17
102
{ACAD_REACTORS
330
C
102
}
330
C
100
AcDbDictionary
281
     1
  3
Standard
350
18
  0
DICTIONARY
  5
19
102
{ACAD_REACTORS
330
C
102
}
330
C
100
AcDbDictionary
281
     1
  0
ACDBDICTIONARYWDFLT
  5
E
102
{ACAD_REACTORS
330
C
102
}
330
C
100
AcDbDictionary
281
     1
  3
Normal
350
F
100
AcDbDictionaryWithDefault
340
F
  0
DICTIONARY
  5
47
102
{ACAD_REACTORS
330
C
102
}
330
C
100
AcDbDictionary
281
     1
  3
A0
350
48
  3
A1
350
49
  3
A2
350
4A
  3
A3
350
4B
  3
A4
350
4C
  3
A5
350
4D
  3
A6
350
4E
  3
A7
350
4F
  3
A8
350
50
  3
A9
350
51
  3
B0
350
52
  3
B1
350
53
  3
B2
350
54
  3
B3
350
55
  3
B4
350
56
  3
B5
350
57
  3
B6
350
58
  3
B7
350
59
  3
B8
350
5A
  3
B9
350
5B
  3
C0
350
5C
  3
C1
350
5D
  3
C2
350
5E
  3
C3
350
5F
  3
C4
350
60
  3
C5
350
61
  3
C6
350
62
  3
C7
350
63
  3
C8
350
64
  3
C9
350
65
  3
D0
350
66
  3
D1
350
67
  3
D2
350
68
  0
XRECORD
  5
15B
102
{ACAD_REACTORS
330
C
102
}
330
C
100
AcDbXrecord
280
     1
  1
DWGPROPS COOKIE
  2

  3

  4

  6

  7

  8
mwolf
  9

300
=
301
=
302
=
303
=
304
=
305
=
306
=
307
=
308
=
309
=
 40
0.0
 41
2459692.374841204
 42
2459692.374842106
  1

 90
        0
  0
LAYOUT
  5
1E
102
{ACAD_REACTORS
330
1A
102
}
330
1A
100
AcDbPlotSettings
  1

  2
none_device
  4

  6

 40
0.0
 41
0.0
 42
0.0
 43
0.0
 44
0.0
 45
0.0
 46
0.0
 47
0.0
 48
0.0
 49
0.0
140
0.0
141
0.0
142
1.0
143
1.0
 70
   688
 72
     1
 73
     0
 74
     5
  7

 75
    16
147
1.0
148
0.0
149
0.0
100
AcDbLayout
  1
Layout1
 70
     1
 71
     1
 10
0.0
 20
0.0
 11
420.0
 21
297.0
 12
0.0
 22
0.0
 32
0.0
 14
1.0000000000E+20
 24
1.0000000000E+20
 34
1.0000000000E+20
 15
-1.0000000000E+20
 25
-1.0000000000E+20
 35
-1.0000000000E+20
146
0.0
 13
0.0
 23
0.0
 33
0.0
 16
1.0
 26
0.0
 36
0.0
 17
0.0
 27
1.0
 37
0.0
 76
     0
330
1B
  0
LAYOUT
  5
26
102
{ACAD_REACTORS
330
1A
102
}
330
1A
100
AcDbPlotSettings
  1

  2
none_device
  4

  6

 40
0.0
 41
0.0
 42
0.0
 43
0.0
 44
0.0
 45
0.0
 46
0.0
 47
0.0
 48
0.0
 49
0.0
140
0.0
141
0.0
142
1.0
143
1.0
 70
   688
 72
     1
 73
     0
 74
     5
  7

 75
    16
147
1.0
148
0.0
149
0.0
100
AcDbLayout
  1
Layout2
 70
     1
 71
     2
 10
0.0
 20
0.0
 11
0.0
 21
0.0
 12
0.0
 22
0.0
 32
0.0
 14
0.0
 24
0.0
 34
0.0
 15
0.0
 25
0.0
 35
0.0
146
0.0
 13
0.0
 23
0.0
 33
0.0
 16
1.0
 26
0.0
 36
0.0
 17
0.0
 27
1.0
 37
0.0
 76
     0
330
23
  0
LAYOUT
  5
22
102
{ACAD_REACTORS
330
1A
102
}
330
1A
100
AcDbPlotSettings
  1

  2
none_device
  4
Letter_(8.50_x_11.00_Inches)
  6

 40
6.35
 41
6.35
 42
6.35000508
 43
6.35000508
 44
215.9
 45
279.4
 46
0.0
 47
0.0
 48
0.0
 49
0.0
140
0.0
141
0.0
142
1.0
143
1.0
 70
  1712
 72
     1
 73
     0
 74
     0
  7

 75
     0
147
1.0
148
0.0
149
0.0
100
AcDbLayout
  1
Model
 70
     1
 71
     0
 10
0.0
 20
0.0
 11
594.0
 21
841.0
 12
0.0
 22
0.0
 32
0.0
 14
0.0
 24
0.0
 34
0.0
 15
594.0
 25
841.0
 35
0.0
146
0.0
 13
0.0
 23
0.0
 33
0.0
 16
1.0
 26
0.0
 36
0.0
 17
0.0
 27
1.0
 37
0.0
 76
     0
330
1F
331
29
  0
MLINESTYLE
  5
18
102
{ACAD_REACTORS
330
17
102
}
330
17
100
AcDbMlineStyle
  2
Standard
 70
     0
  3

 62
   256
 51
90.0
 52
90.0
 71
     2
 49
0.5
 62
   256
  6
BYLAYER
 49
-0.5
 62
   256
  6
BYLAYER
  0
ACDBPLACEHOLDER
  5
F
102
{ACAD_REACTORS
330
E
102
}
330
E
  0
SCALE
  5
48
102
{ACAD_REACTORS
330
47
102
}
330
47
100
AcDbScale
 70
     0
300
1:1
140
1.0
141
1.0
290
     1
  0
SCALE
  5
49
102
{ACAD_REACTORS
330
47
102
}
330
47
100
AcDbScale
 70
     0
300
1:2
140
1.0
141
2.0
290
     0
  0
SCALE
  5
4A
102
{ACAD_REACTORS
330
47
102
}
330
47
100
AcDbScale
 70
     0
300
1:4
140
1.0
141
4.0
290
     0
  0
SCALE
  5
4B
102
{ACAD_REACTORS
330
47
102
}
330
47
100
AcDbScale
 70
     0
300
1:5
140
1.0
141
5.0
290
     0
  0
SCALE
  5
4C
102
{ACAD_REACTORS
330
47
102
}
330
47
100
AcDbScale
 70
     0
300
1:8
140
1.0
141
8.0
290
     0
  0
SCALE
  5
4D
102
{ACAD_REACTORS
330
47
102
}
330
47
100
AcDbScale
 70
     0
300
1:10
140
1.0
141
10.0
290
     0
  0
SCALE
  5
4E
102
{ACAD_REACTORS
330
47
102
}
330
47
100
AcDbScale
 70
     0
300
1:16
140
1.0
141
16.0
290
     0
  0
SCALE
  5
4F
102
{ACAD_REACTORS
330
47
102
}
330
47
100
AcDbScale
 70
     0
300
1:20
140
1.0
141
20.0
290
     0
  0
SCALE
  5
50
102
{ACAD_REACTORS
330
47
102
}
330
47
100
AcDbScale
 70
     0
300
1:30
140
1.0
141
30.0
290
     0
  0
SCALE
  5
51
102
{ACAD_REACTORS
330
47
102
}
330
47
100
AcDbScale
 70
     0
300
1:40
140
1.0
141
40.0
290
     0
  0
SCALE
  5
52
102
{ACAD_REACTORS
330
47
102
}
330
47
100
AcDbScale
 70
     0
300
1:50
140
1.0
141
50.0
290
     0
  0
SCALE
  5
53
102
{ACAD_REACTORS
330
47
102
}
330
47
100
AcDbScale
 70
     0
300
1:100
140
1.0
141
100.0
290
     0
  0
SCALE
  5
54
102
{ACAD_REACTORS
330
47
102
}
330
47
100
AcDbScale
 70
     0
300
2:1
140
2.0
141
1.0
290
     0
  0
SCALE
  5
55
102
{ACAD_REACTORS
330
47
102
}
330
47
100
AcDbScale
 70
     0
300
4:1
140
4.0
141
1.0
290
     0
  0
SCALE
  5
56
102
{ACAD_REACTORS
330
47
102
}
330
47
100
AcDbScale
 70
     0
300
8:1
140
8.0
141
1.0
290
     0
  0
SCALE
  5
57
102
{ACAD_REACTORS
330
47
102
}
330
47
100
AcDbScale
 70
     0
300
10:1
140
10.0
141
1.0
290
     0
  0
SCALE
  5
58
102
{ACAD_REACTORS
330
47
102
}
330
47
100
AcDbScale
 70
     0
300
100:1
140
100.0
141
1.0
290
     0
  0
SCALE
  5
59
102
{ACAD_REACTORS
330
47
102
}
330
47
100
AcDbScale
 70
     0
300
1/128" = 1'-0"
140
0.0078125
141
12.0
290
     0
  0
SCALE
  5
5A
102
{ACAD_REACTORS
330
47
102
}
330
47
100
AcDbScale
 70
     0
300
1/64" = 1'-0"
140
0.015625
141
12.0
290
     0
  0
SCALE
  5
5B
102
{ACAD_REACTORS
330
47
102
}
330
47
100
AcDbScale
 70
     0
300
1/32" = 1'-0"
140
0.03125
141
12.0
290
     0
  0
SCALE
  5
5C
102
{ACAD_REACTORS
330
47
102
}
330
47
100
AcDbScale
 70
     0
300
1/16" = 1'-0"
140
0.0625
141
12.0
290
     0
  0
SCALE
  5
5D
102
{ACAD_REACTORS
330
47
102
}
330
47
100
AcDbScale
 70
     0
300
3/32" = 1'-0"
140
0.09375
141
12.0
290
     0
  0
SCALE
  5
5E
102
{ACAD_REACTORS
330
47
102
}
330
47
100
AcDbScale
 70
     0
300
1/8" = 1'-0"
140
0.125
141
12.0
290
     0
  0
SCALE
  5
5F
102
{ACAD_REACTORS
330
47
102
}
330
47
100
AcDbScale
 70
     0
300
3/16" = 1'-0"
140
0.1875
141
12.0
290
     0
  0
SCALE
  5
60
102
{ACAD_REACTORS
330
47
102
}
330
47
100
AcDbScale
 70
     0
300
1/4" = 1'-0"
140
0.25
141
12.0
290
     0
  0
SCALE
  5
61
102
{ACAD_REACTORS
330
47
102
}
330
47
100
AcDbScale
 70
     0
300
3/8" = 1'-0"
140
0.375
141
12.0
290
     0
  0
SCALE
  5
62
102
{ACAD_REACTORS
330
47
102
}
330
47
100
AcDbScale
 70
     0
300
1/2" = 1'-0"
140
0.5
141
12.0
290
     0
  0
SCALE
  5
63
102
{ACAD_REACTORS
330
47
102
}
330
47
100
AcDbScale
 70
     0
300
3/4" = 1'-0"
140
0.75
141
12.0
290
     0
  0
SCALE
  5
64
102
{ACAD_REACTORS
330
47
102
}
330
47
100
AcDbScale
 70
     0
300
1" = 1'-0"
140
1.0
141
12.0
290
     0
  0
SCALE
  5
65
102
{ACAD_REACTORS
330
47
102
}
330
47
100
AcDbScale
 70
     0
300
1-1/2" = 1'-0"
140
1.5
141
12.0
290
     0
  0
SCALE
  5
66
102
{ACAD_REACTORS
330
47
102
}
330
47
100
AcDbScale
 70
     0
300
3" = 1'-0"
140
3.0
141
12.0
290
     0
  0
SCALE
  5
67
102
{ACAD_REACTORS
330
47
102
}
330
47
100
AcDbScale
 70
     0
300
6" = 1'-0"
140
6.0
141
12.0
290
     0
  0
SCALE
  5
68
102
{ACAD_REACTORS
330
47
102
}
330
47
100
AcDbScale
 70
     0
300
1'-0" = 1'-0"
140
12.0
141
12.0
290
     0
  0
ENDSEC
  0
EOF
