  0
SECTION
  2
HEADER
  9
$ACADVER
  1
AC1015
  9
$ACADMAINTVER
 70
     6
  9
$DWGCODEPAGE
  3
ANSI_1252
  9
$INSBASE
 10
0.0
 20
0.0
 30
0.0
  9
$EXTMIN
 10
0.0
 20
0.0
 30
0.0
  9
$EXTMAX
 10
594.0
 20
841.0
 30
0.0
  9
$LIMMIN
 10
0.0
 20
0.0
  9
$LIMMAX
 10
594.0
 20
841.0
  9
$ORTHOMODE
 70
     0
  9
$REGENMODE
 70
     1
  9
$FILLMODE
 70
     1
  9
$QTEXTMODE
 70
     0
  9
$MIRRTEXT
 70
     1
  9
$LTSCALE
 40
1.0
  9
$ATTMODE
 70
     1
  9
$TEXTSIZE
 40
10.0
  9
$TRACEWID
 40
1.0
  9
$TEXTSTYLE
  7
Standard
  9
$CLAYER
  8
0
  9
$CELTYPE
  6
ByLayer
  9
$CECOLOR
 62
   256
  9
$CELTSCALE
 40
1.0
  9
$DISPSILH
 70
     0
  9
$DIMSCALE
 40
1.0
  9
$DIMASZ
 40
2.5
  9
$DIMEXO
 40
0.0
  9
$DIMDLI
 40
3.75
  9
$DIMRND
 40
0.0
  9
$DIMDLE
 40
0.0
  9
$DIMEXE
 40
1.0
  9
$DIMTP
 40
0.0
  9
$DIMTM
 40
0.0
  9
$DIMTXT
 40
3.5
  9
$DIMCEN
 40
2.5
  9
$DIMTSZ
 40
0.0
  9
$DIMTOL
 70
     0
  9
$DIMLIM
 70
     0
  9
$DIMTIH
 70
     1
  9
$DIMTOH
 70
     1
  9
$DIMSE1
 70
     0
  9
$DIMSE2
 70
     0
  9
$DIMTAD
 70
     1
  9
$DIMZIN
 70
     0
  9
$DIMBLK
  1

  9
$DIMASO
 70
     1
  9
$DIMSHO
 70
     1
  9
$DIMPOST
  1

  9
$DIMAPOST
  1

  9
$DIMALT
 70
     0
  9
$DIMALTD
 70
     3
  9
$DIMALTF
 40
0.0393700787
  9
$DIMLFAC
 40
1.0
  9
$DIMTOFL
 70
     1
  9
$DIMTVP
 40
0.0
  9
$DIMTIX
 70
     0
  9
$DIMSOXD
 70
     0
  9
$DIMSAH
 70
     0
  9
$DIMBLK1
  1

  9
$DIMBLK2
  1

  9
$DIMSTYLE
  2
ISO-25
  9
$DIMCLRD
 70
     0
  9
$DIMCLRE
 70
     0
  9
$DIMCLRT
 70
     0
  9
$DIMTFAC
 40
1.0
  9
$DIMGAP
 40
1.5
  9
$DIMJUST
 70
     0
  9
$DIMSD1
 70
     0
  9
$DIMSD2
 70
     0
  9
$DIMTOLJ
 70
     0
  9
$DIMTZIN
 70
     0
  9
$DIMALTZ
 70
     0
  9
$DIMALTTZ
 70
     0
  9
$DIMUPT
 70
     0
  9
$DIMDEC
 70
     2
  9
$DIMTDEC
 70
     2
  9
$DIMALTU
 70
     2
  9
$DIMALTTD
 70
     3
  9
$DIMTXSTY
  7
Standard
  9
$DIMAUNIT
 70
     0
  9
$DIMADEC
 70
     2
  9
$DIMALTRND
 40
0.0
  9
$DIMAZIN
 70
     0
  9
$DIMDSEP
 70
    44
  9
$DIMATFIT
 70
     3
  9
$DIMFRAC
 70
     0
  9
$DIMLDRBLK
  1

  9
$DIMLUNIT
 70
     2
  9
$DIMLWD
 70
    -2
  9
$DIMLWE
 70
    -2
  9
$DIMTMOVE
 70
     0
  9
$LUNITS
 70
     2
  9
$LUPREC
 70
     2
  9
$SKETCHINC
 40
1.0
  9
$FILLETRAD
 40
0.0
  9
$AUNITS
 70
     0
  9
$AUPREC
 70
     2
  9
$MENU
  1
.
  9
$ELEVATION
 40
0.0
  9
$PELEVATION
 40
0.0
  9
$THICKNESS
 40
0.0
  9
$LIMCHECK
 70
     0
  9
$CHAMFERA
 40
0.0
  9
$CHAMFERB
 40
0.0
  9
$CHAMFERC
 40
0.0
  9
$CHAMFERD
 40
0.0
  9
$SKPOLY
 70
     0
  9
$TDCREATE
 40
2460346.47260125
  9
$TDUCREATE
 40
2460346.430934583
  9
$TDUPDATE
 40
2460346.472602512
  9
$TDUUPDATE
 40
2460346.430935845
  9
$TDINDWG
 40
0.0000000116
  9
$TDUSRTIMER
 40
0.0000000116
  9
$USRTIMER
 70
     1
  9
$ANGBASE
 50
0.0
  9
$ANGDIR
 70
     0
  9
$PDMODE
 70
     0
  9
$PDSIZE
 40
-1.0
  9
$PLINEWID
 40
0.0
  9
$SPLFRAME
 70
     0
  9
$SPLINETYPE
 70
     6
  9
$SPLINESEGS
 70
     8
  9
$HANDSEED
  5
1F9
  9
$SURFTAB1
 70
     6
  9
$SURFTAB2
 70
     6
  9
$SURFTYPE
 70
     6
  9
$SURFU
 70
     6
  9
$SURFV
 70
     6
  9
$UCSBASE
  2

  9
$UCSNAME
  2

  9
$UCSORG
 10
0.0
 20
0.0
 30
0.0
  9
$UCSXDIR
 10
1.0
 20
0.0
 30
0.0
  9
$UCSYDIR
 10
0.0
 20
1.0
 30
0.0
  9
$UCSORTHOREF
  2

  9
$UCSORTHOVIEW
 70
     0
  9
$UCSORGTOP
 10
0.0
 20
0.0
 30
0.0
  9
$UCSORGBOTTOM
 10
0.0
 20
0.0
 30
0.0
  9
$UCSORGLEFT
 10
0.0
 20
0.0
 30
0.0
  9
$UCSORGRIGHT
 10
0.0
 20
0.0
 30
0.0
  9
$UCSORGFRONT
 10
0.0
 20
0.0
 30
0.0
  9
$UCSORGBACK
 10
0.0
 20
0.0
 30
0.0
  9
$PUCSBASE
  2

  9
$PUCSNAME
  2

  9
$PUCSORG
 10
0.0
 20
0.0
 30
0.0
  9
$PUCSXDIR
 10
1.0
 20
0.0
 30
0.0
  9
$PUCSYDIR
 10
0.0
 20
1.0
 30
0.0
  9
$PUCSORTHOREF
  2

  9
$PUCSORTHOVIEW
 70
     0
  9
$PUCSORGTOP
 10
0.0
 20
0.0
 30
0.0
  9
$PUCSORGBOTTOM
 10
0.0
 20
0.0
 30
0.0
  9
$PUCSORGLEFT
 10
0.0
 20
0.0
 30
0.0
  9
$PUCSORGRIGHT
 10
0.0
 20
0.0
 30
0.0
  9
$PUCSORGFRONT
 10
0.0
 20
0.0
 30
0.0
  9
$PUCSORGBACK
 10
0.0
 20
0.0
 30
0.0
  9
$USERI1
 70
     0
  9
$USERI2
 70
     0
  9
$USERI3
 70
     0
  9
$USERI4
 70
     0
  9
$USERI5
 70
     0
  9
$USERR1
 40
0.0
  9
$USERR2
 40
0.0
  9
$USERR3
 40
0.0
  9
$USERR4
 40
0.0
  9
$USERR5
 40
0.0
  9
$WORLDVIEW
 70
     1
  9
$SHADEDGE
 70
     3
  9
$SHADEDIF
 70
    70
  9
$TILEMODE
 70
     1
  9
$MAXACTVP
 70
    64
  9
$PINSBASE
 10
0.0
 20
0.0
 30
0.0
  9
$PLIMCHECK
 70
     0
  9
$PEXTMIN
 10
1.0000000000E+20
 20
1.0000000000E+20
 30
1.0000000000E+20
  9
$PEXTMAX
 10
-1.0000000000E+20
 20
-1.0000000000E+20
 30
-1.0000000000E+20
  9
$PLIMMIN
 10
0.0
 20
0.0
  9
$PLIMMAX
 10
420.0
 20
297.0
  9
$UNITMODE
 70
     0
  9
$VISRETAIN
 70
     1
  9
$PLINEGEN
 70
     0
  9
$PSLTSCALE
 70
     1
  9
$TREEDEPTH
 70
  3020
  9
$CMLSTYLE
  2
Standard
  9
$CMLJUST
 70
     0
  9
$CMLSCALE
 40
20.0
  9
$PROXYGRAPHICS
 70
     1
  9
$MEASUREMENT
 70
     1
  9
$CELWEIGHT
370
    -1
  9
$ENDCAPS
280
     0
  9
$JOINSTYLE
280
     0
  9
$LWDISPLAY
290
     1
  9
$INSUNITS
 70
     4
  9
$HYPERLINKBASE
  1

  9
$STYLESHEET
  1

  9
$XEDIT
290
     1
  9
$CEPSNTYPE
380
     0
  9
$PSTYLEMODE
290
     1
  9
$FINGERPRINTGUID
  2
{278d1f7f-6e36-4d55-ba35-afdbacbd70ca}
  9
$VERSIONGUID
  2
{FAEB1C32-E019-11D5-929B-00C0DF256EC4}
  9
$EXTNAMES
290
     1
  9
$PSVPSCALE
 40
0.0
  9
$OLESTARTUP
290
     0
  0
ENDSEC
  0
SECTION
  2
CLASSES
  0
CLASS
  1
ACDBDICTIONARYWDFLT
  2
AcDbDictionaryWithDefault
  3
ObjectDBX Classes
 90
        0
280
     0
281
     0
  0
CLASS
  1
VISUALSTYLE
  2
AcDbVisualStyle
  3
ObjectDBX Classes
 90
     4095
280
     0
281
     0
  0
CLASS
  1
MATERIAL
  2
AcDbMaterial
  3
ObjectDBX Classes
 90
     1153
280
     0
281
     0
  0
CLASS
  1
SCALE
  2
AcDbScale
  3
ObjectDBX Classes
 90
     1153
280
     0
281
     0
  0
CLASS
  1
TABLESTYLE
  2
AcDbTableStyle
  3
ObjectDBX Classes
 90
     4095
280
     0
281
     0
  0
CLASS
  1
MLEADERSTYLE
  2
AcDbMLeaderStyle
  3
ACDB_MLEADERSTYLE_CLASS
 90
     4095
280
     0
281
     0
  0
CLASS
  1
SUN
  2
AcDbSun
  3
SCENEOE
 90
     1153
280
     0
281
     0
  0
CLASS
  1
ACDBPLACEHOLDER
  2
AcDbPlaceHolder
  3
ObjectDBX Classes
 90
        0
280
     0
281
     0
  0
CLASS
  1
LAYOUT
  2
AcDbLayout
  3
ObjectDBX Classes
 90
        0
280
     0
281
     0
  0
ENDSEC
  0
SECTION
  2
TABLES
  0
TABLE
  2
VPORT
  5
8
330
0
100
AcDbSymbolTable
 70
     1
  0
VPORT
  5
29
330
8
100
AcDbSymbolTableRecord
100
AcDbViewportTableRecord
  2
*Active
 70
     0
 10
0.0
 20
0.0
 11
1.0
 21
1.0
 12
297.0
 22
420.5
 13
0.0
 23
0.0
 14
10.0
 24
10.0
 15
10.0
 25
10.0
 16
0.0
 26
0.0
 36
1.0
 17
0.0
 27
0.0
 37
0.0
 40
841.0
 41
0.7063020214
 42
50.0
 43
0.0
 44
0.0
 50
0.0
 51
0.0
 71
     0
 72
  2000
 73
     1
 74
     3
 75
     0
 76
     0
 77
     0
 78
     0
281
     0
 65
     1
110
0.0
120
0.0
130
0.0
111
1.0
121
0.0
131
0.0
112
0.0
122
1.0
132
0.0
 79
     0
146
0.0
  0
ENDTAB
  0
TABLE
  2
LTYPE
  5
5
330
0
100
AcDbSymbolTable
 70
     6
  0
LTYPE
  5
14
330
5
100
AcDbSymbolTableRecord
100
AcDbLinetypeTableRecord
  2
ByBlock
 70
     0
  3

 72
    65
 73
     0
 40
0.0
  0
LTYPE
  5
15
330
5
100
AcDbSymbolTableRecord
100
AcDbLinetypeTableRecord
  2
ByLayer
 70
     0
  3

 72
    65
 73
     0
 40
0.0
  0
LTYPE
  5
16
330
5
100
AcDbSymbolTableRecord
100
AcDbLinetypeTableRecord
  2
Continuous
 70
     0
  3
Solid line
 72
    65
 73
     0
 40
0.0
  0
LTYPE
  5
5E
330
5
100
AcDbSymbolTableRecord
100
AcDbLinetypeTableRecord
  2
HIDDEN
 70
     0
  3
Hidden __ __ __ __ __ __ __ __ __ __ __ __ __ __
 72
    65
 73
     2
 40
1.905
 49
1.27
 74
     0
 49
-0.635
 74
     0
  0
LTYPE
  5
5F
330
5
100
AcDbSymbolTableRecord
100
AcDbLinetypeTableRecord
  2
PHANTOM
 70
     0
  3
Phantom ______  __  __  ______  __  __  ______
 72
    65
 73
     6
 40
12.7
 49
6.35
 74
     0
 49
-1.27
 74
     0
 49
1.27
 74
     0
 49
-1.27
 74
     0
 49
1.27
 74
     0
 49
-1.27
 74
     0
  0
LTYPE
  5
60
330
5
100
AcDbSymbolTableRecord
100
AcDbLinetypeTableRecord
  2
CENTER
 70
     0
  3
Center ____ _ ____ _ ____ _ ____ _ ____ _ ____
 72
    65
 73
     4
 40
10.16
 49
6.35
 74
     0
 49
-1.27
 74
     0
 49
1.27
 74
     0
 49
-1.27
 74
     0
  0
LTYPE
  5
61
330
5
100
AcDbSymbolTableRecord
100
AcDbLinetypeTableRecord
  2
CENTERX2
 70
     0
  3
Center (2x) ________  __  ________  __  _____
 72
    65
 73
     4
 40
20.32
 49
12.7
 74
     0
 49
-2.54
 74
     0
 49
2.54
 74
     0
 49
-2.54
 74
     0
  0
LTYPE
  5
62
330
5
100
AcDbSymbolTableRecord
100
AcDbLinetypeTableRecord
  2
DOT2
 70
     0
  3
Dot (.5x) ........................................
 72
    65
 73
     2
 40
0.635
 49
0.0
 74
     0
 49
-0.635
 74
     0
  0
ENDTAB
  0
TABLE
  2
LAYER
  5
2
330
0
100
AcDbSymbolTable
 70
     1
  0
LAYER
  5
10
330
2
100
AcDbSymbolTableRecord
100
AcDbLayerTableRecord
  2
0
 70
     0
 62
     7
  6
Continuous
370
    -3
390
F
  0
ENDTAB
  0
TABLE
  2
STYLE
  5
3
330
0
100
AcDbSymbolTable
 70
     3
  0
STYLE
  5
11
330
3
100
AcDbSymbolTableRecord
100
AcDbTextStyleTableRecord
  2
Standard
 70
     0
 40
0.0
 41
1.0
 50
0.0
 71
     0
 42
10.0
  3
txt
  4

  0
STYLE
  5
66
330
3
100
AcDbSymbolTableRecord
100
AcDbTextStyleTableRecord
  2
SLDTEXTSTYLE0
 70
     0
 40
0.0
 41
0.96
 50
0.0
 71
     0
 42
10.0
  3
ISOCP3
  4

  0
STYLE
  5
7D
330
3
100
AcDbSymbolTableRecord
100
AcDbTextStyleTableRecord
  2
SLDTEXTSTYLE1
 70
     0
 40
0.0
 41
0.605
 50
0.0
 71
     0
 42
10.0
  3
TXT
  4

  0
ENDTAB
  0
TABLE
  2
VIEW
  5
6
330
0
100
AcDbSymbolTable
 70
     0
  0
ENDTAB
  0
TABLE
  2
UCS
  5
7
330
0
100
AcDbSymbolTable
 70
     0
  0
ENDTAB
  0
TABLE
  2
APPID
  5
9
330
0
100
AcDbSymbolTable
 70
     1
  0
APPID
  5
12
330
9
100
AcDbSymbolTableRecord
100
AcDbRegAppTableRecord
  2
ACAD
 70
     0
  0
ENDTAB
  0
TABLE
  2
DIMSTYLE
  5
A
330
0
100
AcDbSymbolTable
 70
     2
100
AcDbDimStyleTable
  0
DIMSTYLE
105
27
330
A
100
AcDbSymbolTableRecord
100
AcDbDimStyleTableRecord
  2
ISO-25
 70
     0
 41
2.5
 42
0.625
 43
3.75
 44
1.25
 73
     0
 74
     0
 77
     1
 78
     8
140
2.5
141
2.5
143
0.0393700787
147
0.625
171
     3
172
     1
178
     0
271
     2
272
     2
274
     3
278
    44
283
     0
284
     8
340
11
  0
DIMSTYLE
105
67
102
{ACAD_REACTORS
330
65
330
72
102
}
330
A
100
AcDbSymbolTableRecord
100
AcDbDimStyleTableRecord
  2
SLDDIMSTYLE0
 70
     0
 41
2.5
 44
0.0
 45
0.000000001
 73
     0
 74
     0
 77
     1
 78
    12
 79
     3
140
6.0
147
1.5
173
     1
178
     0
271
     2
272
     2
276
     2
284
    12
340
66
  0
ENDTAB
  0
TABLE
  2
BLOCK_RECORD
  5
1
330
0
100
AcDbSymbolTable
 70
     3
  0
BLOCK_RECORD
  5
1F
330
1
100
AcDbSymbolTableRecord
100
AcDbBlockTableRecord
  2
*Model_Space
340
22
  0
BLOCK_RECORD
  5
1B
330
1
100
AcDbSymbolTableRecord
100
AcDbBlockTableRecord
  2
*Paper_Space
340
1E
  0
BLOCK_RECORD
  5
23
330
1
100
AcDbSymbolTableRecord
100
AcDbBlockTableRecord
  2
*Paper_Space0
340
26
  0
BLOCK_RECORD
  5
68
330
1
100
AcDbSymbolTableRecord
100
AcDbBlockTableRecord
  2
_D
340
0
  0
BLOCK_RECORD
  5
73
330
1
100
AcDbSymbolTableRecord
100
AcDbBlockTableRecord
  2
_D_1
340
0
  0
ENDTAB
  0
ENDSEC
  0
SECTION
  2
BLOCKS
  0
BLOCK
  5
20
330
1F
100
AcDbEntity
  8
0
100
AcDbBlockBegin
  2
*Model_Space
 70
     0
 10
0.0
 20
0.0
 30
0.0
  3
*Model_Space
  1

  0
ENDBLK
  5
21
330
1F
100
AcDbEntity
  8
0
100
AcDbBlockEnd
  0
BLOCK
  5
1C
330
1B
100
AcDbEntity
 67
     1
  8
0
100
AcDbBlockBegin
  2
*Paper_Space
 70
     0
 10
0.0
 20
0.0
 30
0.0
  3
*Paper_Space
  1

  0
ENDBLK
  5
1D
330
1B
100
AcDbEntity
 67
     1
  8
0
100
AcDbBlockEnd
  0
BLOCK
  5
24
330
23
100
AcDbEntity
  8
0
100
AcDbBlockBegin
  2
*Paper_Space0
 70
     0
 10
0.0
 20
0.0
 30
0.0
  3
*Paper_Space0
  1

  0
ENDBLK
  5
25
330
23
100
AcDbEntity
  8
0
100
AcDbBlockEnd
  0
BLOCK
  5
69
330
68
100
AcDbEntity
  8
0
100
AcDbBlockBegin
  2
_D
 70
     0
 10
0.0
 20
0.0
 30
0.0
  3
_D
  1

  0
SOLID
  5
6B
330
68
100
AcDbEntity
  8
0
  6
Continuous
 62
     7
370
    18
100
AcDbTrace
 10
42.7614395004
 20
152.0299240879
 30
0.0
 11
42.4614395004
 21
149.5299240879
 31
0.0
 12
43.0614395004
 22
149.5299240879
 32
0.0
 13
43.0614395004
 23
149.5299240879
 33
0.0
  0
SOLID
  5
6C
330
68
100
AcDbEntity
  8
0
  6
Continuous
 62
     7
370
    18
100
AcDbTrace
 10
42.7614395004
 20
52.0299240879
 30
0.0
 11
43.0614395004
 21
54.5299240879
 31
0.0
 12
42.4614395004
 22
54.5299240879
 32
0.0
 13
42.4614395004
 23
54.5299240879
 33
0.0
  0
LINE
  5
6D
330
68
100
AcDbEntity
  8
0
  6
Continuous
 62
     7
370
     0
100
AcDbLine
 10
56.6850079902
 20
152.0299240879
 30
0.0
 11
41.7614395004
 21
152.0299240879
 31
0.0
  0
LINE
  5
6E
330
68
100
AcDbEntity
  8
0
  6
Continuous
 62
     7
370
     0
100
AcDbLine
 10
56.6850079902
 20
52.0299240879
 30
0.0
 11
41.7614395004
 21
52.0299240879
 31
0.0
  0
LINE
  5
6F
330
68
100
AcDbEntity
  8
0
  6
Continuous
 62
     7
370
     0
100
AcDbLine
 10
42.7614395004
 20
152.0299240879
 30
0.0
 11
42.7614395004
 21
52.0299240879
 31
0.0
  0
MTEXT
  5
70
330
68
100
AcDbEntity
  8
0
  6
Continuous
 62
     7
370
    18
100
AcDbMText
 10
35.0270332946
 20
94.3680541463
 30
0.0
 40
6.0
 41
0.0
 71
     1
 72
     1
  1
100
  7
SLDTEXTSTYLE0
 11
-7.044195017643634E-15
 21
1.0
 31
0.0
 73
     1
 44
1.0
  0
MTEXT
  5
71
330
68
100
AcDbEntity
  8
0
  6
Continuous
 62
     7
370
    18
100
AcDbMText
 10
35.0270332946
 20
105.7430548466
 30
0.0
 40
6.0
 41
0.0
 71
     1
 72
     1
  1
mm
  7
SLDTEXTSTYLE0
 11
-7.044195017643634E-15
 21
1.0
 31
0.0
 73
     1
 44
1.0
  0
ENDBLK
  5
6A
330
68
100
AcDbEntity
  8
0
100
AcDbBlockEnd
  0
BLOCK
  5
74
330
73
100
AcDbEntity
  8
0
100
AcDbBlockBegin
  2
_D_1
 70
     0
 10
0.0
 20
0.0
 30
0.0
  3
_D_1
  1

  0
SOLID
  5
76
330
73
100
AcDbEntity
  8
0
  6
Continuous
 62
     7
370
    18
100
AcDbTrace
 10
56.6850079902
 20
38.4602342313
 30
0.0
 11
59.1850079902
 21
38.1602342313
 31
0.0
 12
59.1850079902
 22
38.7602342313
 32
0.0
 13
59.1850079902
 23
38.7602342313
 33
0.0
  0
SOLID
  5
77
330
73
100
AcDbEntity
  8
0
  6
Continuous
 62
     7
370
    18
100
AcDbTrace
 10
156.6850079902
 20
38.4602342313
 30
0.0
 11
154.1850079902
 21
38.7602342313
 31
0.0
 12
154.1850079902
 22
38.1602342313
 32
0.0
 13
154.1850079902
 23
38.1602342313
 33
0.0
  0
LINE
  5
78
330
73
100
AcDbEntity
  8
0
  6
Continuous
 62
     7
370
     0
100
AcDbLine
 10
56.6850079902
 20
52.0299240879
 30
0.0
 11
56.6850079902
 21
37.4602342313
 31
0.0
  0
LINE
  5
79
330
73
100
AcDbEntity
  8
0
  6
Continuous
 62
     7
370
     0
100
AcDbLine
 10
156.6850079902
 20
52.0299240879
 30
0.0
 11
156.6850079902
 21
37.4602342313
 31
0.0
  0
LINE
  5
7A
330
73
100
AcDbEntity
  8
0
  6
Continuous
 62
     7
370
     0
100
AcDbLine
 10
56.6850079902
 20
38.4602342313
 30
0.0
 11
156.6850079902
 21
38.4602342313
 31
0.0
  0
MTEXT
  5
7B
330
73
100
AcDbEntity
  8
0
  6
Continuous
 62
     7
370
    18
100
AcDbMText
 10
93.9626484861
 20
46.1946404371
 30
0.0
 40
6.0
 41
0.0
 71
     1
 72
     1
  1
100
  7
SLDTEXTSTYLE0
 73
     1
 44
1.0
  0
MTEXT
  5
7C
330
73
100
AcDbEntity
  8
0
  6
Continuous
 62
     7
370
    18
100
AcDbMText
 10
105.3376491864
 20
46.1946404371
 30
0.0
 40
6.0
 41
0.0
 71
     1
 72
     1
  1
mm
  7
SLDTEXTSTYLE0
 73
     1
 44
1.0
  0
ENDBLK
  5
75
330
73
100
AcDbEntity
  8
0
100
AcDbBlockEnd
  0
ENDSEC
  0
SECTION
  2
ENTITIES
  0
LINE
  5
63
330
1F
100
AcDbEntity
  8
0
  6
Continuous
 62
     7
370
    18
100
AcDbLine
 10
56.6850079902
 20
152.0299240879
 30
0.0
 11
56.6850079902
 21
52.0299240879
 31
0.0
  0
LINE
  5
64
330
1F
100
AcDbEntity
  8
0
  6
Continuous
 62
     7
370
    18
100
AcDbLine
 10
56.6850079902
 20
52.0299240879
 30
0.0
 11
156.6850079902
 21
52.0299240879
 31
0.0
  0
DIMENSION
  5
65
330
1F
100
AcDbEntity
  8
0
  6
Continuous
 62
     7
370
    18
100
AcDbDimension
  2
_D
 10
42.7614395004
 20
52.0299240879
 30
0.0
 11
42.7614395004
 21
105.4472211621
 31
0.0
 70
   160
  1
<>mm
 71
     2
 42
-1.0
  3
SLDDIMSTYLE0
100
AcDbAlignedDimension
 13
56.6850079902
 23
152.0299240879
 33
0.0
 14
56.6850079902
 24
52.0299240879
 34
0.0
 50
90.0
100
AcDbRotatedDimension
  0
DIMENSION
  5
72
330
1F
100
AcDbEntity
  8
0
  6
Continuous
 62
     7
370
    18
100
AcDbDimension
  2
_D_1
 10
156.6850079902
 20
38.4602342313
 30
0.0
 11
105.0418155019
 21
38.4602342313
 31
0.0
 70
   160
  1
<>mm
 71
     2
 42
-1.0
  3
SLDDIMSTYLE0
100
AcDbAlignedDimension
 13
56.6850079902
 23
52.0299240879
 33
0.0
 14
156.6850079902
 24
52.0299240879
 34
0.0
100
AcDbRotatedDimension
  0
MTEXT
  5
7E
330
1F
100
AcDbEntity
  8
0
  6
Continuous
 62
     7
370
     0
100
AcDbMText
 10
412.8252631579
 20
48.4342449499
 30
0.0
 40
10.0
 41
0.0
 71
     1
 72
     1
  1
KLUDI GmbH & Co KG
  7
SLDTEXTSTYLE1
 73
     1
 44
1.0
  0
MTEXT
  5
7F
330
1F
100
AcDbEntity
  8
0
  6
Continuous
 62
     7
370
     0
100
AcDbMText
 10
210.0873490389
 20
48.4342449499
 30
0.0
 40
10.0
 41
0.0
 71
     1
 72
     1
  1
54 298 .. 75
  7
SLDTEXTSTYLE1
 73
     1
 44
1.0
  0
LWPOLYLINE
  5
80
330
1F
100
AcDbEntity
  8
0
  6
Continuous
 62
     7
370
    25
100
AcDbPolyline
 90
        3
 70
   128
 43
0.0
 10
174.9081772042
 20
650.4038095327
 10
174.9089340504
 20
650.2565156485
 10
174.9133667895
 20
649.3939493872
  0
LWPOLYLINE
  5
81
330
1F
100
AcDbEntity
  8
0
  6
Continuous
 62
     7
370
    25
100
AcDbPolyline
 90
        3
 70
   128
 43
0.0
 10
173.4251666913
 20
650.4038095327
 10
173.4263847561
 20
650.2563431155
 10
173.43351114
 20
649.393776793
  0
SPLINE
  5
82
330
1F
100
AcDbEntity
  8
0
  6
Continuous
 62
     7
370
    25
100
AcDbSpline
210
0.0
220
0.0
230
1.0
 70
     8
 71
     3
 72
    17
 73
    13
 74
     0
 42
0.00000001
 43
0.00000001
 40
0.0
 40
0.0
 40
0.0
 40
0.0
 40
0.1430638632509504
 40
0.3351922166665709
 40
0.4853200887635796
 40
0.5475589944892815
 40
0.603688651542874
 40
0.6566107325022393
 40
0.7098470010162674
 40
0.8267806632826173
 40
0.9449289394852602
 40
1.0
 40
1.0
 40
1.0
 40
1.0
 10
164.6035930132497
 20
674.9830899377687
 30
0.0
 10
164.5844679397109
 20
674.9651889797026
 30
0.0
 10
164.5396587499708
 20
674.9232478376257
 30
0.0
 10
164.5226931638936
 20
674.6808039580973
 30
0.0
 10
164.550862637371
 20
674.2924110327076
 30
0.0
 10
164.5885710199259
 20
673.87125213926
 30
0.0
 10
164.618853800466
 20
673.5266323274276
 30
0.0
 10
164.6521832791825
 20
673.1314471302585
 30
0.0
 10
164.7000488138322
 20
672.5223643489632
 30
0.0
 10
164.758573045527
 20
671.716384490402
 30
0.0
 10
164.8060686233048
 20
670.9108060563964
 30
0.0
 10
164.8463713049495
 20
670.4483528406317
 30
0.0
 10
164.859184605484
 20
670.3013265933707
 30
0.0
  0
SPLINE
  5
83
330
1F
100
AcDbEntity
  8
0
  6
Continuous
 62
     7
370
    25
100
AcDbSpline
210
0.0
220
0.0
230
1.0
 70
     8
 71
     3
 72
    11
 73
     7
 74
     0
 42
0.00000001
 43
0.00000001
 40
0.0
 40
0.0
 40
0.0
 40
0.0
 40
0.2612109647490846
 40
0.5224425461935628
 40
0.7835506209685353
 40
1.0
 40
1.0
 40
1.0
 40
1.0
 10
164.9213755632989
 20
695.119633996373
 30
0.0
 10
164.7863206597784
 20
695.1032163374578
 30
0.0
 10
164.5162001932085
 20
695.0703797238249
 30
0.0
 10
164.1713955225682
 20
694.8286264091739
 30
0.0
 10
163.9367426736874
 20
694.5069475242773
 30
0.0
 10
163.9034182058016
 20
694.2624721968808
 30
0.0
 10
163.8883141375414
 20
694.1516655653821
 30
0.0
  0
SPLINE
  5
84
330
1F
100
AcDbEntity
  8
0
  6
Continuous
 62
     7
370
    25
100
AcDbSpline
210
0.0
220
0.0
230
1.0
 70
     8
 71
     3
 72
    11
 73
     7
 74
     0
 42
0.00000001
 43
0.00000001
 40
0.0
 40
0.0
 40
0.0
 40
0.0
 40
0.2166602733199471
 40
0.4777039316026064
 40
0.7388352607355658
 40
1.0
 40
1.0
 40
1.0
 40
1.0
 10
199.8219504474912
 20
694.1511978169132
 30
0.0
 10
199.8068575923898
 20
694.2620493931757
 30
0.0
 10
199.7735800740403
 20
694.5064607612288
 30
0.0
 10
199.5392528287666
 20
694.8280803797062
 30
0.0
 10
199.1949487627301
 20
695.0699000750997
 30
0.0
 10
198.9250921433524
 20
695.1030487917928
 30
0.0
 10
198.7901552025962
 20
695.1196242103646
 30
0.0
  0
LINE
  5
85
330
1F
100
AcDbEntity
  8
0
  6
Continuous
 62
     7
370
    25
100
AcDbLine
 10
198.8264548882
 20
695.1450258935
 30
0.0
 11
181.8550754486
 21
695.1450258971
 31
0.0
  0
SPLINE
  5
86
330
1F
100
AcDbEntity
  8
0
  6
Continuous
 62
     7
370
    25
100
AcDbSpline
210
0.0
220
0.0
230
1.0
 70
     8
 71
     3
 72
    11
 73
     7
 74
     0
 42
0.00000001
 43
0.00000001
 40
0.0
 40
0.0
 40
0.0
 40
0.0
 40
0.2354114695216896
 40
0.4847121331463251
 40
0.7421296700125574
 40
0.9999999999999999
 40
0.9999999999999999
 40
0.9999999999999999
 40
0.9999999999999999
 10
164.0446359763233
 20
420.334326547158
 30
0.0
 10
163.9761209989456
 20
419.8710081468187
 30
0.0
 10
163.8350486845648
 20
418.9170357230845
 30
0.0
 10
163.1294477226424
 20
417.5443447920651
 30
0.0
 10
162.0636399108054
 20
416.3656152538864
 30
0.0
 10
161.1504741449488
 20
415.9116136242209
 30
0.0
 10
160.6934900540707
 20
415.6844133395111
 30
0.0
  0
LINE
  5
87
330
1F
100
AcDbEntity
  8
0
  6
Continuous
 62
     7
370
    25
100
AcDbLine
 10
164.0446360649
 20
431.3343265472
 30
0.0
 11
164.0446360649
 21
420.3343266221
 31
0.0
  0
ARC
  5
88
330
1F
100
AcDbEntity
  8
0
  6
Continuous
 62
     7
370
    25
100
AcDbCircle
 10
189.0723598424
 20
666.4026684469
 30
0.0
 40
22.81689189189188
100
AcDbArc
 50
170.1895611837
 51
180.0
  0
ARC
  5
89
330
1F
100
AcDbEntity
  8
0
  6
Continuous
 62
     7
370
    25
100
AcDbCircle
 10
174.6385760586
 20
666.4026684469
 30
0.0
 40
22.81689189189191
100
AcDbArc
 50
0.0
 51
9.6051075623
  0
LINE
  5
8A
330
1F
100
AcDbEntity
  8
0
  6
Continuous
 62
     7
370
    25
100
AcDbLine
 10
164.85551237
 20
666.4026684469
 30
0.0
 11
198.8555145564
 21
666.4026684469
 31
0.0
  0
SPLINE
  5
8B
330
1F
100
AcDbEntity
  8
0
  6
Continuous
 62
     7
370
    25
100
AcDbSpline
210
0.0
220
0.0
230
1.0
 70
     8
 71
     3
 72
    14
 73
    10
 74
     0
 42
0.00000001
 43
0.00000001
 40
0.0
 40
0.0
 40
0.0
 40
0.0
 40
0.25
 40
0.25
 40
0.5
 40
0.5
 40
0.75
 40
0.75
 40
1.0
 40
1.0
 40
1.0
 40
1.0
 10
163.8555123699424
 20
665.4026684454
 30
0.0
 10
163.8555123697745
 20
665.5205195756938
 30
0.0
 10
163.8769911084402
 20
665.6476662048285
 30
0.0
 10
163.9744570285153
 20
665.8938601059651
 30
0.0
 10
164.0507745153069
 20
666.0121441544793
 30
0.0
 10
164.2460366612593
 20
666.2074063007128
 30
0.0
 10
164.3643207096583
 20
666.2837237876697
 30
0.0
 10
164.6105146106358
 20
666.3811897080838
 30
0.0
 10
164.7376612397227
 20
666.4026684469142
 30
0.0
 10
164.8555123700049
 20
666.4026684469134
 30
0.0
  0
LINE
  5
8C
330
1F
100
AcDbEntity
  8
0
  6
Continuous
 62
     7
370
    25
100
AcDbLine
 10
163.8555123853
 20
655.4026671568
 30
0.0
 11
163.8555123702
 21
665.4026684454
 31
0.0
  0
LINE
  5
8D
330
1F
100
AcDbEntity
  8
0
  6
Continuous
 62
     7
370
    25
100
AcDbLine
 10
199.8555145565
 20
665.4026684484
 30
0.0
 11
199.8555145716
 21
655.4026671568
 31
0.0
  0
SPLINE
  5
8E
330
1F
100
AcDbEntity
  8
0
  6
Continuous
 62
     7
370
    25
100
AcDbSpline
210
0.0
220
0.0
230
1.0
 70
     8
 71
     3
 72
    22
 73
    18
 74
     0
 42
0.00000001
 43
0.00000001
 40
0.0
 40
0.0
 40
0.0
 40
0.0
 40
1.642405407302315
 40
1.642405407302315
 40
3.284810814604629
 40
3.284810814604629
 40
4.927216221906944
 40
4.927216221906944
 40
5.748418925558101
 40
5.748418925558101
 40
6.569621629209259
 40
6.569621629209259
 40
8.212027036511573
 40
8.212027036511573
 40
9.854432443813888
 40
9.854432443813888
 40
12.09271374801523
 40
12.09271374801523
 40
12.09271374801523
 40
12.09271374801523
 10
199.8555176538011
 20
655.4026668207316
 30
0.0
 10
199.8552478775908
 20
654.9570556670897
 30
0.0
 10
199.8425671142119
 20
654.5108629579425
 30
0.0
 10
199.7629378191723
 20
653.6231439779167
 30
0.0
 10
199.6972505231915
 20
653.1797745214371
 30
0.0
 10
199.4486134453273
 20
652.3245838328726
 30
0.0
 10
199.2579707736675
 20
651.9098892916804
 30
0.0
 10
198.8159566666523
 20
651.4053451501236
 30
0.0
 10
198.6456982121396
 20
651.2591662544528
 30
0.0
 10
198.2716933829303
 20
651.0159517225928
 30
0.0
 10
198.069965352357
 20
650.9185653099212
 30
0.0
 10
197.4431077009591
 20
650.6840210941732
 30
0.0
 10
197.0024150121552
 20
650.5987362182927
 30
0.0
 10
196.1189361867088
 20
650.4835301308722
 30
0.0
 10
195.6733652758937
 20
650.4544978083863
 30
0.0
 10
194.6209549524586
 20
650.4119224885959
 30
0.0
 10
194.0135413164657
 20
650.4055590651103
 30
0.0
 10
193.4060504016953
 20
650.4038095326838
 30
0.0
  0
SPLINE
  5
8F
330
1F
100
AcDbEntity
  8
0
  6
Continuous
 62
     7
370
    25
100
AcDbSpline
210
0.0
220
0.0
230
1.0
 70
     8
 71
     3
 72
    22
 73
    18
 74
     0
 42
0.00000001
 43
0.00000001
 40
40.46435809303314
 40
40.46435809303314
 40
40.46435809303314
 40
40.46435809303314
 40
42.70254058986018
 40
42.70254058986018
 40
44.3449459971625
 40
44.3449459971625
 40
45.98735140446481
 40
45.98735140446481
 40
46.80855410811597
 40
46.80855410811597
 40
47.62975681176712
 40
47.62975681176712
 40
49.27216221906944
 40
49.27216221906944
 40
50.91456762637176
 40
50.91456762637176
 40
52.55697303367407
 40
52.55697303367407
 40
52.55697303367407
 40
52.55697303367407
 10
170.3049549703277
 20
650.4038095326896
 30
0.0
 10
169.6974283047983
 20
650.4055601064929
 30
0.0
 10
169.0898900989786
 20
650.4119254862935
 30
0.0
 10
168.0376973557811
 20
650.4544985963967
 30
0.0
 10
167.5922090001931
 20
650.4835218069148
 30
0.0
 10
166.7086484530533
 20
650.5987222864006
 30
0.0
 10
166.2678046348098
 20
650.6840589543519
 30
0.0
 10
165.6411286448653
 20
650.9185394213365
 30
0.0
 10
165.4393075467615
 20
651.01597389864
 30
0.0
 10
165.0654281331754
 20
651.2590925296824
 30
0.0
 10
164.8950182768112
 20
651.4054004546725
 30
0.0
 10
164.4531293372218
 20
651.9098063300427
 30
0.0
 10
164.2624295466173
 20
652.3245562696827
 30
0.0
 10
164.0138052017952
 20
653.1796597375065
 30
0.0
 10
163.9480811912159
 20
653.6232543596363
 30
0.0
 10
163.8684766269813
 20
654.5107718500947
 30
0.0
 10
163.8557845634003
 20
654.9570557457865
 30
0.0
 10
163.855517653801
 20
655.4026668207318
 30
0.0
  0
ARC
  5
90
330
1F
100
AcDbEntity
  8
0
  6
Continuous
 62
     7
370
    25
100
AcDbCircle
 10
198.8555145562
 20
665.4026684475
 30
0.0
 40
1.000000000259945
100
AcDbArc
 50
0.0000000529
 51
89.999999991
  0
LINE
  5
91
330
1F
100
AcDbEntity
  8
0
  6
Continuous
 62
     7
370
    25
100
AcDbLine
 10
193.4060504017
 20
650.4038095327
 30
0.0
 11
170.3049549703
 21
650.4038095327
 31
0.0
  0
SPLINE
  5
92
330
1F
100
AcDbEntity
  8
0
  6
Continuous
 62
     7
370
    25
100
AcDbSpline
210
0.0
220
0.0
230
1.0
 70
     8
 71
     3
 72
    10
 73
     6
 74
     0
 42
0.00000001
 43
0.00000001
 40
0.0
 40
0.0
 40
0.0
 40
0.0
 40
0.5
 40
0.5
 40
1.0
 40
1.0
 40
1.0
 40
1.0
 10
180.1840039207892
 20
649.4038095326777
 30
0.0
 10
180.2023329036783
 20
649.4037292265959
 30
0.0
 10
180.2235211629829
 20
649.4037051216617
 30
0.0
 10
180.2612609815674
 20
649.4037325127691
 30
0.0
 10
180.2772535250062
 20
649.4037792942011
 30
0.0
 10
180.2874799963672
 20
649.4038095326775
 30
0.0
  0
SPLINE
  5
93
330
1F
100
AcDbEntity
  8
0
  6
Continuous
 62
     7
370
    25
100
AcDbSpline
210
0.0
220
0.0
230
1.0
 70
    24
 71
     3
 72
    10
 73
     6
 74
     0
 42
0.00000001
 43
0.00000001
 40
0.0
 40
0.0
 40
0.0
 40
0.0
 40
0.5
 40
0.5
 40
1.0
 40
1.0
 40
1.0
 40
1.0
 10
174.9314769677183
 20
649.4038095326775
 30
0.0
 10
175.5471364637955
 20
649.4038095326775
 30
0.0
 10
176.3310604178389
 20
649.4038095326777
 30
0.0
 10
178.1247254610446
 20
649.4038095326775
 30
0.0
 10
179.1338484760486
 20
649.4038095326777
 30
0.0
 10
180.1840039207892
 20
649.4038095326775
 30
0.0
  0
LINE
  5
94
330
1F
100
AcDbEntity
  8
0
  6
Continuous
 62
     7
370
    25
100
AcDbLine
 10
180.5400613355
 20
649.4038095327
 30
0.0
 11
180.5400613355
 21
650.4038095327
 31
0.0
  0
LINE
  5
95
330
1F
100
AcDbEntity
  8
0
  6
Continuous
 62
     7
370
    25
100
AcDbLine
 10
180.2874799964
 20
649.4038095327
 30
0.0
 11
180.5400613355
 21
649.4038095327
 31
0.0
  0
SPLINE
  5
96
330
1F
100
AcDbEntity
  8
0
  6
Continuous
 62
     7
370
    25
100
AcDbSpline
210
0.0
220
0.0
230
1.0
 70
     8
 71
     3
 72
    10
 73
     6
 74
     0
 42
0.00000001
 43
0.00000001
 40
0.0
 40
0.0
 40
0.0
 40
0.0
 40
0.5
 40
0.5
 40
1.0
 40
1.0
 40
1.0
 40
1.0
 10
185.8589295653363
 20
649.4038095326777
 30
0.0
 10
185.8733434548322
 20
649.4037851221914
 30
0.0
 10
185.8914933406471
 20
649.4037475614995
 30
0.0
 10
185.928570030136
 20
649.4037250408649
 30
0.0
 10
185.9471139641502
 20
649.403743317493
 30
0.0
 10
185.9621673999427
 20
649.4038095326777
 30
0.0
  0
LINE
  5
97
330
1F
100
AcDbEntity
  8
0
  6
Continuous
 62
     7
370
    25
100
AcDbLine
 10
190.2793556164
 20
649.4038095327
 30
0.0
 11
190.2876081084
 21
650.4038095327
 31
0.0
  0
SPLINE
  5
98
330
1F
100
AcDbEntity
  8
0
  6
Continuous
 62
     7
370
    25
100
AcDbSpline
210
0.0
220
0.0
230
1.0
 70
    24
 71
     3
 72
    14
 73
    10
 74
     0
 42
0.00000001
 43
0.00000001
 40
0.0
 40
0.0
 40
0.0
 40
0.0
 40
0.25
 40
0.25
 40
0.5
 40
0.5
 40
0.75
 40
0.75
 40
1.0
 40
1.0
 40
1.0
 40
1.0
 10
185.9621673999428
 20
649.4038095326775
 30
0.0
 10
186.5604701000552
 20
649.4038095326775
 30
0.0
 10
187.1182439888751
 20
649.4038095326777
 30
0.0
 10
188.1201820218061
 20
649.4038095326777
 30
0.0
 10
188.5642884426506
 20
649.4038095326777
 30
0.0
 10
189.312857693658
 20
649.4038095326775
 30
0.0
 10
189.6172773975386
 20
649.4038095326777
 30
0.0
 10
190.0686207891004
 20
649.4038095326775
 30
0.0
 10
190.2155184741605
 20
649.4038095326777
 30
0.0
 10
190.2793556163766
 20
649.4038095326775
 30
0.0
  0
LINE
  5
99
330
1F
100
AcDbEntity
  8
0
  6
Continuous
 62
     7
370
    25
100
AcDbLine
 10
185.4496518159
 20
650.4038095327
 30
0.0
 11
185.4496518159
 21
649.4038095327
 31
0.0
  0
LINE
  5
9A
330
1F
100
AcDbEntity
  8
0
  6
Continuous
 62
     7
370
    25
100
AcDbLine
 10
185.4496518159
 20
649.4038095327
 30
0.0
 11
185.8589295653
 21
649.4038095327
 31
0.0
  0
SPLINE
  5
9B
330
1F
100
AcDbEntity
  8
0
  6
Continuous
 62
     7
370
    25
100
AcDbSpline
210
0.0
220
0.0
230
1.0
 70
     8
 71
     3
 72
    10
 73
     6
 74
     0
 42
0.00000001
 43
0.00000001
 40
0.0
 40
0.0
 40
0.0
 40
0.0
 40
0.5
 40
0.5
 40
1.0
 40
1.0
 40
1.0
 40
1.0
 10
174.9295977286474
 20
649.4038095326777
 30
0.0
 10
174.9193712572863
 20
649.4037792942011
 30
0.0
 10
174.9129850482633
 20
649.4037325127691
 30
0.0
 10
174.9136705844172
 20
649.4037051216616
 30
0.0
 10
174.9207321537992
 20
649.4037292265959
 30
0.0
 10
174.9314769677184
 20
649.4038095326775
 30
0.0
  0
LINE
  5
9C
330
1F
100
AcDbEntity
  8
0
  6
Continuous
 62
     7
370
    25
100
AcDbLine
 10
173.8919711287
 20
649.4038095327
 30
0.0
 11
173.8919711287
 21
650.4038095327
 31
0.0
  0
LINE
  5
9D
330
1F
100
AcDbEntity
  8
0
  6
Continuous
 62
     7
370
    25
100
AcDbLine
 10
173.4764532268
 20
649.4038095327
 30
0.0
 11
173.8919711287
 21
649.4038095327
 31
0.0
  0
SPLINE
  5
9E
330
1F
100
AcDbEntity
  8
0
  6
Continuous
 62
     7
370
    25
100
AcDbSpline
210
0.0
220
0.0
230
1.0
 70
    24
 71
     3
 72
     9
 73
     5
 74
     0
 42
0.00000001
 43
0.00000001
 40
0.0
 40
0.0
 40
0.0
 40
0.0
 40
0.2529305779585513
 40
1.0
 40
1.0
 40
1.0
 40
1.0
 10
174.5814669677183
 20
649.4038095326775
 30
0.0
 10
174.4720581776093
 20
649.4038095326775
 30
0.0
 10
174.0394936731824
 20
649.4038095326777
 30
0.0
 10
173.9550536717682
 20
649.4038095326777
 30
0.0
 10
173.8919711287145
 20
649.4038095326775
 30
0.0
  0
LINE
  5
9F
330
1F
100
AcDbEntity
  8
0
  6
Continuous
 62
     7
370
    25
100
AcDbLine
 10
173.4315802846
 20
649.4038095327
 30
0.0
 11
173.4233277926
 21
650.4038095327
 31
0.0
  0
SPLINE
  5
A0
330
1F
100
AcDbEntity
  8
0
  6
Continuous
 62
     7
370
    25
100
AcDbSpline
210
0.0
220
0.0
230
1.0
 70
     8
 71
     3
 72
    10
 73
     6
 74
     0
 42
0.00000001
 43
0.00000001
 40
0.0
 40
0.0
 40
0.0
 40
0.0
 40
0.5
 40
0.5
 40
1.0
 40
1.0
 40
1.0
 40
1.0
 10
173.4315802845998
 20
649.4038095326775
 30
0.0
 10
173.4299747324368
 20
649.4037433174929
 30
0.0
 10
173.4330142408018
 20
649.4037250408649
 30
0.0
 10
173.4491297445424
 20
649.4037475614995
 30
0.0
 10
173.4620393373125
 20
649.4037851221914
 30
0.0
 10
173.4764532268084
 20
649.4038095326775
 30
0.0
  0
SPLINE
  5
A1
330
1F
100
AcDbEntity
  8
0
  6
Continuous
 62
     7
370
    25
100
AcDbSpline
210
0.0
220
0.0
230
1.0
 70
    24
 71
     3
 72
     9
 73
     5
 74
     0
 42
0.00000001
 43
0.00000001
 40
0.0
 40
0.0
 40
0.0
 40
0.0
 40
0.1922179378354099
 40
1.0
 40
1.0
 40
1.0
 40
1.0
 10
185.0996418159363
 20
649.4038095326777
 30
0.0
 10
184.9848219558612
 20
649.4038095326777
 30
0.0
 10
184.3874798900371
 20
649.4038095326775
 30
0.0
 10
183.7144973166579
 20
649.4038095326777
 30
0.0
 10
183.1708740657327
 20
649.4038095326775
 30
0.0
  0
LINE
  5
A2
330
1F
100
AcDbEntity
  8
0
  6
Continuous
 62
     7
370
    25
100
AcDbLine
 10
183.1708740657
 20
649.4038095327
 30
0.0
 11
183.1708740657
 21
650.4038095327
 31
0.0
  0
LINE
  5
A3
330
1F
100
AcDbEntity
  8
0
  6
Continuous
 62
     7
370
    25
100
AcDbLine
 10
163.8551044632
 20
676.9547506754
 30
0.0
 11
163.8551044632
 21
692.1083174575
 31
0.0
  0
SPLINE
  5
A4
330
1F
100
AcDbEntity
  8
0
  6
Continuous
 62
     7
370
    25
100
AcDbSpline
210
0.0
220
0.0
230
1.0
 70
     8
 71
     3
 72
    14
 73
    10
 74
     0
 42
0.00000001
 43
0.00000001
 40
0.0
 40
0.0
 40
0.0
 40
0.0
 40
0.25
 40
0.25
 40
0.5
 40
0.5
 40
0.75
 40
0.75
 40
1.0
 40
1.0
 40
1.0
 40
1.0
 10
163.8551044795942
 20
692.108317450592
 30
0.0
 10
163.8550804189186
 20
692.1324710658658
 30
0.0
 10
163.8818346751875
 20
692.1566168396677
 30
0.0
 10
163.9848662562877
 20
692.2015927629901
 30
0.0
 10
164.0611030222514
 20
692.2224069849373
 30
0.0
 10
164.251524783307
 20
692.2578902844863
 30
0.0
 10
164.3656348179748
 20
692.2725471713306
 30
0.0
 10
164.6144495673292
 20
692.2938220556352
 30
0.0
 10
164.7490563349165
 20
692.3004334555477
 30
0.0
 10
164.8837156016818
 20
692.3026906143447
 30
0.0
  0
LINE
  5
A5
330
1F
100
AcDbEntity
  8
0
  6
Continuous
 62
     7
370
    25
100
AcDbLine
 10
164.8837156016
 20
692.3026906144
 30
0.0
 11
198.826342465
 21
692.3028561544
 31
0.0
  0
SPLINE
  5
A6
330
1F
100
AcDbEntity
  8
0
  6
Continuous
 62
     7
370
    25
100
AcDbSpline
210
0.0
220
0.0
230
1.0
 70
     8
 71
     3
 72
    14
 73
    10
 74
     0
 42
0.00000001
 43
0.00000001
 40
0.0
 40
0.0
 40
0.0
 40
0.0
 40
0.25
 40
0.25
 40
0.5
 40
0.5
 40
0.75
 40
0.75
 40
1.0
 40
1.0
 40
1.0
 40
1.0
 10
198.8263424630451
 20
692.3028561531767
 30
0.0
 10
198.961007126688
 20
692.3005626010743
 30
0.0
 10
199.0956216975908
 20
692.2939144537318
 30
0.0
 10
199.3444540997538
 20
692.2725651731733
 30
0.0
 10
199.458573961317
 20
692.2578706376368
 30
0.0
 10
199.6490145474749
 20
692.2223111773608
 30
0.0
 10
199.7252602922585
 20
692.2014584450984
 30
0.0
 10
199.8283067091431
 20
692.1564048816798
 30
0.0
 10
199.855066810056
 20
692.1322199809966
 30
0.0
 10
199.8550464221339
 20
692.1080271183862
 30
0.0
  0
SPLINE
  5
A7
330
1F
100
AcDbEntity
  8
0
  6
Continuous
 62
     7
370
    25
100
AcDbSpline
210
0.0
220
0.0
230
1.0
 70
    24
 71
     3
 72
    17
 73
    13
 74
     0
 42
0.00000001
 43
0.00000001
 40
0.0
 40
0.0
 40
0.0
 40
0.0
 40
0.0125608246447143
 40
0.0445525619353226
 40
0.0959752278017524
 40
0.1668288250680361
 40
0.2571133547348524
 40
0.3668288172712101
 40
0.4959752129344209
 40
0.6445525418808432
 40
0.8125608042125855
 40
1.0
 40
1.0
 40
1.0
 40
1.0
 10
199.8550464338885
 20
692.1080271137155
 30
0.0
 10
199.8550464338885
 20
692.0437287522382
 30
0.0
 10
199.8550464338885
 20
691.815665960735
 30
0.0
 10
199.8550464338885
 20
691.330763849195
 30
0.0
 10
199.8550464338886
 20
690.5497630736415
 30
0.0
 10
199.8550464338885
 20
689.4758062793538
 30
0.0
 10
199.8550464338887
 20
688.1074943200099
 30
0.0
 10
199.8550464338886
 20
686.4454257472361
 30
0.0
 10
199.8550464338887
 20
684.4893905663179
 30
0.0
 10
199.8550464338887
 20
682.2394722469859
 30
0.0
 10
199.8550464338888
 20
679.6956304719986
 30
0.0
 10
199.8550464338888
 20
677.9019001091963
 30
0.0
 10
199.8550464338888
 20
676.9560067880225
 30
0.0
  0
SPLINE
  5
A8
330
1F
100
AcDbEntity
  8
0
  6
Continuous
 62
     7
370
    25
100
AcDbSpline
210
0.0
220
0.0
230
1.0
 70
     8
 71
     3
 72
    20
 73
    16
 74
     0
 42
0.00000001
 43
0.00000001
 40
0.0
 40
0.0
 40
0.0
 40
0.0
 40
0.0879879383468841
 40
0.1760653758777664
 40
0.2639357918199153
 40
0.3513947591151728
 40
0.4382440851094205
 40
0.5243696859234164
 40
0.6097441755568875
 40
0.6943640595776219
 40
0.7539791646727035
 40
0.8137812650105076
 40
0.8732072399021596
 40
0.9345984985437443
 40
1.0
 40
1.0
 40
1.0
 40
1.0
 10
198.8609039410208
 20
670.3239162487862
 30
0.0
 10
198.8701607991424
 20
670.49400871599
 30
0.0
 10
198.8886839312358
 20
670.8343666643053
 30
0.0
 10
198.9061395705739
 20
671.3467388701051
 30
0.0
 10
198.9178208361841
 20
671.8593046837414
 30
0.0
 10
198.9267399251792
 20
672.3701829047894
 30
0.0
 10
198.9398264372477
 20
672.8775799600346
 30
0.0
 10
198.9584623765947
 20
673.3808015191194
 30
0.0
 10
198.9847814715212
 20
673.8793913994425
 30
0.0
 10
199.0203617413514
 20
674.3256357331087
 30
0.0
 10
199.0671954007202
 20
674.7208177573666
 30
0.0
 10
199.1229956383311
 20
675.0657024635449
 30
0.0
 10
199.1986297361101
 20
675.4112097136656
 30
0.0
 10
199.2976659616998
 20
675.7638699354358
 30
0.0
 10
199.3883858710006
 20
675.9994794887563
 30
0.0
 10
199.4351804851069
 20
676.1210102333566
 30
0.0
  0
SPLINE
  5
A9
330
1F
100
AcDbEntity
  8
0
  6
Continuous
 62
     7
370
    25
100
AcDbSpline
210
0.0
220
0.0
230
1.0
 70
     8
 71
     3
 72
     8
 73
     4
 74
     0
 42
0.00000001
 43
0.00000001
 40
0.0
 40
0.0
 40
0.0
 40
0.0
 40
1.0
 40
1.0
 40
1.0
 40
1.0
 10
198.842308281164
 20
670.2395387414509
 30
0.0
 10
198.8529559919215
 20
670.2415839052478
 30
0.0
 10
198.8606789279254
 20
670.2696937168753
 30
0.0
 10
198.860902416747
 20
670.3238905238597
 30
0.0
  0
SPLINE
  5
AA
330
1F
100
AcDbEntity
  8
0
  6
Continuous
 62
     7
370
    25
100
AcDbSpline
210
0.0
220
0.0
230
1.0
 70
     8
 71
     3
 72
    12
 73
     8
 74
     0
 42
0.00000001
 43
0.00000001
 40
0.0
 40
0.0
 40
0.0
 40
0.0
 40
0.2499999999999999
 40
0.2499999999999999
 40
0.4999999999999998
 40
0.4999999999999998
 40
1.0
 40
1.0
 40
1.0
 40
1.0
 10
198.4802734013816
 20
670.215634980599
 30
0.0
 10
198.5330855578275
 20
670.2176214740905
 30
0.0
 10
198.5764664068995
 20
670.2196102530171
 30
0.0
 10
198.656037078636
 20
670.2235895534305
 30
0.0
 10
198.6914993924049
 20
670.2255802512107
 30
0.0
 10
198.7827519570687
 20
670.2315560119789
 30
0.0
 10
198.8215159020939
 20
670.2355452008547
 30
0.0
 10
198.8423082979463
 20
670.239538744674
 30
0.0
  0
SPLINE
  5
AB
330
1F
100
AcDbEntity
  8
0
  6
Continuous
 62
     7
370
    25
100
AcDbSpline
210
0.0
220
0.0
230
1.0
 70
     8
 71
     3
 72
    14
 73
    10
 74
     0
 42
0.00000001
 43
0.00000001
 40
0.0
 40
0.0
 40
0.0
 40
0.0
 40
0.25
 40
0.25
 40
0.5
 40
0.5
 40
0.75
 40
0.75
 40
1.0
 40
1.0
 40
1.0
 40
1.0
 10
196.8221732398247
 20
670.1886117718061
 30
0.0
 10
197.0463273200171
 20
670.1907792986506
 30
0.0
 10
197.2376812061579
 20
670.192979026045
 30
0.0
 10
197.591145321086
 20
670.1974071898672
 30
0.0
 10
197.7490581616481
 20
670.1996397469476
 30
0.0
 10
198.0255917739927
 20
670.2041434348506
 30
0.0
 10
198.1443861652099
 20
670.2064143952282
 30
0.0
 10
198.3412540449772
 20
670.2109962924374
 30
0.0
 10
198.4184125745602
 20
670.2133081275008
 30
0.0
 10
198.4802734013816
 20
670.215634980599
 30
0.0
  0
SPLINE
  5
AC
330
1F
100
AcDbEntity
  8
0
  6
Continuous
 62
     7
370
    25
100
AcDbSpline
210
0.0
220
0.0
230
1.0
 70
     8
 71
     3
 72
    22
 73
    18
 74
     0
 42
0.00000001
 43
0.00000001
 40
0.0
 40
0.0
 40
0.0
 40
0.0
 40
0.125
 40
0.125
 40
0.25
 40
0.25
 40
0.375
 40
0.375
 40
0.5
 40
0.5
 40
0.625
 40
0.625
 40
0.75
 40
0.75
 40
0.875
 40
0.875
 40
1.0
 40
1.0
 40
1.0
 40
1.0
 10
189.6316301034087
 20
670.1662748818264
 30
0.0
 10
190.0291877049937
 20
670.1664951732771
 30
0.0
 10
190.4202042892123
 20
670.1667996023673
 30
0.0
 10
191.1858344297067
 20
670.1676194540323
 30
0.0
 10
191.5607382940738
 20
670.1681311423506
 30
0.0
 10
192.2948002728252
 20
670.1693570578524
 30
0.0
 10
192.6563908437149
 20
670.1700774412653
 30
0.0
 10
193.3450692368921
 20
670.1716848927131
 30
0.0
 10
193.6736213840184
 20
670.1725727941821
 30
0.0
 10
194.2995820893531
 20
670.1745146531541
 30
0.0
 10
194.5969811448419
 20
670.1755686613251
 30
0.0
 10
195.1587980495708
 20
670.1778525317824
 30
0.0
 10
195.4201503255213
 20
670.1790712175535
 30
0.0
 10
195.8956732965569
 20
670.1816059200423
 30
0.0
 10
196.1114808844077
 20
670.1829292714239
 30
0.0
 10
196.4984955827344
 20
670.1856897413583
 30
0.0
 10
196.6688393132044
 20
670.1871290622262
 30
0.0
 10
196.8221732398247
 20
670.1886117718061
 30
0.0
  0
SPLINE
  5
AD
330
1F
100
AcDbEntity
  8
0
  6
Continuous
 62
     7
370
    25
100
AcDbSpline
210
0.0
220
0.0
230
1.0
 70
     8
 71
     3
 72
    14
 73
    10
 74
     0
 42
0.00000001
 43
0.00000001
 40
0.0
 40
0.0
 40
0.0
 40
0.0
 40
0.4999999999999973
 40
0.4999999999999973
 40
0.7499999999999987
 40
0.7499999999999987
 40
0.8749999999999993
 40
0.8749999999999993
 40
1.0
 40
1.0
 40
1.0
 40
1.0
 10
181.8554741642968
 20
670.1642532784435
 30
0.0
 10
183.156990607933
 20
670.164252310716
 30
0.0
 10
184.4557250590602
 20
670.1644225564849
 30
0.0
 10
186.3997623649071
 20
670.164928060658
 30
0.0
 10
187.047076561764
 20
670.1651395340705
 30
0.0
 10
188.0170390005169
 20
670.1655188327296
 30
0.0
 10
188.340234054925
 20
670.1656530052321
 30
0.0
 10
188.9861453120606
 20
670.1659508204352
 30
0.0
 10
189.3091583261146
 20
670.1660961963345
 30
0.0
 10
189.6316301034086
 20
670.1662748818264
 30
0.0
  0
SPLINE
  5
AE
330
1F
100
AcDbEntity
  8
0
  6
Continuous
 62
     7
370
    25
100
AcDbSpline
210
0.0
220
0.0
230
1.0
 70
     8
 71
     3
 72
    14
 73
    10
 74
     0
 42
0.00000001
 43
0.00000001
 40
0.0
 40
0.0
 40
0.0
 40
0.0
 40
0.1250000000000009
 40
0.1250000000000009
 40
0.2500000000000018
 40
0.2500000000000018
 40
0.5000000000000031
 40
0.5000000000000031
 40
1.0
 40
1.0
 40
1.0
 40
1.0
 10
174.0791076819879
 20
670.1662730445468
 30
0.0
 10
174.4015576651012
 20
670.1660924641799
 30
0.0
 10
174.7246248203854
 20
670.165949902316
 30
0.0
 10
175.3706324691014
 20
670.1656569760745
 30
0.0
 10
175.693731606781
 20
670.1655163843618
 30
0.0
 10
176.6637683486783
 20
670.1651401527171
 30
0.0
 10
177.3110904331501
 20
670.1649281972028
 30
0.0
 10
179.2551698787725
 20
670.1644225056859
 30
0.0
 10
180.5539641584645
 20
670.164254246166
 30
0.0
 10
181.8554741642968
 20
670.1642532784435
 30
0.0
  0
SPLINE
  5
AF
330
1F
100
AcDbEntity
  8
0
  6
Continuous
 62
     7
370
    25
100
AcDbSpline
210
0.0
220
0.0
230
1.0
 70
     8
 71
     3
 72
    22
 73
    18
 74
     0
 42
0.00000001
 43
0.00000001
 40
0.0
 40
0.0
 40
0.0
 40
0.0
 40
0.125
 40
0.125
 40
0.25
 40
0.25
 40
0.375
 40
0.375
 40
0.5
 40
0.5
 40
0.625
 40
0.625
 40
0.75
 40
0.75
 40
0.875
 40
0.875
 40
1.0
 40
1.0
 40
1.0
 40
1.0
 10
166.8897671087811
 20
670.1886126160632
 30
0.0
 10
167.0426312785987
 20
670.1871292616572
 30
0.0
 10
167.2105828707651
 20
670.1856838349878
 30
0.0
 10
167.5974377055212
 20
670.1829210671972
 30
0.0
 10
167.8144684838905
 20
670.1815990189548
 30
0.0
 10
168.291854726299
 20
670.1790638348621
 30
0.0
 10
168.554585154163
 20
670.1778424171656
 30
0.0
 10
169.1154857885178
 20
670.175564421452
 30
0.0
 10
169.4123472686937
 20
670.1745111636105
 30
0.0
 10
170.0377429215134
 20
670.1725701217036
 30
0.0
 10
170.3662084290594
 20
670.1716819788978
 30
0.0
 10
171.0555420497908
 20
670.1700749804909
 30
0.0
 10
171.4171115617217
 20
670.1693565099899
 30
0.0
 10
172.150624703541
 20
670.1681318376226
 30
0.0
 10
172.5252330714948
 20
670.1676192355349
 30
0.0
 10
173.2905387496536
 20
670.16679839427
 30
0.0
 10
173.6816664516028
 20
670.1664956219602
 30
0.0
 10
174.0791076819879
 20
670.1662730445468
 30
0.0
  0
SPLINE
  5
B0
330
1F
100
AcDbEntity
  8
0
  6
Continuous
 62
     7
370
    25
100
AcDbSpline
210
0.0
220
0.0
230
1.0
 70
     8
 71
     3
 72
    14
 73
    10
 74
     0
 42
0.00000001
 43
0.00000001
 40
0.0
 40
0.0
 40
0.0
 40
0.0
 40
0.25
 40
0.25
 40
0.5
 40
0.5
 40
0.75
 40
0.75
 40
1.0
 40
1.0
 40
1.0
 40
1.0
 10
165.2279438590883
 20
670.215775797744
 30
0.0
 10
165.2894965196314
 20
670.2134368935974
 30
0.0
 10
165.3652290651451
 20
670.2111118694659
 30
0.0
 10
165.5616442604728
 20
670.2065058207222
 30
0.0
 10
165.6804226016295
 20
670.2042229320729
 30
0.0
 10
165.9581673610911
 20
670.199696492971
 30
0.0
 10
166.117163635772
 20
670.1974529717438
 30
0.0
 10
166.4722139449084
 20
670.1930022033678
 30
0.0
 10
166.6651816656958
 20
670.1907919351733
 30
0.0
 10
166.8897671087811
 20
670.1886126160632
 30
0.0
  0
SPLINE
  5
B1
330
1F
100
AcDbEntity
  8
0
  6
Continuous
 62
     7
370
    25
100
AcDbSpline
210
0.0
220
0.0
230
1.0
 70
     8
 71
     3
 72
    12
 73
     8
 74
     0
 42
0.00000001
 43
0.00000001
 40
0.0
 40
0.0
 40
0.0
 40
0.0
 40
0.5000000000000036
 40
0.5000000000000036
 40
0.7500000000000018
 40
0.7500000000000018
 40
1.0
 40
1.0
 40
1.0
 40
1.0
 10
164.870400955278
 20
670.2395387303361
 30
0.0
 10
164.8918567055698
 20
670.235569061165
 30
0.0
 10
164.9289355360848
 20
670.2316031530329
 30
0.0
 10
165.0199199631083
 20
670.2256628047498
 30
0.0
 10
165.0550871654069
 20
670.2236838535918
 30
0.0
 10
165.1330875730672
 20
670.219727796759
 30
0.0
 10
165.175970512288
 20
670.2177507030569
 30
0.0
 10
165.2279438590883
 20
670.215775797744
 30
0.0
  0
LINE
  5
B2
330
1F
100
AcDbEntity
  8
0
  6
Continuous
 62
     7
370
    25
100
AcDbLine
 10
164.8565956426
 20
670.3011036118
 30
0.0
 11
164.8704009506
 21
670.2395387312
 31
0.0
  0
LINE
  5
B3
330
1F
100
AcDbEntity
  8
0
  6
Continuous
 62
     7
370
    25
100
AcDbLine
 10
199.8550464339
 20
694.1164343575
 30
0.0
 11
199.8550464339
 21
692.0982731113
 31
0.0
  0
LINE
  5
B4
330
1F
100
AcDbEntity
  8
0
  6
Continuous
 62
     7
370
    25
100
AcDbLine
 10
163.8551044632
 20
692.0982731113
 30
0.0
 11
163.8551044632
 21
694.1164343572
 31
0.0
  0
SPLINE
  5
B5
330
1F
100
AcDbEntity
  8
0
  6
Continuous
 62
     7
370
    25
100
AcDbSpline
210
0.0
220
0.0
230
1.0
 70
     8
 71
     3
 72
    10
 73
     6
 74
     0
 42
0.00000001
 43
0.00000001
 40
0.0
 40
0.0
 40
0.0
 40
0.0
 40
0.5
 40
0.5
 40
1.0
 40
1.0
 40
1.0
 40
1.0
 10
163.8551044613464
 20
694.11614084779
 30
0.0
 10
163.8551044613703
 20
694.248460625859
 30
0.0
 10
163.8823762492229
 20
694.3924771834702
 30
0.0
 10
164.0060811634365
 20
694.6662769340966
 30
0.0
 10
164.1029058479008
 20
694.7947066574711
 30
0.0
 10
164.2231018049504
 20
694.8940742963666
 30
0.0
  0
SPLINE
  5
B6
330
1F
100
AcDbEntity
  8
0
  6
Continuous
 62
     7
370
    25
100
AcDbSpline
210
0.0
220
0.0
230
1.0
 70
     8
 71
     3
 72
    10
 73
     6
 74
     0
 42
0.00000001
 43
0.00000001
 40
0.0
 40
0.0
 40
0.0
 40
0.0
 40
0.5
 40
0.5
 40
1.0
 40
1.0
 40
1.0
 40
1.0
 10
164.2231018049504
 20
694.8940742963666
 30
0.0
 10
164.3202025789766
 20
694.9743488320775
 30
0.0
 10
164.4316969967512
 20
695.0355342452613
 30
0.0
 10
164.659482330288
 20
695.1137595072349
 30
0.0
 10
164.7753591589608
 20
695.1310434112496
 30
0.0
 10
164.8836960071106
 20
695.1310434112523
 30
0.0
  0
LINE
  5
B7
330
1F
100
AcDbEntity
  8
0
  6
Continuous
 62
     7
370
    25
100
AcDbLine
 10
164.8836960089
 20
695.118995289
 30
0.0
 11
164.8836960089
 21
695.1444651614
 31
0.0
  0
SPLINE
  5
B8
330
1F
100
AcDbEntity
  8
0
  6
Continuous
 62
     7
370
    25
100
AcDbSpline
210
0.0
220
0.0
230
1.0
 70
     8
 71
     3
 72
    16
 73
    12
 74
     0
 42
0.00000001
 43
0.00000001
 40
0.0
 40
0.0
 40
0.0
 40
0.0
 40
0.1445578844925904
 40
0.2820183326617026
 40
0.4115521941843541
 40
0.5325416620284462
 40
0.6445656509225147
 40
0.7473756175406532
 40
0.8408661968057125
 40
0.9250443774193388
 40
0.9999999999999999
 40
0.9999999999999999
 40
0.9999999999999999
 40
0.9999999999999999
 10
199.4871955462045
 20
694.8942466995159
 30
0.0
 10
199.4600486148297
 20
694.9154024202403
 30
0.0
 10
199.4070875995929
 20
694.9566751678731
 30
0.0
 10
199.3226472257868
 20
695.0069543850298
 30
0.0
 10
199.2393141537453
 20
695.0473650656146
 30
0.0
 10
199.1583197354936
 20
695.0781566428903
 30
0.0
 10
199.0812311104054
 20
695.1006097164408
 30
0.0
 10
199.0090955318399
 20
695.1159671688537
 30
0.0
 10
198.9426734007541
 20
695.1254115848409
 30
0.0
 10
198.8824345091485
 20
695.1304870636795
 30
0.0
 10
198.8443796091129
 20
695.1310647915889
 30
0.0
 10
198.826454889995
 20
695.1313369145084
 30
0.0
  0
SPLINE
  5
B9
330
1F
100
AcDbEntity
  8
0
  6
Continuous
 62
     7
370
    25
100
AcDbSpline
210
0.0
220
0.0
230
1.0
 70
     8
 71
     3
 72
    13
 73
     9
 74
     0
 42
0.00000001
 43
0.00000001
 40
0.0
 40
0.0
 40
0.0
 40
0.0
 40
0.1022359318075981
 40
0.2311188623515937
 40
0.3868899204360704
 40
0.5687097487423757
 40
0.774102356361327
 40
1.0
 40
1.0
 40
1.0
 40
1.0
 10
199.8550463906109
 20
694.116140847803
 30
0.0
 10
199.8542532883664
 20
694.1463507238008
 30
0.0
 10
199.8524603679592
 20
694.2146444445015
 30
0.0
 10
199.8350262912693
 20
694.3280356138183
 30
0.0
 10
199.7980491275214
 20
694.4613306569835
 30
0.0
 10
199.7316343580314
 20
694.6081449716366
 30
0.0
 10
199.6309540865641
 20
694.7610855317056
 30
0.0
 10
199.5366102048924
 20
694.8484747151775
 30
0.0
 10
199.4871955462045
 20
694.8942466995159
 30
0.0
  0
LINE
  5
BA
330
1F
100
AcDbEntity
  8
0
  6
Continuous
 62
     7
370
    25
100
AcDbLine
 10
164.8836610803
 20
695.1313369118
 30
0.0
 11
181.8550754486
 21
695.1313369149
 31
0.0
  0
SPLINE
  5
BB
330
1F
100
AcDbEntity
  8
0
  6
Continuous
 62
     7
370
    25
100
AcDbSpline
210
0.0
220
0.0
230
1.0
 70
     8
 71
     3
 72
    14
 73
    10
 74
     0
 42
0.00000001
 43
0.00000001
 40
0.0
 40
0.0
 40
0.0
 40
0.0
 40
0.0090620227047031
 40
0.0180523073915753
 40
0.0342289264804181
 40
0.0668729364680934
 40
0.2059450636996807
 40
0.7516365276757712
 40
0.9999999999999999
 40
0.9999999999999999
 40
0.9999999999999999
 40
0.9999999999999999
 10
170.3049549662535
 20
650.4038095326775
 30
0.0
 10
170.306133893909
 20
650.4038061112269
 30
0.0
 10
170.3084824164322
 20
650.4037992954112
 30
0.0
 10
170.3284890118776
 20
650.4037430625174
 30
0.0
 10
170.3754722131885
 20
650.4036207462588
 30
0.0
 10
170.5622233342647
 20
650.4032248600708
 30
0.0
 10
171.33460277597
 20
650.4029288481223
 30
0.0
 10
172.3159359298168
 20
650.4025987707138
 30
0.0
 10
173.1594912125391
 20
650.4026398845756
 30
0.0
 10
173.4233373389677
 20
650.402652744116
 30
0.0
  0
SPLINE
  5
BC
330
1F
100
AcDbEntity
  8
0
  6
Continuous
 62
     7
370
    25
100
AcDbSpline
210
0.0
220
0.0
230
1.0
 70
     8
 71
     3
 72
    19
 73
    15
 74
     0
 42
0.00000001
 43
0.00000001
 40
0.0
 40
0.0
 40
0.0
 40
0.0
 40
0.2195364292566882
 40
0.4707826818336801
 40
0.6394855812972324
 40
0.7531768785352587
 40
0.8289910434682951
 40
0.8799229324533104
 40
0.9153283774090664
 40
0.9551470455253074
 40
0.9699872671353563
 40
0.9849344015113901
 40
0.9937047224453395
 40
1.0
 40
1.0
 40
1.0
 40
1.0
 10
190.2857596555347
 20
650.4026651754571
 30
0.0
 10
190.5190080212255
 20
650.4026599351834
 30
0.0
 10
191.019195126869
 20
650.402648697731
 30
0.0
 10
191.6986122698443
 20
650.4026366600141
 30
0.0
 10
192.2655833201128
 20
650.4027963758551
 30
0.0
 10
192.6449349953373
 20
650.4030671557331
 30
0.0
 10
192.9003071576065
 20
650.4031140411105
 30
0.0
 10
193.0722916559113
 20
650.4032158416767
 30
0.0
 10
193.2043023198482
 20
650.4033661192333
 30
0.0
 10
193.2965351483595
 20
650.4035333178451
 30
0.0
 10
193.3598902055469
 20
650.4036833126655
 30
0.0
 10
193.3894000495433
 20
650.4037620759549
 30
0.0
 10
193.4041273656771
 20
650.4038039751973
 30
0.0
 10
193.4054836632553
 20
650.4038078948297
 30
0.0
 10
193.4060504027518
 20
650.4038095326786
 30
0.0
  0
SPLINE
  5
BD
330
1F
100
AcDbEntity
  8
0
  6
Continuous
 62
     7
370
    25
100
AcDbSpline
210
0.0
220
0.0
230
1.0
 70
     8
 71
     3
 72
    38
 73
    34
 74
     0
 42
0.00000001
 43
0.00000001
 40
0.0
 40
0.0
 40
0.0
 40
0.0
 40
0.0625
 40
0.0625
 40
0.125
 40
0.125
 40
0.1875
 40
0.1875
 40
0.25
 40
0.25
 40
0.3125
 40
0.3125
 40
0.375
 40
0.375
 40
0.4375
 40
0.4375
 40
0.5
 40
0.5
 40
0.5625
 40
0.5625
 40
0.625
 40
0.625
 40
0.6875
 40
0.6875
 40
0.75
 40
0.75
 40
0.8125
 40
0.8125
 40
0.875
 40
0.875
 40
0.9375
 40
0.9375
 40
1.0
 40
1.0
 40
1.0
 40
1.0
 10
199.8555149562256
 20
605.4026668207075
 30
0.0
 10
199.8555149562257
 20
607.9563830762928
 30
0.0
 10
199.8555149564212
 20
610.5089693669256
 30
0.0
 10
199.8555149679979
 20
615.5105950688117
 30
0.0
 10
199.8555149793586
 20
617.9597206097504
 30
0.0
 10
199.8555150196971
 20
622.6788789466871
 30
0.0
 10
199.8555150486544
 20
624.9489978723701
 30
0.0
 10
199.8555151269132
 20
629.2575820472109
 30
0.0
 10
199.855515176194
 20
631.2961334260543
 30
0.0
 10
199.8555152947399
 20
635.1094226190444
 30
0.0
 10
199.8555153639842
 20
636.8842465628767
 30
0.0
 10
199.8555155196271
 20
640.1557381505233
 30
0.0
 10
199.855515606005
 20
641.6524919240233
 30
0.0
 10
199.8555157912328
 20
644.3687336979684
 30
0.0
 10
199.8555158900622
 20
645.588307828099
 30
0.0
 10
199.8555160942759
 20
647.7637302139897
 30
0.0
 10
199.8555161996397
 20
648.7196645994351
 30
0.0
 10
199.8555164103878
 20
650.3914128757964
 30
0.0
 10
199.8555165157516
 20
651.1073128963977
 30
0.0
 10
199.8555167199653
 20
652.3300794135041
 30
0.0
 10
199.8555168187946
 20
652.8370320396946
 30
0.0
 10
199.8555170040224
 20
653.6778884384412
 30
0.0
 10
199.8555170904003
 20
654.0118783406829
 30
0.0
 10
199.8555172460432
 20
654.5451077714578
 30
0.0
 10
199.8555173152875
 20
654.7444334296767
 30
0.0
 10
199.8555174338333
 20
655.0463627712325
 30
0.0
 10
199.8555174831142
 20
655.1490525842548
 30
0.0
 10
199.8555175613729
 20
655.2928846625798
 30
0.0
 10
199.8555175903303
 20
655.3341130575681
 30
0.0
 10
199.8555176306687
 20
655.3847588647585
 30
0.0
 10
199.8555176420294
 20
655.3942624066464
 30
0.0
 10
199.8555176536061
 20
655.4031733197781
 30
0.0
 10
199.8555176538015
 20
655.4026668207075
 30
0.0
 10
199.8555176538015
 20
655.4026668207076
 30
0.0
  0
SPLINE
  5
BE
330
1F
100
AcDbEntity
  8
0
  6
Continuous
 62
     7
370
    25
100
AcDbSpline
210
0.0
220
0.0
230
1.0
 70
     8
 71
     3
 72
    38
 73
    34
 74
     0
 42
0.00000001
 43
0.00000001
 40
0.0
 40
0.0
 40
0.0
 40
0.0
 40
0.0625
 40
0.0625
 40
0.125
 40
0.125
 40
0.1875
 40
0.1875
 40
0.25
 40
0.25
 40
0.3125
 40
0.3125
 40
0.375
 40
0.375
 40
0.4375
 40
0.4375
 40
0.5
 40
0.5
 40
0.5625
 40
0.5625
 40
0.625
 40
0.625
 40
0.6875
 40
0.6875
 40
0.75
 40
0.75
 40
0.8125
 40
0.8125
 40
0.875
 40
0.875
 40
0.9375
 40
0.9375
 40
1.0
 40
1.0
 40
1.0
 40
1.0
 10
163.8555176538015
 20
655.4026668207077
 30
0.0
 10
163.8555176538015
 20
655.4026668207077
 30
0.0
 10
163.8555176536061
 20
655.4031733197783
 30
0.0
 10
163.8555176420293
 20
655.3942624066466
 30
0.0
 10
163.8555176306687
 20
655.3847588647587
 30
0.0
 10
163.8555175903302
 20
655.3341130575683
 30
0.0
 10
163.8555175613729
 20
655.29288466258
 30
0.0
 10
163.8555174831141
 20
655.149052584255
 30
0.0
 10
163.8555174338333
 20
655.0463627712327
 30
0.0
 10
163.8555173152875
 20
654.7444334296769
 30
0.0
 10
163.8555172460431
 20
654.5451077714579
 30
0.0
 10
163.8555170904003
 20
654.011878340683
 30
0.0
 10
163.8555170040224
 20
653.6778884384413
 30
0.0
 10
163.8555168187945
 20
652.8370320396947
 30
0.0
 10
163.8555167199652
 20
652.3300794135042
 30
0.0
 10
163.8555165157515
 20
651.1073128963978
 30
0.0
 10
163.8555164103878
 20
650.3914128757966
 30
0.0
 10
163.8555161996396
 20
648.7196645994353
 30
0.0
 10
163.8555160942759
 20
647.7637302139898
 30
0.0
 10
163.8555158900622
 20
645.5883078280991
 30
0.0
 10
163.8555157912329
 20
644.3687336979685
 30
0.0
 10
163.855515606005
 20
641.6524919240235
 30
0.0
 10
163.8555155196271
 20
640.1557381505236
 30
0.0
 10
163.8555153639842
 20
636.8842465628768
 30
0.0
 10
163.8555152947399
 20
635.1094226190444
 30
0.0
 10
163.855515176194
 20
631.2961334260543
 30
0.0
 10
163.8555151269132
 20
629.257582047211
 30
0.0
 10
163.8555150486544
 20
624.9489978723702
 30
0.0
 10
163.8555150196971
 20
622.6788789466872
 30
0.0
 10
163.8555149793585
 20
617.9597206097507
 30
0.0
 10
163.8555149679979
 20
615.5105950688118
 30
0.0
 10
163.8555149564211
 20
610.5089693669257
 30
0.0
 10
163.8555149562256
 20
607.956383076293
 30
0.0
 10
163.8555149562256
 20
605.4026668207076
 30
0.0
  0
LINE
  5
BF
330
1F
100
AcDbEntity
  8
0
  6
Continuous
 62
     7
370
    25
100
AcDbLine
 10
158.7554679603
 20
410.3343265326
 30
0.0
 11
204.9554679603
 21
410.3343265326
 31
0.0
  0
LINE
  5
C0
330
1F
100
AcDbEntity
  8
0
  6
Continuous
 62
     7
370
    25
100
AcDbLine
 10
158.7554679603
 20
415.3343265333
 30
0.0
 11
204.9554679603
 21
415.3343265333
 31
0.0
  0
ARC
  5
C1
330
1F
100
AcDbEntity
  8
0
  6
Continuous
 62
     7
370
    25
100
AcDbCircle
 10
204.9554679603
 20
414.3343265333
 30
0.0
 40
1.0
100
AcDbArc
 50
0.0
 51
90.0
  0
LINE
  5
C2
330
1F
100
AcDbEntity
  8
0
  6
Continuous
 62
     7
370
    25
100
AcDbLine
 10
205.9554679603
 20
414.3343265333
 30
0.0
 11
205.9554679603
 21
410.3343265326
 31
0.0
  0
LINE
  5
C3
330
1F
100
AcDbEntity
  8
0
  6
Continuous
 62
     7
370
    25
100
AcDbLine
 10
204.9554679603
 20
410.3343265326
 30
0.0
 11
205.9554679603
 21
410.3343265326
 31
0.0
  0
ARC
  5
C4
330
1F
100
AcDbEntity
  8
0
  6
Continuous
 62
     7
370
    25
100
AcDbCircle
 10
158.7554679603
 20
414.3343265333
 30
0.0
 40
1.000000000000028
100
AcDbArc
 50
90.0
 51
180.0
  0
LINE
  5
C5
330
1F
100
AcDbEntity
  8
0
  6
Continuous
 62
     7
370
    25
100
AcDbLine
 10
157.7554679603
 20
410.3343265326
 30
0.0
 11
157.7554679603
 21
414.3343265333
 31
0.0
  0
LINE
  5
C6
330
1F
100
AcDbEntity
  8
0
  6
Continuous
 62
     7
370
    25
100
AcDbLine
 10
157.7554679603
 20
410.3343265326
 30
0.0
 11
158.7554679603
 21
410.3343265326
 31
0.0
  0
SPLINE
  5
C7
330
1F
100
AcDbEntity
  8
0
  6
Continuous
 62
     7
370
    25
100
AcDbSpline
210
0.0
220
0.0
230
1.0
 70
     8
 71
     3
 72
    10
 73
     6
 74
     0
 42
0.00000001
 43
0.00000001
 40
0.0
 40
0.0
 40
0.0
 40
0.0
 40
0.140237219944136
 40
0.4411018757567376
 40
1.0
 40
1.0
 40
1.0
 40
1.0
 10
162.7440262326062
 20
417.2333704914436
 30
0.0
 10
162.8460878181873
 20
417.3524834883847
 30
0.0
 10
163.1671121287121
 20
417.7271412746604
 30
0.0
 10
163.6759698246845
 20
418.7462608310581
 30
0.0
 10
163.7847555196036
 20
419.7086894816813
 30
0.0
 10
163.8554728409919
 20
420.3343266690881
 30
0.0
  0
ARC
  5
C8
330
1F
100
AcDbEntity
  8
0
  6
Continuous
 62
     7
370
    25
100
AcDbCircle
 10
204.8554769888
 20
420.3343265341
 30
0.0
 40
5.000000000935074
100
AcDbArc
 50
179.9999996668
 51
269.9999999906
  0
LINE
  5
C9
330
1F
100
AcDbEntity
  8
0
  6
Continuous
 62
     7
370
    25
100
AcDbLine
 10
199.8554760952
 20
431.3343265257
 30
0.0
 11
199.8554760952
 21
420.3343265632
 31
0.0
  0
LINE
  5
CA
330
1F
100
AcDbEntity
  8
0
  6
Continuous
 62
     7
370
    25
100
AcDbLine
 10
199.855476988
 20
431.3343265257
 30
0.0
 11
199.8554769441
 21
460.4026674753
 31
0.0
  0
LINE
  5
CB
330
1F
100
AcDbEntity
  8
0
  6
Continuous
 62
     7
370
    25
100
AcDbLine
 10
163.855472841
 20
431.3343266691
 30
0.0
 11
163.8554720514
 21
460.4026674753
 31
0.0
  0
LINE
  5
CC
330
1F
100
AcDbEntity
  8
0
  6
Continuous
 62
     7
370
    25
100
AcDbLine
 10
163.855493767
 20
590.4026674753
 30
0.0
 11
163.855493767
 21
460.4026674753
 31
0.0
  0
LINE
  5
CD
330
1F
100
AcDbEntity
  8
0
  6
Continuous
 62
     7
370
    25
100
AcDbLine
 10
199.8554755862
 20
590.4026674753
 30
0.0
 11
199.8554755862
 21
460.4026674753
 31
0.0
  0
LINE
  5
CE
330
1F
100
AcDbEntity
  8
0
  6
Continuous
 62
     7
370
    25
100
AcDbLine
 10
199.8555146697
 20
590.4026674753
 30
0.0
 11
199.855514647
 21
605.4026674473
 31
0.0
  0
LINE
  5
CF
330
1F
100
AcDbEntity
  8
0
  6
Continuous
 62
     7
370
    25
100
AcDbLine
 10
163.8555124834
 20
590.4026674753
 30
0.0
 11
163.8555124607
 21
605.4026674473
 31
0.0
  0
SPLINE
  5
D0
330
1F
100
AcDbEntity
  8
0
  6
Continuous
 62
     7
370
    25
100
AcDbSpline
210
0.0
220
0.0
230
1.0
 70
     8
 71
     3
 72
    10
 73
     6
 74
     0
 42
0.00000001
 43
0.00000001
 40
0.0
 40
0.0
 40
0.0
 40
0.0
 40
0.5
 40
0.5
 40
1.0
 40
1.0
 40
1.0
 40
1.0
 10
199.8550462991617
 20
675.2203846422087
 30
0.0
 10
199.8549234711482
 20
675.1801927088314
 30
0.0
 10
199.7686887402551
 20
675.0919205970706
 30
0.0
 10
199.4937608482129
 20
674.8921461970879
 30
0.0
 10
199.3016506068329
 20
674.779325388508
 30
0.0
 10
199.0920160654579
 20
674.6738964252838
 30
0.0
  0
SPLINE
  5
D1
330
1F
100
AcDbEntity
  8
0
  6
Continuous
 62
     7
370
    25
100
AcDbSpline
210
0.0
220
0.0
230
1.0
 70
    24
 71
     3
 72
    14
 73
    10
 74
     0
 42
0.00000001
 43
0.00000001
 40
0.0000000000000009
 40
0.0000000000000009
 40
0.0000000000000009
 40
0.0000000000000009
 40
0.0027220924773576
 40
0.0027220924773576
 40
0.0027220924773576
 40
0.0054441839602498
 40
0.0054441839602498
 40
0.0054441839602498
 40
0.0104862958462568
 40
0.0104862958462568
 40
0.0104862958462568
 40
0.0104862958462568
 10
199.8550464338888
 20
676.9560127847518
 30
0.0
 10
199.8550464338888
 20
676.8063847813887
 30
0.0
 10
199.8550464338888
 20
676.6557009107232
 30
0.0
 10
199.8550464338888
 20
676.5049978665993
 30
0.0
 10
199.8550464338888
 20
676.3542948674801
 30
0.0
 10
199.8550464338888
 20
676.2036013685171
 30
0.0
 10
199.8550464338888
 20
676.0533747055449
 30
0.0
 10
199.8550464338888
 20
675.7751108616372
 30
0.0
 10
199.8550464338889
 20
675.497354554582
 30
0.0
 10
199.8550464338889
 20
675.220393961205
 30
0.0
  0
SPLINE
  5
D2
330
1F
100
AcDbEntity
  8
0
  6
Continuous
 62
     7
370
    25
100
AcDbSpline
210
0.0
220
0.0
230
1.0
 70
     8
 71
     3
 72
    12
 73
     8
 74
     0
 42
0.00000001
 43
0.00000001
 40
0.0
 40
0.0
 40
0.0
 40
0.0
 40
0.5000000000000133
 40
0.5000000000000133
 40
0.7500000000000067
 40
0.7500000000000067
 40
1.0
 40
1.0
 40
1.0
 40
1.0
 10
164.6179829872118
 20
674.6738924131432
 30
0.0
 10
164.4075650712775
 20
674.7797135478103
 30
0.0
 10
164.2158499310626
 20
674.8923817229977
 30
0.0
 10
164.0098453066778
 20
675.0421363253215
 30
0.0
 10
163.95416901174
 20
675.0886147779547
 30
0.0
 10
163.8763582751832
 20
675.1679719885518
 30
0.0
 10
163.8551057632355
 20
675.2000905842146
 30
0.0
 10
163.8551044632497
 20
675.2203561851253
 30
0.0
  0
SPLINE
  5
D3
330
1F
100
AcDbEntity
  8
0
  6
Continuous
 62
     7
370
    25
100
AcDbSpline
210
0.0
220
0.0
230
1.0
 70
    24
 71
     3
 72
    14
 73
    10
 74
     0
 42
0.00000001
 43
0.00000001
 40
0.0
 40
0.0
 40
0.0
 40
0.0
 40
0.0026283545570111
 40
0.0026283545570111
 40
0.0026283545570111
 40
0.0052567090778632
 40
0.0052567090778632
 40
0.0052567090778632
 40
0.0104863578434055
 40
0.0104863578434055
 40
0.0104863578434055
 40
0.0104863578434055
 10
163.8551044632089
 20
675.220356186794
 30
0.0
 10
163.8551044632089
 20
675.3647574471493
 30
0.0
 10
163.8551044632089
 20
675.5093605472667
 30
0.0
 10
163.8551044632089
 20
675.6541759224009
 30
0.0
 10
163.8551044632089
 20
675.7989912966088
 30
0.0
 10
163.8551044632088
 20
675.944016621422
 30
0.0
 10
163.8551044632088
 20
676.0891637078672
 30
0.0
 10
163.8551044632088
 20
676.3779635108533
 30
0.0
 10
163.8551044632088
 20
676.6691054681555
 30
0.0
 10
163.8551044632088
 20
676.9568937773022
 30
0.0
  0
LINE
  5
D4
330
1F
100
AcDbEntity
  8
0
  6
Continuous
 62
     7
370
    25
100
AcDbLine
 10
163.8554717418
 20
460.4026674753
 30
0.0
 11
163.8554725314
 21
431.3343266691
 31
0.0
  0
LINE
  5
D5
330
1F
100
AcDbEntity
  8
0
  6
Continuous
 62
     7
370
    25
100
AcDbLine
 10
163.855472465
 20
431.3343266691
 30
0.0
 11
163.855472465
 21
420.3343267065
 31
0.0
  0
LINE
  5
D6
330
1F
100
AcDbEntity
  8
0
  6
Continuous
 62
     7
370
    25
100
AcDbLine
 10
163.8554923064
 20
590.4026674753
 30
0.0
 11
163.8554923064
 21
460.4026674753
 31
0.0
  0
LINE
  5
D7
330
1F
100
AcDbEntity
  8
0
  6
Continuous
 62
     8
370
    18
100
AcDbLine
 10
198.8555145565
 20
665.4026684469
 30
0.0
 11
164.8555123702
 21
665.4026684469
 31
0.0
  0
SPLINE
  5
D8
330
1F
100
AcDbEntity
  8
0
  6
Continuous
 62
     8
370
    18
100
AcDbSpline
210
0.0
220
0.0
230
1.0
 70
    24
 71
     3
 72
    10
 73
     6
 74
     0
 42
0.00000001
 43
0.00000001
 40
0.0
 40
0.0
 40
0.0
 40
0.0
 40
0.5
 40
0.5
 40
1.0
 40
1.0
 40
1.0
 40
1.0
 10
164.855512370219
 20
665.4026684469168
 30
0.0
 10
164.855512370163
 20
665.6644678347153
 30
0.0
 10
164.8555123701072
 20
665.9246551056785
 30
0.0
 10
164.855512370028
 20
666.2948953505237
 30
0.0
 10
164.8555123700049
 20
666.4026684469134
 30
0.0
 10
164.8555123700049
 20
666.4026684469134
 30
0.0
  0
LINE
  5
D9
330
1F
100
AcDbEntity
  8
0
  6
Continuous
 62
     8
370
    18
100
AcDbLine
 10
198.8555145564
 20
666.4026684469
 30
0.0
 11
198.8555145565
 21
665.4026684475
 31
0.0
  0
SPLINE
  5
DA
330
1F
100
AcDbEntity
  8
0
  6
Continuous
 62
     8
370
    18
100
AcDbSpline
210
0.0
220
0.0
230
1.0
 70
    24
 71
     3
 72
    10
 73
     6
 74
     0
 42
0.00000001
 43
0.00000001
 40
0.0
 40
0.0
 40
0.0
 40
0.0
 40
0.5
 40
0.5
 40
1.0
 40
1.0
 40
1.0
 40
1.0
 10
164.855512370219
 20
665.4026684469168
 30
0.0
 10
164.5937129824199
 20
665.4026684465218
 30
0.0
 10
164.3335257114557
 20
665.4026684461292
 30
0.0
 10
163.9632854666092
 20
665.4026684455705
 30
0.0
 10
163.855512370219
 20
665.4026684454079
 30
0.0
 10
163.855512370219
 20
665.4026684454079
 30
0.0
  0
LINE
  5
DB
330
1F
100
AcDbEntity
  8
0
  6
Continuous
 62
     8
370
    18
100
AcDbLine
 10
164.8555123702
 20
665.4026684469
 30
0.0
 11
164.8555123853
 21
655.403265795
 31
0.0
  0
SPLINE
  5
DC
330
1F
100
AcDbEntity
  8
0
  6
Continuous
 62
     8
370
    18
100
AcDbSpline
210
0.0
220
0.0
230
1.0
 70
    24
 71
     3
 72
    10
 73
     6
 74
     0
 42
0.00000001
 43
0.00000001
 40
0.0
 40
0.0
 40
0.0
 40
0.0
 40
0.5
 40
0.5
 40
1.0
 40
1.0
 40
1.0
 40
1.0
 10
164.8555174744159
 20
655.4032657949638
 30
0.0
 10
164.5937181335797
 20
655.4031089838767
 30
0.0
 10
164.3335309092893
 20
655.4029531384058
 30
0.0
 10
163.9632907308583
 20
655.4027313740396
 30
0.0
 10
163.8555176538011
 20
655.402666820732
 30
0.0
 10
163.8555176538011
 20
655.402666820732
 30
0.0
  0
LINE
  5
DD
330
1F
100
AcDbEntity
  8
0
  6
Continuous
 62
     8
370
    18
100
AcDbLine
 10
198.8555145716
 20
655.4026671553
 30
0.0
 11
198.8555145565
 21
665.4026684475
 31
0.0
  0
SPLINE
  5
DE
330
1F
100
AcDbEntity
  8
0
  6
Continuous
 62
     8
370
    18
100
AcDbSpline
210
0.0
220
0.0
230
1.0
 70
     8
 71
     3
 72
    26
 73
    22
 74
     0
 42
0.00000001
 43
0.00000001
 40
0.0
 40
0.0
 40
0.0
 40
0.0
 40
0.2499999999999816
 40
0.2499999999999816
 40
0.3749999999999727
 40
0.3749999999999727
 40
0.4999999999999638
 40
0.4999999999999638
 40
0.5624999999999611
 40
0.5624999999999611
 40
0.5937499999999627
 40
0.5937499999999627
 40
0.6249999999999643
 40
0.6249999999999643
 40
0.6874999999999702
 40
0.6874999999999702
 40
0.7499999999999761
 40
0.7499999999999761
 40
0.8749999999999881
 40
0.8749999999999881
 40
1.0
 40
1.0
 40
1.0
 40
1.0
 10
193.4060503895504
 20
651.403813714555
 30
0.0
 10
194.0967985049618
 20
651.4058197821541
 30
0.0
 10
194.7873560689409
 20
651.4121697115262
 30
0.0
 10
195.8211761649926
 20
651.467657581702
 30
0.0
 10
196.1656412311845
 20
651.4954668835261
 30
0.0
 10
196.8517323125231
 20
651.5908245391066
 30
0.0
 10
197.1901371770818
 20
651.656546291756
 30
0.0
 10
197.6761260708296
 20
651.8391811608029
 30
0.0
 10
197.8348873773422
 20
651.9166142952123
 30
0.0
 10
198.0456337552496
 20
652.0692135474239
 30
0.0
 10
198.112378914769
 20
652.1271246599952
 30
0.0
 10
198.2324456670188
 20
652.2531373498457
 30
0.0
 10
198.2855788577924
 20
652.3213670927582
 30
0.0
 10
198.428147547134
 20
652.5387971966753
 30
0.0
 10
198.5007526710372
 20
652.6992115720183
 30
0.0
 10
198.614766157476
 20
653.0213799303554
 30
0.0
 10
198.6575494287752
 20
653.1861881022114
 30
0.0
 10
198.7627556983789
 20
653.6866720658666
 30
0.0
 10
198.8002530560944
 20
654.0299967289028
 30
0.0
 10
198.8474748221632
 20
654.7153957062211
 30
0.0
 10
198.8553002654913
 20
655.05884962116
 30
0.0
 10
198.855517462783
 20
655.4026671535122
 30
0.0
  0
LINE
  5
DF
330
1F
100
AcDbEntity
  8
0
  6
Continuous
 62
     8
370
    18
100
AcDbLine
 10
170.3049549825
 20
651.403813719
 30
0.0
 11
193.4060503896
 21
651.4038137146
 31
0.0
  0
SPLINE
  5
E0
330
1F
100
AcDbEntity
  8
0
  6
Continuous
 62
     8
370
    18
100
AcDbSpline
210
0.0
220
0.0
230
1.0
 70
     8
 71
     3
 72
    24
 73
    20
 74
     0
 42
0.00000001
 43
0.00000001
 40
0.0
 40
0.0
 40
0.0
 40
0.0
 40
0.1250000000000076
 40
0.1250000000000076
 40
0.2500000000000152
 40
0.2500000000000152
 40
0.3125000000000134
 40
0.3125000000000134
 40
0.3750000000000117
 40
0.3750000000000117
 40
0.43750000000001
 40
0.43750000000001
 40
0.5000000000000083
 40
0.5000000000000083
 40
0.6250000000000061
 40
0.6250000000000061
 40
0.7500000000000039
 40
0.7500000000000039
 40
1.0
 40
1.0
 40
1.0
 40
1.0
 10
164.855517474416
 20
655.4032657949639
 30
0.0
 10
164.855723501775
 20
655.0592988746429
 30
0.0
 10
164.8635506807941
 20
654.7157782130856
 30
0.0
 10
164.9107228559503
 20
654.0305824249682
 30
0.0
 10
164.9481923426576
 20
653.6865551419672
 30
0.0
 10
165.0540423970592
 20
653.1838037998559
 30
0.0
 10
165.0971030399192
 20
653.0183481397788
 30
0.0
 10
165.2119076903849
 20
652.6952855238937
 30
0.0
 10
165.2847448724765
 20
652.5354888546675
 30
0.0
 10
165.4738965669221
 20
652.2479657911151
 30
0.0
 10
165.5959593639583
 20
652.1195702786093
 30
0.0
 10
165.8745895003781
 20
651.9176591048969
 30
0.0
 10
166.0325689083728
 20
651.8402911803803
 30
0.0
 10
166.5163161776362
 20
651.6577979935291
 30
0.0
 10
166.8583501486212
 20
651.5910336651355
 30
0.0
 10
167.5423711246942
 20
651.4958053671519
 30
0.0
 10
167.8873628219547
 20
651.4678284610779
 30
0.0
 10
168.9226884617604
 20
651.4121488200192
 30
0.0
 10
169.6137616925148
 20
651.4058221565862
 30
0.0
 10
170.3049549824922
 20
651.4038137190489
 30
0.0
  0
SPLINE
  5
E1
330
1F
100
AcDbEntity
  8
0
  6
Continuous
 62
     8
370
    18
100
AcDbSpline
210
0.0
220
0.0
230
1.0
 70
     8
 71
     3
 72
    20
 73
    16
 74
     0
 42
0.00000001
 43
0.00000001
 40
0.0
 40
0.0
 40
0.0
 40
0.0
 40
0.0602269649417661
 40
0.1211095127946035
 40
0.182647627607158
 40
0.244841293245359
 40
0.3076904933927379
 40
0.3711952115492569
 40
0.4353554310312507
 40
0.5001711349709511
 40
0.5807093734243133
 40
0.670966938168043
 40
0.7709385540730183
 40
0.8806183781668893
 40
0.9999999999999999
 40
0.9999999999999999
 40
0.9999999999999999
 40
0.9999999999999999
 10
199.8555176538011
 20
655.4026668207316
 30
0.0
 10
199.8546557295038
 20
655.4026667966513
 30
0.0
 10
199.852922498686
 20
655.4026667482286
 30
0.0
 10
199.8388281402956
 20
655.4026665204152
 30
0.0
 10
199.8161149307783
 20
655.40266634345
 30
0.0
 10
199.7838731165008
 20
655.4026662740727
 30
0.0
 10
199.7423511865599
 20
655.4026663470995
 30
0.0
 10
199.6916154002004
 20
655.4026665559252
 30
0.0
 10
199.63191902024
 20
655.4026667725395
 30
0.0
 10
199.5583278626289
 20
655.4026670889942
 30
0.0
 10
199.4655754626648
 20
655.4026662458136
 30
0.0
 10
199.3473079583156
 20
655.4026650754779
 30
0.0
 10
199.2046587102627
 20
655.4026649909858
 30
0.0
 10
199.0381014699283
 20
655.4026663539427
 30
0.0
 10
198.9180733776816
 20
655.4026668795682
 30
0.0
 10
198.855517462783
 20
655.4026671535122
 30
0.0
  0
LINE
  5
E2
330
1F
100
AcDbEntity
  8
0
  6
Continuous
 62
     8
370
    18
100
AcDbLine
 10
199.8555145565
 20
665.4026684484
 30
0.0
 11
198.8555145565
 21
665.4026684475
 31
0.0
  0
ARC
  5
E3
330
1F
100
AcDbEntity
  8
0
  6
Continuous
 62
     8
370
    18
100
AcDbCircle
 10
106.5961623
 20
650.9038105693
 30
0.0
 40
86.81132802381781
100
AcDbArc
 50
359.669995746
 51
0.3300056457
  0
LINE
  5
E4
330
1F
100
AcDbEntity
  8
0
  6
Continuous
 62
     8
370
    18
100
AcDbLine
 10
170.3049549825
 20
651.403813719
 30
0.0
 11
170.3049549703
 21
650.4038095327
 31
0.0
  0
LINE
  5
E5
330
1F
100
AcDbEntity
  8
0
  6
Continuous
 62
     8
370
    18
100
AcDbLine
 10
180.1840039208
 20
649.4038095327
 30
0.0
 11
180.1788243681
 21
650.4038095327
 31
0.0
  0
LINE
  5
E6
330
1F
100
AcDbEntity
  8
0
  6
Continuous
 62
     8
370
    18
100
AcDbLine
 10
180.2874799964
 20
649.4038095327
 30
0.0
 11
180.2823412176
 21
650.4038095327
 31
0.0
  0
LINE
  5
E7
330
1F
100
AcDbEntity
  8
0
  6
Continuous
 62
     8
370
    18
100
AcDbLine
 10
174.9263621067
 20
650.4038095327
 30
0.0
 11
174.9314769677
 21
649.4038095327
 31
0.0
  0
LINE
  5
E8
330
1F
100
AcDbEntity
  8
0
  6
Continuous
 62
     8
370
    18
100
AcDbLine
 10
185.9704730637
 20
650.4038095327
 30
0.0
 11
185.9621673999
 21
649.4038095327
 31
0.0
  0
LINE
  5
E9
330
1F
100
AcDbEntity
  8
0
  6
Continuous
 62
     8
370
    18
100
AcDbLine
 10
185.867187208
 20
650.4038095327
 30
0.0
 11
185.8589295653
 21
649.4038095327
 31
0.0
  0
LINE
  5
EA
330
1F
100
AcDbEntity
  8
0
  6
Continuous
 62
     8
370
    18
100
AcDbLine
 10
173.4764532268
 20
649.4038095327
 30
0.0
 11
173.4681955842
 21
650.4038095327
 31
0.0
  0
LINE
  5
EB
330
1F
100
AcDbEntity
  8
0
  6
Continuous
 62
     8
370
    18
100
AcDbLine
 10
164.5396831071
 20
674.7178987333
 30
0.0
 11
164.2790831692
 21
676.1402079911
 31
0.0
  0
SPLINE
  5
EC
330
1F
100
AcDbEntity
  8
0
  6
Continuous
 62
     8
370
    18
100
AcDbSpline
210
0.0
220
0.0
230
1.0
 70
     8
 71
     3
 72
    12
 73
     8
 74
     0
 42
0.00000001
 43
0.00000001
 40
8.172668223544338
 40
8.172668223544338
 40
8.172668223544338
 40
8.172668223544338
 40
8.17611505806523
 40
8.17611505806523
 40
8.46866705694301
 40
8.46866705694301
 40
8.487454801976552
 40
8.487454801976552
 40
8.487454801976552
 40
8.487454801976552
 10
164.1845695616618
 20
676.3559816636209
 30
0.0
 10
164.1849351276441
 20
676.3551991103228
 30
0.0
 10
164.1853004728961
 20
676.3544164894595
 30
0.0
 10
164.2166558128938
 20
676.2872025417258
 30
0.0
 10
164.2459922694498
 20
676.2204285389262
 30
0.0
 10
164.2755361090516
 20
676.148854709876
 30
0.0
 10
164.2773128659296
 20
676.1445324120359
 30
0.0
 10
164.2790831691991
 20
676.140207991091
 30
0.0
  0
SPLINE
  5
ED
330
1F
100
AcDbEntity
  8
0
  6
Continuous
 62
     8
370
    18
100
AcDbSpline
210
0.0
220
0.0
230
1.0
 70
     8
 71
     3
 72
    16
 73
    12
 74
     0
 42
0.00000001
 43
0.00000001
 40
8.487454801976728
 40
8.487454801976728
 40
8.487454801976728
 40
8.487454801976728
 40
8.505695716722917
 40
8.505695716722917
 40
8.523980216652777
 40
8.523980216652777
 40
8.542264716582638
 40
8.542264716582638
 40
8.578833716442368
 40
8.578833716442368
 40
8.64852488164074
 40
8.64852488164074
 40
8.64852488164074
 40
8.64852488164074
 10
164.1318010323145
 20
676.4654025724496
 30
0.0
 10
164.1338594059105
 20
676.4612623212838
 30
0.0
 10
164.1359084778237
 20
676.457124965268
 30
0.0
 10
164.1399859295718
 20
676.4488720444807
 30
0.0
 10
164.1420194091858
 20
676.4447417793943
 30
0.0
 10
164.1460783728038
 20
676.4364682291764
 30
0.0
 10
164.1480939229968
 20
676.4323452764783
 30
0.0
 10
164.1541324990238
 20
676.4199492256795
 30
0.0
 10
164.1581416506678
 20
676.411660358804
 30
0.0
 10
164.1696966502071
 20
676.387598759511
 30
0.0
 10
164.1771782235786
 20
676.3718040220306
 30
0.0
 10
164.1845695616618
 20
676.355981663621
 30
0.0
  0
SPLINE
  5
EE
330
1F
100
AcDbEntity
  8
0
  6
Continuous
 62
     8
370
    18
100
AcDbSpline
210
0.0
220
0.0
230
1.0
 70
     8
 71
     3
 72
    16
 73
    12
 74
     0
 42
0.00000001
 43
0.00000001
 40
8.648524881646177
 40
8.648524881646177
 40
8.648524881646177
 40
8.648524881646177
 40
8.673847827925648
 40
8.673847827925648
 40
8.746985827645089
 40
8.746985827645089
 40
8.783554827504819
 40
8.783554827504819
 40
8.80183932743468
 40
8.80183932743468
 40
8.801882912612912
 40
8.801882912612912
 40
8.801882912612912
 40
8.801882912612912
 10
164.0784514756528
 20
676.5697361842531
 30
0.0
 10
164.0814699001687
 20
676.5639936090823
 30
0.0
 10
164.0844783366065
 20
676.5582427181104
 30
0.0
 10
164.0961155215798
 20
676.5358998273647
 30
0.0
 10
164.1046271297038
 20
676.5193424628018
 30
0.0
 10
164.1172627682028
 20
676.4944347848052
 30
0.0
 10
164.1214306524298
 20
676.4861636007593
 30
0.0
 10
164.1276609704138
 20
676.473716143363
 30
0.0
 10
164.1297229407558
 20
676.4695824086347
 30
0.0
 10
164.1317911956278
 20
676.4654223580551
 30
0.0
 10
164.1317961139968
 20
676.4654124652459
 30
0.0
 10
164.1318010323126
 20
676.4654025724535
 30
0.0
  0
SPLINE
  5
EF
330
1F
100
AcDbEntity
  8
0
  6
Continuous
 62
     8
370
    18
100
AcDbSpline
210
0.0
220
0.0
230
1.0
 70
     8
 71
     3
 72
    18
 73
    14
 74
     0
 42
0.00000001
 43
0.00000001
 40
8.801882912619146
 40
8.801882912619146
 40
8.801882912619146
 40
8.801882912619146
 40
8.809500601130447
 40
8.809500601130447
 40
8.818642851095378
 40
8.818642851095378
 40
8.836927351025237
 40
8.836927351025237
 40
8.910065350744677
 40
8.910065350744677
 40
8.946634350604407
 40
8.946634350604407
 40
8.957880404178422
 40
8.957880404178422
 40
8.957880404178422
 40
8.957880404178422
 10
164.0215249941704
 20
676.6749230400728
 30
0.0
 10
164.0224697879188
 20
676.6732277575713
 30
0.0
 10
164.0234148640234
 20
676.6715298337671
 30
0.0
 10
164.0254805190248
 20
676.6678123317951
 30
0.0
 10
164.0266181442448
 20
676.6657598828481
 30
0.0
 10
164.0300118592658
 20
676.6596288142013
 30
0.0
 10
164.0322619549078
 20
676.6555500152614
 30
0.0
 10
164.0435137217218
 20
676.6350856600441
 30
0.0
 10
164.0524255980938
 20
676.6186574952684
 30
0.0
 10
164.0656652280548
 20
676.5939176435583
 30
0.0
 10
164.0700543880858
 20
676.585659603701
 30
0.0
 10
164.0757685093143
 20
676.5748351597841
 30
0.0
 10
164.0771109774541
 20
676.5722864920814
 30
0.0
 10
164.0784514756506
 20
676.5697361842573
 30
0.0
  0
SPLINE
  5
F0
330
1F
100
AcDbEntity
  8
0
  6
Continuous
 62
     8
370
    18
100
AcDbSpline
210
0.0
220
0.0
230
1.0
 70
     8
 71
     3
 72
    18
 73
    14
 74
     0
 42
0.00000001
 43
0.00000001
 40
8.957880404168616
 40
8.957880404168616
 40
8.957880404168616
 40
8.957880404168616
 40
8.963411976457436
 40
8.963411976457436
 40
8.972554226422366
 40
8.972554226422366
 40
9.009123226282096
 40
9.009123226282096
 40
9.082261226001537
 40
9.082261226001537
 40
9.118830225861256
 40
9.118830225861256
 40
9.1203547873247
 40
9.1203547873247
 40
9.1203547873247
 40
9.1203547873247
 10
163.9596229869354
 20
676.7829807281738
 30
0.0
 10
163.9603458753986
 20
676.7817501431485
 30
0.0
 10
163.9610680031692
 20
676.7805200574167
 30
0.0
 10
163.9629713791288
 20
676.7772795704241
 30
0.0
 10
163.9641598197538
 20
676.775253601929
 30
0.0
 10
163.9700779682468
 20
676.7651489236634
 30
0.0
 10
163.9747908680358
 20
676.7570536405314
 30
0.0
 10
163.9888474877268
 20
676.7327619780275
 30
0.0
 10
163.9981186115748
 20
676.7165436545324
 30
0.0
 10
164.0118721009318
 20
676.692184199835
 30
0.0
 10
164.0164240938638
 20
676.6840715855786
 30
0.0
 10
164.0211468340376
 20
676.6756015029398
 30
0.0
 10
164.0213359084511
 20
676.6752623244001
 30
0.0
 10
164.0215249941741
 20
676.6749230400663
 30
0.0
  0
SPLINE
  5
F1
330
1F
100
AcDbEntity
  8
0
  6
Continuous
 62
     8
370
    18
100
AcDbSpline
210
0.0
220
0.0
230
1.0
 70
     8
 71
     3
 72
    22
 73
    18
 74
     0
 42
0.00000001
 43
0.00000001
 40
9.120354787332534
 40
9.120354787332534
 40
9.120354787332534
 40
9.120354787332534
 40
9.156923787192255
 40
9.156923787192255
 40
9.175208287122114
 40
9.175208287122114
 40
9.193492787051975
 40
9.193492787051975
 40
9.230061786911694
 40
9.230061786911694
 40
9.266630786771424
 40
9.266630786771424
 40
9.339768786490865
 40
9.339768786490865
 40
9.358053286420725
 40
9.358053286420725
 40
9.361663964089
 40
9.361663964089
 40
9.361663964089
 40
9.361663964089
 10
163.8589463862018
 20
676.9501426928797
 30
0.0
 10
163.8644502859158
 20
676.9411008895459
 30
0.0
 10
163.8699011211158
 20
676.9321184107932
 30
0.0
 10
163.8779751470658
 20
676.9188180918791
 30
0.0
 10
163.8806498409128
 20
676.9144127220925
 30
0.0
 10
163.8859405749178
 20
676.905705298902
 30
0.0
 10
163.8885604067468
 20
676.9013986576941
 30
0.0
 10
163.8963835421418
 20
676.8885270878552
 30
0.0
 10
163.9015089426028
 20
676.8800873978196
 30
0.0
 10
163.9116835122238
 20
676.8632898977476
 30
0.0
 10
163.9167094510988
 20
676.8549670836001
 30
0.0
 10
163.9316475713168
 20
676.8301544288063
 30
0.0
 10
163.9413976186038
 20
676.8138445702554
 30
0.0
 10
163.9534142773548
 20
676.793526391193
 30
0.0
 10
163.9558201639838
 20
676.7894474179095
 30
0.0
 10
163.9586789466099
 20
676.784587444683
 30
0.0
 10
163.959151128825
 20
676.7837839800643
 30
0.0
 10
163.9596229869323
 20
676.7829807281792
 30
0.0
  0
SPLINE
  5
F2
330
1F
100
AcDbEntity
  8
0
  6
Continuous
 62
     8
370
    18
100
AcDbSpline
210
0.0
220
0.0
230
1.0
 70
     8
 71
     3
 72
     9
 73
     5
 74
     0
 42
0.00000001
 43
0.00000001
 40
0.0
 40
0.0
 40
0.0
 40
0.0
 40
0.4796725236757789
 40
1.0
 40
1.0
 40
1.0
 40
1.0
 10
199.7600181206151
 20
676.7819160091468
 30
0.0
 10
199.7750448965716
 20
676.8079750248856
 30
0.0
 10
199.8063720525265
 20
676.8623017049699
 30
0.0
 10
199.8411964702703
 20
676.9216814752426
 30
0.0
 10
199.8593165716695
 20
676.9525784012534
 30
0.0
  0
SPLINE
  5
F3
330
1F
100
AcDbEntity
  8
0
  6
Continuous
 62
     8
370
    18
100
AcDbSpline
210
0.0
220
0.0
230
1.0
 70
     8
 71
     3
 72
     9
 73
     5
 74
     0
 42
0.00000001
 43
0.00000001
 40
0.0
 40
0.0
 40
0.0
 40
0.0
 40
0.9000875101030109
 40
1.0
 40
1.0
 40
1.0
 40
1.0
 10
199.6978326739735
 20
676.6706294607569
 30
0.0
 10
199.7162688863265
 20
676.7040508487605
 30
0.0
 10
199.7367515751163
 20
676.7411821139189
 30
0.0
 10
199.7579046629421
 20
676.7782158739712
 30
0.0
 10
199.7600181206158
 20
676.7819160091483
 30
0.0
  0
LWPOLYLINE
  5
F4
330
1F
100
AcDbEntity
  8
0
  6
Continuous
 62
     8
370
    18
100
AcDbPolyline
 90
        3
 70
   128
 43
0.0
 10
199.6284907226
 20
676.5625845678
 10
199.6570342741
 20
676.6163008311
 10
199.6861859052
 20
676.6695710728
  0
LWPOLYLINE
  5
F5
330
1F
100
AcDbEntity
  8
0
  6
Continuous
 62
     8
370
    18
100
AcDbPolyline
 90
        3
 70
   128
 43
0.0
 10
199.5738290752
 20
676.4551786164
 10
199.6007631646
 20
676.5088730792
 10
199.6284907226
 20
676.5625845678
  0
SPLINE
  5
F6
330
1F
100
AcDbEntity
  8
0
  6
Continuous
 62
     8
370
    18
100
AcDbSpline
210
0.0
220
0.0
230
1.0
 70
     8
 71
     3
 72
     9
 73
     5
 74
     0
 42
0.00000001
 43
0.00000001
 40
0.0
 40
0.0
 40
0.0
 40
0.0
 40
0.5215921636478806
 40
0.9999999999999999
 40
0.9999999999999999
 40
0.9999999999999999
 40
0.9999999999999999
 10
199.4351804507861
 20
676.1210101439602
 30
0.0
 10
199.45982763115
 20
676.1795033173552
 30
0.0
 10
199.5070813709139
 20
676.2916468223226
 30
0.0
 10
199.5605805274081
 20
676.4023238696375
 30
0.0
 10
199.5861749431132
 20
676.4552726363771
 30
0.0
  0
ARC
  5
F7
330
1F
100
AcDbEntity
  8
0
  6
Continuous
 62
     8
370
    18
100
AcDbCircle
 10
199.0768038289
 20
692.5768041303
 30
0.0
 40
1.72514428044752
100
AcDbArc
 50
63.1846021029
 51
98.3440939803
  0
LINE
  5
F8
330
1F
100
AcDbEntity
  8
0
  6
Continuous
 62
     8
370
    18
100
AcDbLine
 10
198.8264548881
 20
692.3038012537
 30
0.0
 11
198.8264548881
 21
694.2836867232
 31
0.0
  0
LINE
  5
F9
330
1F
100
AcDbEntity
  8
0
  6
Continuous
 62
     8
370
    18
100
AcDbLine
 10
164.883696009
 20
694.2836867201
 30
0.0
 11
164.883696009
 21
692.3038012537
 31
0.0
  0
ARC
  5
FA
330
1F
100
AcDbEntity
  8
0
  6
Continuous
 62
     8
370
    18
100
AcDbCircle
 10
164.6333470683
 20
692.5768041232
 30
0.0
 40
1.725144281377007
100
AcDbArc
 50
81.6559060272
 51
116.8153978848
  0
LINE
  5
FB
330
1F
100
AcDbEntity
  8
0
  6
Continuous
 62
     8
370
    18
100
AcDbLine
 10
164.8836960082
 20
694.2836867199
 30
0.0
 11
181.8550754485
 21
694.2836867232
 31
0.0
  0
LINE
  5
FC
330
1F
100
AcDbEntity
  8
0
  6
Continuous
 62
     8
370
    18
100
AcDbLine
 10
181.8550754485
 20
694.2836867202
 30
0.0
 11
198.8264548889
 21
694.2836867185
 31
0.0
  0
LINE
  5
FD
330
1F
100
AcDbEntity
  8
0
  6
Continuous
 62
     8
370
    18
100
AcDbLine
 10
164.8836960089
 20
695.118995289
 30
0.0
 11
164.883696009
 21
694.2836867197
 31
0.0
  0
LINE
  5
FE
330
1F
100
AcDbEntity
  8
0
  6
Continuous
 62
     8
370
    18
100
AcDbLine
 10
198.8264548881
 20
694.2836867228
 30
0.0
 11
198.8264548882
 21
695.1450258935
 31
0.0
  0
LINE
  5
FF
330
1F
100
AcDbEntity
  8
0
  6
Continuous
 62
     8
370
    18
100
AcDbLine
 10
181.8550754485
 20
694.2836867232
 30
0.0
 11
181.8550754485
 21
695.1450258971
 31
0.0
  0
LINE
  5
100
330
1F
100
AcDbEntity
  8
0
  6
Continuous
 62
     8
370
    18
100
AcDbLine
 10
204.9554679603
 20
414.3343265333
 30
0.0
 11
158.7554679603
 21
414.3343265333
 31
0.0
  0
LINE
  5
101
330
1F
100
AcDbEntity
  8
0
  6
Continuous
 62
     8
370
    18
100
AcDbLine
 10
204.9554679603
 20
410.3343265326
 30
0.0
 11
204.9554679603
 21
414.3343265333
 31
0.0
  0
LINE
  5
102
330
1F
100
AcDbEntity
  8
0
  6
Continuous
 62
     8
370
    18
100
AcDbLine
 10
158.7554679603
 20
414.3343265333
 30
0.0
 11
158.7554679603
 21
410.3343265326
 31
0.0
  0
LINE
  5
103
330
1F
100
AcDbEntity
  8
0
  6
Continuous
 62
     8
370
    18
100
AcDbLine
 10
204.9554679603
 20
415.3343265333
 30
0.0
 11
204.9554679603
 21
414.3343265333
 31
0.0
  0
LINE
  5
104
330
1F
100
AcDbEntity
  8
0
  6
Continuous
 62
     8
370
    18
100
AcDbLine
 10
158.7554679603
 20
415.3343265333
 30
0.0
 11
158.7554679603
 21
414.3343265333
 31
0.0
  0
LINE
  5
105
330
1F
100
AcDbEntity
  8
0
  6
Continuous
 62
     8
370
    18
100
AcDbLine
 10
205.9554679603
 20
414.3343265333
 30
0.0
 11
204.9554679603
 21
414.3343265333
 31
0.0
  0
LINE
  5
106
330
1F
100
AcDbEntity
  8
0
  6
Continuous
 62
     8
370
    18
100
AcDbLine
 10
157.7554679603
 20
414.3343265333
 30
0.0
 11
158.7554679603
 21
414.3343265333
 31
0.0
  0
LINE
  5
107
330
1F
100
AcDbEntity
  8
0
  6
Continuous
 62
     8
370
    18
100
AcDbLine
 10
159.7097993134
 20
415.4972838171
 30
0.0
 11
160.6936180464
 21
415.6849409173
 31
0.0
  0
LINE
  5
108
330
1F
100
AcDbEntity
  8
0
  6
Continuous
 62
     8
370
    18
100
AcDbLine
 10
163.8554729347
 20
420.3343267065
 30
0.0
 11
163.8554729347
 21
431.3343266691
 31
0.0
  0
LINE
  5
109
330
1F
100
AcDbEntity
  8
0
  6
Continuous
 62
     8
370
    18
100
AcDbLine
 10
163.855472465
 20
420.3343267065
 30
0.0
 11
163.8554729347
 21
420.3343267065
 31
0.0
  0
LINE
  5
10A
330
1F
100
AcDbEntity
  8
0
  6
Continuous
 62
     8
370
    18
100
AcDbLine
 10
163.8554720514
 20
460.4026674753
 30
0.0
 11
163.8554717418
 21
460.4026674753
 31
0.0
  0
LINE
  5
10B
330
1F
100
AcDbEntity
  8
0
  6
Continuous
 62
     7
370
    25
100
AcDbLine
 10
163.9273256878
 20
331.0639855262
 30
0.0
 11
163.8600362914
 21
329.4952102085
 31
0.0
  0
SPLINE
  5
10C
330
1F
100
AcDbEntity
  8
0
  6
Continuous
 62
     7
370
    25
100
AcDbSpline
210
0.0
220
0.0
230
1.0
 70
     8
 71
     3
 72
    14
 73
    10
 74
     0
 42
0.00000001
 43
0.00000001
 40
0.0
 40
0.0
 40
0.0
 40
0.0
 40
0.1372917951861741
 40
0.280098970583993
 40
0.4252034808885946
 40
0.5692236920385836
 40
0.7149679261502994
 40
0.8653708937609433
 40
1.0
 40
1.0
 40
1.0
 40
1.0
 10
163.9519404536522
 20
230.7329823780695
 30
0.0
 10
163.9511157249643
 20
230.6700940249758
 30
0.0
 10
163.9494331360215
 20
230.5417909247114
 30
0.0
 10
163.9829595444974
 20
230.3377231982296
 30
0.0
 10
164.0448967471071
 20
230.1369235473553
 30
0.0
 10
164.1366855861472
 20
229.9494255683286
 30
0.0
 10
164.2551864738054
 20
229.7847905412056
 30
0.0
 10
164.3904752529205
 20
229.6513370488693
 30
0.0
 10
164.4926765051438
 20
229.5961117078906
 30
0.0
 10
164.5409491891877
 20
229.5700271406442
 30
0.0
  0
SPLINE
  5
10D
330
1F
100
AcDbEntity
  8
0
  6
Continuous
 62
     7
370
    25
100
AcDbSpline
210
0.0
220
0.0
230
1.0
 70
     8
 71
     3
 72
    14
 73
    10
 74
     0
 42
0.00000001
 43
0.00000001
 40
0.0
 40
0.0
 40
0.0
 40
0.0
 40
0.1328481659362441
 40
0.2835669591202037
 40
0.4296149674553576
 40
0.5739329411781581
 40
0.7193348212919838
 40
0.8624320020896197
 40
1.0
 40
1.0
 40
1.0
 40
1.0
 10
199.1716057359636
 20
229.5713841602752
 30
0.0
 10
199.2191300565498
 20
229.5970904903551
 30
0.0
 10
199.3205716306798
 20
229.6519611451323
 30
0.0
 10
199.4551683656408
 20
229.7848664989407
 30
0.0
 10
199.5736641340085
 20
229.9494752142662
 30
0.0
 10
199.6654349852103
 20
230.1369687518581
 30
0.0
 10
199.7273576902845
 20
230.3377476479234
 30
0.0
 10
199.7608704568896
 20
230.5417891179772
 30
0.0
 10
199.7591814985938
 20
230.6700703587777
 30
0.0
 10
199.7583536559224
 20
230.7329473909326
 30
0.0
  0
LINE
  5
10E
330
1F
100
AcDbEntity
  8
0
  6
Continuous
 62
     7
370
    25
100
AcDbLine
 10
199.8501146057
 20
329.4952102087
 30
0.0
 11
199.7828252093
 21
331.0639855262
 31
0.0
  0
LINE
  5
10F
330
1F
100
AcDbEntity
  8
0
  6
Continuous
 62
     7
370
    18
100
AcDbLine
 10
181.8550754486
 20
230.6915736195
 30
0.0
 11
198.8264199613
 21
230.691573619
 31
0.0
  0
LINE
  5
110
330
1F
100
AcDbEntity
  8
0
  6
Continuous
 62
     7
370
    18
100
AcDbLine
 10
164.8836610803
 20
230.691573619
 30
0.0
 11
181.8550754486
 21
230.6915736195
 31
0.0
  0
SPLINE
  5
111
330
1F
100
AcDbEntity
  8
0
  6
Continuous
 62
     7
370
    18
100
AcDbSpline
210
0.0
220
0.0
230
1.0
 70
     8
 71
     3
 72
    23
 73
    19
 74
     0
 42
0.00000001
 43
0.00000001
 40
0.0
 40
0.0
 40
0.0
 40
0.0
 40
1.736884773864148
 40
3.473769547728295
 40
5.210654321592443
 40
6.947539095456591
 40
8.684423869320739
 40
10.42130864318489
 40
12.15819341704903
 40
13.89507819091318
 40
15.63196296477733
 40
17.36884773864148
 40
19.10573251250563
 40
20.84261728636977
 40
52.39352589075726
 40
83.94443449514475
 40
92.75701556081138
 40
101.569596626478
 40
101.569596626478
 40
101.569596626478
 40
101.569596626478
 10
164.8836610814046
 20
331.0613856780573
 30
0.0
 10
164.8836609294373
 20
330.4901741988585
 30
0.0
 10
164.8836606012936
 20
329.3473583818895
 30
0.0
 10
164.8836600735908
 20
327.6354787277986
 30
0.0
 10
164.8836595475658
 20
325.9229966220223
 30
0.0
 10
164.8836590603612
 20
324.2107270374862
 30
0.0
 10
164.8836586491368
 20
322.4984717836471
 30
0.0
 10
164.883658351038
 20
320.7863183235911
 30
0.0
 10
164.8836582032224
 20
319.0742205111678
 30
0.0
 10
164.8836582428392
 20
317.3623769734834
 30
0.0
 10
164.8836585070456
 20
315.6501367951751
 30
0.0
 10
164.883659032988
 20
313.9378263763223
 30
0.0
 10
164.8836598578198
 20
312.2255314959863
 30
0.0
 10
164.8836676609485
 20
300.7175290167336
 30
0.0
 10
164.8837266065408
 20
279.3118728507147
 30
0.0
 10
164.883755316016
 20
255.6534377405735
 30
0.0
 10
164.8837019449395
 20
239.4177035610176
 30
0.0
 10
164.8836753023056
 20
233.6004924516748
 30
0.0
 10
164.8836610803207
 20
230.6915252511151
 30
0.0
  0
LINE
  5
112
330
1F
100
AcDbEntity
  8
0
  6
Continuous
 62
     7
370
    18
100
AcDbLine
 10
181.8550754487
 20
331.0613856781
 30
0.0
 11
164.8836610814
 21
331.0613856781
 31
0.0
  0
LINE
  5
113
330
1F
100
AcDbEntity
  8
0
  6
Continuous
 62
     7
370
    18
100
AcDbLine
 10
198.8264199616
 20
331.0613856781
 30
0.0
 11
181.8550754487
 21
331.0613856781
 31
0.0
  0
LINE
  5
114
330
1F
100
AcDbEntity
  8
0
  6
Continuous
 62
     7
370
    18
100
AcDbLine
 10
198.8264199613
 20
230.6915252511
 30
0.0
 11
198.8264199616
 21
331.0613856781
 31
0.0
  0
ARC
  5
115
330
1F
100
AcDbEntity
  8
0
  6
Continuous
 62
     7
370
    18
100
AcDbCircle
 10
164.626552238
 20
395.3519580885
 30
0.0
 40
64.291086658858
100
AcDbArc
 50
269.3124744848
 51
270.2291653905
  0
SPLINE
  5
116
330
1F
100
AcDbEntity
  8
0
  6
Continuous
 62
     7
370
    18
100
AcDbSpline
210
0.0
220
0.0
230
1.0
 70
     8
 71
     3
 72
    10
 73
     6
 74
     0
 42
0.00000001
 43
0.00000001
 40
0.0
 40
0.0
 40
0.0
 40
0.0
 40
0.5
 40
0.5
 40
1.0
 40
1.0
 40
1.0
 40
1.0
 10
164.2231018049504
 20
230.652473575115
 30
0.0
 10
164.3202025789766
 20
230.6657025360938
 30
0.0
 10
164.4316969967512
 20
230.6757856768417
 30
0.0
 10
164.659482330288
 20
230.6886769246568
 30
0.0
 10
164.7753591589608
 20
230.6915252511666
 30
0.0
 10
164.8836960071106
 20
230.6915252511151
 30
0.0
  0
SPLINE
  5
117
330
1F
100
AcDbEntity
  8
0
  6
Continuous
 62
     7
370
    18
100
AcDbSpline
210
0.0
220
0.0
230
1.0
 70
     8
 71
     3
 72
     8
 73
     4
 74
     0
 42
0.00000001
 43
0.00000001
 40
0.0
 40
0.0
 40
0.0
 40
0.0
 40
1.0
 40
1.0
 40
1.0
 40
1.0
 10
163.8551044613463
 20
331.0655000113275
 30
0.0
 10
163.9600091813407
 20
297.58807248332
 30
0.0
 10
164.0796678980944
 20
264.1155098192081
 30
0.0
 10
164.2231018049504
 20
230.652473575115
 30
0.0
  0
SPLINE
  5
118
330
1F
100
AcDbEntity
  8
0
  6
Continuous
 62
     7
370
    25
100
AcDbSpline
210
0.0
220
0.0
230
1.0
 70
     8
 71
     3
 72
     9
 73
     5
 74
     0
 42
0.00000001
 43
0.00000001
 40
0.0
 40
0.0
 40
0.0
 40
0.0
 40
0.4869583600767324
 40
0.9999999999999999
 40
0.9999999999999999
 40
0.9999999999999999
 40
0.9999999999999999
 10
163.8551044613464
 20
230.5242728823814
 30
0.0
 10
163.8586854666738
 20
230.535637294007
 30
0.0
 10
163.8660392891378
 20
230.558974836921
 30
0.0
 10
163.9172624557811
 20
230.5808188150498
 30
0.0
 10
163.9435420731978
 20
230.5920256854114
 30
0.0
  0
SPLINE
  5
119
330
1F
100
AcDbEntity
  8
0
  6
Continuous
 62
     7
370
    18
100
AcDbSpline
210
0.0
220
0.0
230
1.0
 70
     8
 71
     3
 72
    16
 73
    12
 74
     0
 42
0.00000001
 43
0.00000001
 40
0.0
 40
0.0
 40
0.0
 40
0.0
 40
0.1445578844925904
 40
0.2820183326617026
 40
0.4115521941843541
 40
0.5325416620284462
 40
0.6445656509225147
 40
0.7473756175406532
 40
0.8408661968057125
 40
0.9250443774193388
 40
0.9999999999999999
 40
0.9999999999999999
 40
0.9999999999999999
 40
0.9999999999999999
 10
199.4871955462045
 20
230.6525019865466
 30
0.0
 10
199.4600486148297
 20
230.6560084017084
 30
0.0
 10
199.4070875995929
 20
230.6628490756783
 30
0.0
 10
199.3226472257868
 20
230.6713312758089
 30
0.0
 10
199.2393141537453
 20
230.6781551867656
 30
0.0
 10
199.1583197354936
 20
230.6833183009622
 30
0.0
 10
199.0812311104054
 20
230.6870047111518
 30
0.0
 10
199.0090955318399
 20
230.6894277306777
 30
0.0
 10
198.9426734007541
 20
230.6908247327405
 30
0.0
 10
198.8824345091485
 20
230.6914873672589
 30
0.0
 10
198.8443796091129
 20
230.6915460014071
 30
0.0
 10
198.826454889995
 20
230.6915736194179
 30
0.0
  0
LINE
  5
11A
330
1F
100
AcDbEntity
  8
0
  6
Continuous
 62
     7
370
    18
100
AcDbLine
 10
199.8508420863
 20
329.9182866921
 30
0.0
 11
199.4870490922
 21
230.6524735751
 31
0.0
  0
SPLINE
  5
11B
330
1F
100
AcDbEntity
  8
0
  6
Continuous
 62
     7
370
    18
100
AcDbSpline
210
0.0
220
0.0
230
1.0
 70
     8
 71
     3
 72
    20
 73
    16
 74
     0
 42
0.00000001
 43
0.00000001
 40
0.0
 40
0.0
 40
0.0
 40
0.0
 40
0.249999999999997
 40
0.249999999999997
 40
0.499999999999994
 40
0.499999999999994
 40
0.749999999999991
 40
0.749999999999991
 40
0.8749999999999941
 40
0.8749999999999941
 40
0.9374999999999958
 40
0.9374999999999958
 40
0.9687499999999978
 40
0.9687499999999978
 40
1.0
 40
1.0
 40
1.0
 40
1.0
 10
198.8264548881317
 20
331.0613856780585
 30
0.0
 10
198.9476755643269
 20
331.0613856780645
 30
0.0
 10
199.0784575119818
 20
331.0614740487595
 30
0.0
 10
199.3316904769491
 20
331.0618750560453
 30
0.0
 10
199.4533564490377
 20
331.0621890516225
 30
0.0
 10
199.6542014414931
 20
331.0629924251654
 30
0.0
 10
199.7327009632186
 20
331.0634790851583
 30
0.0
 10
199.80789042938
 20
331.0642387779701
 30
0.0
 10
199.8260906398269
 20
331.0644966432603
 30
0.0
 10
199.8437663956024
 20
331.0648787104131
 30
0.0
 10
199.8480658465961
 20
331.0650052997369
 30
0.0
 10
199.8522956073582
 20
331.0651928304744
 30
0.0
 10
199.8533361136296
 20
331.065254950595
 30
0.0
 10
199.8547115165386
 20
331.0653782361009
 30
0.0
 10
199.855046433896
 20
331.0654326907145
 30
0.0
 10
199.8550464338959
 20
331.0655000113274
 30
0.0
  0
LINE
  5
11C
330
1F
100
AcDbEntity
  8
0
  6
Continuous
 62
     7
370
    25
100
AcDbLine
 10
163.8551044632
 20
330.8912399565
 30
0.0
 11
163.8551044632
 21
230.5242728824
 31
0.0
  0
LINE
  5
11D
330
1F
100
AcDbEntity
  8
0
  6
Continuous
 62
     7
370
    25
100
AcDbLine
 10
163.8551044613
 20
331.0662499562
 30
0.0
 11
163.8551044613
 21
331.0734999469
 31
0.0
  0
LINE
  5
11E
330
1F
100
AcDbEntity
  8
0
  6
Continuous
 62
     7
370
    25
100
AcDbLine
 10
199.8550464339
 20
331.0655000113
 30
0.0
 11
199.8550464339
 21
331.0715024496
 31
0.0
  0
LINE
  5
11F
330
1F
100
AcDbEntity
  8
0
  6
Continuous
 62
     7
370
    25
100
AcDbLine
 10
199.8550464339
 20
330.7162499565
 30
0.0
 11
199.8550464339
 21
230.5242728824
 31
0.0
  0
SPLINE
  5
120
330
1F
100
AcDbEntity
  8
0
  6
Continuous
 62
     7
370
    25
100
AcDbSpline
210
0.0
220
0.0
230
1.0
 70
     8
 71
     3
 72
    14
 73
    10
 74
     0
 42
0.00000001
 43
0.00000001
 40
0.0
 40
0.0
 40
0.0
 40
0.0
 40
0.25
 40
0.25
 40
0.5
 40
0.5
 40
0.75
 40
0.75
 40
1.0
 40
1.0
 40
1.0
 40
1.0
 10
198.8263424630451
 20
229.1829847914655
 30
0.0
 10
198.961007126688
 20
229.1825919047688
 30
0.0
 10
199.0956216975908
 20
229.2086230974479
 30
0.0
 10
199.3444540997538
 20
229.309551732405
 30
0.0
 10
199.458573961317
 20
229.3844091393657
 30
0.0
 10
199.6490145474749
 20
229.5715664353218
 30
0.0
 10
199.7252602922585
 20
229.6837923392581
 30
0.0
 10
199.8283067091431
 20
229.9285607152617
 30
0.0
 10
199.855066810056
 20
230.0610065197736
 30
0.0
 10
199.8550464221339
 20
230.1935006379761
 30
0.0
  0
LINE
  5
121
330
1F
100
AcDbEntity
  8
0
  6
Continuous
 62
     7
370
    25
100
AcDbLine
 10
199.8550464339
 20
230.5243212526
 30
0.0
 11
199.8550464339
 21
230.1917384233
 31
0.0
  0
LINE
  5
122
330
1F
100
AcDbEntity
  8
0
  6
Continuous
 62
     7
370
    25
100
AcDbLine
 10
164.8837156016
 20
229.1829575049
 30
0.0
 11
198.826342465
 21
229.1829847853
 31
0.0
  0
SPLINE
  5
123
330
1F
100
AcDbEntity
  8
0
  6
Continuous
 62
     7
370
    25
100
AcDbSpline
210
0.0
220
0.0
230
1.0
 70
     8
 71
     3
 72
    14
 73
    10
 74
     0
 42
0.00000001
 43
0.00000001
 40
0.0
 40
0.0
 40
0.0
 40
0.0
 40
0.25
 40
0.25
 40
0.5
 40
0.5
 40
0.75
 40
0.75
 40
1.0
 40
1.0
 40
1.0
 40
1.0
 10
163.8551044795942
 20
230.1935769226615
 30
0.0
 10
163.8550804189186
 20
230.0610818077113
 30
0.0
 10
163.8818346751875
 20
229.9286342755204
 30
0.0
 10
163.9848662562877
 20
229.683858720371
 30
0.0
 10
164.0611030222514
 20
229.5716273473749
 30
0.0
 10
164.251524783307
 20
229.3844538953283
 30
0.0
 10
164.3656348179748
 20
229.3095857909008
 30
0.0
 10
164.6144495673292
 20
229.2086302928684
 30
0.0
 10
164.7490563349165
 20
229.1825829337823
 30
0.0
 10
164.8837156016818
 20
229.1829575052112
 30
0.0
  0
LINE
  5
124
330
1F
100
AcDbEntity
  8
0
  6
Continuous
 62
     7
370
    25
100
AcDbLine
 10
163.8551044632
 20
230.1917384233
 30
0.0
 11
163.8551044632
 21
230.5243212526
 31
0.0
  0
SPLINE
  5
125
330
1F
100
AcDbEntity
  8
0
  6
Continuous
 62
     7
370
    25
100
AcDbSpline
210
0.0
220
0.0
230
1.0
 70
     8
 71
     3
 72
    12
 73
     8
 74
     0
 42
0.00000001
 43
0.00000001
 40
0.0
 40
0.0
 40
0.0
 40
0.0
 40
0.5000000000000133
 40
0.5000000000000133
 40
0.7500000000000067
 40
0.7500000000000067
 40
1.0
 40
1.0
 40
1.0
 40
1.0
 10
164.6179829872118
 20
332.0787243982542
 30
0.0
 10
164.4075650712775
 20
332.0220342005076
 30
0.0
 10
164.2158499310626
 20
331.8969996240855
 30
0.0
 10
164.0098453066778
 20
331.6372504493224
 30
0.0
 10
163.95416901174
 20
331.5386954751417
 30
0.0
 10
163.8763582751832
 20
331.3209729559309
 30
0.0
 10
163.8551057632355
 20
331.2041332124917
 30
0.0
 10
163.8551044632497
 20
331.0828630289012
 30
0.0
  0
ELLIPSE
  5
126
330
1F
100
AcDbEntity
  8
0
  6
Continuous
 62
     7
370
    25
100
AcDbEllipse
 10
164.8836960085
 20
331.0854307161
 30
0.0
 11
1.028591545345279
 21
-2.057618075923529E-9
 31
0.0
210
0.0
220
0.0
230
1.0
 40
0.9996126348
 41
1.5707963283838
 42
1.832086402291923
  0
LINE
  5
127
330
1F
100
AcDbEntity
  8
0
  6
Continuous
 62
     7
370
    25
100
AcDbLine
 10
164.883696009
 20
332.1136238209
 30
0.0
 11
198.8264548874
 21
332.1136238209
 31
0.0
  0
SPLINE
  5
128
330
1F
100
AcDbEntity
  8
0
  6
Continuous
 62
     7
370
    25
100
AcDbSpline
210
0.0
220
0.0
230
1.0
 70
     8
 71
     3
 72
    10
 73
     6
 74
     0
 42
0.00000001
 43
0.00000001
 40
0.0
 40
0.0
 40
0.0
 40
0.0
 40
0.5
 40
0.5
 40
1.0
 40
1.0
 40
1.0
 40
1.0
 10
199.8550462991617
 20
331.0833783815024
 30
0.0
 10
199.8549234711482
 20
331.3235045954397
 30
0.0
 10
199.7686887402551
 20
331.5512547403105
 30
0.0
 10
199.4937608482129
 20
331.897451123269
 30
0.0
 10
199.3016506068329
 20
332.0223201465473
 30
0.0
 10
199.0920160654579
 20
332.0787649738113
 30
0.0
  0
ELLIPSE
  5
129
330
1F
100
AcDbEntity
  8
0
  6
Continuous
 62
     7
370
    25
100
AcDbEllipse
 10
198.8264548886
 20
331.0854307161
 30
0.0
 11
1.028591545345307
 21
2.057674919342389E-9
 31
0.0
210
0.0
220
0.0
230
1.0
 40
0.9996126348
 41
1.309659058651257
 42
1.570796325925329
  0
LWPOLYLINE
  5
12A
330
1F
100
AcDbEntity
  8
0
  6
Continuous
 62
     7
370
    25
100
AcDbPolyline
 90
        3
 70
   128
 43
0.0
 10
163.8555123696
 20
331.093780589
 10
163.8747270892
 20
331.2888709111
 10
163.9300023617
 20
331.4725037397
  0
LINE
  5
12B
330
1F
100
AcDbEntity
  8
0
  6
Continuous
 62
     7
370
    25
100
AcDbLine
 10
163.8555123702
 20
118.093780589
 30
0.0
 11
163.8555123702
 21
230.1915577974
 31
0.0
  0
LINE
  5
12C
330
1F
100
AcDbEntity
  8
0
  6
Continuous
 62
     7
370
    25
100
AcDbLine
 10
199.8555145565
 20
118.093780589
 30
0.0
 11
199.8555145565
 21
230.3492635085
 31
0.0
  0
LINE
  5
12D
330
1F
100
AcDbEntity
  8
0
  6
Continuous
 62
     7
370
    25
100
AcDbLine
 10
198.8555145565
 20
117.093780589
 30
0.0
 11
164.8555123702
 21
117.093780589
 31
0.0
  0
SPLINE
  5
12E
330
1F
100
AcDbEntity
  8
0
  6
Continuous
 62
     7
370
    25
100
AcDbSpline
210
0.0
220
0.0
230
1.0
 70
     8
 71
     3
 72
    10
 73
     6
 74
     0
 42
0.00000001
 43
0.00000001
 40
0.0
 40
0.0
 40
0.0
 40
0.0
 40
0.5
 40
0.5
 40
1.0
 40
1.0
 40
1.0
 40
1.0
 10
164.855512370219
 20
117.0937805890112
 30
0.0
 10
164.5937129824199
 20
117.0937805890111
 30
0.0
 10
164.3335257114557
 20
117.2015536854014
 30
0.0
 10
163.9632854666092
 20
117.5717939302479
 30
0.0
 10
163.855512370219
 20
117.831981201212
 30
0.0
 10
163.855512370219
 20
118.0937805890112
 30
0.0
  0
ARC
  5
12F
330
1F
100
AcDbEntity
  8
0
  6
Continuous
 62
     7
370
    25
100
AcDbCircle
 10
198.855514556
 20
118.093780589
 30
0.0
 40
1.000000000545327
100
AcDbArc
 50
270.0000000312
 51
0.0
  0
LINE
  5
130
330
1F
100
AcDbEntity
  8
0
  6
Continuous
 62
     7
370
    25
100
AcDbLine
 10
163.855472465
 20
331.0937803553
 30
0.0
 11
163.8554724658
 21
331.0654921191
 31
0.0
  0
LINE
  5
131
330
1F
100
AcDbEntity
  8
0
  6
Continuous
 62
     7
370
    25
100
AcDbLine
 10
158.7554679603
 20
338.193779586
 30
0.0
 11
204.9554679603
 21
338.193779586
 31
0.0
  0
ARC
  5
132
330
1F
100
AcDbEntity
  8
0
  6
Continuous
 62
     7
370
    25
100
AcDbCircle
 10
158.7554679603
 20
337.193779586
 30
0.0
 40
1.0
100
AcDbArc
 50
90.0
 51
180.0
  0
LINE
  5
133
330
1F
100
AcDbEntity
  8
0
  6
Continuous
 62
     7
370
    25
100
AcDbLine
 10
157.7554679603
 20
290.9937795858
 30
0.0
 11
157.7554679603
 21
337.193779586
 31
0.0
  0
ARC
  5
134
330
1F
100
AcDbEntity
  8
0
  6
Continuous
 62
     7
370
    25
100
AcDbCircle
 10
204.9554679603
 20
337.193779586
 30
0.0
 40
1.0
100
AcDbArc
 50
0.0
 51
90.0
  0
ARC
  5
135
330
1F
100
AcDbEntity
  8
0
  6
Continuous
 62
     7
370
    25
100
AcDbCircle
 10
158.7554679603
 20
290.9937795858
 30
0.0
 40
1.000000000000028
100
AcDbArc
 50
180.0
 51
270.0
  0
LINE
  5
136
330
1F
100
AcDbEntity
  8
0
  6
Continuous
 62
     7
370
    25
100
AcDbLine
 10
204.9554679603
 20
289.9937795858
 30
0.0
 11
199.8555145565
 21
289.9937795858
 31
0.0
  0
LINE
  5
137
330
1F
100
AcDbEntity
  8
0
  6
Continuous
 62
     7
370
    25
100
AcDbLine
 10
163.8551044632
 20
289.9937795858
 30
0.0
 11
158.7554679603
 21
289.9937795858
 31
0.0
  0
LINE
  5
138
330
1F
100
AcDbEntity
  8
0
  6
Continuous
 62
     7
370
    25
100
AcDbLine
 10
205.9554679603
 20
337.193779586
 30
0.0
 11
205.9554679603
 21
290.9937795858
 31
0.0
  0
ARC
  5
139
330
1F
100
AcDbEntity
  8
0
  6
Continuous
 62
     7
370
    25
100
AcDbCircle
 10
204.9554679603
 20
290.9937795858
 30
0.0
 40
1.0
100
AcDbArc
 50
270.0
 51
0.0
  0
LINE
  5
13A
330
1F
100
AcDbEntity
  8
0
  6
Continuous
 62
     8
370
    18
100
AcDbLine
 10
164.883696009
 20
230.6915736204
 30
0.0
 11
164.883696009
 21
229.5094186909
 31
0.0
  0
LINE
  5
13B
330
1F
100
AcDbEntity
  8
0
  6
Continuous
 62
     8
370
    18
100
AcDbLine
 10
181.8550754485
 20
229.5094186883
 30
0.0
 11
181.8550754485
 21
230.6915736201
 31
0.0
  0
LINE
  5
13C
330
1F
100
AcDbEntity
  8
0
  6
Continuous
 62
     8
370
    18
100
AcDbLine
 10
164.8836960082
 20
229.5094186894
 30
0.0
 11
181.8550754485
 21
229.5094186883
 31
0.0
  0
SPLINE
  5
13D
330
1F
100
AcDbEntity
  8
0
  6
Continuous
 62
     8
370
    18
100
AcDbSpline
210
0.0
220
0.0
230
1.0
 70
     8
 71
     3
 72
    10
 73
     6
 74
     0
 42
0.00000001
 43
0.00000001
 40
0.0
 40
0.0
 40
0.0
 40
0.0
 40
0.0047883195927826
 40
0.4984445023986352
 40
0.9999999999999999
 40
0.9999999999999999
 40
0.9999999999999999
 40
0.9999999999999999
 10
163.9435420731978
 20
230.5920256854114
 30
0.0
 10
163.9437703120406
 20
230.5921414126485
 30
0.0
 10
163.9675290428812
 20
230.6041881451189
 30
0.0
 10
164.0568608954083
 20
230.6259115567388
 30
0.0
 10
164.1673957183043
 20
230.6435728412271
 30
0.0
 10
164.2231018049503
 20
230.6524735751154
 30
0.0
  0
ARC
  5
13E
330
1F
100
AcDbEntity
  8
0
  6
Continuous
 62
     8
370
    18
100
AcDbCircle
 10
164.8768970626
 20
230.5312119017
 30
0.0
 40
1.021815833324232
100
AcDbArc
 50
180.3863789842
 51
270.3812367639
  0
LINE
  5
13F
330
1F
100
AcDbEntity
  8
0
  6
Continuous
 62
     8
370
    18
100
AcDbLine
 10
198.8264548881
 20
229.5094186914
 30
0.0
 11
198.8264548881
 21
230.6915736208
 31
0.0
  0
SPLINE
  5
140
330
1F
100
AcDbEntity
  8
0
  6
Continuous
 62
     8
370
    18
100
AcDbSpline
210
0.0
220
0.0
230
1.0
 70
     8
 71
     3
 72
    13
 73
     9
 74
     0
 42
0.00000001
 43
0.00000001
 40
0.0
 40
0.0
 40
0.0
 40
0.0
 40
0.1022359318075981
 40
0.2311188623515937
 40
0.3868899204360704
 40
0.5687097487423757
 40
0.774102356361327
 40
1.0
 40
1.0
 40
1.0
 40
1.0
 10
199.8550463906109
 20
230.5242728823835
 30
0.0
 10
199.8542532883664
 20
230.5291215871617
 30
0.0
 10
199.8524603679592
 20
230.5400827738248
 30
0.0
 10
199.8350262912693
 20
230.5577511679976
 30
0.0
 10
199.7980491275214
 20
230.5792041983912
 30
0.0
 10
199.7316343580314
 20
230.603568968476
 30
0.0
 10
199.6309540865641
 20
230.6298037229172
 30
0.0
 10
199.5366102048924
 20
230.6446998278209
 30
0.0
 10
199.4871955462045
 20
230.6525019865466
 30
0.0
  0
ARC
  5
141
330
1F
100
AcDbEntity
  8
0
  6
Continuous
 62
     8
370
    18
100
AcDbCircle
 10
198.8332538345
 20
230.5312119028
 30
0.0
 40
1.021815833319913
100
AcDbArc
 50
269.6187632359
 51
359.6136210311
  0
LINE
  5
142
330
1F
100
AcDbEntity
  8
0
  6
Continuous
 62
     8
370
    18
100
AcDbLine
 10
181.8550754485
 20
229.5094186878
 30
0.0
 11
198.8264548889
 21
229.5094187173
 31
0.0
  0
LINE
  5
143
330
1F
100
AcDbEntity
  8
0
  6
Continuous
 62
     8
370
    18
100
AcDbLine
 10
163.8551044613
 20
331.0655000113
 30
0.0
 11
163.8551044613
 21
331.0662499562
 31
0.0
  0
LINE
  5
144
330
1F
100
AcDbEntity
  8
0
  6
Continuous
 62
     8
370
    18
100
AcDbLine
 10
198.8264548881
 20
229.1831405343
 30
0.0
 11
198.8264548881
 21
229.5094186885
 31
0.0
  0
LINE
  5
145
330
1F
100
AcDbEntity
  8
0
  6
Continuous
 62
     8
370
    18
100
AcDbLine
 10
164.883696009
 20
229.509418688
 30
0.0
 11
164.883696009
 21
229.1831405343
 31
0.0
  0
SPLINE
  5
146
330
1F
100
AcDbEntity
  8
0
  6
Continuous
 62
     8
370
    18
100
AcDbSpline
210
0.0
220
0.0
230
1.0
 70
     8
 71
     3
 72
    14
 73
    10
 74
     0
 42
0.00000001
 43
0.00000001
 40
0.0
 40
0.0
 40
0.0
 40
0.0
 40
0.25
 40
0.25
 40
0.5
 40
0.5
 40
0.75
 40
0.75
 40
1.0
 40
1.0
 40
1.0
 40
1.0
 10
163.8551044643457
 20
331.0734999468625
 30
0.0
 10
163.8550979789121
 20
331.2081453166106
 30
0.0
 10
163.8818646427752
 20
331.3427389922365
 30
0.0
 10
163.9849095841051
 20
331.59153491765
 30
0.0
 10
164.061147312833
 20
331.7056392649018
 30
0.0
 10
164.2515615584463
 20
331.8960611589324
 30
0.0
 10
164.3656631463014
 20
331.9723037736708
 30
0.0
 10
164.6144560984836
 20
332.0753598741313
 30
0.0
 10
164.7490495614452
 20
332.102132806723
 30
0.0
 10
164.8836960085081
 20
332.1021328067216
 30
0.0
  0
LINE
  5
147
330
1F
100
AcDbEntity
  8
0
  6
Continuous
 62
     8
370
    18
100
AcDbLine
 10
164.8836960087
 20
332.0940833282
 30
0.0
 11
164.8836960085
 21
332.1020832642
 31
0.0
  0
LINE
  5
148
330
1F
100
AcDbEntity
  8
0
  6
Continuous
 62
     8
370
    18
100
AcDbLine
 10
164.883696009
 20
331.0613856781
 30
0.0
 11
164.8836960087
 21
332.0940833282
 31
0.0
  0
LINE
  5
149
330
1F
100
AcDbEntity
  8
0
  6
Continuous
 62
     8
370
    18
100
AcDbLine
 10
181.8550754487
 20
332.0940833282
 30
0.0
 11
164.8836960087
 21
332.0940833282
 31
0.0
  0
LINE
  5
14A
330
1F
100
AcDbEntity
  8
0
  6
Continuous
 62
     8
370
    18
100
AcDbLine
 10
181.8550754487
 20
331.0613856781
 30
0.0
 11
181.8550754487
 21
332.0940833282
 31
0.0
  0
LINE
  5
14B
330
1F
100
AcDbEntity
  8
0
  6
Continuous
 62
     8
370
    18
100
AcDbLine
 10
181.8550754487
 20
332.0940833282
 30
0.0
 11
198.8264548886
 21
332.0940833282
 31
0.0
  0
LINE
  5
14C
330
1F
100
AcDbEntity
  8
0
  6
Continuous
 62
     8
370
    18
100
AcDbLine
 10
198.8264548886
 20
331.0613856781
 30
0.0
 11
198.8264548886
 21
332.0940833282
 31
0.0
  0
LINE
  5
14D
330
1F
100
AcDbEntity
  8
0
  6
Continuous
 62
     8
370
    18
100
AcDbLine
 10
198.8264548886
 20
332.0940833282
 30
0.0
 11
198.8264548886
 21
332.1020832642
 31
0.0
  0
SPLINE
  5
14E
330
1F
100
AcDbEntity
  8
0
  6
Continuous
 62
     8
370
    18
100
AcDbSpline
210
0.0
220
0.0
230
1.0
 70
     8
 71
     3
 72
    10
 73
     6
 74
     0
 42
0.00000001
 43
0.00000001
 40
0.0
 40
0.0
 40
0.0
 40
0.0
 40
0.5
 40
0.5
 40
1.0
 40
1.0
 40
1.0
 40
1.0
 10
199.8550464338959
 20
331.0734999468623
 30
0.0
 10
199.856707606034
 20
331.3433900577278
 30
0.0
 10
199.7441704916893
 20
331.610462237767
 30
0.0
 10
199.3639349563223
 20
331.9914049604771
 30
0.0
 10
199.0958319874352
 20
332.1022853568949
 30
0.0
 10
198.8264548885981
 20
332.1020832642251
 30
0.0
  0
LINE
  5
14F
330
1F
100
AcDbEntity
  8
0
  6
Continuous
 62
     8
370
    18
100
AcDbLine
 10
181.8550754486
 20
332.0940833282
 30
0.0
 11
181.8550754486
 21
332.1020832642
 31
0.0
  0
LINE
  5
150
330
1F
100
AcDbEntity
  8
0
  6
Continuous
 62
     8
370
    18
100
AcDbLine
 10
181.8550754485
 20
332.1021316335
 30
0.0
 11
198.8264548877
 21
332.1021316335
 31
0.0
  0
LINE
  5
151
330
1F
100
AcDbEntity
  8
0
  6
Continuous
 62
     8
370
    18
100
AcDbLine
 10
181.8550754486
 20
332.1020832642
 30
0.0
 11
164.8836960085
 21
332.1020832642
 31
0.0
  0
LINE
  5
152
330
1F
100
AcDbEntity
  8
0
  6
Continuous
 62
     8
370
    18
100
AcDbLine
 10
164.883696009
 20
332.1136238209
 30
0.0
 11
164.8836960101
 21
332.102131634
 31
0.0
  0
LINE
  5
153
330
1F
100
AcDbEntity
  8
0
  6
Continuous
 62
     8
370
    18
100
AcDbLine
 10
198.8264548877
 20
332.1021316343
 30
0.0
 11
198.8264548874
 21
332.1136238209
 31
0.0
  0
LINE
  5
154
330
1F
100
AcDbEntity
  8
0
  6
Continuous
 62
     8
370
    18
100
AcDbLine
 10
198.8555145564
 20
118.093780589
 30
0.0
 11
198.8555145564
 21
229.1829848087
 31
0.0
  0
LINE
  5
155
330
1F
100
AcDbEntity
  8
0
  6
Continuous
 62
     8
370
    18
100
AcDbLine
 10
164.85551237
 20
118.093780589
 30
0.0
 11
198.8555145564
 21
118.093780589
 31
0.0
  0
LINE
  5
156
330
1F
100
AcDbEntity
  8
0
  6
Continuous
 62
     8
370
    18
100
AcDbLine
 10
164.85551237
 20
118.093780589
 30
0.0
 11
164.85551237
 21
229.1829574822
 31
0.0
  0
SPLINE
  5
157
330
1F
100
AcDbEntity
  8
0
  6
Continuous
 62
     8
370
    18
100
AcDbSpline
210
0.0
220
0.0
230
1.0
 70
    24
 71
     3
 72
    14
 73
    10
 74
     0
 42
0.00000001
 43
0.00000001
 40
0.0
 40
0.0
 40
0.0
 40
0.0
 40
0.25
 40
0.25
 40
0.5
 40
0.5
 40
0.75
 40
0.75
 40
1.0
 40
1.0
 40
1.0
 40
1.0
 10
163.8555123699424
 20
118.0937805890112
 30
0.0
 10
163.8555123697745
 20
118.0937805890363
 30
0.0
 10
163.8769911084402
 20
118.0937805890587
 30
0.0
 10
163.9744570285153
 20
118.0937805890905
 30
0.0
 10
164.0507745153069
 20
118.0937805890994
 30
0.0
 10
164.2460366612593
 20
118.0937805890994
 30
0.0
 10
164.3643207096583
 20
118.0937805890905
 30
0.0
 10
164.6105146106358
 20
118.0937805890588
 30
0.0
 10
164.7376612397227
 20
118.0937805890366
 30
0.0
 10
164.8555123700049
 20
118.0937805890112
 30
0.0
  0
LINE
  5
158
330
1F
100
AcDbEntity
  8
0
  6
Continuous
 62
     8
370
    18
100
AcDbLine
 10
198.8555145564
 20
118.093780589
 30
0.0
 11
199.8555145565
 21
118.093780589
 31
0.0
  0
SPLINE
  5
159
330
1F
100
AcDbEntity
  8
0
  6
Continuous
 62
     8
370
    18
100
AcDbSpline
210
0.0
220
0.0
230
1.0
 70
    24
 71
     3
 72
    10
 73
     6
 74
     0
 42
0.00000001
 43
0.00000001
 40
0.0
 40
0.0
 40
0.0
 40
0.0
 40
0.5
 40
0.5
 40
1.0
 40
1.0
 40
1.0
 40
1.0
 10
164.855512370219
 20
117.0937805890112
 30
0.0
 10
164.855512370163
 20
117.0937805890121
 30
0.0
 10
164.8555123701072
 20
117.2015536854027
 30
0.0
 10
164.855512370028
 20
117.5717939302491
 30
0.0
 10
164.8555123700049
 20
117.8319812012126
 30
0.0
 10
164.8555123700049
 20
118.0937805890112
 30
0.0
  0
LINE
  5
15A
330
1F
100
AcDbEntity
  8
0
  6
Continuous
 62
     8
370
    18
100
AcDbLine
 10
198.8555145564
 20
118.093780589
 30
0.0
 11
198.8555145565
 21
117.093780589
 31
0.0
  0
SPLINE
  5
15B
330
1F
100
AcDbEntity
  8
0
  6
Continuous
 62
     8
370
    18
100
AcDbSpline
210
0.0
220
0.0
230
1.0
 70
     8
 71
     3
 72
    33
 73
    29
 74
     0
 42
0.00000001
 43
0.00000001
 40
0.0
 40
0.0
 40
0.0
 40
0.0
 40
0.0190878135363985
 40
0.0381795741833243
 40
0.0572924407854318
 40
0.086874685868316
 40
0.11651172998578
 40
0.1774738038076336
 40
0.239983308589099
 40
0.303788419986795
 40
0.3686009915720377
 40
0.4059787639266889
 40
0.4341242959769477
 40
0.4717449285430045
 40
0.499998198046081
 40
0.5376620161356791
 40
0.5658720918559894
 40
0.6033780455041956
 40
0.6313953720067814
 40
0.6685474158622462
 40
0.6962285011515321
 40
0.760033612549129
 40
0.8225431173304685
 40
0.8835051911521792
 40
0.9427084540340305
 40
0.9716034496708342
 40
0.9857879152615973
 40
1.0
 40
1.0
 40
1.0
 40
1.0
 10
158.8554725313708
 20
331.0937802521113
 30
0.0
 10
158.8559914217423
 20
331.1537336778912
 30
0.0
 10
158.857029309785
 20
331.2736529270366
 30
0.0
 10
158.8654312586712
 20
331.4534432006118
 30
0.0
 10
158.881278468665
 20
331.6657795061664
 30
0.0
 10
158.9091151802966
 20
331.910330056773
 30
0.0
 10
158.9691534678355
 20
332.2830993199452
 30
0.0
 10
159.079368925122
 20
332.7520082992527
 30
0.0
 10
159.269081600442
 20
333.3097567873579
 30
0.0
 10
159.5181375968335
 20
333.8570386666175
 30
0.0
 10
159.7813471488475
 20
334.3081993560637
 30
0.0
 10
160.0154408426681
 20
334.6442836443517
 30
0.0
 10
160.214079229836
 20
334.9003157561363
 30
0.0
 10
160.4070205185945
 20
335.1241167526457
 30
0.0
 10
160.6318702967563
 20
335.3591720749311
 30
0.0
 10
160.8471481705619
 20
335.5620772115799
 30
0.0
 10
161.0946998359685
 20
335.772323762609
 30
0.0
 10
161.3287752617429
 20
335.9511876827794
 30
0.0
 10
161.5948159657885
 20
336.1335980130756
 30
0.0
 10
161.8436196977511
 20
336.2860886976216
 30
0.0
 10
162.1984692031147
 20
336.4794583904983
 30
0.0
 10
162.6395123834727
 20
336.6801820349195
 30
0.0
 10
163.1972587043336
 20
336.8698878424889
 30
0.0
 10
163.7566264217
 20
337.0013512520131
 30
0.0
 10
164.2211663820799
 20
337.0652196272918
 30
0.0
 10
164.5417876156069
 20
337.0866857482146
 30
0.0
 10
164.7216427750874
 20
337.0929187037995
 30
0.0
 10
164.8108329566754
 20
337.0934922141755
 30
0.0
 10
164.8554714216956
 20
337.0937792482683
 30
0.0
  0
SPLINE
  5
15C
330
1F
100
AcDbEntity
  8
0
  6
Continuous
 62
     8
370
    18
100
AcDbSpline
210
0.0
220
0.0
230
1.0
 70
     8
 71
     3
 72
    18
 73
    14
 74
     0
 42
0.00000001
 43
0.00000001
 40
0.0
 40
0.0
 40
0.0
 40
0.0
 40
0.2500000000000016
 40
0.2500000000000016
 40
0.3750000000000012
 40
0.3750000000000012
 40
0.500000000000001
 40
0.500000000000001
 40
0.6250000000000008
 40
0.6250000000000008
 40
0.7500000000000004
 40
0.7500000000000004
 40
1.0
 40
1.0
 40
1.0
 40
1.0
 10
164.8554714378196
 20
332.0937792444839
 30
0.0
 10
164.8554714382544
 20
332.0937792311349
 30
0.0
 10
164.8554714382969
 20
332.2011729133193
 30
0.0
 10
164.8554714375264
 20
332.5666701020056
 30
0.0
 10
164.8554714371326
 20
332.7219208761241
 30
0.0
 10
164.8554714360698
 20
333.0956824153347
 30
0.0
 10
164.8554714354009
 20
333.3141676106009
 30
0.0
 10
164.8554714338221
 20
333.8023229758147
 30
0.0
 10
164.8554714329127
 20
334.0718832500373
 30
0.0
 10
164.8554714309177
 20
334.6435776228049
 30
0.0
 10
164.8554714298328
 20
334.9455632856633
 30
0.0
 10
164.8554714264354
 20
335.8687904268164
 30
0.0
 10
164.8554714239895
 20
336.504523583937
 30
0.0
 10
164.855471421649
 20
337.0937792482683
 30
0.0
  0
SPLINE
  5
15D
330
1F
100
AcDbEntity
  8
0
  6
Continuous
 62
     8
370
    18
100
AcDbSpline
210
0.0
220
0.0
230
1.0
 70
    24
 71
     3
 72
    18
 73
    14
 74
     0
 42
0.00000001
 43
0.00000001
 40
0.0
 40
0.0
 40
0.0
 40
0.0
 40
0.2500000000000018
 40
0.2500000000000018
 40
0.3750000000000022
 40
0.3750000000000022
 40
0.5000000000000028
 40
0.5000000000000028
 40
0.6250000000000033
 40
0.6250000000000033
 40
0.7500000000000038
 40
0.7500000000000038
 40
1.0
 40
1.0
 40
1.0
 40
1.0
 10
163.8554725313707
 20
331.0937803553185
 30
0.0
 10
163.8554725473773
 20
331.0937803553182
 30
0.0
 10
163.7480788675818
 20
331.0937803531013
 30
0.0
 10
163.3825816797907
 20
331.0937803455566
 30
0.0
 10
163.2273309055381
 20
331.0937803423519
 30
0.0
 10
162.8535693652495
 20
331.0937803346368
 30
0.0
 10
162.6350841690408
 20
331.0937803301269
 30
0.0
 10
162.1469288016053
 20
331.0937803200507
 30
0.0
 10
161.877368526112
 20
331.0937803144866
 30
0.0
 10
161.3056741512182
 20
331.0937803026861
 30
0.0
 10
161.0036884875146
 20
331.0937802964528
 30
0.0
 10
160.0804613455365
 20
331.0937802773963
 30
0.0
 10
159.4447281903621
 20
331.0937802642741
 30
0.0
 10
158.8554725313699
 20
331.0937802521113
 30
0.0
  0
SPLINE
  5
15E
330
1F
100
AcDbEntity
  8
0
  6
Continuous
 62
     8
370
    18
100
AcDbSpline
210
0.0
220
0.0
230
1.0
 70
    24
 71
     3
 72
    18
 73
    14
 74
     0
 42
0.00000001
 43
0.00000001
 40
0.0
 40
0.0
 40
0.0
 40
0.0
 40
0.2499999999999998
 40
0.2499999999999998
 40
0.3749999999999997
 40
0.3749999999999997
 40
0.4999999999999994
 40
0.4999999999999994
 40
0.6249999999999992
 40
0.6249999999999992
 40
0.7499999999999991
 40
0.7499999999999991
 40
1.0
 40
1.0
 40
1.0
 40
1.0
 10
158.8554728409911
 20
316.0937794054218
 30
0.0
 10
159.4447284999832
 20
316.0937794175845
 30
0.0
 10
160.0804616551575
 20
316.0937794307065
 30
0.0
 10
161.0036887971354
 20
316.0937794497629
 30
0.0
 10
161.305674460839
 20
316.0937794559961
 30
0.0
 10
161.8773688357328
 20
316.0937794677966
 30
0.0
 10
162.1469291112261
 20
316.0937794733607
 30
0.0
 10
162.6350844786616
 20
316.0937794834368
 30
0.0
 10
162.8535696748702
 20
316.0937794879466
 30
0.0
 10
163.2273312151589
 20
316.0937794956616
 30
0.0
 10
163.3825819894116
 20
316.0937794988662
 30
0.0
 10
163.7480791772027
 20
316.0937795064108
 30
0.0
 10
163.8554728569983
 20
316.0937795086278
 30
0.0
 10
163.8554728409919
 20
316.0937795086281
 30
0.0
  0
LINE
  5
15F
330
1F
100
AcDbEntity
  8
0
  6
Continuous
 62
     8
370
    18
100
AcDbLine
 10
158.855472841
 20
331.0937802521
 30
0.0
 11
158.855472841
 21
316.0937794054
 31
0.0
  0
LINE
  5
160
330
1F
100
AcDbEntity
  8
0
  6
Continuous
 62
     8
370
    18
100
AcDbLine
 10
204.855476988
 20
316.0937795086
 30
0.0
 11
199.8554769879
 21
316.0937795086
 31
0.0
  0
SPLINE
  5
161
330
1F
100
AcDbEntity
  8
0
  6
Continuous
 62
     8
370
    18
100
AcDbSpline
210
0.0
220
0.0
230
1.0
 70
     8
 71
     3
 72
    11
 73
     7
 74
     0
 42
0.00000001
 43
0.00000001
 40
0.0
 40
0.0
 40
0.0
 40
0.0
 40
0.2613349806400943
 40
0.5224946981443532
 40
0.7834691584345146
 40
1.0
 40
1.0
 40
1.0
 40
1.0
 10
158.8554728409929
 20
316.0937794054218
 30
0.0
 10
158.8848971041508
 20
314.4668827923915
 30
0.0
 10
158.9437258972162
 20
311.2141806372677
 30
0.0
 10
159.7839466997204
 20
306.4011268199185
 30
0.0
 10
161.3283980877618
 20
302.0149740890848
 30
0.0
 10
163.0670834281541
 20
299.5940302420077
 30
0.0
 10
163.8555123702197
 20
298.4962225180867
 30
0.0
  0
SPLINE
  5
162
330
1F
100
AcDbEntity
  8
0
  6
Continuous
 62
     8
370
    18
100
AcDbSpline
210
0.0
220
0.0
230
1.0
 70
     8
 71
     3
 72
    11
 73
     7
 74
     0
 42
0.00000001
 43
0.00000001
 40
0.0
 40
0.0
 40
0.0
 40
0.0
 40
0.2165426870954765
 40
0.477510060798247
 40
0.7386668784480275
 40
1.0
 40
1.0
 40
1.0
 40
1.0
 10
199.8555145564993
 20
298.4953817552333
 30
0.0
 10
200.6432911278085
 20
299.5937106921081
 30
0.0
 10
202.3804601059299
 20
302.0156955878267
 30
0.0
 10
203.9278942952466
 20
306.4006884405833
 30
0.0
 10
204.7671447399154
 20
311.2141755426019
 30
0.0
 10
204.8260262824908
 20
314.4668789997909
 30
0.0
 10
204.8554769879848
 20
316.0937795086288
 30
0.0
  0
LINE
  5
163
330
1F
100
AcDbEntity
  8
0
  6
Continuous
 62
     8
370
    18
100
AcDbLine
 10
164.8554714217
 20
337.0937803551
 30
0.0
 11
198.8554736115
 21
337.0937803551
 31
0.0
  0
SPLINE
  5
164
330
1F
100
AcDbEntity
  8
0
  6
Continuous
 62
     8
370
    18
100
AcDbSpline
210
0.0
220
0.0
230
1.0
 70
     8
 71
     3
 72
    18
 73
    14
 74
     0
 42
0.00000001
 43
0.00000001
 40
0.0
 40
0.0
 40
0.0
 40
0.0
 40
0.2499999999999994
 40
0.2499999999999994
 40
0.3749999999999991
 40
0.3749999999999991
 40
0.4999999999999988
 40
0.4999999999999988
 40
0.6249999999999984
 40
0.6249999999999984
 40
0.7499999999999982
 40
0.7499999999999982
 40
1.0
 40
1.0
 40
1.0
 40
1.0
 10
198.8554736145253
 20
337.0937837317697
 30
0.0
 10
198.8554736141698
 20
336.5045280812271
 30
0.0
 10
198.8554736137018
 20
335.8687949369784
 30
0.0
 10
198.8554736128577
 20
334.9455678101586
 30
0.0
 10
198.8554736125536
 20
334.6435821512404
 30
0.0
 10
198.855473611915
 20
334.0718877841683
 30
0.0
 10
198.8554736115808
 20
333.8023275116965
 30
0.0
 10
198.8554736109028
 20
333.3141721475288
 30
0.0
 10
198.8554736105593
 20
333.0956869515566
 30
0.0
 10
198.8554736098847
 20
332.7219254085463
 30
0.0
 10
198.8554736095538
 20
332.5666746313368
 30
0.0
 10
198.8554736086081
 20
332.2011774303756
 30
0.0
 10
198.855473608044
 20
332.0937837359974
 30
0.0
 10
198.8554736075811
 20
332.0937837355552
 30
0.0
  0
LINE
  5
165
330
1F
100
AcDbEntity
  8
0
  6
Continuous
 62
     8
370
    18
100
AcDbLine
 10
199.855476988
 20
331.0937803553
 30
0.0
 11
204.855476988
 21
331.0937803553
 31
0.0
  0
SPLINE
  5
166
330
1F
100
AcDbEntity
  8
0
  6
Continuous
 62
     8
370
    18
100
AcDbSpline
210
0.0
220
0.0
230
1.0
 70
     8
 71
     3
 72
    22
 73
    18
 74
     0
 42
0.00000001
 43
0.00000001
 40
0.0
 40
0.0
 40
0.0
 40
0.0
 40
0.125
 40
0.125
 40
0.25
 40
0.25
 40
0.375
 40
0.375
 40
0.5
 40
0.5
 40
0.625
 40
0.625
 40
0.75
 40
0.75
 40
0.875
 40
0.875
 40
1.0
 40
1.0
 40
1.0
 40
1.0
 10
204.8554769879839
 20
331.0937803553184
 30
0.0
 10
204.8554769879654
 20
331.4473339447827
 30
0.0
 10
204.8240468866533
 20
331.8141091882605
 30
0.0
 10
204.6865713975823
 20
332.557009379497
 30
0.0
 10
204.5804055200119
 20
332.9330587960456
 30
0.0
 10
204.2880075948812
 20
333.6716409137525
 30
0.0
 10
204.101706557427
 20
334.0340239087092
 30
0.0
 10
203.6531924533724
 20
334.720057535892
 30
0.0
 10
203.3910100705837
 20
335.0435300451988
 30
0.0
 10
202.8052233036756
 20
335.6293168123991
 30
0.0
 10
202.4817507944995
 20
335.8914991953492
 30
0.0
 10
201.7957171675403
 20
336.3400132997459
 30
0.0
 10
201.4333341726766
 20
336.5263143373809
 30
0.0
 10
200.6947520551155
 20
336.8187122628801
 30
0.0
 10
200.3187026386199
 20
336.9248781406381
 30
0.0
 10
199.5758024474518
 20
337.0623536300798
 30
0.0
 10
199.2090272039898
 20
337.0937837315748
 30
0.0
 10
198.8554736145253
 20
337.0937837317697
 30
0.0
  0
LINE
  5
167
330
1F
100
AcDbEntity
  8
0
  6
Continuous
 62
     8
370
    18
100
AcDbLine
 10
204.855476988
 20
316.0937795086
 30
0.0
 11
204.855476988
 21
331.0937803553
 31
0.0
  0
LINE
  5
168
330
1F
100
AcDbEntity
  8
0
  6
Continuous
 62
     8
370
    18
100
AcDbLine
 10
204.9554679603
 20
337.193779586
 30
0.0
 11
158.7554679603
 21
337.193779586
 31
0.0
  0
LINE
  5
169
330
1F
100
AcDbEntity
  8
0
  6
Continuous
 62
     8
370
    18
100
AcDbLine
 10
204.9554679603
 20
290.9937795858
 30
0.0
 11
204.9554679603
 21
337.193779586
 31
0.0
  0
LINE
  5
16A
330
1F
100
AcDbEntity
  8
0
  6
Continuous
 62
     8
370
    18
100
AcDbLine
 10
158.7554679603
 20
290.9937795858
 30
0.0
 11
163.8551044632
 21
290.9937795858
 31
0.0
  0
LINE
  5
16B
330
1F
100
AcDbEntity
  8
0
  6
Continuous
 62
     8
370
    18
100
AcDbLine
 10
199.8555145565
 20
290.9937795858
 30
0.0
 11
204.9554679603
 21
290.9937795858
 31
0.0
  0
LINE
  5
16C
330
1F
100
AcDbEntity
  8
0
  6
Continuous
 62
     8
370
    18
100
AcDbLine
 10
158.7554679603
 20
337.193779586
 30
0.0
 11
158.7554679603
 21
290.9937795858
 31
0.0
  0
LINE
  5
16D
330
1F
100
AcDbEntity
  8
0
  6
Continuous
 62
     8
370
    18
100
AcDbLine
 10
204.9554679603
 20
338.193779586
 30
0.0
 11
204.9554679603
 21
337.193779586
 31
0.0
  0
LINE
  5
16E
330
1F
100
AcDbEntity
  8
0
  6
Continuous
 62
     8
370
    18
100
AcDbLine
 10
158.7554679603
 20
338.193779586
 30
0.0
 11
158.7554679603
 21
337.193779586
 31
0.0
  0
LINE
  5
16F
330
1F
100
AcDbEntity
  8
0
  6
Continuous
 62
     8
370
    18
100
AcDbLine
 10
158.7554679603
 20
337.193779586
 30
0.0
 11
157.7554679603
 21
337.193779586
 31
0.0
  0
LINE
  5
170
330
1F
100
AcDbEntity
  8
0
  6
Continuous
 62
     8
370
    18
100
AcDbLine
 10
158.7554679603
 20
290.9937795858
 30
0.0
 11
157.7554679603
 21
290.9937795858
 31
0.0
  0
LINE
  5
171
330
1F
100
AcDbEntity
  8
0
  6
Continuous
 62
     8
370
    18
100
AcDbLine
 10
205.9554679603
 20
337.193779586
 30
0.0
 11
204.9554679603
 21
337.193779586
 31
0.0
  0
LINE
  5
172
330
1F
100
AcDbEntity
  8
0
  6
Continuous
 62
     8
370
    18
100
AcDbLine
 10
158.7554679603
 20
290.9937795858
 30
0.0
 11
158.7554679603
 21
289.9937795858
 31
0.0
  0
LINE
  5
173
330
1F
100
AcDbEntity
  8
0
  6
Continuous
 62
     8
370
    18
100
AcDbLine
 10
204.9554679603
 20
290.9937795858
 30
0.0
 11
204.9554679603
 21
289.9937795858
 31
0.0
  0
LINE
  5
174
330
1F
100
AcDbEntity
  8
0
  6
Continuous
 62
     8
370
    18
100
AcDbLine
 10
205.9554679603
 20
290.9937795858
 30
0.0
 11
204.9554679603
 21
290.9937795858
 31
0.0
  0
SPLINE
  5
175
330
1F
100
AcDbEntity
  8
0
  6
Continuous
 62
     7
370
    25
100
AcDbSpline
210
0.0
220
0.0
230
1.0
 70
     8
 71
     3
 72
    18
 73
    14
 74
     0
 42
0.00000001
 43
0.00000001
 40
0.0
 40
0.0
 40
0.0
 40
0.0
 40
0.0390729879863004
 40
0.0923173906099088
 40
0.1534566087061258
 40
0.2384272897338753
 40
0.333813773936472
 40
0.4383955838851533
 40
0.5480502014044951
 40
0.6513602235477022
 40
0.7767211353758428
 40
0.8924100000264839
 40
1.0
 40
1.0
 40
1.0
 40
1.0
 10
359.5163606521592
 20
670.1602917831364
 30
0.0
 10
360.2136725980658
 20
670.662363882643
 30
0.0
 10
361.8612051417708
 20
671.8486050306385
 30
0.0
 10
364.7986605281631
 20
673.6143645911336
 30
0.0
 10
368.7926829212248
 20
675.6026752246682
 30
0.0
 10
373.8209706505614
 20
677.6055580295051
 30
0.0
 10
379.8710961680814
 20
679.6332122982609
 30
0.0
 10
386.5011856693556
 20
681.6591166692405
 30
0.0
 10
393.3166699536248
 20
683.673044624898
 30
0.0
 10
400.5899124417898
 20
685.7839372302612
 30
0.0
 10
408.0049212109274
 20
687.8946446492517
 30
0.0
 10
415.5326264632002
 20
689.9631364308387
 30
0.0
 10
420.3714603336869
 20
691.2150261667307
 30
0.0
 10
422.7031191625413
 20
691.8182664997472
 30
0.0
  0
SPLINE
  5
176
330
1F
100
AcDbEntity
  8
0
  6
Continuous
 62
     7
370
    25
100
AcDbSpline
210
0.0
220
0.0
230
1.0
 70
     8
 71
     3
 72
    13
 73
     9
 74
     0
 42
0.00000001
 43
0.00000001
 40
0.0
 40
0.0
 40
0.0
 40
0.0
 40
0.2394557791914647
 40
0.3683592375999067
 40
0.4999984459826763
 40
0.6316379126455172
 40
0.7605420833652966
 40
1.0
 40
1.0
 40
1.0
 40
1.0
 10
362.6415675604165
 20
415.3343265332681
 30
0.0
 10
362.0125917118672
 20
415.4011166151614
 30
0.0
 10
361.0450265738585
 20
415.503861028884
 30
0.0
 10
359.8809577298836
 20
416.1273491423147
 30
0.0
 10
359.0799318121284
 20
416.7726581841455
 30
0.0
 10
358.4346293513437
 20
417.5736918660631
 30
0.0
 10
357.8111474649904
 20
418.7377727555199
 30
0.0
 10
357.7084045974709
 20
419.7053451919107
 30
0.0
 10
357.6416154412307
 20
420.3343265332732
 30
0.0
  0
SPLINE
  5
177
330
1F
100
AcDbEntity
  8
0
  6
Continuous
 62
     7
370
    25
100
AcDbSpline
210
0.0
220
0.0
230
1.0
 70
     8
 71
     3
 72
    15
 73
    11
 74
     0
 42
0.00000001
 43
0.00000001
 40
0.0
 40
0.0
 40
0.0
 40
0.0
 40
0.0862188669267312
 40
0.2202338411664704
 40
0.3537520290809197
 40
0.483755099763923
 40
0.6129714241875762
 40
0.7440720435729774
 40
0.8740565685769494
 40
0.9999999999999999
 40
0.9999999999999999
 40
0.9999999999999999
 40
0.9999999999999999
 10
424.2161849410828
 20
694.2819801147995
 30
0.0
 10
424.2073926890564
 20
694.322096135424
 30
0.0
 10
424.184934130909
 20
694.4245668083676
 30
0.0
 10
424.0976124035368
 20
694.5773491115333
 30
0.0
 10
423.9658304227095
 20
694.731504120889
 30
0.0
 10
423.8006598621208
 20
694.8597544557741
 30
0.0
 10
423.6117746008596
 20
694.958829511803
 30
0.0
 10
423.4062072086106
 20
695.024261061569
 30
0.0
 10
423.1944344815196
 20
695.0570302963619
 30
0.0
 10
423.058936594473
 20
695.0503284430434
 30
0.0
 10
422.992257404425
 20
695.0470304274004
 30
0.0
  0
LINE
  5
178
330
1F
100
AcDbEntity
  8
0
  6
Continuous
 62
     7
370
    25
100
AcDbLine
 10
357.6416154412
 20
420.3343266082
 30
0.0
 11
357.6416154412
 21
431.3343265333
 31
0.0
  0
LINE
  5
179
330
1F
100
AcDbEntity
  8
0
  6
Continuous
 62
     7
370
    25
100
AcDbLine
 10
357.6414713326
 20
431.3343265664
 30
0.0
 11
357.6414713326
 21
460.5770775616
 31
0.0
  0
LINE
  5
17A
330
1F
100
AcDbEntity
  8
0
  6
Continuous
 62
     7
370
    25
100
AcDbLine
 10
357.6414645732
 20
460.5771067902
 30
0.0
 11
357.6414645732
 21
590.3126381476
 31
0.0
  0
LINE
  5
17B
330
1F
100
AcDbEntity
  8
0
  6
Continuous
 62
     7
370
    25
100
AcDbLine
 10
357.6414710989
 20
590.3126674293
 30
0.0
 11
357.641471099
 21
605.4026681159
 31
0.0
  0
SPLINE
  5
17C
330
1F
100
AcDbEntity
  8
0
  6
Continuous
 62
     7
370
    25
100
AcDbSpline
210
0.0
220
0.0
230
1.0
 70
     8
 71
     3
 72
    25
 73
    21
 74
     0
 42
0.00000001
 43
0.00000001
 40
0.0
 40
0.0
 40
0.0
 40
0.0
 40
0.1035647561490224
 40
0.1988008878611859
 40
0.2846479135084609
 40
0.3595951331859525
 40
0.4228391341029933
 40
0.4744071617337525
 40
0.5184679022193003
 40
0.5595266662636963
 40
0.5977926424247111
 40
0.6338105628695165
 40
0.6714220193450369
 40
0.7121293978546243
 40
0.741555802142416
 40
0.7766762455475819
 40
0.8192822924057478
 40
0.8703178103984083
 40
0.9305894302170218
 40
1.0
 40
1.0
 40
1.0
 40
1.0
 10
357.6412922002164
 20
605.4026668207075
 30
0.0
 10
357.6412887285533
 20
607.5958433182645
 30
0.0
 10
357.6412820644166
 20
611.8058221871692
 30
0.0
 10
357.8240172711214
 20
617.8326064480675
 30
0.0
 10
358.2675434135913
 20
623.2394803969564
 30
0.0
 10
358.9685765568656
 20
627.9359148756714
 30
0.0
 10
359.8653968435029
 20
631.857459543854
 30
0.0
 10
360.8833816799371
 20
635.068156312447
 30
0.0
 10
361.9906156421794
 20
637.7464171939295
 30
0.0
 10
363.2063864931735
 20
640.0637350980724
 30
0.0
 10
364.5549515931863
 20
642.1056088154463
 30
0.0
 10
366.0702213824391
 20
643.9336665436815
 30
0.0
 10
367.8311441722679
 20
645.6047794740418
 30
0.0
 10
369.6907408804036
 20
646.9410945270695
 30
0.0
 10
371.6489254442913
 20
648.0129374549645
 30
0.0
 10
373.7491296922231
 20
648.8848483270265
 30
0.0
 10
376.3780445009122
 20
649.6321381262586
 30
0.0
 10
379.601290981141
 20
650.1578129047314
 30
0.0
 10
383.4249527212002
 20
650.4012271786684
 30
0.0
 10
386.1714480600539
 20
650.4021649145319
 30
0.0
 10
387.6414710983894
 20
650.4026668244766
 30
0.0
  0
ARC
  5
17D
330
1F
100
AcDbEntity
  8
0
  6
Continuous
 62
     7
370
    25
100
AcDbCircle
 10
345.7583639932
 20
666.4026684469
 30
0.0
 40
22.81689189189189
100
AcDbArc
 50
160.3646928818
 51
180.0
  0
ARC
  5
17E
330
1F
100
AcDbEntity
  8
0
  6
Continuous
 62
     7
370
    25
100
AcDbCircle
 10
331.3245802095
 20
666.4026684469
 30
0.0
 40
22.81689189189194
100
AcDbArc
 50
0.0
 51
9.5970066134
  0
ARC
  5
17F
330
1F
100
AcDbEntity
  8
0
  6
Continuous
 62
     7
370
    25
100
AcDbCircle
 10
324.4566316963
 20
674.0026684469
 30
0.0
 40
0.2000000000000482
100
AcDbArc
 50
90.0
 51
160.3646928818
  0
LINE
  5
180
330
1F
100
AcDbEntity
  8
0
  6
Continuous
 62
     7
370
    25
100
AcDbLine
 10
324.4566316963
 20
674.3970192466
 30
0.0
 11
324.4566316963
 21
674.2026684469
 31
0.0
  0
LWPOLYLINE
  5
181
330
1F
100
AcDbEntity
  8
0
  6
Continuous
 62
     7
370
    25
100
AcDbPolyline
 90
        3
 70
   128
 43
0.0
 10
512.326231451
 20
650.4038095327
 10
512.3270260597
 20
650.2565082709
 10
512.3316801888
 20
649.3939419863
  0
LWPOLYLINE
  5
182
330
1F
100
AcDbEntity
  8
0
  6
Continuous
 62
     7
370
    25
100
AcDbPolyline
 90
        3
 70
   128
 43
0.0
 10
528.0357059567
 20
649.3937900825
 10
528.0413147477
 20
650.1066278766
 10
528.0436527422
 20
650.4038095327
  0
LWPOLYLINE
  5
183
330
1F
100
AcDbEntity
  8
0
  6
Continuous
 62
     7
370
    25
100
AcDbPolyline
 90
        3
 70
   128
 43
0.0
 10
511.439291405
 20
650.4038095327
 10
511.4404514376
 20
650.256356364
 10
511.447238246
 20
649.3937900825
  0
LWPOLYLINE
  5
184
330
1F
100
AcDbEntity
  8
0
  6
Continuous
 62
     7
370
    25
100
AcDbPolyline
 90
        8
 70
   128
 43
0.0
 10
332.9943206019
 20
676.9547506754
 10
400.4338443749
 20
688.2362513149
 10
417.5292212574
 20
691.0984636983
 10
421.9208134477
 20
691.8349354059
 10
423.0775854801
 20
692.0295126387
 10
423.3962154806
 20
692.0833865998
 10
423.4905914769
 20
692.0994699166
 10
423.541674804
 20
692.1083174575
  0
SPLINE
  5
185
330
1F
100
AcDbEntity
  8
0
  6
Continuous
 62
     7
370
    25
100
AcDbSpline
210
0.0
220
0.0
230
1.0
 70
     8
 71
     3
 72
    14
 73
    10
 74
     0
 42
0.00000001
 43
0.00000001
 40
0.0
 40
0.0
 40
0.0
 40
0.0
 40
0.25
 40
0.25
 40
0.5
 40
0.5
 40
0.75
 40
0.75
 40
1.0
 40
1.0
 40
1.0
 40
1.0
 10
423.541674764739
 20
692.108317450592
 30
0.0
 10
423.6741698796891
 20
692.1324710658658
 30
0.0
 10
423.80661741188
 20
692.1566168396677
 30
0.0
 10
424.0513929670295
 20
692.2015927629901
 30
0.0
 10
424.1636243400256
 20
692.2224069849373
 30
0.0
 10
424.3507977920722
 20
692.2578902844863
 30
0.0
 10
424.4256658964997
 20
692.2725471713306
 30
0.0
 10
424.5266213945321
 20
692.2938220556352
 30
0.0
 10
424.5526687536182
 20
692.3004334555477
 30
0.0
 10
424.5522941821893
 20
692.3026906143447
 30
0.0
  0
SPLINE
  5
186
330
1F
100
AcDbEntity
  8
0
  6
Continuous
 62
     7
370
    25
100
AcDbSpline
210
0.0
220
0.0
230
1.0
 70
     8
 71
     3
 72
    12
 73
     8
 74
     0
 42
0.00000001
 43
0.00000001
 40
0.0
 40
0.0
 40
0.0
 40
0.0
 40
0.0076586015101769
 40
0.0626070681119089
 40
0.2104751346545482
 40
0.7619948782284118
 40
1.0
 40
1.0
 40
1.0
 40
1.0
 10
423.5417510235702
 20
692.1080271137155
 30
0.0
 10
423.5211962860157
 20
692.1044454843897
 30
0.0
 10
423.353166672203
 20
692.0751665996154
 30
0.0
 10
422.7876950251452
 20
691.980119847758
 30
0.0
 10
420.7612872042203
 20
691.638241029343
 30
0.0
 10
418.2426217257853
 20
691.2163408605253
 30
0.0
 10
416.1212350114902
 20
690.8611665285787
 30
0.0
 10
415.4817353257652
 20
690.7540979436162
 30
0.0
  0
SPLINE
  5
187
330
1F
100
AcDbEntity
  8
0
  6
Continuous
 62
     7
370
    25
100
AcDbSpline
210
0.0
220
0.0
230
1.0
 70
    24
 71
     3
 72
    14
 73
    10
 74
     0
 42
0.00000001
 43
0.00000001
 40
0.0
 40
0.0
 40
0.0
 40
0.0
 40
0.1250000000000009
 40
0.1250000000000009
 40
0.2500000000000018
 40
0.2500000000000018
 40
0.5000000000000031
 40
0.5000000000000031
 40
1.0
 40
1.0
 40
1.0
 40
1.0
 10
359.001273197822
 20
670.1662730445468
 30
0.0
 10
359.0464182895429
 20
670.1660924641799
 30
0.0
 10
359.0820587555817
 20
670.165949902316
 30
0.0
 10
359.1552903159449
 20
670.1656569760745
 30
0.0
 10
359.1904382440633
 20
670.1655163843618
 30
0.0
 10
359.284496155257
 20
670.1651401527171
 30
0.0
 10
359.3374850338649
 20
670.1649281972028
 30
0.0
 10
359.4639079130664
 20
670.1644225056859
 30
0.0
 10
359.5059727930198
 20
670.164254246166
 30
0.0
 10
359.5062147236602
 20
670.1642532784435
 30
0.0
  0
SPLINE
  5
188
330
1F
100
AcDbEntity
  8
0
  6
Continuous
 62
     7
370
    25
100
AcDbSpline
210
0.0
220
0.0
230
1.0
 70
    24
 71
     3
 72
    22
 73
    18
 74
     0
 42
0.00000001
 43
0.00000001
 40
0.0
 40
0.0
 40
0.0
 40
0.0
 40
0.125
 40
0.125
 40
0.25
 40
0.25
 40
0.375
 40
0.375
 40
0.5
 40
0.5
 40
0.625
 40
0.625
 40
0.75
 40
0.75
 40
0.875
 40
0.875
 40
1.0
 40
1.0
 40
1.0
 40
1.0
 10
353.4163803187172
 20
670.1886126160632
 30
0.0
 10
353.7872189202023
 20
670.1871292616572
 30
0.0
 10
354.1485755875793
 20
670.1856838349878
 30
0.0
 10
354.8392675351907
 20
670.1829210671972
 30
0.0
 10
355.1697795957888
 20
670.1815990189548
 30
0.0
 10
355.8035756189523
 20
670.1790638348621
 30
0.0
 10
356.1089300431461
 20
670.1778424171656
 30
0.0
 10
356.6784289715391
 20
670.175564421452
 30
0.0
 10
356.9417434320061
 20
670.1745111636105
 30
0.0
 10
357.4270039087148
 20
670.1725701217036
 30
0.0
 10
357.6490396100464
 20
670.1716819788978
 30
0.0
 10
358.0507892118238
 20
670.1700749804909
 30
0.0
 10
358.2304068369843
 20
670.1693565099899
 30
0.0
 10
358.5365749288368
 20
670.1681318376226
 30
0.0
 10
358.6647254508724
 20
670.1676192355349
 30
0.0
 10
358.8699357670818
 20
670.16679839427
 30
0.0
 10
358.9456288444678
 20
670.1664956219602
 30
0.0
 10
359.0012731978219
 20
670.1662730445468
 30
0.0
  0
SPLINE
  5
189
330
1F
100
AcDbEntity
  8
0
  6
Continuous
 62
     7
370
    25
100
AcDbSpline
210
0.0
220
0.0
230
1.0
 70
    24
 71
     3
 72
    14
 73
    10
 74
     0
 42
0.00000001
 43
0.00000001
 40
0.0
 40
0.0
 40
0.0
 40
0.0
 40
0.25
 40
0.25
 40
0.5
 40
0.5
 40
0.75
 40
0.75
 40
1.0
 40
1.0
 40
1.0
 40
1.0
 10
346.6255848985654
 20
670.215775797744
 30
0.0
 10
347.2103109351652
 20
670.2134368935974
 30
0.0
 10
347.7915669680262
 20
670.2111118694659
 30
0.0
 10
348.9430791539679
 20
670.2065058207222
 30
0.0
 10
349.5138013163408
 20
670.2042229320729
 30
0.0
 10
350.6454110917765
 20
670.199696492971
 30
0.0
 10
351.2062913985927
 20
670.1974529717438
 30
0.0
 10
352.3189834926121
 20
670.1930022033678
 30
0.0
 10
352.8715505412287
 20
670.1907919351733
 30
0.0
 10
353.4163803187173
 20
670.1886126160632
 30
0.0
  0
SPLINE
  5
18A
330
1F
100
AcDbEntity
  8
0
  6
Continuous
 62
     7
370
    25
100
AcDbSpline
210
0.0
220
0.0
230
1.0
 70
    24
 71
     3
 72
    12
 73
     8
 74
     0
 42
0.00000001
 43
0.00000001
 40
0.0
 40
0.0
 40
0.0
 40
0.0
 40
0.5000000000000036
 40
0.5000000000000036
 40
0.7500000000000018
 40
0.7500000000000018
 40
1.0
 40
1.0
 40
1.0
 40
1.0
 10
340.684851750508
 20
670.2395387303361
 30
0.0
 10
341.6772690433007
 20
670.235569061165
 30
0.0
 10
342.6687460763719
 20
670.2316031530329
 30
0.0
 10
344.1538331471342
 20
670.2256628047498
 30
0.0
 10
344.6485709366562
 20
670.2236838535918
 30
0.0
 10
345.6375851448435
 20
670.219727796759
 30
0.0
 10
346.1318585703254
 20
670.2177507030569
 30
0.0
 10
346.6255848985654
 20
670.215775797744
 30
0.0
  0
SPLINE
  5
18B
330
1F
100
AcDbEntity
  8
0
  6
Continuous
 62
     7
370
    25
100
AcDbSpline
210
0.0
220
0.0
230
1.0
 70
     8
 71
     3
 72
     8
 73
     4
 74
     0
 42
0.00000001
 43
0.00000001
 40
0.0
 40
0.0
 40
0.0
 40
0.0
 40
1.0
 40
1.0
 40
1.0
 40
1.0
 10
339.1537446092818
 20
670.3240447735561
 30
0.0
 10
339.6627486271545
 20
670.2697464659284
 30
0.0
 10
340.173099441255
 20
670.2415857463922
 30
0.0
 10
340.6848513152561
 20
670.2395387320772
 30
0.0
  0
LINE
  5
18C
330
1F
100
AcDbEntity
  8
0
  6
Continuous
 62
     7
370
    25
100
AcDbLine
 10
316.5414721014
 20
410.3343265326
 30
0.0
 11
362.7414721016
 21
410.3343265326
 31
0.0
  0
LINE
  5
18D
330
1F
100
AcDbEntity
  8
0
  6
Continuous
 62
     7
370
    25
100
AcDbLine
 10
316.5414721014
 20
415.3343265333
 30
0.0
 11
362.7414721016
 21
415.3343265333
 31
0.0
  0
LINE
  5
18E
330
1F
100
AcDbEntity
  8
0
  6
Continuous
 62
     7
370
    25
100
AcDbLine
 10
363.7414721016
 20
414.3343265333
 30
0.0
 11
363.7414721016
 21
410.3343265326
 31
0.0
  0
LINE
  5
18F
330
1F
100
AcDbEntity
  8
0
  6
Continuous
 62
     7
370
    25
100
AcDbLine
 10
362.7414721016
 20
410.3343265326
 30
0.0
 11
363.7414721016
 21
410.3343265326
 31
0.0
  0
LINE
  5
190
330
1F
100
AcDbEntity
  8
0
  6
Continuous
 62
     7
370
    25
100
AcDbLine
 10
315.5414721014
 20
410.3343265326
 30
0.0
 11
315.5414721014
 21
414.3343265333
 31
0.0
  0
LINE
  5
191
330
1F
100
AcDbEntity
  8
0
  6
Continuous
 62
     7
370
    25
100
AcDbLine
 10
315.5414721014
 20
410.3343265326
 30
0.0
 11
316.5414721014
 21
410.3343265326
 31
0.0
  0
ARC
  5
192
330
1F
100
AcDbEntity
  8
0
  6
Continuous
 62
     7
370
    25
100
AcDbCircle
 10
362.7414721016
 20
414.3343265333
 30
0.0
 40
1.0
100
AcDbArc
 50
0.0
 51
90.0
  0
ARC
  5
193
330
1F
100
AcDbEntity
  8
0
  6
Continuous
 62
     7
370
    25
100
AcDbCircle
 10
316.5414721014
 20
414.3343265333
 30
0.0
 40
1.0
100
AcDbArc
 50
90.0
 51
180.0
  0
SPLINE
  5
194
330
1F
100
AcDbEntity
  8
0
  6
Continuous
 62
     7
370
    25
100
AcDbSpline
210
0.0
220
0.0
230
1.0
 70
     8
 71
     3
 72
    18
 73
    14
 74
     0
 42
0.00000001
 43
0.00000001
 40
0.0
 40
0.0
 40
0.0
 40
0.0
 40
0.2500000000000016
 40
0.2500000000000016
 40
0.3750000000000012
 40
0.3750000000000012
 40
0.500000000000001
 40
0.500000000000001
 40
0.6250000000000008
 40
0.6250000000000008
 40
0.7500000000000004
 40
0.7500000000000004
 40
1.0
 40
1.0
 40
1.0
 40
1.0
 10
321.6414724429166
 20
420.3343266698448
 30
0.0
 10
321.6414724562655
 20
419.7450710055135
 30
0.0
 10
321.5340787740811
 20
419.109337845638
 30
0.0
 10
321.168581585395
 20
418.1861106951096
 30
0.0
 10
321.0133308112764
 20
417.8841250282689
 30
0.0
 10
320.6395692720657
 20
417.3124306459142
 30
0.0
 10
320.4210840767997
 20
417.0428703660874
 30
0.0
 10
319.9329287115858
 20
416.5547149883521
 30
0.0
 10
319.6633684373632
 20
416.3362297861717
 30
0.0
 10
319.0916740645957
 20
415.9624682322969
 30
0.0
 10
318.7896884017373
 20
415.8072174504323
 30
0.0
 10
317.8664612605841
 20
415.4417202380651
 30
0.0
 10
317.2307281034634
 20
415.334326539574
 30
0.0
 10
316.6414724391322
 20
415.3343265378084
 30
0.0
  0
SPLINE
  5
195
330
1F
100
AcDbEntity
  8
0
  6
Continuous
 62
     7
370
    25
100
AcDbSpline
210
0.0
220
0.0
230
1.0
 70
     8
 71
     3
 72
    14
 73
    10
 74
     0
 42
0.00000001
 43
0.00000001
 40
0.0
 40
0.0
 40
0.0
 40
0.0
 40
0.0026283545570111
 40
0.0026283545570111
 40
0.0026283545570111
 40
0.0052567090778632
 40
0.0052567090778632
 40
0.0052567090778632
 40
0.0104863578434055
 40
0.0104863578434055
 40
0.0104863578434055
 40
0.0104863578434055
 10
322.6523886683386
 20
675.220356186794
 30
0.0
 10
323.5165248562569
 20
675.3647574471493
 30
0.0
 10
324.380627342577
 20
675.5093605472667
 30
0.0
 10
325.2446942279436
 20
675.6541759224009
 30
0.0
 10
326.1087611077843
 20
675.7989912966088
 30
0.0
 10
326.9727928077266
 20
675.944016621422
 30
0.0
 10
327.83680402799
 20
676.0891637078672
 30
0.0
 10
329.5559309929264
 20
676.3779635108533
 30
0.0
 10
331.2746646237898
 20
676.6691054681555
 30
0.0
 10
332.9939612057949
 20
676.9568937773022
 30
0.0
  0
LINE
  5
196
330
1F
100
AcDbEntity
  8
0
  6
Continuous
 62
     7
370
    25
100
AcDbLine
 10
424.2258329994
 20
694.2836867201
 30
0.0
 11
424.5521111531
 21
692.3038012537
 31
0.0
  0
SPLINE
  5
197
330
1F
100
AcDbEntity
  8
0
  6
Continuous
 62
     7
370
    18
100
AcDbSpline
210
0.0
220
0.0
230
1.0
 70
    24
 71
     3
 72
    10
 73
     6
 74
     0
 42
0.00000001
 43
0.00000001
 40
0.0
 40
0.0
 40
0.0
 40
0.0
 40
0.5
 40
0.5
 40
1.0
 40
1.0
 40
1.0
 40
1.0
 10
423.0827781122854
 20
694.8940742963666
 30
0.0
 10
423.0695491513066
 20
694.9743488320775
 30
0.0
 10
423.0594660105588
 20
695.0355342452613
 30
0.0
 10
423.0465747627437
 20
695.1137595072349
 30
0.0
 10
423.043726436234
 20
695.1310434112496
 30
0.0
 10
423.0437264362853
 20
695.1310434112523
 30
0.0
  0
ARC
  5
198
330
1F
100
AcDbEntity
  8
0
  6
Continuous
 62
     7
370
    25
100
AcDbCircle
 10
423.2109304333
 20
694.1164343473
 30
0.0
 40
1.028591546237937
100
AcDbArc
 50
16.8970160975
 51
99.3580327291
  0
LINE
  5
199
330
1F
100
AcDbEntity
  8
0
  6
Continuous
 62
     7
370
    25
100
AcDbLine
 10
424.202649928
 20
694.3893684286
 30
0.0
 11
424.2258329965
 21
694.2836867197
 31
0.0
  0
LINE
  5
19A
330
1F
100
AcDbEntity
  8
0
  6
Continuous
 62
     7
370
    25
100
AcDbLine
 10
321.6216278665
 20
674.6773432536
 30
0.0
 11
321.6331200534
 21
677.5503901093
 31
0.0
  0
SPLINE
  5
19B
330
1F
100
AcDbEntity
  8
0
  6
Continuous
 62
     7
370
    25
100
AcDbSpline
210
0.0
220
0.0
230
1.0
 70
     8
 71
     3
 72
    12
 73
     8
 74
     0
 42
0.00000001
 43
0.00000001
 40
0.0
 40
0.0
 40
0.0
 40
0.0
 40
0.5000000000000133
 40
0.5000000000000133
 40
0.7500000000000067
 40
0.7500000000000067
 40
1.0
 40
1.0
 40
1.0
 40
1.0
 10
321.6565272891463
 20
674.6738924131432
 30
0.0
 10
321.7132174868929
 20
674.7797135478103
 30
0.0
 10
321.838252063315
 20
674.8923817229977
 30
0.0
 10
322.098001238078
 20
675.0421363253215
 30
0.0
 10
322.1965562122588
 20
675.0886147779547
 30
0.0
 10
322.4142787314696
 20
675.1679719885518
 30
0.0
 10
322.5311184749088
 20
675.2000905842146
 30
0.0
 10
322.6523886584993
 20
675.2203561851253
 30
0.0
  0
LINE
  5
19C
330
1F
100
AcDbEntity
  8
0
  6
Continuous
 62
     7
370
    25
100
AcDbLine
 10
321.6565272891
 20
674.6738924131
 30
0.0
 11
321.6216278665
 21
674.6773432536
 31
0.0
  0
LINE
  5
19D
330
1F
100
AcDbEntity
  8
0
  6
Continuous
 62
     7
370
    25
100
AcDbLine
 10
535.6414710984
 20
666.4026684469
 30
0.0
 11
322.6414710984
 21
666.4026684469
 31
0.0
  0
SPLINE
  5
19E
330
1F
100
AcDbEntity
  8
0
  6
Continuous
 62
     7
370
    25
100
AcDbSpline
210
0.0
220
0.0
230
1.0
 70
     8
 71
     3
 72
    14
 73
    10
 74
     0
 42
0.00000001
 43
0.00000001
 40
0.0
 40
0.0
 40
0.0
 40
0.0
 40
0.25
 40
0.25
 40
0.5
 40
0.5
 40
0.75
 40
0.75
 40
1.0
 40
1.0
 40
1.0
 40
1.0
 10
321.6414710986213
 20
665.4026684469133
 30
0.0
 10
321.6414710985601
 20
665.5205195771132
 30
0.0
 10
321.6629498373139
 20
665.6476662060956
 30
0.0
 10
321.7604157574622
 20
665.8938601068661
 30
0.0
 10
321.8367332442366
 20
666.0121441551698
 30
0.0
 10
322.0319953900667
 20
666.2074063010456
 30
0.0
 10
322.1502794383639
 20
666.2837237878587
 30
0.0
 10
322.3964733391513
 20
666.3811897081041
 30
0.0
 10
322.5236199681567
 20
666.4026684469154
 30
0.0
 10
322.641471098388
 20
666.4026684469134
 30
0.0
  0
LINE
  5
19F
330
1F
100
AcDbEntity
  8
0
  6
Continuous
 62
     7
370
    25
100
AcDbLine
 10
321.6414713323
 20
665.4026684469
 30
0.0
 11
321.6414713323
 21
590.4026674753
 31
0.0
  0
SPLINE
  5
1A0
330
1F
100
AcDbEntity
  8
0
  6
Continuous
 62
     7
370
    25
100
AcDbSpline
210
0.0
220
0.0
230
1.0
 70
    24
 71
     3
 72
     8
 73
     4
 74
     0
 42
0.00000001
 43
0.00000001
 40
0.0
 40
0.0
 40
0.0
 40
0.0
 40
1.0
 40
1.0
 40
1.0
 40
1.0
 10
321.6565272891464
 20
674.6738924131436
 30
0.0
 10
322.5694836949061
 20
674.5836196610536
 30
0.0
 10
323.5227524705201
 20
674.489360838493
 30
0.0
 10
324.5032317249279
 20
674.3924114550349
 30
0.0
  0
SPLINE
  5
1A1
330
1F
100
AcDbEntity
  8
0
  6
Continuous
 62
     7
370
    25
100
AcDbSpline
210
0.0
220
0.0
230
1.0
 70
     8
 71
     3
 72
    10
 73
     6
 74
     0
 42
0.00000001
 43
0.00000001
 40
0.0
 40
0.0
 40
0.0
 40
0.0
 40
0.5
 40
0.5
 40
1.0
 40
1.0
 40
1.0
 40
1.0
 10
334.3469807191195
 20
671.6722799253065
 30
0.0
 10
335.1099534688516
 20
671.3124840408002
 30
0.0
 10
335.8920420460275
 20
671.0217460621727
 30
0.0
 10
337.4938904589964
 20
670.5723390443854
 30
0.0
 10
338.3136327067023
 20
670.4136641881813
 30
0.0
 10
339.153745037078
 20
670.3240447279208
 30
0.0
  0
SPLINE
  5
1A2
330
1F
100
AcDbEntity
  8
0
  6
Continuous
 62
     7
370
    25
100
AcDbSpline
210
0.0
220
0.0
230
1.0
 70
     8
 71
     3
 72
    14
 73
    10
 74
     0
 42
0.00000001
 43
0.00000001
 40
0.0
 40
0.0
 40
0.0
 40
0.0
 40
0.25
 40
0.25
 40
0.5
 40
0.5
 40
0.75
 40
0.75
 40
1.0
 40
1.0
 40
1.0
 40
1.0
 10
324.5032317249277
 20
674.3924114550349
 30
0.0
 10
325.3552188290564
 20
674.3081673222925
 30
0.0
 10
326.2062087978262
 20
674.1870695841599
 30
0.0
 10
327.8928670145085
 20
673.8726182413321
 30
0.0
 10
328.7266926744408
 20
673.6798147294079
 30
0.0
 10
330.376261733194
 20
673.2233878550243
 30
0.0
 10
331.192671633275
 20
672.9592946667559
 30
0.0
 10
332.7914184310527
 20
672.3657843323487
 30
0.0
 10
333.5763763310562
 20
672.0356746697519
 30
0.0
 10
334.3469807191195
 20
671.6722799253065
 30
0.0
  0
SPLINE
  5
1A3
330
1F
100
AcDbEntity
  8
0
  6
Continuous
 62
     7
370
    25
100
AcDbSpline
210
0.0
220
0.0
230
1.0
 70
     8
 71
     3
 72
    10
 73
     6
 74
     0
 42
0.00000001
 43
0.00000001
 40
0.0
 40
0.0
 40
0.0
 40
0.0
 40
0.5
 40
0.5
 40
1.0
 40
1.0
 40
1.0
 40
1.0
 10
536.6414710983894
 20
665.4026684469168
 30
0.0
 10
536.6414710983885
 20
665.6644678347153
 30
0.0
 10
536.5336980019978
 20
665.9246551056785
 30
0.0
 10
536.1634577571515
 20
666.2948953505237
 30
0.0
 10
535.9032704861879
 20
666.4026684469134
 30
0.0
 10
535.6414710983894
 20
666.4026684469134
 30
0.0
  0
LINE
  5
1A4
330
1F
100
AcDbEntity
  8
0
  6
Continuous
 62
     7
370
    25
100
AcDbLine
 10
536.6414710984
 20
665.4026684469
 30
0.0
 11
536.6414710984
 21
655.403265795
 31
0.0
  0
SPLINE
  5
1A5
330
1F
100
AcDbEntity
  8
0
  6
Continuous
 62
     7
370
    18
100
AcDbSpline
210
0.0
220
0.0
230
1.0
 70
     8
 71
     3
 72
     8
 73
     4
 74
     0
 42
0.00000001
 43
0.00000001
 40
0.0
 40
0.0
 40
0.0
 40
0.0
 40
1.0
 40
1.0
 40
1.0
 40
1.0
 10
322.669751676073
 20
679.5459662716419
 30
0.0
 10
356.1471792040804
 20
684.7209579269214
 30
0.0
 10
389.6197418681924
 20
689.8470524950145
 30
0.0
 10
423.0827781122854
 20
694.8940742963666
 30
0.0
  0
LINE
  5
1A6
330
1F
100
AcDbEntity
  8
0
  6
Continuous
 62
     7
370
    25
100
AcDbLine
 10
321.641471561
 20
590.4026674753
 30
0.0
 11
321.641471561
 21
460.4026674753
 31
0.0
  0
LINE
  5
1A7
330
1F
100
AcDbEntity
  8
0
  6
Continuous
 62
     7
370
    25
100
AcDbLine
 10
321.6414713323
 20
460.4026674753
 30
0.0
 11
321.6414713323
 21
431.3343265333
 31
0.0
  0
LINE
  5
1A8
330
1F
100
AcDbEntity
  8
0
  6
Continuous
 62
     7
370
    18
100
AcDbLine
 10
322.6738660093
 20
680.5745495889
 30
0.0
 11
322.6697516761
 21
679.5459662716
 31
0.0
  0
LINE
  5
1A9
330
1F
100
AcDbEntity
  8
0
  6
Continuous
 62
     7
370
    25
100
AcDbLine
 10
321.6411683592
 20
679.5500806051
 30
0.0
 11
321.6331684232
 21
677.5500966047
 31
0.0
  0
ARC
  5
1AA
330
1F
100
AcDbEntity
  8
0
  6
Continuous
 62
     7
370
    25
100
AcDbCircle
 10
322.669751676
 20
679.545966272
 30
0.0
 40
1.028591545499509
100
AcDbArc
 50
89.7708181024
 51
179.7708181144
  0
SPLINE
  5
1AB
330
1F
100
AcDbEntity
  8
0
  6
Continuous
 62
     7
370
    25
100
AcDbSpline
210
0.0
220
0.0
230
1.0
 70
     8
 71
     3
 72
    23
 73
    19
 74
     0
 42
0.00000001
 43
0.00000001
 40
0.0
 40
0.0
 40
0.0
 40
0.0
 40
1.736884773864148
 40
3.473769547728295
 40
5.210654321592443
 40
6.947539095456591
 40
8.684423869320739
 40
10.42130864318489
 40
12.15819341704903
 40
13.89507819091318
 40
15.63196296477733
 40
17.36884773864148
 40
19.10573251250563
 40
20.84261728636977
 40
52.39352589075726
 40
83.94443449514475
 40
92.75701556081138
 40
101.569596626478
 40
101.569596626478
 40
101.569596626478
 40
101.569596626478
 10
322.6738660093432
 20
680.5745495888599
 30
0.0
 10
323.2450774885421
 20
680.6573140665546
 30
0.0
 10
324.387893305511
 20
680.8228876617744
 30
0.0
 10
326.0997729596018
 20
681.0708900260063
 30
0.0
 10
327.8122550653782
 20
681.3189806274327
 30
0.0
 10
329.5245246499143
 20
681.5670602078148
 30
0.0
 10
331.2367799037534
 20
681.8151764464519
 30
0.0
 10
332.9489333638094
 20
682.0633355947188
 30
0.0
 10
334.6610311762327
 20
682.3115632811225
 30
0.0
 10
336.372874713917
 20
682.5598496350516
 30
0.0
 10
338.0851148922254
 20
682.8083079937775
 30
0.0
 10
339.7974253110781
 20
683.0569099559308
 30
0.0
 10
341.5097201914142
 20
683.3056620170868
 30
0.0
 10
353.0177226706668
 20
684.978628224203
 30
0.0
 10
374.4233788366857
 20
688.1131050010913
 30
0.0
 10
398.081813946827
 20
691.5588874509522
 30
0.0
 10
414.3175481263828
 20
693.8863282231473
 30
0.0
 10
420.1347592357257
 20
694.716409496563
 30
0.0
 10
423.0437264362853
 20
695.1310434112523
 30
0.0
  0
LINE
  5
1AC
330
1F
100
AcDbEntity
  8
0
  6
Continuous
 62
     7
370
    25
100
AcDbLine
 10
321.6414716496
 20
420.3343266686
 30
0.0
 11
321.6414716496
 21
431.3343266311
 31
0.0
  0
LINE
  5
1AD
330
1F
100
AcDbEntity
  8
0
  6
Continuous
 62
     7
370
    25
100
AcDbLine
 10
535.6414710984
 20
650.4038095327
 30
0.0
 11
387.6414721014
 21
650.4038095327
 31
0.0
  0
SPLINE
  5
1AE
330
1F
100
AcDbEntity
  8
0
  6
Continuous
 62
     7
370
    25
100
AcDbSpline
210
0.0
220
0.0
230
1.0
 70
    24
 71
     3
 72
    24
 73
    20
 74
     0
 42
0.00000001
 43
0.00000001
 40
0.0
 40
0.0
 40
0.0
 40
0.0
 40
0.1250000000000076
 40
0.1250000000000076
 40
0.2500000000000152
 40
0.2500000000000152
 40
0.3125000000000134
 40
0.3125000000000134
 40
0.3750000000000117
 40
0.3750000000000117
 40
0.43750000000001
 40
0.43750000000001
 40
0.5000000000000083
 40
0.5000000000000083
 40
0.6250000000000061
 40
0.6250000000000061
 40
0.7500000000000039
 40
0.7500000000000039
 40
1.0
 40
1.0
 40
1.0
 40
1.0
 10
536.6414710983894
 20
655.4032657949639
 30
0.0
 10
536.6414710983894
 20
655.0592988746429
 30
0.0
 10
536.6414710983894
 20
654.7157782130856
 30
0.0
 10
536.6414710983894
 20
654.0305824249682
 30
0.0
 10
536.6414710983894
 20
653.6865551419672
 30
0.0
 10
536.6414710983894
 20
653.1838037998559
 30
0.0
 10
536.6414710983894
 20
653.0183481397788
 30
0.0
 10
536.6414710983893
 20
652.6952855238937
 30
0.0
 10
536.6414710983894
 20
652.5354888546675
 30
0.0
 10
536.6414710983894
 20
652.2479657911151
 30
0.0
 10
536.6414710983893
 20
652.1195702786093
 30
0.0
 10
536.6414710983893
 20
651.9176591048969
 30
0.0
 10
536.6414710983894
 20
651.8402911803803
 30
0.0
 10
536.6414710983894
 20
651.6577979935291
 30
0.0
 10
536.6414710983894
 20
651.5910336651355
 30
0.0
 10
536.6414710983894
 20
651.4958053671519
 30
0.0
 10
536.6414710983894
 20
651.4678284610779
 30
0.0
 10
536.6414710983894
 20
651.4121488200192
 30
0.0
 10
536.6414710983894
 20
651.4058221565862
 30
0.0
 10
536.6414710983894
 20
651.4038137190489
 30
0.0
  0
ARC
  5
1AF
330
1F
100
AcDbEntity
  8
0
  6
Continuous
 62
     7
370
    25
100
AcDbCircle
 10
535.6414710984
 20
651.403813719
 30
0.0
 40
1.00000418635932
100
AcDbArc
 50
270.0
 51
0.0
  0
LWPOLYLINE
  5
1B0
330
1F
100
AcDbEntity
  8
0
  6
Continuous
 62
     7
370
    25
100
AcDbPolyline
 90
        2
 70
   128
 43
0.0
 10
322.6738660093
 20
680.5745495889
 10
322.6738660093
 20
680.5745495889
  0
LINE
  5
1B1
330
1F
100
AcDbEntity
  8
0
  6
Continuous
 62
     7
370
    25
100
AcDbLine
 10
321.6414703665
 20
431.3343265273
 30
0.0
 11
321.6414703665
 21
420.3343265648
 31
0.0
  0
LINE
  5
1B2
330
1F
100
AcDbEntity
  8
0
  6
Continuous
 62
     7
370
    25
100
AcDbLine
 10
321.6414716496
 20
431.3343266311
 30
0.0
 11
321.6414703665
 21
431.3343265273
 31
0.0
  0
LINE
  5
1B3
330
1F
100
AcDbEntity
  8
0
  6
Continuous
 62
     7
370
    25
100
AcDbLine
 10
324.4566316963
 20
674.2026684469
 30
0.0
 11
325.7801669017
 21
674.2026684469
 31
0.0
  0
SPLINE
  5
1B4
330
1F
100
AcDbEntity
  8
0
  6
Continuous
 62
     7
370
    25
100
AcDbSpline
210
0.0
220
0.0
230
1.0
 70
     8
 71
     3
 72
    10
 73
     6
 74
     0
 42
0.00000001
 43
0.00000001
 40
0.0
 40
0.0
 40
0.0
 40
0.0
 40
0.5
 40
0.5
 40
1.0
 40
1.0
 40
1.0
 40
1.0
 10
518.9522033364452
 20
649.4038095326775
 30
0.0
 10
518.969345634148
 20
649.4037433174929
 30
0.0
 10
518.9882619130404
 20
649.4037250408649
 30
0.0
 10
519.0216797378099
 20
649.4037475614995
 30
0.0
 10
519.0358361913445
 20
649.4037851221914
 30
0.0
 10
519.0452531566069
 20
649.4038095326775
 30
0.0
  0
SPLINE
  5
1B5
330
1F
100
AcDbEntity
  8
0
  6
Continuous
 62
     7
370
    25
100
AcDbSpline
210
0.0
220
0.0
230
1.0
 70
    24
 71
     3
 72
    10
 73
     6
 74
     0
 42
0.00000001
 43
0.00000001
 40
0.0
 40
0.0
 40
0.0
 40
0.0
 40
0.5
 40
0.5
 40
1.0
 40
1.0
 40
1.0
 40
1.0
 10
512.3441855567753
 20
649.4038095326775
 30
0.0
 10
512.6763410511383
 20
649.4038095326775
 30
0.0
 10
513.0814187716926
 20
649.4038095326777
 30
0.0
 10
514.0137780113395
 20
649.4038095326775
 30
0.0
 10
514.5410058157121
 20
649.4038095326777
 30
0.0
 10
515.1138970903086
 20
649.4038095326775
 30
0.0
  0
SPLINE
  5
1B6
330
1F
100
AcDbEntity
  8
0
  6
Continuous
 62
     7
370
    25
100
AcDbSpline
210
0.0
220
0.0
230
1.0
 70
    24
 71
     3
 72
    10
 73
     6
 74
     0
 42
0.00000001
 43
0.00000001
 40
0.0
 40
0.0
 40
0.0
 40
0.0
 40
0.5
 40
0.5
 40
1.0
 40
1.0
 40
1.0
 40
1.0
 10
515.1138970903086
 20
649.4038095326775
 30
0.0
 10
515.686788364905
 20
649.4038095326775
 30
0.0
 10
516.305277099344
 20
649.4038095326777
 30
0.0
 10
517.5973539997188
 20
649.4038095326775
 30
0.0
 10
518.2708677270198
 20
649.4038095326777
 30
0.0
 10
518.9522033364451
 20
649.4038095326775
 30
0.0
  0
LINE
  5
1B7
330
1F
100
AcDbEntity
  8
0
  6
Continuous
 62
     7
370
    25
100
AcDbLine
 10
519.3167217043
 20
649.4038095327
 30
0.0
 11
519.3167217043
 21
650.4038095327
 31
0.0
  0
LINE
  5
1B8
330
1F
100
AcDbEntity
  8
0
  6
Continuous
 62
     7
370
    25
100
AcDbLine
 10
519.0452531566
 20
649.4038095327
 30
0.0
 11
519.3167217043
 21
649.4038095327
 31
0.0
  0
SPLINE
  5
1B9
330
1F
100
AcDbEntity
  8
0
  6
Continuous
 62
     7
370
    25
100
AcDbSpline
210
0.0
220
0.0
230
1.0
 70
     8
 71
     3
 72
    10
 73
     6
 74
     0
 42
0.00000001
 43
0.00000001
 40
0.0
 40
0.0
 40
0.0
 40
0.0
 40
0.5
 40
0.5
 40
1.0
 40
1.0
 40
1.0
 40
1.0
 10
524.4917279080344
 20
649.4038095326777
 30
0.0
 10
524.5073808518463
 20
649.4037792942011
 30
0.0
 10
524.5276456795854
 20
649.4037325127691
 30
0.0
 10
524.5685560146387
 20
649.4037051216616
 30
0.0
 10
524.5885955526564
 20
649.4037292265959
 30
0.0
 10
524.6038971610644
 20
649.4038095326775
 30
0.0
  0
SPLINE
  5
1BA
330
1F
100
AcDbEntity
  8
0
  6
Continuous
 62
     7
370
    25
100
AcDbSpline
210
0.0
220
0.0
230
1.0
 70
    24
 71
     3
 72
    10
 73
     6
 74
     0
 42
0.00000001
 43
0.00000001
 40
0.0
 40
0.0
 40
0.0
 40
0.0
 40
0.5
 40
0.5
 40
1.0
 40
1.0
 40
1.0
 40
1.0
 10
524.6038971610644
 20
649.4038095326775
 30
0.0
 10
525.4805833304036
 20
649.4038095326775
 30
0.0
 10
526.2386534331787
 20
649.4038095326777
 30
0.0
 10
527.4105010048636
 20
649.4038095326775
 30
0.0
 10
527.8238746700063
 20
649.4038095326777
 30
0.0
 10
528.0355083074608
 20
649.4038095326775
 30
0.0
  0
LINE
  5
1BB
330
1F
100
AcDbEntity
  8
0
  6
Continuous
 62
     7
370
    25
100
AcDbLine
 10
524.1069802492
 20
650.4038095327
 30
0.0
 11
524.1069802492
 21
649.4038095327
 31
0.0
  0
LINE
  5
1BC
330
1F
100
AcDbEntity
  8
0
  6
Continuous
 62
     7
370
    25
100
AcDbLine
 10
524.1069802492
 20
649.4038095327
 30
0.0
 11
524.491727908
 21
649.4038095327
 31
0.0
  0
SPLINE
  5
1BD
330
1F
100
AcDbEntity
  8
0
  6
Continuous
 62
     7
370
    25
100
AcDbSpline
210
0.0
220
0.0
230
1.0
 70
     8
 71
     3
 72
    10
 73
     6
 74
     0
 42
0.00000001
 43
0.00000001
 40
0.0
 40
0.0
 40
0.0
 40
0.0
 40
0.5
 40
0.5
 40
1.0
 40
1.0
 40
1.0
 40
1.0
 10
512.3479003219571
 20
649.4038095326775
 30
0.0
 10
512.3384833566946
 20
649.4037851221914
 30
0.0
 10
512.3323478528788
 20
649.4037475614995
 30
0.0
 10
512.3310138477541
 20
649.4037250408649
 30
0.0
 10
512.3358291078213
 20
649.4037433174929
 30
0.0
 10
512.3441855567753
 20
649.4038095326775
 30
0.0
  0
LINE
  5
1BE
330
1F
100
AcDbEntity
  8
0
  6
Continuous
 62
     7
370
    25
100
AcDbLine
 10
511.8773831465
 20
649.4038095327
 30
0.0
 11
511.8773831465
 21
650.4038095327
 31
0.0
  0
LINE
  5
1BF
330
1F
100
AcDbEntity
  8
0
  6
Continuous
 62
     7
370
    25
100
AcDbLine
 10
511.4907738076
 20
649.4038095327
 30
0.0
 11
511.8773831465
 21
649.4038095327
 31
0.0
  0
LINE
  5
1C0
330
1F
100
AcDbEntity
  8
0
  6
Continuous
 62
     7
370
    25
100
AcDbLine
 10
511.9941855568
 20
649.4038095327
 30
0.0
 11
511.8773831465
 21
649.4038095327
 31
0.0
  0
SPLINE
  5
1C1
330
1F
100
AcDbEntity
  8
0
  6
Continuous
 62
     7
370
    25
100
AcDbSpline
210
0.0
220
0.0
230
1.0
 70
     8
 71
     3
 72
    10
 73
     6
 74
     0
 42
0.00000001
 43
0.00000001
 40
0.0
 40
0.0
 40
0.0
 40
0.0
 40
0.5
 40
0.5
 40
1.0
 40
1.0
 40
1.0
 40
1.0
 10
511.4474358952493
 20
649.4038095326777
 30
0.0
 10
511.4437428433565
 20
649.4037292265959
 30
0.0
 10
511.4453260406697
 20
649.4037051216617
 30
0.0
 10
511.4611321017608
 20
649.403732512769
 30
0.0
 10
511.4751208637983
 20
649.4037792942011
 30
0.0
 10
511.4907738076102
 20
649.4038095326775
 30
0.0
  0
LINE
  5
1C2
330
1F
100
AcDbEntity
  8
0
  6
Continuous
 62
     7
370
    25
100
AcDbLine
 10
520.1686921084
 20
649.4038095327
 30
0.0
 11
520.1686921084
 21
650.4038095327
 31
0.0
  0
SPLINE
  5
1C3
330
1F
100
AcDbEntity
  8
0
  6
Continuous
 62
     7
370
    25
100
AcDbSpline
210
0.0
220
0.0
230
1.0
 70
    24
 71
     3
 72
     9
 73
     5
 74
     0
 42
0.00000001
 43
0.00000001
 40
0.0
 40
0.0
 40
0.0
 40
0.0
 40
0.5498084310213542
 40
1.0
 40
1.0
 40
1.0
 40
1.0
 10
520.1686921083548
 20
649.4038095326775
 30
0.0
 10
520.8672059284388
 20
649.4038095326775
 30
0.0
 10
522.1376735689341
 20
649.4038095326775
 30
0.0
 10
523.2542823776616
 20
649.4038095326775
 30
0.0
 10
523.7569702491978
 20
649.4038095326775
 30
0.0
  0
SPLINE
  5
1C4
330
1F
100
AcDbEntity
  8
0
  6
Continuous
 62
     8
370
    18
100
AcDbSpline
210
0.0
220
0.0
230
1.0
 70
     8
 71
     3
 72
    10
 73
     6
 74
     0
 42
0.00000001
 43
0.00000001
 40
0.578127193910088
 40
0.578127193910088
 40
0.578127193910088
 40
0.578127193910088
 40
1.1542362309889
 40
1.1542362309889
 40
1.161213034834375
 40
1.161213034834375
 40
1.161213034834375
 40
1.161213034834375
 10
338.448850329795
 20
671.0781482026082
 30
0.0
 10
338.5786445394815
 20
670.9388127670815
 30
0.0
 10
338.7085610428694
 20
670.7995567608729
 30
0.0
 10
338.8401581756131
 20
670.6588414949853
 30
0.0
 10
338.8417327989225
 20
670.6571578087957
 30
0.0
 10
338.8433074446303
 20
670.655474138595
 30
0.0
  0
SPLINE
  5
1C5
330
1F
100
AcDbEntity
  8
0
  6
Continuous
 62
     8
370
    18
100
AcDbSpline
210
0.0
220
0.0
230
1.0
 70
     8
 71
     3
 72
    44
 73
    40
 74
     0
 42
0.00000001
 43
0.00000001
 40
1.161213034834208
 40
1.161213034834208
 40
1.161213034834208
 40
1.161213034834208
 40
1.21556328951876
 40
1.21556328951876
 40
1.288701289238199
 40
1.288701289238199
 40
1.43497728867709
 40
1.43497728867709
 40
1.727529287554869
 40
1.727529287554869
 40
2.020081286432649
 40
2.020081286432649
 40
2.31263328531044
 40
2.31263328531044
 40
2.897737283065999
 40
2.897737283065999
 40
3.190289281943779
 40
3.190289281943779
 40
3.482841280821559
 40
3.482841280821559
 40
4.06794527857713
 40
4.06794527857713
 40
4.360497277454909
 40
4.360497277454909
 40
4.653049276332689
 40
4.653049276332689
 40
5.238153274088249
 40
5.238153274088249
 40
5.82325727184381
 40
5.82325727184381
 40
6.40836126959938
 40
6.40836126959938
 40
6.99346526735494
 40
6.99346526735494
 40
7.5785692651105
 40
7.5785692651105
 40
8.163673262866059
 40
8.163673262866059
 40
8.172668223542981
 40
8.172668223542981
 40
8.172668223542981
 40
8.172668223542981
 10
333.7396131291752
 20
676.1402079910899
 30
0.0
 10
333.7514608780664
 20
676.1276980608508
 30
0.0
 10
333.7633183812431
 20
676.1151703631527
 30
0.0
 10
333.7911769164206
 20
676.0858031457966
 30
0.0
 10
333.8071692672052
 20
676.0689175679622
 30
0.0
 10
333.8551927731345
 20
676.0182062608089
 30
0.0
 10
333.8872717557325
 20
675.9842947435736
 30
0.0
 10
333.9836764501825
 20
675.8823075259799
 30
0.0
 10
334.0481576865087
 20
675.8139902786791
 30
0.0
 10
334.1776041108496
 20
675.6767819246732
 30
0.0
 10
334.2425198606806
 20
675.6079202075533
 30
0.0
 10
334.3726750005922
 20
675.4696711054086
 30
0.0
 10
334.4378615932608
 20
675.4003534368891
 30
0.0
 10
334.6337578561771
 20
675.1915800238337
 30
0.0
 10
334.76454967896
 20
675.0515796567021
 30
0.0
 10
334.9610656064402
 20
674.8407464425915
 30
0.0
 10
335.0265786279902
 20
674.7703789537078
 30
0.0
 10
335.1577479075424
 20
674.6294075970494
 30
0.0
 10
335.223336700686
 20
674.5588702015258
 30
0.0
 10
335.4201891224573
 20
674.3469775851867
 30
0.0
 10
335.5514695578028
 20
674.2054466227992
 30
0.0
 10
335.7483820836205
 20
673.9929344184065
 30
0.0
 10
335.8140368816308
 20
673.922040773378
 30
0.0
 10
335.9453037194407
 20
673.7802459055227
 30
0.0
 10
336.0109572528694
 20
673.7093010109387
 30
0.0
 10
336.2078756242635
 20
673.4964580050575
 30
0.0
 10
336.3391632143779
 20
673.3544820301229
 30
0.0
 10
336.601747387963
 20
673.0705072277774
 30
0.0
 10
336.7330732874956
 20
672.9284783408265
 30
0.0
 10
336.995720912446
 20
672.6445053532228
 30
0.0
 10
337.1270991241493
 20
672.5025018720319
 30
0.0
 10
337.3898945405983
 20
672.2186178344251
 30
0.0
 10
337.5213433828639
 20
672.0766927828811
 30
0.0
 10
337.7843532581908
 20
671.7929801785167
 30
0.0
 10
337.9159012418044
 20
671.651198984502
 30
0.0
 10
338.17922295572
 20
671.3677850231576
 30
0.0
 10
338.3109540306368
 20
671.2261881201551
 30
0.0
 10
338.4447973288888
 20
671.0824991926477
 30
0.0
 10
338.4468238144359
 20
671.0803236879465
 30
0.0
 10
338.4488503297951
 20
671.0781482026081
 30
0.0
  0
SPLINE
  5
1C6
330
1F
100
AcDbEntity
  8
0
  6
Continuous
 62
     8
370
    18
100
AcDbSpline
210
0.0
220
0.0
230
1.0
 70
     8
 71
     3
 72
    12
 73
     8
 74
     0
 42
0.00000001
 43
0.00000001
 40
8.172668223544338
 40
8.172668223544338
 40
8.172668223544338
 40
8.172668223544338
 40
8.17611505806523
 40
8.17611505806523
 40
8.46866705694301
 40
8.46866705694301
 40
8.487454801976552
 40
8.487454801976552
 40
8.487454801976552
 40
8.487454801976552
 10
333.5346898182569
 20
676.3559816636209
 30
0.0
 10
333.5354335182704
 20
676.3551991103228
 30
0.0
 10
333.5361772935594
 20
676.3544164894595
 30
0.0
 10
333.6000559681116
 20
676.2872025417258
 30
0.0
 10
333.6635869494616
 20
676.2204285389262
 30
0.0
 10
333.731423257317
 20
676.148854709876
 30
0.0
 10
333.7355176104563
 20
676.1445324120359
 30
0.0
 10
333.7396131291743
 20
676.140207991091
 30
0.0
  0
SPLINE
  5
1C7
330
1F
100
AcDbEntity
  8
0
  6
Continuous
 62
     8
370
    18
100
AcDbSpline
210
0.0
220
0.0
230
1.0
 70
     8
 71
     3
 72
    16
 73
    12
 74
     0
 42
0.00000001
 43
0.00000001
 40
8.487454801976728
 40
8.487454801976728
 40
8.487454801976728
 40
8.487454801976728
 40
8.505695716722917
 40
8.505695716722917
 40
8.523980216652777
 40
8.523980216652777
 40
8.542264716582638
 40
8.542264716582638
 40
8.578833716442368
 40
8.578833716442368
 40
8.64852488164074
 40
8.64852488164074
 40
8.64852488164074
 40
8.64852488164074
 10
333.4309150514198
 20
676.4654025724496
 30
0.0
 10
333.4348029222255
 20
676.4612623212838
 30
0.0
 10
333.4386720400555
 20
676.457124965268
 30
0.0
 10
333.4464946419393
 20
676.4488720444807
 30
0.0
 10
333.4504116723298
 20
676.4447417793943
 30
0.0
 10
333.4582587362006
 20
676.4364682291764
 30
0.0
 10
333.4621701059963
 20
676.4323452764783
 30
0.0
 10
333.4739321558692
 20
676.4199492256795
 30
0.0
 10
333.4818001441304
 20
676.411660358804
 30
0.0
 10
333.5046470148346
 20
676.387598759511
 30
0.0
 10
333.5196530301012
 20
676.3718040220306
 30
0.0
 10
333.5346898182568
 20
676.355981663621
 30
0.0
  0
SPLINE
  5
1C8
330
1F
100
AcDbEntity
  8
0
  6
Continuous
 62
     8
370
    18
100
AcDbSpline
210
0.0
220
0.0
230
1.0
 70
     8
 71
     3
 72
    16
 73
    12
 74
     0
 42
0.00000001
 43
0.00000001
 40
8.648524881646177
 40
8.648524881646177
 40
8.648524881646177
 40
8.648524881646177
 40
8.673847827925648
 40
8.673847827925648
 40
8.746985827645089
 40
8.746985827645089
 40
8.783554827504819
 40
8.783554827504819
 40
8.80183932743468
 40
8.80183932743468
 40
8.801882912612912
 40
8.801882912612912
 40
8.801882912612912
 40
8.801882912612912
 10
333.3339237460703
 20
676.5697361842531
 30
0.0
 10
333.3392206361023
 20
676.5639936090823
 30
0.0
 10
333.3445169678795
 20
676.5582427181104
 30
0.0
 10
333.3651576286708
 20
676.5358998273647
 30
0.0
 10
333.3805189416512
 20
676.5193424628018
 30
0.0
 10
333.4037353503892
 20
676.4944347848052
 30
0.0
 10
333.4114618824331
 20
676.4861636007593
 30
0.0
 10
333.4231168068532
 20
676.473716143363
 30
0.0
 10
333.4269899311331
 20
676.4695824086347
 30
0.0
 10
333.4308964718088
 20
676.4654223580551
 30
0.0
 10
333.4309057616661
 20
676.4654124652459
 30
0.0
 10
333.4309150514164
 20
676.4654025724535
 30
0.0
  0
SPLINE
  5
1C9
330
1F
100
AcDbEntity
  8
0
  6
Continuous
 62
     8
370
    18
100
AcDbSpline
210
0.0
220
0.0
230
1.0
 70
     8
 71
     3
 72
    18
 73
    14
 74
     0
 42
0.00000001
 43
0.00000001
 40
8.801882912619146
 40
8.801882912619146
 40
8.801882912619146
 40
8.801882912619146
 40
8.809500601130447
 40
8.809500601130447
 40
8.818642851095378
 40
8.818642851095378
 40
8.836927351025237
 40
8.836927351025237
 40
8.910065350744677
 40
8.910065350744677
 40
8.946634350604407
 40
8.946634350604407
 40
8.957880404178422
 40
8.957880404178422
 40
8.957880404178422
 40
8.957880404178422
 10
333.2357474286653
 20
676.6749230400728
 30
0.0
 10
333.2373576729138
 20
676.6732277575713
 30
0.0
 10
333.2389715354687
 20
676.6715298337671
 30
0.0
 10
333.242492421085
 20
676.6678123317951
 30
0.0
 10
333.2444200158772
 20
676.6657598828481
 30
0.0
 10
333.2501922498316
 20
676.6596288142013
 30
0.0
 10
333.2540255033259
 20
676.6555500152614
 30
0.0
 10
333.2732363071609
 20
676.6350856600441
 30
0.0
 10
333.288577289048
 20
676.6186574952684
 30
0.0
 10
333.3115611607718
 20
676.5939176435583
 30
0.0
 10
333.3192115542176
 20
676.585659603701
 30
0.0
 10
333.3292188825404
 20
676.5748351597841
 30
0.0
 10
333.3315713693556
 20
676.5722864920814
 30
0.0
 10
333.3339237460664
 20
676.5697361842573
 30
0.0
  0
SPLINE
  5
1CA
330
1F
100
AcDbEntity
  8
0
  6
Continuous
 62
     8
370
    18
100
AcDbSpline
210
0.0
220
0.0
230
1.0
 70
     8
 71
     3
 72
    18
 73
    14
 74
     0
 42
0.00000001
 43
0.00000001
 40
8.957880404168616
 40
8.957880404168616
 40
8.957880404168616
 40
8.957880404168616
 40
8.963411976457436
 40
8.963411976457436
 40
8.972554226422366
 40
8.972554226422366
 40
9.009123226282096
 40
9.009123226282096
 40
9.082261226001537
 40
9.082261226001537
 40
9.118830225861256
 40
9.118830225861256
 40
9.1203547873247
 40
9.1203547873247
 40
9.1203547873247
 40
9.1203547873247
 10
333.1334655215166
 20
676.7829807281738
 30
0.0
 10
333.1346102180369
 20
676.7817501431485
 30
0.0
 10
333.1357566843834
 20
676.7805200574167
 30
0.0
 10
333.138813596571
 20
676.7772795704241
 30
0.0
 10
333.1407281989232
 20
676.775253601929
 30
0.0
 10
333.1502731174699
 20
676.7651489236634
 30
0.0
 10
333.1579254202716
 20
676.7570536405314
 30
0.0
 10
333.1809021747738
 20
676.7327619780275
 30
0.0
 10
333.1962626189368
 20
676.7165436545324
 30
0.0
 10
333.2193627871614
 20
676.692184199835
 30
0.0
 10
333.2270614225719
 20
676.6840715855786
 30
0.0
 10
333.2351030430889
 20
676.6756015029398
 30
0.0
 10
333.2354251634168
 20
676.6752623244001
 30
0.0
 10
333.2357474286715
 20
676.6749230400663
 30
0.0
  0
SPLINE
  5
1CB
330
1F
100
AcDbEntity
  8
0
  6
Continuous
 62
     8
370
    18
100
AcDbSpline
210
0.0
220
0.0
230
1.0
 70
     8
 71
     3
 72
    22
 73
    18
 74
     0
 42
0.00000001
 43
0.00000001
 40
9.120354787332534
 40
9.120354787332534
 40
9.120354787332534
 40
9.120354787332534
 40
9.156923787192255
 40
9.156923787192255
 40
9.175208287122114
 40
9.175208287122114
 40
9.193492787051975
 40
9.193492787051975
 40
9.230061786911694
 40
9.230061786911694
 40
9.266630786771424
 40
9.266630786771424
 40
9.339768786490865
 40
9.339768786490865
 40
9.358053286420725
 40
9.358053286420725
 40
9.361663964089
 40
9.361663964089
 40
9.361663964089
 40
9.361663964089
 10
332.9954284764983
 20
676.9501426928797
 30
0.0
 10
333.0012925960554
 20
676.9411008895459
 30
0.0
 10
333.0072379136031
 20
676.9321184107932
 30
0.0
 10
333.0165824084841
 20
676.9188180918791
 30
0.0
 10
333.0197655662321
 20
676.9144127220925
 30
0.0
 10
333.026265637394
 20
676.905705298902
 30
0.0
 10
333.0295943575111
 20
676.9013986576941
 30
0.0
 10
333.0397318679264
 20
676.8885270878552
 30
0.0
 10
333.0466590602874
 20
676.8800873978196
 30
0.0
 10
333.0607972280525
 20
676.8632898977476
 30
0.0
 10
333.0679782824068
 20
676.8549670836001
 30
0.0
 10
333.0898325489163
 20
676.8301544288063
 30
0.0
 10
333.1047947697691
 20
676.8138445702554
 30
0.0
 10
333.1236499422211
 20
676.793526391193
 30
0.0
 10
333.1274431274142
 20
676.7894474179095
 30
0.0
 10
333.1319718975097
 20
676.784587444683
 30
0.0
 10
333.1327183324764
 20
676.7837839800643
 30
0.0
 10
333.1334655215118
 20
676.7829807281792
 30
0.0
  0
SPLINE
  5
1CC
330
1F
100
AcDbEntity
  8
0
  6
Continuous
 62
     8
370
    18
100
AcDbSpline
210
0.0
220
0.0
230
1.0
 70
     8
 71
     3
 72
     8
 73
     4
 74
     0
 42
0.00000001
 43
0.00000001
 40
0.1199204586113827
 40
0.1199204586113827
 40
0.1199204586113827
 40
0.1199204586113827
 40
0.5781271939121376
 40
0.5781271939121376
 40
0.5781271939121376
 40
0.5781271939121376
 10
338.8433074446289
 20
670.6554741385963
 30
0.0
 10
338.9467234621926
 20
670.5448978570973
 30
0.0
 10
339.0502360911761
 20
670.4343905403531
 30
0.0
 10
339.1537897374314
 20
670.3239970750557
 30
0.0
  0
LINE
  5
1CD
330
1F
100
AcDbEntity
  8
0
  6
Continuous
 62
     8
370
    18
100
AcDbLine
 10
362.7414721016
 20
414.3343265333
 30
0.0
 11
316.5414721014
 21
414.3343265333
 31
0.0
  0
LINE
  5
1CE
330
1F
100
AcDbEntity
  8
0
  6
Continuous
 62
     8
370
    18
100
AcDbLine
 10
362.7414721016
 20
410.3343265326
 30
0.0
 11
362.7414721016
 21
414.3343265333
 31
0.0
  0
LINE
  5
1CF
330
1F
100
AcDbEntity
  8
0
  6
Continuous
 62
     8
370
    18
100
AcDbLine
 10
316.5414721014
 20
414.3343265333
 30
0.0
 11
316.5414721014
 21
410.3343265326
 31
0.0
  0
LINE
  5
1D0
330
1F
100
AcDbEntity
  8
0
  6
Continuous
 62
     8
370
    18
100
AcDbLine
 10
362.7414721016
 20
415.3343265333
 30
0.0
 11
362.7414721016
 21
414.3343265333
 31
0.0
  0
LINE
  5
1D1
330
1F
100
AcDbEntity
  8
0
  6
Continuous
 62
     8
370
    18
100
AcDbLine
 10
316.5414721014
 20
415.3343265333
 30
0.0
 11
316.5414721014
 21
414.3343265333
 31
0.0
  0
LINE
  5
1D2
330
1F
100
AcDbEntity
  8
0
  6
Continuous
 62
     8
370
    18
100
AcDbLine
 10
362.7414721016
 20
414.3343265333
 30
0.0
 11
363.7414721016
 21
414.3343265333
 31
0.0
  0
LINE
  5
1D3
330
1F
100
AcDbEntity
  8
0
  6
Continuous
 62
     8
370
    18
100
AcDbLine
 10
315.5414721014
 20
414.3343265333
 30
0.0
 11
316.5414721014
 21
414.3343265333
 31
0.0
  0
SPLINE
  5
1D4
330
1F
100
AcDbEntity
  8
0
  6
Continuous
 62
     8
370
    18
100
AcDbSpline
210
0.0
220
0.0
230
1.0
 70
     8
 71
     3
 72
    18
 73
    14
 74
     0
 42
0.00000001
 43
0.00000001
 40
0.0
 40
0.0
 40
0.0
 40
0.0
 40
0.2500000000000018
 40
0.2500000000000018
 40
0.3750000000000022
 40
0.3750000000000022
 40
0.5000000000000028
 40
0.5000000000000028
 40
0.6250000000000033
 40
0.6250000000000033
 40
0.7500000000000038
 40
0.7500000000000038
 40
1.0
 40
1.0
 40
1.0
 40
1.0
 10
322.641471332082
 20
420.3343266690881
 30
0.0
 10
322.6414713320823
 20
419.7450710100961
 30
0.0
 10
322.6414713342992
 20
419.1093378520045
 30
0.0
 10
322.641471341844
 20
418.1861107000983
 30
0.0
 10
322.6414713450486
 20
417.8841250321775
 30
0.0
 10
322.6414713527637
 20
417.312430647131
 30
0.0
 10
322.6414713572735
 20
417.0428703657028
 30
0.0
 10
322.6414713673498
 20
416.5547149850071
 30
0.0
 10
322.6414713729139
 20
416.3362297814761
 30
0.0
 10
322.6414713847144
 20
415.962468225658
 30
0.0
 10
322.6414713909477
 20
415.8072174432022
 30
0.0
 10
322.6414714100042
 20
415.4417202303327
 30
0.0
 10
322.6414714231264
 20
415.3343265332681
 30
0.0
 10
322.6414714352892
 20
415.3343265332682
 30
0.0
  0
SPLINE
  5
1D5
330
1F
100
AcDbEntity
  8
0
  6
Continuous
 62
     8
370
    18
100
AcDbSpline
210
0.0
220
0.0
230
1.0
 70
     8
 71
     3
 72
    18
 73
    14
 74
     0
 42
0.00000001
 43
0.00000001
 40
0.0
 40
0.0
 40
0.0
 40
0.0
 40
0.2499999999999998
 40
0.2499999999999998
 40
0.3749999999999997
 40
0.3749999999999997
 40
0.4999999999999994
 40
0.4999999999999994
 40
0.6249999999999992
 40
0.6249999999999992
 40
0.7499999999999991
 40
0.7499999999999991
 40
1.0
 40
1.0
 40
1.0
 40
1.0
 10
337.6414722819787
 20
415.3343265332682
 30
0.0
 10
337.641472269816
 20
415.3343265332681
 30
0.0
 10
337.6414722566939
 20
415.4417202303327
 30
0.0
 10
337.6414722376376
 20
415.8072174432023
 30
0.0
 10
337.6414722314044
 20
415.962468225658
 30
0.0
 10
337.6414722196039
 20
416.3362297814761
 30
0.0
 10
337.6414722140398
 20
416.5547149850071
 30
0.0
 10
337.6414722039637
 20
417.0428703657028
 30
0.0
 10
337.6414721994539
 20
417.312430647131
 30
0.0
 10
337.6414721917389
 20
417.8841250321775
 30
0.0
 10
337.6414721885342
 20
418.1861107000983
 30
0.0
 10
337.6414721809896
 20
419.1093378520045
 30
0.0
 10
337.6414721787727
 20
419.7450710100961
 30
0.0
 10
337.6414721787724
 20
420.3343266690881
 30
0.0
  0
LINE
  5
1D6
330
1F
100
AcDbEntity
  8
0
  6
Continuous
 62
     8
370
    18
100
AcDbLine
 10
322.661703371
 20
677.5462757754
 30
0.0
 11
322.6523963709
 21
675.219525749
 31
0.0
  0
LINE
  5
1D7
330
1F
100
AcDbEntity
  8
0
  6
Continuous
 62
     8
370
    18
100
AcDbLine
 10
322.6617517405
 20
677.5459822714
 30
0.0
 11
423.210978805
 21
694.1161408478
 31
0.0
  0
LINE
  5
1D8
330
1F
100
AcDbEntity
  8
0
  6
Continuous
 62
     8
370
    18
100
AcDbLine
 10
423.5435132641
 20
692.0982731113
 30
0.0
 11
423.2109304348
 21
694.1164343572
 31
0.0
  0
LINE
  5
1D9
330
1F
100
AcDbEntity
  8
0
  6
Continuous
 62
     8
370
    18
100
AcDbLine
 10
423.2109304358
 20
694.1164343512
 30
0.0
 11
424.2258329994
 21
694.2836867201
 31
0.0
  0
SPLINE
  5
1DA
330
1F
100
AcDbEntity
  8
0
  6
Continuous
 62
     8
370
    18
100
AcDbSpline
210
0.0
220
0.0
230
1.0
 70
    24
 71
     3
 72
    10
 73
     6
 74
     0
 42
0.00000001
 43
0.00000001
 40
0.0
 40
0.0
 40
0.0
 40
0.0
 40
0.5
 40
0.5
 40
1.0
 40
1.0
 40
1.0
 40
1.0
 10
423.2109788050191
 20
694.11614084779
 30
0.0
 10
423.1891729716009
 20
694.248460625859
 30
0.0
 10
423.1654395500967
 20
694.3924771834702
 30
0.0
 10
423.1203183154167
 20
694.6662769340966
 30
0.0
 10
423.0991535492708
 20
694.7947066574711
 30
0.0
 10
423.0827781122854
 20
694.8940742963666
 30
0.0
  0
SPLINE
  5
1DB
330
1F
100
AcDbEntity
  8
0
  6
Continuous
 62
     8
370
    18
100
AcDbSpline
210
0.0
220
0.0
230
1.0
 70
    24
 71
     3
 72
    14
 73
    10
 74
     0
 42
0.00000001
 43
0.00000001
 40
0.0
 40
0.0
 40
0.0
 40
0.0
 40
0.25
 40
0.25
 40
0.5
 40
0.5
 40
0.75
 40
0.75
 40
1.0
 40
1.0
 40
1.0
 40
1.0
 10
322.661751740538
 20
677.5459822714479
 30
0.0
 10
322.52710637079
 20
677.5465208529247
 30
0.0
 10
322.392512695164
 20
677.5470592276255
 30
0.0
 10
322.1437167697505
 20
677.5480544113246
 30
0.0
 10
322.0296124224986
 20
677.5485108287131
 30
0.0
 10
321.8391905284682
 20
677.5492725162893
 30
0.0
 10
321.7629479137296
 20
677.5495774867488
 30
0.0
 10
321.6598918132693
 20
677.549989711153
 30
0.0
 10
321.6331188806776
 20
677.5500968028853
 30
0.0
 10
321.6331188806789
 20
677.5500968028873
 30
0.0
  0
SPLINE
  5
1DC
330
1F
100
AcDbEntity
  8
0
  6
Continuous
 62
     8
370
    18
100
AcDbSpline
210
0.0
220
0.0
230
1.0
 70
     8
 71
     3
 72
    14
 73
    10
 74
     0
 42
0.00000001
 43
0.00000001
 40
0.0
 40
0.0
 40
0.0
 40
0.0
 40
0.25
 40
0.25
 40
0.5
 40
0.5
 40
0.75
 40
0.75
 40
1.0
 40
1.0
 40
1.0
 40
1.0
 10
322.6414710986198
 20
666.4026684469134
 30
0.0
 10
322.6414710985755
 20
666.4026684469139
 30
0.0
 10
322.6414710985356
 20
666.3811897080677
 30
0.0
 10
322.6414710984796
 20
666.2837237876431
 30
0.0
 10
322.6414710984638
 20
666.2074063006836
 30
0.0
 10
322.6414710984638
 20
666.0121441544514
 30
0.0
 10
322.6414710984796
 20
665.8938601059415
 30
0.0
 10
322.6414710985356
 20
665.6476662048159
 30
0.0
 10
322.6414710985754
 20
665.5205195756879
 30
0.0
 10
322.6414710986198
 20
665.4026684454
 30
0.0
  0
SPLINE
  5
1DD
330
1F
100
AcDbEntity
  8
0
  6
Continuous
 62
     8
370
    18
100
AcDbSpline
210
0.0
220
0.0
230
1.0
 70
    24
 71
     3
 72
    14
 73
    10
 74
     0
 42
0.00000001
 43
0.00000001
 40
0.0
 40
0.0
 40
0.0
 40
0.0
 40
0.25
 40
0.25
 40
0.5
 40
0.5
 40
0.75
 40
0.75
 40
1.0
 40
1.0
 40
1.0
 40
1.0
 10
535.6414710983894
 20
665.4026684454
 30
0.0
 10
535.6414710983643
 20
665.5205195756938
 30
0.0
 10
535.6414710983418
 20
665.6476662048285
 30
0.0
 10
535.64147109831
 20
665.8938601059651
 30
0.0
 10
535.641471098301
 20
666.0121441544793
 30
0.0
 10
535.641471098301
 20
666.2074063007128
 30
0.0
 10
535.6414710983099
 20
666.2837237876697
 30
0.0
 10
535.6414710983418
 20
666.3811897080838
 30
0.0
 10
535.6414710983639
 20
666.4026684469142
 30
0.0
 10
535.6414710983894
 20
666.4026684469134
 30
0.0
  0
LINE
  5
1DE
330
1F
100
AcDbEntity
  8
0
  6
Continuous
 62
     8
370
    18
100
AcDbLine
 10
535.6414710984
 20
665.4026684454
 30
0.0
 11
322.6414710984
 21
665.4026684454
 31
0.0
  0
LINE
  5
1DF
330
1F
100
AcDbEntity
  8
0
  6
Continuous
 62
     8
370
    18
100
AcDbLine
 10
322.6414710984
 20
665.4026684454
 30
0.0
 11
321.6414710986
 21
665.4026684469
 31
0.0
  0
SPLINE
  5
1E0
330
1F
100
AcDbEntity
  8
0
  6
Continuous
 62
     8
370
    18
100
AcDbSpline
210
0.0
220
0.0
230
1.0
 70
     8
 71
     3
 72
    38
 73
    34
 74
     0
 42
0.00000001
 43
0.00000001
 40
0.0
 40
0.0
 40
0.0
 40
0.0
 40
0.0625
 40
0.0625
 40
0.125
 40
0.125
 40
0.1875
 40
0.1875
 40
0.25
 40
0.25
 40
0.3125
 40
0.3125
 40
0.375
 40
0.375
 40
0.4375
 40
0.4375
 40
0.5
 40
0.5
 40
0.5625
 40
0.5625
 40
0.625
 40
0.625
 40
0.6875
 40
0.6875
 40
0.75
 40
0.75
 40
0.8125
 40
0.8125
 40
0.875
 40
0.875
 40
0.9375
 40
0.9375
 40
1.0
 40
1.0
 40
1.0
 40
1.0
 10
387.6414710983893
 20
655.4026668207077
 30
0.0
 10
385.0877548427948
 20
655.4026668207077
 30
0.0
 10
382.5351685521698
 20
655.4031733197783
 30
0.0
 10
377.5335428510562
 20
655.3942624066466
 30
0.0
 10
375.0844173108807
 20
655.3847588647587
 30
0.0
 10
370.3652589766582
 20
655.3341130575683
 30
0.0
 10
368.0951400529243
 20
655.29288466258
 30
0.0
 10
363.786555883351
 20
655.149052584255
 30
0.0
 10
361.7480045078246
 20
655.0463627712327
 30
0.0
 10
357.9347153228121
 20
654.7444334296769
 30
0.0
 10
356.1598913836389
 20
654.5451077714579
 30
0.0
 10
352.8883998064634
 20
654.011878340683
 30
0.0
 10
351.3916460387741
 20
653.6778884384413
 30
0.0
 10
348.675404277288
 20
652.8370320396947
 30
0.0
 10
347.4558301538041
 20
652.3300794135042
 30
0.0
 10
345.2804077816466
 20
651.1073128963978
 30
0.0
 10
344.3244734032861
 20
650.3914128757966
 30
0.0
 10
342.6527251410951
 20
648.7196645994353
 30
0.0
 10
341.9368251275777
 20
647.7637302139898
 30
0.0
 10
340.7140586242005
 20
645.5883078280991
 30
0.0
 10
340.2071060046538
 20
644.3687336979685
 30
0.0
 10
339.3662496183583
 20
641.6524919240235
 30
0.0
 10
339.0322597219229
 20
640.1557381505236
 30
0.0
 10
338.4990303016093
 20
636.8842465628768
 30
0.0
 10
338.2997046480445
 20
635.1094226190444
 30
0.0
 10
337.9977753144561
 20
631.2961334260543
 30
0.0
 10
337.8950855047457
 20
629.257582047211
 30
0.0
 10
337.75125343168
 20
624.9489978723702
 30
0.0
 10
337.7100250386379
 20
622.6788789466872
 30
0.0
 10
337.6593792341581
 20
617.9597206097507
 30
0.0
 10
337.6498756930336
 20
615.5105950688118
 30
0.0
 10
337.6409647806798
 20
610.5089693669257
 30
0.0
 10
337.6414712797636
 20
607.956383076293
 30
0.0
 10
337.6414712797635
 20
605.4026668207076
 30
0.0
  0
LINE
  5
1E1
330
1F
100
AcDbEntity
  8
0
  6
Continuous
 62
     8
370
    18
100
AcDbLine
 10
337.6414712798
 20
590.4026674753
 30
0.0
 11
337.6414712798
 21
605.4026674473
 31
0.0
  0
LINE
  5
1E2
330
1F
100
AcDbEntity
  8
0
  6
Continuous
 62
     8
370
    18
100
AcDbLine
 10
322.6414710982
 20
665.4026684454
 30
0.0
 11
322.6414710982
 21
590.4026674753
 31
0.0
  0
LINE
  5
1E3
330
1F
100
AcDbEntity
  8
0
  6
Continuous
 62
     8
370
    18
100
AcDbLine
 10
535.6414710984
 20
655.4026671568
 30
0.0
 11
535.6414710984
 21
665.4026684454
 31
0.0
  0
LINE
  5
1E4
330
1F
100
AcDbEntity
  8
0
  6
Continuous
 62
     8
370
    18
100
AcDbLine
 10
387.6414710984
 20
655.4026668207
 30
0.0
 11
535.6414710984
 21
655.4026671568
 31
0.0
  0
SPLINE
  5
1E5
330
1F
100
AcDbEntity
  8
0
  6
Continuous
 62
     8
370
    18
100
AcDbSpline
210
0.0
220
0.0
230
1.0
 70
     8
 71
     3
 72
    10
 73
     6
 74
     0
 42
0.00000001
 43
0.00000001
 40
0.0
 40
0.0
 40
0.0
 40
0.0
 40
0.5
 40
0.5
 40
1.0
 40
1.0
 40
1.0
 40
1.0
 10
536.6414710983894
 20
665.4026684469168
 30
0.0
 10
536.6414710983894
 20
665.4026684465218
 30
0.0
 10
536.5336980019991
 20
665.4026684461292
 30
0.0
 10
536.1634577571526
 20
665.4026684455705
 30
0.0
 10
535.9032704861885
 20
665.4026684454079
 30
0.0
 10
535.6414710983894
 20
665.4026684454079
 30
0.0
  0
SPLINE
  5
1E6
330
1F
100
AcDbEntity
  8
0
  6
Continuous
 62
     8
370
    18
100
AcDbSpline
210
0.0
220
0.0
230
1.0
 70
     8
 71
     3
 72
    10
 73
     6
 74
     0
 42
0.00000001
 43
0.00000001
 40
0.0
 40
0.0
 40
0.0
 40
0.0
 40
0.5
 40
0.5
 40
1.0
 40
1.0
 40
1.0
 40
1.0
 10
536.6414710983894
 20
655.4032657949638
 30
0.0
 10
536.6414710983894
 20
655.4031089838767
 30
0.0
 10
536.5336980019991
 20
655.4029531384058
 30
0.0
 10
536.1634577571526
 20
655.4027313740396
 30
0.0
 10
535.9032704861885
 20
655.402666820732
 30
0.0
 10
535.6414710983893
 20
655.402666820732
 30
0.0
  0
LINE
  5
1E7
330
1F
100
AcDbEntity
  8
0
  6
Continuous
 62
     8
370
    18
100
AcDbLine
 10
322.6697516761
 20
679.5459662716
 30
0.0
 11
322.6617517405
 21
677.5459822714
 31
0.0
  0
LINE
  5
1E8
330
1F
100
AcDbEntity
  8
0
  6
Continuous
 62
     8
370
    18
100
AcDbLine
 10
337.6414715139
 20
431.3343266691
 30
0.0
 11
337.6414715139
 21
460.4026674753
 31
0.0
  0
LINE
  5
1E9
330
1F
100
AcDbEntity
  8
0
  6
Continuous
 62
     8
370
    18
100
AcDbLine
 10
322.6414713321
 20
460.4026674753
 30
0.0
 11
322.6414713321
 21
431.3343266691
 31
0.0
  0
LINE
  5
1EA
330
1F
100
AcDbEntity
  8
0
  6
Continuous
 62
     8
370
    18
100
AcDbLine
 10
337.6414721788
 20
420.3343267065
 30
0.0
 11
337.6414721788
 21
431.3343266691
 31
0.0
  0
LINE
  5
1EB
330
1F
100
AcDbEntity
  8
0
  6
Continuous
 62
     8
370
    18
100
AcDbLine
 10
322.6414713321
 20
431.3343266691
 30
0.0
 11
322.6414713321
 21
420.3343267065
 31
0.0
  0
LINE
  5
1EC
330
1F
100
AcDbEntity
  8
0
  6
Continuous
 62
     8
370
    18
100
AcDbLine
 10
322.6414712151
 20
590.4026674753
 30
0.0
 11
322.6414712151
 21
460.4026674753
 31
0.0
  0
LINE
  5
1ED
330
1F
100
AcDbEntity
  8
0
  6
Continuous
 62
     8
370
    18
100
AcDbLine
 10
337.6414736621
 20
590.4026674753
 30
0.0
 11
337.6414736621
 21
460.4026674753
 31
0.0
  0
SPLINE
  5
1EE
330
1F
100
AcDbEntity
  8
0
  6
Continuous
 62
     8
370
    18
100
AcDbSpline
210
0.0
220
0.0
230
1.0
 70
    24
 71
     3
 72
    22
 73
    18
 74
     0
 42
0.00000001
 43
0.00000001
 40
40.46435809303314
 40
40.46435809303314
 40
40.46435809303314
 40
40.46435809303314
 40
42.70254058986018
 40
42.70254058986018
 40
44.3449459971625
 40
44.3449459971625
 40
45.98735140446481
 40
45.98735140446481
 40
46.80855410811597
 40
46.80855410811597
 40
47.62975681176712
 40
47.62975681176712
 40
49.27216221906944
 40
49.27216221906944
 40
50.91456762637176
 40
50.91456762637176
 40
52.55697303367407
 40
52.55697303367407
 40
52.55697303367407
 40
52.55697303367407
 10
535.6414710983894
 20
650.4038095326896
 30
0.0
 10
535.6414710983894
 20
650.4055601064929
 30
0.0
 10
535.6414710983894
 20
650.4119254862935
 30
0.0
 10
535.6414710983894
 20
650.4544985963967
 30
0.0
 10
535.6414710983894
 20
650.4835218069148
 30
0.0
 10
535.6414710983894
 20
650.5987222864006
 30
0.0
 10
535.6414710983894
 20
650.6840589543519
 30
0.0
 10
535.6414710983894
 20
650.9185394213365
 30
0.0
 10
535.6414710983894
 20
651.01597389864
 30
0.0
 10
535.6414710983894
 20
651.2590925296824
 30
0.0
 10
535.6414710983894
 20
651.4054004546725
 30
0.0
 10
535.6414710983894
 20
651.9098063300427
 30
0.0
 10
535.6414710983894
 20
652.3245562696827
 30
0.0
 10
535.6414710983894
 20
653.1796597375065
 30
0.0
 10
535.6414710983894
 20
653.6232543596363
 30
0.0
 10
535.6414710983894
 20
654.5107718500947
 30
0.0
 10
535.6414710983894
 20
654.9570557457865
 30
0.0
 10
535.6414710983894
 20
655.4026668207318
 30
0.0
  0
LINE
  5
1EF
330
1F
100
AcDbEntity
  8
0
  6
Continuous
 62
     8
370
    18
100
AcDbLine
 10
326.6690700479
 20
674.0698748521
 30
0.0
 11
324.2682615843
 21
674.0698748521
 31
0.0
  0
LINE
  5
1F0
330
1F
100
AcDbEntity
  8
0
  6
Continuous
 62
     8
370
    18
100
AcDbLine
 10
518.9522033364
 20
649.4038095327
 30
0.0
 11
518.9467537085
 21
650.4038095327
 31
0.0
  0
LINE
  5
1F1
330
1F
100
AcDbEntity
  8
0
  6
Continuous
 62
     8
370
    18
100
AcDbLine
 10
519.0452531566
 20
649.4038095327
 30
0.0
 11
519.039858226
 21
650.4038095327
 31
0.0
  0
LINE
  5
1F2
330
1F
100
AcDbEntity
  8
0
  6
Continuous
 62
     8
370
    18
100
AcDbLine
 10
512.3388173151
 20
650.4038095327
 30
0.0
 11
512.3441855568
 21
649.4038095327
 31
0.0
  0
LINE
  5
1F3
330
1F
100
AcDbEntity
  8
0
  6
Continuous
 62
     8
370
    18
100
AcDbLine
 10
524.6117967626
 20
650.4038095327
 30
0.0
 11
524.6038971611
 21
649.4038095327
 31
0.0
  0
LINE
  5
1F4
330
1F
100
AcDbEntity
  8
0
  6
Continuous
 62
     8
370
    18
100
AcDbLine
 10
524.4995934769
 20
650.4038095327
 30
0.0
 11
524.491727908
 21
649.4038095327
 31
0.0
  0
LINE
  5
1F5
330
1F
100
AcDbEntity
  8
0
  6
Continuous
 62
     8
370
    18
100
AcDbLine
 10
528.0355083075
 20
649.4038095327
 30
0.0
 11
528.0433656443
 21
650.4038095327
 31
0.0
  0
LINE
  5
1F6
330
1F
100
AcDbEntity
  8
0
  6
Continuous
 62
     8
370
    18
100
AcDbLine
 10
511.4907738076
 20
649.4038095327
 30
0.0
 11
511.4829082387
 21
650.4038095327
 31
0.0
  0
LINE
  5
1F7
330
1F
100
AcDbEntity
  8
0
  6
Continuous
 62
     8
370
    18
100
AcDbLine
 10
511.4474358952
 20
649.4038095327
 30
0.0
 11
511.4395785584
 21
650.4038095327
 31
0.0
  0
ENDSEC
  0
SECTION
  2
OBJECTS
  0
DICTIONARY
  5
C
330
0
100
AcDbDictionary
281
     1
  3
ACAD_GROUP
350
D
  3
ACAD_LAYOUT
350
1A
  3
ACAD_MLINESTYLE
350
17
  3
ACAD_PLOTSETTINGS
350
19
  3
ACAD_PLOTSTYLENAME
350
E
  3
ACAD_SCALELIST
350
47
  3
DWGPROPS
350
1F8
  0
DICTIONARY
  5
D
102
{ACAD_REACTORS
330
C
102
}
330
C
100
AcDbDictionary
281
     1
  0
DICTIONARY
  5
1A
102
{ACAD_REACTORS
330
C
102
}
330
C
100
AcDbDictionary
281
     1
  3
Layout1
350
1E
  3
Layout2
350
26
  3
Model
350
22
  0
DICTIONARY
  5
17
102
{ACAD_REACTORS
330
C
102
}
330
C
100
AcDbDictionary
281
     1
  3
Standard
350
18
  0
DICTIONARY
  5
19
102
{ACAD_REACTORS
330
C
102
}
330
C
100
AcDbDictionary
281
     1
  0
ACDBDICTIONARYWDFLT
  5
E
102
{ACAD_REACTORS
330
C
102
}
330
C
100
AcDbDictionary
281
     1
  3
Normal
350
F
100
AcDbDictionaryWithDefault
340
F
  0
DICTIONARY
  5
47
102
{ACAD_REACTORS
330
C
102
}
330
C
100
AcDbDictionary
281
     1
  3
A0
350
48
  3
A1
350
49
  3
A2
350
4A
  3
A3
350
4B
  3
A4
350
4C
  3
A5
350
4D
  3
A6
350
4E
  3
A7
350
4F
  3
A8
350
50
  3
A9
350
51
  3
B0
350
52
  3
B1
350
53
  3
B2
350
54
  3
B3
350
55
  3
B4
350
56
  3
B5
350
57
  3
B6
350
58
  0
XRECORD
  5
1F8
102
{ACAD_REACTORS
330
C
102
}
330
C
100
AcDbXrecord
280
     1
  1
DWGPROPS COOKIE
  2

  3

  4

  6

  7

  8
fue-task
  9

300
=
301
=
302
=
303
=
304
=
305
=
306
=
307
=
308
=
309
=
 40
0.0
 41
2460346.430934583
 42
2460346.430935845
  1

 90
        0
  0
LAYOUT
  5
1E
102
{ACAD_REACTORS
330
1A
102
}
330
1A
100
AcDbPlotSettings
  1

  2
none_device
  4

  6

 40
0.0
 41
0.0
 42
0.0
 43
0.0
 44
0.0
 45
0.0
 46
0.0
 47
0.0
 48
0.0
 49
0.0
140
0.0
141
0.0
142
1.0
143
1.0
 70
   688
 72
     1
 73
     0
 74
     5
  7

 75
    16
147
1.0
148
0.0
149
0.0
100
AcDbLayout
  1
Layout1
 70
     1
 71
     1
 10
0.0
 20
0.0
 11
420.0
 21
297.0
 12
0.0
 22
0.0
 32
0.0
 14
1.0000000000E+20
 24
1.0000000000E+20
 34
1.0000000000E+20
 15
-1.0000000000E+20
 25
-1.0000000000E+20
 35
-1.0000000000E+20
146
0.0
 13
0.0
 23
0.0
 33
0.0
 16
1.0
 26
0.0
 36
0.0
 17
0.0
 27
1.0
 37
0.0
 76
     0
330
1B
  0
LAYOUT
  5
26
102
{ACAD_REACTORS
330
1A
102
}
330
1A
100
AcDbPlotSettings
  1

  2
none_device
  4

  6

 40
0.0
 41
0.0
 42
0.0
 43
0.0
 44
0.0
 45
0.0
 46
0.0
 47
0.0
 48
0.0
 49
0.0
140
0.0
141
0.0
142
1.0
143
1.0
 70
   688
 72
     1
 73
     0
 74
     5
  7

 75
    16
147
1.0
148
0.0
149
0.0
100
AcDbLayout
  1
Layout2
 70
     1
 71
     2
 10
0.0
 20
0.0
 11
0.0
 21
0.0
 12
0.0
 22
0.0
 32
0.0
 14
0.0
 24
0.0
 34
0.0
 15
0.0
 25
0.0
 35
0.0
146
0.0
 13
0.0
 23
0.0
 33
0.0
 16
1.0
 26
0.0
 36
0.0
 17
0.0
 27
1.0
 37
0.0
 76
     0
330
23
  0
LAYOUT
  5
22
102
{ACAD_REACTORS
330
1A
102
}
330
1A
100
AcDbPlotSettings
  1

  2
none_device
  4
Letter_(8.50_x_11.00_Inches)
  6

 40
6.35
 41
6.35
 42
6.35000508
 43
6.35000508
 44
215.9
 45
279.4
 46
0.0
 47
0.0
 48
0.0
 49
0.0
140
0.0
141
0.0
142
1.0
143
1.0
 70
  1712
 72
     1
 73
     0
 74
     0
  7

 75
     0
147
1.0
148
0.0
149
0.0
100
AcDbLayout
  1
Model
 70
     1
 71
     0
 10
0.0
 20
0.0
 11
594.0
 21
841.0
 12
0.0
 22
0.0
 32
0.0
 14
0.0
 24
0.0
 34
0.0
 15
594.0
 25
841.0
 35
0.0
146
0.0
 13
0.0
 23
0.0
 33
0.0
 16
1.0
 26
0.0
 36
0.0
 17
0.0
 27
1.0
 37
0.0
 76
     0
330
1F
331
29
  0
MLINESTYLE
  5
18
102
{ACAD_REACTORS
330
17
102
}
330
17
100
AcDbMlineStyle
  2
Standard
 70
     0
  3

 62
   256
 51
90.0
 52
90.0
 71
     2
 49
0.5
 62
   256
  6
BYLAYER
 49
-0.5
 62
   256
  6
BYLAYER
  0
ACDBPLACEHOLDER
  5
F
102
{ACAD_REACTORS
330
E
102
}
330
E
  0
SCALE
  5
48
102
{ACAD_REACTORS
330
47
102
}
330
47
100
AcDbScale
 70
     0
300
1:1
140
1.0
141
1.0
290
     1
  0
SCALE
  5
49
102
{ACAD_REACTORS
330
47
102
}
330
47
100
AcDbScale
 70
     0
300
1:2
140
1.0
141
2.0
290
     0
  0
SCALE
  5
4A
102
{ACAD_REACTORS
330
47
102
}
330
47
100
AcDbScale
 70
     0
300
1:4
140
1.0
141
4.0
290
     0
  0
SCALE
  5
4B
102
{ACAD_REACTORS
330
47
102
}
330
47
100
AcDbScale
 70
     0
300
1:5
140
1.0
141
5.0
290
     0
  0
SCALE
  5
4C
102
{ACAD_REACTORS
330
47
102
}
330
47
100
AcDbScale
 70
     0
300
1:8
140
1.0
141
8.0
290
     0
  0
SCALE
  5
4D
102
{ACAD_REACTORS
330
47
102
}
330
47
100
AcDbScale
 70
     0
300
1:10
140
1.0
141
10.0
290
     0
  0
SCALE
  5
4E
102
{ACAD_REACTORS
330
47
102
}
330
47
100
AcDbScale
 70
     0
300
1:16
140
1.0
141
16.0
290
     0
  0
SCALE
  5
4F
102
{ACAD_REACTORS
330
47
102
}
330
47
100
AcDbScale
 70
     0
300
1:20
140
1.0
141
20.0
290
     0
  0
SCALE
  5
50
102
{ACAD_REACTORS
330
47
102
}
330
47
100
AcDbScale
 70
     0
300
1:30
140
1.0
141
30.0
290
     0
  0
SCALE
  5
51
102
{ACAD_REACTORS
330
47
102
}
330
47
100
AcDbScale
 70
     0
300
1:40
140
1.0
141
40.0
290
     0
  0
SCALE
  5
52
102
{ACAD_REACTORS
330
47
102
}
330
47
100
AcDbScale
 70
     0
300
1:50
140
1.0
141
50.0
290
     0
  0
SCALE
  5
53
102
{ACAD_REACTORS
330
47
102
}
330
47
100
AcDbScale
 70
     0
300
1:100
140
1.0
141
100.0
290
     0
  0
SCALE
  5
54
102
{ACAD_REACTORS
330
47
102
}
330
47
100
AcDbScale
 70
     0
300
2:1
140
2.0
141
1.0
290
     0
  0
SCALE
  5
55
102
{ACAD_REACTORS
330
47
102
}
330
47
100
AcDbScale
 70
     0
300
4:1
140
4.0
141
1.0
290
     0
  0
SCALE
  5
56
102
{ACAD_REACTORS
330
47
102
}
330
47
100
AcDbScale
 70
     0
300
8:1
140
8.0
141
1.0
290
     0
  0
SCALE
  5
57
102
{ACAD_REACTORS
330
47
102
}
330
47
100
AcDbScale
 70
     0
300
10:1
140
10.0
141
1.0
290
     0
  0
SCALE
  5
58
102
{ACAD_REACTORS
330
47
102
}
330
47
100
AcDbScale
 70
     0
300
100:1
140
100.0
141
1.0
290
     0
  0
ENDSEC
  0
EOF
