  0
SECTION
  2
HEADER
  9
$ACADVER
  1
AC1015
  9
$ACADMAINTVER
 70
     6
  9
$DWGCODEPAGE
  3
ANSI_1252
  9
$INSBASE
 10
0.0
 20
0.0
 30
0.0
  9
$EXTMIN
 10
0.0
 20
0.0
 30
0.0
  9
$EXTMAX
 10
594.0
 20
841.0
 30
0.0
  9
$LIMMIN
 10
0.0
 20
0.0
  9
$LIMMAX
 10
594.0
 20
841.0
  9
$ORTHOMODE
 70
     0
  9
$REGENMODE
 70
     1
  9
$FILLMODE
 70
     1
  9
$QTEXTMODE
 70
     0
  9
$MIRRTEXT
 70
     1
  9
$LTSCALE
 40
1.0
  9
$ATTMODE
 70
     1
  9
$TEXTSIZE
 40
10.0
  9
$TRACEWID
 40
1.0
  9
$TEXTSTYLE
  7
Standard
  9
$CLAYER
  8
0
  9
$CELTYPE
  6
ByLayer
  9
$CECOLOR
 62
   256
  9
$CELTSCALE
 40
1.0
  9
$DISPSILH
 70
     0
  9
$DIMSCALE
 40
1.0
  9
$DIMASZ
 40
2.5
  9
$DIMEXO
 40
0.0
  9
$DIMDLI
 40
3.75
  9
$DIMRND
 40
0.0
  9
$DIMDLE
 40
0.0
  9
$DIMEXE
 40
1.0
  9
$DIMTP
 40
0.0
  9
$DIMTM
 40
0.0
  9
$DIMTXT
 40
3.5
  9
$DIMCEN
 40
2.5
  9
$DIMTSZ
 40
0.0
  9
$DIMTOL
 70
     0
  9
$DIMLIM
 70
     0
  9
$DIMTIH
 70
     1
  9
$DIMTOH
 70
     1
  9
$DIMSE1
 70
     0
  9
$DIMSE2
 70
     0
  9
$DIMTAD
 70
     1
  9
$DIMZIN
 70
     0
  9
$DIMBLK
  1

  9
$DIMASO
 70
     1
  9
$DIMSHO
 70
     1
  9
$DIMPOST
  1

  9
$DIMAPOST
  1

  9
$DIMALT
 70
     0
  9
$DIMALTD
 70
     3
  9
$DIMALTF
 40
0.0393700787
  9
$DIMLFAC
 40
1.0
  9
$DIMTOFL
 70
     1
  9
$DIMTVP
 40
0.0
  9
$DIMTIX
 70
     0
  9
$DIMSOXD
 70
     0
  9
$DIMSAH
 70
     0
  9
$DIMBLK1
  1

  9
$DIMBLK2
  1

  9
$DIMSTYLE
  2
ISO-25
  9
$DIMCLRD
 70
     0
  9
$DIMCLRE
 70
     0
  9
$DIMCLRT
 70
     0
  9
$DIMTFAC
 40
1.0
  9
$DIMGAP
 40
1.5
  9
$DIMJUST
 70
     0
  9
$DIMSD1
 70
     0
  9
$DIMSD2
 70
     0
  9
$DIMTOLJ
 70
     0
  9
$DIMTZIN
 70
     0
  9
$DIMALTZ
 70
     0
  9
$DIMALTTZ
 70
     0
  9
$DIMUPT
 70
     0
  9
$DIMDEC
 70
     2
  9
$DIMTDEC
 70
     2
  9
$DIMALTU
 70
     2
  9
$DIMALTTD
 70
     3
  9
$DIMTXSTY
  7
Standard
  9
$DIMAUNIT
 70
     0
  9
$DIMADEC
 70
     2
  9
$DIMALTRND
 40
0.0
  9
$DIMAZIN
 70
     0
  9
$DIMDSEP
 70
    44
  9
$DIMATFIT
 70
     3
  9
$DIMFRAC
 70
     0
  9
$DIMLDRBLK
  1

  9
$DIMLUNIT
 70
     2
  9
$DIMLWD
 70
    -2
  9
$DIMLWE
 70
    -2
  9
$DIMTMOVE
 70
     0
  9
$LUNITS
 70
     2
  9
$LUPREC
 70
     2
  9
$SKETCHINC
 40
1.0
  9
$FILLETRAD
 40
0.0
  9
$AUNITS
 70
     0
  9
$AUPREC
 70
     2
  9
$MENU
  1
.
  9
$ELEVATION
 40
0.0
  9
$PELEVATION
 40
0.0
  9
$THICKNESS
 40
0.0
  9
$LIMCHECK
 70
     0
  9
$CHAMFERA
 40
0.0
  9
$CHAMFERB
 40
0.0
  9
$CHAMFERC
 40
0.0
  9
$CHAMFERD
 40
0.0
  9
$SKPOLY
 70
     0
  9
$TDCREATE
 40
2460346.434687106
  9
$TDUCREATE
 40
2460346.39302044
  9
$TDUPDATE
 40
2460346.434688368
  9
$TDUUPDATE
 40
2460346.393021701
  9
$TDINDWG
 40
0.0000000116
  9
$TDUSRTIMER
 40
0.0000000116
  9
$USRTIMER
 70
     1
  9
$ANGBASE
 50
0.0
  9
$ANGDIR
 70
     0
  9
$PDMODE
 70
     0
  9
$PDSIZE
 40
-1.0
  9
$PLINEWID
 40
0.0
  9
$SPLFRAME
 70
     0
  9
$SPLINETYPE
 70
     6
  9
$SPLINESEGS
 70
     8
  9
$HANDSEED
  5
207
  9
$SURFTAB1
 70
     6
  9
$SURFTAB2
 70
     6
  9
$SURFTYPE
 70
     6
  9
$SURFU
 70
     6
  9
$SURFV
 70
     6
  9
$UCSBASE
  2

  9
$UCSNAME
  2

  9
$UCSORG
 10
0.0
 20
0.0
 30
0.0
  9
$UCSXDIR
 10
1.0
 20
0.0
 30
0.0
  9
$UCSYDIR
 10
0.0
 20
1.0
 30
0.0
  9
$UCSORTHOREF
  2

  9
$UCSORTHOVIEW
 70
     0
  9
$UCSORGTOP
 10
0.0
 20
0.0
 30
0.0
  9
$UCSORGBOTTOM
 10
0.0
 20
0.0
 30
0.0
  9
$UCSORGLEFT
 10
0.0
 20
0.0
 30
0.0
  9
$UCSORGRIGHT
 10
0.0
 20
0.0
 30
0.0
  9
$UCSORGFRONT
 10
0.0
 20
0.0
 30
0.0
  9
$UCSORGBACK
 10
0.0
 20
0.0
 30
0.0
  9
$PUCSBASE
  2

  9
$PUCSNAME
  2

  9
$PUCSORG
 10
0.0
 20
0.0
 30
0.0
  9
$PUCSXDIR
 10
1.0
 20
0.0
 30
0.0
  9
$PUCSYDIR
 10
0.0
 20
1.0
 30
0.0
  9
$PUCSORTHOREF
  2

  9
$PUCSORTHOVIEW
 70
     0
  9
$PUCSORGTOP
 10
0.0
 20
0.0
 30
0.0
  9
$PUCSORGBOTTOM
 10
0.0
 20
0.0
 30
0.0
  9
$PUCSORGLEFT
 10
0.0
 20
0.0
 30
0.0
  9
$PUCSORGRIGHT
 10
0.0
 20
0.0
 30
0.0
  9
$PUCSORGFRONT
 10
0.0
 20
0.0
 30
0.0
  9
$PUCSORGBACK
 10
0.0
 20
0.0
 30
0.0
  9
$USERI1
 70
     0
  9
$USERI2
 70
     0
  9
$USERI3
 70
     0
  9
$USERI4
 70
     0
  9
$USERI5
 70
     0
  9
$USERR1
 40
0.0
  9
$USERR2
 40
0.0
  9
$USERR3
 40
0.0
  9
$USERR4
 40
0.0
  9
$USERR5
 40
0.0
  9
$WORLDVIEW
 70
     1
  9
$SHADEDGE
 70
     3
  9
$SHADEDIF
 70
    70
  9
$TILEMODE
 70
     1
  9
$MAXACTVP
 70
    64
  9
$PINSBASE
 10
0.0
 20
0.0
 30
0.0
  9
$PLIMCHECK
 70
     0
  9
$PEXTMIN
 10
1.0000000000E+20
 20
1.0000000000E+20
 30
1.0000000000E+20
  9
$PEXTMAX
 10
-1.0000000000E+20
 20
-1.0000000000E+20
 30
-1.0000000000E+20
  9
$PLIMMIN
 10
0.0
 20
0.0
  9
$PLIMMAX
 10
420.0
 20
297.0
  9
$UNITMODE
 70
     0
  9
$VISRETAIN
 70
     1
  9
$PLINEGEN
 70
     0
  9
$PSLTSCALE
 70
     1
  9
$TREEDEPTH
 70
  3020
  9
$CMLSTYLE
  2
Standard
  9
$CMLJUST
 70
     0
  9
$CMLSCALE
 40
20.0
  9
$PROXYGRAPHICS
 70
     1
  9
$MEASUREMENT
 70
     1
  9
$CELWEIGHT
370
    -1
  9
$ENDCAPS
280
     0
  9
$JOINSTYLE
280
     0
  9
$LWDISPLAY
290
     1
  9
$INSUNITS
 70
     4
  9
$HYPERLINKBASE
  1

  9
$STYLESHEET
  1

  9
$XEDIT
290
     1
  9
$CEPSNTYPE
380
     0
  9
$PSTYLEMODE
290
     1
  9
$FINGERPRINTGUID
  2
{a3698dac-76eb-4ccf-bf6c-acccb50d665b}
  9
$VERSIONGUID
  2
{FAEB1C32-E019-11D5-929B-00C0DF256EC4}
  9
$EXTNAMES
290
     1
  9
$PSVPSCALE
 40
0.0
  9
$OLESTARTUP
290
     0
  0
ENDSEC
  0
SECTION
  2
CLASSES
  0
CLASS
  1
ACDBDICTIONARYWDFLT
  2
AcDbDictionaryWithDefault
  3
ObjectDBX Classes
 90
        0
280
     0
281
     0
  0
CLASS
  1
VISUALSTYLE
  2
AcDbVisualStyle
  3
ObjectDBX Classes
 90
     4095
280
     0
281
     0
  0
CLASS
  1
MATERIAL
  2
AcDbMaterial
  3
ObjectDBX Classes
 90
     1153
280
     0
281
     0
  0
CLASS
  1
SCALE
  2
AcDbScale
  3
ObjectDBX Classes
 90
     1153
280
     0
281
     0
  0
CLASS
  1
TABLESTYLE
  2
AcDbTableStyle
  3
ObjectDBX Classes
 90
     4095
280
     0
281
     0
  0
CLASS
  1
MLEADERSTYLE
  2
AcDbMLeaderStyle
  3
ACDB_MLEADERSTYLE_CLASS
 90
     4095
280
     0
281
     0
  0
CLASS
  1
SUN
  2
AcDbSun
  3
SCENEOE
 90
     1153
280
     0
281
     0
  0
CLASS
  1
ACDBPLACEHOLDER
  2
AcDbPlaceHolder
  3
ObjectDBX Classes
 90
        0
280
     0
281
     0
  0
CLASS
  1
LAYOUT
  2
AcDbLayout
  3
ObjectDBX Classes
 90
        0
280
     0
281
     0
  0
ENDSEC
  0
SECTION
  2
TABLES
  0
TABLE
  2
VPORT
  5
8
330
0
100
AcDbSymbolTable
 70
     1
  0
VPORT
  5
29
330
8
100
AcDbSymbolTableRecord
100
AcDbViewportTableRecord
  2
*Active
 70
     0
 10
0.0
 20
0.0
 11
1.0
 21
1.0
 12
297.0
 22
420.5
 13
0.0
 23
0.0
 14
10.0
 24
10.0
 15
10.0
 25
10.0
 16
0.0
 26
0.0
 36
1.0
 17
0.0
 27
0.0
 37
0.0
 40
841.0
 41
0.7063020214
 42
50.0
 43
0.0
 44
0.0
 50
0.0
 51
0.0
 71
     0
 72
  2000
 73
     1
 74
     3
 75
     0
 76
     0
 77
     0
 78
     0
281
     0
 65
     1
110
0.0
120
0.0
130
0.0
111
1.0
121
0.0
131
0.0
112
0.0
122
1.0
132
0.0
 79
     0
146
0.0
  0
ENDTAB
  0
TABLE
  2
LTYPE
  5
5
330
0
100
AcDbSymbolTable
 70
     6
  0
LTYPE
  5
14
330
5
100
AcDbSymbolTableRecord
100
AcDbLinetypeTableRecord
  2
ByBlock
 70
     0
  3

 72
    65
 73
     0
 40
0.0
  0
LTYPE
  5
15
330
5
100
AcDbSymbolTableRecord
100
AcDbLinetypeTableRecord
  2
ByLayer
 70
     0
  3

 72
    65
 73
     0
 40
0.0
  0
LTYPE
  5
16
330
5
100
AcDbSymbolTableRecord
100
AcDbLinetypeTableRecord
  2
Continuous
 70
     0
  3
Solid line
 72
    65
 73
     0
 40
0.0
  0
LTYPE
  5
5E
330
5
100
AcDbSymbolTableRecord
100
AcDbLinetypeTableRecord
  2
HIDDEN
 70
     0
  3
Hidden __ __ __ __ __ __ __ __ __ __ __ __ __ __
 72
    65
 73
     2
 40
1.905
 49
1.27
 74
     0
 49
-0.635
 74
     0
  0
LTYPE
  5
5F
330
5
100
AcDbSymbolTableRecord
100
AcDbLinetypeTableRecord
  2
PHANTOM
 70
     0
  3
Phantom ______  __  __  ______  __  __  ______
 72
    65
 73
     6
 40
12.7
 49
6.35
 74
     0
 49
-1.27
 74
     0
 49
1.27
 74
     0
 49
-1.27
 74
     0
 49
1.27
 74
     0
 49
-1.27
 74
     0
  0
LTYPE
  5
60
330
5
100
AcDbSymbolTableRecord
100
AcDbLinetypeTableRecord
  2
CENTER
 70
     0
  3
Center ____ _ ____ _ ____ _ ____ _ ____ _ ____
 72
    65
 73
     4
 40
10.16
 49
6.35
 74
     0
 49
-1.27
 74
     0
 49
1.27
 74
     0
 49
-1.27
 74
     0
  0
LTYPE
  5
61
330
5
100
AcDbSymbolTableRecord
100
AcDbLinetypeTableRecord
  2
CENTERX2
 70
     0
  3
Center (2x) ________  __  ________  __  _____
 72
    65
 73
     4
 40
20.32
 49
12.7
 74
     0
 49
-2.54
 74
     0
 49
2.54
 74
     0
 49
-2.54
 74
     0
  0
LTYPE
  5
62
330
5
100
AcDbSymbolTableRecord
100
AcDbLinetypeTableRecord
  2
DOT2
 70
     0
  3
Dot (.5x) ........................................
 72
    65
 73
     2
 40
0.635
 49
0.0
 74
     0
 49
-0.635
 74
     0
  0
ENDTAB
  0
TABLE
  2
LAYER
  5
2
330
0
100
AcDbSymbolTable
 70
     1
  0
LAYER
  5
10
330
2
100
AcDbSymbolTableRecord
100
AcDbLayerTableRecord
  2
0
 70
     0
 62
     7
  6
Continuous
370
    -3
390
F
  0
ENDTAB
  0
TABLE
  2
STYLE
  5
3
330
0
100
AcDbSymbolTable
 70
     3
  0
STYLE
  5
11
330
3
100
AcDbSymbolTableRecord
100
AcDbTextStyleTableRecord
  2
Standard
 70
     0
 40
0.0
 41
1.0
 50
0.0
 71
     0
 42
10.0
  3
txt
  4

  0
STYLE
  5
66
330
3
100
AcDbSymbolTableRecord
100
AcDbTextStyleTableRecord
  2
SLDTEXTSTYLE0
 70
     0
 40
0.0
 41
0.96
 50
0.0
 71
     0
 42
10.0
  3
ISOCP3
  4

  0
STYLE
  5
7D
330
3
100
AcDbSymbolTableRecord
100
AcDbTextStyleTableRecord
  2
SLDTEXTSTYLE1
 70
     0
 40
0.0
 41
0.605
 50
0.0
 71
     0
 42
10.0
  3
TXT
  4

  0
ENDTAB
  0
TABLE
  2
VIEW
  5
6
330
0
100
AcDbSymbolTable
 70
     0
  0
ENDTAB
  0
TABLE
  2
UCS
  5
7
330
0
100
AcDbSymbolTable
 70
     0
  0
ENDTAB
  0
TABLE
  2
APPID
  5
9
330
0
100
AcDbSymbolTable
 70
     1
  0
APPID
  5
12
330
9
100
AcDbSymbolTableRecord
100
AcDbRegAppTableRecord
  2
ACAD
 70
     0
  0
ENDTAB
  0
TABLE
  2
DIMSTYLE
  5
A
330
0
100
AcDbSymbolTable
 70
     2
100
AcDbDimStyleTable
  0
DIMSTYLE
105
27
330
A
100
AcDbSymbolTableRecord
100
AcDbDimStyleTableRecord
  2
ISO-25
 70
     0
 41
2.5
 42
0.625
 43
3.75
 44
1.25
 73
     0
 74
     0
 77
     1
 78
     8
140
2.5
141
2.5
143
0.0393700787
147
0.625
171
     3
172
     1
178
     0
271
     2
272
     2
274
     3
278
    44
283
     0
284
     8
340
11
  0
DIMSTYLE
105
67
102
{ACAD_REACTORS
330
65
330
72
102
}
330
A
100
AcDbSymbolTableRecord
100
AcDbDimStyleTableRecord
  2
SLDDIMSTYLE0
 70
     0
 41
2.5
 44
0.0
 45
0.000000001
 73
     0
 74
     0
 77
     1
 78
    12
 79
     3
140
6.0
147
1.5
173
     1
178
     0
271
     2
272
     2
276
     2
284
    12
340
66
  0
ENDTAB
  0
TABLE
  2
BLOCK_RECORD
  5
1
330
0
100
AcDbSymbolTable
 70
     3
  0
BLOCK_RECORD
  5
1F
330
1
100
AcDbSymbolTableRecord
100
AcDbBlockTableRecord
  2
*Model_Space
340
22
  0
BLOCK_RECORD
  5
1B
330
1
100
AcDbSymbolTableRecord
100
AcDbBlockTableRecord
  2
*Paper_Space
340
1E
  0
BLOCK_RECORD
  5
23
330
1
100
AcDbSymbolTableRecord
100
AcDbBlockTableRecord
  2
*Paper_Space0
340
26
  0
BLOCK_RECORD
  5
68
330
1
100
AcDbSymbolTableRecord
100
AcDbBlockTableRecord
  2
_D
340
0
  0
BLOCK_RECORD
  5
73
330
1
100
AcDbSymbolTableRecord
100
AcDbBlockTableRecord
  2
_D_1
340
0
  0
ENDTAB
  0
ENDSEC
  0
SECTION
  2
BLOCKS
  0
BLOCK
  5
20
330
1F
100
AcDbEntity
  8
0
100
AcDbBlockBegin
  2
*Model_Space
 70
     0
 10
0.0
 20
0.0
 30
0.0
  3
*Model_Space
  1

  0
ENDBLK
  5
21
330
1F
100
AcDbEntity
  8
0
100
AcDbBlockEnd
  0
BLOCK
  5
1C
330
1B
100
AcDbEntity
 67
     1
  8
0
100
AcDbBlockBegin
  2
*Paper_Space
 70
     0
 10
0.0
 20
0.0
 30
0.0
  3
*Paper_Space
  1

  0
ENDBLK
  5
1D
330
1B
100
AcDbEntity
 67
     1
  8
0
100
AcDbBlockEnd
  0
BLOCK
  5
24
330
23
100
AcDbEntity
  8
0
100
AcDbBlockBegin
  2
*Paper_Space0
 70
     0
 10
0.0
 20
0.0
 30
0.0
  3
*Paper_Space0
  1

  0
ENDBLK
  5
25
330
23
100
AcDbEntity
  8
0
100
AcDbBlockEnd
  0
BLOCK
  5
69
330
68
100
AcDbEntity
  8
0
100
AcDbBlockBegin
  2
_D
 70
     0
 10
0.0
 20
0.0
 30
0.0
  3
_D
  1

  0
SOLID
  5
6B
330
68
100
AcDbEntity
  8
0
  6
Continuous
 62
     7
370
    18
100
AcDbTrace
 10
42.7614395004
 20
152.0299240879
 30
0.0
 11
42.4614395004
 21
149.5299240879
 31
0.0
 12
43.0614395004
 22
149.5299240879
 32
0.0
 13
43.0614395004
 23
149.5299240879
 33
0.0
  0
SOLID
  5
6C
330
68
100
AcDbEntity
  8
0
  6
Continuous
 62
     7
370
    18
100
AcDbTrace
 10
42.7614395004
 20
52.0299240879
 30
0.0
 11
43.0614395004
 21
54.5299240879
 31
0.0
 12
42.4614395004
 22
54.5299240879
 32
0.0
 13
42.4614395004
 23
54.5299240879
 33
0.0
  0
LINE
  5
6D
330
68
100
AcDbEntity
  8
0
  6
Continuous
 62
     7
370
     0
100
AcDbLine
 10
56.6850079902
 20
152.0299240879
 30
0.0
 11
41.7614395004
 21
152.0299240879
 31
0.0
  0
LINE
  5
6E
330
68
100
AcDbEntity
  8
0
  6
Continuous
 62
     7
370
     0
100
AcDbLine
 10
56.6850079902
 20
52.0299240879
 30
0.0
 11
41.7614395004
 21
52.0299240879
 31
0.0
  0
LINE
  5
6F
330
68
100
AcDbEntity
  8
0
  6
Continuous
 62
     7
370
     0
100
AcDbLine
 10
42.7614395004
 20
152.0299240879
 30
0.0
 11
42.7614395004
 21
52.0299240879
 31
0.0
  0
MTEXT
  5
70
330
68
100
AcDbEntity
  8
0
  6
Continuous
 62
     7
370
    18
100
AcDbMText
 10
35.0270332946
 20
94.3680541463
 30
0.0
 40
6.0
 41
0.0
 71
     1
 72
     1
  1
100
  7
SLDTEXTSTYLE0
 11
-7.044195017643634E-15
 21
1.0
 31
0.0
 73
     1
 44
1.0
  0
MTEXT
  5
71
330
68
100
AcDbEntity
  8
0
  6
Continuous
 62
     7
370
    18
100
AcDbMText
 10
35.0270332946
 20
105.7430548466
 30
0.0
 40
6.0
 41
0.0
 71
     1
 72
     1
  1
mm
  7
SLDTEXTSTYLE0
 11
-7.044195017643634E-15
 21
1.0
 31
0.0
 73
     1
 44
1.0
  0
ENDBLK
  5
6A
330
68
100
AcDbEntity
  8
0
100
AcDbBlockEnd
  0
BLOCK
  5
74
330
73
100
AcDbEntity
  8
0
100
AcDbBlockBegin
  2
_D_1
 70
     0
 10
0.0
 20
0.0
 30
0.0
  3
_D_1
  1

  0
SOLID
  5
76
330
73
100
AcDbEntity
  8
0
  6
Continuous
 62
     7
370
    18
100
AcDbTrace
 10
56.6850079902
 20
38.4602342313
 30
0.0
 11
59.1850079902
 21
38.1602342313
 31
0.0
 12
59.1850079902
 22
38.7602342313
 32
0.0
 13
59.1850079902
 23
38.7602342313
 33
0.0
  0
SOLID
  5
77
330
73
100
AcDbEntity
  8
0
  6
Continuous
 62
     7
370
    18
100
AcDbTrace
 10
156.6850079902
 20
38.4602342313
 30
0.0
 11
154.1850079902
 21
38.7602342313
 31
0.0
 12
154.1850079902
 22
38.1602342313
 32
0.0
 13
154.1850079902
 23
38.1602342313
 33
0.0
  0
LINE
  5
78
330
73
100
AcDbEntity
  8
0
  6
Continuous
 62
     7
370
     0
100
AcDbLine
 10
56.6850079902
 20
52.0299240879
 30
0.0
 11
56.6850079902
 21
37.4602342313
 31
0.0
  0
LINE
  5
79
330
73
100
AcDbEntity
  8
0
  6
Continuous
 62
     7
370
     0
100
AcDbLine
 10
156.6850079902
 20
52.0299240879
 30
0.0
 11
156.6850079902
 21
37.4602342313
 31
0.0
  0
LINE
  5
7A
330
73
100
AcDbEntity
  8
0
  6
Continuous
 62
     7
370
     0
100
AcDbLine
 10
56.6850079902
 20
38.4602342313
 30
0.0
 11
156.6850079902
 21
38.4602342313
 31
0.0
  0
MTEXT
  5
7B
330
73
100
AcDbEntity
  8
0
  6
Continuous
 62
     7
370
    18
100
AcDbMText
 10
93.9626484861
 20
46.1946404371
 30
0.0
 40
6.0
 41
0.0
 71
     1
 72
     1
  1
100
  7
SLDTEXTSTYLE0
 73
     1
 44
1.0
  0
MTEXT
  5
7C
330
73
100
AcDbEntity
  8
0
  6
Continuous
 62
     7
370
    18
100
AcDbMText
 10
105.3376491864
 20
46.1946404371
 30
0.0
 40
6.0
 41
0.0
 71
     1
 72
     1
  1
mm
  7
SLDTEXTSTYLE0
 73
     1
 44
1.0
  0
ENDBLK
  5
75
330
73
100
AcDbEntity
  8
0
100
AcDbBlockEnd
  0
ENDSEC
  0
SECTION
  2
ENTITIES
  0
LINE
  5
63
330
1F
100
AcDbEntity
  8
0
  6
Continuous
 62
     7
370
    18
100
AcDbLine
 10
56.6850079902
 20
152.0299240879
 30
0.0
 11
56.6850079902
 21
52.0299240879
 31
0.0
  0
LINE
  5
64
330
1F
100
AcDbEntity
  8
0
  6
Continuous
 62
     7
370
    18
100
AcDbLine
 10
56.6850079902
 20
52.0299240879
 30
0.0
 11
156.6850079902
 21
52.0299240879
 31
0.0
  0
DIMENSION
  5
65
330
1F
100
AcDbEntity
  8
0
  6
Continuous
 62
     7
370
    18
100
AcDbDimension
  2
_D
 10
42.7614395004
 20
52.0299240879
 30
0.0
 11
42.7614395004
 21
105.4472211621
 31
0.0
 70
   160
  1
<>mm
 71
     2
 42
-1.0
  3
SLDDIMSTYLE0
100
AcDbAlignedDimension
 13
56.6850079902
 23
152.0299240879
 33
0.0
 14
56.6850079902
 24
52.0299240879
 34
0.0
 50
90.0
100
AcDbRotatedDimension
  0
DIMENSION
  5
72
330
1F
100
AcDbEntity
  8
0
  6
Continuous
 62
     7
370
    18
100
AcDbDimension
  2
_D_1
 10
156.6850079902
 20
38.4602342313
 30
0.0
 11
105.0418155019
 21
38.4602342313
 31
0.0
 70
   160
  1
<>mm
 71
     2
 42
-1.0
  3
SLDDIMSTYLE0
100
AcDbAlignedDimension
 13
56.6850079902
 23
52.0299240879
 33
0.0
 14
156.6850079902
 24
52.0299240879
 34
0.0
100
AcDbRotatedDimension
  0
MTEXT
  5
7E
330
1F
100
AcDbEntity
  8
0
  6
Continuous
 62
     7
370
     0
100
AcDbMText
 10
412.8252631579
 20
48.4342449499
 30
0.0
 40
10.0
 41
0.0
 71
     1
 72
     1
  1
KLUDI GmbH & Co KG
  7
SLDTEXTSTYLE1
 73
     1
 44
1.0
  0
MTEXT
  5
7F
330
1F
100
AcDbEntity
  8
0
  6
Continuous
 62
     7
370
     0
100
AcDbMText
 10
210.0873490389
 20
48.4342449499
 30
0.0
 40
10.0
 41
0.0
 71
     1
 72
     1
  1
54 217 .. 75
  7
SLDTEXTSTYLE1
 73
     1
 44
1.0
  0
LINE
  5
80
330
1F
100
AcDbEntity
  8
0
  6
Continuous
 62
     7
370
    25
100
AcDbLine
 10
189.7785037054
 20
421.0478214085
 30
0.0
 11
189.7785037054
 21
429.940345135
 31
0.0
  0
LINE
  5
81
330
1F
100
AcDbEntity
  8
0
  6
Continuous
 62
     7
370
    25
100
AcDbLine
 10
171.7785037054
 20
429.940345135
 30
0.0
 11
171.7785037054
 21
421.0478214085
 31
0.0
  0
SPLINE
  5
82
330
1F
100
AcDbEntity
  8
0
  6
Continuous
 62
     7
370
    25
100
AcDbSpline
210
0.0
220
0.0
230
1.0
 70
     8
 71
     3
 72
    15
 73
    11
 74
     0
 42
0.00000001
 43
0.00000001
 40
0.0
 40
0.0
 40
0.0
 40
0.0
 40
0.1921590502986501
 40
0.4264055942489836
 40
0.5635796929613428
 40
0.675248138815063
 40
0.7259574072107752
 40
0.7762870299278034
 40
0.8850346708517098
 40
0.9999999999999999
 40
0.9999999999999999
 40
0.9999999999999999
 40
0.9999999999999999
 10
163.5859816514882
 20
448.1885943884931
 30
0.0
 10
163.5657735697264
 20
448.1137339028233
 30
0.0
 10
163.5209313460639
 20
447.9476166690621
 30
0.0
 10
163.5218805594426
 20
447.5230911482406
 30
0.0
 10
163.560117876901
 20
446.9510836888145
 30
0.0
 10
163.6007178807717
 20
446.4134710282094
 30
0.0
 10
163.6365379144398
 20
445.9333974099989
 30
0.0
 10
163.6741630066576
 20
445.4156146048604
 30
0.0
 10
163.7203584220774
 20
444.7186875712324
 30
0.0
 10
163.7603790313333
 20
444.1699758322224
 30
0.0
 10
163.7809454853674
 20
443.8879947487722
 30
0.0
  0
SPLINE
  5
83
330
1F
100
AcDbEntity
  8
0
  6
Continuous
 62
     7
370
    25
100
AcDbSpline
210
0.0
220
0.0
230
1.0
 70
     8
 71
     3
 72
    15
 73
    11
 74
     0
 42
0.00000001
 43
0.00000001
 40
0.0
 40
0.0
 40
0.0
 40
0.0
 40
0.0389908510549758
 40
0.2875103460407435
 40
0.4006826607638224
 40
0.4545000224953833
 40
0.5094193205092107
 40
0.6312087321073492
 40
0.780732411749395
 40
1.0
 40
1.0
 40
1.0
 40
1.0
 10
197.7816614873892
 20
443.9020875015199
 30
0.0
 10
197.7882142011489
 20
443.9932941413052
 30
0.0
 10
197.8365325360803
 20
444.6658327460386
 30
0.0
 10
197.8987403239958
 20
445.6616669197055
 30
0.0
 10
197.9796281737875
 20
446.6784087212436
 30
0.0
 10
198.0195874208146
 20
447.1530447459895
 30
0.0
 10
198.0554385461345
 20
447.572536093661
 30
0.0
 10
198.0858358672517
 20
447.9772924313934
 30
0.0
 10
198.1022829742921
 20
448.283061034566
 30
0.0
 10
198.056950716265
 20
448.3039543235722
 30
0.0
 10
198.0299980854602
 20
448.3163765837769
 30
0.0
  0
SPLINE
  5
84
330
1F
100
AcDbEntity
  8
0
  6
Continuous
 62
     7
370
    25
100
AcDbSpline
210
0.0
220
0.0
230
1.0
 70
     8
 71
     3
 72
    13
 73
     9
 74
     0
 42
0.00000001
 43
0.00000001
 40
0.0
 40
0.0
 40
0.0
 40
0.0
 40
0.1561627598226343
 40
0.3073316193716277
 40
0.4495204948354362
 40
0.5812763538310614
 40
0.8274369258231363
 40
1.0
 40
1.0
 40
1.0
 40
1.0
 10
163.8247706519733
 20
468.7455760528391
 30
0.0
 10
163.7420302745124
 20
468.7409534243567
 30
0.0
 10
163.5791954589561
 20
468.731855993581
 30
0.0
 10
163.3541674650617
 20
468.6472529482846
 30
0.0
 10
163.1645409300973
 20
468.524819292687
 30
0.0
 10
162.9728943665638
 20
468.3286082014994
 30
0.0
 10
162.8260324184535
 20
468.0657052852722
 30
0.0
 10
162.8112708291402
 20
467.8432673709453
 30
0.0
 10
162.8051873293069
 20
467.7515969561958
 30
0.0
  0
SPLINE
  5
85
330
1F
100
AcDbEntity
  8
0
  6
Continuous
 62
     7
370
    25
100
AcDbSpline
210
0.0
220
0.0
230
1.0
 70
     8
 71
     3
 72
    13
 73
     9
 74
     0
 42
0.00000001
 43
0.00000001
 40
0.0
 40
0.0
 40
0.0
 40
0.0
 40
0.1726951971121578
 40
0.4188197789303603
 40
0.5505486679530791
 40
0.6926981474102812
 40
0.8438404454844123
 40
1.0
 40
1.0
 40
1.0
 40
1.0
 10
198.7510851548681
 20
467.7512962446091
 30
0.0
 10
198.7450143165782
 20
467.8429741248395
 30
0.0
 10
198.7302913411102
 20
468.0653109944973
 30
0.0
 10
198.5836578594806
 20
468.3281223455927
 30
0.0
 10
198.3923155426439
 20
468.5242938555552
 30
0.0
 10
198.2029721059883
 20
468.6467858378817
 30
0.0
 10
197.9782280346296
 20
468.7315621935546
 30
0.0
 10
197.8155320841316
 20
468.7408668236695
 30
0.0
 10
197.7328559566135
 20
468.7455950961528
 30
0.0
  0
LINE
  5
86
330
1F
100
AcDbEntity
  8
0
  6
Continuous
 62
     7
370
    25
100
AcDbLine
 10
197.7494906431
 20
468.7476877686
 30
0.0
 11
180.7781112035
 21
468.7476877722
 31
0.0
  0
LINE
  5
87
330
1F
100
AcDbEntity
  8
0
  6
Continuous
 62
     7
370
    25
100
AcDbLine
 10
180.7781112034
 20
468.7476877722
 30
0.0
 11
163.8067317639
 21
468.7476877686
 31
0.0
  0
SPLINE
  5
88
330
1F
100
AcDbEntity
  8
0
  6
Continuous
 62
     7
370
    25
100
AcDbSpline
210
0.0
220
0.0
230
1.0
 70
     8
 71
     3
 72
    11
 73
     7
 74
     0
 42
0.00000001
 43
0.00000001
 40
0.0
 40
0.0
 40
0.0
 40
0.0
 40
0.235411469521689
 40
0.4847121331463276
 40
0.7421296700125611
 40
1.0
 40
1.0
 40
1.0
 40
1.0
 10
162.9676717312486
 20
343.9369885232398
 30
0.0
 10
162.8991567538709
 20
343.4736701229005
 30
0.0
 10
162.75808443949
 20
342.5196976991662
 30
0.0
 10
162.0524834775676
 20
341.1470067681468
 30
0.0
 10
160.9866756657305
 20
339.9682772299681
 30
0.0
 10
160.0735098998739
 20
339.5142756003027
 30
0.0
 10
159.6165258089957
 20
339.2870753155928
 30
0.0
  0
LINE
  5
89
330
1F
100
AcDbEntity
  8
0
  6
Continuous
 62
     7
370
    25
100
AcDbLine
 10
162.9676718198
 20
354.9369885232
 30
0.0
 11
162.9676718198
 21
343.9369885981
 31
0.0
  0
ARC
  5
8A
330
1F
100
AcDbEntity
  8
0
  6
Continuous
 62
     7
370
    25
100
AcDbCircle
 10
187.9953955973
 20
440.005330423
 30
0.0
 40
22.81689189189188
100
AcDbArc
 50
170.1339433432
 51
180.0
  0
ARC
  5
8B
330
1F
100
AcDbEntity
  8
0
  6
Continuous
 62
     7
370
    25
100
AcDbCircle
 10
173.5616118135
 20
440.005330423
 30
0.0
 40
22.8168918918919
100
AcDbArc
 50
0.0
 51
9.5980140515
  0
LWPOLYLINE
  5
8C
330
1F
100
AcDbEntity
  8
0
  6
Continuous
 62
     7
370
    25
100
AcDbPolyline
 90
       21
 70
   128
 43
0.0
 10
189.7785037054
 20
421.0478214085
 10
189.6676987708
 20
419.7248185966
 10
189.3380123521
 20
418.4343925047
 10
188.7975624231
 20
417.2083177059
 10
188.0596566548
 20
416.0767842309
 10
187.1424647361
 20
415.067654189
 10
186.068570976
 20
414.2057757112
 10
184.8644182031
 20
413.5123711059
 10
183.5596566548
 20
413.0045142957
 10
182.1864138908
 20
412.6947104009
 10
180.7785037054
 20
412.5905878215
 10
179.3705935201
 20
412.6947104009
 10
177.997350756
 20
413.0045142957
 10
176.6925892078
 20
413.5123711059
 10
175.4884364348
 20
414.2057757112
 10
174.4145426747
 20
415.067654189
 10
173.497350756
 20
416.0767842309
 10
172.7594449877
 20
417.2083177059
 10
172.2189950588
 20
418.4343925047
 10
171.8893086401
 20
419.7248185966
 10
171.7785037738
 20
421.0467787431
  0
LWPOLYLINE
  5
8D
330
1F
100
AcDbEntity
  8
0
  6
Continuous
 62
     7
370
    25
100
AcDbPolyline
 90
       22
 70
   128
 43
0.0
 10
189.7785037054
 20
429.940345135
 10
189.6676987708
 20
431.2633479469
 10
189.3380123521
 20
432.5537740388
 10
188.7975624231
 20
433.7798488376
 10
188.0596566548
 20
434.9113823127
 10
187.1424647361
 20
435.9205123545
 10
186.068570976
 20
436.7823908324
 10
184.8644182031
 20
437.4757954377
 10
183.5596566548
 20
437.9836522478
 10
182.1864138908
 20
438.2934561427
 10
180.7785037054
 20
438.3975787221
 10
179.3705935201
 20
438.2934561427
 10
177.997350756
 20
437.9836522478
 10
176.6925892078
 20
437.4757954377
 10
175.4884364348
 20
436.7823908324
 10
174.4145426747
 20
435.9205123545
 10
173.497350756
 20
434.9113823127
 10
172.7594449877
 20
433.7798488376
 10
172.2189950588
 20
432.5537740388
 10
171.8893086401
 20
431.2633479469
 10
171.7785037054
 20
429.940345135
 10
171.7785037054
 20
429.940345135
  0
LINE
  5
8E
330
1F
100
AcDbEntity
  8
0
  6
Continuous
 62
     7
370
    25
100
AcDbLine
 10
163.7785481249
 20
440.005330423
 30
0.0
 11
197.7785503113
 21
440.005330423
 31
0.0
  0
SPLINE
  5
8F
330
1F
100
AcDbEntity
  8
0
  6
Continuous
 62
     7
370
    25
100
AcDbSpline
210
0.0
220
0.0
230
1.0
 70
     8
 71
     3
 72
    14
 73
    10
 74
     0
 42
0.00000001
 43
0.00000001
 40
0.0
 40
0.0
 40
0.0
 40
0.0
 40
0.2499999999999988
 40
0.2499999999999988
 40
0.4999999999999976
 40
0.4999999999999976
 40
0.7499999999999963
 40
0.7499999999999963
 40
1.0
 40
1.0
 40
1.0
 40
1.0
 10
197.7785503111477
 20
440.005330422995
 30
0.0
 10
197.8964014413071
 20
440.0053304229957
 30
0.0
 10
198.0235480702185
 20
439.9838516842162
 30
0.0
 10
198.2697419708411
 20
439.8863857641462
 30
0.0
 10
198.388026019071
 20
439.8100682774783
 30
0.0
 10
198.5832881648856
 20
439.6148061319591
 30
0.0
 10
198.6596056517146
 20
439.4965220838627
 30
0.0
 10
198.7570715720936
 20
439.2503281834511
 30
0.0
 10
198.7785503110203
 20
439.1231815546174
 30
0.0
 10
198.7785503111476
 20
439.0053304245084
 30
0.0
  0
SPLINE
  5
90
330
1F
100
AcDbEntity
  8
0
  6
Continuous
 62
     7
370
    25
100
AcDbSpline
210
0.0
220
0.0
230
1.0
 70
     8
 71
     3
 72
    14
 73
    10
 74
     0
 42
0.00000001
 43
0.00000001
 40
0.0
 40
0.0
 40
0.0
 40
0.0
 40
0.25
 40
0.25
 40
0.5
 40
0.5
 40
0.75
 40
0.75
 40
1.0
 40
1.0
 40
1.0
 40
1.0
 10
162.778548124868
 20
439.0053304214817
 30
0.0
 10
162.7785481246916
 20
439.1231815517701
 30
0.0
 10
162.8000268633478
 20
439.2503281808984
 30
0.0
 10
162.8974927834031
 20
439.4965220820246
 30
0.0
 10
162.9738102701846
 20
439.6148061305346
 30
0.0
 10
163.1690724161213
 20
439.8100682767669
 30
0.0
 10
163.2873564645148
 20
439.8863857637263
 30
0.0
 10
163.5335503654896
 20
439.9838516841504
 30
0.0
 10
163.6606969945826
 20
440.0053304229962
 30
0.0
 10
163.7785481248679
 20
440.0053304229951
 30
0.0
  0
LINE
  5
91
330
1F
100
AcDbEntity
  8
0
  6
Continuous
 62
     7
370
    25
100
AcDbLine
 10
198.7785503114
 20
439.0053304245
 30
0.0
 11
198.7785503265
 21
429.0053288977
 31
0.0
  0
LINE
  5
92
330
1F
100
AcDbEntity
  8
0
  6
Continuous
 62
     7
370
    25
100
AcDbLine
 10
198.7785534087
 20
429.0053287968
 30
0.0
 11
198.7785502898
 21
429.0008639862
 31
0.0
  0
LINE
  5
93
330
1F
100
AcDbEntity
  8
0
  6
Continuous
 62
     7
370
    25
100
AcDbLine
 10
162.7785481402
 20
429.0053288977
 30
0.0
 11
162.7785481251
 21
439.0053304215
 31
0.0
  0
SPLINE
  5
94
330
1F
100
AcDbEntity
  8
0
  6
Continuous
 62
     7
370
    25
100
AcDbSpline
210
0.0
220
0.0
230
1.0
 70
     8
 71
     3
 72
    26
 73
    22
 74
     0
 42
0.00000001
 43
0.00000001
 40
0.0
 40
0.0
 40
0.0
 40
0.0
 40
0.2500000000000028
 40
0.2500000000000028
 40
0.3750000000000038
 40
0.3750000000000038
 40
0.4375000000000036
 40
0.4375000000000036
 40
0.5000000000000033
 40
0.5000000000000033
 40
0.562500000000003
 40
0.562500000000003
 40
0.6250000000000028
 40
0.6250000000000028
 40
0.6875000000000024
 40
0.6875000000000024
 40
0.7500000000000021
 40
0.7500000000000021
 40
0.8750000000000011
 40
0.8750000000000011
 40
1.0
 40
1.0
 40
1.0
 40
1.0
 10
170.0801958312911
 20
424.0056549938088
 30
0.0
 10
169.1721022109505
 20
424.0062574419258
 30
0.0
 10
168.2638532026336
 20
424.002794303255
 30
0.0
 10
166.9039042194489
 20
424.0603475353455
 30
0.0
 10
166.4505366982815
 20
424.0915622384378
 30
0.0
 10
165.7738685829812
 20
424.1847785706364
 30
0.0
 10
165.5499917927462
 20
424.2235252892066
 30
0.0
 10
165.1081432321177
 20
424.3282539296112
 30
0.0
 10
164.8893606483737
 20
424.3942407159875
 30
0.0
 10
164.4714949000588
 20
424.5641137595626
 30
0.0
 10
164.2695872717192
 20
424.6700393047618
 30
0.0
 10
163.9017388493305
 20
424.932689119159
 30
0.0
 10
163.7390290707833
 20
425.0860421961416
 30
0.0
 10
163.4586010830841
 20
425.4387820796297
 30
0.0
 10
163.3455002652025
 20
425.6319747677434
 30
0.0
 10
163.1616656314476
 20
426.0326138761944
 30
0.0
 10
163.0899395169241
 20
426.243569914371
 30
0.0
 10
162.9205473369284
 20
426.8741721870555
 30
0.0
 10
162.8625800329735
 20
427.2988252516396
 30
0.0
 10
162.7904840560802
 20
428.1502493346165
 30
0.0
 10
162.778810541464
 20
428.5768856988927
 30
0.0
 10
162.7785534087266
 20
429.0053287967967
 30
0.0
  0
LINE
  5
95
330
1F
100
AcDbEntity
  8
0
  6
Continuous
 62
     7
370
    25
100
AcDbLine
 10
170.5730432387
 20
424.0055715087
 30
0.0
 11
171.7785037054
 21
424.0055715087
 31
0.0
  0
LINE
  5
96
330
1F
100
AcDbEntity
  8
0
  6
Continuous
 62
     7
370
    25
100
AcDbLine
 10
170.573035293
 20
424.0055715087
 30
0.0
 11
170.0801921812
 21
424.0055715087
 31
0.0
  0
SPLINE
  5
97
330
1F
100
AcDbEntity
  8
0
  6
Continuous
 62
     7
370
    25
100
AcDbSpline
210
0.0
220
0.0
230
1.0
 70
     8
 71
     3
 72
    26
 73
    22
 74
     0
 42
0.00000001
 43
0.00000001
 40
0.0
 40
0.0
 40
0.0
 40
0.0
 40
0.1250000000000031
 40
0.1250000000000031
 40
0.2500000000000064
 40
0.2500000000000064
 40
0.3125000000000061
 40
0.3125000000000061
 40
0.3750000000000057
 40
0.3750000000000057
 40
0.4375000000000053
 40
0.4375000000000053
 40
0.5000000000000049
 40
0.5000000000000049
 40
0.5625000000000046
 40
0.5625000000000046
 40
0.6250000000000041
 40
0.6250000000000041
 40
0.7500000000000033
 40
0.7500000000000033
 40
1.0
 40
1.0
 40
1.0
 40
1.0
 10
198.7785502898486
 20
429.0008639861937
 30
0.0
 10
198.7782124914495
 20
428.5742474176262
 30
0.0
 10
198.7664254973902
 20
428.1461490358168
 30
0.0
 10
198.6940562160685
 20
427.2951189397216
 30
0.0
 10
198.6359136061225
 20
426.8706518996953
 30
0.0
 10
198.4661478081202
 20
426.24037188925
 30
0.0
 10
198.3942707798392
 20
426.0295553843344
 30
0.0
 10
198.2101262901107
 20
425.6292583118548
 30
0.0
 10
198.096800573545
 20
425.4362011362199
 30
0.0
 10
197.8160943100019
 20
425.084012622394
 30
0.0
 10
197.653286486511
 20
424.9309028980815
 30
0.0
 10
197.2852504119766
 20
424.6687337584528
 30
0.0
 10
197.0833932623584
 20
424.5630436638456
 30
0.0
 10
196.6655763478789
 20
424.3935358023891
 30
0.0
 10
196.4468578743602
 20
424.3276677011471
 30
0.0
 10
196.0051704288408
 20
424.2231506497691
 30
0.0
 10
195.7813798676224
 20
424.1844848152492
 30
0.0
 10
195.1049893674487
 20
424.0914284898456
 30
0.0
 10
194.6518329800362
 20
424.0602680116956
 30
0.0
 10
193.2924873978755
 20
424.0028072144065
 30
0.0
 10
192.384643839205
 20
424.0062584097438
 30
0.0
 10
191.4769551979076
 20
424.0056554621185
 30
0.0
  0
SPLINE
  5
98
330
1F
100
AcDbEntity
  8
0
  6
Continuous
 62
     7
370
    25
100
AcDbSpline
210
0.0
220
0.0
230
1.0
 70
     8
 71
     3
 72
     8
 73
     4
 74
     0
 42
0.00000001
 43
0.00000001
 40
0.0
 40
0.0
 40
0.0
 40
0.0
 40
1.0
 40
1.0
 40
1.0
 40
1.0
 10
191.4769492891002
 20
424.0059356248759
 30
0.0
 10
191.4769513203757
 20
424.0057488571588
 30
0.0
 10
191.4769532901621
 20
424.0056554608512
 30
0.0
 10
191.4769551979076
 20
424.0056554621185
 30
0.0
  0
LINE
  5
99
330
1F
100
AcDbEntity
  8
0
  6
Continuous
 62
     7
370
    25
100
AcDbLine
 10
191.4769439497
 20
424.0055715087
 30
0.0
 11
190.9758563586
 21
424.0055715087
 31
0.0
  0
LINE
  5
9A
330
1F
100
AcDbEntity
  8
0
  6
Continuous
 62
     7
370
    25
100
AcDbLine
 10
190.9758563586
 20
424.0055715087
 30
0.0
 11
189.7785037054
 21
424.0055715087
 31
0.0
  0
SPLINE
  5
9B
330
1F
100
AcDbEntity
  8
0
  6
Continuous
 62
     7
370
    25
100
AcDbSpline
210
0.0
220
0.0
230
1.0
 70
     8
 71
     3
 72
     9
 73
     5
 74
     0
 42
0.00000001
 43
0.00000001
 40
0.0
 40
0.0
 40
0.0
 40
0.0
 40
0.2230217699769198
 40
1.0
 40
1.0
 40
1.0
 40
1.0
 10
163.5700145964929
 20
448.1861049212617
 30
0.0
 10
163.5618206126485
 20
448.2916391711275
 30
0.0
 10
163.5250798772246
 20
448.7648407329155
 30
0.0
 10
163.3686773097902
 20
449.222001072666
 30
0.0
 10
163.2471559197739
 20
449.5772047042821
 30
0.0
  0
LINE
  5
9C
330
1F
100
AcDbEntity
  8
0
  6
Continuous
 62
     7
370
    25
100
AcDbLine
 10
162.7781402181
 20
450.5574125504
 30
0.0
 11
162.7781402181
 21
465.7109793325
 31
0.0
  0
SPLINE
  5
9D
330
1F
100
AcDbEntity
  8
0
  6
Continuous
 62
     7
370
    25
100
AcDbSpline
210
0.0
220
0.0
230
1.0
 70
     8
 71
     3
 72
    14
 73
    10
 74
     0
 42
0.00000001
 43
0.00000001
 40
0.0
 40
0.0
 40
0.0
 40
0.0
 40
0.25
 40
0.25
 40
0.5
 40
0.5
 40
0.75
 40
0.75
 40
1.0
 40
1.0
 40
1.0
 40
1.0
 10
162.7781402345195
 20
465.7109793256182
 30
0.0
 10
162.7781161738438
 20
465.735132940892
 30
0.0
 10
162.8048704301127
 20
465.7592787146937
 30
0.0
 10
162.907902011213
 20
465.8042546380162
 30
0.0
 10
162.9841387771766
 20
465.8250688599633
 30
0.0
 10
163.1745605382322
 20
465.8605521595123
 30
0.0
 10
163.2886705729001
 20
465.8752090463567
 30
0.0
 10
163.5374853222545
 20
465.8964839306612
 30
0.0
 10
163.6720920898417
 20
465.9030953305738
 30
0.0
 10
163.806751356607
 20
465.9053524893708
 30
0.0
  0
LINE
  5
9E
330
1F
100
AcDbEntity
  8
0
  6
Continuous
 62
     7
370
    25
100
AcDbLine
 10
163.8067513565
 20
465.9053524894
 30
0.0
 11
197.7493782199
 21
465.9055180294
 31
0.0
  0
SPLINE
  5
9F
330
1F
100
AcDbEntity
  8
0
  6
Continuous
 62
     7
370
    25
100
AcDbSpline
210
0.0
220
0.0
230
1.0
 70
     8
 71
     3
 72
    14
 73
    10
 74
     0
 42
0.00000001
 43
0.00000001
 40
0.0
 40
0.0
 40
0.0
 40
0.0
 40
0.25
 40
0.25
 40
0.5
 40
0.5
 40
0.75
 40
0.75
 40
1.0
 40
1.0
 40
1.0
 40
1.0
 10
197.7493782179704
 20
465.9055180282027
 30
0.0
 10
197.8840428816132
 20
465.9032244761003
 30
0.0
 10
198.018657452516
 20
465.8965763287578
 30
0.0
 10
198.2674898546791
 20
465.8752270481994
 30
0.0
 10
198.3816097162423
 20
465.8605325126629
 30
0.0
 10
198.5720503024002
 20
465.8249730523867
 30
0.0
 10
198.6482960471837
 20
465.8041203201244
 30
0.0
 10
198.7513424640684
 20
465.7590667567059
 30
0.0
 10
198.7781025649813
 20
465.7348818560226
 30
0.0
 10
198.7780821770591
 20
465.7106889934122
 30
0.0
  0
SPLINE
  5
A0
330
1F
100
AcDbEntity
  8
0
  6
Continuous
 62
     7
370
    25
100
AcDbSpline
210
0.0
220
0.0
230
1.0
 70
    24
 71
     3
 72
    17
 73
    13
 74
     0
 42
0.00000001
 43
0.00000001
 40
0.0
 40
0.0
 40
0.0
 40
0.0
 40
0.0125608246447146
 40
0.0445525619353226
 40
0.0959752278017524
 40
0.1668288250680363
 40
0.2571133547348524
 40
0.3668288172712101
 40
0.4959752129344208
 40
0.6445525418808434
 40
0.8125608042125856
 40
1.0
 40
1.0
 40
1.0
 40
1.0
 10
198.7780821888138
 20
465.7106889887415
 30
0.0
 10
198.7780821888138
 20
465.6463906272643
 30
0.0
 10
198.7780821888138
 20
465.418327835761
 30
0.0
 10
198.7780821888138
 20
464.9334257242211
 30
0.0
 10
198.7780821888138
 20
464.1524249486675
 30
0.0
 10
198.7780821888138
 20
463.0784681543799
 30
0.0
 10
198.7780821888139
 20
461.7101561950357
 30
0.0
 10
198.7780821888139
 20
460.0480876222623
 30
0.0
 10
198.7780821888139
 20
458.0920524413439
 30
0.0
 10
198.778082188814
 20
455.8421341220119
 30
0.0
 10
198.778082188814
 20
453.2982923470246
 30
0.0
 10
198.778082188814
 20
451.5045619842222
 30
0.0
 10
198.7780821888141
 20
450.5586686630484
 30
0.0
  0
LINE
  5
A1
330
1F
100
AcDbEntity
  8
0
  6
Continuous
 62
     7
370
    25
100
AcDbLine
 10
197.7653440827
 20
443.8422006197
 30
0.0
 11
197.7785950517
 21
443.9023134228
 31
0.0
  0
SPLINE
  5
A2
330
1F
100
AcDbEntity
  8
0
  6
Continuous
 62
     7
370
    25
100
AcDbSpline
210
0.0
220
0.0
230
1.0
 70
     8
 71
     3
 72
    12
 73
     8
 74
     0
 42
0.00000001
 43
0.00000001
 40
0.0
 40
0.0
 40
0.0
 40
0.0
 40
0.2500000000000008
 40
0.2500000000000008
 40
0.5000000000000017
 40
0.5000000000000017
 40
1.0
 40
1.0
 40
1.0
 40
1.0
 10
197.4033091563069
 20
443.8182968556251
 30
0.0
 10
197.4561213127527
 20
443.8202833491165
 30
0.0
 10
197.4995021618248
 20
443.8222721280431
 30
0.0
 10
197.5790728335613
 20
443.8262514284567
 30
0.0
 10
197.6145351473302
 20
443.8282421262369
 30
0.0
 10
197.7057877119939
 20
443.8342178870051
 30
0.0
 10
197.7445516570191
 20
443.8382070758809
 30
0.0
 10
197.7653440528715
 20
443.8422006197001
 30
0.0
  0
SPLINE
  5
A3
330
1F
100
AcDbEntity
  8
0
  6
Continuous
 62
     7
370
    25
100
AcDbSpline
210
0.0
220
0.0
230
1.0
 70
     8
 71
     3
 72
    14
 73
    10
 74
     0
 42
0.00000001
 43
0.00000001
 40
0.0
 40
0.0
 40
0.0
 40
0.0
 40
0.25
 40
0.25
 40
0.5
 40
0.5
 40
0.75
 40
0.75
 40
1.0
 40
1.0
 40
1.0
 40
1.0
 10
195.7452089947499
 20
443.7912736468322
 30
0.0
 10
195.9693630749424
 20
443.7934411736766
 30
0.0
 10
196.1607169610831
 20
443.7956409010712
 30
0.0
 10
196.5141810760113
 20
443.8000690648933
 30
0.0
 10
196.6720939165734
 20
443.8023016219736
 30
0.0
 10
196.9486275289179
 20
443.8068053098766
 30
0.0
 10
197.067421920135
 20
443.8090762702539
 30
0.0
 10
197.2642897999024
 20
443.813658167463
 30
0.0
 10
197.3414483294854
 20
443.8159700025268
 30
0.0
 10
197.4033091563069
 20
443.8182968556251
 30
0.0
  0
SPLINE
  5
A4
330
1F
100
AcDbEntity
  8
0
  6
Continuous
 62
     7
370
    25
100
AcDbSpline
210
0.0
220
0.0
230
1.0
 70
     8
 71
     3
 72
    22
 73
    18
 74
     0
 42
0.00000001
 43
0.00000001
 40
0.0
 40
0.0
 40
0.0
 40
0.0
 40
0.125
 40
0.125
 40
0.25
 40
0.25
 40
0.375
 40
0.375
 40
0.5
 40
0.5
 40
0.625
 40
0.625
 40
0.75
 40
0.75
 40
0.875
 40
0.875
 40
1.0
 40
1.0
 40
1.0
 40
1.0
 10
188.5546658583339
 20
443.7689367568525
 30
0.0
 10
188.9522234599189
 20
443.7691570483032
 30
0.0
 10
189.3432400441376
 20
443.7694614773934
 30
0.0
 10
190.108870184632
 20
443.7702813290585
 30
0.0
 10
190.4837740489991
 20
443.7707930173767
 30
0.0
 10
191.2178360277505
 20
443.7720189328784
 30
0.0
 10
191.5794265986401
 20
443.7727393162912
 30
0.0
 10
192.2681049918174
 20
443.7743467677389
 30
0.0
 10
192.5966571389437
 20
443.7752346692081
 30
0.0
 10
193.2226178442784
 20
443.7771765281802
 30
0.0
 10
193.5200168997671
 20
443.7782305363511
 30
0.0
 10
194.0818338044962
 20
443.7805144068083
 30
0.0
 10
194.3431860804468
 20
443.7817330925798
 30
0.0
 10
194.8187090514824
 20
443.7842677950687
 30
0.0
 10
195.034516639333
 20
443.7855911464499
 30
0.0
 10
195.4215313376598
 20
443.7883516163843
 30
0.0
 10
195.5918750681297
 20
443.7897909372522
 30
0.0
 10
195.74520899475
 20
443.7912736468322
 30
0.0
  0
SPLINE
  5
A5
330
1F
100
AcDbEntity
  8
0
  6
Continuous
 62
     7
370
    25
100
AcDbSpline
210
0.0
220
0.0
230
1.0
 70
     8
 71
     3
 72
    14
 73
    10
 74
     0
 42
0.00000001
 43
0.00000001
 40
0.0
 40
0.0
 40
0.0
 40
0.0
 40
0.4999999999999999
 40
0.4999999999999999
 40
0.7499999999999998
 40
0.7499999999999998
 40
0.8749999999999999
 40
0.8749999999999999
 40
1.0
 40
1.0
 40
1.0
 40
1.0
 10
180.778509919222
 20
443.7669151534695
 30
0.0
 10
182.0800263628583
 20
443.7669141857422
 30
0.0
 10
183.3787608139854
 20
443.767084431511
 30
0.0
 10
185.3227981198323
 20
443.7675899356839
 30
0.0
 10
185.9701123166893
 20
443.7678014090966
 30
0.0
 10
186.9400747554422
 20
443.7681807077557
 30
0.0
 10
187.2632698098502
 20
443.7683148802581
 30
0.0
 10
187.9091810669858
 20
443.7686126954612
 30
0.0
 10
188.2321940810398
 20
443.7687580713604
 30
0.0
 10
188.5546658583339
 20
443.7689367568525
 30
0.0
  0
SPLINE
  5
A6
330
1F
100
AcDbEntity
  8
0
  6
Continuous
 62
     7
370
    25
100
AcDbSpline
210
0.0
220
0.0
230
1.0
 70
     8
 71
     3
 72
    14
 73
    10
 74
     0
 42
0.00000001
 43
0.00000001
 40
0.0
 40
0.0
 40
0.0
 40
0.0
 40
0.1249999999999987
 40
0.1249999999999987
 40
0.2499999999999973
 40
0.2499999999999973
 40
0.4999999999999973
 40
0.4999999999999973
 40
1.0
 40
1.0
 40
1.0
 40
1.0
 10
173.0021434369131
 20
443.7689349195729
 30
0.0
 10
173.3245934200265
 20
443.768754339206
 30
0.0
 10
173.6476605753106
 20
443.7686117773419
 30
0.0
 10
174.2936682240266
 20
443.7683188511004
 30
0.0
 10
174.6167673617062
 20
443.7681782593879
 30
0.0
 10
175.5868041036035
 20
443.7678020277431
 30
0.0
 10
176.2341261880753
 20
443.7675900722286
 30
0.0
 10
178.1782056336977
 20
443.7670843807118
 30
0.0
 10
179.4769999133898
 20
443.7669161211921
 30
0.0
 10
180.778509919222
 20
443.7669151534695
 30
0.0
  0
SPLINE
  5
A7
330
1F
100
AcDbEntity
  8
0
  6
Continuous
 62
     7
370
    25
100
AcDbSpline
210
0.0
220
0.0
230
1.0
 70
     8
 71
     3
 72
    22
 73
    18
 74
     0
 42
0.00000001
 43
0.00000001
 40
0.0
 40
0.0
 40
0.0
 40
0.0
 40
0.1250000000000005
 40
0.1250000000000005
 40
0.250000000000001
 40
0.250000000000001
 40
0.3750000000000015
 40
0.3750000000000015
 40
0.5000000000000012
 40
0.5000000000000012
 40
0.6250000000000009
 40
0.6250000000000009
 40
0.7500000000000007
 40
0.7500000000000007
 40
0.8750000000000003
 40
0.8750000000000003
 40
1.0
 40
1.0
 40
1.0
 40
1.0
 10
165.8128028637064
 20
443.7912744910893
 30
0.0
 10
165.9656670335239
 20
443.7897911366834
 30
0.0
 10
166.1336186256902
 20
443.7883457100139
 30
0.0
 10
166.5204734604464
 20
443.7855829422235
 30
0.0
 10
166.7375042388156
 20
443.7842608939811
 30
0.0
 10
167.214890481224
 20
443.7817257098885
 30
0.0
 10
167.4776209090882
 20
443.7805042921917
 30
0.0
 10
168.038521543443
 20
443.7782262964781
 30
0.0
 10
168.335383023619
 20
443.7771730386363
 30
0.0
 10
168.9607786764387
 20
443.7752319967294
 30
0.0
 10
169.2892441839846
 20
443.7743438539241
 30
0.0
 10
169.9785778047159
 20
443.7727368555169
 30
0.0
 10
170.3401473166469
 20
443.7720183850162
 30
0.0
 10
171.0736604584663
 20
443.7707937126489
 30
0.0
 10
171.44826882642
 20
443.7702811105607
 30
0.0
 10
172.2135745045788
 20
443.7694602692958
 30
0.0
 10
172.6047022065281
 20
443.7691574969863
 30
0.0
 10
173.0021434369132
 20
443.7689349195729
 30
0.0
  0
SPLINE
  5
A8
330
1F
100
AcDbEntity
  8
0
  6
Continuous
 62
     7
370
    25
100
AcDbSpline
210
0.0
220
0.0
230
1.0
 70
     8
 71
     3
 72
    14
 73
    10
 74
     0
 42
0.00000001
 43
0.00000001
 40
0.0
 40
0.0
 40
0.0
 40
0.0
 40
0.25
 40
0.25
 40
0.5
 40
0.5
 40
0.75
 40
0.75
 40
1.0
 40
1.0
 40
1.0
 40
1.0
 10
164.1509796140136
 20
443.81843767277
 30
0.0
 10
164.2125322745567
 20
443.8160987686236
 30
0.0
 10
164.2882648200703
 20
443.8137737444923
 30
0.0
 10
164.4846800153981
 20
443.8091676957484
 30
0.0
 10
164.6034583565548
 20
443.8068848070989
 30
0.0
 10
164.8812031160165
 20
443.8023583679971
 30
0.0
 10
165.0401993906972
 20
443.8001148467698
 30
0.0
 10
165.3952496998336
 20
443.7956640783938
 30
0.0
 10
165.588217420621
 20
443.7934538101993
 30
0.0
 10
165.8128028637064
 20
443.7912744910893
 30
0.0
  0
SPLINE
  5
A9
330
1F
100
AcDbEntity
  8
0
  6
Continuous
 62
     7
370
    25
100
AcDbSpline
210
0.0
220
0.0
230
1.0
 70
     8
 71
     3
 72
    12
 73
     8
 74
     0
 42
0.00000001
 43
0.00000001
 40
0.0
 40
0.0
 40
0.0
 40
0.0
 40
0.4999999999999982
 40
0.4999999999999982
 40
0.7499999999999991
 40
0.7499999999999991
 40
1.0
 40
1.0
 40
1.0
 40
1.0
 10
163.7934367102033
 20
443.8422006053623
 30
0.0
 10
163.814892460495
 20
443.8382309361911
 30
0.0
 10
163.8519712910102
 20
443.8342650280588
 30
0.0
 10
163.9429557180336
 20
443.8283246797757
 30
0.0
 10
163.9781229203321
 20
443.8263457286176
 30
0.0
 10
164.0561233279925
 20
443.8223896717848
 30
0.0
 10
164.0990062672133
 20
443.820412578083
 30
0.0
 10
164.1509796140136
 20
443.81843767277
 30
0.0
  0
LINE
  5
AA
330
1F
100
AcDbEntity
  8
0
  6
Continuous
 62
     7
370
    25
100
AcDbLine
 10
163.7831318378
 20
443.8881552456
 30
0.0
 11
163.7934367055
 21
443.8422006062
 31
0.0
  0
LINE
  5
AB
330
1F
100
AcDbEntity
  8
0
  6
Continuous
 62
     7
370
    25
100
AcDbLine
 10
198.7780821888
 20
467.7190962325
 30
0.0
 11
198.7780821888
 21
465.7009349863
 31
0.0
  0
LINE
  5
AC
330
1F
100
AcDbEntity
  8
0
  6
Continuous
 62
     7
370
    25
100
AcDbLine
 10
162.7781402181
 20
465.7009349863
 30
0.0
 11
162.7781402181
 21
467.7190962323
 31
0.0
  0
SPLINE
  5
AD
330
1F
100
AcDbEntity
  8
0
  6
Continuous
 62
     7
370
    25
100
AcDbSpline
210
0.0
220
0.0
230
1.0
 70
     8
 71
     3
 72
    10
 73
     6
 74
     0
 42
0.00000001
 43
0.00000001
 40
0.0
 40
0.0
 40
0.0
 40
0.0
 40
0.5
 40
0.5
 40
1.0
 40
1.0
 40
1.0
 40
1.0
 10
162.7781402162717
 20
467.7188027228161
 30
0.0
 10
162.7781402162956
 20
467.8511225008851
 30
0.0
 10
162.8054120041481
 20
467.9951390584961
 30
0.0
 10
162.9291169183618
 20
468.2689388091225
 30
0.0
 10
163.0259416028261
 20
468.3973685324971
 30
0.0
 10
163.1461375598757
 20
468.4967361713926
 30
0.0
  0
SPLINE
  5
AE
330
1F
100
AcDbEntity
  8
0
  6
Continuous
 62
     7
370
    25
100
AcDbSpline
210
0.0
220
0.0
230
1.0
 70
     8
 71
     3
 72
    11
 73
     7
 74
     0
 42
0.00000001
 43
0.00000001
 40
0.0
 40
0.0
 40
0.0
 40
0.0
 40
0.2940857438334071
 40
0.6070853256989234
 40
0.9330255842826284
 40
0.9999999999999999
 40
0.9999999999999999
 40
0.9999999999999999
 40
0.9999999999999999
 10
198.7780821906843
 20
467.7188027228161
 30
0.0
 10
198.7741202324309
 20
467.7876488025812
 30
0.0
 10
198.76594150644
 20
467.9297687306422
 30
0.0
 10
198.6927263328641
 20
468.136360566253
 30
0.0
 10
198.6153084473026
 20
468.2859605035047
 30
0.0
 10
198.5501313912427
 20
468.3514458917176
 30
0.0
 10
198.5390216121143
 20
468.3626082277168
 30
0.0
  0
SPLINE
  5
AF
330
1F
100
AcDbEntity
  8
0
  6
Continuous
 62
     7
370
    25
100
AcDbSpline
210
0.0
220
0.0
230
1.0
 70
     8
 71
     3
 72
    15
 73
    11
 74
     0
 42
0.00000001
 43
0.00000001
 40
0.0
 40
0.0
 40
0.0
 40
0.0
 40
0.0003023813320499
 40
0.0034585425532454
 40
0.0078082384810399
 40
0.0159308508364512
 40
0.0439852584115614
 40
0.1781055394325333
 40
0.7111535995425192
 40
0.9999999999999999
 40
0.9999999999999999
 40
0.9999999999999999
 40
0.9999999999999999
 10
170.2169840508715
 20
424.0055715087423
 30
0.0
 10
170.2169857972044
 20
424.0055715077671
 30
0.0
 10
170.2170057712096
 20
424.005571496613
 30
0.0
 10
170.2179304488832
 20
424.0055709798974
 30
0.0
 10
170.2224391044104
 20
424.0055684674022
 30
0.0
 10
170.2392712156961
 20
424.0055591635181
 30
0.0
 10
170.3242825878341
 20
424.0055136471296
 30
0.0
 10
170.6887910092295
 20
424.0053502681965
 30
0.0
 10
171.1931397088043
 20
424.0052945693525
 30
0.0
 10
171.6262807258609
 20
424.0053088706586
 30
0.0
 10
171.7785037054159
 20
424.0053138967063
 30
0.0
  0
SPLINE
  5
B0
330
1F
100
AcDbEntity
  8
0
  6
Continuous
 62
     7
370
    25
100
AcDbSpline
210
0.0
220
0.0
230
1.0
 70
     8
 71
     3
 72
    22
 73
    18
 74
     0
 42
0.00000001
 43
0.00000001
 40
0.0
 40
0.0
 40
0.0
 40
0.0
 40
0.0030653963859174
 40
0.3284330730408768
 40
0.5465860081957641
 40
0.693193043073321
 40
0.7919194243717963
 40
0.8585460876768263
 40
0.9036291876316684
 40
0.9342448218775539
 40
0.955143898249454
 40
0.969521173998942
 40
0.9824934577655373
 40
0.9904617336356847
 40
0.99495472944829
 40
0.9983468282956731
 40
0.9999999999999999
 40
0.9999999999999999
 40
0.9999999999999999
 40
0.9999999999999999
 10
189.7785037054159
 20
424.0053226918556
 30
0.0
 10
189.7801196304738
 20
424.0053226169074
 30
0.0
 10
189.9532532698961
 20
424.0053145868081
 30
0.0
 10
190.2414002306342
 20
424.0052966108521
 30
0.0
 10
190.6052292239082
 20
424.0053251068899
 30
0.0
 10
190.8493415174516
 20
424.0053740492198
 30
0.0
 10
191.0132884592048
 20
424.0054240818091
 30
0.0
 10
191.1234547158682
 20
424.0054663330696
 30
0.0
 10
191.1975021462443
 20
424.0054989330345
 30
0.0
 10
191.2472664831796
 20
424.0055228256348
 30
0.0
 10
191.2806988506457
 20
424.0055397993677
 30
0.0
 10
191.304576582745
 20
424.0055523719883
 30
0.0
 10
191.3213154888417
 20
424.0055614276932
 30
0.0
 10
191.3321629098925
 20
424.0055674082658
 30
0.0
 10
191.3373980991689
 20
424.0055703208931
 30
0.0
 10
191.3393220308476
 20
424.0055713956168
 30
0.0
 10
191.3394744814639
 20
424.0055714808229
 30
0.0
 10
191.3395244345919
 20
424.0055715087423
 30
0.0
  0
SPLINE
  5
B1
330
1F
100
AcDbEntity
  8
0
  6
Continuous
 62
     7
370
    25
100
AcDbSpline
210
0.0
220
0.0
230
1.0
 70
     8
 71
     3
 72
    38
 73
    34
 74
     0
 42
0.00000001
 43
0.00000001
 40
0.0
 40
0.0
 40
0.0
 40
0.0
 40
0.0625
 40
0.0625
 40
0.125
 40
0.125
 40
0.1875
 40
0.1875
 40
0.25
 40
0.25
 40
0.3125
 40
0.3125
 40
0.375
 40
0.375
 40
0.4375
 40
0.4375
 40
0.5
 40
0.5
 40
0.5625
 40
0.5625
 40
0.625
 40
0.625
 40
0.6875
 40
0.6875
 40
0.75
 40
0.75
 40
0.8125
 40
0.8125
 40
0.875
 40
0.875
 40
0.9375
 40
0.9375
 40
1.0
 40
1.0
 40
1.0
 40
1.0
 10
162.7785534087268
 20
429.0053287967896
 30
0.0
 10
162.7785534087268
 20
429.0053287967895
 30
0.0
 10
162.7785534085313
 20
429.0058352958601
 30
0.0
 10
162.7785533969546
 20
428.9969243827284
 30
0.0
 10
162.7785533855939
 20
428.9874208408405
 30
0.0
 10
162.7785533452555
 20
428.93677503365
 30
0.0
 10
162.7785533162982
 20
428.8955466386618
 30
0.0
 10
162.7785532380394
 20
428.7517145603368
 30
0.0
 10
162.7785531887585
 20
428.6490247473145
 30
0.0
 10
162.7785530702127
 20
428.3470954057586
 30
0.0
 10
162.7785530009684
 20
428.1477697475398
 30
0.0
 10
162.7785528453256
 20
427.6145403167648
 30
0.0
 10
162.7785527589477
 20
427.2805504145232
 30
0.0
 10
162.7785525737198
 20
426.4396940157765
 30
0.0
 10
162.7785524748905
 20
425.9327413895861
 30
0.0
 10
162.7785522706768
 20
424.7099748724797
 30
0.0
 10
162.778552165313
 20
423.9940748518784
 30
0.0
 10
162.7785519545649
 20
422.322326575517
 30
0.0
 10
162.7785518492011
 20
421.3663921900716
 30
0.0
 10
162.7785516449875
 20
419.190969804181
 30
0.0
 10
162.7785515461581
 20
417.9713956740504
 30
0.0
 10
162.7785513609302
 20
415.2551539001054
 30
0.0
 10
162.7785512745523
 20
413.7584001266055
 30
0.0
 10
162.7785511189095
 20
410.4869085389587
 30
0.0
 10
162.7785510496651
 20
408.7120845951263
 30
0.0
 10
162.7785509311193
 20
404.8987954021362
 30
0.0
 10
162.7785508818384
 20
402.860244023293
 30
0.0
 10
162.7785508035796
 20
398.5516598484521
 30
0.0
 10
162.7785507746223
 20
396.281540922769
 30
0.0
 10
162.7785507342838
 20
391.5623825858325
 30
0.0
 10
162.7785507229231
 20
389.1132570448937
 30
0.0
 10
162.7785507113464
 20
384.1116313430076
 30
0.0
 10
162.7785507111508
 20
381.5590450523749
 30
0.0
 10
162.7785507111508
 20
379.0053287967895
 30
0.0
  0
SPLINE
  5
B2
330
1F
100
AcDbEntity
  8
0
  6
Continuous
 62
     7
370
    25
100
AcDbSpline
210
0.0
220
0.0
230
1.0
 70
     8
 71
     3
 72
    38
 73
    34
 74
     0
 42
0.00000001
 43
0.00000001
 40
0.0
 40
0.0
 40
0.0
 40
0.0
 40
0.0625
 40
0.0625
 40
0.125
 40
0.125
 40
0.1875
 40
0.1875
 40
0.25
 40
0.25
 40
0.3124999999999999
 40
0.3124999999999999
 40
0.3749999999999999
 40
0.3749999999999999
 40
0.4374999999999998
 40
0.4374999999999998
 40
0.4999999999999998
 40
0.4999999999999998
 40
0.5624999999999997
 40
0.5624999999999997
 40
0.6249999999999996
 40
0.6249999999999996
 40
0.6874999999999997
 40
0.6874999999999997
 40
0.7499999999999998
 40
0.7499999999999998
 40
0.8124999999999998
 40
0.8124999999999998
 40
0.8749999999999999
 40
0.8749999999999999
 40
0.9374999999999999
 40
0.9374999999999999
 40
1.0
 40
1.0
 40
1.0
 40
1.0
 10
198.7785507111509
 20
379.0053287967894
 30
0.0
 10
198.7785507111509
 20
381.5590450523747
 30
0.0
 10
198.7785507113464
 20
384.1116313430074
 30
0.0
 10
198.7785507229232
 20
389.1132570448935
 30
0.0
 10
198.7785507342838
 20
391.5623825858324
 30
0.0
 10
198.7785507746224
 20
396.2815409227688
 30
0.0
 10
198.7785508035796
 20
398.551659848452
 30
0.0
 10
198.7785508818384
 20
402.8602440232928
 30
0.0
 10
198.7785509311194
 20
404.898795402136
 30
0.0
 10
198.7785510496652
 20
408.7120845951262
 30
0.0
 10
198.7785511189095
 20
410.4869085389585
 30
0.0
 10
198.7785512745523
 20
413.7584001266054
 30
0.0
 10
198.7785513609303
 20
415.2551539001052
 30
0.0
 10
198.7785515461581
 20
417.9713956740502
 30
0.0
 10
198.7785516449875
 20
419.1909698041808
 30
0.0
 10
198.7785518492012
 20
421.3663921900715
 30
0.0
 10
198.7785519545649
 20
422.3223265755169
 30
0.0
 10
198.778552165313
 20
423.9940748518782
 30
0.0
 10
198.7785522706768
 20
424.7099748724796
 30
0.0
 10
198.7785524748905
 20
425.9327413895859
 30
0.0
 10
198.7785525737198
 20
426.4396940157764
 30
0.0
 10
198.7785527589477
 20
427.2805504145231
 30
0.0
 10
198.7785528453256
 20
427.6145403167647
 30
0.0
 10
198.7785530009684
 20
428.1477697475397
 30
0.0
 10
198.7785530702127
 20
428.3470954057585
 30
0.0
 10
198.7785531887585
 20
428.6490247473143
 30
0.0
 10
198.7785532380394
 20
428.7517145603367
 30
0.0
 10
198.7785533162982
 20
428.8955466386617
 30
0.0
 10
198.7785533452555
 20
428.9367750336498
 30
0.0
 10
198.778553385594
 20
428.9874208408404
 30
0.0
 10
198.7785533969546
 20
428.9969243827282
 30
0.0
 10
198.7785534085313
 20
429.00583529586
 30
0.0
 10
198.7785534087269
 20
429.0053287967894
 30
0.0
 10
198.7785534087268
 20
429.0053287967894
 30
0.0
  0
LINE
  5
B3
330
1F
100
AcDbEntity
  8
0
  6
Continuous
 62
     7
370
    25
100
AcDbLine
 10
204.8785037152
 20
337.9369885093
 30
0.0
 11
204.8785037152
 21
333.9369885087
 31
0.0
  0
LINE
  5
B4
330
1F
100
AcDbEntity
  8
0
  6
Continuous
 62
     7
370
    25
100
AcDbLine
 10
203.8785037152
 20
333.9369885087
 30
0.0
 11
204.8785037152
 21
333.9369885087
 31
0.0
  0
LINE
  5
B5
330
1F
100
AcDbEntity
  8
0
  6
Continuous
 62
     7
370
    25
100
AcDbLine
 10
157.6785037152
 20
333.9369885087
 30
0.0
 11
203.8785037152
 21
333.9369885087
 31
0.0
  0
ARC
  5
B6
330
1F
100
AcDbEntity
  8
0
  6
Continuous
 62
     7
370
    25
100
AcDbCircle
 10
203.8785037152
 20
337.9369885093
 30
0.0
 40
1.000000000000028
100
AcDbArc
 50
0.0
 51
90.0
  0
LINE
  5
B7
330
1F
100
AcDbEntity
  8
0
  6
Continuous
 62
     7
370
    25
100
AcDbLine
 10
157.6785037152
 20
338.9369885093
 30
0.0
 11
203.8785037152
 21
338.9369885093
 31
0.0
  0
LINE
  5
B8
330
1F
100
AcDbEntity
  8
0
  6
Continuous
 62
     7
370
    25
100
AcDbLine
 10
156.6785037152
 20
333.9369885087
 30
0.0
 11
156.6785037152
 21
337.9369885093
 31
0.0
  0
LINE
  5
B9
330
1F
100
AcDbEntity
  8
0
  6
Continuous
 62
     7
370
    25
100
AcDbLine
 10
156.6785037152
 20
333.9369885087
 30
0.0
 11
157.6785037152
 21
333.9369885087
 31
0.0
  0
ARC
  5
BA
330
1F
100
AcDbEntity
  8
0
  6
Continuous
 62
     7
370
    25
100
AcDbCircle
 10
157.6785037152
 20
337.9369885093
 30
0.0
 40
1.000000000000057
100
AcDbArc
 50
90.0
 51
180.0
  0
SPLINE
  5
BB
330
1F
100
AcDbEntity
  8
0
  6
Continuous
 62
     7
370
    25
100
AcDbSpline
210
0.0
220
0.0
230
1.0
 70
     8
 71
     3
 72
    10
 73
     6
 74
     0
 42
0.00000001
 43
0.00000001
 40
0.0
 40
0.0
 40
0.0
 40
0.0
 40
0.140237219944158
 40
0.4411018757567522
 40
1.0
 40
1.0
 40
1.0
 40
1.0
 10
161.6670619875314
 20
340.8360324675253
 30
0.0
 10
161.7691235731125
 20
340.9551454644665
 30
0.0
 10
162.0901478836374
 20
341.3298032507422
 30
0.0
 10
162.5990055796098
 20
342.3489228071399
 30
0.0
 10
162.7077912745289
 20
343.3113514577631
 30
0.0
 10
162.7785085959171
 20
343.9369886451699
 30
0.0
  0
ARC
  5
BC
330
1F
100
AcDbEntity
  8
0
  6
Continuous
 62
     7
370
    25
100
AcDbCircle
 10
203.7785127437
 20
343.9369885102
 30
0.0
 40
5.000000000935074
100
AcDbArc
 50
179.9999996668
 51
269.9999999906
  0
LINE
  5
BD
330
1F
100
AcDbEntity
  8
0
  6
Continuous
 62
     7
370
    25
100
AcDbLine
 10
162.7785482383
 20
364.0053294513
 30
0.0
 11
162.7785482157
 21
379.0053294234
 31
0.0
  0
LINE
  5
BE
330
1F
100
AcDbEntity
  8
0
  6
Continuous
 62
     7
370
    25
100
AcDbLine
 10
198.7785504246
 20
364.0053294513
 30
0.0
 11
198.778550402
 21
379.0053294234
 31
0.0
  0
LINE
  5
BF
330
1F
100
AcDbEntity
  8
0
  6
Continuous
 62
     7
370
    25
100
AcDbLine
 10
198.7785127429
 20
354.9369885018
 30
0.0
 11
198.7785127292
 21
364.0053294513
 31
0.0
  0
LINE
  5
C0
330
1F
100
AcDbEntity
  8
0
  6
Continuous
 62
     7
370
    25
100
AcDbLine
 10
162.7785085959
 20
354.9369886452
 30
0.0
 11
162.7785083496
 21
364.0053294513
 31
0.0
  0
LINE
  5
C1
330
1F
100
AcDbEntity
  8
0
  6
Continuous
 62
     7
370
    25
100
AcDbLine
 10
198.7785118501
 20
354.9369885018
 30
0.0
 11
198.7785118501
 21
343.9369885393
 31
0.0
  0
SPLINE
  5
C2
330
1F
100
AcDbEntity
  8
0
  6
Continuous
 62
     7
370
    25
100
AcDbSpline
210
0.0
220
0.0
230
1.0
 70
     8
 71
     3
 72
    10
 73
     6
 74
     0
 42
0.00000001
 43
0.00000001
 40
0.0
 40
0.0
 40
0.0
 40
0.0
 40
0.5
 40
0.5
 40
1.0
 40
1.0
 40
1.0
 40
1.0
 10
198.7780820540869
 20
448.8230465172305
 30
0.0
 10
198.7779592260677
 20
448.78285458385
 30
0.0
 10
198.6917244951735
 20
448.6945824720787
 30
0.0
 10
198.4167966031189
 20
448.4948080721128
 30
0.0
 10
198.2246863617482
 20
448.3819872635001
 30
0.0
 10
198.0150518203644
 20
448.276558300294
 30
0.0
  0
SPLINE
  5
C3
330
1F
100
AcDbEntity
  8
0
  6
Continuous
 62
     7
370
    25
100
AcDbSpline
210
0.0
220
0.0
230
1.0
 70
    24
 71
     3
 72
    14
 73
    10
 74
     0
 42
0.00000001
 43
0.00000001
 40
0.0000000000000009
 40
0.0000000000000009
 40
0.0000000000000009
 40
0.0000000000000009
 40
0.0027220924773576
 40
0.0027220924773576
 40
0.0027220924773576
 40
0.0054441839602498
 40
0.0054441839602498
 40
0.0054441839602498
 40
0.0104862958462568
 40
0.0104862958462568
 40
0.0104862958462568
 40
0.0104862958462568
 10
198.7780821888141
 20
450.5586746597779
 30
0.0
 10
198.7780821888141
 20
450.4090466564139
 30
0.0
 10
198.7780821888141
 20
450.2583627857492
 30
0.0
 10
198.7780821888141
 20
450.1076597416254
 30
0.0
 10
198.7780821888141
 20
449.9569567425062
 30
0.0
 10
198.7780821888141
 20
449.8062632435431
 30
0.0
 10
198.7780821888141
 20
449.656036580571
 30
0.0
 10
198.7780821888141
 20
449.3777727366631
 30
0.0
 10
198.7780821888142
 20
449.100016429608
 30
0.0
 10
198.7780821888142
 20
448.823055836231
 30
0.0
  0
SPLINE
  5
C4
330
1F
100
AcDbEntity
  8
0
  6
Continuous
 62
     7
370
    25
100
AcDbSpline
210
0.0
220
0.0
230
1.0
 70
     8
 71
     3
 72
    12
 73
     8
 74
     0
 42
0.00000001
 43
0.00000001
 40
0.0
 40
0.0
 40
0.0
 40
0.0
 40
0.4999999999999869
 40
0.4999999999999869
 40
0.7499999999999934
 40
0.7499999999999934
 40
1.0
 40
1.0
 40
1.0
 40
1.0
 10
163.5410187421443
 20
448.2765542881678
 30
0.0
 10
163.3306008262278
 20
448.3823754228784
 30
0.0
 10
163.1388856859899
 20
448.4950435980183
 30
0.0
 10
162.9328810616047
 20
448.6447982003487
 30
0.0
 10
162.8772047666661
 20
448.6912766529783
 30
0.0
 10
162.7993940301088
 20
448.7706338635791
 30
0.0
 10
162.7781415181608
 20
448.8027524592407
 30
0.0
 10
162.7781402181749
 20
448.8230180601514
 30
0.0
  0
SPLINE
  5
C5
330
1F
100
AcDbEntity
  8
0
  6
Continuous
 62
     7
370
    25
100
AcDbSpline
210
0.0
220
0.0
230
1.0
 70
    24
 71
     3
 72
    14
 73
    10
 74
     0
 42
0.00000001
 43
0.00000001
 40
0.0
 40
0.0
 40
0.0
 40
0.0
 40
0.0026283545570112
 40
0.0026283545570112
 40
0.0026283545570112
 40
0.0052567090778632
 40
0.0052567090778632
 40
0.0052567090778632
 40
0.0104863578434055
 40
0.0104863578434055
 40
0.0104863578434055
 40
0.0104863578434055
 10
162.7781402181342
 20
448.82301806182
 30
0.0
 10
162.7781402181342
 20
448.9674193221754
 30
0.0
 10
162.7781402181341
 20
449.1120224222927
 30
0.0
 10
162.7781402181341
 20
449.2568377974269
 30
0.0
 10
162.7781402181341
 20
449.4016531716351
 30
0.0
 10
162.778140218134
 20
449.546678496448
 30
0.0
 10
162.778140218134
 20
449.6918255828932
 30
0.0
 10
162.778140218134
 20
449.9806253858794
 30
0.0
 10
162.778140218134
 20
450.2717673431811
 30
0.0
 10
162.778140218134
 20
450.5595556523282
 30
0.0
  0
LINE
  5
C6
330
1F
100
AcDbEntity
  8
0
  6
Continuous
 62
     7
370
    25
100
AcDbLine
 10
162.77850804
 20
364.0053294513
 30
0.0
 11
162.7785082863
 21
354.9369886452
 31
0.0
  0
LINE
  5
C7
330
1F
100
AcDbEntity
  8
0
  6
Continuous
 62
     7
370
    25
100
AcDbLine
 10
162.7785082199
 20
354.9369886452
 30
0.0
 11
162.7785082199
 21
343.9369886826
 31
0.0
  0
SPLINE
  5
C8
330
1F
100
AcDbEntity
  8
0
  6
Continuous
 62
     8
370
    18
100
AcDbSpline
210
0.0
220
0.0
230
1.0
 70
     8
 71
     3
 72
    14
 73
    10
 74
     0
 42
0.00000001
 43
0.00000001
 40
0.0
 40
0.0
 40
0.0
 40
0.0
 40
0.25
 40
0.25
 40
0.5
 40
0.5
 40
0.75
 40
0.75
 40
1.0
 40
1.0
 40
1.0
 40
1.0
 10
180.7785037054149
 20
428.8641986135616
 30
0.0
 10
183.0327800694149
 20
428.8641986135616
 30
0.0
 10
185.1948972418476
 20
428.0226303348165
 30
0.0
 10
188.3829254491535
 20
425.0268637535538
 30
0.0
 10
189.2785037054149
 20
422.9951382013443
 30
0.0
 10
189.2785037054149
 20
418.7584844724185
 30
0.0
 10
188.3829254491535
 20
416.726758920209
 30
0.0
 10
185.1948972418476
 20
413.7309923389464
 30
0.0
 10
183.0327800694149
 20
412.8894240602012
 30
0.0
 10
180.7785037054149
 20
412.8894240602012
 30
0.0
  0
SPLINE
  5
C9
330
1F
100
AcDbEntity
  8
0
  6
Continuous
 62
     8
370
    18
100
AcDbSpline
210
0.0
220
0.0
230
1.0
 70
     8
 71
     3
 72
    14
 73
    10
 74
     0
 42
0.00000001
 43
0.00000001
 40
0.0
 40
0.0
 40
0.0
 40
0.0
 40
0.25
 40
0.25
 40
0.5
 40
0.5
 40
0.75
 40
0.75
 40
1.0
 40
1.0
 40
1.0
 40
1.0
 10
180.7785037054149
 20
412.8894240602012
 30
0.0
 10
178.5242273414149
 20
412.8894240602012
 30
0.0
 10
176.3621101689822
 20
413.7309923389464
 30
0.0
 10
173.1740819616763
 20
416.726758920209
 30
0.0
 10
172.2785037054149
 20
418.7584844724185
 30
0.0
 10
172.2785037054149
 20
422.9951382013443
 30
0.0
 10
173.1740819616763
 20
425.0268637535538
 30
0.0
 10
176.3621101689822
 20
428.0226303348165
 30
0.0
 10
178.5242273414149
 20
428.8641986135616
 30
0.0
 10
180.7785037054149
 20
428.8641986135616
 30
0.0
  0
LWPOLYLINE
  5
CA
330
1F
100
AcDbEntity
  8
0
  6
Continuous
 62
     8
370
    18
100
AcDbPolyline
 90
       23
 70
   128
 43
0.0
 10
171.7785037738
 20
421.0467787431
 10
171.7785037054
 20
421.0478214085
 10
171.8893086401
 20
422.3708242205
 10
172.2189950588
 20
423.6612503123
 10
172.7594449877
 20
424.8873251112
 10
173.497350756
 20
426.0188585862
 10
174.4145426747
 20
427.027988628
 10
175.4884364348
 20
427.8898671059
 10
176.6925892078
 20
428.5832717112
 10
177.997350756
 20
429.0911285214
 10
179.3705935201
 20
429.4009324162
 10
180.7785037054
 20
429.5050549956
 10
182.1864138908
 20
429.4009324162
 10
183.5596566548
 20
429.0911285214
 10
184.8644182031
 20
428.5832717112
 10
186.068570976
 20
427.8898671059
 10
187.1424647361
 20
427.027988628
 10
188.0596566548
 20
426.0188585862
 10
188.7975624231
 20
424.8873251112
 10
189.3380123521
 20
423.6612503123
 10
189.6676987708
 20
422.3708242205
 10
189.7785037054
 20
421.0478214085
 10
189.7785037054
 20
421.0478214085
  0
SPLINE
  5
CB
330
1F
100
AcDbEntity
  8
0
  6
Continuous
 62
     8
370
    18
100
AcDbSpline
210
0.0
220
0.0
230
1.0
 70
    24
 71
     3
 72
    14
 73
    10
 74
     0
 42
0.00000001
 43
0.00000001
 40
0.0
 40
0.0
 40
0.0
 40
0.0
 40
0.25
 40
0.25
 40
0.5
 40
0.5
 40
0.75
 40
0.75
 40
1.0
 40
1.0
 40
1.0
 40
1.0
 10
197.7785503113218
 20
440.005330422995
 30
0.0
 10
197.7785503113158
 20
440.005330422995
 30
0.0
 10
197.7785503113139
 20
439.9662157310002
 30
0.0
 10
197.7785503113184
 20
439.8184667813471
 30
0.0
 10
197.7785503113249
 20
439.7099617782806
 30
0.0
 10
197.778550311345
 20
439.4478519404145
 30
0.0
 10
197.7785503113584
 20
439.2944764060612
 30
0.0
 10
197.7785503113894
 20
438.9772368243744
 30
0.0
 10
197.7785503114068
 20
438.8136503064089
 30
0.0
 10
197.7785503114243
 20
438.6633102796728
 30
0.0
  0
LINE
  5
CC
330
1F
100
AcDbEntity
  8
0
  6
Continuous
 62
     8
370
    18
100
AcDbLine
 10
197.7785503113
 20
438.6633102797
 30
0.0
 11
163.7785481251
 21
438.6633102797
 31
0.0
  0
SPLINE
  5
CD
330
1F
100
AcDbEntity
  8
0
  6
Continuous
 62
     8
370
    18
100
AcDbSpline
210
0.0
220
0.0
230
1.0
 70
    24
 71
     3
 72
    14
 73
    10
 74
     0
 42
0.00000001
 43
0.00000001
 40
0.0
 40
0.0
 40
0.0
 40
0.0
 40
0.25
 40
0.25
 40
0.5
 40
0.5
 40
0.75
 40
0.75
 40
1.0
 40
1.0
 40
1.0
 40
1.0
 10
163.7785481249305
 20
440.0053304229951
 30
0.0
 10
163.7785481249483
 20
440.0053304229951
 30
0.0
 10
163.7785481249662
 20
439.9662157310002
 30
0.0
 10
163.7785481250019
 20
439.8184667813466
 30
0.0
 10
163.7785481250197
 20
439.7099617782796
 30
0.0
 10
163.7785481250554
 20
439.4478519404127
 30
0.0
 10
163.7785481250733
 20
439.2944764060589
 30
0.0
 10
163.778548125109
 20
438.9772368243715
 30
0.0
 10
163.7785481251268
 20
438.8136503064057
 30
0.0
 10
163.7785481251447
 20
438.6633102796694
 30
0.0
  0
SPLINE
  5
CE
330
1F
100
AcDbEntity
  8
0
  6
Continuous
 62
     8
370
    18
100
AcDbSpline
210
0.0
220
0.0
230
1.0
 70
     8
 71
     3
 72
    10
 73
     6
 74
     0
 42
0.00000001
 43
0.00000001
 40
0.0
 40
0.0
 40
0.0
 40
0.0
 40
0.5
 40
0.5
 40
1.0
 40
1.0
 40
1.0
 40
1.0
 10
198.7785503114243
 20
439.0053304245072
 30
0.0
 10
198.7785503115593
 20
438.9157897603402
 30
0.0
 10
198.6707772152296
 20
438.8268004724424
 30
0.0
 10
198.3005369703569
 20
438.7001708502675
 30
0.0
 10
198.0403496993094
 20
438.6633102800216
 30
0.0
 10
197.7785503114243
 20
438.6633102796728
 30
0.0
  0
SPLINE
  5
CF
330
1F
100
AcDbEntity
  8
0
  6
Continuous
 62
     8
370
    18
100
AcDbSpline
210
0.0
220
0.0
230
1.0
 70
     8
 71
     3
 72
    10
 73
     6
 74
     0
 42
0.00000001
 43
0.00000001
 40
0.0
 40
0.0
 40
0.0
 40
0.0
 40
0.5
 40
0.5
 40
1.0
 40
1.0
 40
1.0
 40
1.0
 10
162.7785481251447
 20
439.0053304214898
 30
0.0
 10
162.7785481252794
 20
438.9157897573816
 30
0.0
 10
162.8863212217298
 20
438.8268004698655
 30
0.0
 10
163.2565614665504
 20
438.7001708488244
 30
0.0
 10
163.5167487374313
 20
438.6633102793215
 30
0.0
 10
163.7785481251446
 20
438.6633102796694
 30
0.0
  0
SPLINE
  5
D0
330
1F
100
AcDbEntity
  8
0
  6
Continuous
 62
     8
370
    18
100
AcDbSpline
210
0.0
220
0.0
230
1.0
 70
     8
 71
     3
 72
    10
 73
     6
 74
     0
 42
0.00000001
 43
0.00000001
 40
0.0
 40
0.0
 40
0.0
 40
0.0
 40
0.5
 40
0.5
 40
1.0
 40
1.0
 40
1.0
 40
1.0
 10
198.7785502898486
 20
429.0008639861937
 30
0.0
 10
198.7784794030826
 20
428.9113975791213
 30
0.0
 10
198.6706746211708
 20
428.8224920575529
 30
0.0
 10
198.300448086722
 20
428.6960190447995
 30
0.0
 10
198.0403045786185
 20
428.6592305481137
 30
0.0
 10
197.7785503265182
 20
428.6592893642292
 30
0.0
  0
LINE
  5
D1
330
1F
100
AcDbEntity
  8
0
  6
Continuous
 62
     8
370
    18
100
AcDbLine
 10
197.7785503265
 20
428.6592893642
 30
0.0
 11
197.7785503114
 21
438.6633102797
 31
0.0
  0
LINE
  5
D2
330
1F
100
AcDbEntity
  8
0
  6
Continuous
 62
     8
370
    18
100
AcDbLine
 10
163.7785481251
 20
438.6633102797
 30
0.0
 11
163.7785481402
 21
428.672404023
 31
0.0
  0
SPLINE
  5
D3
330
1F
100
AcDbEntity
  8
0
  6
Continuous
 62
     8
370
    18
100
AcDbSpline
210
0.0
220
0.0
230
1.0
 70
     8
 71
     3
 72
    32
 73
    28
 74
     0
 42
0.00000001
 43
0.00000001
 40
0.0
 40
0.0
 40
0.0
 40
0.0
 40
0.1250000000000017
 40
0.1250000000000017
 40
0.2500000000000033
 40
0.2500000000000033
 40
0.375000000000005
 40
0.375000000000005
 40
0.5000000000000067
 40
0.5000000000000067
 40
0.5625000000000072
 40
0.5625000000000072
 40
0.6250000000000079
 40
0.6250000000000079
 40
0.6562500000000083
 40
0.6562500000000083
 40
0.6875000000000087
 40
0.6875000000000087
 40
0.7187500000000091
 40
0.7187500000000091
 40
0.7500000000000095
 40
0.7500000000000095
 40
0.8125000000000071
 40
0.8125000000000071
 40
0.8750000000000048
 40
0.8750000000000048
 40
1.0
 40
1.0
 40
1.0
 40
1.0
 10
189.7785037054159
 20
424.6625073141132
 30
0.0
 10
190.2388020683975
 20
424.6628130751333
 30
0.0
 10
190.6991004313792
 20
424.6631188361534
 30
0.0
 10
191.6196971573425
 20
424.6637303581936
 30
0.0
 10
192.0800356378772
 20
424.662979409062
 30
0.0
 10
193.0004809852857
 20
424.6675782943316
 30
0.0
 10
193.4605675565511
 20
424.6734627220423
 30
0.0
 10
194.3799922228762
 20
424.7049466983016
 30
0.0
 10
194.8393809934901
 20
424.729211435314
 30
0.0
 10
195.52660410819
 20
424.8146026666977
 30
0.0
 10
195.7545383536607
 20
424.8503866366958
 30
0.0
 10
196.2025480291576
 20
424.9545747137254
 30
0.0
 10
196.4242083720501
 20
425.0221072392187
 30
0.0
 10
196.7313014244744
 20
425.169709890287
 30
0.0
 10
196.8309246582359
 20
425.2278040890297
 30
0.0
 10
197.0109921237695
 20
425.3634676804855
 30
0.0
 10
197.0916626052498
 20
425.4402002172083
 30
0.0
 10
197.2330572116899
 20
425.6126263702752
 30
0.0
 10
197.2927176229294
 20
425.706794968298
 30
0.0
 10
197.3945641139368
 20
425.9002879706422
 30
0.0
 10
197.4373988145142
 20
426.0006189966048
 30
0.0
 10
197.5488508067034
 20
426.3091688983646
 30
0.0
 10
197.599669975932
 20
426.5203185042357
 30
0.0
 10
197.6783655680085
 20
426.9430313793609
 30
0.0
 10
197.705258412648
 20
427.1559075867615
 30
0.0
 10
197.7657644243207
 20
427.796997687124
 30
0.0
 10
197.7782025414394
 20
428.228290641014
 30
0.0
 10
197.7785503265182
 20
428.6592893642292
 30
0.0
  0
SPLINE
  5
D4
330
1F
100
AcDbEntity
  8
0
  6
Continuous
 62
     8
370
    18
100
AcDbSpline
210
0.0
220
0.0
230
1.0
 70
     8
 71
     3
 72
    32
 73
    28
 74
     0
 42
0.00000001
 43
0.00000001
 40
0.0
 40
0.0
 40
0.0
 40
0.0
 40
0.1250000000000073
 40
0.1250000000000073
 40
0.1875000000000088
 40
0.1875000000000088
 40
0.2500000000000103
 40
0.2500000000000103
 40
0.2812500000000093
 40
0.2812500000000093
 40
0.3125000000000082
 40
0.3125000000000082
 40
0.3437500000000072
 40
0.3437500000000072
 40
0.3750000000000061
 40
0.3750000000000061
 40
0.4375000000000056
 40
0.4375000000000056
 40
0.500000000000005
 40
0.500000000000005
 40
0.6250000000000031
 40
0.6250000000000031
 40
0.750000000000002
 40
0.750000000000002
 40
0.875000000000001
 40
0.875000000000001
 40
1.0
 40
1.0
 40
1.0
 40
1.0
 10
163.7785481402188
 20
428.6724040230377
 30
0.0
 10
163.7788066197735
 20
428.2408670812561
 30
0.0
 10
163.7907067215821
 20
427.8089944232632
 30
0.0
 10
163.8505570939421
 20
427.1670116382413
 30
0.0
 10
163.8771695680747
 20
426.9538299246397
 30
0.0
 10
163.955128882605
 20
426.5304831299451
 30
0.0
 10
164.0054737187343
 20
426.3191654536403
 30
0.0
 10
164.1160127250311
 20
426.0097632569322
 30
0.0
 10
164.1585077911457
 20
425.9091320688433
 30
0.0
 10
164.259521852571
 20
425.7149696826975
 30
0.0
 10
164.3185895581838
 20
425.6205277412184
 30
0.0
 10
164.4590503850972
 20
425.4468315714233
 30
0.0
 10
164.5393032697683
 20
425.3695099247414
 30
0.0
 10
164.7185673142297
 20
425.2326965203481
 30
0.0
 10
164.8180553110992
 20
425.1739786397996
 30
0.0
 10
165.1249048508946
 20
425.0249243625489
 30
0.0
 10
165.3466318992319
 20
424.9568332833805
 30
0.0
 10
165.7950319114454
 20
424.8517400191288
 30
0.0
 10
166.0231796795087
 20
424.8156831234944
 30
0.0
 10
166.7112502355005
 20
424.729678219352
 30
0.0
 10
167.1712128190636
 20
424.7052247632315
 30
0.0
 10
168.0917923565509
 20
424.6735474999378
 30
0.0
 10
168.5524584931856
 20
424.6676186793459
 30
0.0
 10
169.4740647617147
 20
424.6629753657302
 30
0.0
 10
169.9349847734011
 20
424.6637314065702
 30
0.0
 10
170.8567442394087
 20
424.6631198922481
 30
0.0
 10
171.3176239724125
 20
424.6628141350871
 30
0.0
 10
171.7785037054163
 20
424.6625083779261
 30
0.0
  0
SPLINE
  5
D5
330
1F
100
AcDbEntity
  8
0
  6
Continuous
 62
     8
370
    18
100
AcDbSpline
210
0.0
220
0.0
230
1.0
 70
     8
 71
     3
 72
    20
 73
    16
 74
     0
 42
0.00000001
 43
0.00000001
 40
0.0
 40
0.0
 40
0.0
 40
0.0
 40
0.0003351782568589
 40
0.0003351782568589
 40
0.0003351782568589
 40
0.0006700971688531
 40
0.0006700971688531
 40
0.0006700971688531
 40
0.0010057590980455
 40
0.0010057590980455
 40
0.0010057590980455
 40
0.0012936735533637
 40
0.0012936735533637
 40
0.0012936735533637
 40
0.0015627022633188
 40
0.0015627022633188
 40
0.0015627022633188
 40
0.0015627022633188
 10
162.7785534087266
 20
429.0053287967967
 30
0.0
 10
162.7785762971926
 20
428.9671160313118
 30
0.0
 10
162.7978184473013
 20
428.9371897667642
 30
0.0
 10
162.8347447477233
 20
428.9011343773311
 30
0.0
 10
162.8716568069073
 20
428.8650928932548
 30
0.0
 10
162.9272330807397
 20
428.8307359840264
 30
0.0
 10
162.9968906488924
 20
428.8008967822495
 30
0.0
 10
163.0666984013419
 20
428.7709932460485
 30
0.0
 10
163.1525734425642
 20
428.7448034834921
 30
0.0
 10
163.2474044231217
 20
428.7244962799016
 30
0.0
 10
163.329050454392
 20
428.7070125148956
 30
0.0
 10
163.4190893274815
 20
428.6934720892735
 30
0.0
 10
163.5119644620313
 20
428.6847106248703
 30
0.0
 10
163.5983954719023
 20
428.6765570731151
 30
0.0
 10
163.6888719000489
 20
428.6723803079909
 30
0.0
 10
163.7785481331493
 20
428.6724040230414
 30
0.0
  0
SPLINE
  5
D6
330
1F
100
AcDbEntity
  8
0
  6
Continuous
 62
     8
370
    18
100
AcDbSpline
210
0.0
220
0.0
230
1.0
 70
     8
 71
     3
 72
    12
 73
     8
 74
     0
 42
0.00000001
 43
0.00000001
 40
8.172668223544271
 40
8.172668223544271
 40
8.172668223544271
 40
8.172668223544271
 40
8.176115058065157
 40
8.176115058065157
 40
8.468667056942937
 40
8.468667056942937
 40
8.487454801976547
 40
8.487454801976547
 40
8.487454801976547
 40
8.487454801976547
 10
163.1076053165871
 20
449.9586435386469
 30
0.0
 10
163.1079708825693
 20
449.9578609853489
 30
0.0
 10
163.1083362278214
 20
449.9570783644855
 30
0.0
 10
163.1396915678191
 20
449.8898644167518
 30
0.0
 10
163.1690280243751
 20
449.8230904139523
 30
0.0
 10
163.1985718639768
 20
449.751516584902
 30
0.0
 10
163.2003486208548
 20
449.747194287062
 30
0.0
 10
163.2021189241244
 20
449.742869866117
 30
0.0
  0
SPLINE
  5
D7
330
1F
100
AcDbEntity
  8
0
  6
Continuous
 62
     8
370
    18
100
AcDbSpline
210
0.0
220
0.0
230
1.0
 70
     8
 71
     3
 72
    16
 73
    12
 74
     0
 42
0.00000001
 43
0.00000001
 40
8.487454801976627
 40
8.487454801976627
 40
8.487454801976627
 40
8.487454801976627
 40
8.505695716722823
 40
8.505695716722823
 40
8.523980216652683
 40
8.523980216652683
 40
8.542264716582544
 40
8.542264716582544
 40
8.578833716442274
 40
8.578833716442274
 40
8.648524881640746
 40
8.648524881640746
 40
8.648524881640746
 40
8.648524881640746
 10
163.0548367872397
 20
450.0680644474758
 30
0.0
 10
163.0568951608357
 20
450.0639241963099
 30
0.0
 10
163.058944232749
 20
450.0597868402941
 30
0.0
 10
163.063021684497
 20
450.0515339195067
 30
0.0
 10
163.0650551641111
 20
450.0474036544205
 30
0.0
 10
163.069114127729
 20
450.0391301042024
 30
0.0
 10
163.071129677922
 20
450.0350071515044
 30
0.0
 10
163.0771682539491
 20
450.0226111007055
 30
0.0
 10
163.0811774055931
 20
450.0143222338301
 30
0.0
 10
163.0927324051324
 20
449.990260634537
 30
0.0
 10
163.1002139785039
 20
449.9744658970566
 30
0.0
 10
163.107605316587
 20
449.958643538647
 30
0.0
  0
SPLINE
  5
D8
330
1F
100
AcDbEntity
  8
0
  6
Continuous
 62
     8
370
    18
100
AcDbSpline
210
0.0
220
0.0
230
1.0
 70
     8
 71
     3
 72
    16
 73
    12
 74
     0
 42
0.00000001
 43
0.00000001
 40
8.648524881646216
 40
8.648524881646216
 40
8.648524881646216
 40
8.648524881646216
 40
8.673847827925684
 40
8.673847827925684
 40
8.746985827645124
 40
8.746985827645124
 40
8.783554827504855
 40
8.783554827504855
 40
8.801839327434715
 40
8.801839327434715
 40
8.801882912612909
 40
8.801882912612909
 40
8.801882912612909
 40
8.801882912612909
 10
163.0014872305781
 20
450.1723980592791
 30
0.0
 10
163.0045056550939
 20
450.1666554841084
 30
0.0
 10
163.0075140915318
 20
450.1609045931365
 30
0.0
 10
163.0191512765051
 20
450.1385617023907
 30
0.0
 10
163.0276628846291
 20
450.1220043378278
 30
0.0
 10
163.040298523128
 20
450.0970966598312
 30
0.0
 10
163.0444664073551
 20
450.0888254757853
 30
0.0
 10
163.0506967253391
 20
450.0763780183891
 30
0.0
 10
163.0527586956811
 20
450.0722442836607
 30
0.0
 10
163.0548269505531
 20
450.068084233081
 30
0.0
 10
163.054831868922
 20
450.068074340272
 30
0.0
 10
163.0548367872379
 20
450.0680644474795
 30
0.0
  0
SPLINE
  5
D9
330
1F
100
AcDbEntity
  8
0
  6
Continuous
 62
     8
370
    18
100
AcDbSpline
210
0.0
220
0.0
230
1.0
 70
     8
 71
     3
 72
    18
 73
    14
 74
     0
 42
0.00000001
 43
0.00000001
 40
8.801882912619167
 40
8.801882912619167
 40
8.801882912619167
 40
8.801882912619167
 40
8.809500601130521
 40
8.809500601130521
 40
8.818642851095452
 40
8.818642851095452
 40
8.836927351025311
 40
8.836927351025311
 40
8.910065350744752
 40
8.910065350744752
 40
8.946634350604482
 40
8.946634350604482
 40
8.957880404178475
 40
8.957880404178475
 40
8.957880404178475
 40
8.957880404178475
 10
162.9445607490957
 20
450.277584915099
 30
0.0
 10
162.945505542844
 20
450.2758896325973
 30
0.0
 10
162.9464506189486
 20
450.2741917087931
 30
0.0
 10
162.9485162739501
 20
450.2704742068211
 30
0.0
 10
162.94965389917
 20
450.2684217578742
 30
0.0
 10
162.953047614191
 20
450.2622906892273
 30
0.0
 10
162.955297709833
 20
450.2582118902874
 30
0.0
 10
162.9665494766471
 20
450.2377475350701
 30
0.0
 10
162.9754613530191
 20
450.2213193702944
 30
0.0
 10
162.9887009829801
 20
450.1965795185844
 30
0.0
 10
162.993090143011
 20
450.1883214787271
 30
0.0
 10
162.9988042642396
 20
450.1774970348102
 30
0.0
 10
163.0001467323794
 20
450.1749483671074
 30
0.0
 10
163.0014872305758
 20
450.1723980592834
 30
0.0
  0
SPLINE
  5
DA
330
1F
100
AcDbEntity
  8
0
  6
Continuous
 62
     8
370
    18
100
AcDbSpline
210
0.0
220
0.0
230
1.0
 70
     8
 71
     3
 72
    18
 73
    14
 74
     0
 42
0.00000001
 43
0.00000001
 40
8.957880404168645
 40
8.957880404168645
 40
8.957880404168645
 40
8.957880404168645
 40
8.963411976457511
 40
8.963411976457511
 40
8.97255422642244
 40
8.97255422642244
 40
9.00912322628217
 40
9.00912322628217
 40
9.082261226001611
 40
9.082261226001611
 40
9.11883022586133
 40
9.11883022586133
 40
9.120354787324747
 40
9.120354787324747
 40
9.120354787324747
 40
9.120354787324747
 10
162.8826587418606
 20
450.3856426031999
 30
0.0
 10
162.8833816303238
 20
450.3844120181748
 30
0.0
 10
162.8841037580944
 20
450.3831819324427
 30
0.0
 10
162.8860071340541
 20
450.3799414454501
 30
0.0
 10
162.8871955746791
 20
450.377915476955
 30
0.0
 10
162.8931137231721
 20
450.3678107986895
 30
0.0
 10
162.8978266229611
 20
450.3597155155574
 30
0.0
 10
162.9118832426521
 20
450.3354238530536
 30
0.0
 10
162.9211543665001
 20
450.3192055295585
 30
0.0
 10
162.9349078558571
 20
450.2948460748611
 30
0.0
 10
162.9394598487891
 20
450.2867334606048
 30
0.0
 10
162.9441825889628
 20
450.2782633779659
 30
0.0
 10
162.9443716633764
 20
450.2779241994263
 30
0.0
 10
162.9445607490993
 20
450.2775849150925
 30
0.0
  0
SPLINE
  5
DB
330
1F
100
AcDbEntity
  8
0
  6
Continuous
 62
     8
370
    18
100
AcDbSpline
210
0.0
220
0.0
230
1.0
 70
     8
 71
     3
 72
    22
 73
    18
 74
     0
 42
0.00000001
 43
0.00000001
 40
9.120354787332603
 40
9.120354787332603
 40
9.120354787332603
 40
9.120354787332603
 40
9.156923787192325
 40
9.156923787192325
 40
9.175208287122183
 40
9.175208287122183
 40
9.193492787052044
 40
9.193492787052044
 40
9.230061786911763
 40
9.230061786911763
 40
9.266630786771493
 40
9.266630786771493
 40
9.339768786490934
 40
9.339768786490934
 40
9.358053286420795
 40
9.358053286420795
 40
9.361663964089
 40
9.361663964089
 40
9.361663964089
 40
9.361663964089
 10
162.7819821411271
 20
450.5528045679057
 30
0.0
 10
162.7874860408411
 20
450.543762764572
 30
0.0
 10
162.7929368760411
 20
450.5347802858194
 30
0.0
 10
162.801010901991
 20
450.5214799669051
 30
0.0
 10
162.8036855958381
 20
450.5170745971186
 30
0.0
 10
162.8089763298431
 20
450.508367173928
 30
0.0
 10
162.8115961616721
 20
450.5040605327203
 30
0.0
 10
162.8194192970671
 20
450.4911889628813
 30
0.0
 10
162.8245446975281
 20
450.4827492728457
 30
0.0
 10
162.8347192671491
 20
450.4659517727737
 30
0.0
 10
162.839745206024
 20
450.4576289586261
 30
0.0
 10
162.8546833262421
 20
450.4328163038322
 30
0.0
 10
162.8644333735291
 20
450.4165064452814
 30
0.0
 10
162.8764500322801
 20
450.3961882662192
 30
0.0
 10
162.8788559189091
 20
450.3921092929355
 30
0.0
 10
162.8817147015351
 20
450.3872493197091
 30
0.0
 10
162.8821868837502
 20
450.3864458550904
 30
0.0
 10
162.8826587418575
 20
450.3856426032052
 30
0.0
  0
SPLINE
  5
DC
330
1F
100
AcDbEntity
  8
0
  6
Continuous
 62
     8
370
    18
100
AcDbSpline
210
0.0
220
0.0
230
1.0
 70
     8
 71
     3
 72
     9
 73
     5
 74
     0
 42
0.00000001
 43
0.00000001
 40
0.0
 40
0.0
 40
0.0
 40
0.0
 40
0.4796725236757032
 40
1.0
 40
1.0
 40
1.0
 40
1.0
 10
198.6830538755403
 20
450.3845778841728
 30
0.0
 10
198.6980806514969
 20
450.4106368999117
 30
0.0
 10
198.7294078074518
 20
450.464963579996
 30
0.0
 10
198.7642322251957
 20
450.5243433502687
 30
0.0
 10
198.7823523265947
 20
450.5552402762794
 30
0.0
  0
SPLINE
  5
DD
330
1F
100
AcDbEntity
  8
0
  6
Continuous
 62
     8
370
    18
100
AcDbSpline
210
0.0
220
0.0
230
1.0
 70
     8
 71
     3
 72
     9
 73
     5
 74
     0
 42
0.00000001
 43
0.00000001
 40
0.0
 40
0.0
 40
0.0
 40
0.0
 40
0.9000875101034396
 40
1.0
 40
1.0
 40
1.0
 40
1.0
 10
198.6208684288988
 20
450.273291335783
 30
0.0
 10
198.6393046412518
 20
450.3067127237865
 30
0.0
 10
198.6597873300415
 20
450.3438439889451
 30
0.0
 10
198.6809404178674
 20
450.3808777489971
 30
0.0
 10
198.6830538755411
 20
450.3845778841742
 30
0.0
  0
LWPOLYLINE
  5
DE
330
1F
100
AcDbEntity
  8
0
  6
Continuous
 62
     8
370
    18
100
AcDbPolyline
 90
        3
 70
   128
 43
0.0
 10
198.5515264776
 20
450.1652464428
 10
198.580070029
 20
450.2189627061
 10
198.6092216601
 20
450.2722329478
  0
LWPOLYLINE
  5
DF
330
1F
100
AcDbEntity
  8
0
  6
Continuous
 62
     8
370
    18
100
AcDbPolyline
 90
        3
 70
   128
 43
0.0
 10
198.4968648301
 20
450.0578404914
 10
198.5237989196
 20
450.1115349542
 10
198.5515264776
 20
450.1652464428
  0
SPLINE
  5
E0
330
1F
100
AcDbEntity
  8
0
  6
Continuous
 62
     8
370
    18
100
AcDbSpline
210
0.0
220
0.0
230
1.0
 70
     8
 71
     3
 72
     9
 73
     5
 74
     0
 42
0.00000001
 43
0.00000001
 40
0.0
 40
0.0
 40
0.0
 40
0.0
 40
0.5215921636478426
 40
0.9999999999999999
 40
0.9999999999999999
 40
0.9999999999999999
 40
0.9999999999999999
 10
198.3582162057113
 20
449.7236720189863
 30
0.0
 10
198.3828633860753
 20
449.7821651923813
 30
0.0
 10
198.4301171258392
 20
449.8943086973487
 30
0.0
 10
198.4836162823334
 20
450.0049857446635
 30
0.0
 10
198.5092106980385
 20
450.0579345114032
 30
0.0
  0
LINE
  5
E1
330
1F
100
AcDbEntity
  8
0
  6
Continuous
 62
     8
370
    18
100
AcDbLine
 10
197.9924762473
 20
448.3090967791
 30
0.0
 11
198.3473139485
 21
449.7248060716
 31
0.0
  0
ARC
  5
E2
330
1F
100
AcDbEntity
  8
0
  6
Continuous
 62
     8
370
    18
100
AcDbCircle
 10
197.9998395838
 20
466.1794660053
 30
0.0
 40
1.725144280448688
100
AcDbArc
 50
63.1846021029
 51
98.3440939803
  0
LINE
  5
E3
330
1F
100
AcDbEntity
  8
0
  6
Continuous
 62
     8
370
    18
100
AcDbLine
 10
197.7494906431
 20
465.9064631287
 30
0.0
 11
197.7494906431
 21
467.8863485983
 31
0.0
  0
LINE
  5
E4
330
1F
100
AcDbEntity
  8
0
  6
Continuous
 62
     8
370
    18
100
AcDbLine
 10
163.8067317639
 20
467.8863485952
 30
0.0
 11
163.8067317639
 21
465.9064631287
 31
0.0
  0
ARC
  5
E5
330
1F
100
AcDbEntity
  8
0
  6
Continuous
 62
     8
370
    18
100
AcDbCircle
 10
163.5563828232
 20
466.1794659982
 30
0.0
 40
1.725144281375305
100
AcDbArc
 50
81.6559060272
 51
116.8153978849
  0
LINE
  5
E6
330
1F
100
AcDbEntity
  8
0
  6
Continuous
 62
     8
370
    18
100
AcDbLine
 10
163.8067317631
 20
467.8863485949
 30
0.0
 11
180.7781112035
 21
467.8863485983
 31
0.0
  0
LINE
  5
E7
330
1F
100
AcDbEntity
  8
0
  6
Continuous
 62
     8
370
    18
100
AcDbLine
 10
180.7781112035
 20
467.8863485952
 30
0.0
 11
197.7494906438
 21
467.8863485935
 31
0.0
  0
LINE
  5
E8
330
1F
100
AcDbEntity
  8
0
  6
Continuous
 62
     8
370
    18
100
AcDbLine
 10
163.8067317639
 20
468.7476877686
 30
0.0
 11
163.8067317639
 21
467.8863485947
 31
0.0
  0
LINE
  5
E9
330
1F
100
AcDbEntity
  8
0
  6
Continuous
 62
     8
370
    18
100
AcDbLine
 10
197.7494906431
 20
467.8863485978
 30
0.0
 11
197.7494906431
 21
468.7476877686
 31
0.0
  0
LINE
  5
EA
330
1F
100
AcDbEntity
  8
0
  6
Continuous
 62
     8
370
    18
100
AcDbLine
 10
180.7781112035
 20
467.8863485983
 30
0.0
 11
180.7781112034
 21
468.7476877722
 31
0.0
  0
LINE
  5
EB
330
1F
100
AcDbEntity
  8
0
  6
Continuous
 62
     8
370
    18
100
AcDbLine
 10
204.8785037152
 20
337.9369885093
 30
0.0
 11
203.8785037152
 21
337.9369885093
 31
0.0
  0
LINE
  5
EC
330
1F
100
AcDbEntity
  8
0
  6
Continuous
 62
     8
370
    18
100
AcDbLine
 10
203.8785037152
 20
333.9369885087
 30
0.0
 11
203.8785037152
 21
337.9369885093
 31
0.0
  0
LINE
  5
ED
330
1F
100
AcDbEntity
  8
0
  6
Continuous
 62
     8
370
    18
100
AcDbLine
 10
203.8785037152
 20
337.9369885093
 30
0.0
 11
157.6785037152
 21
337.9369885093
 31
0.0
  0
LINE
  5
EE
330
1F
100
AcDbEntity
  8
0
  6
Continuous
 62
     8
370
    18
100
AcDbLine
 10
157.6785037152
 20
337.9369885093
 30
0.0
 11
157.6785037152
 21
333.9369885087
 31
0.0
  0
LINE
  5
EF
330
1F
100
AcDbEntity
  8
0
  6
Continuous
 62
     8
370
    18
100
AcDbLine
 10
203.8785037152
 20
338.9369885093
 30
0.0
 11
203.8785037152
 21
337.9369885093
 31
0.0
  0
LINE
  5
F0
330
1F
100
AcDbEntity
  8
0
  6
Continuous
 62
     8
370
    18
100
AcDbLine
 10
157.6785037152
 20
338.9369885093
 30
0.0
 11
157.6785037152
 21
337.9369885093
 31
0.0
  0
LINE
  5
F1
330
1F
100
AcDbEntity
  8
0
  6
Continuous
 62
     8
370
    18
100
AcDbLine
 10
156.6785037152
 20
337.9369885093
 30
0.0
 11
157.6785037152
 21
337.9369885093
 31
0.0
  0
LINE
  5
F2
330
1F
100
AcDbEntity
  8
0
  6
Continuous
 62
     8
370
    18
100
AcDbLine
 10
157.7785085959
 20
338.9369885093
 30
0.0
 11
159.6166538013
 21
339.2876028934
 31
0.0
  0
LINE
  5
F3
330
1F
100
AcDbEntity
  8
0
  6
Continuous
 62
     8
370
    18
100
AcDbLine
 10
162.7785086897
 20
343.9369886826
 30
0.0
 11
162.7785086897
 21
354.9369886452
 31
0.0
  0
LINE
  5
F4
330
1F
100
AcDbEntity
  8
0
  6
Continuous
 62
     8
370
    18
100
AcDbLine
 10
162.7785082199
 20
343.9369886826
 30
0.0
 11
162.7785086897
 21
343.9369886826
 31
0.0
  0
LINE
  5
F5
330
1F
100
AcDbEntity
  8
0
  6
Continuous
 62
     7
370
    25
100
AcDbLine
 10
162.7953131329
 20
242.9060247751
 30
0.0
 11
162.7806049963
 21
242.1210992436
 31
0.0
  0
SPLINE
  5
F6
330
1F
100
AcDbEntity
  8
0
  6
Continuous
 62
     7
370
    25
100
AcDbSpline
210
0.0
220
0.0
230
1.0
 70
     8
 71
     3
 72
    13
 73
     9
 74
     0
 42
0.00000001
 43
0.00000001
 40
0.0
 40
0.0
 40
0.0
 40
0.0
 40
0.0590824708507879
 40
0.2695132749569508
 40
0.4756616418907637
 40
0.6753753031426888
 40
0.8768684309125612
 40
1.0
 40
1.0
 40
1.0
 40
1.0
 10
162.8076966393818
 20
142.402120920407
 30
0.0
 10
162.8067790374378
 20
142.3827806792447
 30
0.0
 10
162.8025932628505
 20
142.2945573592134
 30
0.0
 10
162.8332350123491
 20
142.1335535945582
 30
0.0
 10
162.8986374232747
 20
141.9352293313826
 30
0.0
 10
163.0004701578031
 20
141.7577753824029
 30
0.0
 10
163.1094467872359
 20
141.6210842857062
 30
0.0
 10
163.1937050514221
 20
141.5581298096453
 30
0.0
 10
163.2256645800047
 20
141.5342509011904
 30
0.0
  0
SPLINE
  5
F7
330
1F
100
AcDbEntity
  8
0
  6
Continuous
 62
     7
370
    25
100
AcDbSpline
210
0.0
220
0.0
230
1.0
 70
     8
 71
     3
 72
    13
 73
     9
 74
     0
 42
0.00000001
 43
0.00000001
 40
0.0
 40
0.0
 40
0.0
 40
0.0
 40
0.1255465729077471
 40
0.3265022554801373
 40
0.5256755260833331
 40
0.7312586833599612
 40
0.9411068704383438
 40
1.0
 40
1.0
 40
1.0
 40
1.0
 10
198.3285395732393
 20
141.532616282931
 30
0.0
 10
198.3612245000581
 20
141.5570165088899
 30
0.0
 10
198.4462264406081
 20
141.6204728711409
 30
0.0
 10
198.5558374674512
 20
141.7577996089012
 30
0.0
 10
198.6576423732504
 20
141.9352755648699
 30
0.0
 10
198.7230393484778
 20
142.1335778144817
 30
0.0
 10
198.7536716769776
 20
142.2945579215343
 30
0.0
 10
198.7494846079987
 20
142.3827625694578
 30
0.0
 10
198.7485670356695
 20
142.4020921158895
 30
0.0
  0
LINE
  5
F8
330
1F
100
AcDbEntity
  8
0
  6
Continuous
 62
     7
370
    25
100
AcDbLine
 10
198.7756174106
 20
242.1210992438
 30
0.0
 11
198.760909274
 21
242.9060247751
 31
0.0
  0
ARC
  5
F9
330
1F
100
AcDbEntity
  8
0
  6
Continuous
 62
     7
370
    25
100
AcDbCircle
 10
163.7785481251
 20
129.863201034
 30
0.0
 40
1.000000000000015
100
AcDbArc
 50
181.1369087393
 51
270.0
  0
ARC
  5
FA
330
1F
100
AcDbEntity
  8
0
  6
Continuous
 62
     7
370
    25
100
AcDbCircle
 10
197.7785503114
 20
129.863201034
 30
0.0
 40
1.0
100
AcDbArc
 50
270.0
 51
0.0180031277
  0
LINE
  5
FB
330
1F
100
AcDbEntity
  8
0
  6
Continuous
 62
     7
370
    25
100
AcDbLine
 10
163.7785481249
 20
128.863201034
 30
0.0
 11
197.7785503114
 21
128.863201034
 31
0.0
  0
SPLINE
  5
FC
330
1F
100
AcDbEntity
  8
0
  6
Continuous
 62
     7
370
    25
100
AcDbSpline
210
0.0
220
0.0
230
1.0
 70
     8
 71
     3
 72
     9
 73
     5
 74
     0
 42
0.00000001
 43
0.00000001
 40
0.0
 40
0.0
 40
0.0
 40
0.0
 40
0.9052747431389511
 40
1.0
 40
1.0
 40
1.0
 40
1.0
 10
198.778463911013
 20
242.9219096867465
 30
0.0
 10
198.7786852387544
 20
242.9859312628626
 30
0.0
 10
198.7789297255725
 20
243.0566518663052
 30
0.0
 10
198.7592309757401
 20
243.1225724838649
 30
0.0
 10
198.7573650066024
 20
243.1288168312957
 30
0.0
  0
SPLINE
  5
FD
330
1F
100
AcDbEntity
  8
0
  6
Continuous
 62
     7
370
    25
100
AcDbSpline
210
0.0
220
0.0
230
1.0
 70
     8
 71
     3
 72
     9
 73
     5
 74
     0
 42
0.00000001
 43
0.00000001
 40
0.0
 40
0.0
 40
0.0
 40
0.0
 40
0.2952911510910555
 40
1.0
 40
1.0
 40
1.0
 40
1.0
 10
171.788944477596
 20
128.8632010339695
 30
0.0
 10
171.785444863516
 20
128.8499689864219
 30
0.0
 10
171.7735934617146
 20
128.8051588134836
 30
0.0
 10
171.7848337661034
 20
128.7595604730489
 30
0.0
 10
171.7927549080706
 20
128.727426919049
 30
0.0
  0
SPLINE
  5
FE
330
1F
100
AcDbEntity
  8
0
  6
Continuous
 62
     7
370
    25
100
AcDbSpline
210
0.0
220
0.0
230
1.0
 70
     8
 71
     3
 72
     9
 73
     5
 74
     0
 42
0.00000001
 43
0.00000001
 40
0.0
 40
0.0
 40
0.0
 40
0.0
 40
0.0598088471295903
 40
1.0
 40
1.0
 40
1.0
 40
1.0
 10
189.7734093505672
 20
128.6558532974857
 30
0.0
 10
189.7745059382517
 20
128.6607548728024
 30
0.0
 10
189.7928408123896
 20
128.7427088905101
 30
0.0
 10
189.7690011359225
 20
128.8261024125005
 30
0.0
 10
189.7465872830208
 20
128.9045082640825
 30
0.0
  0
LINE
  5
FF
330
1F
100
AcDbEntity
  8
0
  6
Continuous
 62
     7
370
    25
100
AcDbLine
 10
189.7785037054
 20
104.3149915287
 30
0.0
 11
189.7785037054
 21
128.7469996691
 31
0.0
  0
LINE
  5
100
330
1F
100
AcDbEntity
  8
0
  6
Continuous
 62
     7
370
    25
100
AcDbLine
 10
171.7785037054
 20
128.7469996691
 30
0.0
 11
171.7785037054
 21
104.3149915287
 31
0.0
  0
LINE
  5
101
330
1F
100
AcDbEntity
  8
0
  6
Continuous
 62
     7
370
    25
100
AcDbLine
 10
188.5285037054
 20
128.8580882659
 30
0.0
 11
188.5285037054
 21
128.863201034
 31
0.0
  0
LINE
  5
102
330
1F
100
AcDbEntity
  8
0
  6
Continuous
 62
     7
370
    25
100
AcDbLine
 10
173.0285037054
 20
128.863201034
 30
0.0
 11
173.0285037054
 21
128.8580882659
 31
0.0
  0
LINE
  5
103
330
1F
100
AcDbEntity
  8
0
  6
Continuous
 62
     7
370
    25
100
AcDbLine
 10
184.2785037054
 20
128.32875175
 30
0.0
 11
184.2785037054
 21
128.863201034
 31
0.0
  0
LINE
  5
104
330
1F
100
AcDbEntity
  8
0
  6
Continuous
 62
     7
370
    25
100
AcDbLine
 10
177.2785037054
 20
128.863201034
 30
0.0
 11
177.2785037054
 21
128.32875175
 31
0.0
  0
LINE
  5
105
330
1F
100
AcDbEntity
  8
0
  6
Continuous
 62
     7
370
    25
100
AcDbLine
 10
189.7201665987
 20
103.9743328759
 30
0.0
 11
189.7732125646
 21
104.2229229561
 31
0.0
  0
SPLINE
  5
106
330
1F
100
AcDbEntity
  8
0
  6
Continuous
 62
     7
370
    25
100
AcDbSpline
210
0.0
220
0.0
230
1.0
 70
     8
 71
     3
 72
    21
 73
    17
 74
     0
 42
0.00000001
 43
0.00000001
 40
0.0
 40
0.0
 40
0.0
 40
0.0
 40
0.1042691357668654
 40
0.1457215148128027
 40
0.2139832766843799
 40
0.2836177296178089
 40
0.3570716403154965
 40
0.4322705096824614
 40
0.5083938741827501
 40
0.5848186726682066
 40
0.6611816004186102
 40
0.737347706084382
 40
0.813429358236443
 40
0.8895169226258873
 40
0.9655194841853747
 40
1.0
 40
1.0
 40
1.0
 40
1.0
 10
180.7785037054149
 20
100.9078203104349
 30
0.0
 10
181.2336532451927
 20
100.9145061269063
 30
0.0
 10
181.8697482882269
 20
100.9238499015219
 30
0.0
 10
182.7869963160421
 20
100.985241038861
 30
0.0
 10
183.5426700612443
 20
101.0567021986522
 30
0.0
 10
184.4037330991461
 20
101.1728700172361
 30
0.0
 10
185.2523530081676
 20
101.3250537023178
 30
0.0
 10
186.0725681999863
 20
101.5148669919367
 30
0.0
 10
186.8388684482232
 20
101.7394212235455
 30
0.0
 10
187.5350052681485
 20
101.9959810344627
 30
0.0
 10
188.1504010973042
 20
102.2821007240169
 30
0.0
 10
188.6783194803578
 20
102.597219038102
 30
0.0
 10
189.1182032044811
 20
102.9430326466653
 30
0.0
 10
189.4548813103442
 20
103.3275763862625
 30
0.0
 10
189.668837546796
 20
103.6746439724819
 30
0.0
 10
189.7079576561243
 20
103.9030499576048
 30
0.0
 10
189.7201665987101
 20
103.9743328759427
 30
0.0
  0
SPLINE
  5
107
330
1F
100
AcDbEntity
  8
0
  6
Continuous
 62
     7
370
    25
100
AcDbSpline
210
0.0
220
0.0
230
1.0
 70
     8
 71
     3
 72
    20
 73
    16
 74
     0
 42
0.00000001
 43
0.00000001
 40
0.0
 40
0.0
 40
0.0
 40
0.0
 40
0.0717018191513968
 40
0.1520700249811195
 40
0.234443664052214
 40
0.3145034525833347
 40
0.3929152032081734
 40
0.4719890215865777
 40
0.5514957523233625
 40
0.6305494217644718
 40
0.7074720435960482
 40
0.7891171493750784
 40
0.849398481185615
 40
0.9044137484196535
 40
1.0
 40
1.0
 40
1.0
 40
1.0
 10
171.7882844252209
 20
104.3303257788032
 30
0.0
 10
171.7977296635937
 20
104.1711909049438
 30
0.0
 10
171.8177617583482
 20
103.8336869959833
 30
0.0
 10
172.0702561155508
 20
103.3592493383032
 30
0.0
 10
172.450765779919
 20
102.9272229708627
 30
0.0
 10
172.9515067332472
 20
102.5452763038826
 30
0.0
 10
173.5519233089315
 20
102.2059075928395
 30
0.0
 10
174.2528274022293
 20
101.9022130281434
 30
0.0
 10
175.0505736866925
 20
101.6337282021264
 30
0.0
 10
175.9254395964279
 20
101.4054803809056
 30
0.0
 10
176.8799354759695
 20
101.2152687252466
 30
0.0
 10
177.814212427236
 20
101.0794426898788
 30
0.0
 10
178.6872039388187
 20
100.9914054330097
 30
0.0
 10
179.6423299711133
 20
100.9243429604622
 30
0.0
 10
180.3373664863248
 20
100.9142354876785
 30
0.0
 10
180.7785037054149
 20
100.9078203104349
 30
0.0
  0
LINE
  5
108
330
1F
100
AcDbEntity
  8
0
  6
Continuous
 62
     7
370
    25
100
AcDbLine
 10
183.7785037054
 20
265.3755855227
 30
0.0
 11
183.7785037054
 21
252.3755855227
 31
0.0
  0
LINE
  5
109
330
1F
100
AcDbEntity
  8
0
  6
Continuous
 62
     7
370
    25
100
AcDbLine
 10
187.7785037054
 20
252.3755855227
 30
0.0
 11
187.7785037054
 21
265.3755855227
 31
0.0
  0
LINE
  5
10A
330
1F
100
AcDbEntity
  8
0
  6
Continuous
 62
     7
370
    25
100
AcDbLine
 10
187.7785037054
 20
248.6168150396
 30
0.0
 11
187.7785037054
 21
252.3755855227
 31
0.0
  0
LINE
  5
10B
330
1F
100
AcDbEntity
  8
0
  6
Continuous
 62
     7
370
    25
100
AcDbLine
 10
183.7785037054
 20
252.3755855227
 30
0.0
 11
183.7785037054
 21
248.6168150396
 31
0.0
  0
LINE
  5
10C
330
1F
100
AcDbEntity
  8
0
  6
Continuous
 62
     7
370
    25
100
AcDbLine
 10
183.7785037054
 20
248.6168150396
 30
0.0
 11
183.7785037054
 21
243.9548972621
 31
0.0
  0
LINE
  5
10D
330
1F
100
AcDbEntity
  8
0
  6
Continuous
 62
     7
370
    25
100
AcDbLine
 10
187.7785037054
 20
243.9548972621
 30
0.0
 11
187.7785037054
 21
248.6168150396
 31
0.0
  0
ARC
  5
10E
330
1F
100
AcDbEntity
  8
0
  6
Continuous
 62
     7
370
    18
100
AcDbCircle
 10
163.5495879929
 20
307.1932315299
 30
0.0
 40
64.2910866590902
100
AcDbArc
 50
269.3124744848
 51
270.2291653905
  0
SPLINE
  5
10F
330
1F
100
AcDbEntity
  8
0
  6
Continuous
 62
     7
370
    18
100
AcDbSpline
210
0.0
220
0.0
230
1.0
 70
     8
 71
     3
 72
    23
 73
    19
 74
     0
 42
0.00000001
 43
0.00000001
 40
0.0
 40
0.0
 40
0.0
 40
0.0
 40
1.736884773864148
 40
3.473769547728295
 40
5.210654321592443
 40
6.947539095456591
 40
8.684423869320739
 40
10.42130864318489
 40
12.15819341704903
 40
13.89507819091318
 40
15.63196296477733
 40
17.36884773864148
 40
19.10573251250563
 40
20.84261728636977
 40
52.39352589075726
 40
83.94443449514475
 40
92.75701556081138
 40
101.569596626478
 40
101.569596626478
 40
101.569596626478
 40
101.569596626478
 10
163.8066968363299
 20
242.9026591192392
 30
0.0
 10
163.8066966843625
 20
242.3314476400403
 30
0.0
 10
163.8066963562188
 20
241.1886318230714
 30
0.0
 10
163.806695828516
 20
239.4767521689806
 30
0.0
 10
163.806695302491
 20
237.7642700632042
 30
0.0
 10
163.8066948152865
 20
236.0520004786681
 30
0.0
 10
163.8066944040621
 20
234.3397452248289
 30
0.0
 10
163.8066941059632
 20
232.627591764773
 30
0.0
 10
163.8066939581477
 20
230.9154939523497
 30
0.0
 10
163.8066939977644
 20
229.2036504146653
 30
0.0
 10
163.8066942619709
 20
227.4914102363569
 30
0.0
 10
163.8066947879133
 20
225.7790998175042
 30
0.0
 10
163.806695612745
 20
224.0668049371682
 30
0.0
 10
163.8067034158738
 20
212.5588024579156
 30
0.0
 10
163.8067623614661
 20
191.1531462918966
 30
0.0
 10
163.8067910709413
 20
167.4947111817553
 30
0.0
 10
163.8067376998648
 20
151.2589770021995
 30
0.0
 10
163.8067110572309
 20
145.4417658928567
 30
0.0
 10
163.8066968352459
 20
142.532798692297
 30
0.0
  0
SPLINE
  5
110
330
1F
100
AcDbEntity
  8
0
  6
Continuous
 62
     7
370
    18
100
AcDbSpline
210
0.0
220
0.0
230
1.0
 70
     8
 71
     3
 72
    10
 73
     6
 74
     0
 42
0.00000001
 43
0.00000001
 40
0.0
 40
0.0
 40
0.0
 40
0.0
 40
0.5
 40
0.5
 40
1.0
 40
1.0
 40
1.0
 40
1.0
 10
163.1461375598757
 20
142.4937470162969
 30
0.0
 10
163.2432383339019
 20
142.5069759772757
 30
0.0
 10
163.3547327516765
 20
142.5170591180236
 30
0.0
 10
163.5825180852133
 20
142.5299503658387
 30
0.0
 10
163.698394913886
 20
142.5327986923484
 30
0.0
 10
163.8067317620358
 20
142.532798692297
 30
0.0
  0
SPLINE
  5
111
330
1F
100
AcDbEntity
  8
0
  6
Continuous
 62
     7
370
    18
100
AcDbSpline
210
0.0
220
0.0
230
1.0
 70
     8
 71
     3
 72
     8
 73
     4
 74
     0
 42
0.00000001
 43
0.00000001
 40
0.0
 40
0.0
 40
0.0
 40
0.0
 40
1.0
 40
1.0
 40
1.0
 40
1.0
 10
162.7781402162716
 20
242.9067734525094
 30
0.0
 10
162.8830449362659
 20
209.4293459245019
 30
0.0
 10
163.0027036530197
 20
175.95678326039
 30
0.0
 10
163.1461375598757
 20
142.4937470162969
 30
0.0
  0
LINE
  5
112
330
1F
100
AcDbEntity
  8
0
  6
Continuous
 62
     7
370
    18
100
AcDbLine
 10
180.7781112035
 20
142.5328470607
 30
0.0
 11
197.7494557163
 21
142.5328470602
 31
0.0
  0
LINE
  5
113
330
1F
100
AcDbEntity
  8
0
  6
Continuous
 62
     7
370
    18
100
AcDbLine
 10
163.8066968352
 20
142.5328470602
 30
0.0
 11
180.7781112035
 21
142.5328470607
 31
0.0
  0
LINE
  5
114
330
1F
100
AcDbEntity
  8
0
  6
Continuous
 62
     7
370
    18
100
AcDbLine
 10
180.7781112036
 20
242.9026591192
 30
0.0
 11
163.8066968363
 21
242.9026591192
 31
0.0
  0
LINE
  5
115
330
1F
100
AcDbEntity
  8
0
  6
Continuous
 62
     7
370
    18
100
AcDbLine
 10
197.7494557165
 20
242.9026591192
 30
0.0
 11
180.7781112036
 21
242.9026591192
 31
0.0
  0
LINE
  5
116
330
1F
100
AcDbEntity
  8
0
  6
Continuous
 62
     7
370
    18
100
AcDbLine
 10
197.7494557163
 20
142.5327986923
 30
0.0
 11
197.7494557165
 21
242.9026591192
 31
0.0
  0
SPLINE
  5
117
330
1F
100
AcDbEntity
  8
0
  6
Continuous
 62
     7
370
    25
100
AcDbSpline
210
0.0
220
0.0
230
1.0
 70
     8
 71
     3
 72
     9
 73
     5
 74
     0
 42
0.00000001
 43
0.00000001
 40
0.0
 40
0.0
 40
0.0
 40
0.0
 40
0.9129139648749639
 40
1.0
 40
1.0
 40
1.0
 40
1.0
 10
162.7781402162717
 20
142.3655463235633
 30
0.0
 10
162.7786880564969
 20
142.3770140015739
 30
0.0
 10
162.7792881571046
 20
142.3895756212355
 30
0.0
 10
162.8032886489005
 20
142.4013405569966
 30
0.0
 10
162.8053787565721
 20
142.4023651186055
 30
0.0
  0
SPLINE
  5
118
330
1F
100
AcDbEntity
  8
0
  6
Continuous
 62
     7
370
    18
100
AcDbSpline
210
0.0
220
0.0
230
1.0
 70
     8
 71
     3
 72
    16
 73
    12
 74
     0
 42
0.00000001
 43
0.00000001
 40
0.0
 40
0.0
 40
0.0
 40
0.0
 40
0.1445578844925944
 40
0.2820183326617499
 40
0.4115521941843632
 40
0.5325416620284534
 40
0.6445656509225145
 40
0.7473756175406465
 40
0.8408661968057193
 40
0.9250443774193348
 40
1.0
 40
1.0
 40
1.0
 40
1.0
 10
198.4102313011298
 20
142.4937754277284
 30
0.0
 10
198.3830843697549
 20
142.4972818428903
 30
0.0
 10
198.3301233545181
 20
142.5041225168601
 30
0.0
 10
198.2456829807122
 20
142.5126047169908
 30
0.0
 10
198.1623499086705
 20
142.5194286279475
 30
0.0
 10
198.0813554904188
 20
142.5245917421441
 30
0.0
 10
198.0042668653306
 20
142.5282781523337
 30
0.0
 10
197.9321312867652
 20
142.5307011718596
 30
0.0
 10
197.8657091556794
 20
142.5320981739223
 30
0.0
 10
197.8054702640738
 20
142.5327608084407
 30
0.0
 10
197.7674153640381
 20
142.532819442589
 30
0.0
 10
197.7494906449203
 20
142.5328470605997
 30
0.0
  0
LINE
  5
119
330
1F
100
AcDbEntity
  8
0
  6
Continuous
 62
     7
370
    18
100
AcDbLine
 10
198.776086662
 20
242.3622666092
 30
0.0
 11
198.4100848471
 21
142.4937470163
 31
0.0
  0
SPLINE
  5
11A
330
1F
100
AcDbEntity
  8
0
  6
Continuous
 62
     7
370
    18
100
AcDbSpline
210
0.0
220
0.0
230
1.0
 70
     8
 71
     3
 72
    20
 73
    16
 74
     0
 42
0.00000001
 43
0.00000001
 40
0.0
 40
0.0
 40
0.0
 40
0.0
 40
0.2500000000000048
 40
0.2500000000000048
 40
0.5000000000000097
 40
0.5000000000000097
 40
0.7500000000000144
 40
0.7500000000000144
 40
0.8750000000000192
 40
0.8750000000000192
 40
0.9375000000000084
 40
0.9375000000000084
 40
0.9687500000000043
 40
0.9687500000000043
 40
1.0
 40
1.0
 40
1.0
 40
1.0
 10
197.749490643057
 20
242.9026591192404
 30
0.0
 10
197.8707113192522
 20
242.9026591192464
 30
0.0
 10
198.0014932669071
 20
242.9027474899414
 30
0.0
 10
198.2547262318744
 20
242.9031484972272
 30
0.0
 10
198.376392203963
 20
242.9034624928044
 30
0.0
 10
198.5772371964184
 20
242.9042658663473
 30
0.0
 10
198.6557367181439
 20
242.9047525263402
 30
0.0
 10
198.7309261843052
 20
242.905512219152
 30
0.0
 10
198.7491263947522
 20
242.9057700844422
 30
0.0
 10
198.7668021505277
 20
242.906152151595
 30
0.0
 10
198.7711016015213
 20
242.9062787409187
 30
0.0
 10
198.7753313622835
 20
242.9064662716562
 30
0.0
 10
198.7763718685548
 20
242.9065283917769
 30
0.0
 10
198.7777472714638
 20
242.9066516772828
 30
0.0
 10
198.7780821888212
 20
242.9067061318964
 30
0.0
 10
198.7780821888212
 20
242.9067734525093
 30
0.0
  0
LINE
  5
11B
330
1F
100
AcDbEntity
  8
0
  6
Continuous
 62
     7
370
    25
100
AcDbLine
 10
162.7781402181
 20
242.7979853764
 30
0.0
 11
162.7781402181
 21
142.3655463236
 31
0.0
  0
LINE
  5
11C
330
1F
100
AcDbEntity
  8
0
  6
Continuous
 62
     7
370
    25
100
AcDbLine
 10
162.7781402163
 20
242.9075233974
 30
0.0
 11
162.7781402163
 21
242.914773388
 31
0.0
  0
LINE
  5
11D
330
1F
100
AcDbEntity
  8
0
  6
Continuous
 62
     7
370
    25
100
AcDbLine
 10
198.7780821888
 20
242.9067734525
 30
0.0
 11
198.7780821888
 21
242.9127783995
 31
0.0
  0
LINE
  5
11E
330
1F
100
AcDbEntity
  8
0
  6
Continuous
 62
     7
370
    25
100
AcDbLine
 10
198.7780821888
 20
242.6884673552
 30
0.0
 11
198.7780821888
 21
142.3655463236
 31
0.0
  0
LINE
  5
11F
330
1F
100
AcDbEntity
  8
0
  6
Continuous
 62
     7
370
    25
100
AcDbLine
 10
163.8067513565
 20
141.0242309461
 30
0.0
 11
197.7493782199
 21
141.0242582265
 31
0.0
  0
SPLINE
  5
120
330
1F
100
AcDbEntity
  8
0
  6
Continuous
 62
     7
370
    25
100
AcDbSpline
210
0.0
220
0.0
230
1.0
 70
     8
 71
     3
 72
    14
 73
    10
 74
     0
 42
0.00000001
 43
0.00000001
 40
0.0
 40
0.0
 40
0.0
 40
0.0
 40
0.25
 40
0.25
 40
0.5
 40
0.5
 40
0.75
 40
0.75
 40
1.0
 40
1.0
 40
1.0
 40
1.0
 10
197.7493782179704
 20
141.0242582326474
 30
0.0
 10
197.8840428816132
 20
141.0238653459507
 30
0.0
 10
198.018657452516
 20
141.0498965386298
 30
0.0
 10
198.2674898546791
 20
141.1508251735869
 30
0.0
 10
198.3816097162423
 20
141.2256825805477
 30
0.0
 10
198.5720503024002
 20
141.4128398765037
 30
0.0
 10
198.6482960471837
 20
141.5250657804401
 30
0.0
 10
198.7513424640684
 20
141.7698341564436
 30
0.0
 10
198.7781025649813
 20
141.9022799609555
 30
0.0
 10
198.7780821770591
 20
142.034774079158
 30
0.0
  0
LINE
  5
121
330
1F
100
AcDbEntity
  8
0
  6
Continuous
 62
     7
370
    25
100
AcDbLine
 10
198.7780821888
 20
142.3655946938
 30
0.0
 11
198.7780821888
 21
142.0330118645
 31
0.0
  0
SPLINE
  5
122
330
1F
100
AcDbEntity
  8
0
  6
Continuous
 62
     7
370
    25
100
AcDbSpline
210
0.0
220
0.0
230
1.0
 70
     8
 71
     3
 72
    14
 73
    10
 74
     0
 42
0.00000001
 43
0.00000001
 40
0.0
 40
0.0
 40
0.0
 40
0.0
 40
0.25
 40
0.25
 40
0.5
 40
0.5
 40
0.75
 40
0.75
 40
1.0
 40
1.0
 40
1.0
 40
1.0
 10
162.7781402345195
 20
142.0348503638434
 30
0.0
 10
162.7781161738438
 20
141.9023552488933
 30
0.0
 10
162.8048704301127
 20
141.7699077167023
 30
0.0
 10
162.907902011213
 20
141.5251321615529
 30
0.0
 10
162.9841387771766
 20
141.4129007885568
 30
0.0
 10
163.1745605382322
 20
141.2257273365102
 30
0.0
 10
163.2886705729001
 20
141.1508592320827
 30
0.0
 10
163.5374853222545
 20
141.0499037340502
 30
0.0
 10
163.6720920898417
 20
141.0238563749642
 30
0.0
 10
163.806751356607
 20
141.0242309463931
 30
0.0
  0
LINE
  5
123
330
1F
100
AcDbEntity
  8
0
  6
Continuous
 62
     7
370
    25
100
AcDbLine
 10
162.7781402181
 20
142.0330118645
 30
0.0
 11
162.7781402181
 21
142.3655946938
 31
0.0
  0
LINE
  5
124
330
1F
100
AcDbEntity
  8
0
  6
Continuous
 62
     7
370
    25
100
AcDbLine
 10
163.8067317639
 20
243.9548972621
 30
0.0
 11
197.7494906423
 21
243.9548972621
 31
0.0
  0
SPLINE
  5
125
330
1F
100
AcDbEntity
  8
0
  6
Continuous
 62
     7
370
    25
100
AcDbSpline
210
0.0
220
0.0
230
1.0
 70
     8
 71
     3
 72
    12
 73
     8
 74
     0
 42
0.00000001
 43
0.00000001
 40
0.0
 40
0.0
 40
0.0
 40
0.0
 40
0.4999999999999869
 40
0.4999999999999869
 40
0.7499999999999934
 40
0.7499999999999934
 40
1.0
 40
1.0
 40
1.0
 40
1.0
 10
163.5410187421443
 20
243.919997839438
 30
0.0
 10
163.3306008262278
 20
243.8633076416977
 30
0.0
 10
163.1388856859899
 20
243.7382730652692
 30
0.0
 10
162.9328810616047
 20
243.4785238905075
 30
0.0
 10
162.8772047666661
 20
243.3799689163251
 30
0.0
 10
162.7993940301088
 20
243.1622463971143
 30
0.0
 10
162.7781415181608
 20
243.0454066536736
 30
0.0
 10
162.7781402181749
 20
242.924136470083
 30
0.0
  0
ELLIPSE
  5
126
330
1F
100
AcDbEntity
  8
0
  6
Continuous
 62
     7
370
    25
100
AcDbEllipse
 10
163.8067317635
 20
242.9267041572
 30
0.0
 11
1.028591545345307
 21
-2.057674919342389E-9
 31
0.0
210
0.0
220
0.0
230
1.0
 40
0.9996126348
 41
1.570796328383827
 42
1.832086402291958
  0
SPLINE
  5
127
330
1F
100
AcDbEntity
  8
0
  6
Continuous
 62
     7
370
    25
100
AcDbSpline
210
0.0
220
0.0
230
1.0
 70
     8
 71
     3
 72
    10
 73
     6
 74
     0
 42
0.00000001
 43
0.00000001
 40
0.0
 40
0.0
 40
0.0
 40
0.0
 40
0.5
 40
0.5
 40
1.0
 40
1.0
 40
1.0
 40
1.0
 10
198.7780820540869
 20
242.9246518227085
 30
0.0
 10
198.7779592260677
 20
243.1647780366447
 30
0.0
 10
198.6917244951735
 20
243.3925281815106
 30
0.0
 10
198.4167966031189
 20
243.7387245644691
 30
0.0
 10
198.2246863617482
 20
243.8635935877388
 30
0.0
 10
198.0150518203644
 20
243.9200384150007
 30
0.0
  0
ELLIPSE
  5
128
330
1F
100
AcDbEntity
  8
0
  6
Continuous
 62
     7
370
    25
100
AcDbEllipse
 10
197.7494906435
 20
242.9267041572
 30
0.0
 11
1.028591545345307
 21
2.057646497632959E-9
 31
0.0
210
0.0
220
0.0
230
1.0
 40
0.9996126348
 41
1.309659058651271
 42
1.570796325925357
  0
LINE
  5
129
330
1F
100
AcDbEntity
  8
0
  6
Continuous
 62
     7
370
    25
100
AcDbLine
 10
162.7785481251
 20
129.863201034
 30
0.0
 11
162.7785481251
 21
142.0328312387
 31
0.0
  0
LINE
  5
12A
330
1F
100
AcDbEntity
  8
0
  6
Continuous
 62
     7
370
    25
100
AcDbLine
 10
198.7785503114
 20
129.863201034
 30
0.0
 11
198.7785503114
 21
142.2560093026
 31
0.0
  0
LWPOLYLINE
  5
12B
330
1F
100
AcDbEntity
  8
0
  6
Continuous
 62
     7
370
    25
100
AcDbPolyline
 90
        3
 70
   128
 43
0.0
 10
162.778548125
 20
242.9350540302
 10
162.797762846
 20
243.1301443591
 10
162.8530381166
 20
243.3137771809
  0
LINE
  5
12C
330
1F
100
AcDbEntity
  8
0
  6
Continuous
 62
     7
370
    25
100
AcDbLine
 10
162.7785481612
 20
133.5026859587
 30
0.0
 11
162.7785481402
 21
133.5029039312
 31
0.0
  0
LWPOLYLINE
  5
12D
330
1F
100
AcDbEntity
  8
0
  6
Continuous
 62
     7
370
    25
100
AcDbPolyline
 90
       23
 70
   128
 43
0.0
 10
189.7720886355
 20
128.863201034
 10
189.7785037054
 20
128.7469996691
 10
189.6676987708
 20
128.2654660258
 10
189.3380123521
 20
127.7957893388
 10
188.7975624231
 20
127.349534607
 10
188.0596566548
 20
126.937690103
 10
187.1424647361
 20
126.5703968053
 10
186.068570976
 20
126.2566986938
 10
184.8644182031
 20
126.0043200572
 10
183.5596566548
 20
125.819475295
 10
182.1864138908
 20
125.7067158988
 10
180.7785037054
 20
125.6688183792
 10
179.3705935201
 20
125.7067158988
 10
177.997350756
 20
125.819475295
 10
176.6925892078
 20
126.0043200572
 10
175.4884364348
 20
126.2566986938
 10
174.4145426747
 20
126.5703968053
 10
173.497350756
 20
126.937690103
 10
172.7594449877
 20
127.349534607
 10
172.2189950588
 20
127.7957893388
 10
171.8893086401
 20
128.2654660257
 10
171.7785037054
 20
128.7469996691
 10
171.7849187753
 20
128.863201034
  0
LWPOLYLINE
  5
12E
330
1F
100
AcDbEntity
  8
0
  6
Continuous
 62
     7
370
    25
100
AcDbPolyline
 90
       21
 70
   128
 43
0.0
 10
171.7785037054
 20
104.3149915287
 10
171.8893086401
 20
103.8334578853
 10
172.2189950588
 20
103.3637811983
 10
172.7594449877
 20
102.9175264666
 10
173.497350756
 20
102.5056819626
 10
174.4145426747
 20
102.1383886649
 10
175.4884364348
 20
101.8246905534
 10
176.6925892078
 20
101.5723119167
 10
177.997350756
 20
101.3874671546
 10
179.3705935201
 20
101.2747077584
 10
180.7785037054
 20
101.2368102388
 10
182.1864138908
 20
101.2747077584
 10
183.5596566548
 20
101.3874671546
 10
184.8644182031
 20
101.5723119167
 10
186.068570976
 20
101.8246905534
 10
187.1424647361
 20
102.1383886649
 10
188.0596566548
 20
102.5056819626
 10
188.7975624231
 20
102.9175264666
 10
189.3380123521
 20
103.3637811983
 10
189.6676987708
 20
103.8334578853
 10
189.7785037054
 20
104.3149915287
  0
LWPOLYLINE
  5
12F
330
1F
100
AcDbEntity
  8
0
  6
Continuous
 62
     7
370
    25
100
AcDbPolyline
 90
       20
 70
   128
 43
0.0
 10
188.7503215821
 20
128.863201034
 10
188.707462944
 20
128.7643159528
 10
188.3815456442
 20
128.3241297656
 10
187.84823718
 20
127.9082945495
 10
187.122084816
 20
127.5281532053
 10
186.2228960959
 20
127.1940749979
 10
185.1751985437
 20
126.9151727099
 10
184.0075706177
 20
126.6990540687
 10
182.7518621639
 20
126.5516142274
 10
181.4423256355
 20
126.4768749606
 10
180.1146817753
 20
126.4768749606
 10
178.8051452469
 20
126.5516142274
 10
177.5494367931
 20
126.6990540687
 10
176.3818088671
 20
126.9151727099
 10
175.334111315
 20
127.1940749979
 10
174.4349225948
 20
127.5281532053
 10
173.7087702308
 20
127.9082945495
 10
173.1754617666
 20
128.3241297656
 10
172.8495444668
 20
128.7643159528
 10
172.8066858287
 20
128.863201034
  0
LINE
  5
130
330
1F
100
AcDbEntity
  8
0
  6
Continuous
 62
     7
370
    25
100
AcDbLine
 10
172.9650790517
 20
128.850360413
 30
0.0
 11
173.0471930645
 21
128.4639471821
 31
0.0
  0
LWPOLYLINE
  5
131
330
1F
100
AcDbEntity
  8
0
  6
Continuous
 62
     7
370
    25
100
AcDbPolyline
 90
        3
 70
   128
 43
0.0
 10
188.5098143461
 20
128.4639471816
 10
188.5637804073
 20
128.6237294177
 10
188.5918381606
 20
128.863201034
  0
LWPOLYLINE
  5
132
330
1F
100
AcDbEntity
  8
0
  6
Continuous
 62
     7
370
    25
100
AcDbPolyline
 90
        3
 70
   128
 43
0.0
 10
188.5285037054
 20
128.8580882659
 10
188.4232640038
 20
128.422748886
 10
188.3513665995
 20
128.294610979
  0
LWPOLYLINE
  5
133
330
1F
100
AcDbEntity
  8
0
  6
Continuous
 62
     7
370
    25
100
AcDbPolyline
 90
        3
 70
   128
 43
0.0
 10
173.205640811
 20
128.2946109794
 10
173.0575557473
 20
128.6287912103
 10
173.0285037054
 20
128.8580882659
  0
ARC
  5
134
330
1F
100
AcDbEntity
  8
0
  6
Continuous
 62
     7
370
    25
100
AcDbCircle
 10
180.7785037054
 20
140.1812330238
 30
0.0
 40
12.3301145005216
100
AcDbArc
 50
246.6235568844
 51
293.3764431156
  0
LINE
  5
135
330
1F
100
AcDbEntity
  8
0
  6
Continuous
 62
     7
370
    25
100
AcDbLine
 10
183.7785037054
 20
265.3755855227
 30
0.0
 11
187.7785037054
 21
265.3755855227
 31
0.0
  0
LINE
  5
136
330
1F
100
AcDbEntity
  8
0
  6
Continuous
 62
     7
370
    25
100
AcDbLine
 10
162.7785082199
 20
242.9350537965
 30
0.0
 11
162.7785082208
 21
242.9067655602
 31
0.0
  0
LINE
  5
137
330
1F
100
AcDbEntity
  8
0
  6
Continuous
 62
     7
370
    25
100
AcDbLine
 10
157.6785037152
 20
250.0350530272
 30
0.0
 11
183.7785037054
 21
250.0350530272
 31
0.0
  0
LINE
  5
138
330
1F
100
AcDbEntity
  8
0
  6
Continuous
 62
     7
370
    25
100
AcDbLine
 10
187.7785037054
 20
250.0350530272
 30
0.0
 11
203.8785037152
 21
250.0350530272
 31
0.0
  0
ARC
  5
139
330
1F
100
AcDbEntity
  8
0
  6
Continuous
 62
     7
370
    25
100
AcDbCircle
 10
157.6785037152
 20
249.0350530272
 30
0.0
 40
1.0
100
AcDbArc
 50
90.0
 51
180.0
  0
LINE
  5
13A
330
1F
100
AcDbEntity
  8
0
  6
Continuous
 62
     7
370
    25
100
AcDbLine
 10
156.6785037152
 20
202.835053027
 30
0.0
 11
156.6785037152
 21
249.0350530272
 31
0.0
  0
ARC
  5
13B
330
1F
100
AcDbEntity
  8
0
  6
Continuous
 62
     7
370
    25
100
AcDbCircle
 10
203.8785037152
 20
249.0350530272
 30
0.0
 40
1.0
100
AcDbArc
 50
0.0
 51
90.0
  0
ARC
  5
13C
330
1F
100
AcDbEntity
  8
0
  6
Continuous
 62
     7
370
    25
100
AcDbCircle
 10
157.6785037152
 20
202.835053027
 30
0.0
 40
1.0
100
AcDbArc
 50
180.0
 51
270.0
  0
LINE
  5
13D
330
1F
100
AcDbEntity
  8
0
  6
Continuous
 62
     7
370
    25
100
AcDbLine
 10
203.8785037152
 20
201.835053027
 30
0.0
 11
198.7785503114
 21
201.835053027
 31
0.0
  0
LINE
  5
13E
330
1F
100
AcDbEntity
  8
0
  6
Continuous
 62
     7
370
    25
100
AcDbLine
 10
162.7781402181
 20
201.835053027
 30
0.0
 11
157.6785037152
 21
201.835053027
 31
0.0
  0
LINE
  5
13F
330
1F
100
AcDbEntity
  8
0
  6
Continuous
 62
     7
370
    25
100
AcDbLine
 10
204.8785037152
 20
249.0350530272
 30
0.0
 11
204.8785037152
 21
202.835053027
 31
0.0
  0
ARC
  5
140
330
1F
100
AcDbEntity
  8
0
  6
Continuous
 62
     7
370
    25
100
AcDbCircle
 10
203.8785037152
 20
202.835053027
 30
0.0
 40
1.000000000000028
100
AcDbArc
 50
270.0
 51
0.0
  0
LINE
  5
141
330
1F
100
AcDbEntity
  8
0
  6
Continuous
 62
     8
370
    18
100
AcDbLine
 10
163.8067317639
 20
142.5328470616
 30
0.0
 11
163.8067317639
 21
141.350692132
 31
0.0
  0
LINE
  5
142
330
1F
100
AcDbEntity
  8
0
  6
Continuous
 62
     8
370
    18
100
AcDbLine
 10
180.7781112035
 20
141.3506921295
 30
0.0
 11
180.7781112035
 21
142.5328470613
 31
0.0
  0
LINE
  5
143
330
1F
100
AcDbEntity
  8
0
  6
Continuous
 62
     8
370
    18
100
AcDbLine
 10
163.8067317631
 20
141.3506921306
 30
0.0
 11
180.7781112035
 21
141.3506921295
 31
0.0
  0
SPLINE
  5
144
330
1F
100
AcDbEntity
  8
0
  6
Continuous
 62
     8
370
    18
100
AcDbSpline
210
0.0
220
0.0
230
1.0
 70
     8
 71
     3
 72
    10
 73
     6
 74
     0
 42
0.00000001
 43
0.00000001
 40
0.0
 40
0.0
 40
0.0
 40
0.0
 40
0.3024767208865352
 40
0.6484701272787041
 40
1.0
 40
1.0
 40
1.0
 40
1.0
 10
162.8053787565721
 20
142.4023651186055
 30
0.0
 10
162.8233810962975
 20
142.4129462687653
 30
0.0
 10
162.8619757342546
 20
142.4356308567586
 30
0.0
 10
162.9773340350236
 20
142.4673353890985
 30
0.0
 10
163.0895727599869
 20
142.484896677369
 30
0.0
 10
163.1461375598756
 20
142.4937470162973
 30
0.0
  0
ARC
  5
145
330
1F
100
AcDbEntity
  8
0
  6
Continuous
 62
     8
370
    18
100
AcDbCircle
 10
163.7999328176
 20
142.3724853429
 30
0.0
 40
1.021815833324248
100
AcDbArc
 50
180.3863789842
 51
270.3812367639
  0
LINE
  5
146
330
1F
100
AcDbEntity
  8
0
  6
Continuous
 62
     8
370
    18
100
AcDbLine
 10
197.7494906431
 20
141.3506921326
 30
0.0
 11
197.7494906431
 21
142.532847062
 31
0.0
  0
SPLINE
  5
147
330
1F
100
AcDbEntity
  8
0
  6
Continuous
 62
     8
370
    18
100
AcDbSpline
210
0.0
220
0.0
230
1.0
 70
     8
 71
     3
 72
    13
 73
     9
 74
     0
 42
0.00000001
 43
0.00000001
 40
0.0
 40
0.0
 40
0.0
 40
0.0
 40
0.1022359318076848
 40
0.231118862351553
 40
0.3868899204360858
 40
0.5687097487423762
 40
0.774102356361266
 40
0.9999999999999999
 40
0.9999999999999999
 40
0.9999999999999999
 40
0.9999999999999999
 10
198.7780821455361
 20
142.3655463235653
 30
0.0
 10
198.7772890432916
 20
142.3703950283435
 30
0.0
 10
198.7754961228845
 20
142.3813562150066
 30
0.0
 10
198.7580620461946
 20
142.3990246091795
 30
0.0
 10
198.7210848824466
 20
142.4204776395731
 30
0.0
 10
198.6546701129566
 20
142.4448424096578
 30
0.0
 10
198.5539898414894
 20
142.4710771640991
 30
0.0
 10
198.4596459598177
 20
142.4859732690028
 30
0.0
 10
198.4102313011298
 20
142.4937754277284
 30
0.0
  0
ARC
  5
148
330
1F
100
AcDbEntity
  8
0
  6
Continuous
 62
     8
370
    18
100
AcDbCircle
 10
197.7562895894
 20
142.3724853439
 30
0.0
 40
1.021815833320014
100
AcDbArc
 50
269.6187632359
 51
359.6136210311
  0
LINE
  5
149
330
1F
100
AcDbEntity
  8
0
  6
Continuous
 62
     8
370
    18
100
AcDbLine
 10
180.7781112035
 20
141.350692129
 30
0.0
 11
197.7494906438
 21
141.3506921585
 31
0.0
  0
LINE
  5
14A
330
1F
100
AcDbEntity
  8
0
  6
Continuous
 62
     8
370
    18
100
AcDbLine
 10
162.7781402163
 20
242.9067734525
 30
0.0
 11
162.7781402163
 21
242.9075233974
 31
0.0
  0
LINE
  5
14B
330
1F
100
AcDbEntity
  8
0
  6
Continuous
 62
     8
370
    18
100
AcDbLine
 10
163.8067317639
 20
141.3506921292
 30
0.0
 11
163.8067317639
 21
141.0244139755
 31
0.0
  0
LINE
  5
14C
330
1F
100
AcDbEntity
  8
0
  6
Continuous
 62
     8
370
    18
100
AcDbLine
 10
197.7494906431
 20
141.0244139755
 30
0.0
 11
197.7494906431
 21
141.3506921297
 31
0.0
  0
SPLINE
  5
14D
330
1F
100
AcDbEntity
  8
0
  6
Continuous
 62
     8
370
    18
100
AcDbSpline
210
0.0
220
0.0
230
1.0
 70
     8
 71
     3
 72
    14
 73
    10
 74
     0
 42
0.00000001
 43
0.00000001
 40
0.0
 40
0.0
 40
0.0
 40
0.0
 40
0.25
 40
0.25
 40
0.5
 40
0.5
 40
0.75
 40
0.75
 40
1.0
 40
1.0
 40
1.0
 40
1.0
 10
162.7781402192709
 20
242.9147733880444
 30
0.0
 10
162.7781337338373
 20
243.0494187577924
 30
0.0
 10
162.8049003977004
 20
243.1840124334184
 30
0.0
 10
162.9079453390304
 20
243.4328083588319
 30
0.0
 10
162.9841830677582
 20
243.5469127060837
 30
0.0
 10
163.1745973133716
 20
243.7373346001142
 30
0.0
 10
163.2886989012266
 20
243.8135772148527
 30
0.0
 10
163.5374918534089
 20
243.9166333153131
 30
0.0
 10
163.6720853163704
 20
243.9434062479048
 30
0.0
 10
163.8067317634333
 20
243.9434062479035
 30
0.0
  0
LINE
  5
14E
330
1F
100
AcDbEntity
  8
0
  6
Continuous
 62
     8
370
    18
100
AcDbLine
 10
163.8067317637
 20
243.9353567694
 30
0.0
 11
163.8067317634
 21
243.9433567054
 31
0.0
  0
LINE
  5
14F
330
1F
100
AcDbEntity
  8
0
  6
Continuous
 62
     8
370
    18
100
AcDbLine
 10
163.8067317639
 20
242.9026591192
 30
0.0
 11
163.8067317637
 21
243.9353567694
 31
0.0
  0
LINE
  5
150
330
1F
100
AcDbEntity
  8
0
  6
Continuous
 62
     8
370
    18
100
AcDbLine
 10
180.7781112036
 20
243.9353567694
 30
0.0
 11
163.8067317637
 21
243.9353567694
 31
0.0
  0
LINE
  5
151
330
1F
100
AcDbEntity
  8
0
  6
Continuous
 62
     8
370
    18
100
AcDbLine
 10
180.7781112036
 20
242.9026591192
 30
0.0
 11
180.7781112036
 21
243.9353567694
 31
0.0
  0
LINE
  5
152
330
1F
100
AcDbEntity
  8
0
  6
Continuous
 62
     8
370
    18
100
AcDbLine
 10
180.7781112036
 20
243.9353567694
 30
0.0
 11
197.7494906435
 21
243.9353567694
 31
0.0
  0
LINE
  5
153
330
1F
100
AcDbEntity
  8
0
  6
Continuous
 62
     8
370
    18
100
AcDbLine
 10
197.7494906435
 20
242.9026591192
 30
0.0
 11
197.7494906435
 21
243.9353567694
 31
0.0
  0
LINE
  5
154
330
1F
100
AcDbEntity
  8
0
  6
Continuous
 62
     8
370
    18
100
AcDbLine
 10
197.7494906435
 20
243.9353567694
 30
0.0
 11
197.7494906435
 21
243.9433567054
 31
0.0
  0
SPLINE
  5
155
330
1F
100
AcDbEntity
  8
0
  6
Continuous
 62
     8
370
    18
100
AcDbSpline
210
0.0
220
0.0
230
1.0
 70
     8
 71
     3
 72
    10
 73
     6
 74
     0
 42
0.00000001
 43
0.00000001
 40
0.0
 40
0.0
 40
0.0
 40
0.0
 40
0.5
 40
0.5
 40
1.0
 40
1.0
 40
1.0
 40
1.0
 10
198.7780821888212
 20
242.9147733880442
 30
0.0
 10
198.7797433609593
 20
243.1846634989097
 30
0.0
 10
198.6672062466146
 20
243.4517356789489
 30
0.0
 10
198.2869707112475
 20
243.832678401659
 30
0.0
 10
198.0188677423605
 20
243.9435587980767
 30
0.0
 10
197.7494906435233
 20
243.943356705407
 30
0.0
  0
LINE
  5
156
330
1F
100
AcDbEntity
  8
0
  6
Continuous
 62
     8
370
    18
100
AcDbLine
 10
180.7781112035
 20
243.9353567694
 30
0.0
 11
180.7781112035
 21
243.9433567054
 31
0.0
  0
LINE
  5
157
330
1F
100
AcDbEntity
  8
0
  6
Continuous
 62
     8
370
    18
100
AcDbLine
 10
180.7781112035
 20
243.9434050746
 30
0.0
 11
197.7494906426
 21
243.9434050746
 31
0.0
  0
LINE
  5
158
330
1F
100
AcDbEntity
  8
0
  6
Continuous
 62
     8
370
    18
100
AcDbLine
 10
180.7781112035
 20
243.9433567054
 30
0.0
 11
163.8067317634
 21
243.9433567054
 31
0.0
  0
LINE
  5
159
330
1F
100
AcDbEntity
  8
0
  6
Continuous
 62
     8
370
    18
100
AcDbLine
 10
163.8067317639
 20
243.9548972621
 30
0.0
 11
163.806731765
 21
243.9434050752
 31
0.0
  0
LINE
  5
15A
330
1F
100
AcDbEntity
  8
0
  6
Continuous
 62
     8
370
    18
100
AcDbLine
 10
197.7494906426
 20
243.9434050755
 30
0.0
 11
197.7494906423
 21
243.9548972621
 31
0.0
  0
LINE
  5
15B
330
1F
100
AcDbEntity
  8
0
  6
Continuous
 62
     8
370
    18
100
AcDbLine
 10
163.7785481249
 20
129.863201034
 30
0.0
 11
163.7785481249
 21
141.0242309234
 31
0.0
  0
SPLINE
  5
15C
330
1F
100
AcDbEntity
  8
0
  6
Continuous
 62
     8
370
    18
100
AcDbSpline
210
0.0
220
0.0
230
1.0
 70
     8
 71
     3
 72
    14
 73
    10
 74
     0
 42
0.00000001
 43
0.00000001
 40
0.0
 40
0.0
 40
0.0
 40
0.0
 40
0.25
 40
0.25
 40
0.5
 40
0.5
 40
0.75
 40
0.75
 40
1.0
 40
1.0
 40
1.0
 40
1.0
 10
162.778548124868
 20
129.8632010339695
 30
0.0
 10
162.7785481246916
 20
129.863201034004
 30
0.0
 10
162.8000268633478
 20
129.8632010340349
 30
0.0
 10
162.8974927834031
 20
129.8632010340783
 30
0.0
 10
162.9738102701846
 20
129.8632010340906
 30
0.0
 10
163.1690724161213
 20
129.8632010340906
 30
0.0
 10
163.2873564645148
 20
129.8632010340784
 30
0.0
 10
163.5335503654896
 20
129.8632010340349
 30
0.0
 10
163.6606969945826
 20
129.863201034004
 30
0.0
 10
163.7785481248679
 20
129.8632010339695
 30
0.0
  0
SPLINE
  5
15D
330
1F
100
AcDbEntity
  8
0
  6
Continuous
 62
     8
370
    18
100
AcDbSpline
210
0.0
220
0.0
230
1.0
 70
     8
 71
     3
 72
    14
 73
    10
 74
     0
 42
0.00000001
 43
0.00000001
 40
0.0
 40
0.0
 40
0.0
 40
0.0
 40
0.2499999999999988
 40
0.2499999999999988
 40
0.4999999999999976
 40
0.4999999999999976
 40
0.7499999999999963
 40
0.7499999999999963
 40
1.0
 40
1.0
 40
1.0
 40
1.0
 10
197.7785503111477
 20
129.8632010339695
 30
0.0
 10
197.8964014413071
 20
129.8632010339318
 30
0.0
 10
198.0235480702185
 20
129.863201033898
 30
0.0
 10
198.2697419708411
 20
129.8632010338505
 30
0.0
 10
198.388026019071
 20
129.8632010338371
 30
0.0
 10
198.5832881648856
 20
129.8632010338371
 30
0.0
 10
198.6596056517146
 20
129.8632010338505
 30
0.0
 10
198.7570715720936
 20
129.8632010338981
 30
0.0
 10
198.7785503110203
 20
129.8632010339318
 30
0.0
 10
198.7785503111476
 20
129.8632010339695
 30
0.0
  0
LINE
  5
15E
330
1F
100
AcDbEntity
  8
0
  6
Continuous
 62
     8
370
    18
100
AcDbLine
 10
197.7785503113
 20
129.863201034
 30
0.0
 11
197.7785503113
 21
141.0242582499
 31
0.0
  0
SPLINE
  5
15F
330
1F
100
AcDbEntity
  8
0
  6
Continuous
 62
     8
370
    18
100
AcDbSpline
210
0.0
220
0.0
230
1.0
 70
    24
 71
     3
 72
    14
 73
    10
 74
     0
 42
0.00000001
 43
0.00000001
 40
0.0
 40
0.0
 40
0.0
 40
0.0
 40
0.152775389250809
 40
0.3055507785016248
 40
0.4583261677524401
 40
0.6111015570032545
 40
0.7638769462540668
 40
0.9166523355048822
 40
1.0
 40
1.0
 40
1.0
 40
1.0
 10
163.7785481249305
 20
129.8632010339695
 30
0.0
 10
163.7785481249394
 20
129.7832110276195
 30
0.0
 10
163.7785481249573
 20
129.6232310149195
 30
0.0
 10
163.778548124984
 20
129.3969657562127
 30
0.0
 10
163.7785481250108
 20
129.1976204846369
 30
0.0
 10
163.7785481250376
 20
129.0356836184567
 30
0.0
 10
163.7785481250643
 20
128.9239389796198
 30
0.0
 10
163.778548125087
 20
128.866053416331
 30
0.0
 10
163.7785481251009
 20
128.8692153510223
 30
0.0
 10
163.7785481251057
 20
128.8703314634376
 30
0.0
  0
SPLINE
  5
160
330
1F
100
AcDbEntity
  8
0
  6
Continuous
 62
     8
370
    18
100
AcDbSpline
210
0.0
220
0.0
230
1.0
 70
    24
 71
     3
 72
    14
 73
    10
 74
     0
 42
0.00000001
 43
0.00000001
 40
0.0
 40
0.0
 40
0.0
 40
0.0
 40
0.15277554897934
 40
0.3055510979586756
 40
0.4583266469380179
 40
0.6111021959173553
 40
0.7638777448966925
 40
0.9166532938760366
 40
1.0
 40
1.0
 40
1.0
 40
1.0
 10
197.7785503113218
 20
129.8632010339695
 30
0.0
 10
197.7785503113194
 20
129.7832110276529
 30
0.0
 10
197.7785503113145
 20
129.6232310150196
 30
0.0
 10
197.7785503113152
 20
129.3969657558147
 30
0.0
 10
197.7785503113217
 20
129.197620486133
 30
0.0
 10
197.7785503113341
 20
129.0356836128758
 30
0.0
 10
197.7785503113518
 20
128.9239390004529
 30
0.0
 10
197.7785503113699
 20
128.8660535091361
 30
0.0
 10
197.7785503113827
 20
128.8692153951386
 30
0.0
 10
197.7785503113872
 20
128.870331481309
 30
0.0
  0
LINE
  5
161
330
1F
100
AcDbEntity
  8
0
  6
Continuous
 62
     8
370
    18
100
AcDbLine
 10
163.7785481249
 20
129.863201034
 30
0.0
 11
197.7785503113
 21
129.863201034
 31
0.0
  0
SPLINE
  5
162
330
1F
100
AcDbEntity
  8
0
  6
Continuous
 62
     8
370
    18
100
AcDbSpline
210
0.0
220
0.0
230
1.0
 70
     8
 71
     3
 72
    23
 73
    19
 74
     0
 42
0.00000001
 43
0.00000001
 40
0.0
 40
0.0
 40
0.0
 40
0.0
 40
0.0209427321022539
 40
0.0879063917694096
 40
0.157653994955844
 40
0.2288817423529728
 40
0.3001094897501014
 40
0.369857092936536
 40
0.436820752603692
 40
0.4999999999999738
 40
0.5631792473962556
 40
0.6301429070634116
 40
0.6998905102498462
 40
0.7711182576469748
 40
0.8423460050441041
 40
0.912093608230539
 40
0.9790572678976942
 40
1.0
 40
1.0
 40
1.0
 40
1.0
 10
189.183637965861
 20
128.8632010339695
 30
0.0
 10
189.1712829924278
 20
128.8045848410798
 30
0.0
 10
189.1194234198749
 20
128.5585454040552
 30
0.0
 10
188.7112682474593
 20
128.1329562823752
 30
0.0
 10
187.9398125761054
 20
127.6113083417854
 30
0.0
 10
186.8306848454515
 20
127.1465581237729
 30
0.0
 10
185.4726522588387
 20
126.7688450498573
 30
0.0
 10
183.9489611766674
 20
126.4989493540498
 30
0.0
 10
182.3648596978243
 20
126.3431771380534
 30
0.0
 10
180.7785037054149
 20
126.2934106789589
 30
0.0
 10
179.1921477130056
 20
126.3431771380533
 30
0.0
 10
177.6080462341625
 20
126.4989493540497
 30
0.0
 10
176.0843551519912
 20
126.768845049857
 30
0.0
 10
174.7263225653784
 20
127.1465581237726
 30
0.0
 10
173.6171948347246
 20
127.6113083417851
 30
0.0
 10
172.8457391633706
 20
128.1329562823748
 30
0.0
 10
172.437583990955
 20
128.5585454040549
 30
0.0
 10
172.385724418402
 20
128.8045848410796
 30
0.0
 10
172.3733694449688
 20
128.8632010339695
 30
0.0
  0
LWPOLYLINE
  5
163
330
1F
100
AcDbEntity
  8
0
  6
Continuous
 62
     8
370
    18
100
AcDbPolyline
 90
       18
 70
   128
 43
0.0
 10
188.3650089224
 20
128.863201034
 10
188.0932390068
 20
128.5289777873
 10
187.5553977776
 20
128.1188539264
 10
186.8226791234
 20
127.7457085376
 10
185.9161532162
 20
127.4202718482
 10
184.8618882568
 20
127.1519021664
 10
183.6902008531
 20
126.9483167727
 10
182.4347842311
 20
126.8153700006
 10
181.1317393475
 20
126.756884888
 10
179.8185367646
 20
126.7745432423
 10
178.532939141
 20
126.8678372768
 10
177.311915323
 20
127.0340842138
 10
176.1905772623
 20
127.2685034303
 10
175.2011703314
 20
127.5643539309
 10
174.3721460706
 20
127.9131281921
 10
173.7273440312
 20
128.3047968069
 10
173.2853062414
 20
128.7280968914
 10
173.1919984884
 20
128.863201034
  0
SPLINE
  5
164
330
1F
100
AcDbEntity
  8
0
  6
Continuous
 62
     8
370
    18
100
AcDbSpline
210
0.0
220
0.0
230
1.0
 70
     8
 71
     3
 72
    20
 73
    16
 74
     0
 42
0.00000001
 43
0.00000001
 40
0.0
 40
0.0
 40
0.0
 40
0.0
 40
0.0505495322121876
 40
0.1356873332467838
 40
0.2225141593027386
 40
0.3093409853586934
 40
0.3944787863932895
 40
0.4764274459600057
 40
0.5540148440172092
 40
0.6316022420744128
 40
0.7135509016411292
 40
0.7986887026757254
 40
0.8855155287316806
 40
0.972342354787636
 40
1.0
 40
1.0
 40
1.0
 40
1.0
 10
187.3647212799164
 20
128.8632010339695
 30
0.0
 10
187.2518702401636
 20
128.7752447019085
 30
0.0
 10
186.9489503916887
 20
128.5391483501278
 30
0.0
 10
186.184604684642
 20
128.2017868741499
 30
0.0
 10
185.1238304686687
 20
127.8683935533963
 30
0.0
 10
183.8810632730374
 20
127.6157662756911
 30
0.0
 10
182.5461332392192
 20
127.4540381308032
 30
0.0
 10
181.1964097090335
 20
127.3851710663835
 30
0.0
 10
179.8758081326259
 20
127.4010293473385
 30
0.0
 10
178.5839806881139
 20
127.4966630651654
 30
0.0
 10
177.3263117887479
 20
127.6770383667888
 30
0.0
 10
176.144128116965
 20
127.9454444056474
 30
0.0
 10
175.1380850004805
 20
128.2970748442696
 30
0.0
 10
174.4753424877463
 20
128.6112591006115
 30
0.0
 10
174.2474057104301
 20
128.8141788245114
 30
0.0
 10
174.1923397748668
 20
128.8632010339695
 30
0.0
  0
LINE
  5
165
330
1F
100
AcDbEntity
  8
0
  6
Continuous
 62
     8
370
    18
100
AcDbLine
 10
183.7785037054
 20
252.3755855227
 30
0.0
 11
187.7785037054
 21
252.3755855227
 31
0.0
  0
ARC
  5
166
330
1F
100
AcDbEntity
  8
0
  6
Continuous
 62
     8
370
    18
100
AcDbCircle
 10
185.7785037054
 20
248.6985443346
 30
0.0
 40
2.00166922283963
100
AcDbArc
 50
182.3400698369
 51
357.6599301631
  0
SPLINE
  5
167
330
1F
100
AcDbEntity
  8
0
  6
Continuous
 62
     8
370
    18
100
AcDbSpline
210
0.0
220
0.0
230
1.0
 70
     8
 71
     3
 72
    33
 73
    29
 74
     0
 42
0.00000001
 43
0.00000001
 40
0.0
 40
0.0
 40
0.0
 40
0.0
 40
0.0190878135363992
 40
0.0381795741833243
 40
0.0572924407854311
 40
0.0868746858683158
 40
0.1165117299857791
 40
0.1774738038076334
 40
0.2399833085890991
 40
0.3037884199867955
 40
0.3686009915720383
 40
0.4059787639266889
 40
0.434124295976948
 40
0.4717449285430056
 40
0.4999981980460821
 40
0.5376620161356794
 40
0.565872091855989
 40
0.6033780455041948
 40
0.6313953720067802
 40
0.6685474158622456
 40
0.6962285011515322
 40
0.7600336125491286
 40
0.8225431173304683
 40
0.8835051911521787
 40
0.9427084540340297
 40
0.9716034496708349
 40
0.9857879152615971
 40
1.0
 40
1.0
 40
1.0
 40
1.0
 10
157.778508286296
 20
242.9350536932932
 30
0.0
 10
157.7790271766676
 20
242.9950071190732
 30
0.0
 10
157.7800650647103
 20
243.1149263682185
 30
0.0
 10
157.7884670135964
 20
243.2947166417937
 30
0.0
 10
157.8043142235902
 20
243.5070529473482
 30
0.0
 10
157.8321509352218
 20
243.7516034979549
 30
0.0
 10
157.8921892227607
 20
244.1243727611271
 30
0.0
 10
158.0024046800472
 20
244.5932817404346
 30
0.0
 10
158.1921173553672
 20
245.1510302285398
 30
0.0
 10
158.4411733517588
 20
245.6983121077995
 30
0.0
 10
158.7043829037727
 20
246.1494727972455
 30
0.0
 10
158.9384765975934
 20
246.4855570855336
 30
0.0
 10
159.1371149847613
 20
246.7415891973182
 30
0.0
 10
159.3300562735198
 20
246.9653901938276
 30
0.0
 10
159.5549060516816
 20
247.2004455161129
 30
0.0
 10
159.7701839254871
 20
247.4033506527618
 30
0.0
 10
160.0177355908937
 20
247.6135972037909
 30
0.0
 10
160.2518110166681
 20
247.7924611239613
 30
0.0
 10
160.5178517207138
 20
247.9748714542575
 30
0.0
 10
160.7666554526763
 20
248.1273621388034
 30
0.0
 10
161.12150495804
 20
248.3207318316802
 30
0.0
 10
161.562548138398
 20
248.5214554761014
 30
0.0
 10
162.1202944592588
 20
248.7111612836708
 30
0.0
 10
162.6796621766252
 20
248.8426246931949
 30
0.0
 10
163.1442021370052
 20
248.9064930684737
 30
0.0
 10
163.4648233705322
 20
248.9279591893965
 30
0.0
 10
163.6446785300126
 20
248.9341921449814
 30
0.0
 10
163.7338687116006
 20
248.9347656553574
 30
0.0
 10
163.7785071766208
 20
248.9350526894501
 30
0.0
  0
SPLINE
  5
168
330
1F
100
AcDbEntity
  8
0
  6
Continuous
 62
     8
370
    18
100
AcDbSpline
210
0.0
220
0.0
230
1.0
 70
     8
 71
     3
 72
    18
 73
    14
 74
     0
 42
0.00000001
 43
0.00000001
 40
0.0
 40
0.0
 40
0.0
 40
0.0
 40
0.2500000000000013
 40
0.2500000000000013
 40
0.3750000000000014
 40
0.3750000000000014
 40
0.5000000000000017
 40
0.5000000000000017
 40
0.6250000000000019
 40
0.6250000000000019
 40
0.750000000000002
 40
0.750000000000002
 40
1.0
 40
1.0
 40
1.0
 40
1.0
 10
163.7785071927448
 20
243.9350526856657
 30
0.0
 10
163.7785071931796
 20
243.9350526723169
 30
0.0
 10
163.7785071932221
 20
244.0424463545013
 30
0.0
 10
163.7785071924516
 20
244.4079435431875
 30
0.0
 10
163.7785071920578
 20
244.563194317306
 30
0.0
 10
163.7785071909951
 20
244.9369558565166
 30
0.0
 10
163.7785071903262
 20
245.1554410517828
 30
0.0
 10
163.7785071887474
 20
245.6435964169966
 30
0.0
 10
163.7785071878379
 20
245.9131566912192
 30
0.0
 10
163.778507185843
 20
246.4848510639867
 30
0.0
 10
163.778507184758
 20
246.7868367268452
 30
0.0
 10
163.7785071813607
 20
247.7100638679983
 30
0.0
 10
163.7785071789147
 20
248.345797025119
 30
0.0
 10
163.7785071765742
 20
248.9350526894501
 30
0.0
  0
SPLINE
  5
169
330
1F
100
AcDbEntity
  8
0
  6
Continuous
 62
     8
370
    18
100
AcDbSpline
210
0.0
220
0.0
230
1.0
 70
    24
 71
     3
 72
    18
 73
    14
 74
     0
 42
0.00000001
 43
0.00000001
 40
0.0
 40
0.0
 40
0.0
 40
0.0
 40
0.25
 40
0.25
 40
0.375
 40
0.375
 40
0.5
 40
0.5
 40
0.625
 40
0.625
 40
0.75
 40
0.75
 40
1.0
 40
1.0
 40
1.0
 40
1.0
 10
162.778508286296
 20
242.9350537965004
 30
0.0
 10
162.7785083023026
 20
242.9350537965001
 30
0.0
 10
162.671114622507
 20
242.9350537942831
 30
0.0
 10
162.305617434716
 20
242.9350537867385
 30
0.0
 10
162.1503666604633
 20
242.9350537835338
 30
0.0
 10
161.7766051201747
 20
242.9350537758187
 30
0.0
 10
161.558119923966
 20
242.9350537713089
 30
0.0
 10
161.0699645565306
 20
242.9350537612326
 30
0.0
 10
160.8004042810372
 20
242.9350537556685
 30
0.0
 10
160.2287099061434
 20
242.935053743868
 30
0.0
 10
159.9267242424398
 20
242.9350537376347
 30
0.0
 10
159.0034971004618
 20
242.9350537185782
 30
0.0
 10
158.3677639452874
 20
242.935053705456
 30
0.0
 10
157.7785082862952
 20
242.9350536932932
 30
0.0
  0
SPLINE
  5
16A
330
1F
100
AcDbEntity
  8
0
  6
Continuous
 62
     8
370
    18
100
AcDbSpline
210
0.0
220
0.0
230
1.0
 70
    24
 71
     3
 72
    18
 73
    14
 74
     0
 42
0.00000001
 43
0.00000001
 40
0.0
 40
0.0
 40
0.0
 40
0.0
 40
0.2500000000000012
 40
0.2500000000000012
 40
0.3750000000000011
 40
0.3750000000000011
 40
0.500000000000001
 40
0.500000000000001
 40
0.6250000000000009
 40
0.6250000000000009
 40
0.7500000000000008
 40
0.7500000000000008
 40
1.0
 40
1.0
 40
1.0
 40
1.0
 10
157.7785085959163
 20
227.9350528466037
 30
0.0
 10
158.3677642549084
 20
227.9350528587664
 30
0.0
 10
159.0034974100828
 20
227.9350528718885
 30
0.0
 10
159.9267245520606
 20
227.9350528909448
 30
0.0
 10
160.2287102157643
 20
227.9350528971781
 30
0.0
 10
160.800404590658
 20
227.9350529089785
 30
0.0
 10
161.0699648661514
 20
227.9350529145426
 30
0.0
 10
161.5581202335868
 20
227.9350529246187
 30
0.0
 10
161.7766054297955
 20
227.9350529291285
 30
0.0
 10
162.1503669700842
 20
227.9350529368435
 30
0.0
 10
162.3056177443369
 20
227.9350529400481
 30
0.0
 10
162.671114932128
 20
227.9350529475927
 30
0.0
 10
162.7785086119236
 20
227.9350529498097
 30
0.0
 10
162.7785085959171
 20
227.93505294981
 30
0.0
  0
LINE
  5
16B
330
1F
100
AcDbEntity
  8
0
  6
Continuous
 62
     8
370
    18
100
AcDbLine
 10
157.7785085959
 20
242.9350536933
 30
0.0
 11
157.7785085959
 21
227.9350528466
 31
0.0
  0
LINE
  5
16C
330
1F
100
AcDbEntity
  8
0
  6
Continuous
 62
     8
370
    18
100
AcDbLine
 10
203.7785127429
 20
227.9350529498
 30
0.0
 11
198.7785127428
 21
227.9350529498
 31
0.0
  0
SPLINE
  5
16D
330
1F
100
AcDbEntity
  8
0
  6
Continuous
 62
     8
370
    18
100
AcDbSpline
210
0.0
220
0.0
230
1.0
 70
     8
 71
     3
 72
    14
 73
    10
 74
     0
 42
0.00000001
 43
0.00000001
 40
0.0
 40
0.0
 40
0.0
 40
0.0
 40
0.1738748365816985
 40
0.3472541162793027
 40
0.5204005074002857
 40
0.6504965794533776
 40
0.7805651010064432
 40
0.9106665187150099
 40
1.0
 40
1.0
 40
1.0
 40
1.0
 10
157.7785085959181
 20
227.9350528466037
 30
0.0
 10
157.7923311347564
 20
226.848923017325
 30
0.0
 10
157.8199368171162
 20
224.6797589137341
 30
0.0
 10
158.1366802870188
 20
221.4402164901103
 30
0.0
 10
158.7204887389696
 20
218.5148769859609
 30
0.0
 10
159.5448772213458
 20
215.9317688416868
 30
0.0
 10
160.5306734263498
 20
213.6997411483441
 30
0.0
 10
161.6010567763536
 20
211.7879916788733
 30
0.0
 10
162.4378739884189
 20
210.7012437145609
 30
0.0
 10
162.7785481250118
 20
210.2588210216498
 30
0.0
  0
SPLINE
  5
16E
330
1F
100
AcDbEntity
  8
0
  6
Continuous
 62
     8
370
    18
100
AcDbSpline
210
0.0
220
0.0
230
1.0
 70
     8
 71
     3
 72
    14
 73
    10
 74
     0
 42
0.00000001
 43
0.00000001
 40
0.0
 40
0.0
 40
0.0
 40
0.0
 40
0.0893607590446232
 40
0.2194460873065101
 40
0.3495264999918509
 40
0.4796119160856783
 40
0.6528274409662006
 40
0.8260500970649809
 40
1.0
 40
1.0
 40
1.0
 40
1.0
 10
198.7785503114245
 20
210.2580002891794
 30
0.0
 10
199.1192266058288
 20
210.7006760776547
 30
0.0
 10
199.9558363285344
 20
211.7877692353765
 30
0.0
 10
201.0240594074935
 20
213.7008046525075
 30
0.0
 10
202.014421503082
 20
215.9308013823804
 30
0.0
 10
202.8362729732454
 20
218.5154436076592
 30
0.0
 10
203.4198684718287
 20
221.4401302586887
 30
0.0
 10
203.7364354639959
 20
224.679730762292
 30
0.0
 10
203.7644674097743
 20
226.8484312440379
 30
0.0
 10
203.77851274291
 20
227.9350529498107
 30
0.0
  0
LINE
  5
16F
330
1F
100
AcDbEntity
  8
0
  6
Continuous
 62
     8
370
    18
100
AcDbLine
 10
163.7785071766
 20
248.9350537963
 30
0.0
 11
183.7785037054
 21
248.9350537963
 31
0.0
  0
LINE
  5
170
330
1F
100
AcDbEntity
  8
0
  6
Continuous
 62
     8
370
    18
100
AcDbLine
 10
187.7785037054
 20
248.9350537963
 30
0.0
 11
197.7785093664
 21
248.9350537963
 31
0.0
  0
SPLINE
  5
171
330
1F
100
AcDbEntity
  8
0
  6
Continuous
 62
     8
370
    18
100
AcDbSpline
210
0.0
220
0.0
230
1.0
 70
     8
 71
     3
 72
    18
 73
    14
 74
     0
 42
0.00000001
 43
0.00000001
 40
0.0
 40
0.0
 40
0.0
 40
0.0
 40
0.249999999999998
 40
0.249999999999998
 40
0.3749999999999982
 40
0.3749999999999982
 40
0.4999999999999984
 40
0.4999999999999984
 40
0.6249999999999987
 40
0.6249999999999987
 40
0.7499999999999989
 40
0.7499999999999989
 40
1.0
 40
1.0
 40
1.0
 40
1.0
 10
197.7785093694506
 20
248.9350571729516
 30
0.0
 10
197.778509369095
 20
248.345801522409
 30
0.0
 10
197.7785093686271
 20
247.7100683781603
 30
0.0
 10
197.778509367783
 20
246.7868412513406
 30
0.0
 10
197.7785093674788
 20
246.4848555924223
 30
0.0
 10
197.7785093668403
 20
245.9131612253502
 30
0.0
 10
197.778509366506
 20
245.6436009528785
 30
0.0
 10
197.7785093658281
 20
245.1554455887107
 30
0.0
 10
197.7785093654845
 20
244.9369603927384
 30
0.0
 10
197.77850936481
 20
244.5631988497282
 30
0.0
 10
197.778509364479
 20
244.4079480725188
 30
0.0
 10
197.7785093635334
 20
244.0424508715575
 30
0.0
 10
197.7785093629692
 20
243.9350571771793
 30
0.0
 10
197.7785093625064
 20
243.9350571767371
 30
0.0
  0
LINE
  5
172
330
1F
100
AcDbEntity
  8
0
  6
Continuous
 62
     8
370
    18
100
AcDbLine
 10
198.7785127429
 20
242.9350537965
 30
0.0
 11
203.7785127429
 21
242.9350537965
 31
0.0
  0
SPLINE
  5
173
330
1F
100
AcDbEntity
  8
0
  6
Continuous
 62
     8
370
    18
100
AcDbSpline
210
0.0
220
0.0
230
1.0
 70
     8
 71
     3
 72
    22
 73
    18
 74
     0
 42
0.00000001
 43
0.00000001
 40
0.0
 40
0.0
 40
0.0
 40
0.0
 40
0.1249999999999997
 40
0.1249999999999997
 40
0.2499999999999994
 40
0.2499999999999994
 40
0.3749999999999992
 40
0.3749999999999992
 40
0.4999999999999989
 40
0.4999999999999989
 40
0.6249999999999987
 40
0.6249999999999987
 40
0.7499999999999983
 40
0.7499999999999983
 40
0.874999999999998
 40
0.874999999999998
 40
1.0
 40
1.0
 40
1.0
 40
1.0
 10
203.7785127429092
 20
242.9350537965003
 30
0.0
 10
203.7785127428907
 20
243.2886073859646
 30
0.0
 10
203.7470826415786
 20
243.6553826294424
 30
0.0
 10
203.6096071525075
 20
244.3982828206789
 30
0.0
 10
203.5034412749372
 20
244.7743322372275
 30
0.0
 10
203.2110433498065
 20
245.5129143549344
 30
0.0
 10
203.0247423123522
 20
245.875297349891
 30
0.0
 10
202.5762282082977
 20
246.5613309770739
 30
0.0
 10
202.3140458255089
 20
246.8848034863807
 30
0.0
 10
201.7282590586009
 20
247.470590253581
 30
0.0
 10
201.4047865494248
 20
247.7327726365311
 30
0.0
 10
200.7187529224656
 20
248.1812867409278
 30
0.0
 10
200.3563699276019
 20
248.3675877785629
 30
0.0
 10
199.6177878100408
 20
248.659985704062
 30
0.0
 10
199.2417383935451
 20
248.76615158182
 30
0.0
 10
198.4988382023771
 20
248.9036270712617
 30
0.0
 10
198.132062958915
 20
248.9350571727567
 30
0.0
 10
197.7785093694506
 20
248.9350571729516
 30
0.0
  0
LINE
  5
174
330
1F
100
AcDbEntity
  8
0
  6
Continuous
 62
     8
370
    18
100
AcDbLine
 10
203.7785127429
 20
227.9350529498
 30
0.0
 11
203.7785127429
 21
242.9350537965
 31
0.0
  0
LINE
  5
175
330
1F
100
AcDbEntity
  8
0
  6
Continuous
 62
     8
370
    18
100
AcDbLine
 10
203.8785037152
 20
249.0350530272
 30
0.0
 11
187.7785037054
 21
249.0350530272
 31
0.0
  0
LINE
  5
176
330
1F
100
AcDbEntity
  8
0
  6
Continuous
 62
     8
370
    18
100
AcDbLine
 10
183.7785037054
 20
249.0350530272
 30
0.0
 11
157.6785037152
 21
249.0350530272
 31
0.0
  0
LINE
  5
177
330
1F
100
AcDbEntity
  8
0
  6
Continuous
 62
     8
370
    18
100
AcDbLine
 10
203.8785037152
 20
202.835053027
 30
0.0
 11
203.8785037152
 21
249.0350530272
 31
0.0
  0
LINE
  5
178
330
1F
100
AcDbEntity
  8
0
  6
Continuous
 62
     8
370
    18
100
AcDbLine
 10
157.6785037152
 20
202.835053027
 30
0.0
 11
162.7781402181
 21
202.835053027
 31
0.0
  0
LINE
  5
179
330
1F
100
AcDbEntity
  8
0
  6
Continuous
 62
     8
370
    18
100
AcDbLine
 10
198.7785503114
 20
202.835053027
 30
0.0
 11
203.8785037152
 21
202.835053027
 31
0.0
  0
LINE
  5
17A
330
1F
100
AcDbEntity
  8
0
  6
Continuous
 62
     8
370
    18
100
AcDbLine
 10
157.6785037152
 20
249.0350530272
 30
0.0
 11
157.6785037152
 21
202.835053027
 31
0.0
  0
LINE
  5
17B
330
1F
100
AcDbEntity
  8
0
  6
Continuous
 62
     8
370
    18
100
AcDbLine
 10
203.8785037152
 20
250.0350530272
 30
0.0
 11
203.8785037152
 21
249.0350530272
 31
0.0
  0
LINE
  5
17C
330
1F
100
AcDbEntity
  8
0
  6
Continuous
 62
     8
370
    18
100
AcDbLine
 10
157.6785037152
 20
250.0350530272
 30
0.0
 11
157.6785037152
 21
249.0350530272
 31
0.0
  0
LINE
  5
17D
330
1F
100
AcDbEntity
  8
0
  6
Continuous
 62
     8
370
    18
100
AcDbLine
 10
157.6785037152
 20
249.0350530272
 30
0.0
 11
156.6785037152
 21
249.0350530272
 31
0.0
  0
LINE
  5
17E
330
1F
100
AcDbEntity
  8
0
  6
Continuous
 62
     8
370
    18
100
AcDbLine
 10
157.6785037152
 20
202.835053027
 30
0.0
 11
156.6785037152
 21
202.835053027
 31
0.0
  0
LINE
  5
17F
330
1F
100
AcDbEntity
  8
0
  6
Continuous
 62
     8
370
    18
100
AcDbLine
 10
204.8785037152
 20
249.0350530272
 30
0.0
 11
203.8785037152
 21
249.0350530272
 31
0.0
  0
LINE
  5
180
330
1F
100
AcDbEntity
  8
0
  6
Continuous
 62
     8
370
    18
100
AcDbLine
 10
157.6785037152
 20
202.835053027
 30
0.0
 11
157.6785037152
 21
201.835053027
 31
0.0
  0
LINE
  5
181
330
1F
100
AcDbEntity
  8
0
  6
Continuous
 62
     8
370
    18
100
AcDbLine
 10
203.8785037152
 20
202.835053027
 30
0.0
 11
203.8785037152
 21
201.835053027
 31
0.0
  0
LINE
  5
182
330
1F
100
AcDbEntity
  8
0
  6
Continuous
 62
     8
370
    18
100
AcDbLine
 10
204.8785037152
 20
202.835053027
 30
0.0
 11
203.8785037152
 21
202.835053027
 31
0.0
  0
SPLINE
  5
183
330
1F
100
AcDbEntity
  8
0
  6
Continuous
 62
     7
370
    25
100
AcDbSpline
210
0.0
220
0.0
230
1.0
 70
     8
 71
     3
 72
    31
 73
    27
 74
     0
 42
0.00000001
 43
0.00000001
 40
0.0
 40
0.0
 40
0.0
 40
0.0
 40
0.0280936424366982
 40
0.0554975164660689
 40
0.0755688082495414
 40
0.0963206744227312
 40
0.133300214492475
 40
0.1741407769333649
 40
0.2184985731748757
 40
0.2646180056238352
 40
0.3123451489455774
 40
0.3615099550378496
 40
0.4593274032025813
 40
0.5607356280083674
 40
0.6561071281991274
 40
0.7409213682284613
 40
0.8161852312031995
 40
0.8449408745744794
 40
0.8722492083045129
 40
0.8973419839553823
 40
0.9138115298680656
 40
0.9292521396997032
 40
0.9448369792219817
 40
0.9616829784985408
 40
0.9806707625341148
 40
0.9999999999999999
 40
0.9999999999999999
 40
0.9999999999999999
 40
0.9999999999999999
 10
363.8509226780299
 20
443.7558919231059
 30
0.0
 10
364.3346196738233
 20
444.1014782227604
 30
0.0
 10
365.2901377078098
 20
444.7841658236557
 30
0.0
 10
366.6692260928468
 20
445.6610361185857
 30
0.0
 10
367.9457482446858
 20
446.4167593722236
 30
0.0
 10
369.5020172187208
 20
447.2841477008417
 30
0.0
 10
371.5602067721089
 20
448.3401452529291
 30
0.0
 10
374.1463059973361
 20
449.5338896145416
 30
0.0
 10
376.950696612051
 20
450.6877299279777
 30
0.0
 10
379.9677071183876
 20
451.7982413060781
 30
0.0
 10
383.1232621356754
 20
452.8611734127999
 30
0.0
 10
387.451622444205
 20
454.2314271239038
 30
0.0
 10
393.0037754439054
 20
455.8995595307314
 30
0.0
 10
399.6045943173268
 20
457.8365752422243
 30
0.0
 10
405.9237868022714
 20
459.6631591403654
 30
0.0
 10
411.6673669797291
 20
461.2942437395218
 30
0.0
 10
415.9210453322364
 20
462.4714904679315
 30
0.0
 10
418.8833069580834
 20
463.2753381724315
 30
0.0
 10
420.7099364987537
 20
463.7639621096892
 30
0.0
 10
422.2738171569759
 20
464.1765402778328
 30
0.0
 10
423.4986085979083
 20
464.496783163922
 30
0.0
 10
424.3882073289803
 20
464.7311573478896
 30
0.0
 10
425.0724035587484
 20
464.9177287497439
 30
0.0
 10
425.5468556091141
 20
465.0556279320996
 30
0.0
 10
425.8310354505199
 20
465.1479457731547
 30
0.0
 10
425.8606220606389
 20
465.1716529271532
 30
0.0
 10
425.875547192875
 20
465.1836121346104
 30
0.0
  0
SPLINE
  5
184
330
1F
100
AcDbEntity
  8
0
  6
Continuous
 62
     7
370
    25
100
AcDbSpline
210
0.0
220
0.0
230
1.0
 70
     8
 71
     3
 72
    11
 73
     7
 74
     0
 42
0.00000001
 43
0.00000001
 40
0.0
 40
0.0
 40
0.0
 40
0.0
 40
0.232787017005999
 40
0.4795759535503102
 40
0.7368349554233797
 40
1.0
 40
1.0
 40
1.0
 40
1.0
 10
326.023852490014
 20
343.9369886457905
 30
0.0
 10
326.0053339938907
 20
343.6318961314465
 30
0.0
 10
325.9671831315665
 20
343.0033600757443
 30
0.0
 10
325.6830024827065
 20
342.0732773102109
 30
0.0
 10
325.2253470494177
 20
341.168481663388
 30
0.0
 10
324.7719586398699
 20
340.6590573683366
 30
0.0
 10
324.5426917913774
 20
340.4014546149086
 30
0.0
  0
SPLINE
  5
185
330
1F
100
AcDbEntity
  8
0
  6
Continuous
 62
     7
370
    25
100
AcDbSpline
210
0.0
220
0.0
230
1.0
 70
     8
 71
     3
 72
    13
 73
     9
 74
     0
 42
0.00000001
 43
0.00000001
 40
0.0
 40
0.0
 40
0.0
 40
0.0
 40
0.2394557791914659
 40
0.3683592375999084
 40
0.4999984459826772
 40
0.6316379126455173
 40
0.7605420833652966
 40
1.0
 40
1.0
 40
1.0
 40
1.0
 10
367.0072529959943
 20
338.9369885093499
 30
0.0
 10
366.378277147445
 20
339.0037785912434
 30
0.0
 10
365.4107120094362
 20
339.1065230049659
 30
0.0
 10
364.2466431654614
 20
339.7300111183966
 30
0.0
 10
363.4456172477062
 20
340.3753201602275
 30
0.0
 10
362.8003147869215
 20
341.176353842145
 30
0.0
 10
362.1768329005682
 20
342.3404347316019
 30
0.0
 10
362.0740900330487
 20
343.3080071679926
 30
0.0
 10
362.0073008768085
 20
343.9369885093551
 30
0.0
  0
SPLINE
  5
186
330
1F
100
AcDbEntity
  8
0
  6
Continuous
 62
     7
370
    25
100
AcDbSpline
210
0.0
220
0.0
230
1.0
 70
     8
 71
     3
 72
    13
 73
     9
 74
     0
 42
0.00000001
 43
0.00000001
 40
0.0
 40
0.0
 40
0.0
 40
0.0
 40
0.2268652797870753
 40
0.4705771359655823
 40
0.5950858510865074
 40
0.7260689191965412
 40
0.8622424065684515
 40
1.0
 40
1.0
 40
1.0
 40
1.0
 10
428.593734098589
 20
467.8722930014944
 30
0.0
 10
428.5619560372387
 20
467.9917262957442
 30
0.0
 10
428.4960401372348
 20
468.2394617694129
 30
0.0
 10
428.2667963239959
 20
468.4808613149606
 30
0.0
 10
428.0316280466874
 20
468.6233504181385
 30
0.0
 10
427.8260509413372
 20
468.6967821481831
 30
0.0
 10
427.6014243369565
 20
468.732884869619
 30
0.0
 10
427.4524194983547
 20
468.7187373959251
 30
0.0
 10
427.3774862417296
 20
468.7116227526233
 30
0.0
  0
LINE
  5
187
330
1F
100
AcDbEntity
  8
0
  6
Continuous
 62
     7
370
    25
100
AcDbLine
 10
362.0071567682
 20
354.9369885424
 30
0.0
 11
362.0071567682
 21
364.0053294513
 31
0.0
  0
LINE
  5
188
330
1F
100
AcDbEntity
  8
0
  6
Continuous
 62
     7
370
    25
100
AcDbLine
 10
362.0071565345
 20
364.0053294513
 30
0.0
 11
362.0071565345
 21
379.005330092
 31
0.0
  0
LINE
  5
189
330
1F
100
AcDbEntity
  8
0
  6
Continuous
 62
     7
370
    25
100
AcDbLine
 10
362.0073008768
 20
343.9369885842
 30
0.0
 11
362.0073008768
 21
354.9369885094
 31
0.0
  0
SPLINE
  5
18A
330
1F
100
AcDbEntity
  8
0
  6
Continuous
 62
     7
370
    25
100
AcDbSpline
210
0.0
220
0.0
230
1.0
 70
     8
 71
     3
 72
    27
 73
    23
 74
     0
 42
0.00000001
 43
0.00000001
 40
0.0
 40
0.0
 40
0.0
 40
0.0
 40
0.0877694702711231
 40
0.1696715055538857
 40
0.2452734996176727
 40
0.3136091891838326
 40
0.3739157539079976
 40
0.4258679236426196
 40
0.4695438322820464
 40
0.5073354632571329
 40
0.5432565584889126
 40
0.5774633374552087
 40
0.618017133857819
 40
0.6582807194412498
 40
0.702385181075083
 40
0.7504219189069652
 40
0.7823843616652211
 40
0.8139749666019626
 40
0.8459295169564098
 40
0.8861376685520674
 40
0.937430805181962
 40
1.0
 40
1.0
 40
1.0
 40
1.0
 10
362.0069776357942
 20
379.0053287967895
 30
0.0
 10
362.0069553036384
 20
380.8640257952198
 30
0.0
 10
362.0069121322434
 20
384.4571649256939
 30
0.0
 10
362.1210497092254
 20
389.6508260987839
 30
0.0
 10
362.4102641001152
 20
394.4262592874119
 30
0.0
 10
362.8899688309639
 20
398.7270629809092
 30
0.0
 10
363.5401631707974
 20
402.4984042362097
 30
0.0
 10
364.315311580558
 20
405.7109910388805
 30
0.0
 10
365.1676775138114
 20
408.4071833325344
 30
0.0
 10
366.0840198582819
 20
410.7202888831832
 30
0.0
 10
367.084411472697
 20
412.7778170527135
 30
0.0
 10
368.282419674858
 20
414.7956329113218
 30
0.0
 10
369.7352734427907
 20
416.7580248556822
 30
0.0
 10
371.5689151569688
 20
418.6754232606074
 30
0.0
 10
373.7864535456609
 20
420.4095045183099
 30
0.0
 10
376.1023112083171
 20
421.6786557335931
 30
0.0
 10
378.3082049411514
 20
422.5356351665117
 30
0.0
 10
380.2558006432569
 20
423.0907504052053
 30
0.0
 10
382.4122674733383
 20
423.5217384998575
 30
0.0
 10
385.0098148261422
 20
423.8391108305407
 30
0.0
 10
388.2706054838989
 20
424.0043455621775
 30
0.0
 10
390.6820362703311
 20
424.0049801075833
 30
0.0
 10
392.0071565339672
 20
424.0053288005584
 30
0.0
  0
SPLINE
  5
18B
330
1F
100
AcDbEntity
  8
0
  6
Continuous
 62
     7
370
    25
100
AcDbSpline
210
0.0
220
0.0
230
1.0
 70
     8
 71
     3
 72
    14
 73
    10
 74
     0
 42
0.00000001
 43
0.00000001
 40
0.0
 40
0.0
 40
0.0
 40
0.0
 40
0.1204350252592666
 40
0.2438890632801533
 40
0.4927195107692449
 40
0.6163145501270093
 40
0.7430413674234925
 40
0.8718494210946973
 40
1.0
 40
1.0
 40
1.0
 40
1.0
 10
327.0203008788419
 20
440.0052440228575
 30
0.0
 10
326.9570681717214
 20
440.0025219617902
 30
0.0
 10
326.8290176675172
 20
439.9970096042142
 30
0.0
 10
326.5833054019752
 20
439.9236225545702
 30
0.0
 10
326.3651173212978
 20
439.779283999409
 30
0.0
 10
326.1992670979672
 20
439.5773365486038
 30
0.0
 10
326.1046383775038
 20
439.4012860914016
 30
0.0
 10
326.0409141612049
 20
439.2067851922899
 30
0.0
 10
326.0295291205634
 20
439.0723673675168
 30
0.0
 10
326.0238511655772
 20
439.0053304211916
 30
0.0
  0
ARC
  5
18C
330
1F
100
AcDbEntity
  8
0
  6
Continuous
 62
     7
370
    25
100
AcDbCircle
 10
350.1240494288
 20
440.005330423
 30
0.0
 40
22.81689189189195
100
AcDbArc
 50
160.3646928818
 51
180.0
  0
ARC
  5
18D
330
1F
100
AcDbEntity
  8
0
  6
Continuous
 62
     7
370
    25
100
AcDbCircle
 10
335.690265645
 20
440.005330423
 30
0.0
 40
22.81689189189194
100
AcDbArc
 50
0.0
 51
9.5869328112
  0
ARC
  5
18E
330
1F
100
AcDbEntity
  8
0
  6
Continuous
 62
     7
370
    25
100
AcDbCircle
 10
328.8223171319
 20
447.605330423
 30
0.0
 40
0.2000000000000636
100
AcDbArc
 50
90.0
 51
160.3646928818
  0
LINE
  5
18F
330
1F
100
AcDbEntity
  8
0
  6
Continuous
 62
     7
370
    25
100
AcDbLine
 10
328.8223171319
 20
447.9996811216
 30
0.0
 11
328.8223171319
 21
447.805330423
 31
0.0
  0
ARC
  5
190
330
1F
100
AcDbEntity
  8
0
  6
Continuous
 62
     7
370
    25
100
AcDbCircle
 10
468.5343902537
 20
429.0352086852
 30
0.0
 40
0.5000000000000484
100
AcDbArc
 50
340.0
 51
70.0
  0
ARC
  5
191
330
1F
100
AcDbEntity
  8
0
  6
Continuous
 62
     7
370
    25
100
AcDbCircle
 10
462.7200478172
 20
413.0604341319
 30
0.0
 40
0.500000000000029
100
AcDbArc
 50
250.0
 51
340.0
  0
ARC
  5
192
330
1F
100
AcDbEntity
  8
0
  6
Continuous
 62
     7
370
    25
100
AcDbCircle
 10
438.2880396768
 20
421.9529578583
 30
0.0
 40
0.5000000000000484
100
AcDbArc
 50
160.0
 51
250.0
  0
ARC
  5
193
330
1F
100
AcDbEntity
  8
0
  6
Continuous
 62
     7
370
    25
100
AcDbCircle
 10
444.1023821133
 20
437.9277324117
 30
0.0
 40
0.500000000000029
100
AcDbArc
 50
70.0
 51
160.0
  0
LINE
  5
194
330
1F
100
AcDbEntity
  8
0
  6
Continuous
 62
     7
370
    25
100
AcDbLine
 10
468.7054003254
 20
429.5050549956
 30
0.0
 11
444.273392185
 21
438.3975787221
 31
0.0
  0
LINE
  5
195
330
1F
100
AcDbEntity
  8
0
  6
Continuous
 62
     7
370
    25
100
AcDbLine
 10
438.1170296051
 20
421.4831115479
 30
0.0
 11
462.5490377455
 21
412.5905878215
 31
0.0
  0
ARC
  5
196
330
1F
100
AcDbEntity
  8
0
  6
Continuous
 62
     7
370
    25
100
AcDbCircle
 10
443.0170703073
 20
436.9925313884
 30
0.0
 40
0.499999999999995
100
AcDbArc
 50
70.0
 51
160.0
  0
ARC
  5
197
330
1F
100
AcDbEntity
  8
0
  6
Continuous
 62
     7
370
    25
100
AcDbCircle
 10
438.057778229
 20
423.366988387
 30
0.0
 40
0.499999999999995
100
AcDbArc
 50
160.0
 51
250.0
  0
LINE
  5
198
330
1F
100
AcDbEntity
  8
0
  6
Continuous
 62
     7
370
    25
100
AcDbLine
 10
443.3760206954
 20
437.3939730178
 30
0.0
 11
443.1880803789
 21
437.4623776988
 31
0.0
  0
LINE
  5
199
330
1F
100
AcDbEntity
  8
0
  6
Continuous
 62
     7
370
    25
100
AcDbLine
 10
437.8867681574
 20
422.8971420766
 30
0.0
 11
438.0747084739
 21
422.8287373956
 31
0.0
  0
ARC
  5
19A
330
1F
100
AcDbEntity
  8
0
  6
Continuous
 62
     7
370
    25
100
AcDbCircle
 10
440.001035738
 20
435.1637893228
 30
0.0
 40
1.000000000000004
100
AcDbArc
 50
236.0772746732
 51
250.0
  0
ARC
  5
19B
330
1F
100
AcDbEntity
  8
0
  6
Continuous
 62
     7
370
    25
100
AcDbCircle
 10
436.9228544481
 20
426.7065557357
 30
0.0
 40
1.000000000000009
100
AcDbArc
 50
70.0
 51
83.9227253268
  0
LINE
  5
19C
330
1F
100
AcDbEntity
  8
0
  6
Continuous
 62
     7
370
    25
100
AcDbLine
 10
441.2646484595
 20
433.6396941321
 30
0.0
 11
439.6590155947
 21
434.224096702
 31
0.0
  0
LINE
  5
19D
330
1F
100
AcDbEntity
  8
0
  6
Continuous
 62
     7
370
    25
100
AcDbLine
 10
437.2648745914
 20
427.6462483565
 30
0.0
 11
438.8705074562
 21
427.0618457866
 31
0.0
  0
LINE
  5
19E
330
1F
100
AcDbEntity
  8
0
  6
Continuous
 62
     7
370
    25
100
AcDbLine
 10
304.5666250414
 20
371.9369885087
 30
0.0
 11
317.5666250414
 21
371.9369885087
 31
0.0
  0
LINE
  5
19F
330
1F
100
AcDbEntity
  8
0
  6
Continuous
 62
     7
370
    25
100
AcDbLine
 10
317.5666250414
 20
375.9369885087
 30
0.0
 11
304.5666250414
 21
375.9369885087
 31
0.0
  0
LINE
  5
1A0
330
1F
100
AcDbEntity
  8
0
  6
Continuous
 62
     7
370
    25
100
AcDbLine
 10
319.446010283
 20
370.6210287954
 30
0.0
 11
326.0071565342
 21
352.5944276245
 31
0.0
  0
LINE
  5
1A1
330
1F
100
AcDbEntity
  8
0
  6
Continuous
 62
     7
370
    25
100
AcDbLine
 10
326.0071565342
 20
364.2896452251
 30
0.0
 11
323.2047807661
 21
371.9891093687
 31
0.0
  0
ARC
  5
1A2
330
1F
100
AcDbEntity
  8
0
  6
Continuous
 62
     7
370
    25
100
AcDbCircle
 10
317.5666250414
 20
369.9369885087
 30
0.0
 40
2.0
100
AcDbArc
 50
20.0
 51
90.0
  0
ARC
  5
1A3
330
1F
100
AcDbEntity
  8
0
  6
Continuous
 62
     7
370
    25
100
AcDbCircle
 10
317.5666250414
 20
369.9369885087
 30
0.0
 40
6.000000000000037
100
AcDbArc
 50
20.0
 51
90.0
  0
LWPOLYLINE
  5
1A4
330
1F
100
AcDbEntity
  8
0
  6
Continuous
 62
     7
370
    25
100
AcDbPolyline
 90
        8
 70
   128
 43
0.0
 10
337.3600060375
 20
450.5574125504
 10
404.7995298105
 20
461.8389131899
 10
421.894906693
 20
464.7011255733
 10
426.2864988833
 20
465.4375972809
 10
427.4432709157
 20
465.6321745137
 10
427.7619009162
 20
465.6860484748
 10
427.8562769125
 20
465.7021317916
 10
427.9073602396
 20
465.7109793325
  0
SPLINE
  5
1A5
330
1F
100
AcDbEntity
  8
0
  6
Continuous
 62
     7
370
    25
100
AcDbSpline
210
0.0
220
0.0
230
1.0
 70
     8
 71
     3
 72
    14
 73
    10
 74
     0
 42
0.00000001
 43
0.00000001
 40
0.0
 40
0.0
 40
0.0
 40
0.0
 40
0.25
 40
0.25
 40
0.5
 40
0.5
 40
0.75
 40
0.75
 40
1.0
 40
1.0
 40
1.0
 40
1.0
 10
427.9073602003168
 20
465.7109793256182
 30
0.0
 10
428.0398553152669
 20
465.735132940892
 30
0.0
 10
428.1723028474578
 20
465.7592787146938
 30
0.0
 10
428.4170784026073
 20
465.8042546380162
 30
0.0
 10
428.5293097756034
 20
465.8250688599634
 30
0.0
 10
428.71648322765
 20
465.8605521595124
 30
0.0
 10
428.7913513320775
 20
465.8752090463568
 30
0.0
 10
428.8923068301099
 20
465.8964839306613
 30
0.0
 10
428.918354189196
 20
465.9030953305738
 30
0.0
 10
428.9179796177671
 20
465.9053524893708
 30
0.0
  0
SPLINE
  5
1A6
330
1F
100
AcDbEntity
  8
0
  6
Continuous
 62
     7
370
    25
100
AcDbSpline
210
0.0
220
0.0
230
1.0
 70
     8
 71
     3
 72
    10
 73
     6
 74
     0
 42
0.00000001
 43
0.00000001
 40
0.0
 40
0.0
 40
0.0
 40
0.0
 40
0.1343875136950501
 40
0.4677207743934469
 40
1.0
 40
1.0
 40
1.0
 40
1.0
 10
427.907436459148
 20
465.7106889887416
 30
0.0
 10
427.6317409882712
 20
465.6638073740349
 30
0.0
 10
426.6722136066732
 20
465.5006411353532
 30
0.0
 10
424.6198623386135
 20
465.1568459592689
 30
0.0
 10
422.8434034056457
 20
464.8587747098026
 30
0.0
 10
421.7510298549841
 20
464.6754858405317
 30
0.0
  0
SPLINE
  5
1A7
330
1F
100
AcDbEntity
  8
0
  6
Continuous
 62
     7
370
    25
100
AcDbSpline
210
0.0
220
0.0
230
1.0
 70
    24
 71
     3
 72
     9
 73
     5
 74
     0
 42
0.00000001
 43
0.00000001
 40
0.0
 40
0.0
 40
0.0
 40
0.0
 40
0.5622445587649928
 40
1.0
 40
1.0
 40
1.0
 40
1.0
 10
363.3669586333997
 20
443.7689349195729
 30
0.0
 10
363.5164080931499
 20
443.768337121734
 30
0.0
 10
363.7822167300151
 20
443.7672738871865
 30
0.0
 10
363.8246748540257
 20
443.7671040546904
 30
0.0
 10
363.843261128836
 20
443.7670297095912
 30
0.0
  0
SPLINE
  5
1A8
330
1F
100
AcDbEntity
  8
0
  6
Continuous
 62
     7
370
    25
100
AcDbSpline
210
0.0
220
0.0
230
1.0
 70
    24
 71
     3
 72
    22
 73
    18
 74
     0
 42
0.00000001
 43
0.00000001
 40
0.0
 40
0.0
 40
0.0
 40
0.0
 40
0.1250000000000005
 40
0.1250000000000005
 40
0.250000000000001
 40
0.250000000000001
 40
0.3750000000000015
 40
0.3750000000000015
 40
0.5000000000000012
 40
0.5000000000000012
 40
0.6250000000000009
 40
0.6250000000000009
 40
0.7500000000000007
 40
0.7500000000000007
 40
0.8750000000000003
 40
0.8750000000000003
 40
1.0
 40
1.0
 40
1.0
 40
1.0
 10
357.782065754295
 20
443.7912744910894
 30
0.0
 10
358.1529043557801
 20
443.7897911366835
 30
0.0
 10
358.5142610231571
 20
443.788345710014
 30
0.0
 10
359.2049529707685
 20
443.7855829422235
 30
0.0
 10
359.5354650313668
 20
443.7842608939812
 30
0.0
 10
360.1692610545303
 20
443.7817257098886
 30
0.0
 10
360.4746154787239
 20
443.7805042921917
 30
0.0
 10
361.044114407117
 20
443.7782262964782
 30
0.0
 10
361.3074288675838
 20
443.7771730386363
 30
0.0
 10
361.7926893442926
 20
443.7752319967295
 30
0.0
 10
362.0147250456242
 20
443.7743438539241
 30
0.0
 10
362.4164746474016
 20
443.772736855517
 30
0.0
 10
362.5960922725623
 20
443.7720183850163
 30
0.0
 10
362.9022603644147
 20
443.7707937126489
 30
0.0
 10
363.03041088645
 20
443.7702811105607
 30
0.0
 10
363.2356212026596
 20
443.7694602692958
 30
0.0
 10
363.3113142800455
 20
443.7691574969863
 30
0.0
 10
363.3669586333997
 20
443.7689349195729
 30
0.0
  0
SPLINE
  5
1A9
330
1F
100
AcDbEntity
  8
0
  6
Continuous
 62
     7
370
    25
100
AcDbSpline
210
0.0
220
0.0
230
1.0
 70
    24
 71
     3
 72
    14
 73
    10
 74
     0
 42
0.00000001
 43
0.00000001
 40
0.0
 40
0.0
 40
0.0
 40
0.0
 40
0.25
 40
0.25
 40
0.5
 40
0.5
 40
0.75
 40
0.75
 40
1.0
 40
1.0
 40
1.0
 40
1.0
 10
350.9912703341432
 20
443.8184376727701
 30
0.0
 10
351.575996370743
 20
443.8160987686236
 30
0.0
 10
352.157252403604
 20
443.8137737444923
 30
0.0
 10
353.3087645895457
 20
443.8091676957485
 30
0.0
 10
353.8794867519186
 20
443.8068848070989
 30
0.0
 10
355.0110965273543
 20
443.8023583679972
 30
0.0
 10
355.5719768341705
 20
443.8001148467699
 30
0.0
 10
356.6846689281898
 20
443.7956640783938
 30
0.0
 10
357.2372359768065
 20
443.7934538101994
 30
0.0
 10
357.782065754295
 20
443.7912744910894
 30
0.0
  0
SPLINE
  5
1AA
330
1F
100
AcDbEntity
  8
0
  6
Continuous
 62
     7
370
    25
100
AcDbSpline
210
0.0
220
0.0
230
1.0
 70
    24
 71
     3
 72
    12
 73
     8
 74
     0
 42
0.00000001
 43
0.00000001
 40
0.0
 40
0.0
 40
0.0
 40
0.0
 40
0.4999999999999982
 40
0.4999999999999982
 40
0.7499999999999991
 40
0.7499999999999991
 40
1.0
 40
1.0
 40
1.0
 40
1.0
 10
345.0505371860858
 20
443.8422006053623
 30
0.0
 10
346.0429544788785
 20
443.8382309361912
 30
0.0
 10
347.0344315119496
 20
443.8342650280589
 30
0.0
 10
348.519518582712
 20
443.8283246797758
 30
0.0
 10
349.014256372234
 20
443.8263457286176
 30
0.0
 10
350.0032705804213
 20
443.8223896717849
 30
0.0
 10
350.4975440059032
 20
443.8204125780831
 30
0.0
 10
350.9912703341432
 20
443.8184376727701
 30
0.0
  0
SPLINE
  5
1AB
330
1F
100
AcDbEntity
  8
0
  6
Continuous
 62
     7
370
    25
100
AcDbSpline
210
0.0
220
0.0
230
1.0
 70
     8
 71
     3
 72
     8
 73
     4
 74
     0
 42
0.00000001
 43
0.00000001
 40
0.0
 40
0.0
 40
0.0
 40
0.0
 40
1.0
 40
1.0
 40
1.0
 40
1.0
 10
343.5194300448596
 20
443.9267066485822
 30
0.0
 10
344.0284340627323
 20
443.8724083409545
 30
0.0
 10
344.5387848768328
 20
443.8442476214182
 30
0.0
 10
345.0505367508339
 20
443.8422006071033
 30
0.0
  0
LINE
  5
1AC
330
1F
100
AcDbEntity
  8
0
  6
Continuous
 62
     7
370
    25
100
AcDbLine
 10
320.9071575369
 20
333.9369885087
 30
0.0
 11
367.1071575372
 21
333.9369885087
 31
0.0
  0
LINE
  5
1AD
330
1F
100
AcDbEntity
  8
0
  6
Continuous
 62
     7
370
    25
100
AcDbLine
 10
320.9071575369
 20
338.9369885094
 30
0.0
 11
367.1071575372
 21
338.9369885094
 31
0.0
  0
LINE
  5
1AE
330
1F
100
AcDbEntity
  8
0
  6
Continuous
 62
     7
370
    25
100
AcDbLine
 10
319.9071575369
 20
333.9369885087
 30
0.0
 11
319.9071575369
 21
337.9369885094
 31
0.0
  0
LINE
  5
1AF
330
1F
100
AcDbEntity
  8
0
  6
Continuous
 62
     7
370
    25
100
AcDbLine
 10
319.9071575369
 20
333.9369885087
 30
0.0
 11
320.9071575369
 21
333.9369885087
 31
0.0
  0
LINE
  5
1B0
330
1F
100
AcDbEntity
  8
0
  6
Continuous
 62
     7
370
    25
100
AcDbLine
 10
368.1071575372
 20
337.9369885094
 30
0.0
 11
368.1071575372
 21
333.9369885087
 31
0.0
  0
LINE
  5
1B1
330
1F
100
AcDbEntity
  8
0
  6
Continuous
 62
     7
370
    25
100
AcDbLine
 10
367.1071575372
 20
333.9369885087
 30
0.0
 11
368.1071575372
 21
333.9369885087
 31
0.0
  0
ARC
  5
1B2
330
1F
100
AcDbEntity
  8
0
  6
Continuous
 62
     7
370
    25
100
AcDbCircle
 10
320.9071575369
 20
337.9369885094
 30
0.0
 40
1.0
100
AcDbArc
 50
90.0
 51
180.0
  0
ARC
  5
1B3
330
1F
100
AcDbEntity
  8
0
  6
Continuous
 62
     7
370
    25
100
AcDbCircle
 10
367.1071575372
 20
337.9369885094
 30
0.0
 40
1.0
100
AcDbArc
 50
0.0
 51
90.0
  0
SPLINE
  5
1B4
330
1F
100
AcDbEntity
  8
0
  6
Continuous
 62
     7
370
    25
100
AcDbSpline
210
0.0
220
0.0
230
1.0
 70
     8
 71
     3
 72
    18
 73
    14
 74
     0
 42
0.00000001
 43
0.00000001
 40
0.0
 40
0.0
 40
0.0
 40
0.0
 40
0.2500000000000013
 40
0.2500000000000013
 40
0.3750000000000014
 40
0.3750000000000014
 40
0.5000000000000017
 40
0.5000000000000017
 40
0.6250000000000019
 40
0.6250000000000019
 40
0.750000000000002
 40
0.750000000000002
 40
1.0
 40
1.0
 40
1.0
 40
1.0
 10
326.0071578784944
 20
343.9369886459267
 30
0.0
 10
326.0071578918433
 20
343.3477329815954
 30
0.0
 10
325.8997642096589
 20
342.71199982172
 30
0.0
 10
325.5342670209727
 20
341.7887726711916
 30
0.0
 10
325.3790162468542
 20
341.4867870043508
 30
0.0
 10
325.0052547076435
 20
340.9150926219962
 30
0.0
 10
324.7867695123774
 20
340.6455323421692
 30
0.0
 10
324.2986141471636
 20
340.1573769644341
 30
0.0
 10
324.0290538729409
 20
339.9388917622535
 30
0.0
 10
323.4573595001735
 20
339.5651302083788
 30
0.0
 10
323.155373837315
 20
339.4098794265142
 30
0.0
 10
322.2321466961619
 20
339.044382214147
 30
0.0
 10
321.5964135390412
 20
338.9369885156559
 30
0.0
 10
321.00715787471
 20
338.9369885138902
 30
0.0
  0
LINE
  5
1B5
330
1F
100
AcDbEntity
  8
0
  6
Continuous
 62
     7
370
    25
100
AcDbLine
 10
392.007156534
 20
424.0055715087
 30
0.0
 11
434.9834775614
 21
424.0055715087
 31
0.0
  0
SPLINE
  5
1B6
330
1F
100
AcDbEntity
  8
0
  6
Continuous
 62
     7
370
    25
100
AcDbSpline
210
0.0
220
0.0
230
1.0
 70
    24
 71
     3
 72
    34
 73
    30
 74
     0
 42
0.00000001
 43
0.00000001
 40
0.0
 40
0.0
 40
0.0
 40
0.0
 40
0.0625000000000007
 40
0.0625000000000007
 40
0.1250000000000014
 40
0.1250000000000014
 40
0.1562500000000009
 40
0.1562500000000009
 40
0.1718750000000007
 40
0.1718750000000007
 40
0.1875000000000006
 40
0.1875000000000006
 40
0.2031250000000006
 40
0.2031250000000006
 40
0.2187500000000004
 40
0.2187500000000004
 40
0.2500000000000004
 40
0.2500000000000004
 40
0.2812500000000005
 40
0.2812500000000005
 40
0.3125000000000006
 40
0.3125000000000006
 40
0.3750000000000005
 40
0.3750000000000005
 40
0.4375000000000005
 40
0.4375000000000005
 40
0.5000000000000004
 40
0.5000000000000004
 40
1.0
 40
1.0
 40
1.0
 40
1.0
 10
437.3823096602186
 20
428.6724040230378
 30
0.0
 10
437.2398304319964
 20
428.280945560756
 30
0.0
 10
437.0972221823243
 20
427.889132614954
 30
0.0
 10
436.8142028173345
 20
427.1115433003762
 30
0.0
 10
436.6734975494167
 20
426.7249587539735
 30
0.0
 10
436.4661004172739
 20
426.1551398165515
 30
0.0
 10
436.3974535185656
 20
425.966534012435
 30
0.0
 10
436.3018118875718
 20
425.7037607909198
 30
0.0
 10
436.2707691602037
 20
425.6184715984376
 30
0.0
 10
436.2131541290636
 20
425.4601756013591
 30
0.0
 10
436.1872069222899
 20
425.3888862366503
 30
0.0
 10
436.140667918753
 20
425.2610213753086
 30
0.0
 10
436.1201377559492
 20
425.2046152165875
 30
0.0
 10
436.0849671139434
 20
425.107984671849
 30
0.0
 10
436.0700575181239
 20
425.0670208940015
 30
0.0
 10
436.0309970647373
 20
424.9597031803285
 30
0.0
 10
436.01195206902
 20
424.9073774846414
 30
0.0
 10
435.9825123546268
 20
424.8264925341108
 30
0.0
 10
435.9718356975612
 20
424.7971586599078
 30
0.0
 10
435.9546566419288
 20
424.7499595924701
 30
0.0
 10
435.9483908438762
 20
424.7327444538058
 30
0.0
 10
435.9339781091794
 20
424.6931457906738
 30
0.0
 10
435.9296161031288
 20
424.6811612775462
 30
0.0
 10
435.9241371737842
 20
424.6661080428893
 30
0.0
 10
435.9235183398989
 20
424.664407810763
 30
0.0
 10
435.9231740365645
 20
424.6634618451262
 30
0.0
 10
435.9231760082279
 20
424.6634672622271
 30
0.0
 10
435.9222674500932
 20
424.6609710192675
 30
0.0
 10
435.9214598428624
 20
424.6587521366366
 30
0.0
 10
435.9206522356314
 20
424.6565332540058
 30
0.0
  0
SPLINE
  5
1B7
330
1F
100
AcDbEntity
  8
0
  6
Continuous
 62
     7
370
    25
100
AcDbSpline
210
0.0
220
0.0
230
1.0
 70
     8
 71
     3
 72
    12
 73
     8
 74
     0
 42
0.00000001
 43
0.00000001
 40
0.0
 40
0.0
 40
0.0
 40
0.0
 40
0.2500000000000059
 40
0.2500000000000059
 40
0.5000000000000118
 40
0.5000000000000118
 40
1.0
 40
1.0
 40
1.0
 40
1.0
 10
435.0992278126045
 20
424.0055715087422
 30
0.0
 10
435.1913560317579
 20
424.0165443746102
 30
0.0
 10
435.2798438879901
 20
424.0398407853637
 30
0.0
 10
435.4497241442121
 20
424.1104535124073
 30
0.0
 10
435.5299573270938
 20
424.1577299057523
 30
0.0
 10
435.7452930425833
 20
424.3282368430895
 30
0.0
 10
435.8578640016074
 20
424.4840239996205
 30
0.0
 10
435.9206522351199
 20
424.6565332526006
 30
0.0
  0
LINE
  5
1B8
330
1F
100
AcDbEntity
  8
0
  6
Continuous
 62
     7
370
    25
100
AcDbLine
 10
435.0057576195
 20
424.0055715087
 30
0.0
 11
435.007216009
 21
424.0055715087
 31
0.0
  0
SPLINE
  5
1B9
330
1F
100
AcDbEntity
  8
0
  6
Continuous
 62
     7
370
    25
100
AcDbSpline
210
0.0
220
0.0
230
1.0
 70
     8
 71
     3
 72
     8
 73
     4
 74
     0
 42
0.00000001
 43
0.00000001
 40
0.0
 40
0.0
 40
0.0
 40
0.0
 40
1.0
 40
1.0
 40
1.0
 40
1.0
 10
434.9835443044825
 20
424.0056549938089
 30
0.0
 10
434.9914341660937
 20
424.0056549954383
 30
0.0
 10
434.9993240276635
 20
424.0057483762613
 30
0.0
 10
435.0072116792341
 20
424.0059351101226
 30
0.0
  0
SPLINE
  5
1BA
330
1F
100
AcDbEntity
  8
0
  6
Continuous
 62
     7
370
    25
100
AcDbSpline
210
0.0
220
0.0
230
1.0
 70
     8
 71
     3
 72
    14
 73
    10
 74
     0
 42
0.00000001
 43
0.00000001
 40
0.0
 40
0.0
 40
0.0
 40
0.0
 40
0.0026283545570112
 40
0.0026283545570112
 40
0.0026283545570112
 40
0.0052567090778632
 40
0.0052567090778632
 40
0.0052567090778632
 40
0.0104863578434055
 40
0.0104863578434055
 40
0.0104863578434055
 40
0.0104863578434055
 10
327.0180741039163
 20
448.82301806182
 30
0.0
 10
327.8822102918347
 20
448.9674193221755
 30
0.0
 10
328.7463127781548
 20
449.1120224222927
 30
0.0
 10
329.6103796635214
 20
449.256837797427
 30
0.0
 10
330.474446543362
 20
449.4016531716351
 30
0.0
 10
331.3384782433045
 20
449.5466784964481
 30
0.0
 10
332.2024894635678
 20
449.6918255828933
 30
0.0
 10
333.9216164285042
 20
449.9806253858795
 30
0.0
 10
335.6403500593676
 20
450.2717673431811
 30
0.0
 10
337.3596466413727
 20
450.5595556523283
 30
0.0
  0
LINE
  5
1BB
330
1F
100
AcDbEntity
  8
0
  6
Continuous
 62
     7
370
    25
100
AcDbLine
 10
428.591518435
 20
467.8863485952
 30
0.0
 11
428.9177965886
 21
465.9064631287
 31
0.0
  0
SPLINE
  5
1BC
330
1F
100
AcDbEntity
  8
0
  6
Continuous
 62
     7
370
    18
100
AcDbSpline
210
0.0
220
0.0
230
1.0
 70
    24
 71
     3
 72
    10
 73
     6
 74
     0
 42
0.00000001
 43
0.00000001
 40
0.0
 40
0.0
 40
0.0
 40
0.0
 40
0.5
 40
0.5
 40
1.0
 40
1.0
 40
1.0
 40
1.0
 10
427.4484635478632
 20
468.4967361713927
 30
0.0
 10
427.4352345868844
 20
468.5770107071035
 30
0.0
 10
427.4251514461366
 20
468.6381961202873
 30
0.0
 10
427.4122601983215
 20
468.7164213822611
 30
0.0
 10
427.4094118718118
 20
468.7337052862757
 30
0.0
 10
427.4094118718631
 20
468.7337052862783
 30
0.0
  0
ARC
  5
1BD
330
1F
100
AcDbEntity
  8
0
  6
Continuous
 62
     7
370
    25
100
AcDbCircle
 10
427.5766158688
 20
467.7190962223
 30
0.0
 40
1.028591546237825
100
AcDbArc
 50
9.3580330718
 51
99.3580327291
  0
LINE
  5
1BE
330
1F
100
AcDbEntity
  8
0
  6
Continuous
 62
     7
370
    25
100
AcDbLine
 10
325.9873133021
 20
448.2800051287
 30
0.0
 11
325.998805489
 21
451.1530519843
 31
0.0
  0
SPLINE
  5
1BF
330
1F
100
AcDbEntity
  8
0
  6
Continuous
 62
     7
370
    25
100
AcDbSpline
210
0.0
220
0.0
230
1.0
 70
     8
 71
     3
 72
    12
 73
     8
 74
     0
 42
0.00000001
 43
0.00000001
 40
0.0
 40
0.0
 40
0.0
 40
0.0
 40
0.4999999999999869
 40
0.4999999999999869
 40
0.7499999999999934
 40
0.7499999999999934
 40
1.0
 40
1.0
 40
1.0
 40
1.0
 10
326.0222127247222
 20
448.2765542881679
 30
0.0
 10
326.0789029224625
 20
448.3823754228785
 30
0.0
 10
326.2039374988909
 20
448.4950435980184
 30
0.0
 10
326.4636866736527
 20
448.6447982003488
 30
0.0
 10
326.5622416478351
 20
448.6912766529784
 30
0.0
 10
326.7799641670459
 20
448.7706338635791
 30
0.0
 10
326.8968039104866
 20
448.8027524592408
 30
0.0
 10
327.0180740940771
 20
448.8230180601515
 30
0.0
  0
LINE
  5
1C0
330
1F
100
AcDbEntity
  8
0
  6
Continuous
 62
     7
370
    25
100
AcDbLine
 10
326.0222127247
 20
448.2765542882
 30
0.0
 11
325.9873133021
 21
448.2800051287
 31
0.0
  0
LINE
  5
1C1
330
1F
100
AcDbEntity
  8
0
  6
Continuous
 62
     7
370
    25
100
AcDbLine
 10
441.018702151
 20
438.6633102797
 30
0.0
 11
437.3823096602
 21
428.672404023
 31
0.0
  0
SPLINE
  5
1C2
330
1F
100
AcDbEntity
  8
0
  6
Continuous
 62
     7
370
    25
100
AcDbSpline
210
0.0
220
0.0
230
1.0
 70
    24
 71
     3
 72
     8
 73
     4
 74
     0
 42
0.00000001
 43
0.00000001
 40
0.0
 40
0.0
 40
0.0
 40
0.0
 40
1.0
 40
1.0
 40
1.0
 40
1.0
 10
326.0222127247242
 20
448.2765542881697
 30
0.0
 10
326.9351691304842
 20
448.1862815360798
 30
0.0
 10
327.8884379060978
 20
448.0920227135191
 30
0.0
 10
328.8689171605056
 20
447.9950733300611
 30
0.0
  0
SPLINE
  5
1C3
330
1F
100
AcDbEntity
  8
0
  6
Continuous
 62
     7
370
    25
100
AcDbSpline
210
0.0
220
0.0
230
1.0
 70
     8
 71
     3
 72
    10
 73
     6
 74
     0
 42
0.00000001
 43
0.00000001
 40
0.0
 40
0.0
 40
0.0
 40
0.0
 40
0.5
 40
0.5
 40
1.0
 40
1.0
 40
1.0
 40
1.0
 10
338.7126661546973
 20
445.2749418003327
 30
0.0
 10
339.4756389044294
 20
444.9151459158263
 30
0.0
 10
340.2577274816053
 20
444.6244079371987
 30
0.0
 10
341.8595758945741
 20
444.1750009194115
 30
0.0
 10
342.6793181422801
 20
444.0163260632074
 30
0.0
 10
343.5194304726558
 20
443.9267066029468
 30
0.0
  0
SPLINE
  5
1C4
330
1F
100
AcDbEntity
  8
0
  6
Continuous
 62
     7
370
    25
100
AcDbSpline
210
0.0
220
0.0
230
1.0
 70
     8
 71
     3
 72
    14
 73
    10
 74
     0
 42
0.00000001
 43
0.00000001
 40
0.0
 40
0.0
 40
0.0
 40
0.0
 40
0.25
 40
0.25
 40
0.5
 40
0.5
 40
0.75
 40
0.75
 40
1.0
 40
1.0
 40
1.0
 40
1.0
 10
328.8689171605055
 20
447.9950733300611
 30
0.0
 10
329.7209042646342
 20
447.9108291973187
 30
0.0
 10
330.571894233404
 20
447.789731459186
 30
0.0
 10
332.2585524500864
 20
447.4752801163586
 30
0.0
 10
333.0923781100186
 20
447.2824766044339
 30
0.0
 10
334.7419471687718
 20
446.8260497300502
 30
0.0
 10
335.5583570688528
 20
446.5619565417819
 30
0.0
 10
337.1571038666304
 20
445.9684462073747
 30
0.0
 10
337.9420617666339
 20
445.6383365447782
 30
0.0
 10
338.7126661546972
 20
445.2749418003327
 30
0.0
  0
LINE
  5
1C5
330
1F
100
AcDbEntity
  8
0
  6
Continuous
 62
     7
370
    25
100
AcDbLine
 10
326.0071567679
 20
364.0053294513
 30
0.0
 11
326.0071567679
 21
354.9369885094
 31
0.0
  0
LINE
  5
1C6
330
1F
100
AcDbEntity
  8
0
  6
Continuous
 62
     7
370
    25
100
AcDbLine
 10
326.0071565342
 20
439.005330423
 30
0.0
 11
326.0071565342
 21
364.0053294513
 31
0.0
  0
LINE
  5
1C7
330
1F
100
AcDbEntity
  8
0
  6
Continuous
 62
     7
370
    25
100
AcDbLine
 10
326.0238896429
 20
439.0053304227
 30
0.0
 11
326.0071565342
 21
439.005330423
 31
0.0
  0
LINE
  5
1C8
330
1F
100
AcDbEntity
  8
0
  6
Continuous
 62
     7
370
    25
100
AcDbLine
 10
440.0790095302
 20
440.005330423
 30
0.0
 11
327.0071565341
 21
440.005330423
 31
0.0
  0
SPLINE
  5
1C9
330
1F
100
AcDbEntity
  8
0
  6
Continuous
 62
     7
370
    25
100
AcDbSpline
210
0.0
220
0.0
230
1.0
 70
     8
 71
     3
 72
    14
 73
    10
 74
     0
 42
0.00000001
 43
0.00000001
 40
0.0
 40
0.0
 40
0.0
 40
0.0
 40
0.25
 40
0.25
 40
0.5
 40
0.5
 40
0.75
 40
0.75
 40
1.0
 40
1.0
 40
1.0
 40
1.0
 10
440.0790095301907
 20
440.0053304229951
 30
0.0
 10
440.2389980449568
 20
440.0053304229951
 30
0.0
 10
440.398846597644
 20
439.9662157310003
 30
0.0
 10
440.6826696892073
 20
439.8184667813466
 30
0.0
 10
440.806395932323
 20
439.7099617782797
 30
0.0
 10
440.9899272166363
 20
439.4478519404128
 30
0.0
 10
441.0495716999331
 20
439.2944764060589
 30
0.0
 10
441.0913370831958
 20
438.9772368243715
 30
0.0
 10
441.0734214457273
 20
438.8136503064057
 30
0.0
 10
441.0187021509765
 20
438.6633102796695
 30
0.0
  0
SPLINE
  5
1CA
330
1F
100
AcDbEntity
  8
0
  6
Continuous
 62
     7
370
    18
100
AcDbSpline
210
0.0
220
0.0
230
1.0
 70
     8
 71
     3
 72
     8
 73
     4
 74
     0
 42
0.00000001
 43
0.00000001
 40
0.0
 40
0.0
 40
0.0
 40
0.0
 40
1.0
 40
1.0
 40
1.0
 40
1.0
 10
327.0354371116508
 20
453.1486281466679
 30
0.0
 10
360.5128646396582
 20
458.3236198019475
 30
0.0
 10
393.9854273037702
 20
463.4497143700406
 30
0.0
 10
427.4484635478632
 20
468.4967361713927
 30
0.0
  0
LINE
  5
1CB
330
1F
100
AcDbEntity
  8
0
  6
Continuous
 62
     7
370
    18
100
AcDbLine
 10
327.0395514449
 20
454.1772114639
 30
0.0
 11
327.0354371117
 21
453.1486281467
 31
0.0
  0
LINE
  5
1CC
330
1F
100
AcDbEntity
  8
0
  6
Continuous
 62
     7
370
    25
100
AcDbLine
 10
326.0068537948
 20
453.1527424801
 30
0.0
 11
325.9988538588
 21
451.1527584797
 31
0.0
  0
ARC
  5
1CD
330
1F
100
AcDbEntity
  8
0
  6
Continuous
 62
     7
370
    25
100
AcDbCircle
 10
327.0354371116
 20
453.1486281471
 30
0.0
 40
1.028591545499509
100
AcDbArc
 50
89.7708181024
 51
179.7708181144
  0
SPLINE
  5
1CE
330
1F
100
AcDbEntity
  8
0
  6
Continuous
 62
     7
370
    25
100
AcDbSpline
210
0.0
220
0.0
230
1.0
 70
     8
 71
     3
 72
    18
 73
    14
 74
     0
 42
0.00000001
 43
0.00000001
 40
0.0
 40
0.0
 40
0.0
 40
0.0
 40
0.031250000000003
 40
0.031250000000003
 40
0.0625000000000061
 40
0.0625000000000061
 40
0.1250000000000129
 40
0.1250000000000129
 40
0.2500000000000084
 40
0.2500000000000084
 40
0.4999999999999996
 40
0.4999999999999996
 40
1.0
 40
1.0
 40
1.0
 40
1.0
 10
392.0071565387746
 20
424.0055715087424
 30
0.0
 10
391.9951427019505
 20
424.0055715082627
 30
0.0
 10
391.9875458372098
 20
424.0055644392427
 30
0.0
 10
391.9763845132203
 20
424.0055531920326
 30
0.0
 10
391.9721913077918
 20
424.0055473375091
 30
0.0
 10
391.9609358828689
 20
424.0055299059696
 30
0.0
 10
391.9555102853913
 20
424.005518617985
 30
0.0
 10
391.9411530371684
 20
424.0054862089983
 30
0.0
 10
391.9344793638815
 20
424.005466506704
 30
0.0
 10
391.9175020066303
 20
424.005413308035
 30
0.0
 10
391.9106870490764
 20
424.0053859020882
 30
0.0
 10
391.8953147700472
 20
424.0053234319624
 30
0.0
 10
391.8923967906986
 20
424.0053081092228
 30
0.0
 10
391.8920471172135
 20
424.0053064991633
 30
0.0
  0
SPLINE
  5
1CF
330
1F
100
AcDbEntity
  8
0
  6
Continuous
 62
     7
370
    25
100
AcDbSpline
210
0.0
220
0.0
230
1.0
 70
     8
 71
     3
 72
    23
 73
    19
 74
     0
 42
0.00000001
 43
0.00000001
 40
0.0
 40
0.0
 40
0.0
 40
0.0
 40
1.736884773864148
 40
3.473769547728295
 40
5.210654321592443
 40
6.947539095456591
 40
8.684423869320739
 40
10.42130864318489
 40
12.15819341704903
 40
13.89507819091318
 40
15.63196296477733
 40
17.36884773864148
 40
19.10573251250563
 40
20.84261728636977
 40
52.39352589075726
 40
83.94443449514475
 40
92.75701556081138
 40
101.569596626478
 40
101.569596626478
 40
101.569596626478
 40
101.569596626478
 10
327.039551444921
 20
454.177211463886
 30
0.0
 10
327.6107629241199
 20
454.2599759415808
 30
0.0
 10
328.7535787410888
 20
454.4255495368006
 30
0.0
 10
330.4654583951796
 20
454.6735519010324
 30
0.0
 10
332.177940500956
 20
454.9216425024588
 30
0.0
 10
333.8902100854921
 20
455.169722082841
 30
0.0
 10
335.6024653393313
 20
455.4178383214781
 30
0.0
 10
337.3146187993872
 20
455.6659974697449
 30
0.0
 10
339.0267166118105
 20
455.9142251561486
 30
0.0
 10
340.7385601494948
 20
456.1625115100777
 30
0.0
 10
342.4508003278032
 20
456.4109698688035
 30
0.0
 10
344.1631107466559
 20
456.659571830957
 30
0.0
 10
345.8754056269919
 20
456.9083238921128
 30
0.0
 10
357.3834081062446
 20
458.5812900992291
 30
0.0
 10
378.7890642722635
 20
461.7157668761174
 30
0.0
 10
402.4474993824048
 20
465.1615493259783
 30
0.0
 10
418.6832335619606
 20
467.4889900981734
 30
0.0
 10
424.5004446713035
 20
468.3190713715891
 30
0.0
 10
427.4094118718631
 20
468.7337052862783
 30
0.0
  0
LINE
  5
1D0
330
1F
100
AcDbEntity
  8
0
  6
Continuous
 62
     7
370
    25
100
AcDbLine
 10
326.0071570852
 20
343.9369886447
 30
0.0
 11
326.0071570852
 21
354.9369886072
 31
0.0
  0
LWPOLYLINE
  5
1D1
330
1F
100
AcDbEntity
  8
0
  6
Continuous
 62
     7
370
    25
100
AcDbPolyline
 90
        2
 70
   128
 43
0.0
 10
327.0395514449
 20
454.1772114639
 10
327.0395514449
 20
454.1772114639
  0
LINE
  5
1D2
330
1F
100
AcDbEntity
  8
0
  6
Continuous
 62
     7
370
    25
100
AcDbLine
 10
328.8223171319
 20
447.805330423
 30
0.0
 11
330.2516853153
 21
447.805330423
 31
0.0
  0
SPLINE
  5
1D3
330
1F
100
AcDbEntity
  8
0
  6
Continuous
 62
     7
370
    25
100
AcDbSpline
210
0.0
220
0.0
230
1.0
 70
    24
 71
     3
 72
    14
 73
    10
 74
     0
 42
0.00000001
 43
0.00000001
 40
0.0
 40
0.0
 40
0.0
 40
0.0
 40
0.25
 40
0.25
 40
0.5
 40
0.5
 40
0.75
 40
0.75
 40
1.0
 40
1.0
 40
1.0
 40
1.0
 10
463.1898941275819
 20
412.8894240602012
 30
0.0
 10
463.1898941275819
 20
412.8894240602012
 30
0.0
 10
463.4961999311477
 20
413.7309923389464
 30
0.0
 10
464.5865697955368
 20
416.726758920209
 30
0.0
 10
465.3260574207391
 20
418.7584844724186
 30
0.0
 10
466.868073270961
 20
422.9951382013443
 30
0.0
 10
467.6075608961633
 20
425.0268637535538
 30
0.0
 10
468.6979307605523
 20
428.0226303348165
 30
0.0
 10
469.0042365641182
 20
428.8641986135616
 30
0.0
 10
469.0042365641182
 20
428.8641986135616
 30
0.0
  0
SPLINE
  5
1D4
330
1F
100
AcDbEntity
  8
0
  6
Continuous
 62
     7
370
    25
100
AcDbSpline
210
0.0
220
0.0
230
1.0
 70
    24
 71
     3
 72
    10
 73
     6
 74
     0
 42
0.00000001
 43
0.00000001
 40
0.0
 40
0.0
 40
0.0
 40
0.0
 40
0.5
 40
0.5
 40
1.0
 40
1.0
 40
1.0
 40
1.0
 10
443.632535802898
 20
438.098742483355
 30
0.0
 10
443.6325358028981
 20
438.0987424833549
 30
0.0
 10
443.3262299993323
 20
437.2571742046097
 30
0.0
 10
442.2358601349433
 20
434.261407623347
 30
0.0
 10
441.496372509741
 20
432.2296820711375
 30
0.0
 10
440.7253645846301
 20
430.1113552066747
 30
0.0
  0
SPLINE
  5
1D5
330
1F
100
AcDbEntity
  8
0
  6
Continuous
 62
     7
370
    25
100
AcDbSpline
210
0.0
220
0.0
230
1.0
 70
    24
 71
     3
 72
    10
 73
     6
 74
     0
 42
0.00000001
 43
0.00000001
 40
0.0
 40
0.0
 40
0.0
 40
0.0
 40
0.5
 40
0.5
 40
1.0
 40
1.0
 40
1.0
 40
1.0
 10
440.7253645846301
 20
430.1113552066747
 30
0.0
 10
439.9543566595191
 20
427.9930283422117
 30
0.0
 10
439.2148690343167
 20
425.9613027900022
 30
0.0
 10
438.1244991699276
 20
422.9655362087395
 30
0.0
 10
437.8181933663617
 20
422.1239679299945
 30
0.0
 10
437.8181933663617
 20
422.1239679299945
 30
0.0
  0
SPLINE
  5
1D6
330
1F
100
AcDbEntity
  8
0
  6
Continuous
 62
     7
370
    25
100
AcDbSpline
210
0.0
220
0.0
230
1.0
 70
    24
 71
     3
 72
    24
 73
    20
 74
     0
 42
0.00000001
 43
0.00000001
 40
0.0
 40
0.0
 40
0.0
 40
0.0
 40
0.0395411281761546
 40
0.0962727663322425
 40
0.156193343878711
 40
0.2184458106792945
 40
0.2819332867564832
 40
0.3454207628336722
 40
0.4076732296342551
 40
0.4675938071807235
 40
0.5243254453368115
 40
0.5810570834928992
 40
0.6409776610393692
 40
0.7032301278399536
 40
0.7667176039171434
 40
0.8302050799943338
 40
0.8924575467949184
 40
0.952378124341388
 40
1.0
 40
1.0
 40
1.0
 40
1.0
 10
442.5389149372423
 20
437.1407125063524
 30
0.0
 10
442.5385227103297
 20
437.1396348717665
 30
0.0
 10
442.5375677358094
 20
437.1370111008358
 30
0.0
 10
442.4436083629774
 20
436.8788598456337
 30
0.0
 10
442.2658307069458
 20
436.3904197500033
 30
0.0
 10
441.9961741932401
 20
435.6495445675877
 30
0.0
 10
441.6468526496959
 20
434.689791514571
 30
0.0
 10
441.235033881143
 20
433.5583287470644
 30
0.0
 10
440.786467696147
 20
432.3259032826568
 30
0.0
 10
440.3286852107375
 20
431.0681562409723
 30
0.0
 10
439.8767363798406
 20
429.8264370333343
 30
0.0
 10
439.4309410190685
 20
428.6016243459152
 30
0.0
 10
438.9923921260537
 20
427.3967211650304
 30
0.0
 10
438.5769950534731
 20
426.2554270880076
 30
0.0
 10
438.2118580031647
 20
425.2522212872792
 30
0.0
 10
437.9191867617165
 20
424.4481136600764
 30
0.0
 10
437.716876031773
 20
423.8922694978436
 30
0.0
 10
437.6036293315169
 20
423.5811267460623
 30
0.0
 10
437.5964231669485
 20
423.5613279716297
 30
0.0
 10
437.5932321380773
 20
423.5525606918613
 30
0.0
  0
LINE
  5
1D7
330
1F
100
AcDbEntity
  8
0
  6
Continuous
 62
     7
370
    25
100
AcDbLine
 10
304.5666250414
 20
371.9369885087
 30
0.0
 11
304.5666250414
 21
375.9369885087
 31
0.0
  0
SPLINE
  5
1D8
330
1F
100
AcDbEntity
  8
0
  6
Continuous
 62
     8
370
    18
100
AcDbSpline
210
0.0
220
0.0
230
1.0
 70
     8
 71
     3
 72
    10
 73
     6
 74
     0
 42
0.00000001
 43
0.00000001
 40
0.5781271939100376
 40
0.5781271939100376
 40
0.5781271939100376
 40
0.5781271939100376
 40
1.154236230988871
 40
1.154236230988871
 40
1.161213034834396
 40
1.161213034834396
 40
1.161213034834396
 40
1.161213034834396
 10
342.8145357653728
 20
444.6808100776343
 30
0.0
 10
342.9443299750593
 20
444.5414746421076
 30
0.0
 10
343.0742464784472
 20
444.402218635899
 30
0.0
 10
343.2058436111909
 20
444.2615033700113
 30
0.0
 10
343.2074182345003
 20
444.2598196838217
 30
0.0
 10
343.2089928802081
 20
444.258136013621
 30
0.0
  0
SPLINE
  5
1D9
330
1F
100
AcDbEntity
  8
0
  6
Continuous
 62
     8
370
    18
100
AcDbSpline
210
0.0
220
0.0
230
1.0
 70
     8
 71
     3
 72
    44
 73
    40
 74
     0
 42
0.00000001
 43
0.00000001
 40
1.161213034834263
 40
1.161213034834263
 40
1.161213034834263
 40
1.161213034834263
 40
1.215563289518786
 40
1.215563289518786
 40
1.288701289238225
 40
1.288701289238225
 40
1.434977288677116
 40
1.434977288677116
 40
1.727529287554895
 40
1.727529287554895
 40
2.020081286432675
 40
2.020081286432675
 40
2.312633285310466
 40
2.312633285310466
 40
2.897737283066025
 40
2.897737283066025
 40
3.190289281943805
 40
3.190289281943805
 40
3.482841280821585
 40
3.482841280821585
 40
4.067945278577156
 40
4.067945278577156
 40
4.360497277454935
 40
4.360497277454935
 40
4.653049276332715
 40
4.653049276332715
 40
5.238153274088275
 40
5.238153274088275
 40
5.823257271843835
 40
5.823257271843835
 40
6.408361269599406
 40
6.408361269599406
 40
6.993465267354965
 40
6.993465267354965
 40
7.578569265110525
 40
7.578569265110525
 40
8.163673262866086
 40
8.163673262866086
 40
8.172668223542953
 40
8.172668223542953
 40
8.172668223542953
 40
8.172668223542953
 10
338.105298564753
 20
449.7428698661161
 30
0.0
 10
338.1171463136443
 20
449.7303599358768
 30
0.0
 10
338.129003816821
 20
449.7178322381787
 30
0.0
 10
338.1568623519984
 20
449.6884650208227
 30
0.0
 10
338.172854702783
 20
449.6715794429883
 30
0.0
 10
338.2208782087123
 20
449.6208681358349
 30
0.0
 10
338.2529571913103
 20
449.5869566185997
 30
0.0
 10
338.3493618857603
 20
449.484969401006
 30
0.0
 10
338.4138431220865
 20
449.4166521537051
 30
0.0
 10
338.5432895464274
 20
449.2794437996993
 30
0.0
 10
338.6082052962584
 20
449.2105820825795
 30
0.0
 10
338.73836043617
 20
449.0723329804347
 30
0.0
 10
338.8035470288386
 20
449.0030153119152
 30
0.0
 10
338.9994432917549
 20
448.7942418988599
 30
0.0
 10
339.1302351145378
 20
448.6542415317282
 30
0.0
 10
339.326751042018
 20
448.4434083176176
 30
0.0
 10
339.392264063568
 20
448.373040828734
 30
0.0
 10
339.5234333431202
 20
448.2320694720755
 30
0.0
 10
339.5890221362638
 20
448.161532076552
 30
0.0
 10
339.7858745580351
 20
447.9496394602128
 30
0.0
 10
339.9171549933806
 20
447.8081084978253
 30
0.0
 10
340.1140675191983
 20
447.5955962934326
 30
0.0
 10
340.1797223172086
 20
447.5247026484041
 30
0.0
 10
340.3109891550185
 20
447.3829077805489
 30
0.0
 10
340.3766426884472
 20
447.3119628859648
 30
0.0
 10
340.5735610598413
 20
447.0991198800836
 30
0.0
 10
340.7048486499557
 20
446.9571439051489
 30
0.0
 10
340.9674328235409
 20
446.6731691028035
 30
0.0
 10
341.0987587230734
 20
446.5311402158526
 30
0.0
 10
341.3614063480238
 20
446.247167228249
 30
0.0
 10
341.492784559727
 20
446.1051637470579
 30
0.0
 10
341.7555799761761
 20
445.8212797094513
 30
0.0
 10
341.8870288184417
 20
445.6793546579072
 30
0.0
 10
342.1500386937686
 20
445.3956420535429
 30
0.0
 10
342.2815866773822
 20
445.2538608595282
 30
0.0
 10
342.5449083912978
 20
444.9704468981836
 30
0.0
 10
342.6766394662145
 20
444.8288499951811
 30
0.0
 10
342.8104827644666
 20
444.6851610676738
 30
0.0
 10
342.8125092500136
 20
444.6829855629726
 30
0.0
 10
342.8145357653729
 20
444.6808100776342
 30
0.0
  0
SPLINE
  5
1DA
330
1F
100
AcDbEntity
  8
0
  6
Continuous
 62
     8
370
    18
100
AcDbSpline
210
0.0
220
0.0
230
1.0
 70
     8
 71
     3
 72
    12
 73
     8
 74
     0
 42
0.00000001
 43
0.00000001
 40
8.172668223544271
 40
8.172668223544271
 40
8.172668223544271
 40
8.172668223544271
 40
8.176115058065157
 40
8.176115058065157
 40
8.468667056942937
 40
8.468667056942937
 40
8.487454801976547
 40
8.487454801976547
 40
8.487454801976547
 40
8.487454801976547
 10
337.9003752538347
 20
449.9586435386469
 30
0.0
 10
337.9011189538482
 20
449.9578609853489
 30
0.0
 10
337.9018627291372
 20
449.9570783644856
 30
0.0
 10
337.9657414036894
 20
449.8898644167519
 30
0.0
 10
338.0292723850394
 20
449.8230904139523
 30
0.0
 10
338.0971086928948
 20
449.751516584902
 30
0.0
 10
338.1012030460341
 20
449.747194287062
 30
0.0
 10
338.1052985647522
 20
449.742869866117
 30
0.0
  0
SPLINE
  5
1DB
330
1F
100
AcDbEntity
  8
0
  6
Continuous
 62
     8
370
    18
100
AcDbSpline
210
0.0
220
0.0
230
1.0
 70
     8
 71
     3
 72
    16
 73
    12
 74
     0
 42
0.00000001
 43
0.00000001
 40
8.487454801976627
 40
8.487454801976627
 40
8.487454801976627
 40
8.487454801976627
 40
8.505695716722823
 40
8.505695716722823
 40
8.523980216652683
 40
8.523980216652683
 40
8.542264716582544
 40
8.542264716582544
 40
8.578833716442274
 40
8.578833716442274
 40
8.648524881640746
 40
8.648524881640746
 40
8.648524881640746
 40
8.648524881640746
 10
337.7966004869976
 20
450.0680644474758
 30
0.0
 10
337.8004883578033
 20
450.0639241963099
 30
0.0
 10
337.8043574756333
 20
450.0597868402941
 30
0.0
 10
337.8121800775171
 20
450.0515339195068
 30
0.0
 10
337.8160971079076
 20
450.0474036544205
 30
0.0
 10
337.8239441717784
 20
450.0391301042025
 30
0.0
 10
337.8278555415741
 20
450.0350071515044
 30
0.0
 10
337.839617591447
 20
450.0226111007055
 30
0.0
 10
337.8474855797082
 20
450.0143222338302
 30
0.0
 10
337.8703324504124
 20
449.990260634537
 30
0.0
 10
337.8853384656791
 20
449.9744658970567
 30
0.0
 10
337.9003752538347
 20
449.958643538647
 30
0.0
  0
SPLINE
  5
1DC
330
1F
100
AcDbEntity
  8
0
  6
Continuous
 62
     8
370
    18
100
AcDbSpline
210
0.0
220
0.0
230
1.0
 70
     8
 71
     3
 72
    16
 73
    12
 74
     0
 42
0.00000001
 43
0.00000001
 40
8.648524881646216
 40
8.648524881646216
 40
8.648524881646216
 40
8.648524881646216
 40
8.673847827925684
 40
8.673847827925684
 40
8.746985827645124
 40
8.746985827645124
 40
8.783554827504855
 40
8.783554827504855
 40
8.801839327434715
 40
8.801839327434715
 40
8.801882912612909
 40
8.801882912612909
 40
8.801882912612909
 40
8.801882912612909
 10
337.699609181648
 20
450.1723980592792
 30
0.0
 10
337.7049060716801
 20
450.1666554841084
 30
0.0
 10
337.7102024034573
 20
450.1609045931365
 30
0.0
 10
337.7308430642486
 20
450.1385617023908
 30
0.0
 10
337.746204377229
 20
450.1220043378278
 30
0.0
 10
337.769420785967
 20
450.0970966598312
 30
0.0
 10
337.7771473180109
 20
450.0888254757853
 30
0.0
 10
337.788802242431
 20
450.0763780183892
 30
0.0
 10
337.7926753667108
 20
450.0722442836607
 30
0.0
 10
337.7965819073866
 20
450.0680842330811
 30
0.0
 10
337.7965911972439
 20
450.0680743402721
 30
0.0
 10
337.7966004869941
 20
450.0680644474796
 30
0.0
  0
SPLINE
  5
1DD
330
1F
100
AcDbEntity
  8
0
  6
Continuous
 62
     8
370
    18
100
AcDbSpline
210
0.0
220
0.0
230
1.0
 70
     8
 71
     3
 72
    18
 73
    14
 74
     0
 42
0.00000001
 43
0.00000001
 40
8.801882912619167
 40
8.801882912619167
 40
8.801882912619167
 40
8.801882912619167
 40
8.809500601130521
 40
8.809500601130521
 40
8.818642851095452
 40
8.818642851095452
 40
8.836927351025311
 40
8.836927351025311
 40
8.910065350744752
 40
8.910065350744752
 40
8.946634350604482
 40
8.946634350604482
 40
8.957880404178475
 40
8.957880404178475
 40
8.957880404178475
 40
8.957880404178475
 10
337.6014328642431
 20
450.2775849150991
 30
0.0
 10
337.6030431084916
 20
450.2758896325974
 30
0.0
 10
337.6046569710466
 20
450.2741917087931
 30
0.0
 10
337.6081778566628
 20
450.2704742068212
 30
0.0
 10
337.610105451455
 20
450.2684217578743
 30
0.0
 10
337.6158776854094
 20
450.2622906892274
 30
0.0
 10
337.6197109389037
 20
450.2582118902874
 30
0.0
 10
337.6389217427386
 20
450.2377475350702
 30
0.0
 10
337.6542627246258
 20
450.2213193702945
 30
0.0
 10
337.6772465963496
 20
450.1965795185844
 30
0.0
 10
337.6848969897954
 20
450.1883214787271
 30
0.0
 10
337.6949043181182
 20
450.1774970348102
 30
0.0
 10
337.6972568049333
 20
450.1749483671074
 30
0.0
 10
337.6996091816442
 20
450.1723980592835
 30
0.0
  0
SPLINE
  5
1DE
330
1F
100
AcDbEntity
  8
0
  6
Continuous
 62
     8
370
    18
100
AcDbSpline
210
0.0
220
0.0
230
1.0
 70
     8
 71
     3
 72
    18
 73
    14
 74
     0
 42
0.00000001
 43
0.00000001
 40
8.957880404168645
 40
8.957880404168645
 40
8.957880404168645
 40
8.957880404168645
 40
8.963411976457511
 40
8.963411976457511
 40
8.97255422642244
 40
8.97255422642244
 40
9.00912322628217
 40
9.00912322628217
 40
9.082261226001611
 40
9.082261226001611
 40
9.11883022586133
 40
9.11883022586133
 40
9.120354787324747
 40
9.120354787324747
 40
9.120354787324747
 40
9.120354787324747
 10
337.4991509570944
 20
450.3856426032
 30
0.0
 10
337.5002956536146
 20
450.3844120181748
 30
0.0
 10
337.5014421199611
 20
450.3831819324428
 30
0.0
 10
337.5044990321488
 20
450.3799414454502
 30
0.0
 10
337.506413634501
 20
450.377915476955
 30
0.0
 10
337.5159585530477
 20
450.3678107986896
 30
0.0
 10
337.5236108558494
 20
450.3597155155574
 30
0.0
 10
337.5465876103517
 20
450.3354238530536
 30
0.0
 10
337.5619480545146
 20
450.3192055295586
 30
0.0
 10
337.5850482227392
 20
450.2948460748611
 30
0.0
 10
337.5927468581497
 20
450.2867334606048
 30
0.0
 10
337.6007884786667
 20
450.278263377966
 30
0.0
 10
337.6011105989946
 20
450.2779241994263
 30
0.0
 10
337.6014328642493
 20
450.2775849150925
 30
0.0
  0
SPLINE
  5
1DF
330
1F
100
AcDbEntity
  8
0
  6
Continuous
 62
     8
370
    18
100
AcDbSpline
210
0.0
220
0.0
230
1.0
 70
     8
 71
     3
 72
    22
 73
    18
 74
     0
 42
0.00000001
 43
0.00000001
 40
9.120354787332603
 40
9.120354787332603
 40
9.120354787332603
 40
9.120354787332603
 40
9.156923787192325
 40
9.156923787192325
 40
9.175208287122183
 40
9.175208287122183
 40
9.193492787052044
 40
9.193492787052044
 40
9.230061786911763
 40
9.230061786911763
 40
9.266630786771493
 40
9.266630786771493
 40
9.339768786490934
 40
9.339768786490934
 40
9.358053286420795
 40
9.358053286420795
 40
9.361663964089
 40
9.361663964089
 40
9.361663964089
 40
9.361663964089
 10
337.3611139120761
 20
450.5528045679058
 30
0.0
 10
337.3669780316332
 20
450.543762764572
 30
0.0
 10
337.3729233491809
 20
450.5347802858195
 30
0.0
 10
337.3822678440619
 20
450.5214799669052
 30
0.0
 10
337.3854510018098
 20
450.5170745971186
 30
0.0
 10
337.3919510729718
 20
450.508367173928
 30
0.0
 10
337.3952797930889
 20
450.5040605327203
 30
0.0
 10
337.4054173035042
 20
450.4911889628813
 30
0.0
 10
337.4123444958652
 20
450.4827492728458
 30
0.0
 10
337.4264826636303
 20
450.4659517727737
 30
0.0
 10
337.4336637179846
 20
450.4576289586262
 30
0.0
 10
337.4555179844941
 20
450.4328163038323
 30
0.0
 10
337.4704802053469
 20
450.4165064452815
 30
0.0
 10
337.4893353777989
 20
450.3961882662193
 30
0.0
 10
337.4931285629919
 20
450.3921092929356
 30
0.0
 10
337.4976573330875
 20
450.3872493197092
 30
0.0
 10
337.4984037680542
 20
450.3864458550905
 30
0.0
 10
337.4991509570895
 20
450.3856426032052
 30
0.0
  0
SPLINE
  5
1E0
330
1F
100
AcDbEntity
  8
0
  6
Continuous
 62
     8
370
    18
100
AcDbSpline
210
0.0
220
0.0
230
1.0
 70
     8
 71
     3
 72
     8
 73
     4
 74
     0
 42
0.00000001
 43
0.00000001
 40
0.119920458611347
 40
0.119920458611347
 40
0.119920458611347
 40
0.119920458611347
 40
0.5781271939121693
 40
0.5781271939121693
 40
0.5781271939121693
 40
0.5781271939121693
 10
343.2089928802066
 20
444.2581360136226
 30
0.0
 10
343.3124088977704
 20
444.1475597321235
 30
0.0
 10
343.4159215267539
 20
444.0370524153793
 30
0.0
 10
343.5194751730092
 20
443.9266589500818
 30
0.0
  0
LINE
  5
1E1
330
1F
100
AcDbEntity
  8
0
  6
Continuous
 62
     8
370
    18
100
AcDbLine
 10
367.1071575372
 20
337.9369885094
 30
0.0
 11
320.9071575369
 21
337.9369885094
 31
0.0
  0
LINE
  5
1E2
330
1F
100
AcDbEntity
  8
0
  6
Continuous
 62
     8
370
    18
100
AcDbLine
 10
367.1071575372
 20
333.9369885087
 30
0.0
 11
367.1071575372
 21
337.9369885094
 31
0.0
  0
LINE
  5
1E3
330
1F
100
AcDbEntity
  8
0
  6
Continuous
 62
     8
370
    18
100
AcDbLine
 10
320.9071575369
 20
337.9369885094
 30
0.0
 11
320.9071575369
 21
333.9369885087
 31
0.0
  0
LINE
  5
1E4
330
1F
100
AcDbEntity
  8
0
  6
Continuous
 62
     8
370
    18
100
AcDbLine
 10
367.1071575372
 20
338.9369885094
 30
0.0
 11
367.1071575372
 21
337.9369885094
 31
0.0
  0
LINE
  5
1E5
330
1F
100
AcDbEntity
  8
0
  6
Continuous
 62
     8
370
    18
100
AcDbLine
 10
320.9071575369
 20
338.9369885094
 30
0.0
 11
320.9071575369
 21
337.9369885094
 31
0.0
  0
LINE
  5
1E6
330
1F
100
AcDbEntity
  8
0
  6
Continuous
 62
     8
370
    18
100
AcDbLine
 10
319.9071575369
 20
337.9369885094
 30
0.0
 11
320.9071575369
 21
337.9369885094
 31
0.0
  0
LINE
  5
1E7
330
1F
100
AcDbEntity
  8
0
  6
Continuous
 62
     8
370
    18
100
AcDbLine
 10
367.1071575372
 20
337.9369885094
 30
0.0
 11
368.1071575372
 21
337.9369885094
 31
0.0
  0
SPLINE
  5
1E8
330
1F
100
AcDbEntity
  8
0
  6
Continuous
 62
     8
370
    18
100
AcDbSpline
210
0.0
220
0.0
230
1.0
 70
     8
 71
     3
 72
    18
 73
    14
 74
     0
 42
0.00000001
 43
0.00000001
 40
0.0
 40
0.0
 40
0.0
 40
0.0
 40
0.25
 40
0.25
 40
0.375
 40
0.375
 40
0.5
 40
0.5
 40
0.625
 40
0.625
 40
0.75
 40
0.75
 40
1.0
 40
1.0
 40
1.0
 40
1.0
 10
327.0071567676598
 20
343.93698864517
 30
0.0
 10
327.0071567676601
 20
343.347732986178
 30
0.0
 10
327.0071567698771
 20
342.7119998280864
 30
0.0
 10
327.0071567774217
 20
341.7887726761803
 30
0.0
 10
327.0071567806264
 20
341.4867870082594
 30
0.0
 10
327.0071567883415
 20
340.9150926232128
 30
0.0
 10
327.0071567928513
 20
340.6455323417846
 30
0.0
 10
327.0071568029276
 20
340.157376961089
 30
0.0
 10
327.0071568084917
 20
339.9388917575581
 30
0.0
 10
327.0071568202922
 20
339.5651302017399
 30
0.0
 10
327.0071568265255
 20
339.4098794192842
 30
0.0
 10
327.007156845582
 20
339.0443822064146
 30
0.0
 10
327.0071568587042
 20
338.93698850935
 30
0.0
 10
327.007156870867
 20
338.93698850935
 30
0.0
  0
SPLINE
  5
1E9
330
1F
100
AcDbEntity
  8
0
  6
Continuous
 62
     8
370
    18
100
AcDbSpline
210
0.0
220
0.0
230
1.0
 70
     8
 71
     3
 72
    18
 73
    14
 74
     0
 42
0.00000001
 43
0.00000001
 40
0.0
 40
0.0
 40
0.0
 40
0.0
 40
0.2500000000000012
 40
0.2500000000000012
 40
0.3750000000000011
 40
0.3750000000000011
 40
0.500000000000001
 40
0.500000000000001
 40
0.6250000000000009
 40
0.6250000000000009
 40
0.7500000000000008
 40
0.7500000000000008
 40
1.0
 40
1.0
 40
1.0
 40
1.0
 10
342.0071577175565
 20
338.93698850935
 30
0.0
 10
342.0071577053938
 20
338.93698850935
 30
0.0
 10
342.0071576922717
 20
339.0443822064146
 30
0.0
 10
342.0071576732154
 20
339.4098794192842
 30
0.0
 10
342.0071576669821
 20
339.56513020174
 30
0.0
 10
342.0071576551817
 20
339.9388917575581
 30
0.0
 10
342.0071576496176
 20
340.157376961089
 30
0.0
 10
342.0071576395415
 20
340.6455323417846
 30
0.0
 10
342.0071576350317
 20
340.9150926232128
 30
0.0
 10
342.0071576273166
 20
341.4867870082594
 30
0.0
 10
342.007157624112
 20
341.7887726761803
 30
0.0
 10
342.0071576165675
 20
342.7119998280864
 30
0.0
 10
342.0071576143505
 20
343.347732986178
 30
0.0
 10
342.0071576143502
 20
343.93698864517
 30
0.0
  0
LINE
  5
1EA
330
1F
100
AcDbEntity
  8
0
  6
Continuous
 62
     8
370
    18
100
AcDbLine
 10
392.0071565339
 20
429.0053287968
 30
0.0
 11
436.4393066329
 21
429.0053288977
 31
0.0
  0
LINE
  5
1EB
330
1F
100
AcDbEntity
  8
0
  6
Continuous
 62
     8
370
    18
100
AcDbLine
 10
436.4395246054
 20
429.0053287964
 30
0.0
 11
436.4393066329
 21
429.0053288993
 31
0.0
  0
SPLINE
  5
1EC
330
1F
100
AcDbEntity
  8
0
  6
Continuous
 62
     8
370
    18
100
AcDbSpline
210
0.0
220
0.0
230
1.0
 70
     8
 71
     3
 72
    26
 73
    22
 74
     0
 42
0.00000001
 43
0.00000001
 40
0.0
 40
0.0
 40
0.0
 40
0.0
 40
0.2500000000000028
 40
0.2500000000000028
 40
0.3750000000000038
 40
0.3750000000000038
 40
0.4375000000000036
 40
0.4375000000000036
 40
0.5000000000000033
 40
0.5000000000000033
 40
0.562500000000003
 40
0.562500000000003
 40
0.6250000000000028
 40
0.6250000000000028
 40
0.6875000000000024
 40
0.6875000000000024
 40
0.7500000000000021
 40
0.7500000000000021
 40
0.8750000000000011
 40
0.8750000000000011
 40
1.0
 40
1.0
 40
1.0
 40
1.0
 10
434.9835443044825
 20
424.0056549938089
 30
0.0
 10
434.9837642644623
 20
424.0062574419258
 30
0.0
 10
434.9827229406395
 20
424.002794303255
 30
0.0
 10
435.0028527148754
 20
424.0603475353456
 30
0.0
 10
435.013696037867
 20
424.0915622384379
 30
0.0
 10
435.0441902752955
 20
424.1847785706364
 30
0.0
 10
435.0564771331014
 20
424.2235252892067
 30
0.0
 10
435.087701522605
 20
424.3282539296113
 30
0.0
 10
435.1071399162666
 20
424.3942407159876
 30
0.0
 10
435.1510521230522
 20
424.5641137595627
 30
0.0
 10
435.1768334465316
 20
424.6700393047619
 30
0.0
 10
435.2339687660057
 20
424.9326891191591
 30
0.0
 10
435.2660626882058
 20
425.0860421961417
 30
0.0
 10
435.3409312259432
 20
425.4387820796298
 30
0.0
 10
435.3855829667979
 20
425.6319747677435
 30
0.0
 10
435.4868341925306
 20
426.0326138761944
 30
0.0
 10
435.5434581709535
 20
426.2435699143711
 30
0.0
 10
435.728196733275
 20
426.8741721870556
 30
0.0
 10
435.862748007048
 20
427.2988252516396
 30
0.0
 10
436.1449451777053
 20
428.1502493346165
 30
0.0
 10
436.2900890093105
 20
428.5768856988927
 30
0.0
 10
436.4395246044323
 20
429.0053287967968
 30
0.0
  0
SPLINE
  5
1ED
330
1F
100
AcDbEntity
  8
0
  6
Continuous
 62
     8
370
    18
100
AcDbSpline
210
0.0
220
0.0
230
1.0
 70
     8
 71
     3
 72
    20
 73
    16
 74
     0
 42
0.00000001
 43
0.00000001
 40
0.0
 40
0.0
 40
0.0
 40
0.0
 40
0.0003351782568589
 40
0.0003351782568589
 40
0.0003351782568589
 40
0.0006700971688531
 40
0.0006700971688531
 40
0.0006700971688531
 40
0.0010057590980455
 40
0.0010057590980455
 40
0.0010057590980455
 40
0.0012936735533637
 40
0.0012936735533637
 40
0.0012936735533637
 40
0.0015627022633188
 40
0.0015627022633188
 40
0.0015627022633188
 40
0.0015627022633188
 10
436.4395246044323
 20
429.0053287967968
 30
0.0
 10
436.5445127096538
 20
428.9671160313119
 30
0.0
 10
436.6540098283958
 20
428.9371897667642
 30
0.0
 10
436.7531015810185
 20
428.9011343773311
 30
0.0
 10
436.8521551172691
 20
428.8650928932549
 30
0.0
 10
436.9465956797741
 20
428.8307359840264
 30
0.0
 10
437.0286355296506
 20
428.8008967822496
 30
0.0
 10
437.110852260482
 20
428.7709932460485
 30
0.0
 10
437.1828787027614
 20
428.7448034834922
 30
0.0
 10
437.2387503164559
 20
428.7244962799016
 30
0.0
 10
437.2868537473389
 20
428.7070125148956
 30
0.0
 10
437.3241298483194
 20
428.6934720892736
 30
0.0
 10
437.3482781950028
 20
428.6847106248703
 30
0.0
 10
437.3707510129501
 20
428.6765570731151
 30
0.0
 10
437.3823010279728
 20
428.672380307991
 30
0.0
 10
437.38230966022
 20
428.6724040230415
 30
0.0
  0
LINE
  5
1EE
330
1F
100
AcDbEntity
  8
0
  6
Continuous
 62
     8
370
    18
100
AcDbLine
 10
327.0273888065
 20
451.1489376505
 30
0.0
 11
327.0180818064
 21
448.8221876241
 31
0.0
  0
LINE
  5
1EF
330
1F
100
AcDbEntity
  8
0
  6
Continuous
 62
     8
370
    18
100
AcDbLine
 10
327.0274371761
 20
451.1486441465
 30
0.0
 11
427.5766642406
 21
467.7188027228
 31
0.0
  0
LINE
  5
1F0
330
1F
100
AcDbEntity
  8
0
  6
Continuous
 62
     8
370
    18
100
AcDbLine
 10
427.9091986997
 20
465.7009349863
 30
0.0
 11
427.5766158704
 21
467.7190962323
 31
0.0
  0
LINE
  5
1F1
330
1F
100
AcDbEntity
  8
0
  6
Continuous
 62
     8
370
    18
100
AcDbLine
 10
427.5766158714
 20
467.7190962263
 30
0.0
 11
428.5915184349
 21
467.8863485952
 31
0.0
  0
SPLINE
  5
1F2
330
1F
100
AcDbEntity
  8
0
  6
Continuous
 62
     8
370
    18
100
AcDbSpline
210
0.0
220
0.0
230
1.0
 70
    24
 71
     3
 72
    10
 73
     6
 74
     0
 42
0.00000001
 43
0.00000001
 40
0.0
 40
0.0
 40
0.0
 40
0.0
 40
0.5
 40
0.5
 40
1.0
 40
1.0
 40
1.0
 40
1.0
 10
427.5766642405968
 20
467.7188027228161
 30
0.0
 10
427.5548584071787
 20
467.8511225008852
 30
0.0
 10
427.5311249856745
 20
467.9951390584962
 30
0.0
 10
427.4860037509945
 20
468.2689388091226
 30
0.0
 10
427.4648389848486
 20
468.3973685324972
 30
0.0
 10
427.4484635478632
 20
468.4967361713927
 30
0.0
  0
SPLINE
  5
1F3
330
1F
100
AcDbEntity
  8
0
  6
Continuous
 62
     8
370
    18
100
AcDbSpline
210
0.0
220
0.0
230
1.0
 70
    24
 71
     3
 72
    14
 73
    10
 74
     0
 42
0.00000001
 43
0.00000001
 40
0.0
 40
0.0
 40
0.0
 40
0.0
 40
0.25
 40
0.25
 40
0.5
 40
0.5
 40
0.75
 40
0.75
 40
1.0
 40
1.0
 40
1.0
 40
1.0
 10
327.0274371761158
 20
451.1486441464741
 30
0.0
 10
326.8927918063677
 20
451.1491827279509
 30
0.0
 10
326.7581981307417
 20
451.1497211026516
 30
0.0
 10
326.5094022053283
 20
451.1507162863509
 30
0.0
 10
326.3952978580764
 20
451.1511727037393
 30
0.0
 10
326.204875964046
 20
451.1519343913154
 30
0.0
 10
326.1286333493074
 20
451.152239361775
 30
0.0
 10
326.0255772488471
 20
451.1526515861792
 30
0.0
 10
325.9988043162554
 20
451.1527586779113
 30
0.0
 10
325.9988043162567
 20
451.1527586779135
 30
0.0
  0
LINE
  5
1F4
330
1F
100
AcDbEntity
  8
0
  6
Continuous
 62
     8
370
    18
100
AcDbLine
 10
436.4393066329
 20
429.0053288977
 30
0.0
 11
440.0790095302
 21
439.0053304215
 31
0.0
  0
SPLINE
  5
1F5
330
1F
100
AcDbEntity
  8
0
  6
Continuous
 62
     8
370
    18
100
AcDbSpline
210
0.0
220
0.0
230
1.0
 70
     8
 71
     3
 72
    10
 73
     6
 74
     0
 42
0.00000001
 43
0.00000001
 40
0.0
 40
0.0
 40
0.0
 40
0.0
 40
0.5
 40
0.5
 40
1.0
 40
1.0
 40
1.0
 40
1.0
 10
440.0790095301907
 20
439.0053304214899
 30
0.0
 10
440.3250204829511
 20
438.9157897573816
 30
0.0
 10
440.5695165414203
 20
438.8268004698656
 30
0.0
 10
440.9174285673961
 20
438.7001708488245
 30
0.0
 10
441.0187021508499
 20
438.6633102793215
 30
0.0
 10
441.0187021509765
 20
438.6633102796695
 30
0.0
  0
LINE
  5
1F6
330
1F
100
AcDbEntity
  8
0
  6
Continuous
 62
     8
370
    18
100
AcDbLine
 10
327.0071567677
 20
364.0053294513
 30
0.0
 11
327.0071567677
 21
354.9369886452
 31
0.0
  0
LINE
  5
1F7
330
1F
100
AcDbEntity
  8
0
  6
Continuous
 62
     8
370
    18
100
AcDbLine
 10
327.007156534
 20
439.0053304215
 30
0.0
 11
326.0238896429
 21
439.0053304227
 31
0.0
  0
LINE
  5
1F8
330
1F
100
AcDbEntity
  8
0
  6
Continuous
 62
     8
370
    18
100
AcDbLine
 10
327.007156534
 20
439.0053304215
 30
0.0
 11
327.0071565338
 21
364.0053294513
 31
0.0
  0
SPLINE
  5
1F9
330
1F
100
AcDbEntity
  8
0
  6
Continuous
 62
     8
370
    18
100
AcDbSpline
210
0.0
220
0.0
230
1.0
 70
     8
 71
     3
 72
    38
 73
    34
 74
     0
 42
0.00000001
 43
0.00000001
 40
0.0
 40
0.0
 40
0.0
 40
0.0
 40
0.0625
 40
0.0625
 40
0.125
 40
0.125
 40
0.1875
 40
0.1875
 40
0.25
 40
0.25
 40
0.3125
 40
0.3125
 40
0.375
 40
0.375
 40
0.4375
 40
0.4375
 40
0.5
 40
0.5
 40
0.5625
 40
0.5625
 40
0.625
 40
0.625
 40
0.6875
 40
0.6875
 40
0.75
 40
0.75
 40
0.8125
 40
0.8125
 40
0.875
 40
0.875
 40
0.9375
 40
0.9375
 40
1.0
 40
1.0
 40
1.0
 40
1.0
 10
392.0071565339671
 20
429.0053287967896
 30
0.0
 10
389.4534402783726
 20
429.0053287967896
 30
0.0
 10
386.9008539877476
 20
429.0058352958602
 30
0.0
 10
381.899228286634
 20
428.9969243827284
 30
0.0
 10
379.4501027464585
 20
428.9874208408405
 30
0.0
 10
374.730944412236
 20
428.93677503365
 30
0.0
 10
372.4608254885021
 20
428.8955466386619
 30
0.0
 10
368.1522413189288
 20
428.7517145603369
 30
0.0
 10
366.1136899434024
 20
428.6490247473145
 30
0.0
 10
362.3004007583898
 20
428.3470954057588
 30
0.0
 10
360.5255768192167
 20
428.1477697475399
 30
0.0
 10
357.2540852420412
 20
427.6145403167649
 30
0.0
 10
355.7573314743519
 20
427.2805504145233
 30
0.0
 10
353.0410897128658
 20
426.4396940157766
 30
0.0
 10
351.8215155893819
 20
425.9327413895861
 30
0.0
 10
349.6460932172244
 20
424.7099748724797
 30
0.0
 10
348.6901588388639
 20
423.9940748518785
 30
0.0
 10
347.0184105766729
 20
422.3223265755171
 30
0.0
 10
346.3025105631555
 20
421.3663921900717
 30
0.0
 10
345.0797440597782
 20
419.190969804181
 30
0.0
 10
344.5727914402315
 20
417.9713956740504
 30
0.0
 10
343.7319350539361
 20
415.2551539001054
 30
0.0
 10
343.3979451575006
 20
413.7584001266055
 30
0.0
 10
342.8647157371871
 20
410.4869085389587
 30
0.0
 10
342.6653900836222
 20
408.7120845951264
 30
0.0
 10
342.3634607500339
 20
404.8987954021362
 30
0.0
 10
342.2607709403235
 20
402.860244023293
 30
0.0
 10
342.1169388672578
 20
398.5516598484521
 30
0.0
 10
342.0757104742157
 20
396.281540922769
 30
0.0
 10
342.0250646697359
 20
391.5623825858326
 30
0.0
 10
342.0155611286114
 20
389.1132570448938
 30
0.0
 10
342.0066502162575
 20
384.1116313430076
 30
0.0
 10
342.0071567153413
 20
381.5590450523749
 30
0.0
 10
342.0071567153413
 20
379.0053287967896
 30
0.0
  0
LINE
  5
1FA
330
1F
100
AcDbEntity
  8
0
  6
Continuous
 62
     8
370
    18
100
AcDbLine
 10
342.0071567153
 20
364.0053294513
 30
0.0
 11
342.0071567154
 21
379.0053294234
 31
0.0
  0
LINE
  5
1FB
330
1F
100
AcDbEntity
  8
0
  6
Continuous
 62
     8
370
    18
100
AcDbLine
 10
440.0790095302
 20
439.0053304215
 30
0.0
 11
327.007156534
 21
439.0053304215
 31
0.0
  0
LINE
  5
1FC
330
1F
100
AcDbEntity
  8
0
  6
Continuous
 62
     8
370
    18
100
AcDbLine
 10
342.0071569495
 20
354.9369886452
 30
0.0
 11
342.0071569495
 21
364.0053294513
 31
0.0
  0
LINE
  5
1FD
330
1F
100
AcDbEntity
  8
0
  6
Continuous
 62
     8
370
    18
100
AcDbLine
 10
327.0071565341
 20
440.005330423
 30
0.0
 11
327.007156534
 21
439.0053304215
 31
0.0
  0
SPLINE
  5
1FE
330
1F
100
AcDbEntity
  8
0
  6
Continuous
 62
     8
370
    18
100
AcDbSpline
210
0.0
220
0.0
230
1.0
 70
     8
 71
     3
 72
    14
 73
    10
 74
     0
 42
0.00000001
 43
0.00000001
 40
0.0
 40
0.0
 40
0.0
 40
0.0
 40
0.25
 40
0.25
 40
0.5
 40
0.5
 40
0.75
 40
0.75
 40
1.0
 40
1.0
 40
1.0
 40
1.0
 10
440.0790095301907
 20
439.0053304214818
 30
0.0
 10
440.0790095301562
 20
439.1231815517701
 30
0.0
 10
440.0790095301253
 20
439.2503281808984
 30
0.0
 10
440.0790095300818
 20
439.4965220820246
 30
0.0
 10
440.0790095300695
 20
439.6148061305347
 30
0.0
 10
440.0790095300696
 20
439.8100682767669
 30
0.0
 10
440.0790095300818
 20
439.8863857637263
 30
0.0
 10
440.0790095301253
 20
439.9838516841504
 30
0.0
 10
440.0790095301562
 20
440.0053304229963
 30
0.0
 10
440.0790095301907
 20
440.0053304229951
 30
0.0
  0
LINE
  5
1FF
330
1F
100
AcDbEntity
  8
0
  6
Continuous
 62
     8
370
    18
100
AcDbLine
 10
327.0354371117
 20
453.1486281467
 30
0.0
 11
327.0274371761
 21
451.1486441465
 31
0.0
  0
LINE
  5
200
330
1F
100
AcDbEntity
  8
0
  6
Continuous
 62
     8
370
    18
100
AcDbLine
 10
342.0071576143
 20
343.9369886826
 30
0.0
 11
342.0071576143
 21
354.9369886452
 31
0.0
  0
LINE
  5
201
330
1F
100
AcDbEntity
  8
0
  6
Continuous
 62
     8
370
    18
100
AcDbLine
 10
327.0071567677
 20
354.9369886452
 30
0.0
 11
327.0071567677
 21
343.9369886826
 31
0.0
  0
LINE
  5
202
330
1F
100
AcDbEntity
  8
0
  6
Continuous
 62
     8
370
    18
100
AcDbLine
 10
331.0309593829
 20
447.6725368282
 30
0.0
 11
328.6339470199
 21
447.6725368282
 31
0.0
  0
LINE
  5
203
330
1F
100
AcDbEntity
  8
0
  6
Continuous
 62
     8
370
    18
100
AcDbLine
 10
462.5490377455
 20
412.5905878215
 30
0.0
 11
468.7054003254
 21
429.5050549956
 31
0.0
  0
LINE
  5
204
330
1F
100
AcDbEntity
  8
0
  6
Continuous
 62
     8
370
    18
100
AcDbLine
 10
444.273392185
 20
438.3975787221
 30
0.0
 11
438.1170296051
 21
421.4831115479
 31
0.0
  0
LINE
  5
205
330
1F
100
AcDbEntity
  8
0
  6
Continuous
 62
     8
370
    18
100
AcDbLine
 10
439.6590155947
 20
434.224096702
 30
0.0
 11
437.2648745914
 21
427.6462483565
 31
0.0
  0
ENDSEC
  0
SECTION
  2
OBJECTS
  0
DICTIONARY
  5
C
330
0
100
AcDbDictionary
281
     1
  3
ACAD_GROUP
350
D
  3
ACAD_LAYOUT
350
1A
  3
ACAD_MLINESTYLE
350
17
  3
ACAD_PLOTSETTINGS
350
19
  3
ACAD_PLOTSTYLENAME
350
E
  3
ACAD_SCALELIST
350
47
  3
DWGPROPS
350
206
  0
DICTIONARY
  5
D
102
{ACAD_REACTORS
330
C
102
}
330
C
100
AcDbDictionary
281
     1
  0
DICTIONARY
  5
1A
102
{ACAD_REACTORS
330
C
102
}
330
C
100
AcDbDictionary
281
     1
  3
Layout1
350
1E
  3
Layout2
350
26
  3
Model
350
22
  0
DICTIONARY
  5
17
102
{ACAD_REACTORS
330
C
102
}
330
C
100
AcDbDictionary
281
     1
  3
Standard
350
18
  0
DICTIONARY
  5
19
102
{ACAD_REACTORS
330
C
102
}
330
C
100
AcDbDictionary
281
     1
  0
ACDBDICTIONARYWDFLT
  5
E
102
{ACAD_REACTORS
330
C
102
}
330
C
100
AcDbDictionary
281
     1
  3
Normal
350
F
100
AcDbDictionaryWithDefault
340
F
  0
DICTIONARY
  5
47
102
{ACAD_REACTORS
330
C
102
}
330
C
100
AcDbDictionary
281
     1
  3
A0
350
48
  3
A1
350
49
  3
A2
350
4A
  3
A3
350
4B
  3
A4
350
4C
  3
A5
350
4D
  3
A6
350
4E
  3
A7
350
4F
  3
A8
350
50
  3
A9
350
51
  3
B0
350
52
  3
B1
350
53
  3
B2
350
54
  3
B3
350
55
  3
B4
350
56
  3
B5
350
57
  3
B6
350
58
  0
XRECORD
  5
206
102
{ACAD_REACTORS
330
C
102
}
330
C
100
AcDbXrecord
280
     1
  1
DWGPROPS COOKIE
  2

  3

  4

  6

  7

  8
fue-task
  9

300
=
301
=
302
=
303
=
304
=
305
=
306
=
307
=
308
=
309
=
 40
0.0
 41
2460346.39302044
 42
2460346.393021701
  1

 90
        0
  0
LAYOUT
  5
1E
102
{ACAD_REACTORS
330
1A
102
}
330
1A
100
AcDbPlotSettings
  1

  2
none_device
  4

  6

 40
0.0
 41
0.0
 42
0.0
 43
0.0
 44
0.0
 45
0.0
 46
0.0
 47
0.0
 48
0.0
 49
0.0
140
0.0
141
0.0
142
1.0
143
1.0
 70
   688
 72
     1
 73
     0
 74
     5
  7

 75
    16
147
1.0
148
0.0
149
0.0
100
AcDbLayout
  1
Layout1
 70
     1
 71
     1
 10
0.0
 20
0.0
 11
420.0
 21
297.0
 12
0.0
 22
0.0
 32
0.0
 14
1.0000000000E+20
 24
1.0000000000E+20
 34
1.0000000000E+20
 15
-1.0000000000E+20
 25
-1.0000000000E+20
 35
-1.0000000000E+20
146
0.0
 13
0.0
 23
0.0
 33
0.0
 16
1.0
 26
0.0
 36
0.0
 17
0.0
 27
1.0
 37
0.0
 76
     0
330
1B
  0
LAYOUT
  5
26
102
{ACAD_REACTORS
330
1A
102
}
330
1A
100
AcDbPlotSettings
  1

  2
none_device
  4

  6

 40
0.0
 41
0.0
 42
0.0
 43
0.0
 44
0.0
 45
0.0
 46
0.0
 47
0.0
 48
0.0
 49
0.0
140
0.0
141
0.0
142
1.0
143
1.0
 70
   688
 72
     1
 73
     0
 74
     5
  7

 75
    16
147
1.0
148
0.0
149
0.0
100
AcDbLayout
  1
Layout2
 70
     1
 71
     2
 10
0.0
 20
0.0
 11
0.0
 21
0.0
 12
0.0
 22
0.0
 32
0.0
 14
0.0
 24
0.0
 34
0.0
 15
0.0
 25
0.0
 35
0.0
146
0.0
 13
0.0
 23
0.0
 33
0.0
 16
1.0
 26
0.0
 36
0.0
 17
0.0
 27
1.0
 37
0.0
 76
     0
330
23
  0
LAYOUT
  5
22
102
{ACAD_REACTORS
330
1A
102
}
330
1A
100
AcDbPlotSettings
  1

  2
none_device
  4
Letter_(8.50_x_11.00_Inches)
  6

 40
6.35
 41
6.35
 42
6.35000508
 43
6.35000508
 44
215.9
 45
279.4
 46
0.0
 47
0.0
 48
0.0
 49
0.0
140
0.0
141
0.0
142
1.0
143
1.0
 70
  1712
 72
     1
 73
     0
 74
     0
  7

 75
     0
147
1.0
148
0.0
149
0.0
100
AcDbLayout
  1
Model
 70
     1
 71
     0
 10
0.0
 20
0.0
 11
594.0
 21
841.0
 12
0.0
 22
0.0
 32
0.0
 14
0.0
 24
0.0
 34
0.0
 15
594.0
 25
841.0
 35
0.0
146
0.0
 13
0.0
 23
0.0
 33
0.0
 16
1.0
 26
0.0
 36
0.0
 17
0.0
 27
1.0
 37
0.0
 76
     0
330
1F
331
29
  0
MLINESTYLE
  5
18
102
{ACAD_REACTORS
330
17
102
}
330
17
100
AcDbMlineStyle
  2
Standard
 70
     0
  3

 62
   256
 51
90.0
 52
90.0
 71
     2
 49
0.5
 62
   256
  6
BYLAYER
 49
-0.5
 62
   256
  6
BYLAYER
  0
ACDBPLACEHOLDER
  5
F
102
{ACAD_REACTORS
330
E
102
}
330
E
  0
SCALE
  5
48
102
{ACAD_REACTORS
330
47
102
}
330
47
100
AcDbScale
 70
     0
300
1:1
140
1.0
141
1.0
290
     1
  0
SCALE
  5
49
102
{ACAD_REACTORS
330
47
102
}
330
47
100
AcDbScale
 70
     0
300
1:2
140
1.0
141
2.0
290
     0
  0
SCALE
  5
4A
102
{ACAD_REACTORS
330
47
102
}
330
47
100
AcDbScale
 70
     0
300
1:4
140
1.0
141
4.0
290
     0
  0
SCALE
  5
4B
102
{ACAD_REACTORS
330
47
102
}
330
47
100
AcDbScale
 70
     0
300
1:5
140
1.0
141
5.0
290
     0
  0
SCALE
  5
4C
102
{ACAD_REACTORS
330
47
102
}
330
47
100
AcDbScale
 70
     0
300
1:8
140
1.0
141
8.0
290
     0
  0
SCALE
  5
4D
102
{ACAD_REACTORS
330
47
102
}
330
47
100
AcDbScale
 70
     0
300
1:10
140
1.0
141
10.0
290
     0
  0
SCALE
  5
4E
102
{ACAD_REACTORS
330
47
102
}
330
47
100
AcDbScale
 70
     0
300
1:16
140
1.0
141
16.0
290
     0
  0
SCALE
  5
4F
102
{ACAD_REACTORS
330
47
102
}
330
47
100
AcDbScale
 70
     0
300
1:20
140
1.0
141
20.0
290
     0
  0
SCALE
  5
50
102
{ACAD_REACTORS
330
47
102
}
330
47
100
AcDbScale
 70
     0
300
1:30
140
1.0
141
30.0
290
     0
  0
SCALE
  5
51
102
{ACAD_REACTORS
330
47
102
}
330
47
100
AcDbScale
 70
     0
300
1:40
140
1.0
141
40.0
290
     0
  0
SCALE
  5
52
102
{ACAD_REACTORS
330
47
102
}
330
47
100
AcDbScale
 70
     0
300
1:50
140
1.0
141
50.0
290
     0
  0
SCALE
  5
53
102
{ACAD_REACTORS
330
47
102
}
330
47
100
AcDbScale
 70
     0
300
1:100
140
1.0
141
100.0
290
     0
  0
SCALE
  5
54
102
{ACAD_REACTORS
330
47
102
}
330
47
100
AcDbScale
 70
     0
300
2:1
140
2.0
141
1.0
290
     0
  0
SCALE
  5
55
102
{ACAD_REACTORS
330
47
102
}
330
47
100
AcDbScale
 70
     0
300
4:1
140
4.0
141
1.0
290
     0
  0
SCALE
  5
56
102
{ACAD_REACTORS
330
47
102
}
330
47
100
AcDbScale
 70
     0
300
8:1
140
8.0
141
1.0
290
     0
  0
SCALE
  5
57
102
{ACAD_REACTORS
330
47
102
}
330
47
100
AcDbScale
 70
     0
300
10:1
140
10.0
141
1.0
290
     0
  0
SCALE
  5
58
102
{ACAD_REACTORS
330
47
102
}
330
47
100
AcDbScale
 70
     0
300
100:1
140
100.0
141
1.0
290
     0
  0
ENDSEC
  0
EOF
