  0
SECTION
  2
HEADER
  9
$ACADVER
  1
AC1015
  9
$ACADMAINTVER
 70
     6
  9
$DWGCODEPAGE
  3
ANSI_1252
  9
$INSBASE
 10
0.0
 20
0.0
 30
0.0
  9
$EXTMIN
 10
0.0
 20
0.0
 30
0.0
  9
$EXTMAX
 10
594.0
 20
841.0
 30
0.0
  9
$LIMMIN
 10
0.0
 20
0.0
  9
$LIMMAX
 10
594.0
 20
841.0
  9
$ORTHOMODE
 70
     0
  9
$REGENMODE
 70
     1
  9
$FILLMODE
 70
     1
  9
$QTEXTMODE
 70
     0
  9
$MIRRTEXT
 70
     1
  9
$LTSCALE
 40
1.0
  9
$ATTMODE
 70
     1
  9
$TEXTSIZE
 40
10.0
  9
$TRACEWID
 40
1.0
  9
$TEXTSTYLE
  7
Standard
  9
$CLAYER
  8
0
  9
$CELTYPE
  6
ByLayer
  9
$CECOLOR
 62
   256
  9
$CELTSCALE
 40
1.0
  9
$DISPSILH
 70
     0
  9
$DIMSCALE
 40
1.0
  9
$DIMASZ
 40
2.5
  9
$DIMEXO
 40
0.0
  9
$DIMDLI
 40
3.75
  9
$DIMRND
 40
0.0
  9
$DIMDLE
 40
0.0
  9
$DIMEXE
 40
1.0
  9
$DIMTP
 40
0.0
  9
$DIMTM
 40
0.0
  9
$DIMTXT
 40
3.5
  9
$DIMCEN
 40
2.5
  9
$DIMTSZ
 40
0.0
  9
$DIMTOL
 70
     0
  9
$DIMLIM
 70
     0
  9
$DIMTIH
 70
     1
  9
$DIMTOH
 70
     1
  9
$DIMSE1
 70
     0
  9
$DIMSE2
 70
     0
  9
$DIMTAD
 70
     1
  9
$DIMZIN
 70
     0
  9
$DIMBLK
  1

  9
$DIMASO
 70
     1
  9
$DIMSHO
 70
     1
  9
$DIMPOST
  1

  9
$DIMAPOST
  1

  9
$DIMALT
 70
     0
  9
$DIMALTD
 70
     3
  9
$DIMALTF
 40
0.0393700787
  9
$DIMLFAC
 40
1.0
  9
$DIMTOFL
 70
     1
  9
$DIMTVP
 40
0.0
  9
$DIMTIX
 70
     0
  9
$DIMSOXD
 70
     0
  9
$DIMSAH
 70
     0
  9
$DIMBLK1
  1

  9
$DIMBLK2
  1

  9
$DIMSTYLE
  2
ISO-25
  9
$DIMCLRD
 70
     0
  9
$DIMCLRE
 70
     0
  9
$DIMCLRT
 70
     0
  9
$DIMTFAC
 40
1.0
  9
$DIMGAP
 40
1.5
  9
$DIMJUST
 70
     0
  9
$DIMSD1
 70
     0
  9
$DIMSD2
 70
     0
  9
$DIMTOLJ
 70
     0
  9
$DIMTZIN
 70
     0
  9
$DIMALTZ
 70
     0
  9
$DIMALTTZ
 70
     0
  9
$DIMUPT
 70
     0
  9
$DIMDEC
 70
     2
  9
$DIMTDEC
 70
     2
  9
$DIMALTU
 70
     2
  9
$DIMALTTD
 70
     3
  9
$DIMTXSTY
  7
Standard
  9
$DIMAUNIT
 70
     0
  9
$DIMADEC
 70
     2
  9
$DIMALTRND
 40
0.0
  9
$DIMAZIN
 70
     0
  9
$DIMDSEP
 70
    44
  9
$DIMATFIT
 70
     3
  9
$DIMFRAC
 70
     0
  9
$DIMLDRBLK
  1

  9
$DIMLUNIT
 70
     2
  9
$DIMLWD
 70
    -2
  9
$DIMLWE
 70
    -2
  9
$DIMTMOVE
 70
     0
  9
$LUNITS
 70
     2
  9
$LUPREC
 70
     2
  9
$SKETCHINC
 40
1.0
  9
$FILLETRAD
 40
0.0
  9
$AUNITS
 70
     0
  9
$AUPREC
 70
     2
  9
$MENU
  1
.
  9
$ELEVATION
 40
0.0
  9
$PELEVATION
 40
0.0
  9
$THICKNESS
 40
0.0
  9
$LIMCHECK
 70
     0
  9
$CHAMFERA
 40
0.0
  9
$CHAMFERB
 40
0.0
  9
$CHAMFERC
 40
0.0
  9
$CHAMFERD
 40
0.0
  9
$SKPOLY
 70
     0
  9
$TDCREATE
 40
2460075.345040683
  9
$TDUCREATE
 40
2460075.26170735
  9
$TDUPDATE
 40
2460075.345041586
  9
$TDUUPDATE
 40
2460075.261708252
  9
$TDINDWG
 40
0.0000000116
  9
$TDUSRTIMER
 40
0.0000000116
  9
$USRTIMER
 70
     1
  9
$ANGBASE
 50
0.0
  9
$ANGDIR
 70
     0
  9
$PDMODE
 70
     0
  9
$PDSIZE
 40
-1.0
  9
$PLINEWID
 40
0.0
  9
$SPLFRAME
 70
     0
  9
$SPLINETYPE
 70
     6
  9
$SPLINESEGS
 70
     8
  9
$HANDSEED
  5
171
  9
$SURFTAB1
 70
     6
  9
$SURFTAB2
 70
     6
  9
$SURFTYPE
 70
     6
  9
$SURFU
 70
     6
  9
$SURFV
 70
     6
  9
$UCSBASE
  2

  9
$UCSNAME
  2

  9
$UCSORG
 10
0.0
 20
0.0
 30
0.0
  9
$UCSXDIR
 10
1.0
 20
0.0
 30
0.0
  9
$UCSYDIR
 10
0.0
 20
1.0
 30
0.0
  9
$UCSORTHOREF
  2

  9
$UCSORTHOVIEW
 70
     0
  9
$UCSORGTOP
 10
0.0
 20
0.0
 30
0.0
  9
$UCSORGBOTTOM
 10
0.0
 20
0.0
 30
0.0
  9
$UCSORGLEFT
 10
0.0
 20
0.0
 30
0.0
  9
$UCSORGRIGHT
 10
0.0
 20
0.0
 30
0.0
  9
$UCSORGFRONT
 10
0.0
 20
0.0
 30
0.0
  9
$UCSORGBACK
 10
0.0
 20
0.0
 30
0.0
  9
$PUCSBASE
  2

  9
$PUCSNAME
  2

  9
$PUCSORG
 10
0.0
 20
0.0
 30
0.0
  9
$PUCSXDIR
 10
1.0
 20
0.0
 30
0.0
  9
$PUCSYDIR
 10
0.0
 20
1.0
 30
0.0
  9
$PUCSORTHOREF
  2

  9
$PUCSORTHOVIEW
 70
     0
  9
$PUCSORGTOP
 10
0.0
 20
0.0
 30
0.0
  9
$PUCSORGBOTTOM
 10
0.0
 20
0.0
 30
0.0
  9
$PUCSORGLEFT
 10
0.0
 20
0.0
 30
0.0
  9
$PUCSORGRIGHT
 10
0.0
 20
0.0
 30
0.0
  9
$PUCSORGFRONT
 10
0.0
 20
0.0
 30
0.0
  9
$PUCSORGBACK
 10
0.0
 20
0.0
 30
0.0
  9
$USERI1
 70
     0
  9
$USERI2
 70
     0
  9
$USERI3
 70
     0
  9
$USERI4
 70
     0
  9
$USERI5
 70
     0
  9
$USERR1
 40
0.0
  9
$USERR2
 40
0.0
  9
$USERR3
 40
0.0
  9
$USERR4
 40
0.0
  9
$USERR5
 40
0.0
  9
$WORLDVIEW
 70
     1
  9
$SHADEDGE
 70
     3
  9
$SHADEDIF
 70
    70
  9
$TILEMODE
 70
     1
  9
$MAXACTVP
 70
    64
  9
$PINSBASE
 10
0.0
 20
0.0
 30
0.0
  9
$PLIMCHECK
 70
     0
  9
$PEXTMIN
 10
1.0000000000E+20
 20
1.0000000000E+20
 30
1.0000000000E+20
  9
$PEXTMAX
 10
-1.0000000000E+20
 20
-1.0000000000E+20
 30
-1.0000000000E+20
  9
$PLIMMIN
 10
0.0
 20
0.0
  9
$PLIMMAX
 10
420.0
 20
297.0
  9
$UNITMODE
 70
     0
  9
$VISRETAIN
 70
     1
  9
$PLINEGEN
 70
     0
  9
$PSLTSCALE
 70
     1
  9
$TREEDEPTH
 70
  3020
  9
$CMLSTYLE
  2
Standard
  9
$CMLJUST
 70
     0
  9
$CMLSCALE
 40
20.0
  9
$PROXYGRAPHICS
 70
     1
  9
$MEASUREMENT
 70
     1
  9
$CELWEIGHT
370
    -1
  9
$ENDCAPS
280
     0
  9
$JOINSTYLE
280
     0
  9
$LWDISPLAY
290
     1
  9
$INSUNITS
 70
     4
  9
$HYPERLINKBASE
  1

  9
$STYLESHEET
  1

  9
$XEDIT
290
     1
  9
$CEPSNTYPE
380
     0
  9
$PSTYLEMODE
290
     1
  9
$FINGERPRINTGUID
  2
{0929a139-414b-425b-aadf-cb41cdf9640f}
  9
$VERSIONGUID
  2
{FAEB1C32-E019-11D5-929B-00C0DF256EC4}
  9
$EXTNAMES
290
     1
  9
$PSVPSCALE
 40
0.0
  9
$OLESTARTUP
290
     0
  0
ENDSEC
  0
SECTION
  2
CLASSES
  0
CLASS
  1
ACDBDICTIONARYWDFLT
  2
AcDbDictionaryWithDefault
  3
ObjectDBX Classes
 90
        0
280
     0
281
     0
  0
CLASS
  1
VISUALSTYLE
  2
AcDbVisualStyle
  3
ObjectDBX Classes
 90
     4095
280
     0
281
     0
  0
CLASS
  1
MATERIAL
  2
AcDbMaterial
  3
ObjectDBX Classes
 90
     1153
280
     0
281
     0
  0
CLASS
  1
SCALE
  2
AcDbScale
  3
ObjectDBX Classes
 90
     1153
280
     0
281
     0
  0
CLASS
  1
TABLESTYLE
  2
AcDbTableStyle
  3
ObjectDBX Classes
 90
     4095
280
     0
281
     0
  0
CLASS
  1
MLEADERSTYLE
  2
AcDbMLeaderStyle
  3
ACDB_MLEADERSTYLE_CLASS
 90
     4095
280
     0
281
     0
  0
CLASS
  1
SUN
  2
AcDbSun
  3
SCENEOE
 90
     1153
280
     0
281
     0
  0
CLASS
  1
ACDBPLACEHOLDER
  2
AcDbPlaceHolder
  3
ObjectDBX Classes
 90
        0
280
     0
281
     0
  0
CLASS
  1
LAYOUT
  2
AcDbLayout
  3
ObjectDBX Classes
 90
        0
280
     0
281
     0
  0
ENDSEC
  0
SECTION
  2
TABLES
  0
TABLE
  2
VPORT
  5
8
330
0
100
AcDbSymbolTable
 70
     1
  0
VPORT
  5
29
330
8
100
AcDbSymbolTableRecord
100
AcDbViewportTableRecord
  2
*Active
 70
     0
 10
0.0
 20
0.0
 11
1.0
 21
1.0
 12
297.0
 22
420.5
 13
0.0
 23
0.0
 14
10.0
 24
10.0
 15
10.0
 25
10.0
 16
0.0
 26
0.0
 36
1.0
 17
0.0
 27
0.0
 37
0.0
 40
841.0
 41
0.7063020214
 42
50.0
 43
0.0
 44
0.0
 50
0.0
 51
0.0
 71
     0
 72
  2000
 73
     1
 74
     3
 75
     0
 76
     0
 77
     0
 78
     0
281
     0
 65
     1
110
0.0
120
0.0
130
0.0
111
1.0
121
0.0
131
0.0
112
0.0
122
1.0
132
0.0
 79
     0
146
0.0
  0
ENDTAB
  0
TABLE
  2
LTYPE
  5
5
330
0
100
AcDbSymbolTable
 70
     6
  0
LTYPE
  5
14
330
5
100
AcDbSymbolTableRecord
100
AcDbLinetypeTableRecord
  2
ByBlock
 70
     0
  3

 72
    65
 73
     0
 40
0.0
  0
LTYPE
  5
15
330
5
100
AcDbSymbolTableRecord
100
AcDbLinetypeTableRecord
  2
ByLayer
 70
     0
  3

 72
    65
 73
     0
 40
0.0
  0
LTYPE
  5
16
330
5
100
AcDbSymbolTableRecord
100
AcDbLinetypeTableRecord
  2
Continuous
 70
     0
  3
Solid line
 72
    65
 73
     0
 40
0.0
  0
LTYPE
  5
5E
330
5
100
AcDbSymbolTableRecord
100
AcDbLinetypeTableRecord
  2
HIDDEN
 70
     0
  3
Hidden __ __ __ __ __ __ __ __ __ __ __ __ __ __
 72
    65
 73
     2
 40
1.905
 49
1.27
 74
     0
 49
-0.635
 74
     0
  0
LTYPE
  5
5F
330
5
100
AcDbSymbolTableRecord
100
AcDbLinetypeTableRecord
  2
PHANTOM
 70
     0
  3
Phantom ______  __  __  ______  __  __  ______
 72
    65
 73
     6
 40
12.7
 49
6.35
 74
     0
 49
-1.27
 74
     0
 49
1.27
 74
     0
 49
-1.27
 74
     0
 49
1.27
 74
     0
 49
-1.27
 74
     0
  0
LTYPE
  5
60
330
5
100
AcDbSymbolTableRecord
100
AcDbLinetypeTableRecord
  2
CENTER
 70
     0
  3
Center ____ _ ____ _ ____ _ ____ _ ____ _ ____
 72
    65
 73
     4
 40
10.16
 49
6.35
 74
     0
 49
-1.27
 74
     0
 49
1.27
 74
     0
 49
-1.27
 74
     0
  0
LTYPE
  5
61
330
5
100
AcDbSymbolTableRecord
100
AcDbLinetypeTableRecord
  2
CENTERX2
 70
     0
  3
Center (2x) ________  __  ________  __  _____
 72
    65
 73
     4
 40
20.32
 49
12.7
 74
     0
 49
-2.54
 74
     0
 49
2.54
 74
     0
 49
-2.54
 74
     0
  0
LTYPE
  5
62
330
5
100
AcDbSymbolTableRecord
100
AcDbLinetypeTableRecord
  2
DOT2
 70
     0
  3
Dot (.5x) ........................................
 72
    65
 73
     2
 40
0.635
 49
0.0
 74
     0
 49
-0.635
 74
     0
  0
ENDTAB
  0
TABLE
  2
LAYER
  5
2
330
0
100
AcDbSymbolTable
 70
     1
  0
LAYER
  5
10
330
2
100
AcDbSymbolTableRecord
100
AcDbLayerTableRecord
  2
0
 70
     0
 62
     7
  6
Continuous
370
    -3
390
F
  0
ENDTAB
  0
TABLE
  2
STYLE
  5
3
330
0
100
AcDbSymbolTable
 70
     3
  0
STYLE
  5
11
330
3
100
AcDbSymbolTableRecord
100
AcDbTextStyleTableRecord
  2
Standard
 70
     0
 40
0.0
 41
1.0
 50
0.0
 71
     0
 42
10.0
  3
txt
  4

  0
STYLE
  5
66
330
3
100
AcDbSymbolTableRecord
100
AcDbTextStyleTableRecord
  2
SLDTEXTSTYLE0
 70
     0
 40
0.0
 41
0.96
 50
0.0
 71
     0
 42
10.0
  3
ISOCP3
  4

  0
STYLE
  5
7D
330
3
100
AcDbSymbolTableRecord
100
AcDbTextStyleTableRecord
  2
SLDTEXTSTYLE1
 70
     0
 40
0.0
 41
0.605
 50
0.0
 71
     0
 42
10.0
  3
TXT
  4

  0
ENDTAB
  0
TABLE
  2
VIEW
  5
6
330
0
100
AcDbSymbolTable
 70
     0
  0
ENDTAB
  0
TABLE
  2
UCS
  5
7
330
0
100
AcDbSymbolTable
 70
     0
  0
ENDTAB
  0
TABLE
  2
APPID
  5
9
330
0
100
AcDbSymbolTable
 70
     1
  0
APPID
  5
12
330
9
100
AcDbSymbolTableRecord
100
AcDbRegAppTableRecord
  2
ACAD
 70
     0
  0
ENDTAB
  0
TABLE
  2
DIMSTYLE
  5
A
330
0
100
AcDbSymbolTable
 70
     2
100
AcDbDimStyleTable
  0
DIMSTYLE
105
27
330
A
100
AcDbSymbolTableRecord
100
AcDbDimStyleTableRecord
  2
ISO-25
 70
     0
 41
2.5
 42
0.625
 43
3.75
 44
1.25
 73
     0
 74
     0
 77
     1
 78
     8
140
2.5
141
2.5
143
0.0393700787
147
0.625
171
     3
172
     1
178
     0
271
     2
272
     2
274
     3
278
    44
283
     0
284
     8
340
11
  0
DIMSTYLE
105
67
102
{ACAD_REACTORS
330
65
330
72
102
}
330
A
100
AcDbSymbolTableRecord
100
AcDbDimStyleTableRecord
  2
SLDDIMSTYLE0
 70
     0
 41
2.5
 44
0.0
 45
0.000000001
 73
     0
 74
     0
 77
     1
 78
    12
 79
     3
140
6.0
147
1.5
173
     1
178
     0
271
     2
272
     2
276
     2
284
    12
340
66
  0
ENDTAB
  0
TABLE
  2
BLOCK_RECORD
  5
1
330
0
100
AcDbSymbolTable
 70
     3
  0
BLOCK_RECORD
  5
1F
330
1
100
AcDbSymbolTableRecord
100
AcDbBlockTableRecord
  2
*Model_Space
340
22
  0
BLOCK_RECORD
  5
1B
330
1
100
AcDbSymbolTableRecord
100
AcDbBlockTableRecord
  2
*Paper_Space
340
1E
  0
BLOCK_RECORD
  5
23
330
1
100
AcDbSymbolTableRecord
100
AcDbBlockTableRecord
  2
*Paper_Space0
340
26
  0
BLOCK_RECORD
  5
68
330
1
100
AcDbSymbolTableRecord
100
AcDbBlockTableRecord
  2
_D
340
0
  0
BLOCK_RECORD
  5
73
330
1
100
AcDbSymbolTableRecord
100
AcDbBlockTableRecord
  2
_D_1
340
0
  0
ENDTAB
  0
ENDSEC
  0
SECTION
  2
BLOCKS
  0
BLOCK
  5
20
330
1F
100
AcDbEntity
  8
0
100
AcDbBlockBegin
  2
*Model_Space
 70
     0
 10
0.0
 20
0.0
 30
0.0
  3
*Model_Space
  1

  0
ENDBLK
  5
21
330
1F
100
AcDbEntity
  8
0
100
AcDbBlockEnd
  0
BLOCK
  5
1C
330
1B
100
AcDbEntity
 67
     1
  8
0
100
AcDbBlockBegin
  2
*Paper_Space
 70
     0
 10
0.0
 20
0.0
 30
0.0
  3
*Paper_Space
  1

  0
ENDBLK
  5
1D
330
1B
100
AcDbEntity
 67
     1
  8
0
100
AcDbBlockEnd
  0
BLOCK
  5
24
330
23
100
AcDbEntity
  8
0
100
AcDbBlockBegin
  2
*Paper_Space0
 70
     0
 10
0.0
 20
0.0
 30
0.0
  3
*Paper_Space0
  1

  0
ENDBLK
  5
25
330
23
100
AcDbEntity
  8
0
100
AcDbBlockEnd
  0
BLOCK
  5
69
330
68
100
AcDbEntity
  8
0
100
AcDbBlockBegin
  2
_D
 70
     0
 10
0.0
 20
0.0
 30
0.0
  3
_D
  1

  0
SOLID
  5
6B
330
68
100
AcDbEntity
  8
0
  6
Continuous
 62
     7
370
    18
100
AcDbTrace
 10
42.7614395004
 20
152.0299240879
 30
0.0
 11
42.4614395004
 21
149.5299240879
 31
0.0
 12
43.0614395004
 22
149.5299240879
 32
0.0
 13
43.0614395004
 23
149.5299240879
 33
0.0
  0
SOLID
  5
6C
330
68
100
AcDbEntity
  8
0
  6
Continuous
 62
     7
370
    18
100
AcDbTrace
 10
42.7614395004
 20
52.0299240879
 30
0.0
 11
43.0614395004
 21
54.5299240879
 31
0.0
 12
42.4614395004
 22
54.5299240879
 32
0.0
 13
42.4614395004
 23
54.5299240879
 33
0.0
  0
LINE
  5
6D
330
68
100
AcDbEntity
  8
0
  6
Continuous
 62
     7
370
     0
100
AcDbLine
 10
56.6850079902
 20
152.0299240879
 30
0.0
 11
41.7614395004
 21
152.0299240879
 31
0.0
  0
LINE
  5
6E
330
68
100
AcDbEntity
  8
0
  6
Continuous
 62
     7
370
     0
100
AcDbLine
 10
56.6850079902
 20
52.0299240879
 30
0.0
 11
41.7614395004
 21
52.0299240879
 31
0.0
  0
LINE
  5
6F
330
68
100
AcDbEntity
  8
0
  6
Continuous
 62
     7
370
     0
100
AcDbLine
 10
42.7614395004
 20
152.0299240879
 30
0.0
 11
42.7614395004
 21
52.0299240879
 31
0.0
  0
MTEXT
  5
70
330
68
100
AcDbEntity
  8
0
  6
Continuous
 62
     7
370
    18
100
AcDbMText
 10
35.0270332946
 20
94.3680541463
 30
0.0
 40
6.0
 41
0.0
 71
     1
 72
     1
  1
100
  7
SLDTEXTSTYLE0
 11
-7.044195017643634E-15
 21
1.0
 31
0.0
 73
     1
 44
1.0
  0
MTEXT
  5
71
330
68
100
AcDbEntity
  8
0
  6
Continuous
 62
     7
370
    18
100
AcDbMText
 10
35.0270332946
 20
105.7430548466
 30
0.0
 40
6.0
 41
0.0
 71
     1
 72
     1
  1
mm
  7
SLDTEXTSTYLE0
 11
-7.044195017643634E-15
 21
1.0
 31
0.0
 73
     1
 44
1.0
  0
ENDBLK
  5
6A
330
68
100
AcDbEntity
  8
0
100
AcDbBlockEnd
  0
BLOCK
  5
74
330
73
100
AcDbEntity
  8
0
100
AcDbBlockBegin
  2
_D_1
 70
     0
 10
0.0
 20
0.0
 30
0.0
  3
_D_1
  1

  0
SOLID
  5
76
330
73
100
AcDbEntity
  8
0
  6
Continuous
 62
     7
370
    18
100
AcDbTrace
 10
56.6850079902
 20
38.4602342313
 30
0.0
 11
59.1850079902
 21
38.1602342313
 31
0.0
 12
59.1850079902
 22
38.7602342313
 32
0.0
 13
59.1850079902
 23
38.7602342313
 33
0.0
  0
SOLID
  5
77
330
73
100
AcDbEntity
  8
0
  6
Continuous
 62
     7
370
    18
100
AcDbTrace
 10
156.6850079902
 20
38.4602342313
 30
0.0
 11
154.1850079902
 21
38.7602342313
 31
0.0
 12
154.1850079902
 22
38.1602342313
 32
0.0
 13
154.1850079902
 23
38.1602342313
 33
0.0
  0
LINE
  5
78
330
73
100
AcDbEntity
  8
0
  6
Continuous
 62
     7
370
     0
100
AcDbLine
 10
56.6850079902
 20
52.0299240879
 30
0.0
 11
56.6850079902
 21
37.4602342313
 31
0.0
  0
LINE
  5
79
330
73
100
AcDbEntity
  8
0
  6
Continuous
 62
     7
370
     0
100
AcDbLine
 10
156.6850079902
 20
52.0299240879
 30
0.0
 11
156.6850079902
 21
37.4602342313
 31
0.0
  0
LINE
  5
7A
330
73
100
AcDbEntity
  8
0
  6
Continuous
 62
     7
370
     0
100
AcDbLine
 10
56.6850079902
 20
38.4602342313
 30
0.0
 11
156.6850079902
 21
38.4602342313
 31
0.0
  0
MTEXT
  5
7B
330
73
100
AcDbEntity
  8
0
  6
Continuous
 62
     7
370
    18
100
AcDbMText
 10
93.9626484861
 20
46.1946404371
 30
0.0
 40
6.0
 41
0.0
 71
     1
 72
     1
  1
100
  7
SLDTEXTSTYLE0
 73
     1
 44
1.0
  0
MTEXT
  5
7C
330
73
100
AcDbEntity
  8
0
  6
Continuous
 62
     7
370
    18
100
AcDbMText
 10
105.3376491864
 20
46.1946404371
 30
0.0
 40
6.0
 41
0.0
 71
     1
 72
     1
  1
mm
  7
SLDTEXTSTYLE0
 73
     1
 44
1.0
  0
ENDBLK
  5
75
330
73
100
AcDbEntity
  8
0
100
AcDbBlockEnd
  0
ENDSEC
  0
SECTION
  2
ENTITIES
  0
LINE
  5
63
330
1F
100
AcDbEntity
  8
0
  6
Continuous
 62
     7
370
    18
100
AcDbLine
 10
56.6850079902
 20
152.0299240879
 30
0.0
 11
56.6850079902
 21
52.0299240879
 31
0.0
  0
LINE
  5
64
330
1F
100
AcDbEntity
  8
0
  6
Continuous
 62
     7
370
    18
100
AcDbLine
 10
56.6850079902
 20
52.0299240879
 30
0.0
 11
156.6850079902
 21
52.0299240879
 31
0.0
  0
DIMENSION
  5
65
330
1F
100
AcDbEntity
  8
0
  6
Continuous
 62
     7
370
    18
100
AcDbDimension
  2
_D
 10
42.7614395004
 20
52.0299240879
 30
0.0
 11
42.7614395004
 21
105.4472211621
 31
0.0
 70
   160
  1
<>mm
 71
     2
 42
-1.0
  3
SLDDIMSTYLE0
100
AcDbAlignedDimension
 13
56.6850079902
 23
152.0299240879
 33
0.0
 14
56.6850079902
 24
52.0299240879
 34
0.0
 50
90.0
100
AcDbRotatedDimension
  0
DIMENSION
  5
72
330
1F
100
AcDbEntity
  8
0
  6
Continuous
 62
     7
370
    18
100
AcDbDimension
  2
_D_1
 10
156.6850079902
 20
38.4602342313
 30
0.0
 11
105.0418155019
 21
38.4602342313
 31
0.0
 70
   160
  1
<>mm
 71
     2
 42
-1.0
  3
SLDDIMSTYLE0
100
AcDbAlignedDimension
 13
56.6850079902
 23
52.0299240879
 33
0.0
 14
156.6850079902
 24
52.0299240879
 34
0.0
100
AcDbRotatedDimension
  0
MTEXT
  5
7E
330
1F
100
AcDbEntity
  8
0
  6
Continuous
 62
     7
370
     0
100
AcDbMText
 10
412.8252631579
 20
48.4342449499
 30
0.0
 40
10.0
 41
0.0
 71
     1
 72
     1
  1
KLUDI GmbH & Co KG
  7
SLDTEXTSTYLE1
 73
     1
 44
1.0
  0
MTEXT
  5
7F
330
1F
100
AcDbEntity
  8
0
  6
Continuous
 62
     7
370
     0
100
AcDbMText
 10
210.0873490389
 20
48.4342449499
 30
0.0
 40
10.0
 41
0.0
 71
     1
 72
     1
  1
53 885 .. 75
  7
SLDTEXTSTYLE1
 73
     1
 44
1.0
  0
ARC
  5
80
330
1F
100
AcDbEntity
  8
0
  6
Continuous
 62
     7
370
    25
100
AcDbCircle
 10
188.2349680171
 20
369.2883978881
 30
0.0
 40
0.5
100
AcDbArc
 50
0.0
 51
86.8024452128
  0
ARC
  5
81
330
1F
100
AcDbEntity
  8
0
  6
Continuous
 62
     7
370
    25
100
AcDbCircle
 10
177.1349680171
 20
369.2883978881
 30
0.0
 40
0.5
100
AcDbArc
 50
93.1975547872
 51
180.0
  0
LINE
  5
82
330
1F
100
AcDbEntity
  8
0
  6
Continuous
 62
     7
370
    25
100
AcDbLine
 10
188.7349680171
 20
361.4720534825
 30
0.0
 11
188.7349680171
 21
369.2883978881
 31
0.0
  0
LINE
  5
83
330
1F
100
AcDbEntity
  8
0
  6
Continuous
 62
     7
370
    25
100
AcDbLine
 10
176.6349680171
 20
369.2883978881
 30
0.0
 11
176.6349680171
 21
361.4720534825
 31
0.0
  0
ARC
  5
84
330
1F
100
AcDbEntity
  8
0
  6
Continuous
 62
     7
370
    25
100
AcDbCircle
 10
182.6849680171
 20
269.943304904
 30
0.0
 40
100.0
100
AcDbArc
 50
86.8024452128
 51
93.1975547872
  0
LINE
  5
85
330
1F
100
AcDbEntity
  8
0
  6
Continuous
 62
     7
370
    25
100
AcDbLine
 10
174.6849680171
 20
412.643304904
 30
0.0
 11
174.6849680171
 21
409.0324301971
 31
0.0
  0
LINE
  5
86
330
1F
100
AcDbEntity
  8
0
  6
Continuous
 62
     7
370
    25
100
AcDbLine
 10
190.6849680171
 20
409.0324301971
 30
0.0
 11
190.6849680171
 21
412.643304904
 31
0.0
  0
ARC
  5
87
330
1F
100
AcDbEntity
  8
0
  6
Continuous
 62
     7
370
    25
100
AcDbCircle
 10
-29.3150319829
 20
412.6433049041
 30
0.0
 40
220.0
100
AcDbArc
 50
0.0
 51
5.3331635089
  0
ARC
  5
88
330
1F
100
AcDbEntity
  8
0
  6
Continuous
 62
     7
370
    25
100
AcDbCircle
 10
394.6849680171
 20
412.643304904
 30
0.0
 40
220.0
100
AcDbArc
 50
174.6668364911
 51
180.0
  0
ARC
  5
89
330
1F
100
AcDbEntity
  8
0
  6
Continuous
 62
     7
370
    25
100
AcDbCircle
 10
177.6286755967
 20
432.9057312328
 30
0.0
 40
2.000000000000004
100
AcDbArc
 50
106.5986769674
 51
174.6668364911
  0
ARC
  5
8A
330
1F
100
AcDbEntity
  8
0
  6
Continuous
 62
     7
370
    25
100
AcDbCircle
 10
187.7412604374
 20
432.9057312328
 30
0.0
 40
2.000000000000004
100
AcDbArc
 50
5.3331635089
 51
73.4013230326
  0
ARC
  5
8B
330
1F
100
AcDbEntity
  8
0
  6
Continuous
 62
     7
370
    25
100
AcDbCircle
 10
182.6849680171
 20
415.943304904
 30
0.0
 40
19.69999999999993
100
AcDbArc
 50
73.4013230326
 51
106.5986769674
  0
CIRCLE
  5
8C
330
1F
100
AcDbEntity
  8
0
  6
Continuous
 62
     7
370
    25
100
AcDbCircle
 10
182.6849680171
 20
334.543304904
 30
0.0
 40
27.60000000000003
  0
CIRCLE
  5
8D
330
1F
100
AcDbEntity
  8
0
  6
Continuous
 62
     7
370
    25
100
AcDbCircle
 10
182.6849680171
 20
397.543304904
 30
0.0
 40
14.0
  0
ARC
  5
8E
330
1F
100
AcDbEntity
  8
0
  6
Continuous
 62
     7
370
    25
100
AcDbCircle
 10
182.6849680171
 20
-9558.9566950959
 30
0.0
 40
10000.0
100
AcDbArc
 50
89.5831904602
 51
90.4168095398
  0
ARC
  5
8F
330
1F
100
AcDbEntity
  8
0
  6
Continuous
 62
     7
370
    25
100
AcDbCircle
 10
182.6849680171
 20
10292.043304904
 30
0.0
 40
10000.0
100
AcDbArc
 50
269.5831904602
 51
270.4168095398
  0
ARC
  5
90
330
1F
100
AcDbEntity
  8
0
  6
Continuous
 62
     7
370
    25
100
AcDbCircle
 10
-9742.8150319829
 20
366.5433049041
 30
0.0
 40
10000.0
100
AcDbArc
 50
359.5831904602
 51
0.4168095398
  0
ARC
  5
91
330
1F
100
AcDbEntity
  8
0
  6
Continuous
 62
     7
370
    25
100
AcDbCircle
 10
10108.1849680171
 20
366.5433049041
 30
0.0
 40
9999.999999999995
100
AcDbArc
 50
179.5831904602
 51
180.4168095398
  0
ARC
  5
92
330
1F
100
AcDbEntity
  8
0
  6
Continuous
 62
     7
370
    25
100
AcDbCircle
 10
255.4204026599
 20
439.2787395469
 30
0.0
 40
1.500000000000152
100
AcDbArc
 50
0.4168095398
 51
89.5831904602
  0
ARC
  5
93
330
1F
100
AcDbEntity
  8
0
  6
Continuous
 62
     7
370
    25
100
AcDbCircle
 10
255.4204026599
 20
293.8078702612
 30
0.0
 40
1.500000000000152
100
AcDbArc
 50
270.4168095398
 51
359.5831904602
  0
ARC
  5
94
330
1F
100
AcDbEntity
  8
0
  6
Continuous
 62
     7
370
    25
100
AcDbCircle
 10
109.9495333742
 20
293.8078702612
 30
0.0
 40
1.500000000000152
100
AcDbArc
 50
180.4168095398
 51
269.5831904602
  0
ARC
  5
95
330
1F
100
AcDbEntity
  8
0
  6
Continuous
 62
     7
370
    25
100
AcDbCircle
 10
109.9495333742
 20
439.2787395469
 30
0.0
 40
1.500000000000152
100
AcDbArc
 50
90.4168095398
 51
179.5831904602
  0
CIRCLE
  5
96
330
1F
100
AcDbEntity
  8
0
  6
Continuous
 62
     8
370
    18
100
AcDbCircle
 10
182.6849680171
 20
334.543304904
 30
0.0
 40
25.75042666398957
  0
LINE
  5
97
330
1F
100
AcDbEntity
  8
0
  6
Continuous
 62
     8
370
    18
100
AcDbLine
 10
188.2628574643
 20
369.7876194608
 30
0.0
 11
177.1070785698
 21
369.7876194608
 31
0.0
  0
LINE
  5
98
330
1F
100
AcDbEntity
  8
0
  6
Continuous
 62
     8
370
    18
100
AcDbLine
 10
188.7349680171
 20
369.2883978881
 30
0.0
 11
176.6349680171
 21
369.2883978881
 31
0.0
  0
CIRCLE
  5
99
330
1F
100
AcDbEntity
  8
0
  6
Continuous
 62
     8
370
    18
100
AcDbCircle
 10
182.6849680171
 20
397.543304904
 30
0.0
 40
13.24074074074073
  0
LINE
  5
9A
330
1F
100
AcDbEntity
  8
0
  6
Continuous
 62
     8
370
    18
100
AcDbLine
 10
190.4813029076
 20
412.643304904
 30
0.0
 11
190.6849680171
 21
412.643304904
 31
0.0
  0
LINE
  5
9B
330
1F
100
AcDbEntity
  8
0
  6
Continuous
 62
     8
370
    18
100
AcDbLine
 10
174.6849680171
 20
412.643304904
 30
0.0
 11
190.4813029076
 21
412.643304904
 31
0.0
  0
LINE
  5
9C
330
1F
100
AcDbEntity
  8
0
  6
Continuous
 62
     8
370
    18
100
AcDbLine
 10
189.5531829119
 20
433.0916250524
 30
0.0
 11
189.7326025697
 21
433.0916250524
 31
0.0
  0
LINE
  5
9D
330
1F
100
AcDbEntity
  8
0
  6
Continuous
 62
     8
370
    18
100
AcDbLine
 10
175.6373334644
 20
433.0916250524
 30
0.0
 11
189.5531829119
 21
433.0916250524
 31
0.0
  0
LINE
  5
9E
330
1F
100
AcDbEntity
  8
0
  6
Continuous
 62
     8
370
    18
100
AcDbLine
 10
188.1693240592
 20
434.8223895751
 30
0.0
 11
188.3125929143
 21
434.8223895751
 31
0.0
  0
LINE
  5
9F
330
1F
100
AcDbEntity
  8
0
  6
Continuous
 62
     8
370
    18
100
AcDbLine
 10
177.0573431198
 20
434.8223895751
 30
0.0
 11
188.1693240592
 21
434.8223895751
 31
0.0
  0
SPLINE
  5
A0
330
1F
100
AcDbEntity
  8
0
  6
Continuous
 62
     8
370
    18
100
AcDbSpline
210
0.0
220
0.0
230
1.0
 70
     8
 71
     3
 72
     8
 73
     4
 74
     0
 42
0.00000001
 43
0.00000001
 40
0.0
 40
0.0
 40
0.0
 40
0.0
 40
1.0
 40
1.0
 40
1.0
 40
1.0
 10
255.2990461564644
 20
439.1573830434592
 30
0.0
 10
206.8896607301931
 20
439.4958352010014
 30
0.0
 10
158.4802753039218
 20
439.495835201002
 30
0.0
 10
110.0708898776504
 20
439.1573830434597
 30
0.0
  0
SPLINE
  5
A1
330
1F
100
AcDbEntity
  8
0
  6
Continuous
 62
     8
370
    18
100
AcDbSpline
210
0.0
220
0.0
230
1.0
 70
     8
 71
     3
 72
    26
 73
    22
 74
     0
 42
0.00000001
 43
0.00000001
 40
0.0
 40
0.0
 40
0.0
 40
0.0
 40
0.03125
 40
0.03125
 40
0.0625
 40
0.0625
 40
0.125
 40
0.125
 40
0.25
 40
0.25
 40
0.375
 40
0.375
 40
0.5
 40
0.5
 40
0.625
 40
0.625
 40
0.75
 40
0.75
 40
0.875
 40
0.875
 40
1.0
 40
1.0
 40
1.0
 40
1.0
 10
109.9396281258229
 20
440.6403180698059
 30
0.0
 10
109.9394633240755
 20
440.6396818618647
 30
0.0
 10
109.9393569044163
 20
440.6384525756644
 30
0.0
 10
109.9392595303188
 20
440.6348260442491
 30
0.0
 10
109.9392685758804
 20
440.6324287990341
 30
0.0
 10
109.9394669619634
 20
440.6235124211225
 30
0.0
 10
109.9398275518827
 20
440.6152686461593
 30
0.0
 10
109.9415787317669
 20
440.5838571222486
 30
0.0
 10
109.9436387318577
 20
440.5540091742793
 30
0.0
 10
109.9494606925568
 20
440.4776640545205
 30
0.0
 10
109.9532796993096
 20
440.4304395587729
 30
0.0
 10
109.9624440287887
 20
440.3215312406282
 30
0.0
 10
109.9677590128522
 20
440.2601581484043
 30
0.0
 10
109.9798387996443
 20
440.1237234624408
 30
0.0
 10
109.986666333927
 20
440.0479970816436
 30
0.0
 10
110.0012401885026
 20
439.8887943572287
 30
0.0
 10
110.0090363098082
 20
439.8047378523628
 30
0.0
 10
110.0256623347523
 20
439.6275798664322
 30
0.0
 10
110.0344376439712
 20
439.5350826815765
 30
0.0
 10
110.052301290467
 20
439.3486538329171
 30
0.0
 10
110.0614719102766
 20
439.2538425824468
 30
0.0
 10
110.07088987765
 20
439.1573830434585
 30
0.0
  0
SPLINE
  5
A2
330
1F
100
AcDbEntity
  8
0
  6
Continuous
 62
     8
370
    18
100
AcDbSpline
210
0.0
220
0.0
230
1.0
 70
     8
 71
     3
 72
     8
 73
     4
 74
     0
 42
0.00000001
 43
0.00000001
 40
0.0
 40
0.0
 40
0.0
 40
0.0
 40
1.0
 40
1.0
 40
1.0
 40
1.0
 10
109.939628125823
 20
440.6403180698048
 30
0.0
 10
158.4365213866444
 20
440.9800187996516
 30
0.0
 10
206.9334146474659
 20
440.9800187996529
 30
0.0
 10
255.4303079082873
 20
440.640318069806
 30
0.0
  0
SPLINE
  5
A3
330
1F
100
AcDbEntity
  8
0
  6
Continuous
 62
     8
370
    18
100
AcDbSpline
210
0.0
220
0.0
230
1.0
 70
     8
 71
     3
 72
    21
 73
    17
 74
     0
 42
0.00000001
 43
0.00000001
 40
0.0
 40
0.0
 40
0.0
 40
0.0
 40
0.0527050586774087
 40
0.1061279071732079
 40
0.1602714805704285
 40
0.2151385976739343
 40
0.2707319665647216
 40
0.3270541898391478
 40
0.3841077695545096
 40
0.4418951119051742
 40
0.5004185316341229
 40
0.6190410166256455
 40
0.75002715792662
 40
0.8150588969042496
 40
0.8983884788291683
 40
0.9999999999999999
 40
0.9999999999999999
 40
0.9999999999999999
 40
0.9999999999999999
 10
255.4303079082873
 20
440.6403180698068
 30
0.0
 10
255.4304847378452
 20
440.6383086799061
 30
0.0
 10
255.4308408052016
 20
440.6342625342378
 30
0.0
 10
255.4300939267539
 20
440.6155001858264
 30
0.0
 10
255.4284068883686
 20
440.5870911933233
 30
0.0
 10
255.4256733691159
 20
440.5479133531292
 30
0.0
 10
255.4219083963555
 20
440.498100858814
 30
0.0
 10
255.4170941445647
 20
440.4375593171484
 30
0.0
 10
255.4112219803868
 20
440.3663852604205
 30
0.0
 10
255.4042822193551
 20
440.2847465608763
 30
0.0
 10
255.3935518194271
 20
440.1619501542856
 30
0.0
 10
255.3769334256885
 20
439.9782262531937
 30
0.0
 10
255.3572268366729
 20
439.7646310981564
 30
0.0
 10
255.338105427143
 20
439.5631902206334
 30
0.0
 10
255.3202942324846
 20
439.3765761523846
 30
0.0
 10
255.3065807213006
 20
439.2351088897514
 30
0.0
 10
255.2990461564652
 20
439.1573830434607
 30
0.0
  0
SPLINE
  5
A4
330
1F
100
AcDbEntity
  8
0
  6
Continuous
 62
     8
370
    18
100
AcDbSpline
210
0.0
220
0.0
230
1.0
 70
     8
 71
     3
 72
     8
 73
     4
 74
     0
 42
0.00000001
 43
0.00000001
 40
0.0
 40
0.0
 40
0.0
 40
0.0
 40
1.0
 40
1.0
 40
1.0
 40
1.0
 10
108.5879548513042
 20
293.7979650128184
 30
0.0
 10
108.2482541214574
 20
342.2948582736394
 30
0.0
 10
108.2482541214583
 20
390.7917515344604
 30
0.0
 10
108.5879548513051
 20
439.2886447952814
 30
0.0
  0
SPLINE
  5
A5
330
1F
100
AcDbEntity
  8
0
  6
Continuous
 62
     8
370
    18
100
AcDbSpline
210
0.0
220
0.0
230
1.0
 70
     8
 71
     3
 72
    21
 73
    17
 74
     0
 42
0.00000001
 43
0.00000001
 40
0.0
 40
0.0
 40
0.0
 40
0.0
 40
0.0527050579362217
 40
0.1061279058763758
 40
0.1602714789034625
 40
0.2151385958224905
 40
0.2707319647143437
 40
0.3270541881743845
 40
0.3841077682621816
 40
0.4418951111699276
 40
0.50041853164114
 40
0.6190410088379037
 40
0.7500271579309205
 40
0.815058891586119
 40
0.8983884735132007
 40
1.0
 40
1.0
 40
1.0
 40
1.0
 10
108.5879548513035
 20
439.2886447952814
 30
0.0
 10
108.5899642411631
 20
439.2888216248353
 30
0.0
 10
108.5940103867561
 20
439.2891776921843
 30
0.0
 10
108.6127727347721
 20
439.288430813729
 30
0.0
 10
108.6411817268022
 20
439.2867437753406
 30
0.0
 10
108.6803595665399
 20
439.284010256088
 30
0.0
 10
108.7301720605155
 20
439.2802452833303
 30
0.0
 10
108.7907136020675
 20
439.2754310315421
 30
0.0
 10
108.86188765901
 20
439.2695588673708
 30
0.0
 10
108.9435263591782
 20
439.2626191063287
 30
0.0
 10
109.066322762321
 20
439.2518887068933
 30
0.0
 10
109.2500466627523
 20
439.2352703130196
 30
0.0
 10
109.4636418137355
 20
439.2155637244877
 30
0.0
 10
109.6650826926939
 20
439.1964423149948
 30
0.0
 10
109.8516967605773
 20
439.178631120309
 30
0.0
 10
109.9931640272876
 20
439.1649176087031
 30
0.0
 10
110.0708898776495
 20
439.1573830434585
 30
0.0
  0
SPLINE
  5
A6
330
1F
100
AcDbEntity
  8
0
  6
Continuous
 62
     8
370
    18
100
AcDbSpline
210
0.0
220
0.0
230
1.0
 70
     8
 71
     3
 72
     8
 73
     4
 74
     0
 42
0.00000001
 43
0.00000001
 40
0.0
 40
0.0
 40
0.0
 40
0.0
 40
1.0
 40
1.0
 40
1.0
 40
1.0
 10
110.0708898776511
 20
439.1573830434585
 30
0.0
 10
109.7324377201088
 20
390.747997617186
 30
0.0
 10
109.7324377201083
 20
342.3386121909134
 30
0.0
 10
110.0708898776505
 20
293.9292267646408
 30
0.0
  0
SPLINE
  5
A7
330
1F
100
AcDbEntity
  8
0
  6
Continuous
 62
     8
370
    18
100
AcDbSpline
210
0.0
220
0.0
230
1.0
 70
     8
 71
     3
 72
    21
 73
    17
 74
     0
 42
0.00000001
 43
0.00000001
 40
0.0
 40
0.0
 40
0.0
 40
0.0
 40
0.0527015852613899
 40
0.1061218296410487
 40
0.1602636681741176
 40
0.2151299194777583
 40
0.2707232913178108
 40
0.3270463858586243
 40
0.3841017046256605
 40
0.4418916531893876
 40
0.5004185455849708
 40
0.6190205634993978
 40
0.7500271669111371
 40
0.8150462982106057
 40
0.8983758845578886
 40
1.0
 40
1.0
 40
1.0
 40
1.0
 10
108.5879548513029
 20
293.7979650128184
 30
0.0
 10
108.589964047167
 20
293.7977882021603
 30
0.0
 10
108.5940098370638
 20
293.7974321697858
 30
0.0
 10
108.6127703377474
 20
293.7981790851268
 30
0.0
 10
108.6411771236973
 20
293.7998661380088
 30
0.0
 10
108.6803528117808
 20
293.8025996574141
 30
0.0
 10
108.730163728236
 20
293.8063646178007
 30
0.0
 10
108.7907047486374
 20
293.8111788552453
 30
0.0
 10
108.8618798026434
 20
293.8170509922247
 30
0.0
 10
108.9435214206587
 20
293.8239907841115
 30
0.0
 10
109.0663100381782
 20
293.8347196928325
 30
0.0
 10
109.2500331325213
 20
293.8513382608748
 30
0.0
 10
109.4636185490581
 20
293.8710439747534
 30
0.0
 10
109.6650642520565
 20
293.8901655836922
 30
0.0
 10
109.8516774566126
 20
293.907976826271
 30
0.0
 10
109.9931543829867
 20
293.9216912679615
 30
0.0
 10
110.0708898776491
 20
293.9292267646404
 30
0.0
  0
SPLINE
  5
A8
330
1F
100
AcDbEntity
  8
0
  6
Continuous
 62
     8
370
    18
100
AcDbSpline
210
0.0
220
0.0
230
1.0
 70
     8
 71
     3
 72
     8
 73
     4
 74
     0
 42
0.00000001
 43
0.00000001
 40
0.0
 40
0.0
 40
0.0
 40
0.0
 40
1.0
 40
1.0
 40
1.0
 40
1.0
 10
255.2990461564647
 20
293.92922676464
 30
0.0
 10
255.637498314007
 20
342.3386121909132
 30
0.0
 10
255.6374983140064
 20
390.7479976171863
 30
0.0
 10
255.2990461564642
 20
439.1573830434595
 30
0.0
  0
SPLINE
  5
A9
330
1F
100
AcDbEntity
  8
0
  6
Continuous
 62
     8
370
    18
100
AcDbSpline
210
0.0
220
0.0
230
1.0
 70
     8
 71
     3
 72
     8
 73
     4
 74
     0
 42
0.00000001
 43
0.00000001
 40
0.0
 40
0.0
 40
0.0
 40
0.0
 40
1.0
 40
1.0
 40
1.0
 40
1.0
 10
110.0708898776495
 20
293.9292267646414
 30
0.0
 10
158.4802753039214
 20
293.5907746070991
 30
0.0
 10
206.8896607301933
 20
293.590774607099
 30
0.0
 10
255.2990461564653
 20
293.9292267646413
 30
0.0
  0
SPLINE
  5
AA
330
1F
100
AcDbEntity
  8
0
  6
Continuous
 62
     8
370
    18
100
AcDbSpline
210
0.0
220
0.0
230
1.0
 70
     8
 71
     3
 72
     8
 73
     4
 74
     0
 42
0.00000001
 43
0.00000001
 40
0.0
 40
0.0
 40
0.0
 40
0.0
 40
1.0
 40
1.0
 40
1.0
 40
1.0
 10
255.4303079082862
 20
292.4462917382948
 30
0.0
 10
206.9334146474667
 20
292.106591008448
 30
0.0
 10
158.4365213866471
 20
292.1065910084473
 30
0.0
 10
109.9396281258276
 20
292.4462917382941
 30
0.0
  0
SPLINE
  5
AB
330
1F
100
AcDbEntity
  8
0
  6
Continuous
 62
     8
370
    18
100
AcDbSpline
210
0.0
220
0.0
230
1.0
 70
     8
 71
     3
 72
    26
 73
    22
 74
     0
 42
0.00000001
 43
0.00000001
 40
0.0
 40
0.0
 40
0.0
 40
0.0
 40
0.03125
 40
0.03125
 40
0.0625
 40
0.0625
 40
0.125
 40
0.125
 40
0.25
 40
0.25
 40
0.375
 40
0.375
 40
0.5
 40
0.5
 40
0.625
 40
0.625
 40
0.75
 40
0.75
 40
0.875
 40
0.875
 40
1.0
 40
1.0
 40
1.0
 40
1.0
 10
109.9396281258275
 20
292.4462917382937
 30
0.0
 10
109.9394633240801
 20
292.4469279462348
 30
0.0
 10
109.9393569044209
 20
292.4481572324351
 30
0.0
 10
109.9392595303234
 20
292.4517837638505
 30
0.0
 10
109.939268575885
 20
292.4541810090655
 30
0.0
 10
109.9394669619679
 20
292.463097386977
 30
0.0
 10
109.9398275518872
 20
292.4713411619401
 30
0.0
 10
109.9415787317713
 20
292.5027526858507
 30
0.0
 10
109.943638731862
 20
292.5326006338199
 30
0.0
 10
109.9494606925609
 20
292.6089457535787
 30
0.0
 10
109.9532796993136
 20
292.6561702493262
 30
0.0
 10
109.9624440287922
 20
292.765078567471
 30
0.0
 10
109.9677590128555
 20
292.8264516596947
 30
0.0
 10
109.9798387996473
 20
292.9628863456581
 30
0.0
 10
109.9866663339298
 20
293.0386127264554
 30
0.0
 10
110.0012401885049
 20
293.1978154508703
 30
0.0
 10
110.0090363098101
 20
293.2818719557362
 30
0.0
 10
110.0256623347537
 20
293.4590299416668
 30
0.0
 10
110.0344376439724
 20
293.5515271265227
 30
0.0
 10
110.0523012904676
 20
293.737955975182
 30
0.0
 10
110.0614719102768
 20
293.832767225652
 30
0.0
 10
110.0708898776499
 20
293.9292267646404
 30
0.0
  0
SPLINE
  5
AC
330
1F
100
AcDbEntity
  8
0
  6
Continuous
 62
     8
370
    18
100
AcDbSpline
210
0.0
220
0.0
230
1.0
 70
     8
 71
     3
 72
    21
 73
    17
 74
     0
 42
0.00000001
 43
0.00000001
 40
0.0
 40
0.0
 40
0.0
 40
0.0
 40
0.0527015849058731
 40
0.1061218290196262
 40
0.1602636673753019
 40
0.2151299185914919
 40
0.270723290432859
 40
0.3270463850647773
 40
0.3841017040109643
 40
0.4418916528430275
 40
0.5004185455965368
 40
0.6190205570885836
 40
0.7500271669238893
 40
0.8150462880617559
 40
0.8983758744116833
 40
1.0
 40
1.0
 40
1.0
 40
1.0
 10
255.4303079082862
 20
292.4462917382944
 30
0.0
 10
255.4304847189425
 20
292.4483009341386
 30
0.0
 10
255.4308407513134
 20
292.4523467239989
 30
0.0
 10
255.4300938359685
 20
292.4711072244926
 30
0.0
 10
255.4284067830851
 20
292.4995140102163
 30
0.0
 10
255.4256732636797
 20
292.5386896980785
 30
0.0
 10
255.4219083032945
 20
292.5885006143712
 30
0.0
 10
255.4170940658512
 20
292.6490416347204
 30
0.0
 10
255.4112219288759
 20
292.7202166888282
 30
0.0
 10
255.4042821369812
 20
292.8018583071423
 30
0.0
 10
255.3935532286352
 20
292.9246469216092
 30
0.0
 10
255.3769346604428
 20
293.1083700152491
 30
0.0
 10
255.3572289474099
 20
293.3219554245464
 30
0.0
 10
255.3381073389018
 20
293.5234011241813
 30
0.0
 10
255.320296096303
 20
293.7100143280387
 30
0.0
 10
255.3065816538836
 20
293.8514912622024
 30
0.0
 10
255.2990461564654
 20
293.9292267646405
 30
0.0
  0
SPLINE
  5
AD
330
1F
100
AcDbEntity
  8
0
  6
Continuous
 62
     8
370
    18
100
AcDbSpline
210
0.0
220
0.0
230
1.0
 70
     8
 71
     3
 72
    26
 73
    22
 74
     0
 42
0.00000001
 43
0.00000001
 40
0.0
 40
0.0
 40
0.0
 40
0.0
 40
0.03125
 40
0.03125
 40
0.0625
 40
0.0625
 40
0.125
 40
0.125
 40
0.25
 40
0.25
 40
0.375
 40
0.375
 40
0.5
 40
0.5
 40
0.625
 40
0.625
 40
0.75
 40
0.75
 40
0.875
 40
0.875
 40
1.0
 40
1.0
 40
1.0
 40
1.0
 10
256.781981182811
 20
439.2886447952818
 30
0.0
 10
256.7813449748699
 20
439.2888095970291
 30
0.0
 10
256.7801156886695
 20
439.2889160166883
 30
0.0
 10
256.7764891572542
 20
439.2890133907858
 30
0.0
 10
256.7740919120392
 20
439.2890043452242
 30
0.0
 10
256.7651755341276
 20
439.2888059591413
 30
0.0
 10
256.7569317591645
 20
439.288445369222
 30
0.0
 10
256.7255202352537
 20
439.2866941893379
 30
0.0
 10
256.6956722872844
 20
439.2846341892471
 30
0.0
 10
256.6193271675257
 20
439.2788122285482
 30
0.0
 10
256.5721026717786
 20
439.2749932217955
 30
0.0
 10
256.4631943536339
 20
439.2658288923168
 30
0.0
 10
256.4018212614102
 20
439.2605139082535
 30
0.0
 10
256.2653865754467
 20
439.2484341214617
 30
0.0
 10
256.1896601946511
 20
439.2416065871794
 30
0.0
 10
256.0304574702362
 20
439.2270327326043
 30
0.0
 10
255.9464009653689
 20
439.2192366112988
 30
0.0
 10
255.7692429794384
 20
439.2026105863551
 30
0.0
 10
255.6767457945832
 20
439.1938352771365
 30
0.0
 10
255.4903169459238
 20
439.1759716306412
 30
0.0
 10
255.3955056954537
 20
439.166801010832
 30
0.0
 10
255.2990461564652
 20
439.1573830434588
 30
0.0
  0
SPLINE
  5
AE
330
1F
100
AcDbEntity
  8
0
  6
Continuous
 62
     8
370
    18
100
AcDbSpline
210
0.0
220
0.0
230
1.0
 70
     8
 71
     3
 72
     8
 73
     4
 74
     0
 42
0.00000001
 43
0.00000001
 40
0.0
 40
0.0
 40
0.0
 40
0.0
 40
1.0
 40
1.0
 40
1.0
 40
1.0
 10
256.7819811828107
 20
439.2886447952816
 30
0.0
 10
257.1216819126575
 20
390.7917515344605
 30
0.0
 10
257.1216819126566
 20
342.2948582736394
 30
0.0
 10
256.7819811828097
 20
293.7979650128182
 30
0.0
  0
SPLINE
  5
AF
330
1F
100
AcDbEntity
  8
0
  6
Continuous
 62
     8
370
    18
100
AcDbSpline
210
0.0
220
0.0
230
1.0
 70
     8
 71
     3
 72
    26
 73
    22
 74
     0
 42
0.00000001
 43
0.00000001
 40
0.0
 40
0.0
 40
0.0
 40
0.0
 40
0.03125
 40
0.03125
 40
0.0625
 40
0.0625
 40
0.125
 40
0.125
 40
0.25
 40
0.25
 40
0.375
 40
0.375
 40
0.5
 40
0.5
 40
0.625
 40
0.625
 40
0.75
 40
0.75
 40
0.875
 40
0.875
 40
1.0
 40
1.0
 40
1.0
 40
1.0
 10
256.7819811828113
 20
293.7979650128181
 30
0.0
 10
256.7813449748701
 20
293.7978002110707
 30
0.0
 10
256.7801156886698
 20
293.7976937914115
 30
0.0
 10
256.7764891572545
 20
293.797596417314
 30
0.0
 10
256.7740919120394
 20
293.7976054628756
 30
0.0
 10
256.7651755341278
 20
293.7978038489586
 30
0.0
 10
256.7569317591648
 20
293.7981644388778
 30
0.0
 10
256.725520235254
 20
293.7999156187619
 30
0.0
 10
256.6956722872848
 20
293.8019756188526
 30
0.0
 10
256.6193271675262
 20
293.8077975795514
 30
0.0
 10
256.572102671779
 20
293.8116165863042
 30
0.0
 10
256.4631943536343
 20
293.8207809157828
 30
0.0
 10
256.4018212614104
 20
293.8260958998461
 30
0.0
 10
256.2653865754471
 20
293.8381756866378
 30
0.0
 10
256.189660194651
 20
293.8450032209201
 30
0.0
 10
256.0304574702361
 20
293.8595770754952
 30
0.0
 10
255.9464009653687
 20
293.8673731968007
 30
0.0
 10
255.7692429794384
 20
293.8839992217443
 30
0.0
 10
255.676745794583
 20
293.8927745309628
 30
0.0
 10
255.4903169459237
 20
293.9106381774579
 30
0.0
 10
255.3955056954537
 20
293.9198087972671
 30
0.0
 10
255.2990461564653
 20
293.9292267646403
 30
0.0
  0
LINE
  5
B0
330
1F
100
AcDbEntity
  8
0
  6
Continuous
 62
     8
370
    18
100
AcDbLine
 10
255.4313146119
 20
440.7786998561
 30
0.0
 11
255.4303079083
 21
440.6403180698
 31
0.0
  0
LINE
  5
B1
330
1F
100
AcDbEntity
  8
0
  6
Continuous
 62
     8
370
    18
100
AcDbLine
 10
109.9386214222
 20
440.7786998561
 30
0.0
 11
109.9396281258
 21
440.6403180698
 31
0.0
  0
LINE
  5
B2
330
1F
100
AcDbEntity
  8
0
  6
Continuous
 62
     8
370
    18
100
AcDbLine
 10
109.9386214223
 20
292.307909952
 30
0.0
 11
109.9396281258
 21
292.4462917383
 31
0.0
  0
LINE
  5
B3
330
1F
100
AcDbEntity
  8
0
  6
Continuous
 62
     8
370
    18
100
AcDbLine
 10
255.4313146119
 20
292.307909952
 30
0.0
 11
255.4303079083
 21
292.4462917383
 31
0.0
  0
LINE
  5
B4
330
1F
100
AcDbEntity
  8
0
  6
Continuous
 62
     8
370
    18
100
AcDbLine
 10
256.9203629691
 20
293.7969583092
 30
0.0
 11
256.7819811828
 21
293.7979650128
 31
0.0
  0
LINE
  5
B5
330
1F
100
AcDbEntity
  8
0
  6
Continuous
 62
     8
370
    18
100
AcDbLine
 10
256.9203629691
 20
439.2896514989
 30
0.0
 11
256.7819811828
 21
439.2886447953
 31
0.0
  0
LINE
  5
B6
330
1F
100
AcDbEntity
  8
0
  6
Continuous
 62
     8
370
    18
100
AcDbLine
 10
108.449573065
 20
439.2896514989
 30
0.0
 11
108.5879548513
 21
439.2886447953
 31
0.0
  0
LINE
  5
B7
330
1F
100
AcDbEntity
  8
0
  6
Continuous
 62
     8
370
    18
100
AcDbLine
 10
108.449573065
 20
293.7969583092
 30
0.0
 11
108.5879548513
 21
293.7979650128
 31
0.0
  0
SPLINE
  5
B8
330
1F
100
AcDbEntity
  8
0
  6
Continuous
 62
     8
370
    18
100
AcDbSpline
210
0.0
220
0.0
230
1.0
 70
     8
 71
     3
 72
    25
 73
    21
 74
     0
 42
0.00000001
 43
0.00000001
 40
0.0
 40
0.0
 40
0.0
 40
0.0
 40
0.0555740769933564
 40
0.1111416178191766
 40
0.1667034389905849
 40
0.2222603572237526
 40
0.2778131894090244
 40
0.3333627525819134
 40
0.3889098638941327
 40
0.444455340584554
 40
0.4999999999501496
 40
0.5555446593169773
 40
0.6110901360110876
 40
0.6666372473294615
 40
0.7221868105109714
 40
0.7777396427073173
 40
0.8332965609540269
 40
0.8888583821414353
 40
0.9444259229857194
 40
1.0
 40
1.0
 40
1.0
 40
1.0
 10
109.9396281258275
 20
292.4462917382949
 30
0.0
 10
109.9003979135178
 20
292.4475826723548
 30
0.0
 10
109.8219421028346
 20
292.4501643886455
 30
0.0
 10
109.7052347000222
 20
292.4668926328449
 30
0.0
 10
109.5903560818353
 20
292.4928985656849
 30
0.0
 10
109.4781685790843
 20
292.5289124121593
 30
0.0
 10
109.3695061242468
 20
292.5744173681425
 30
0.0
 10
109.2651786049397
 20
292.6291402086361
 30
0.0
 10
109.1659630248002
 20
292.6926549978282
 30
0.0
 10
109.0725985031944
 20
292.7644929727171
 30
0.0
 10
108.9857805463574
 20
292.8441174331994
 30
0.0
 10
108.9061560858601
 20
292.9309353900262
 30
0.0
 10
108.8343181109525
 20
293.0242999116275
 30
0.0
 10
108.7708033217392
 20
293.1235154917689
 30
0.0
 10
108.7160804812235
 20
293.2278430110852
 30
0.0
 10
108.6705755252187
 20
293.336505465939
 30
0.0
 10
108.6345616787249
 20
293.4486929687141
 30
0.0
 10
108.608555745869
 20
293.5635715869323
 30
0.0
 10
108.5918275016584
 20
293.6802789897828
 30
0.0
 10
108.5892457853662
 20
293.7587348004939
 30
0.0
 10
108.5879548513056
 20
293.7979650128184
 30
0.0
  0
SPLINE
  5
B9
330
1F
100
AcDbEntity
  8
0
  6
Continuous
 62
     8
370
    18
100
AcDbSpline
210
0.0
220
0.0
230
1.0
 70
     8
 71
     3
 72
    25
 73
    21
 74
     0
 42
0.00000001
 43
0.00000001
 40
0.0
 40
0.0
 40
0.0
 40
0.0
 40
0.0555740770039925
 40
0.1111416178392036
 40
0.166703439018742
 40
0.2222603572587847
 40
0.2778131894496884
 40
0.3333627526269553
 40
0.3889098639422989
 40
0.4444553406345922
 40
0.5000000000008086
 40
0.5555446593670121
 40
0.6110901360592383
 40
0.6666372473744842
 40
0.722186810551614
 40
0.7777396427423311
 40
0.8332965609821633
 40
0.8888583821614406
 40
0.944425922996349
 40
1.0
 40
1.0
 40
1.0
 40
1.0
 10
256.7819811828094
 20
293.7979650128181
 30
0.0
 10
256.7806902487491
 20
293.7587348005009
 30
0.0
 10
256.7781085324576
 20
293.6802789898035
 30
0.0
 10
256.7613802882526
 20
293.5635715869717
 30
0.0
 10
256.7353743554045
 20
293.4486929687689
 30
0.0
 10
256.6993605089203
 20
293.3365054660055
 30
0.0
 10
256.6538555529262
 20
293.2278430111597
 30
0.0
 10
256.5991327124212
 20
293.1235154918479
 30
0.0
 10
256.5356179232184
 20
293.0242999117074
 30
0.0
 10
256.46377994832
 20
292.9309353901039
 30
0.0
 10
256.38415548783
 20
292.844117433272
 30
0.0
 10
256.297337530998
 20
292.7644929727823
 30
0.0
 10
256.2039730093944
 20
292.6926549978842
 30
0.0
 10
256.1047574292539
 20
292.6291402086816
 30
0.0
 10
256.0004299099423
 20
292.574417368177
 30
0.0
 10
255.8917674550967
 20
292.5289124121833
 30
0.0
 10
255.7795799523338
 20
292.4928985656994
 30
0.0
 10
255.6647013341315
 20
292.4668926328515
 30
0.0
 10
255.5479939313003
 20
292.4501643886466
 30
0.0
 10
255.4695381206033
 20
292.4475826723552
 30
0.0
 10
255.4303079082864
 20
292.4462917382949
 30
0.0
  0
SPLINE
  5
BA
330
1F
100
AcDbEntity
  8
0
  6
Continuous
 62
     8
370
    18
100
AcDbSpline
210
0.0
220
0.0
230
1.0
 70
     8
 71
     3
 72
    25
 73
    21
 74
     0
 42
0.00000001
 43
0.00000001
 40
0.0
 40
0.0
 40
0.0
 40
0.0
 40
0.0555740769952394
 40
0.1111416178227194
 40
0.1667034389955598
 40
0.2222603572299373
 40
0.277813189416198
 40
0.3333627525898602
 40
0.3889098639026276
 40
0.4444553405933713
 40
0.4999999999590709
 40
0.5555446593257898
 40
0.6110901360195594
 40
0.6666372473373772
 40
0.7221868105181174
 40
0.7777396427134698
 40
0.8332965609589699
 40
0.888858382144941
 40
0.9444259229875819
 40
1.0
 40
1.0
 40
1.0
 40
1.0
 10
255.4303079082874
 20
440.6403180698047
 30
0.0
 10
255.4695381205984
 20
440.6390271357447
 30
0.0
 10
255.5479939312841
 20
440.6364454194539
 30
0.0
 10
255.6647013340998
 20
440.6197171752534
 30
0.0
 10
255.7795799522895
 20
440.5937112424119
 30
0.0
 10
255.8917674550427
 20
440.5576973959359
 30
0.0
 10
256.0004299098816
 20
440.5121924399508
 30
0.0
 10
256.1047574291895
 20
440.4574695994551
 30
0.0
 10
256.2039730093291
 20
440.3939548102611
 30
0.0
 10
256.2973375309344
 20
440.3221168353706
 30
0.0
 10
256.3841554877706
 20
440.242492374887
 30
0.0
 10
256.4637799482665
 20
440.1556744180593
 30
0.0
 10
256.5356179231724
 20
440.0623098964577
 30
0.0
 10
256.5991327123838
 20
439.9630943163165
 30
0.0
 10
256.6538555528976
 20
439.8587667970011
 30
0.0
 10
256.6993605089004
 20
439.7501043421487
 30
0.0
 10
256.7353743553925
 20
439.6379168393759
 30
0.0
 10
256.761380288247
 20
439.5230382211604
 30
0.0
 10
256.7781085324567
 20
439.4063308183134
 30
0.0
 10
256.7806902487487
 20
439.3278750076049
 30
0.0
 10
256.7819811828094
 20
439.2886447952817
 30
0.0
  0
SPLINE
  5
BB
330
1F
100
AcDbEntity
  8
0
  6
Continuous
 62
     8
370
    18
100
AcDbSpline
210
0.0
220
0.0
230
1.0
 70
     8
 71
     3
 72
    25
 73
    21
 74
     0
 42
0.00000001
 43
0.00000001
 40
0.0
 40
0.0
 40
0.0
 40
0.0
 40
0.0555740770111256
 40
0.1111416178526283
 40
0.1667034390376246
 40
0.222260357282292
 40
0.2778131894769694
 40
0.3333627526571794
 40
0.388909863974627
 40
0.4444553406681826
 40
0.5000000000348253
 40
0.5555446594006129
 40
0.611090136091585
 40
0.666637247404733
 40
0.7221868105789204
 40
0.7777396427658618
 40
0.8332965610010726
 40
0.8888583821748844
 40
0.9444259230034925
 40
1.0
 40
1.0
 40
1.0
 40
1.0
 10
108.5879548513056
 20
439.2886447952814
 30
0.0
 10
108.5892457853661
 20
439.3278750076036
 30
0.0
 10
108.5918275016581
 20
439.4063308183103
 30
0.0
 10
108.6085557458669
 20
439.5230382211548
 30
0.0
 10
108.6345616787202
 20
439.637916839368
 30
0.0
 10
108.670575525211
 20
439.7501043421393
 30
0.0
 10
108.7160804812123
 20
439.8587667969905
 30
0.0
 10
108.7708033217244
 20
439.9630943163052
 30
0.0
 10
108.8343181109343
 20
440.0623098964462
 30
0.0
 10
108.9061560858387
 20
440.155674418048
 30
0.0
 10
108.9857805463335
 20
440.2424923748763
 30
0.0
 10
109.0725985031686
 20
440.3221168353608
 30
0.0
 10
109.1659630247734
 20
440.3939548102525
 30
0.0
 10
109.2651786049127
 20
440.457469599448
 30
0.0
 10
109.3695061242209
 20
440.5121924399451
 30
0.0
 10
109.4781685790605
 20
440.5576973959317
 30
0.0
 10
109.5903560818148
 20
440.5937112424091
 30
0.0
 10
109.705234700006
 20
440.6197171752519
 30
0.0
 10
109.8219421028239
 20
440.6364454194533
 30
0.0
 10
109.9003979135111
 20
440.6390271357445
 30
0.0
 10
109.9396281258229
 20
440.6403180698047
 30
0.0
  0
ARC
  5
BC
330
1F
100
AcDbEntity
  8
0
  6
Continuous
 62
     7
370
    25
100
AcDbCircle
 10
182.6849680171
 20
7191.1891132996
 30
0.0
 40
7000.0
100
AcDbArc
 50
269.4035573778
 51
269.8854083646
  0
ARC
  5
BD
330
1F
100
AcDbEntity
  8
0
  6
Continuous
 62
     7
370
    25
100
AcDbCircle
 10
182.6849680171
 20
7191.1891132996
 30
0.0
 40
7000.0
100
AcDbArc
 50
270.1145916354
 51
270.596443114
  0
ARC
  5
BE
330
1F
100
AcDbEntity
  8
0
  6
Continuous
 62
     7
370
    25
100
AcDbCircle
 10
255.5372678862
 20
193.0683089405
 30
0.0
 40
1.500000000000002
100
AcDbArc
 50
270.6099342096
 51
358.4898882191
  0
ARC
  5
BF
330
1F
100
AcDbEntity
  8
0
  6
Continuous
 62
     7
370
    25
100
AcDbCircle
 10
109.8326681479
 20
193.0683089405
 30
0.0
 40
1.500000000000001
100
AcDbArc
 50
181.5235157126
 51
269.4065979698
  0
LINE
  5
C0
330
1F
100
AcDbEntity
  8
0
  6
Continuous
 62
     7
370
    25
100
AcDbLine
 10
257.036754624
 20
193.0290721727
 30
0.0
 11
257.1849680171
 21
198.6891132996
 31
0.0
  0
LINE
  5
C1
330
1F
100
AcDbEntity
  8
0
  6
Continuous
 62
     7
370
    25
100
AcDbLine
 10
108.1849680171
 20
198.6891132996
 30
0.0
 11
108.3331814101
 21
193.0290721727
 31
0.0
  0
LINE
  5
C2
330
1F
100
AcDbEntity
  8
0
  6
Continuous
 62
     7
370
    25
100
AcDbLine
 10
196.6849680171
 20
176.1891132996
 30
0.0
 11
196.6849680171
 21
191.2717633236
 31
0.0
  0
LINE
  5
C3
330
1F
100
AcDbEntity
  8
0
  6
Continuous
 62
     7
370
    25
100
AcDbLine
 10
168.6849680171
 20
191.271761822
 30
0.0
 11
168.6849680171
 21
176.1891132996
 31
0.0
  0
ARC
  5
C4
330
1F
100
AcDbEntity
  8
0
  6
Continuous
 62
     7
370
    25
100
AcDbCircle
 10
169.1849680171
 20
176.1891132996
 30
0.0
 40
0.5
100
AcDbArc
 50
180.0
 51
270.0
  0
ARC
  5
C5
330
1F
100
AcDbEntity
  8
0
  6
Continuous
 62
     7
370
    25
100
AcDbCircle
 10
196.1849680171
 20
176.1891132996
 30
0.0
 40
0.5
100
AcDbArc
 50
270.0
 51
0.0
  0
LINE
  5
C6
330
1F
100
AcDbEntity
  8
0
  6
Continuous
 62
     7
370
    25
100
AcDbLine
 10
196.6849680171
 20
153.852560249
 30
0.0
 11
196.6849680171
 21
174.7643909745
 31
0.0
  0
LINE
  5
C7
330
1F
100
AcDbEntity
  8
0
  6
Continuous
 62
     7
370
    25
100
AcDbLine
 10
168.6849680171
 20
174.7643909745
 30
0.0
 11
168.6849680171
 21
153.852560249
 31
0.0
  0
ARC
  5
C8
330
1F
100
AcDbEntity
  8
0
  6
Continuous
 62
     7
370
    25
100
AcDbCircle
 10
195.6849680171
 20
153.852560249
 30
0.0
 40
1.0
100
AcDbArc
 50
283.9302635925
 51
0.0
  0
ARC
  5
C9
330
1F
100
AcDbEntity
  8
0
  6
Continuous
 62
     7
370
    25
100
AcDbCircle
 10
169.6849680171
 20
153.852560249
 30
0.0
 40
1.0
100
AcDbArc
 50
180.0
 51
256.0697364075
  0
ARC
  5
CA
330
1F
100
AcDbEntity
  8
0
  6
Continuous
 62
     7
370
    25
100
AcDbCircle
 10
182.6849680171
 20
206.2643909745
 30
0.0
 40
55.0
100
AcDbArc
 50
256.0697364075
 51
270.0
  0
ARC
  5
CB
330
1F
100
AcDbEntity
  8
0
  6
Continuous
 62
     7
370
    25
100
AcDbCircle
 10
182.6849680171
 20
206.2643909745
 30
0.0
 40
55.0
100
AcDbArc
 50
270.0
 51
283.9302635925
  0
LINE
  5
CC
330
1F
100
AcDbEntity
  8
0
  6
Continuous
 62
     7
370
    25
100
AcDbLine
 10
194.6849680171
 20
174.7643909745
 30
0.0
 11
194.6849680171
 21
175.6891132996
 31
0.0
  0
LINE
  5
CD
330
1F
100
AcDbEntity
  8
0
  6
Continuous
 62
     7
370
    25
100
AcDbLine
 10
170.6849680171
 20
175.6891132996
 30
0.0
 11
170.6849680171
 21
174.7643909745
 31
0.0
  0
ARC
  5
CE
330
1F
100
AcDbEntity
  8
0
  6
Continuous
 62
     7
370
    25
100
AcDbCircle
 10
314.1860078859
 20
115.2891132996
 30
0.0
 40
159.1010398688185
100
AcDbArc
 50
174.8071373335
 51
180.0
  0
ARC
  5
CF
330
1F
100
AcDbEntity
  8
0
  6
Continuous
 62
     7
370
    25
100
AcDbCircle
 10
51.1839281482
 20
115.2891132996
 30
0.0
 40
159.1010398688185
100
AcDbArc
 50
0.0
 51
5.1928626665
  0
ARC
  5
D0
330
1F
100
AcDbEntity
  8
0
  6
Continuous
 62
     7
370
    25
100
AcDbCircle
 10
210.1849680171
 20
114.7891132996
 30
0.0
 40
0.1000000000000227
100
AcDbArc
 50
0.0
 51
90.0
  0
ARC
  5
D1
330
1F
100
AcDbEntity
  8
0
  6
Continuous
 62
     7
370
    25
100
AcDbCircle
 10
155.1849680171
 20
114.7891132996
 30
0.0
 40
0.0999999999999943
100
AcDbArc
 50
90.0
 51
180.0
  0
LINE
  5
D2
330
1F
100
AcDbEntity
  8
0
  6
Continuous
 62
     7
370
    25
100
AcDbLine
 10
210.2849680171
 20
114.5000502915
 30
0.0
 11
210.2849680171
 21
114.7891132996
 31
0.0
  0
LINE
  5
D3
330
1F
100
AcDbEntity
  8
0
  6
Continuous
 62
     7
370
    25
100
AcDbLine
 10
155.0849680171
 20
114.7891132996
 30
0.0
 11
155.0849680171
 21
114.5000502915
 31
0.0
  0
ARC
  5
D4
330
1F
100
AcDbEntity
  8
0
  6
Continuous
 62
     7
370
    25
100
AcDbCircle
 10
208.3349680171
 20
114.5000502915
 30
0.0
 40
1.950000000000006
100
AcDbArc
 50
272.952087508
 51
0.0
  0
ARC
  5
D5
330
1F
100
AcDbEntity
  8
0
  6
Continuous
 62
     7
370
    25
100
AcDbCircle
 10
157.0349680171
 20
114.5000502915
 30
0.0
 40
1.950000000000007
100
AcDbArc
 50
180.0
 51
267.047912492
  0
ARC
  5
D6
330
1F
100
AcDbEntity
  8
0
  6
Continuous
 62
     7
370
    25
100
AcDbCircle
 10
707.5798070875
 20
174.9433744027
 30
0.0
 40
500.0000000000001
100
AcDbArc
 50
181.1751341531
 51
185.1928626665
  0
ARC
  5
D7
330
1F
100
AcDbEntity
  8
0
  6
Continuous
 62
     7
370
    25
100
AcDbCircle
 10
-342.2098710534
 20
174.9433744027
 30
0.0
 40
500.0000000000001
100
AcDbArc
 50
354.8071373335
 51
358.8248658469
  0
ARC
  5
D8
330
1F
100
AcDbEntity
  8
0
  6
Continuous
 62
     7
370
    25
100
AcDbCircle
 10
182.6849680171
 20
611.8891132996
 30
0.0
 40
499.9999999999999
100
AcDbArc
 50
267.047912492
 51
270.0
  0
ARC
  5
D9
330
1F
100
AcDbEntity
  8
0
  6
Continuous
 62
     7
370
    25
100
AcDbCircle
 10
182.6849680171
 20
611.8891132996
 30
0.0
 40
499.9999999999999
100
AcDbArc
 50
270.0
 51
272.952087508
  0
LINE
  5
DA
330
1F
100
AcDbEntity
  8
0
  6
Continuous
 62
     7
370
    25
100
AcDbLine
 10
207.6849680171
 20
114.8891132996
 30
0.0
 11
207.6849680171
 21
115.2891132996
 31
0.0
  0
LINE
  5
DB
330
1F
100
AcDbEntity
  8
0
  6
Continuous
 62
     7
370
    25
100
AcDbLine
 10
157.6849680171
 20
115.2891132996
 30
0.0
 11
157.6849680171
 21
114.8891132996
 31
0.0
  0
LINE
  5
DC
330
1F
100
AcDbEntity
  8
0
  6
Continuous
 62
     7
370
    25
100
AcDbLine
 10
159.7349680189
 20
166.6891132996
 30
0.0
 11
159.7698781488
 21
164.6891132996
 31
0.0
  0
LINE
  5
DD
330
1F
100
AcDbEntity
  8
0
  6
Continuous
 62
     7
370
    25
100
AcDbLine
 10
205.6000578923
 20
164.6891132996
 30
0.0
 11
205.6349680221
 21
166.6891132996
 31
0.0
  0
LINE
  5
DE
330
1F
100
AcDbEntity
  8
0
  6
Continuous
 62
     7
370
    25
100
AcDbLine
 10
205.5849680171
 20
167.6891132996
 30
0.0
 11
205.5849680171
 21
191.2265712569
 31
0.0
  0
LINE
  5
DF
330
1F
100
AcDbEntity
  8
0
  6
Continuous
 62
     7
370
    25
100
AcDbLine
 10
159.7849680171
 20
191.2265712569
 30
0.0
 11
159.7849680171
 21
167.6891132996
 31
0.0
  0
ARC
  5
E0
330
1F
100
AcDbEntity
  8
0
  6
Continuous
 62
     7
370
    25
100
AcDbCircle
 10
160.7849680171
 20
167.6891132996
 30
0.0
 40
1.0
100
AcDbArc
 50
180.0
 51
270.0
  0
ARC
  5
E1
330
1F
100
AcDbEntity
  8
0
  6
Continuous
 62
     7
370
    25
100
AcDbCircle
 10
204.5849680171
 20
167.6891132996
 30
0.0
 40
1.0
100
AcDbArc
 50
270.0
 51
0.0
  0
LINE
  5
E2
330
1F
100
AcDbEntity
  8
0
  6
Continuous
 62
     7
370
    25
100
AcDbLine
 10
109.9386214223
 20
198.6891132996
 30
0.0
 11
255.4313146119
 21
198.6891132996
 31
0.0
  0
SPLINE
  5
E3
330
1F
100
AcDbEntity
  8
0
  6
Continuous
 62
     7
370
    25
100
AcDbSpline
210
0.0
220
0.0
230
1.0
 70
     8
 71
     3
 72
    27
 73
    23
 74
     0
 42
0.00000001
 43
0.00000001
 40
0.0
 40
0.0
 40
0.0
 40
0.0
 40
0.018549761780621
 40
0.072245586945295
 40
0.1259415381258447
 40
0.1796374875464664
 40
0.2333332237536461
 40
0.2870289575000836
 40
0.3407242322436
 40
0.3944195049040646
 40
0.4481142739411343
 40
0.501809042185782
 40
0.5555034829104659
 40
0.6091979244805815
 40
0.6628923581710533
 40
0.7165867939742239
 40
0.7702815449865328
 40
0.8239762984529007
 40
0.8776715520735722
 40
0.9313668074141817
 40
0.9850625286596408
 40
1.0
 40
1.0
 40
1.0
 40
1.0
 10
168.7308941660323
 20
191.2717618220343
 30
0.0
 10
168.7188899557845
 20
191.2729647782896
 30
0.0
 10
168.6721372683148
 20
191.2776499209754
 30
0.0
 10
168.9947958451886
 20
191.2857786887105
 30
0.0
 10
169.7033138754011
 20
191.2957623564877
 30
0.0
 10
170.7997791176358
 20
191.3050805843322
 30
0.0
 10
172.233347066201
 20
191.3134328247672
 30
0.0
 10
173.9594352078184
 20
191.3206264778452
 30
0.0
 10
175.9377983440837
 20
191.3264042233457
 30
0.0
 10
178.1038794588614
 20
191.3306626142311
 30
0.0
 10
180.4026407298508
 20
191.3332143797084
 30
0.0
 10
182.7648539590467
 20
191.3340574763181
 30
0.0
 10
185.1247480716258
 20
191.333095624012
 30
0.0
 10
187.4167952984479
 20
191.3304284374213
 30
0.0
 10
189.5717953110677
 20
191.3260614577825
 30
0.0
 10
191.5351751281976
 20
191.320184725017
 30
0.0
 10
193.2427370244162
 20
191.3129049150358
 30
0.0
 10
194.6546077669749
 20
191.3044813148613
 30
0.0
 10
195.7278056245792
 20
191.2951087792003
 30
0.0
 10
196.4081470234433
 20
191.2850901487279
 30
0.0
 10
196.7085638485023
 20
191.2771796823896
 30
0.0
 10
196.6555344686636
 20
191.2727314468395
 30
0.0
 10
196.6439930437103
 20
191.2717633235665
 30
0.0
  0
LINE
  5
E4
330
1F
100
AcDbEntity
  8
0
  6
Continuous
 62
     7
370
    25
100
AcDbLine
 10
108.449573065
 20
198.6891132996
 30
0.0
 11
108.5879548513
 21
193.4043862491
 31
0.0
  0
LINE
  5
E5
330
1F
100
AcDbEntity
  8
0
  6
Continuous
 62
     7
370
    25
100
AcDbLine
 10
109.9386214223
 20
198.6891132996
 30
0.0
 11
108.449573065
 21
198.6891132996
 31
0.0
  0
LINE
  5
E6
330
1F
100
AcDbEntity
  8
0
  6
Continuous
 62
     7
370
    25
100
AcDbLine
 10
256.9203629691
 20
198.6891132996
 30
0.0
 11
256.7819811828
 21
193.4043862491
 31
0.0
  0
LINE
  5
E7
330
1F
100
AcDbEntity
  8
0
  6
Continuous
 62
     7
370
    25
100
AcDbLine
 10
255.4313146119
 20
198.6891132996
 30
0.0
 11
256.9203629691
 21
198.6891132996
 31
0.0
  0
LINE
  5
E8
330
1F
100
AcDbEntity
  8
0
  6
Continuous
 62
     7
370
    25
100
AcDbLine
 10
257.1849680171
 20
198.6891132996
 30
0.0
 11
256.9203629691
 21
198.6891132996
 31
0.0
  0
LINE
  5
E9
330
1F
100
AcDbEntity
  8
0
  6
Continuous
 62
     7
370
    25
100
AcDbLine
 10
108.1849680171
 20
198.6891132996
 30
0.0
 11
108.449573065
 21
198.6891132996
 31
0.0
  0
CIRCLE
  5
EA
330
1F
100
AcDbEntity
  8
0
  6
Continuous
 62
     7
370
    25
100
AcDbCircle
 10
182.6849680171
 20
162.6643909745
 30
0.0
 40
8.000000000000004
  0
LINE
  5
EB
330
1F
100
AcDbEntity
  8
0
  6
Continuous
 62
     7
370
    25
100
AcDbLine
 10
190.5114956791
 20
175.6891132996
 30
0.0
 11
169.1849680171
 21
175.6891132996
 31
0.0
  0
LINE
  5
EC
330
1F
100
AcDbEntity
  8
0
  6
Continuous
 62
     7
370
    25
100
AcDbLine
 10
196.1849680171
 20
175.6891132996
 30
0.0
 11
190.5114956791
 21
175.6891132996
 31
0.0
  0
SPLINE
  5
ED
330
1F
100
AcDbEntity
  8
0
  6
Continuous
 62
     7
370
    25
100
AcDbSpline
210
0.0
220
0.0
230
1.0
 70
    11
 71
     3
 72
    92
 73
    88
 74
     0
 42
0.00000001
 43
0.00000001
 40
0.0
 40
0.0
 40
0.0
 40
0.0
 40
0.0312500000000059
 40
0.0312500000000059
 40
0.0625000000000118
 40
0.0625000000000118
 40
0.0937500000000177
 40
0.0937500000000177
 40
0.1250000000000236
 40
0.1250000000000236
 40
0.1406250000000255
 40
0.1406250000000255
 40
0.1562500000000274
 40
0.1562500000000274
 40
0.1875000000000311
 40
0.1875000000000311
 40
0.2187500000000348
 40
0.2187500000000348
 40
0.2500000000000386
 40
0.2500000000000386
 40
0.2656250000000405
 40
0.2656250000000405
 40
0.2812500000000423
 40
0.2812500000000423
 40
0.2968750000000442
 40
0.2968750000000442
 40
0.312500000000046
 40
0.312500000000046
 40
0.3437500000000498
 40
0.3437500000000498
 40
0.3593750000000526
 40
0.3593750000000526
 40
0.3750000000000554
 40
0.3750000000000554
 40
0.3906250000000582
 40
0.3906250000000582
 40
0.406250000000061
 40
0.406250000000061
 40
0.4375000000000665
 40
0.4375000000000665
 40
0.4531250000000678
 40
0.4531250000000678
 40
0.4687500000000692
 40
0.4687500000000692
 40
0.5000000000000718
 40
0.5000000000000718
 40
0.5156250000000716
 40
0.5156250000000716
 40
0.5312500000000713
 40
0.5312500000000713
 40
0.5625000000000708
 40
0.5625000000000708
 40
0.5781250000000693
 40
0.5781250000000693
 40
0.5937500000000677
 40
0.5937500000000677
 40
0.625000000000062
 40
0.625000000000062
 40
0.6562500000000562
 40
0.6562500000000562
 40
0.6875000000000504
 40
0.6875000000000504
 40
0.7031250000000481
 40
0.7031250000000481
 40
0.7187500000000456
 40
0.7187500000000456
 40
0.750000000000041
 40
0.750000000000041
 40
0.7656250000000387
 40
0.7656250000000387
 40
0.7812500000000364
 40
0.7812500000000364
 40
0.8125000000000311
 40
0.8125000000000311
 40
0.8437500000000258
 40
0.8437500000000258
 40
0.8750000000000204
 40
0.8750000000000204
 40
0.8906250000000189
 40
0.8906250000000189
 40
0.9062500000000172
 40
0.9062500000000172
 40
0.9375000000000115
 40
0.9375000000000115
 40
0.9687500000000058
 40
0.9687500000000058
 40
1.0
 40
1.0
 40
1.0
 40
1.0
 10
190.8849680170574
 20
162.6643909745445
 30
0.0
 10
190.8849680170574
 20
163.2202887455583
 30
0.0
 10
190.8290704665489
 20
163.7633468912201
 30
0.0
 10
190.6134070700469
 20
164.8263259868982
 30
0.0
 10
190.4508460291272
 20
165.3505057875626
 30
0.0
 10
190.0377871266396
 20
166.3331953068615
 30
0.0
 10
189.7870862634706
 20
166.7972070651822
 30
0.0
 10
189.1967185318824
 20
167.6761129997317
 30
0.0
 10
188.8649360952705
 20
168.0792067363001
 30
0.0
 10
188.3128273402551
 20
168.633918446101
 30
0.0
 10
188.1196009791533
 20
168.8104642235069
 30
0.0
 10
187.7137401066346
 20
169.1467441803949
 30
0.0
 10
187.5007546528386
 20
169.3065199915815
 30
0.0
 10
186.8450095178816
 20
169.750487919461
 30
0.0
 10
186.3815096377535
 20
170.0034200908541
 30
0.0
 10
185.3973822166872
 20
170.4212316673285
 30
0.0
 10
184.8697063820528
 20
170.5866840661439
 30
0.0
 10
183.8042425648852
 20
170.8058302845973
 30
0.0
 10
183.2624740890422
 20
170.8625855963402
 30
0.0
 10
182.4355601132964
 20
170.8652307350534
 30
0.0
 10
182.1566240905679
 20
170.8519708459037
 30
0.0
 10
181.6093100336947
 20
170.7981829166447
 30
0.0
 10
181.3390627407
 20
170.7577632843644
 30
0.0
 10
180.805140579602
 20
170.6506532519605
 30
0.0
 10
180.5414662285587
 20
170.583961495878
 30
0.0
 10
180.0206193074893
 20
170.424251998654
 30
0.0
 10
179.7632590060369
 20
170.3309539279931
 30
0.0
 10
179.0179271376249
 20
170.0185119584313
 30
0.0
 10
178.5502787300494
 20
169.7655550569234
 30
0.0
 10
177.8890402232458
 20
169.3209383756215
 30
0.0
 10
177.6755066901793
 20
169.1616585240295
 30
0.0
 10
177.2693994323544
 20
168.8272478850574
 30
0.0
 10
177.0757223928568
 20
168.6514198739828
 30
0.0
 10
176.706256585248
 20
168.2825010776372
 30
0.0
 10
176.5304689200674
 20
168.0894116620582
 30
0.0
 10
176.1965528427957
 20
167.6852651136972
 30
0.0
 10
176.0376958754895
 20
167.4730513356006
 30
0.0
 10
175.5951505026284
 20
166.8179741481821
 30
0.0
 10
175.3442010121165
 20
166.3568707384566
 30
0.0
 10
175.0333371358459
 20
165.6246040774515
 30
0.0
 10
174.9407407433617
 20
165.3736907460577
 30
0.0
 10
174.7788349302924
 20
164.8567460855912
 30
0.0
 10
174.7097468469714
 20
164.5905750510715
 30
0.0
 10
174.5442444748451
 20
163.7895449387137
 30
0.0
 10
174.4867442859995
 20
163.2453368539016
 30
0.0
 10
174.4841399997294
 20
162.4123742191201
 30
0.0
 10
174.4974641551802
 20
162.1352824170636
 30
0.0
 10
174.5510950327173
 20
161.5895488333556
 30
0.0
 10
174.5913930539814
 20
161.3197121250464
 30
0.0
 10
174.751912192839
 20
160.5189090112767
 30
0.0
 10
174.9137039123004
 20
159.9936548869208
 30
0.0
 10
175.2228519327794
 20
159.2543810326728
 30
0.0
 10
175.3372192892101
 20
159.0146107788246
 30
0.0
 10
175.5883603126898
 20
158.5475395156064
 30
0.0
 10
175.7258187567821
 20
158.3192677775373
 30
0.0
 10
176.167200112128
 20
157.6605806630613
 30
0.0
 10
176.4984486278863
 20
157.256892902733
 30
0.0
 10
177.2363232171428
 20
156.5140798122051
 30
0.0
 10
177.6471368802858
 20
156.1730027020378
 30
0.0
 10
178.5197518339118
 20
155.5813945454387
 30
0.0
 10
178.9837903321518
 20
155.3274811584328
 30
0.0
 10
179.725917332701
 20
155.0121847878515
 30
0.0
 10
179.9828602059615
 20
154.9175838587952
 30
0.0
 10
180.5036661490167
 20
154.7551350505091
 30
0.0
 10
180.7669040808053
 20
154.6872473557721
 30
0.0
 10
181.5651221417067
 20
154.5230702261804
 30
0.0
 10
182.1085254450843
 20
154.4658319333016
 30
0.0
 10
182.9418755394854
 20
154.4637103550591
 30
0.0
 10
183.2191033712715
 20
154.4772003506973
 30
0.0
 10
183.7655830680676
 20
154.5312696795334
 30
0.0
 10
184.0359550010496
 20
154.5718429581464
 30
0.0
 10
184.8386815476109
 20
154.7334695310544
 30
0.0
 10
185.367425310569
 20
154.8968691819359
 30
0.0
 10
186.3601874096146
 20
155.3143750326071
 30
0.0
 10
186.828914364465
 20
155.5683934746492
 30
0.0
 10
187.7146890635639
 20
156.1661313580748
 30
0.0
 10
188.1192322168179
 20
156.5013754479578
 30
0.0
 10
188.6738715580781
 20
157.0571161177369
 30
0.0
 10
188.8500167297356
 20
157.2512915308426
 30
0.0
 10
189.1849197361758
 20
157.6583846954603
 30
0.0
 10
189.3432845338323
 20
157.8710675044315
 30
0.0
 10
189.783373008583
 20
158.5256518570042
 30
0.0
 10
190.0338810040297
 20
158.987750002101
 30
0.0
 10
190.4480712178974
 20
159.9702418280702
 30
0.0
 10
190.6118319944472
 20
160.4963287689995
 30
0.0
 10
190.8287004233149
 20
161.5619896236645
 30
0.0
 10
190.8849680170574
 20
162.1084932035308
 30
0.0
 10
190.8849680170574
 20
162.6643909745445
 30
0.0
  0
LINE
  5
EE
330
1F
100
AcDbEntity
  8
0
  6
Continuous
 62
     7
370
    25
100
AcDbLine
 10
196.6849680171
 20
174.7643909745
 30
0.0
 11
168.6849680171
 21
174.7643909745
 31
0.0
  0
CIRCLE
  5
EF
330
1F
100
AcDbEntity
  8
0
  6
Continuous
 62
     7
370
    25
100
AcDbCircle
 10
182.6849680171
 20
131.6891132996
 30
0.0
 40
6.049999999999983
  0
LINE
  5
F0
330
1F
100
AcDbEntity
  8
0
  6
Continuous
 62
     7
370
    25
100
AcDbLine
 10
210.2849680171
 20
115.2891132996
 30
0.0
 11
155.0849680171
 21
115.2891132996
 31
0.0
  0
LINE
  5
F1
330
1F
100
AcDbEntity
  8
0
  6
Continuous
 62
     7
370
    25
100
AcDbLine
 10
176.9221562034
 20
129.6891132996
 30
0.0
 11
177.1006929043
 21
129.3660635993
 31
0.0
  0
SPLINE
  5
F2
330
1F
100
AcDbEntity
  8
0
  6
Continuous
 62
     7
370
    25
100
AcDbSpline
210
0.0
220
0.0
230
1.0
 70
     8
 71
     3
 72
    12
 73
     8
 74
     0
 42
0.00000001
 43
0.00000001
 40
0.0
 40
0.0
 40
0.0
 40
0.0
 40
0.1177630897013759
 40
0.3721145752703588
 40
0.6296741274687809
 40
0.8962059690244012
 40
0.9999999999999999
 40
0.9999999999999999
 40
0.9999999999999999
 40
0.9999999999999999
 10
182.5179942839055
 20
125.6747828104471
 30
0.0
 10
182.8227329132049
 20
125.6476347107015
 30
0.0
 10
183.7856635385627
 20
125.5618505857106
 30
0.0
 10
185.3755075925784
 20
126.1166291606554
 30
0.0
 10
187.0276076795147
 20
127.2468480725073
 30
0.0
 10
188.00584550624
 20
128.5633213841
 30
0.0
 10
188.351031846476
 20
129.4426556417462
 30
0.0
 10
188.4477798307471
 20
129.6891132995712
 30
0.0
  0
LINE
  5
F3
330
1F
100
AcDbEntity
  8
0
  6
Continuous
 62
     7
370
    25
100
AcDbLine
 10
210.1849680171
 20
114.8891132996
 30
0.0
 11
155.1849680171
 21
114.8891132996
 31
0.0
  0
LINE
  5
F4
330
1F
100
AcDbEntity
  8
0
  6
Continuous
 62
     7
370
    25
100
AcDbLine
 10
207.6849680171
 20
164.6891132996
 30
0.0
 11
196.6849680171
 21
164.6891132996
 31
0.0
  0
LINE
  5
F5
330
1F
100
AcDbEntity
  8
0
  6
Continuous
 62
     7
370
    25
100
AcDbLine
 10
168.6849680171
 20
164.6891132996
 30
0.0
 11
157.6849680171
 21
164.6891132996
 31
0.0
  0
SPLINE
  5
F6
330
1F
100
AcDbEntity
  8
0
  6
Continuous
 62
     7
370
    25
100
AcDbSpline
210
0.0
220
0.0
230
1.0
 70
     8
 71
     3
 72
    10
 73
     6
 74
     0
 42
0.00000001
 43
0.00000001
 40
0.0
 40
0.0
 40
0.0
 40
0.0
 40
0.4558818468957269
 40
0.9121695717930778
 40
1.0
 40
1.0
 40
1.0
 40
1.0
 10
188.4477798307471
 20
129.6891132995712
 30
0.0
 10
188.5974119260493
 20
130.3385516007118
 30
0.0
 10
188.8968093362067
 20
131.6380064070202
 30
0.0
 10
188.7345615897149
 20
133.1911457778317
 30
0.0
 10
188.3368350016672
 20
133.8918009302925
 30
0.0
 10
188.2726347974685
 20
134.0048992375535
 30
0.0
  0
SPLINE
  5
F7
330
1F
100
AcDbEntity
  8
0
  6
Continuous
 62
     7
370
    25
100
AcDbSpline
210
0.0
220
0.0
230
1.0
 70
     8
 71
     3
 72
     9
 73
     5
 74
     0
 42
0.00000001
 43
0.00000001
 40
0.0
 40
0.0
 40
0.0
 40
0.0
 40
0.5972596915645085
 40
1.0
 40
1.0
 40
1.0
 40
1.0
 10
176.6606314224452
 20
131.81820003389
 30
0.0
 10
176.6430903461961
 20
131.3822666024676
 30
0.0
 10
176.613721084388
 20
130.6523773472921
 30
0.0
 10
176.8336014978367
 20
129.9656757233863
 30
0.0
 10
176.922156203368
 20
129.6891132995712
 30
0.0
  0
LINE
  5
F8
330
1F
100
AcDbEntity
  8
0
  6
Continuous
 62
     7
370
    25
100
AcDbLine
 10
168.6849680171
 20
166.6891132996
 30
0.0
 11
159.7349680189
 21
166.6891132996
 31
0.0
  0
LINE
  5
F9
330
1F
100
AcDbEntity
  8
0
  6
Continuous
 62
     7
370
    25
100
AcDbLine
 10
205.6349680221
 20
166.6891132996
 30
0.0
 11
196.6849680171
 21
166.6891132996
 31
0.0
  0
SPLINE
  5
FA
330
1F
100
AcDbEntity
  8
0
  6
Continuous
 62
     8
370
    18
100
AcDbSpline
210
0.0
220
0.0
230
1.0
 70
     8
 71
     3
 72
     8
 73
     4
 74
     0
 42
0.00000001
 43
0.00000001
 40
0.0
 40
0.0
 40
0.0
 40
0.0
 40
1.0
 40
1.0
 40
1.0
 40
1.0
 10
255.2990461564644
 20
191.9424115957463
 30
0.0
 10
206.8896607301931
 20
191.4436969978225
 30
0.0
 10
158.4802753039218
 20
191.4436969978218
 30
0.0
 10
110.0708898776504
 20
191.9424115957456
 30
0.0
  0
LINE
  5
FB
330
1F
100
AcDbEntity
  8
0
  6
Continuous
 62
     8
370
    18
100
AcDbLine
 10
255.5528620353
 20
191.5684202788
 30
0.0
 11
255.2990461565
 21
191.9424115957
 31
0.0
  0
SPLINE
  5
FC
330
1F
100
AcDbEntity
  8
0
  6
Continuous
 62
     8
370
    18
100
AcDbSpline
210
0.0
220
0.0
230
1.0
 70
    24
 71
     3
 72
     9
 73
     5
 74
     0
 42
0.00000001
 43
0.00000001
 40
0.0
 40
0.0
 40
0.0
 40
0.0
 40
0.9999142076176362
 40
1.0
 40
1.0
 40
1.0
 40
1.0
 10
110.0708898776496
 20
191.9424115957468
 30
0.0
 10
109.9016795055887
 20
191.6930843662139
 30
0.0
 10
109.7324546153213
 20
191.4437357444687
 30
0.0
 10
109.8170681128507
 20
191.5684116060633
 30
0.0
 10
109.8170753720442
 20
191.5684223023025
 30
0.0
  0
SPLINE
  5
FD
330
1F
100
AcDbEntity
  8
0
  6
Continuous
 62
     8
370
    18
100
AcDbSpline
210
0.0
220
0.0
230
1.0
 70
     8
 71
     3
 72
    21
 73
    17
 74
     0
 42
0.00000001
 43
0.00000001
 40
0.0
 40
0.0
 40
0.0
 40
0.0
 40
0.0527050579362217
 40
0.1061279058763758
 40
0.1602714789034625
 40
0.2151385958224905
 40
0.2707319647143437
 40
0.3270541881743845
 40
0.3841077682621816
 40
0.4418951111699276
 40
0.50041853164114
 40
0.6190410088379037
 40
0.7500271579309205
 40
0.815058891586119
 40
0.8983884735132007
 40
1.0
 40
1.0
 40
1.0
 40
1.0
 10
108.5879548513035
 20
193.4043862491285
 30
0.0
 10
108.5899642411631
 20
193.3639292842541
 30
0.0
 10
108.5940103867561
 20
193.2824643712386
 30
0.0
 10
108.6127727347721
 20
193.1605805782663
 30
0.0
 10
108.6411817268022
 20
193.0389813108653
 30
0.0
 10
108.6803595665399
 20
192.9186247098024
 30
0.0
 10
108.7301720605155
 20
192.8004874328182
 30
0.0
 10
108.7907136020675
 20
192.6855951071592
 30
0.0
 10
108.86188765901
 20
192.5750060094049
 30
0.0
 10
108.9435263591782
 20
192.4697962772985
 30
0.0
 10
109.066322762321
 20
192.337704570616
 30
0.0
 10
109.2500466627523
 20
192.1872903522506
 30
0.0
 10
109.4636418137355
 20
192.0719708277522
 30
0.0
 10
109.6650826926939
 20
192.0000766562927
 30
0.0
 10
109.8516967605773
 20
191.9546374669607
 30
0.0
 10
109.9931640272876
 20
191.9467468880636
 30
0.0
 10
110.0708898776495
 20
191.9424115957456
 30
0.0
  0
SPLINE
  5
FE
330
1F
100
AcDbEntity
  8
0
  6
Continuous
 62
     8
370
    18
100
AcDbSpline
210
0.0
220
0.0
230
1.0
 70
     8
 71
     3
 72
    26
 73
    22
 74
     0
 42
0.00000001
 43
0.00000001
 40
0.0
 40
0.0
 40
0.0
 40
0.0
 40
0.03125
 40
0.03125
 40
0.0625
 40
0.0625
 40
0.125
 40
0.125
 40
0.25
 40
0.25
 40
0.375
 40
0.375
 40
0.5
 40
0.5
 40
0.625
 40
0.625
 40
0.75
 40
0.75
 40
0.875
 40
0.875
 40
1.0
 40
1.0
 40
1.0
 40
1.0
 10
256.781981182811
 20
193.4043862491284
 30
0.0
 10
256.7813449748699
 20
193.3801368740378
 30
0.0
 10
256.7801156886695
 20
193.3559316003588
 30
0.0
 10
256.7764891572542
 20
193.3076605055611
 30
0.0
 10
256.7740919120392
 20
193.2835946844425
 30
0.0
 10
256.7651755341276
 20
193.2116832745336
 30
0.0
 10
256.7569317591645
 20
193.1641237391902
 30
0.0
 10
256.7255202352537
 20
193.0232043437969
 30
0.0
 10
256.6956722872844
 20
192.9316036943841
 30
0.0
 10
256.6193271675257
 20
192.756373607122
 30
0.0
 10
256.5721026717786
 20
192.6712437481348
 30
0.0
 10
256.4631943536339
 20
192.5130578660394
 30
0.0
 10
256.4018212614102
 20
192.4400053738546
 30
0.0
 10
256.2653865754467
 20
192.3058508869984
 30
0.0
 10
256.1896601946511
 20
192.2445088672244
 30
0.0
 10
256.0304574702362
 20
192.1390547580037
 30
0.0
 10
255.9464009653689
 20
192.0942049190685
 30
0.0
 10
255.7692429794384
 20
192.0204978218428
 30
0.0
 10
255.6767457945832
 20
191.9921182437799
 30
0.0
 10
255.4903169459238
 20
191.9538215019841
 30
0.0
 10
255.3955056954537
 20
191.9435100278848
 30
0.0
 10
255.2990461564652
 20
191.9424115957467
 30
0.0
  0
SPLINE
  5
FF
330
1F
100
AcDbEntity
  8
0
  6
Continuous
 62
     8
370
    18
100
AcDbSpline
210
0.0
220
0.0
230
1.0
 70
    24
 71
     3
 72
     9
 73
     5
 74
     0
 42
0.00000001
 43
0.00000001
 40
0.0
 40
0.0
 40
0.0
 40
0.0
 40
0.9999208183637839
 40
1.0
 40
1.0
 40
1.0
 40
1.0
 10
256.7819811828107
 20
193.4043862491284
 30
0.0
 10
256.9518163139237
 20
193.1541773992177
 30
0.0
 10
257.1216648939252
 20
192.903948735792
 30
0.0
 10
257.036740424819
 20
193.0290633314793
 30
0.0
 10
257.0367337003606
 20
193.0290732382576
 30
0.0
  0
LINE
  5
100
330
1F
100
AcDbEntity
  8
0
  6
Continuous
 62
     8
370
    18
100
AcDbLine
 10
108.3332022702
 20
193.0290731446
 30
0.0
 11
108.5879548513
 21
193.4043862491
 31
0.0
  0
CIRCLE
  5
101
330
1F
100
AcDbEntity
  8
0
  6
Continuous
 62
     8
370
    18
100
AcDbCircle
 10
182.6849680171
 20
162.6643909745
 30
0.0
 40
5.627624897229737
  0
CIRCLE
  5
102
330
1F
100
AcDbEntity
  8
0
  6
Continuous
 62
     8
370
    18
100
AcDbCircle
 10
182.6849680171
 20
162.6643909745
 30
0.0
 40
7.047634552650425
  0
LINE
  5
103
330
1F
100
AcDbEntity
  8
0
  6
Continuous
 62
     8
370
    18
100
AcDbLine
 10
190.801367074
 20
176.1891132996
 30
0.0
 11
196.6849680171
 21
176.1891132996
 31
0.0
  0
LINE
  5
104
330
1F
100
AcDbEntity
  8
0
  6
Continuous
 62
     8
370
    18
100
AcDbLine
 10
168.6849680171
 20
176.1891132996
 30
0.0
 11
190.801367074
 21
176.1891132996
 31
0.0
  0
LINE
  5
105
330
1F
100
AcDbEntity
  8
0
  6
Continuous
 62
     8
370
    18
100
AcDbLine
 10
196.6849680171
 20
153.852560249
 30
0.0
 11
168.6849680171
 21
153.852560249
 31
0.0
  0
LINE
  5
106
330
1F
100
AcDbEntity
  8
0
  6
Continuous
 62
     8
370
    18
100
AcDbLine
 10
195.9257087578
 20
152.8819707911
 30
0.0
 11
169.4442272763
 21
152.8819707911
 31
0.0
  0
CIRCLE
  5
107
330
1F
100
AcDbEntity
  8
0
  6
Continuous
 62
     8
370
    18
100
AcDbCircle
 10
182.6849680171
 20
131.6891132996
 30
0.0
 40
5.577889447236146
  0
LINE
  5
108
330
1F
100
AcDbEntity
  8
0
  6
Continuous
 62
     8
370
    18
100
AcDbLine
 10
210.2849680171
 20
114.7891132996
 30
0.0
 11
155.0849680171
 21
114.7891132996
 31
0.0
  0
LINE
  5
109
330
1F
100
AcDbEntity
  8
0
  6
Continuous
 62
     8
370
    18
100
AcDbLine
 10
210.2849680171
 20
114.5000502915
 30
0.0
 11
155.0849680171
 21
114.5000502915
 31
0.0
  0
LINE
  5
10A
330
1F
100
AcDbEntity
  8
0
  6
Continuous
 62
     8
370
    18
100
AcDbLine
 10
208.435394681
 20
112.552638038
 30
0.0
 11
156.9345413531
 21
112.552638038
 31
0.0
  0
LINE
  5
10B
330
1F
100
AcDbEntity
  8
0
  6
Continuous
 62
     8
370
    18
100
AcDbLine
 10
159.7849680171
 20
167.6891132996
 30
0.0
 11
168.6849680171
 21
167.6891132996
 31
0.0
  0
LINE
  5
10C
330
1F
100
AcDbEntity
  8
0
  6
Continuous
 62
     8
370
    18
100
AcDbLine
 10
196.6849680171
 20
167.6891132996
 30
0.0
 11
205.5849680171
 21
167.6891132996
 31
0.0
  0
ARC
  5
10D
330
1F
100
AcDbEntity
  8
0
  6
Continuous
 62
     7
370
    25
100
AcDbCircle
 10
-6615.4397529584
 20
366.543304904
 30
0.0
 40
7000.0
100
AcDbArc
 50
359.9254337634
 51
0.0
  0
ARC
  5
10E
330
1F
100
AcDbEntity
  8
0
  6
Continuous
 62
     7
370
    25
100
AcDbCircle
 10
-6615.4397529584
 20
366.543304904
 30
0.0
 40
7000.0
100
AcDbArc
 50
359.4035573778
 51
359.551254109
  0
ARC
  5
10F
330
1F
100
AcDbEntity
  8
0
  6
Continuous
 62
     7
370
    25
100
AcDbCircle
 10
-6615.4397529584
 20
366.543304904
 30
0.0
 40
7000.000000000001
100
AcDbArc
 50
0.3682788128
 51
0.596443114
  0
ARC
  5
110
330
1F
100
AcDbEntity
  8
0
  6
Continuous
 62
     7
370
    25
100
AcDbCircle
 10
-6615.4397529584
 20
366.543304904
 30
0.0
 40
7000.0
100
AcDbArc
 50
0.0
 51
0.1395266155
  0
ARC
  5
111
330
1F
100
AcDbEntity
  8
0
  6
Continuous
 62
     7
370
    25
100
AcDbCircle
 10
382.6810514007
 20
439.3956047732
 30
0.0
 40
1.50000000000001
100
AcDbArc
 50
0.6099342096
 51
88.489888219
  0
ARC
  5
112
330
1F
100
AcDbEntity
  8
0
  6
Continuous
 62
     7
370
    25
100
AcDbCircle
 10
382.6810514007
 20
293.6910050349
 30
0.0
 40
1.499999999999991
100
AcDbArc
 50
271.5235157127
 51
359.4065979698
  0
LINE
  5
113
330
1F
100
AcDbEntity
  8
0
  6
Continuous
 62
     7
370
    25
100
AcDbLine
 10
382.7202881685
 20
440.895091511
 30
0.0
 11
377.0602470416
 21
441.0433049041
 31
0.0
  0
LINE
  5
114
330
1F
100
AcDbEntity
  8
0
  6
Continuous
 62
     7
370
    25
100
AcDbLine
 10
377.0602470416
 20
292.0433049041
 30
0.0
 11
382.7202881685
 21
292.1915182971
 31
0.0
  0
ARC
  5
115
330
1F
100
AcDbEntity
  8
0
  6
Continuous
 62
     7
370
    25
100
AcDbCircle
 10
460.9602470416
 20
362.043304904
 30
0.0
 40
0.1000000000000227
100
AcDbArc
 50
90.0
 51
180.0
  0
ARC
  5
116
330
1F
100
AcDbEntity
  8
0
  6
Continuous
 62
     7
370
    25
100
AcDbCircle
 10
460.9602470416
 20
307.043304904
 30
0.0
 40
0.1000000000000227
100
AcDbArc
 50
180.0
 51
270.0
  0
ARC
  5
117
330
1F
100
AcDbEntity
  8
0
  6
Continuous
 62
     7
370
    25
100
AcDbCircle
 10
461.2493100496
 20
360.193304904
 30
0.0
 40
1.950000000000017
100
AcDbArc
 50
2.952087508
 51
90.0
  0
ARC
  5
118
330
1F
100
AcDbEntity
  8
0
  6
Continuous
 62
     7
370
    25
100
AcDbCircle
 10
461.2493100496
 20
308.893304904
 30
0.0
 40
1.95000000000002
100
AcDbArc
 50
270.0
 51
357.047912492
  0
LINE
  5
119
330
1F
100
AcDbEntity
  8
0
  6
Continuous
 62
     7
370
    25
100
AcDbLine
 10
461.2493100496
 20
362.143304904
 30
0.0
 11
460.9602470416
 21
362.143304904
 31
0.0
  0
LINE
  5
11A
330
1F
100
AcDbEntity
  8
0
  6
Continuous
 62
     7
370
    25
100
AcDbLine
 10
460.9602470416
 20
306.943304904
 30
0.0
 11
461.2493100496
 21
306.943304904
 31
0.0
  0
ARC
  5
11B
330
1F
100
AcDbEntity
  8
0
  6
Continuous
 62
     7
370
    25
100
AcDbCircle
 10
460.4602470416
 20
466.0443447729
 30
0.0
 40
159.1010398688185
100
AcDbArc
 50
264.8071373335
 51
269.711901212
  0
ARC
  5
11C
330
1F
100
AcDbEntity
  8
0
  6
Continuous
 62
     7
370
    25
100
AcDbCircle
 10
460.4602470416
 20
203.0422650352
 30
0.0
 40
159.1010398688185
100
AcDbArc
 50
90.0
 51
93.7406277155
  0
ARC
  5
11D
330
1F
100
AcDbEntity
  8
0
  6
Continuous
 62
     7
370
    25
100
AcDbCircle
 10
400.8059859385
 20
859.4381439745
 30
0.0
 40
500.0000000000001
100
AcDbArc
 50
271.1751341531
 51
274.269266336
  0
ARC
  5
11E
330
1F
100
AcDbEntity
  8
0
  6
Continuous
 62
     7
370
    25
100
AcDbCircle
 10
400.8059859385
 20
-190.3515341664
 30
0.0
 40
500.0000000000001
100
AcDbArc
 50
84.8071373335
 51
88.8248658469
  0
ARC
  5
11F
330
1F
100
AcDbEntity
  8
0
  6
Continuous
 62
     7
370
    25
100
AcDbCircle
 10
-36.1397529584
 20
334.543304904
 30
0.0
 40
500.0
100
AcDbArc
 50
357.047912492
 51
0.0
  0
ARC
  5
120
330
1F
100
AcDbEntity
  8
0
  6
Continuous
 62
     7
370
    25
100
AcDbCircle
 10
-36.1397529584
 20
334.543304904
 30
0.0
 40
500.0
100
AcDbArc
 50
0.0
 51
2.952087508
  0
LINE
  5
121
330
1F
100
AcDbEntity
  8
0
  6
Continuous
 62
     7
370
    25
100
AcDbLine
 10
460.8602470416
 20
359.543304904
 30
0.0
 11
460.4602470416
 21
359.543304904
 31
0.0
  0
LINE
  5
122
330
1F
100
AcDbEntity
  8
0
  6
Continuous
 62
     7
370
    25
100
AcDbLine
 10
460.4602470416
 20
309.543304904
 30
0.0
 11
460.8602470416
 21
309.543304904
 31
0.0
  0
LINE
  5
123
330
1F
100
AcDbEntity
  8
0
  6
Continuous
 62
     7
370
    25
100
AcDbLine
 10
409.0602470416
 20
311.5933049015
 30
0.0
 11
411.0602470416
 21
311.6282150313
 31
0.0
  0
LINE
  5
124
330
1F
100
AcDbEntity
  8
0
  6
Continuous
 62
     7
370
    25
100
AcDbLine
 10
408.0602470416
 20
357.443304904
 30
0.0
 11
384.554286681
 21
357.443304904
 31
0.0
  0
LINE
  5
125
330
1F
100
AcDbEntity
  8
0
  6
Continuous
 62
     7
370
    25
100
AcDbLine
 10
384.3453038728
 20
311.643304904
 30
0.0
 11
408.0602470416
 21
311.643304904
 31
0.0
  0
ARC
  5
126
330
1F
100
AcDbEntity
  8
0
  6
Continuous
 62
     7
370
    25
100
AcDbCircle
 10
408.0602470416
 20
312.643304904
 30
0.0
 40
1.0
100
AcDbArc
 50
270.0
 51
360.0
  0
ARC
  5
127
330
1F
100
AcDbEntity
  8
0
  6
Continuous
 62
     7
370
    25
100
AcDbCircle
 10
408.0602470416
 20
356.443304904
 30
0.0
 40
1.0
100
AcDbArc
 50
0.0
 51
90.0
  0
LINE
  5
128
330
1F
100
AcDbEntity
  8
0
  6
Continuous
 62
     7
370
    25
100
AcDbLine
 10
399.5602470416
 20
411.543304904
 30
0.0
 11
384.4156316868
 21
411.543304904
 31
0.0
  0
LINE
  5
129
330
1F
100
AcDbEntity
  8
0
  6
Continuous
 62
     7
370
    25
100
AcDbLine
 10
384.5393984563
 20
383.543304904
 30
0.0
 11
399.5602470416
 21
383.543304904
 31
0.0
  0
LINE
  5
12A
330
1F
100
AcDbEntity
  8
0
  6
Continuous
 62
     7
370
    25
100
AcDbLine
 10
404.9062827125
 20
411.543304904
 30
0.0
 11
400.9849693666
 21
411.543304904
 31
0.0
  0
LINE
  5
12B
330
1F
100
AcDbEntity
  8
0
  6
Continuous
 62
     7
370
    25
100
AcDbLine
 10
421.8968000921
 20
411.543304904
 30
0.0
 11
421.2791035862
 21
411.543304904
 31
0.0
  0
LINE
  5
12C
330
1F
100
AcDbEntity
  8
0
  6
Continuous
 62
     7
370
    25
100
AcDbLine
 10
400.9849693666
 20
383.543304904
 30
0.0
 11
421.8968000921
 21
383.543304904
 31
0.0
  0
ARC
  5
12D
330
1F
100
AcDbEntity
  8
0
  6
Continuous
 62
     7
370
    25
100
AcDbCircle
 10
399.5602470416
 20
384.043304904
 30
0.0
 40
0.5
100
AcDbArc
 50
270.0
 51
0.0
  0
ARC
  5
12E
330
1F
100
AcDbEntity
  8
0
  6
Continuous
 62
     7
370
    25
100
AcDbCircle
 10
399.5602470416
 20
411.043304904
 30
0.0
 40
0.5
100
AcDbArc
 50
0.0
 51
90.0
  0
ARC
  5
12F
330
1F
100
AcDbEntity
  8
0
  6
Continuous
 62
     7
370
    25
100
AcDbCircle
 10
421.8968000921
 20
410.543304904
 30
0.0
 40
1.0
100
AcDbArc
 50
13.9302635925
 51
90.0
  0
ARC
  5
130
330
1F
100
AcDbEntity
  8
0
  6
Continuous
 62
     7
370
    25
100
AcDbCircle
 10
421.8968000921
 20
384.543304904
 30
0.0
 40
1.0
100
AcDbArc
 50
270.0
 51
346.0697364075
  0
ARC
  5
131
330
1F
100
AcDbEntity
  8
0
  6
Continuous
 62
     7
370
    25
100
AcDbCircle
 10
369.4849693666
 20
397.543304904
 30
0.0
 40
55.0
100
AcDbArc
 50
346.0697364075
 51
0.0
  0
ARC
  5
132
330
1F
100
AcDbEntity
  8
0
  6
Continuous
 62
     7
370
    25
100
AcDbCircle
 10
369.4849693666
 20
397.543304904
 30
0.0
 40
55.0
100
AcDbArc
 50
0.0
 51
13.9302635925
  0
LINE
  5
133
330
1F
100
AcDbEntity
  8
0
  6
Continuous
 62
     7
370
    25
100
AcDbLine
 10
400.9849693666
 20
409.543304904
 30
0.0
 11
400.0602470416
 21
409.543304904
 31
0.0
  0
LINE
  5
134
330
1F
100
AcDbEntity
  8
0
  6
Continuous
 62
     7
370
    25
100
AcDbLine
 10
400.0602470416
 20
385.543304904
 30
0.0
 11
400.9849693666
 21
385.543304904
 31
0.0
  0
LINE
  5
135
330
1F
100
AcDbEntity
  8
0
  6
Continuous
 62
     7
370
    25
100
AcDbLine
 10
405.0849693666
 20
412.643304904
 30
0.0
 11
405.0849693666
 21
411.4282925792
 31
0.0
  0
LINE
  5
136
330
1F
100
AcDbEntity
  8
0
  6
Continuous
 62
     7
370
    25
100
AcDbLine
 10
421.0849693666
 20
411.4276343617
 30
0.0
 11
421.0849693666
 21
412.643304904
 31
0.0
  0
ARC
  5
137
330
1F
100
AcDbEntity
  8
0
  6
Continuous
 62
     7
370
    25
100
AcDbCircle
 10
201.0849693666
 20
412.643304904
 30
0.0
 40
220.0
100
AcDbArc
 50
0.0
 51
5.3331635089
  0
ARC
  5
138
330
1F
100
AcDbEntity
  8
0
  6
Continuous
 62
     7
370
    25
100
AcDbCircle
 10
625.0849693666
 20
412.643304904
 30
0.0
 40
219.9999999999999
100
AcDbArc
 50
174.6668364911
 51
180.0
  0
ARC
  5
139
330
1F
100
AcDbEntity
  8
0
  6
Continuous
 62
     7
370
    25
100
AcDbCircle
 10
408.0286769463
 20
432.9057312328
 30
0.0
 40
2.000000000000018
100
AcDbArc
 50
106.5986769674
 51
174.6668364911
  0
ARC
  5
13A
330
1F
100
AcDbEntity
  8
0
  6
Continuous
 62
     7
370
    25
100
AcDbCircle
 10
418.141261787
 20
432.9057312328
 30
0.0
 40
2.000000000000018
100
AcDbArc
 50
5.3331635089
 51
73.4013230326
  0
ARC
  5
13B
330
1F
100
AcDbEntity
  8
0
  6
Continuous
 62
     7
370
    25
100
AcDbCircle
 10
449.6102470416
 20
369.2883978881
 30
0.0
 40
0.5
100
AcDbArc
 50
0.0
 51
86.8024452127
  0
ARC
  5
13C
330
1F
100
AcDbEntity
  8
0
  6
Continuous
 62
     7
370
    25
100
AcDbCircle
 10
438.5102470416
 20
369.2883978881
 30
0.0
 40
0.5
100
AcDbArc
 50
93.1975547872
 51
180.0
  0
LINE
  5
13D
330
1F
100
AcDbEntity
  8
0
  6
Continuous
 62
     7
370
    25
100
AcDbLine
 10
450.1102470416
 20
361.8062987058
 30
0.0
 11
450.1102470416
 21
369.2883978881
 31
0.0
  0
LINE
  5
13E
330
1F
100
AcDbEntity
  8
0
  6
Continuous
 62
     7
370
    25
100
AcDbLine
 10
438.0102470416
 20
369.2883978881
 30
0.0
 11
438.0102470416
 21
360.8242222316
 31
0.0
  0
ARC
  5
13F
330
1F
100
AcDbEntity
  8
0
  6
Continuous
 62
     7
370
    25
100
AcDbCircle
 10
413.0849693666
 20
415.943304904
 30
0.0
 40
19.69999999999995
100
AcDbArc
 50
73.4013230326
 51
106.5986769674
  0
ARC
  5
140
330
1F
100
AcDbEntity
  8
0
  6
Continuous
 62
     7
370
    25
100
AcDbCircle
 10
444.0602470416
 20
269.943304904
 30
0.0
 40
100.0
100
AcDbArc
 50
86.8024452128
 51
93.1975547872
  0
LINE
  5
141
330
1F
100
AcDbEntity
  8
0
  6
Continuous
 62
     7
370
    25
100
AcDbLine
 10
377.0602470416
 20
293.7969583092
 30
0.0
 11
377.0602470416
 21
439.2896514989
 31
0.0
  0
SPLINE
  5
142
330
1F
100
AcDbEntity
  8
0
  6
Continuous
 62
     7
370
    25
100
AcDbSpline
210
0.0
220
0.0
230
1.0
 70
     8
 71
     3
 72
    21
 73
    17
 74
     0
 42
0.00000001
 43
0.00000001
 40
0.0
 40
0.0
 40
0.0
 40
0.0
 40
0.0705781811296388
 40
0.1432031467965628
 40
0.2137813236101593
 40
0.286406250804055
 40
0.3569848048737675
 40
0.429610131894271
 40
0.5001888379139124
 40
0.5728143465413309
 40
0.6433927605096849
 40
0.7160179871391904
 40
0.7865957930459397
 40
0.8592203976564297
 40
0.9297975459888215
 40
1.0
 40
1.0
 40
1.0
 40
1.0
 10
384.5214325355524
 20
387.6465561581855
 30
0.0
 10
384.5188850753921
 20
388.2217857422535
 30
0.0
 10
384.513716278103
 20
389.3889267092006
 30
0.0
 10
384.5046485465804
 20
391.4364640624399
 30
0.0
 10
384.4948166596653
 20
393.6565484476226
 30
0.0
 10
384.4845635433693
 20
395.9717449566007
 30
0.0
 10
384.4740250092435
 20
398.3513864381545
 30
0.0
 10
384.4636809689663
 20
400.6871069436441
 30
0.0
 10
384.4536401548435
 20
402.9543545913555
 30
0.0
 10
384.4443671698276
 20
405.0482210741838
 30
0.0
 10
384.435956853244
 20
406.9472921453277
 30
0.0
 10
384.428801977965
 20
408.5628795302409
 30
0.0
 10
384.4229637165096
 20
409.8811712355039
 30
0.0
 10
384.4187592357404
 20
410.8305511427038
 30
0.0
 10
384.4160870459593
 20
411.4339364717983
 30
0.0
 10
384.4157833304545
 20
411.5025159701706
 30
0.0
 10
384.4156318768815
 20
411.5367144548975
 30
0.0
  0
SPLINE
  5
143
330
1F
100
AcDbEntity
  8
0
  6
Continuous
 62
     7
370
    25
100
AcDbSpline
210
0.0
220
0.0
230
1.0
 70
     8
 71
     3
 72
    12
 73
     8
 74
     0
 42
0.00000001
 43
0.00000001
 40
0.0
 40
0.0
 40
0.0
 40
0.0
 40
0.0849235401121399
 40
0.3027196363760724
 40
0.5143771967824555
 40
0.7321727924858777
 40
1.0
 40
1.0
 40
1.0
 40
1.0
 10
384.5393984006912
 20
383.5897651896879
 30
0.0
 10
384.5394493483577
 20
383.5782609118882
 30
0.0
 10
384.5396309571205
 20
383.5372526026763
 30
0.0
 10
384.5381075646713
 20
383.8812434383689
 30
0.0
 10
384.5348450198151
 20
384.6179446279358
 30
0.0
 10
384.5295651797979
 20
385.8101620713118
 30
0.0
 10
384.5243234286003
 20
386.993777217078
 30
0.0
 10
384.5214325355524
 20
387.6465561581855
 30
0.0
  0
SPLINE
  5
144
330
1F
100
AcDbEntity
  8
0
  6
Continuous
 62
     7
370
    25
100
AcDbSpline
210
0.0
220
0.0
230
1.0
 70
     8
 71
     3
 72
    21
 73
    17
 74
     0
 42
0.00000001
 43
0.00000001
 40
0.0
 40
0.0
 40
0.0
 40
0.0
 40
0.0705651928806339
 40
0.1431767944625537
 40
0.2137419827430734
 40
0.2863535433131656
 40
0.3569191337992688
 40
0.4295311206120356
 40
0.5000968735549353
 40
0.5727090544383341
 40
0.6432744967729359
 40
0.7158863777883521
 40
0.7864511725859397
 40
0.8590623912239612
 40
0.9296264853531941
 40
0.9999999999999999
 40
0.9999999999999999
 40
0.9999999999999999
 40
0.9999999999999999
 10
384.3756084644825
 20
318.3480550932376
 30
0.0
 10
384.3799081992923
 20
319.2885977311857
 30
0.0
 10
384.388632362325
 20
321.196958984935
 30
0.0
 10
384.403939466945
 20
324.5453096585504
 30
0.0
 10
384.420537859339
 20
328.1761310009139
 30
0.0
 10
384.4378487070857
 20
331.9628079485039
 30
0.0
 10
384.4556426802429
 20
335.8551764477363
 30
0.0
 10
384.473109470044
 20
339.675984465227
 30
0.0
 10
384.4900654737228
 20
343.3850687472055
 30
0.0
 10
384.5057261237952
 20
346.810805666888
 30
0.0
 10
384.5199312553947
 20
349.9181574165758
 30
0.0
 10
384.5320175207999
 20
352.5620153080515
 30
0.0
 10
384.541881466048
 20
354.7197464057962
 30
0.0
 10
384.5489877739606
 20
356.2742481701239
 30
0.0
 10
384.5535097731787
 20
357.2634343719203
 30
0.0
 10
384.5540277487268
 20
357.376741440646
 30
0.0
 10
384.5542863862908
 20
357.4333183666334
 30
0.0
  0
SPLINE
  5
145
330
1F
100
AcDbEntity
  8
0
  6
Continuous
 62
     7
370
    25
100
AcDbSpline
210
0.0
220
0.0
230
1.0
 70
     8
 71
     3
 72
    13
 73
     9
 74
     0
 42
0.00000001
 43
0.00000001
 40
0.0
 40
0.0
 40
0.0
 40
0.0
 40
0.0843912409762298
 40
0.3022257269534506
 40
0.5139205642932569
 40
0.7317545148806033
 40
0.8651327721168707
 40
0.9999999999999999
 40
0.9999999999999999
 40
0.9999999999999999
 40
0.9999999999999999
 10
384.3453039724121
 20
311.719136658074
 30
0.0
 10
384.3452175351946
 20
311.7002290975694
 30
0.0
 10
384.3449079823245
 20
311.632516487205
 30
0.0
 10
384.3474840426576
 20
312.196012367835
 30
0.0
 10
384.3529400991275
 20
313.3894887423687
 30
0.0
 10
384.360278116458
 20
314.994633298037
 30
0.0
 10
384.3680407378491
 20
316.6926591111679
 30
0.0
 10
384.3730765713432
 20
317.7942182631171
 30
0.0
 10
384.3756084644825
 20
318.3480550932376
 30
0.0
  0
LINE
  5
146
330
1F
100
AcDbEntity
  8
0
  6
Continuous
 62
     7
370
    25
100
AcDbLine
 10
377.0602470416
 20
292.307909952
 30
0.0
 11
382.344974092
 21
292.4462917383
 31
0.0
  0
LINE
  5
147
330
1F
100
AcDbEntity
  8
0
  6
Continuous
 62
     7
370
    25
100
AcDbLine
 10
377.0602470416
 20
292.307909952
 30
0.0
 11
377.0602470416
 21
293.7969583092
 31
0.0
  0
LINE
  5
148
330
1F
100
AcDbEntity
  8
0
  6
Continuous
 62
     7
370
    25
100
AcDbLine
 10
377.0602470416
 20
440.7786998561
 30
0.0
 11
382.344974092
 21
440.6403180698
 31
0.0
  0
LINE
  5
149
330
1F
100
AcDbEntity
  8
0
  6
Continuous
 62
     7
370
    25
100
AcDbLine
 10
377.0602470416
 20
440.7786998561
 30
0.0
 11
377.0602470416
 21
439.2896514989
 31
0.0
  0
LINE
  5
14A
330
1F
100
AcDbEntity
  8
0
  6
Continuous
 62
     7
370
    25
100
AcDbLine
 10
377.0602470416
 20
440.7786998561
 30
0.0
 11
377.0602470416
 21
441.0433049041
 31
0.0
  0
LINE
  5
14B
330
1F
100
AcDbEntity
  8
0
  6
Continuous
 62
     7
370
    25
100
AcDbLine
 10
377.0602470416
 20
292.307909952
 30
0.0
 11
377.0602470416
 21
292.043304904
 31
0.0
  0
LINE
  5
14C
330
1F
100
AcDbEntity
  8
0
  6
Continuous
 62
     7
370
    25
100
AcDbLine
 10
460.8602470416
 20
362.043304904
 30
0.0
 11
460.8602470416
 21
307.043304904
 31
0.0
  0
LINE
  5
14D
330
1F
100
AcDbEntity
  8
0
  6
Continuous
 62
     7
370
    25
100
AcDbLine
 10
460.4602470416
 20
362.143304904
 30
0.0
 11
460.4602470416
 21
307.0158640495
 31
0.0
  0
SPLINE
  5
14E
330
1F
100
AcDbEntity
  8
0
  6
Continuous
 62
     7
370
    25
100
AcDbSpline
210
0.0
220
0.0
230
1.0
 70
     8
 71
     3
 72
    10
 73
     6
 74
     0
 42
0.00000001
 43
0.00000001
 40
0.0
 40
0.0
 40
0.0
 40
0.0
 40
0.5
 40
0.5
 40
1.0
 40
1.0
 40
1.0
 40
1.0
 10
460.46024704158
 20
307.0158640495135
 30
0.0
 10
460.3280438249094
 20
307.0158640495135
 30
0.0
 10
460.195813931232
 20
307.0160292627137
 30
0.0
 10
459.931300724687
 20
307.0166905191559
 30
0.0
 10
459.794676095285
 20
307.0172029311055
 30
0.0
 10
459.66024704158
 20
307.0178806646967
 30
0.0
  0
LINE
  5
14F
330
1F
100
AcDbEntity
  8
0
  6
Continuous
 62
     7
370
    25
100
AcDbLine
 10
459.6602470416
 20
306.9453162173
 30
0.0
 11
459.6602470416
 21
307.0178806647
 31
0.0
  0
SPLINE
  5
150
330
1F
100
AcDbEntity
  8
0
  6
Continuous
 62
     7
370
    25
100
AcDbSpline
210
0.0
220
0.0
230
1.0
 70
     8
 71
     3
 72
    11
 73
     7
 74
     0
 42
0.00000001
 43
0.00000001
 40
0.0
 40
0.0
 40
0.0
 40
0.0
 40
0.2779057330499126
 40
0.5558537712345168
 40
0.8319176153799298
 40
1.0
 40
1.0
 40
1.0
 40
1.0
 10
446.06024704158
 20
360.8668824023849
 30
0.0
 10
446.6953003146278
 20
360.9861724585211
 30
0.0
 10
447.9655035338434
 20
361.2247707301234
 30
0.0
 10
449.3285152906797
 20
361.5749411916862
 30
0.0
 10
450.0985884306707
 20
361.7913427421102
 30
0.0
 10
450.0864578800055
 20
361.7882211943289
 30
0.0
 10
450.0818672029931
 20
361.7870398779947
 30
0.0
  0
SPLINE
  5
151
330
1F
100
AcDbEntity
  8
0
  6
Continuous
 62
     7
370
    25
100
AcDbSpline
210
0.0
220
0.0
230
1.0
 70
     8
 71
     3
 72
    14
 73
    10
 74
     0
 42
0.00000001
 43
0.00000001
 40
0.0
 40
0.0
 40
0.0
 40
0.0
 40
0.0489923656088938
 40
0.2236791859046709
 40
0.3991270323739879
 40
0.5763779527133301
 40
0.7521289315427423
 40
0.9244771245439587
 40
1.0
 40
1.0
 40
1.0
 40
1.0
 10
438.0295102595273
 20
360.809764284361
 30
0.0
 10
438.0091089943321
 20
360.8129199203241
 30
0.0
 10
437.9159651272495
 20
360.8273272687849
 30
0.0
 10
438.4374410073409
 20
360.7448729171197
 30
0.0
 10
439.5551702081082
 20
360.6065204772171
 30
0.0
 10
441.2341578284506
 20
360.4946054756007
 30
0.0
 10
443.2051151062304
 20
360.5192999688248
 30
0.0
 10
444.8751027351444
 20
360.6778636718675
 30
0.0
 10
445.7834777713539
 20
360.8227404562774
 30
0.0
 10
446.06024704158
 20
360.8668824023849
 30
0.0
  0
LINE
  5
152
330
1F
100
AcDbEntity
  8
0
  6
Continuous
 62
     7
370
    25
100
AcDbLine
 10
411.0602470416
 20
359.543304904
 30
0.0
 11
411.0602470416
 21
309.543304904
 31
0.0
  0
LINE
  5
153
330
1F
100
AcDbEntity
  8
0
  6
Continuous
 62
     7
370
    25
100
AcDbLine
 10
409.0602470416
 20
357.487440308
 30
0.0
 11
409.0602470416
 21
311.5933049015
 31
0.0
  0
SPLINE
  5
154
330
1F
100
AcDbEntity
  8
0
  6
Continuous
 62
     7
370
    25
100
AcDbSpline
210
0.0
220
0.0
230
1.0
 70
     8
 71
     3
 72
    21
 73
    17
 74
     0
 42
0.00000001
 43
0.00000001
 40
0.0
 40
0.0
 40
0.0
 40
0.0
 40
0.0122710473554312
 40
0.1042248846260862
 40
0.1969396820385667
 40
0.3005146744741782
 40
0.3570831527073435
 40
0.4155422944252162
 40
0.5027145364698945
 40
0.5899613377856744
 40
0.6778753237887127
 40
0.7810792842731453
 40
0.8377951527437482
 40
0.896422587592611
 40
0.9485759725038928
 40
1.0
 40
1.0
 40
1.0
 40
1.0
 10
404.9062827124982
 20
411.530849642148
 30
0.0
 10
404.9000547189727
 20
411.5344922225704
 30
0.0
 10
404.8471568784021
 20
411.5654307002137
 30
0.0
 10
405.2566650134654
 20
411.3239125826747
 30
0.0
 10
406.3814411167778
 20
410.704215469611
 30
0.0
 10
407.9029430130777
 20
409.9855415333202
 30
0.0
 10
409.4820114332253
 20
409.4270443157939
 30
0.0
 10
411.1053058761983
 20
409.0144430589786
 30
0.0
 10
413.1632345217702
 20
408.8086283399298
 30
0.0
 10
415.4700608152492
 20
409.071188723618
 30
0.0
 10
417.6407917773259
 20
409.7211807654446
 30
0.0
 10
419.2138011827444
 20
410.4243634083732
 30
0.0
 10
420.2653866553874
 20
410.9669627844199
 30
0.0
 10
420.855738902695
 20
411.2945144767763
 30
0.0
 10
421.220912356921
 20
411.5056071531652
 30
0.0
 10
421.259797782516
 20
411.5285120853496
 30
0.0
 10
421.2791035862478
 20
411.5398839070148
 30
0.0
  0
LINE
  5
155
330
1F
100
AcDbEntity
  8
0
  6
Continuous
 62
     7
370
    25
100
AcDbLine
 10
400.9849693666
 20
411.543304904
 30
0.0
 11
400.9849693666
 21
383.543304904
 31
0.0
  0
LINE
  5
156
330
1F
100
AcDbEntity
  8
0
  6
Continuous
 62
     7
370
    25
100
AcDbLine
 10
400.0602470416
 20
411.043304904
 30
0.0
 11
400.0602470416
 21
384.043304904
 31
0.0
  0
SPLINE
  5
157
330
1F
100
AcDbEntity
  8
0
  6
Continuous
 62
     7
370
    25
100
AcDbSpline
210
0.0
220
0.0
230
1.0
 70
     8
 71
     3
 72
     9
 73
     5
 74
     0
 42
0.00000001
 43
0.00000001
 40
0.0
 40
0.0
 40
0.0
 40
0.0
 40
0.9000178655187079
 40
1.0
 40
1.0
 40
1.0
 40
1.0
 10
409.06024704158
 20
357.69318608357
 30
0.0
 10
409.6602521649573
 20
357.6932121862601
 30
0.0
 10
410.3269112906975
 20
357.6932411886734
 30
0.0
 10
410.9935909829348
 20
357.6932554967827
 30
0.0
 10
411.0602470415801
 20
357.6932569273379
 30
0.0
  0
SPLINE
  5
158
330
1F
100
AcDbEntity
  8
0
  6
Continuous
 62
     7
370
    25
100
AcDbSpline
210
0.0
220
0.0
230
1.0
 70
    24
 71
     3
 72
     8
 73
     4
 74
     0
 42
0.00000001
 43
0.00000001
 40
0.0
 40
0.0
 40
0.0
 40
0.0
 40
1.0
 40
1.0
 40
1.0
 40
1.0
 10
409.06024704158
 20
357.5902695254289
 30
0.0
 10
409.06024704158
 20
357.6549429840402
 30
0.0
 10
409.06024704158
 20
357.6929112325502
 30
0.0
 10
409.06024704158
 20
357.69318608357
 30
0.0
  0
SPLINE
  5
159
330
1F
100
AcDbEntity
  8
0
  6
Continuous
 62
     8
370
    18
100
AcDbSpline
210
0.0
220
0.0
230
1.0
 70
     8
 71
     3
 72
     8
 73
     4
 74
     0
 42
0.00000001
 43
0.00000001
 40
0.0
 40
0.0
 40
0.0
 40
0.0
 40
1.0
 40
1.0
 40
1.0
 40
1.0
 10
383.806948745405
 20
439.1573830434585
 30
0.0
 10
384.3056633433288
 20
390.747997617186
 30
0.0
 10
384.3056633433295
 20
342.3386121909134
 30
0.0
 10
383.8069487454056
 20
293.9292267646408
 30
0.0
  0
SPLINE
  5
15A
330
1F
100
AcDbEntity
  8
0
  6
Continuous
 62
     8
370
    18
100
AcDbSpline
210
0.0
220
0.0
230
1.0
 70
    24
 71
     3
 72
     9
 73
     5
 74
     0
 42
0.00000001
 43
0.00000001
 40
0.0
 40
0.0
 40
0.0
 40
0.0
 40
0.9999142076176221
 40
1.0
 40
1.0
 40
1.0
 40
1.0
 10
383.8069487454049
 20
293.9292267646408
 30
0.0
 10
384.0562759748861
 20
293.7600163926012
 30
0.0
 10
384.3056245965797
 20
293.5907915023551
 30
0.0
 10
384.1809487350883
 20
293.6754049998419
 30
0.0
 10
384.1809380388491
 20
293.6754122590355
 30
0.0
  0
LINE
  5
15B
330
1F
100
AcDbEntity
  8
0
  6
Continuous
 62
     8
370
    18
100
AcDbLine
 10
384.1809400623
 20
439.4111989223
 30
0.0
 11
383.8069487454
 21
439.1573830435
 31
0.0
  0
SPLINE
  5
15C
330
1F
100
AcDbEntity
  8
0
  6
Continuous
 62
     8
370
    18
100
AcDbSpline
210
0.0
220
0.0
230
1.0
 70
     8
 71
     3
 72
    26
 73
    22
 74
     0
 42
0.00000001
 43
0.00000001
 40
0.0
 40
0.0
 40
0.0
 40
0.0
 40
0.03125
 40
0.03125
 40
0.0625
 40
0.0625
 40
0.125
 40
0.125
 40
0.25
 40
0.25
 40
0.375
 40
0.375
 40
0.5
 40
0.5
 40
0.625
 40
0.625
 40
0.75
 40
0.75
 40
0.875
 40
0.875
 40
1.0
 40
1.0
 40
1.0
 40
1.0
 10
382.3449740920228
 20
440.6403180698059
 30
0.0
 10
382.3692234671133
 20
440.6396818618647
 30
0.0
 10
382.3934287407923
 20
440.6384525756644
 30
0.0
 10
382.4416998355899
 20
440.6348260442491
 30
0.0
 10
382.4657656567085
 20
440.6324287990341
 30
0.0
 10
382.5376770666174
 20
440.6235124211225
 30
0.0
 10
382.585236601961
 20
440.6152686461593
 30
0.0
 10
382.7261559973546
 20
440.5838571222486
 30
0.0
 10
382.8177566467675
 20
440.5540091742793
 30
0.0
 10
382.9929867340297
 20
440.4776640545205
 30
0.0
 10
383.0781165930175
 20
440.4304395587729
 30
0.0
 10
383.2363024751128
 20
440.3215312406282
 30
0.0
 10
383.3093549672975
 20
440.2601581484043
 30
0.0
 10
383.4435094541537
 20
440.1237234624408
 30
0.0
 10
383.5048514739257
 20
440.0479970816436
 30
0.0
 10
383.6103055831462
 20
439.8887943572287
 30
0.0
 10
383.655155422084
 20
439.8047378523628
 30
0.0
 10
383.7288625193097
 20
439.6275798664322
 30
0.0
 10
383.7572420973717
 20
439.5350826815765
 30
0.0
 10
383.7955388391674
 20
439.3486538329171
 30
0.0
 10
383.8058503132662
 20
439.2538425824468
 30
0.0
 10
383.8069487454043
 20
439.1573830434585
 30
0.0
  0
SPLINE
  5
15D
330
1F
100
AcDbEntity
  8
0
  6
Continuous
 62
     8
370
    18
100
AcDbSpline
210
0.0
220
0.0
230
1.0
 70
     8
 71
     3
 72
    26
 73
    22
 74
     0
 42
0.00000001
 43
0.00000001
 40
0.0
 40
0.0
 40
0.0
 40
0.0
 40
0.03125
 40
0.03125
 40
0.0625
 40
0.0625
 40
0.125
 40
0.125
 40
0.25
 40
0.25
 40
0.375
 40
0.375
 40
0.5
 40
0.5
 40
0.625
 40
0.625
 40
0.75
 40
0.75
 40
0.875
 40
0.875
 40
1.0
 40
1.0
 40
1.0
 40
1.0
 10
382.3449740920229
 20
292.4462917382937
 30
0.0
 10
382.3692234671133
 20
292.4469279462348
 30
0.0
 10
382.3934287407923
 20
292.4481572324351
 30
0.0
 10
382.4416998355898
 20
292.4517837638505
 30
0.0
 10
382.4657656567084
 20
292.4541810090655
 30
0.0
 10
382.5376770666173
 20
292.463097386977
 30
0.0
 10
382.5852366019608
 20
292.4713411619401
 30
0.0
 10
382.7261559973545
 20
292.5027526858507
 30
0.0
 10
382.8177566467675
 20
292.5326006338199
 30
0.0
 10
382.9929867340296
 20
292.6089457535787
 30
0.0
 10
383.0781165930174
 20
292.6561702493262
 30
0.0
 10
383.2363024751128
 20
292.765078567471
 30
0.0
 10
383.3093549672973
 20
292.8264516596947
 30
0.0
 10
383.4435094541536
 20
292.9628863456581
 30
0.0
 10
383.5048514739256
 20
293.0386127264554
 30
0.0
 10
383.6103055831461
 20
293.1978154508703
 30
0.0
 10
383.655155422084
 20
293.2818719557362
 30
0.0
 10
383.7288625193096
 20
293.4590299416668
 30
0.0
 10
383.7572420973706
 20
293.5515271265227
 30
0.0
 10
383.7955388391665
 20
293.737955975182
 30
0.0
 10
383.8058503132668
 20
293.832767225652
 30
0.0
 10
383.8069487454049
 20
293.9292267646404
 30
0.0
  0
SPLINE
  5
15E
330
1F
100
AcDbEntity
  8
0
  6
Continuous
 62
     8
370
    18
100
AcDbSpline
210
0.0
220
0.0
230
1.0
 70
    24
 71
     3
 72
     9
 73
     5
 74
     0
 42
0.00000001
 43
0.00000001
 40
0.0
 40
0.0
 40
0.0
 40
0.0
 40
0.9999208183637527
 40
1.0
 40
1.0
 40
1.0
 40
1.0
 10
382.3449740920228
 20
440.6403180698048
 30
0.0
 10
382.5951829418511
 20
440.8101532009091
 30
0.0
 10
382.8454116051943
 20
440.9800017809019
 30
0.0
 10
382.720297009672
 20
440.8950773118149
 30
0.0
 10
382.7202871028936
 20
440.8950705873564
 30
0.0
  0
LINE
  5
15F
330
1F
100
AcDbEntity
  8
0
  6
Continuous
 62
     8
370
    18
100
AcDbLine
 10
382.7202871965
 20
292.1915391572
 30
0.0
 11
382.344974092
 21
292.4462917383
 31
0.0
  0
LINE
  5
160
330
1F
100
AcDbEntity
  8
0
  6
Continuous
 62
     8
370
    18
100
AcDbLine
 10
460.9602470416
 20
362.143304904
 30
0.0
 11
460.9602470416
 21
306.943304904
 31
0.0
  0
LINE
  5
161
330
1F
100
AcDbEntity
  8
0
  6
Continuous
 62
     8
370
    18
100
AcDbLine
 10
461.2493100496
 20
362.143304904
 30
0.0
 11
461.2493100496
 21
306.943304904
 31
0.0
  0
LINE
  5
162
330
1F
100
AcDbEntity
  8
0
  6
Continuous
 62
     8
370
    18
100
AcDbLine
 10
463.1967223031
 20
360.293731568
 30
0.0
 11
463.1967223031
 21
308.7928782401
 31
0.0
  0
LINE
  5
163
330
1F
100
AcDbEntity
  8
0
  6
Continuous
 62
     8
370
    18
100
AcDbLine
 10
411.0602470416
 20
357.4524953539
 30
0.0
 11
409.0602470416
 21
357.487440308
 31
0.0
  0
LINE
  5
164
330
1F
100
AcDbEntity
  8
0
  6
Continuous
 62
     8
370
    18
100
AcDbLine
 10
408.0602470416
 20
311.643304904
 30
0.0
 11
408.0602470416
 21
357.443304904
 31
0.0
  0
LINE
  5
165
330
1F
100
AcDbEntity
  8
0
  6
Continuous
 62
     8
370
    18
100
AcDbLine
 10
399.5602470416
 20
383.543304904
 30
0.0
 11
399.5602470416
 21
411.543304904
 31
0.0
  0
LINE
  5
166
330
1F
100
AcDbEntity
  8
0
  6
Continuous
 62
     8
370
    18
100
AcDbLine
 10
421.8968000921
 20
411.543304904
 30
0.0
 11
421.8968000921
 21
383.543304904
 31
0.0
  0
LINE
  5
167
330
1F
100
AcDbEntity
  8
0
  6
Continuous
 62
     8
370
    18
100
AcDbLine
 10
422.86738955
 20
410.7840456448
 30
0.0
 11
422.86738955
 21
384.3025641633
 31
0.0
  0
LINE
  5
168
330
1F
100
AcDbEntity
  8
0
  6
Continuous
 62
     8
370
    18
100
AcDbLine
 10
405.0849693666
 20
412.643304904
 30
0.0
 11
421.0849693666
 21
412.643304904
 31
0.0
  0
LINE
  5
169
330
1F
100
AcDbEntity
  8
0
  6
Continuous
 62
     8
370
    18
100
AcDbLine
 10
406.037334814
 20
433.0916250524
 30
0.0
 11
420.1326039193
 21
433.0916250524
 31
0.0
  0
LINE
  5
16A
330
1F
100
AcDbEntity
  8
0
  6
Continuous
 62
     8
370
    18
100
AcDbLine
 10
407.4573444694
 20
434.8223895751
 30
0.0
 11
418.7125942638
 21
434.8223895751
 31
0.0
  0
LINE
  5
16B
330
1F
100
AcDbEntity
  8
0
  6
Continuous
 62
     8
370
    18
100
AcDbLine
 10
444.0602470416
 20
369.7876194608
 30
0.0
 11
438.4823575943
 21
369.7876194608
 31
0.0
  0
LINE
  5
16C
330
1F
100
AcDbEntity
  8
0
  6
Continuous
 62
     8
370
    18
100
AcDbLine
 10
449.6381364888
 20
369.7876194608
 30
0.0
 11
444.0602470416
 21
369.7876194608
 31
0.0
  0
LINE
  5
16D
330
1F
100
AcDbEntity
  8
0
  6
Continuous
 62
     8
370
    18
100
AcDbLine
 10
444.0602470416
 20
369.2883978881
 30
0.0
 11
438.0102470416
 21
369.2883978881
 31
0.0
  0
LINE
  5
16E
330
1F
100
AcDbEntity
  8
0
  6
Continuous
 62
     8
370
    18
100
AcDbLine
 10
450.1102470416
 20
369.2883978881
 30
0.0
 11
444.0602470416
 21
369.2883978881
 31
0.0
  0
LINE
  5
16F
330
1F
100
AcDbEntity
  8
0
  6
Continuous
 62
     8
370
    18
100
AcDbLine
 10
411.0602470416
 20
357.5728301497
 30
0.0
 11
409.0602470416
 21
357.5902695254
 31
0.0
  0
ENDSEC
  0
SECTION
  2
OBJECTS
  0
DICTIONARY
  5
C
330
0
100
AcDbDictionary
281
     1
  3
ACAD_GROUP
350
D
  3
ACAD_LAYOUT
350
1A
  3
ACAD_MLINESTYLE
350
17
  3
ACAD_PLOTSETTINGS
350
19
  3
ACAD_PLOTSTYLENAME
350
E
  3
ACAD_SCALELIST
350
47
  3
DWGPROPS
350
170
  0
DICTIONARY
  5
D
102
{ACAD_REACTORS
330
C
102
}
330
C
100
AcDbDictionary
281
     1
  0
DICTIONARY
  5
1A
102
{ACAD_REACTORS
330
C
102
}
330
C
100
AcDbDictionary
281
     1
  3
Layout1
350
1E
  3
Layout2
350
26
  3
Model
350
22
  0
DICTIONARY
  5
17
102
{ACAD_REACTORS
330
C
102
}
330
C
100
AcDbDictionary
281
     1
  3
Standard
350
18
  0
DICTIONARY
  5
19
102
{ACAD_REACTORS
330
C
102
}
330
C
100
AcDbDictionary
281
     1
  0
ACDBDICTIONARYWDFLT
  5
E
102
{ACAD_REACTORS
330
C
102
}
330
C
100
AcDbDictionary
281
     1
  3
Normal
350
F
100
AcDbDictionaryWithDefault
340
F
  0
DICTIONARY
  5
47
102
{ACAD_REACTORS
330
C
102
}
330
C
100
AcDbDictionary
281
     1
  3
A0
350
48
  3
A1
350
49
  3
A2
350
4A
  3
A3
350
4B
  3
A4
350
4C
  3
A5
350
4D
  3
A6
350
4E
  3
A7
350
4F
  3
A8
350
50
  3
A9
350
51
  3
B0
350
52
  3
B1
350
53
  3
B2
350
54
  3
B3
350
55
  3
B4
350
56
  3
B5
350
57
  3
B6
350
58
  0
XRECORD
  5
170
102
{ACAD_REACTORS
330
C
102
}
330
C
100
AcDbXrecord
280
     1
  1
DWGPROPS COOKIE
  2

  3

  4

  6

  7

  8
fue-task
  9

300
=
301
=
302
=
303
=
304
=
305
=
306
=
307
=
308
=
309
=
 40
0.0
 41
2460075.26170735
 42
2460075.261708252
  1

 90
        0
  0
LAYOUT
  5
1E
102
{ACAD_REACTORS
330
1A
102
}
330
1A
100
AcDbPlotSettings
  1

  2
none_device
  4

  6

 40
0.0
 41
0.0
 42
0.0
 43
0.0
 44
0.0
 45
0.0
 46
0.0
 47
0.0
 48
0.0
 49
0.0
140
0.0
141
0.0
142
1.0
143
1.0
 70
   688
 72
     1
 73
     0
 74
     5
  7

 75
    16
147
1.0
148
0.0
149
0.0
100
AcDbLayout
  1
Layout1
 70
     1
 71
     1
 10
0.0
 20
0.0
 11
420.0
 21
297.0
 12
0.0
 22
0.0
 32
0.0
 14
1.0000000000E+20
 24
1.0000000000E+20
 34
1.0000000000E+20
 15
-1.0000000000E+20
 25
-1.0000000000E+20
 35
-1.0000000000E+20
146
0.0
 13
0.0
 23
0.0
 33
0.0
 16
1.0
 26
0.0
 36
0.0
 17
0.0
 27
1.0
 37
0.0
 76
     0
330
1B
  0
LAYOUT
  5
26
102
{ACAD_REACTORS
330
1A
102
}
330
1A
100
AcDbPlotSettings
  1

  2
none_device
  4

  6

 40
0.0
 41
0.0
 42
0.0
 43
0.0
 44
0.0
 45
0.0
 46
0.0
 47
0.0
 48
0.0
 49
0.0
140
0.0
141
0.0
142
1.0
143
1.0
 70
   688
 72
     1
 73
     0
 74
     5
  7

 75
    16
147
1.0
148
0.0
149
0.0
100
AcDbLayout
  1
Layout2
 70
     1
 71
     2
 10
0.0
 20
0.0
 11
0.0
 21
0.0
 12
0.0
 22
0.0
 32
0.0
 14
0.0
 24
0.0
 34
0.0
 15
0.0
 25
0.0
 35
0.0
146
0.0
 13
0.0
 23
0.0
 33
0.0
 16
1.0
 26
0.0
 36
0.0
 17
0.0
 27
1.0
 37
0.0
 76
     0
330
23
  0
LAYOUT
  5
22
102
{ACAD_REACTORS
330
1A
102
}
330
1A
100
AcDbPlotSettings
  1

  2
none_device
  4
Letter_(8.50_x_11.00_Inches)
  6

 40
6.35
 41
6.35
 42
6.35000508
 43
6.35000508
 44
215.9
 45
279.4
 46
0.0
 47
0.0
 48
0.0
 49
0.0
140
0.0
141
0.0
142
1.0
143
1.0
 70
  1712
 72
     1
 73
     0
 74
     0
  7

 75
     0
147
1.0
148
0.0
149
0.0
100
AcDbLayout
  1
Model
 70
     1
 71
     0
 10
0.0
 20
0.0
 11
594.0
 21
841.0
 12
0.0
 22
0.0
 32
0.0
 14
0.0
 24
0.0
 34
0.0
 15
594.0
 25
841.0
 35
0.0
146
0.0
 13
0.0
 23
0.0
 33
0.0
 16
1.0
 26
0.0
 36
0.0
 17
0.0
 27
1.0
 37
0.0
 76
     0
330
1F
331
29
  0
MLINESTYLE
  5
18
102
{ACAD_REACTORS
330
17
102
}
330
17
100
AcDbMlineStyle
  2
Standard
 70
     0
  3

 62
   256
 51
90.0
 52
90.0
 71
     2
 49
0.5
 62
   256
  6
BYLAYER
 49
-0.5
 62
   256
  6
BYLAYER
  0
ACDBPLACEHOLDER
  5
F
102
{ACAD_REACTORS
330
E
102
}
330
E
  0
SCALE
  5
48
102
{ACAD_REACTORS
330
47
102
}
330
47
100
AcDbScale
 70
     0
300
1:1
140
1.0
141
1.0
290
     1
  0
SCALE
  5
49
102
{ACAD_REACTORS
330
47
102
}
330
47
100
AcDbScale
 70
     0
300
1:2
140
1.0
141
2.0
290
     0
  0
SCALE
  5
4A
102
{ACAD_REACTORS
330
47
102
}
330
47
100
AcDbScale
 70
     0
300
1:4
140
1.0
141
4.0
290
     0
  0
SCALE
  5
4B
102
{ACAD_REACTORS
330
47
102
}
330
47
100
AcDbScale
 70
     0
300
1:5
140
1.0
141
5.0
290
     0
  0
SCALE
  5
4C
102
{ACAD_REACTORS
330
47
102
}
330
47
100
AcDbScale
 70
     0
300
1:8
140
1.0
141
8.0
290
     0
  0
SCALE
  5
4D
102
{ACAD_REACTORS
330
47
102
}
330
47
100
AcDbScale
 70
     0
300
1:10
140
1.0
141
10.0
290
     0
  0
SCALE
  5
4E
102
{ACAD_REACTORS
330
47
102
}
330
47
100
AcDbScale
 70
     0
300
1:16
140
1.0
141
16.0
290
     0
  0
SCALE
  5
4F
102
{ACAD_REACTORS
330
47
102
}
330
47
100
AcDbScale
 70
     0
300
1:20
140
1.0
141
20.0
290
     0
  0
SCALE
  5
50
102
{ACAD_REACTORS
330
47
102
}
330
47
100
AcDbScale
 70
     0
300
1:30
140
1.0
141
30.0
290
     0
  0
SCALE
  5
51
102
{ACAD_REACTORS
330
47
102
}
330
47
100
AcDbScale
 70
     0
300
1:40
140
1.0
141
40.0
290
     0
  0
SCALE
  5
52
102
{ACAD_REACTORS
330
47
102
}
330
47
100
AcDbScale
 70
     0
300
1:50
140
1.0
141
50.0
290
     0
  0
SCALE
  5
53
102
{ACAD_REACTORS
330
47
102
}
330
47
100
AcDbScale
 70
     0
300
1:100
140
1.0
141
100.0
290
     0
  0
SCALE
  5
54
102
{ACAD_REACTORS
330
47
102
}
330
47
100
AcDbScale
 70
     0
300
2:1
140
2.0
141
1.0
290
     0
  0
SCALE
  5
55
102
{ACAD_REACTORS
330
47
102
}
330
47
100
AcDbScale
 70
     0
300
4:1
140
4.0
141
1.0
290
     0
  0
SCALE
  5
56
102
{ACAD_REACTORS
330
47
102
}
330
47
100
AcDbScale
 70
     0
300
8:1
140
8.0
141
1.0
290
     0
  0
SCALE
  5
57
102
{ACAD_REACTORS
330
47
102
}
330
47
100
AcDbScale
 70
     0
300
10:1
140
10.0
141
1.0
290
     0
  0
SCALE
  5
58
102
{ACAD_REACTORS
330
47
102
}
330
47
100
AcDbScale
 70
     0
300
100:1
140
100.0
141
1.0
290
     0
  0
ENDSEC
  0
EOF
