  0
SECTION
  2
HEADER
  9
$ACADVER
  1
AC1015
  9
$ACADMAINTVER
 70
     6
  9
$DWGCODEPAGE
  3
ANSI_1252
  9
$INSBASE
 10
0.0
 20
0.0
 30
0.0
  9
$EXTMIN
 10
0.0
 20
0.0
 30
0.0
  9
$EXTMAX
 10
594.0
 20
841.0
 30
0.0
  9
$LIMMIN
 10
0.0
 20
0.0
  9
$LIMMAX
 10
594.0
 20
841.0
  9
$ORTHOMODE
 70
     0
  9
$REGENMODE
 70
     1
  9
$FILLMODE
 70
     1
  9
$QTEXTMODE
 70
     0
  9
$MIRRTEXT
 70
     1
  9
$LTSCALE
 40
1.0
  9
$ATTMODE
 70
     1
  9
$TEXTSIZE
 40
10.0
  9
$TRACEWID
 40
1.0
  9
$TEXTSTYLE
  7
Standard
  9
$CLAYER
  8
0
  9
$CELTYPE
  6
ByLayer
  9
$CECOLOR
 62
   256
  9
$CELTSCALE
 40
1.0
  9
$DISPSILH
 70
     0
  9
$DIMSCALE
 40
1.0
  9
$DIMASZ
 40
2.5
  9
$DIMEXO
 40
0.0
  9
$DIMDLI
 40
3.75
  9
$DIMRND
 40
0.0
  9
$DIMDLE
 40
0.0
  9
$DIMEXE
 40
1.0
  9
$DIMTP
 40
0.0
  9
$DIMTM
 40
0.0
  9
$DIMTXT
 40
3.5
  9
$DIMCEN
 40
2.5
  9
$DIMTSZ
 40
0.0
  9
$DIMTOL
 70
     0
  9
$DIMLIM
 70
     0
  9
$DIMTIH
 70
     1
  9
$DIMTOH
 70
     1
  9
$DIMSE1
 70
     0
  9
$DIMSE2
 70
     0
  9
$DIMTAD
 70
     1
  9
$DIMZIN
 70
     0
  9
$DIMBLK
  1

  9
$DIMASO
 70
     1
  9
$DIMSHO
 70
     1
  9
$DIMPOST
  1

  9
$DIMAPOST
  1

  9
$DIMALT
 70
     0
  9
$DIMALTD
 70
     3
  9
$DIMALTF
 40
0.0393700787
  9
$DIMLFAC
 40
1.0
  9
$DIMTOFL
 70
     1
  9
$DIMTVP
 40
0.0
  9
$DIMTIX
 70
     0
  9
$DIMSOXD
 70
     0
  9
$DIMSAH
 70
     0
  9
$DIMBLK1
  1

  9
$DIMBLK2
  1

  9
$DIMSTYLE
  2
ISO-25
  9
$DIMCLRD
 70
     0
  9
$DIMCLRE
 70
     0
  9
$DIMCLRT
 70
     0
  9
$DIMTFAC
 40
1.0
  9
$DIMGAP
 40
1.5
  9
$DIMJUST
 70
     0
  9
$DIMSD1
 70
     0
  9
$DIMSD2
 70
     0
  9
$DIMTOLJ
 70
     0
  9
$DIMTZIN
 70
     0
  9
$DIMALTZ
 70
     0
  9
$DIMALTTZ
 70
     0
  9
$DIMUPT
 70
     0
  9
$DIMDEC
 70
     2
  9
$DIMTDEC
 70
     2
  9
$DIMALTU
 70
     2
  9
$DIMALTTD
 70
     3
  9
$DIMTXSTY
  7
Standard
  9
$DIMAUNIT
 70
     0
  9
$DIMADEC
 70
     2
  9
$DIMALTRND
 40
0.0
  9
$DIMAZIN
 70
     0
  9
$DIMDSEP
 70
    44
  9
$DIMATFIT
 70
     3
  9
$DIMFRAC
 70
     0
  9
$DIMLDRBLK
  1

  9
$DIMLUNIT
 70
     2
  9
$DIMLWD
 70
    -2
  9
$DIMLWE
 70
    -2
  9
$DIMTMOVE
 70
     0
  9
$LUNITS
 70
     2
  9
$LUPREC
 70
     2
  9
$SKETCHINC
 40
1.0
  9
$FILLETRAD
 40
0.0
  9
$AUNITS
 70
     0
  9
$AUPREC
 70
     2
  9
$MENU
  1
.
  9
$ELEVATION
 40
0.0
  9
$PELEVATION
 40
0.0
  9
$THICKNESS
 40
0.0
  9
$LIMCHECK
 70
     0
  9
$CHAMFERA
 40
0.0
  9
$CHAMFERB
 40
0.0
  9
$CHAMFERC
 40
0.0
  9
$CHAMFERD
 40
0.0
  9
$SKPOLY
 70
     0
  9
$TDCREATE
 40
2460346.457655162
  9
$TDUCREATE
 40
2460346.415988496
  9
$TDUPDATE
 40
2460346.457656424
  9
$TDUUPDATE
 40
2460346.415989757
  9
$TDINDWG
 40
0.0000000116
  9
$TDUSRTIMER
 40
0.0000000116
  9
$USRTIMER
 70
     1
  9
$ANGBASE
 50
0.0
  9
$ANGDIR
 70
     0
  9
$PDMODE
 70
     0
  9
$PDSIZE
 40
-1.0
  9
$PLINEWID
 40
0.0
  9
$SPLFRAME
 70
     0
  9
$SPLINETYPE
 70
     6
  9
$SPLINESEGS
 70
     8
  9
$HANDSEED
  5
1C1
  9
$SURFTAB1
 70
     6
  9
$SURFTAB2
 70
     6
  9
$SURFTYPE
 70
     6
  9
$SURFU
 70
     6
  9
$SURFV
 70
     6
  9
$UCSBASE
  2

  9
$UCSNAME
  2

  9
$UCSORG
 10
0.0
 20
0.0
 30
0.0
  9
$UCSXDIR
 10
1.0
 20
0.0
 30
0.0
  9
$UCSYDIR
 10
0.0
 20
1.0
 30
0.0
  9
$UCSORTHOREF
  2

  9
$UCSORTHOVIEW
 70
     0
  9
$UCSORGTOP
 10
0.0
 20
0.0
 30
0.0
  9
$UCSORGBOTTOM
 10
0.0
 20
0.0
 30
0.0
  9
$UCSORGLEFT
 10
0.0
 20
0.0
 30
0.0
  9
$UCSORGRIGHT
 10
0.0
 20
0.0
 30
0.0
  9
$UCSORGFRONT
 10
0.0
 20
0.0
 30
0.0
  9
$UCSORGBACK
 10
0.0
 20
0.0
 30
0.0
  9
$PUCSBASE
  2

  9
$PUCSNAME
  2

  9
$PUCSORG
 10
0.0
 20
0.0
 30
0.0
  9
$PUCSXDIR
 10
1.0
 20
0.0
 30
0.0
  9
$PUCSYDIR
 10
0.0
 20
1.0
 30
0.0
  9
$PUCSORTHOREF
  2

  9
$PUCSORTHOVIEW
 70
     0
  9
$PUCSORGTOP
 10
0.0
 20
0.0
 30
0.0
  9
$PUCSORGBOTTOM
 10
0.0
 20
0.0
 30
0.0
  9
$PUCSORGLEFT
 10
0.0
 20
0.0
 30
0.0
  9
$PUCSORGRIGHT
 10
0.0
 20
0.0
 30
0.0
  9
$PUCSORGFRONT
 10
0.0
 20
0.0
 30
0.0
  9
$PUCSORGBACK
 10
0.0
 20
0.0
 30
0.0
  9
$USERI1
 70
     0
  9
$USERI2
 70
     0
  9
$USERI3
 70
     0
  9
$USERI4
 70
     0
  9
$USERI5
 70
     0
  9
$USERR1
 40
0.0
  9
$USERR2
 40
0.0
  9
$USERR3
 40
0.0
  9
$USERR4
 40
0.0
  9
$USERR5
 40
0.0
  9
$WORLDVIEW
 70
     1
  9
$SHADEDGE
 70
     3
  9
$SHADEDIF
 70
    70
  9
$TILEMODE
 70
     1
  9
$MAXACTVP
 70
    64
  9
$PINSBASE
 10
0.0
 20
0.0
 30
0.0
  9
$PLIMCHECK
 70
     0
  9
$PEXTMIN
 10
1.0000000000E+20
 20
1.0000000000E+20
 30
1.0000000000E+20
  9
$PEXTMAX
 10
-1.0000000000E+20
 20
-1.0000000000E+20
 30
-1.0000000000E+20
  9
$PLIMMIN
 10
0.0
 20
0.0
  9
$PLIMMAX
 10
420.0
 20
297.0
  9
$UNITMODE
 70
     0
  9
$VISRETAIN
 70
     1
  9
$PLINEGEN
 70
     0
  9
$PSLTSCALE
 70
     1
  9
$TREEDEPTH
 70
  3020
  9
$CMLSTYLE
  2
Standard
  9
$CMLJUST
 70
     0
  9
$CMLSCALE
 40
20.0
  9
$PROXYGRAPHICS
 70
     1
  9
$MEASUREMENT
 70
     1
  9
$CELWEIGHT
370
    -1
  9
$ENDCAPS
280
     0
  9
$JOINSTYLE
280
     0
  9
$LWDISPLAY
290
     1
  9
$INSUNITS
 70
     4
  9
$HYPERLINKBASE
  1

  9
$STYLESHEET
  1

  9
$XEDIT
290
     1
  9
$CEPSNTYPE
380
     0
  9
$PSTYLEMODE
290
     1
  9
$FINGERPRINTGUID
  2
{646e2e19-dc1f-400d-a5a9-979eb169c72f}
  9
$VERSIONGUID
  2
{FAEB1C32-E019-11D5-929B-00C0DF256EC4}
  9
$EXTNAMES
290
     1
  9
$PSVPSCALE
 40
0.0
  9
$OLESTARTUP
290
     0
  0
ENDSEC
  0
SECTION
  2
CLASSES
  0
CLASS
  1
ACDBDICTIONARYWDFLT
  2
AcDbDictionaryWithDefault
  3
ObjectDBX Classes
 90
        0
280
     0
281
     0
  0
CLASS
  1
VISUALSTYLE
  2
AcDbVisualStyle
  3
ObjectDBX Classes
 90
     4095
280
     0
281
     0
  0
CLASS
  1
MATERIAL
  2
AcDbMaterial
  3
ObjectDBX Classes
 90
     1153
280
     0
281
     0
  0
CLASS
  1
SCALE
  2
AcDbScale
  3
ObjectDBX Classes
 90
     1153
280
     0
281
     0
  0
CLASS
  1
TABLESTYLE
  2
AcDbTableStyle
  3
ObjectDBX Classes
 90
     4095
280
     0
281
     0
  0
CLASS
  1
MLEADERSTYLE
  2
AcDbMLeaderStyle
  3
ACDB_MLEADERSTYLE_CLASS
 90
     4095
280
     0
281
     0
  0
CLASS
  1
SUN
  2
AcDbSun
  3
SCENEOE
 90
     1153
280
     0
281
     0
  0
CLASS
  1
ACDBPLACEHOLDER
  2
AcDbPlaceHolder
  3
ObjectDBX Classes
 90
        0
280
     0
281
     0
  0
CLASS
  1
LAYOUT
  2
AcDbLayout
  3
ObjectDBX Classes
 90
        0
280
     0
281
     0
  0
ENDSEC
  0
SECTION
  2
TABLES
  0
TABLE
  2
VPORT
  5
8
330
0
100
AcDbSymbolTable
 70
     1
  0
VPORT
  5
29
330
8
100
AcDbSymbolTableRecord
100
AcDbViewportTableRecord
  2
*Active
 70
     0
 10
0.0
 20
0.0
 11
1.0
 21
1.0
 12
297.0
 22
420.5
 13
0.0
 23
0.0
 14
10.0
 24
10.0
 15
10.0
 25
10.0
 16
0.0
 26
0.0
 36
1.0
 17
0.0
 27
0.0
 37
0.0
 40
841.0
 41
0.7063020214
 42
50.0
 43
0.0
 44
0.0
 50
0.0
 51
0.0
 71
     0
 72
  2000
 73
     1
 74
     3
 75
     0
 76
     0
 77
     0
 78
     0
281
     0
 65
     1
110
0.0
120
0.0
130
0.0
111
1.0
121
0.0
131
0.0
112
0.0
122
1.0
132
0.0
 79
     0
146
0.0
  0
ENDTAB
  0
TABLE
  2
LTYPE
  5
5
330
0
100
AcDbSymbolTable
 70
     6
  0
LTYPE
  5
14
330
5
100
AcDbSymbolTableRecord
100
AcDbLinetypeTableRecord
  2
ByBlock
 70
     0
  3

 72
    65
 73
     0
 40
0.0
  0
LTYPE
  5
15
330
5
100
AcDbSymbolTableRecord
100
AcDbLinetypeTableRecord
  2
ByLayer
 70
     0
  3

 72
    65
 73
     0
 40
0.0
  0
LTYPE
  5
16
330
5
100
AcDbSymbolTableRecord
100
AcDbLinetypeTableRecord
  2
Continuous
 70
     0
  3
Solid line
 72
    65
 73
     0
 40
0.0
  0
LTYPE
  5
5E
330
5
100
AcDbSymbolTableRecord
100
AcDbLinetypeTableRecord
  2
HIDDEN
 70
     0
  3
Hidden __ __ __ __ __ __ __ __ __ __ __ __ __ __
 72
    65
 73
     2
 40
1.905
 49
1.27
 74
     0
 49
-0.635
 74
     0
  0
LTYPE
  5
5F
330
5
100
AcDbSymbolTableRecord
100
AcDbLinetypeTableRecord
  2
PHANTOM
 70
     0
  3
Phantom ______  __  __  ______  __  __  ______
 72
    65
 73
     6
 40
12.7
 49
6.35
 74
     0
 49
-1.27
 74
     0
 49
1.27
 74
     0
 49
-1.27
 74
     0
 49
1.27
 74
     0
 49
-1.27
 74
     0
  0
LTYPE
  5
60
330
5
100
AcDbSymbolTableRecord
100
AcDbLinetypeTableRecord
  2
CENTER
 70
     0
  3
Center ____ _ ____ _ ____ _ ____ _ ____ _ ____
 72
    65
 73
     4
 40
10.16
 49
6.35
 74
     0
 49
-1.27
 74
     0
 49
1.27
 74
     0
 49
-1.27
 74
     0
  0
LTYPE
  5
61
330
5
100
AcDbSymbolTableRecord
100
AcDbLinetypeTableRecord
  2
CENTERX2
 70
     0
  3
Center (2x) ________  __  ________  __  _____
 72
    65
 73
     4
 40
20.32
 49
12.7
 74
     0
 49
-2.54
 74
     0
 49
2.54
 74
     0
 49
-2.54
 74
     0
  0
LTYPE
  5
62
330
5
100
AcDbSymbolTableRecord
100
AcDbLinetypeTableRecord
  2
DOT2
 70
     0
  3
Dot (.5x) ........................................
 72
    65
 73
     2
 40
0.635
 49
0.0
 74
     0
 49
-0.635
 74
     0
  0
ENDTAB
  0
TABLE
  2
LAYER
  5
2
330
0
100
AcDbSymbolTable
 70
     1
  0
LAYER
  5
10
330
2
100
AcDbSymbolTableRecord
100
AcDbLayerTableRecord
  2
0
 70
     0
 62
     7
  6
Continuous
370
    -3
390
F
  0
ENDTAB
  0
TABLE
  2
STYLE
  5
3
330
0
100
AcDbSymbolTable
 70
     3
  0
STYLE
  5
11
330
3
100
AcDbSymbolTableRecord
100
AcDbTextStyleTableRecord
  2
Standard
 70
     0
 40
0.0
 41
1.0
 50
0.0
 71
     0
 42
10.0
  3
txt
  4

  0
STYLE
  5
66
330
3
100
AcDbSymbolTableRecord
100
AcDbTextStyleTableRecord
  2
SLDTEXTSTYLE0
 70
     0
 40
0.0
 41
0.96
 50
0.0
 71
     0
 42
10.0
  3
ISOCP3
  4

  0
STYLE
  5
7D
330
3
100
AcDbSymbolTableRecord
100
AcDbTextStyleTableRecord
  2
SLDTEXTSTYLE1
 70
     0
 40
0.0
 41
0.605
 50
0.0
 71
     0
 42
10.0
  3
TXT
  4

  0
ENDTAB
  0
TABLE
  2
VIEW
  5
6
330
0
100
AcDbSymbolTable
 70
     0
  0
ENDTAB
  0
TABLE
  2
UCS
  5
7
330
0
100
AcDbSymbolTable
 70
     0
  0
ENDTAB
  0
TABLE
  2
APPID
  5
9
330
0
100
AcDbSymbolTable
 70
     1
  0
APPID
  5
12
330
9
100
AcDbSymbolTableRecord
100
AcDbRegAppTableRecord
  2
ACAD
 70
     0
  0
ENDTAB
  0
TABLE
  2
DIMSTYLE
  5
A
330
0
100
AcDbSymbolTable
 70
     2
100
AcDbDimStyleTable
  0
DIMSTYLE
105
27
330
A
100
AcDbSymbolTableRecord
100
AcDbDimStyleTableRecord
  2
ISO-25
 70
     0
 41
2.5
 42
0.625
 43
3.75
 44
1.25
 73
     0
 74
     0
 77
     1
 78
     8
140
2.5
141
2.5
143
0.0393700787
147
0.625
171
     3
172
     1
178
     0
271
     2
272
     2
274
     3
278
    44
283
     0
284
     8
340
11
  0
DIMSTYLE
105
67
102
{ACAD_REACTORS
330
65
330
72
102
}
330
A
100
AcDbSymbolTableRecord
100
AcDbDimStyleTableRecord
  2
SLDDIMSTYLE0
 70
     0
 41
2.5
 44
0.0
 45
0.000000001
 73
     0
 74
     0
 77
     1
 78
    12
 79
     3
140
6.0
147
1.5
173
     1
178
     0
271
     2
272
     2
276
     2
284
    12
340
66
  0
ENDTAB
  0
TABLE
  2
BLOCK_RECORD
  5
1
330
0
100
AcDbSymbolTable
 70
     3
  0
BLOCK_RECORD
  5
1F
330
1
100
AcDbSymbolTableRecord
100
AcDbBlockTableRecord
  2
*Model_Space
340
22
  0
BLOCK_RECORD
  5
1B
330
1
100
AcDbSymbolTableRecord
100
AcDbBlockTableRecord
  2
*Paper_Space
340
1E
  0
BLOCK_RECORD
  5
23
330
1
100
AcDbSymbolTableRecord
100
AcDbBlockTableRecord
  2
*Paper_Space0
340
26
  0
BLOCK_RECORD
  5
68
330
1
100
AcDbSymbolTableRecord
100
AcDbBlockTableRecord
  2
_D
340
0
  0
BLOCK_RECORD
  5
73
330
1
100
AcDbSymbolTableRecord
100
AcDbBlockTableRecord
  2
_D_1
340
0
  0
ENDTAB
  0
ENDSEC
  0
SECTION
  2
BLOCKS
  0
BLOCK
  5
20
330
1F
100
AcDbEntity
  8
0
100
AcDbBlockBegin
  2
*Model_Space
 70
     0
 10
0.0
 20
0.0
 30
0.0
  3
*Model_Space
  1

  0
ENDBLK
  5
21
330
1F
100
AcDbEntity
  8
0
100
AcDbBlockEnd
  0
BLOCK
  5
1C
330
1B
100
AcDbEntity
 67
     1
  8
0
100
AcDbBlockBegin
  2
*Paper_Space
 70
     0
 10
0.0
 20
0.0
 30
0.0
  3
*Paper_Space
  1

  0
ENDBLK
  5
1D
330
1B
100
AcDbEntity
 67
     1
  8
0
100
AcDbBlockEnd
  0
BLOCK
  5
24
330
23
100
AcDbEntity
  8
0
100
AcDbBlockBegin
  2
*Paper_Space0
 70
     0
 10
0.0
 20
0.0
 30
0.0
  3
*Paper_Space0
  1

  0
ENDBLK
  5
25
330
23
100
AcDbEntity
  8
0
100
AcDbBlockEnd
  0
BLOCK
  5
69
330
68
100
AcDbEntity
  8
0
100
AcDbBlockBegin
  2
_D
 70
     0
 10
0.0
 20
0.0
 30
0.0
  3
_D
  1

  0
SOLID
  5
6B
330
68
100
AcDbEntity
  8
0
  6
Continuous
 62
     7
370
    18
100
AcDbTrace
 10
42.7614395004
 20
152.0299240879
 30
0.0
 11
42.4614395004
 21
149.5299240879
 31
0.0
 12
43.0614395004
 22
149.5299240879
 32
0.0
 13
43.0614395004
 23
149.5299240879
 33
0.0
  0
SOLID
  5
6C
330
68
100
AcDbEntity
  8
0
  6
Continuous
 62
     7
370
    18
100
AcDbTrace
 10
42.7614395004
 20
52.0299240879
 30
0.0
 11
43.0614395004
 21
54.5299240879
 31
0.0
 12
42.4614395004
 22
54.5299240879
 32
0.0
 13
42.4614395004
 23
54.5299240879
 33
0.0
  0
LINE
  5
6D
330
68
100
AcDbEntity
  8
0
  6
Continuous
 62
     7
370
     0
100
AcDbLine
 10
56.6850079902
 20
152.0299240879
 30
0.0
 11
41.7614395004
 21
152.0299240879
 31
0.0
  0
LINE
  5
6E
330
68
100
AcDbEntity
  8
0
  6
Continuous
 62
     7
370
     0
100
AcDbLine
 10
56.6850079902
 20
52.0299240879
 30
0.0
 11
41.7614395004
 21
52.0299240879
 31
0.0
  0
LINE
  5
6F
330
68
100
AcDbEntity
  8
0
  6
Continuous
 62
     7
370
     0
100
AcDbLine
 10
42.7614395004
 20
152.0299240879
 30
0.0
 11
42.7614395004
 21
52.0299240879
 31
0.0
  0
MTEXT
  5
70
330
68
100
AcDbEntity
  8
0
  6
Continuous
 62
     7
370
    18
100
AcDbMText
 10
35.0270332946
 20
94.3680541463
 30
0.0
 40
6.0
 41
0.0
 71
     1
 72
     1
  1
100
  7
SLDTEXTSTYLE0
 11
-7.044195017643634E-15
 21
1.0
 31
0.0
 73
     1
 44
1.0
  0
MTEXT
  5
71
330
68
100
AcDbEntity
  8
0
  6
Continuous
 62
     7
370
    18
100
AcDbMText
 10
35.0270332946
 20
105.7430548466
 30
0.0
 40
6.0
 41
0.0
 71
     1
 72
     1
  1
mm
  7
SLDTEXTSTYLE0
 11
-7.044195017643634E-15
 21
1.0
 31
0.0
 73
     1
 44
1.0
  0
ENDBLK
  5
6A
330
68
100
AcDbEntity
  8
0
100
AcDbBlockEnd
  0
BLOCK
  5
74
330
73
100
AcDbEntity
  8
0
100
AcDbBlockBegin
  2
_D_1
 70
     0
 10
0.0
 20
0.0
 30
0.0
  3
_D_1
  1

  0
SOLID
  5
76
330
73
100
AcDbEntity
  8
0
  6
Continuous
 62
     7
370
    18
100
AcDbTrace
 10
56.6850079902
 20
38.4602342313
 30
0.0
 11
59.1850079902
 21
38.1602342313
 31
0.0
 12
59.1850079902
 22
38.7602342313
 32
0.0
 13
59.1850079902
 23
38.7602342313
 33
0.0
  0
SOLID
  5
77
330
73
100
AcDbEntity
  8
0
  6
Continuous
 62
     7
370
    18
100
AcDbTrace
 10
156.6850079902
 20
38.4602342313
 30
0.0
 11
154.1850079902
 21
38.7602342313
 31
0.0
 12
154.1850079902
 22
38.1602342313
 32
0.0
 13
154.1850079902
 23
38.1602342313
 33
0.0
  0
LINE
  5
78
330
73
100
AcDbEntity
  8
0
  6
Continuous
 62
     7
370
     0
100
AcDbLine
 10
56.6850079902
 20
52.0299240879
 30
0.0
 11
56.6850079902
 21
37.4602342313
 31
0.0
  0
LINE
  5
79
330
73
100
AcDbEntity
  8
0
  6
Continuous
 62
     7
370
     0
100
AcDbLine
 10
156.6850079902
 20
52.0299240879
 30
0.0
 11
156.6850079902
 21
37.4602342313
 31
0.0
  0
LINE
  5
7A
330
73
100
AcDbEntity
  8
0
  6
Continuous
 62
     7
370
     0
100
AcDbLine
 10
56.6850079902
 20
38.4602342313
 30
0.0
 11
156.6850079902
 21
38.4602342313
 31
0.0
  0
MTEXT
  5
7B
330
73
100
AcDbEntity
  8
0
  6
Continuous
 62
     7
370
    18
100
AcDbMText
 10
93.9626484861
 20
46.1946404371
 30
0.0
 40
6.0
 41
0.0
 71
     1
 72
     1
  1
100
  7
SLDTEXTSTYLE0
 73
     1
 44
1.0
  0
MTEXT
  5
7C
330
73
100
AcDbEntity
  8
0
  6
Continuous
 62
     7
370
    18
100
AcDbMText
 10
105.3376491864
 20
46.1946404371
 30
0.0
 40
6.0
 41
0.0
 71
     1
 72
     1
  1
mm
  7
SLDTEXTSTYLE0
 73
     1
 44
1.0
  0
ENDBLK
  5
75
330
73
100
AcDbEntity
  8
0
100
AcDbBlockEnd
  0
ENDSEC
  0
SECTION
  2
ENTITIES
  0
LINE
  5
63
330
1F
100
AcDbEntity
  8
0
  6
Continuous
 62
     7
370
    18
100
AcDbLine
 10
56.6850079902
 20
152.0299240879
 30
0.0
 11
56.6850079902
 21
52.0299240879
 31
0.0
  0
LINE
  5
64
330
1F
100
AcDbEntity
  8
0
  6
Continuous
 62
     7
370
    18
100
AcDbLine
 10
56.6850079902
 20
52.0299240879
 30
0.0
 11
156.6850079902
 21
52.0299240879
 31
0.0
  0
DIMENSION
  5
65
330
1F
100
AcDbEntity
  8
0
  6
Continuous
 62
     7
370
    18
100
AcDbDimension
  2
_D
 10
42.7614395004
 20
52.0299240879
 30
0.0
 11
42.7614395004
 21
105.4472211621
 31
0.0
 70
   160
  1
<>mm
 71
     2
 42
-1.0
  3
SLDDIMSTYLE0
100
AcDbAlignedDimension
 13
56.6850079902
 23
152.0299240879
 33
0.0
 14
56.6850079902
 24
52.0299240879
 34
0.0
 50
90.0
100
AcDbRotatedDimension
  0
DIMENSION
  5
72
330
1F
100
AcDbEntity
  8
0
  6
Continuous
 62
     7
370
    18
100
AcDbDimension
  2
_D_1
 10
156.6850079902
 20
38.4602342313
 30
0.0
 11
105.0418155019
 21
38.4602342313
 31
0.0
 70
   160
  1
<>mm
 71
     2
 42
-1.0
  3
SLDDIMSTYLE0
100
AcDbAlignedDimension
 13
56.6850079902
 23
52.0299240879
 33
0.0
 14
156.6850079902
 24
52.0299240879
 34
0.0
100
AcDbRotatedDimension
  0
MTEXT
  5
7E
330
1F
100
AcDbEntity
  8
0
  6
Continuous
 62
     7
370
     0
100
AcDbMText
 10
412.8252631579
 20
48.4342449499
 30
0.0
 40
10.0
 41
0.0
 71
     1
 72
     1
  1
KLUDI GmbH & Co KG
  7
SLDTEXTSTYLE1
 73
     1
 44
1.0
  0
MTEXT
  5
7F
330
1F
100
AcDbEntity
  8
0
  6
Continuous
 62
     7
370
     0
100
AcDbMText
 10
210.0873490389
 20
48.4342449499
 30
0.0
 40
10.0
 41
0.0
 71
     1
 72
     1
  1
54 288 .. 75
  7
SLDTEXTSTYLE1
 73
     1
 44
1.0
  0
SPLINE
  5
80
330
1F
100
AcDbEntity
  8
0
  6
Continuous
 62
     7
370
    25
100
AcDbSpline
210
0.0
220
0.0
230
1.0
 70
     8
 71
     3
 72
    15
 73
    11
 74
     0
 42
0.00000001
 43
0.00000001
 40
0.0
 40
0.0
 40
0.0
 40
0.0
 40
0.2026871534861274
 40
0.4384598836071621
 40
0.5756315425414077
 40
0.68738903920048
 40
0.7387771129231797
 40
0.790517587920364
 40
0.9033947369841889
 40
1.0
 40
1.0
 40
1.0
 40
1.0
 10
166.4395296589726
 20
473.2667694663717
 30
0.0
 10
166.4183267526574
 20
473.1869757209284
 30
0.0
 10
166.3724598899817
 20
473.0143631219653
 30
0.0
 10
166.376734507731
 20
472.5708454843299
 30
0.0
 10
166.4173179774022
 20
471.9767685848037
 30
0.0
 10
166.4599636986104
 20
471.4144171379434
 30
0.0
 10
166.4969103859128
 20
470.9156600391694
 30
0.0
 10
166.5357800426584
 20
470.3753457130948
 30
0.0
 10
166.5785683591195
 20
469.71827080982
 30
0.0
 10
166.6167235701751
 20
469.2040907218781
 30
0.0
 10
166.634319291758
 20
468.9669705639612
 30
0.0
  0
SPLINE
  5
81
330
1F
100
AcDbEntity
  8
0
  6
Continuous
 62
     7
370
    25
100
AcDbSpline
210
0.0
220
0.0
230
1.0
 70
     8
 71
     3
 72
    15
 73
    11
 74
     0
 42
0.00000001
 43
0.00000001
 40
0.0
 40
0.0
 40
0.0
 40
0.0
 40
0.2176752308650061
 40
0.4207784584200377
 40
0.5430865124949585
 40
0.6428585736923446
 40
0.6886135641529577
 40
0.7409698616498371
 40
0.8835223736916238
 40
1.0
 40
1.0
 40
1.0
 40
1.0
 10
200.6361085180705
 20
468.9786298827103
 30
0.0
 10
200.667280692012
 20
469.4540141505274
 30
0.0
 10
200.7275382566627
 20
470.3729586651346
 30
0.0
 10
200.8171725430321
 20
471.5925308738611
 30
0.0
 10
200.9038171565829
 20
472.5494842593785
 30
0.0
 10
200.9682497587551
 20
473.1514194513409
 30
0.0
 10
201.0140346917979
 20
473.5320391370769
 30
0.0
 10
201.050316644027
 20
473.8191817136012
 30
0.0
 10
201.0682883383241
 20
473.9592102847859
 30
0.0
 10
201.0573173780323
 20
473.9466332638306
 30
0.0
 10
201.0523840856314
 20
473.9409777769586
 30
0.0
  0
SPLINE
  5
82
330
1F
100
AcDbEntity
  8
0
  6
Continuous
 62
     7
370
    25
100
AcDbSpline
210
0.0
220
0.0
230
1.0
 70
     8
 71
     3
 72
    13
 73
     9
 74
     0
 42
0.00000001
 43
0.00000001
 40
0.0
 40
0.0
 40
0.0
 40
0.0
 40
0.1561627598226375
 40
0.3073316193716228
 40
0.4495204948354561
 40
0.5812763538310904
 40
0.8274369258231528
 40
1.0
 40
1.0
 40
1.0
 40
1.0
 10
166.6780965645869
 20
493.8241022116522
 30
0.0
 10
166.595356187126
 20
493.8194795831698
 30
0.0
 10
166.4325213715698
 20
493.8103821523941
 30
0.0
 10
166.2074933776754
 20
493.7257791070978
 30
0.0
 10
166.017866842711
 20
493.6033454515
 30
0.0
 10
165.8262202791775
 20
493.4071343603125
 30
0.0
 10
165.6793583310672
 20
493.1442314440853
 30
0.0
 10
165.6645967417539
 20
492.9217935297585
 30
0.0
 10
165.6585132419206
 20
492.830123115009
 30
0.0
  0
SPLINE
  5
83
330
1F
100
AcDbEntity
  8
0
  6
Continuous
 62
     7
370
    25
100
AcDbSpline
210
0.0
220
0.0
230
1.0
 70
     8
 71
     3
 72
    13
 73
     9
 74
     0
 42
0.00000001
 43
0.00000001
 40
0.0
 40
0.0
 40
0.0
 40
0.0
 40
0.1726951971121587
 40
0.4188197789303591
 40
0.5505486679530773
 40
0.6926981474102718
 40
0.8438404454844126
 40
1.0
 40
1.0
 40
1.0
 40
1.0
 10
201.6044110674818
 20
492.8298224034222
 30
0.0
 10
201.5983402291919
 20
492.9215002836526
 30
0.0
 10
201.583617253724
 20
493.1438371533104
 30
0.0
 10
201.4369837720942
 20
493.4066485044057
 30
0.0
 10
201.2456414552576
 20
493.6028200143683
 30
0.0
 10
201.056298018602
 20
493.7253119966948
 30
0.0
 10
200.8315539472433
 20
493.8100883523676
 30
0.0
 10
200.6688579967453
 20
493.8193929824826
 30
0.0
 10
200.5861818692272
 20
493.8241212549659
 30
0.0
  0
LINE
  5
84
330
1F
100
AcDbEntity
  8
0
  6
Continuous
 62
     7
370
    25
100
AcDbLine
 10
200.6028165557
 20
493.8262139274
 30
0.0
 11
183.6314371161
 21
493.826213931
 31
0.0
  0
LINE
  5
85
330
1F
100
AcDbEntity
  8
0
  6
Continuous
 62
     7
370
    25
100
AcDbLine
 10
183.6314371161
 20
493.826213931
 30
0.0
 11
166.6600576765
 21
493.8262139274
 31
0.0
  0
SPLINE
  5
86
330
1F
100
AcDbEntity
  8
0
  6
Continuous
 62
     7
370
    25
100
AcDbSpline
210
0.0
220
0.0
230
1.0
 70
     8
 71
     3
 72
    11
 73
     7
 74
     0
 42
0.00000001
 43
0.00000001
 40
0.0
 40
0.0
 40
0.0
 40
0.0
 40
0.2354114695216875
 40
0.4847121331463256
 40
0.7421296700125599
 40
1.0
 40
1.0
 40
1.0
 40
1.0
 10
165.8209976438623
 20
349.0555519269502
 30
0.0
 10
165.7524826664846
 20
348.5922335266108
 30
0.0
 10
165.6114103521037
 20
347.6382611028765
 30
0.0
 10
164.9058093901813
 20
346.2655701718571
 30
0.0
 10
163.8400015783441
 20
345.0868406336784
 30
0.0
 10
162.9268358124875
 20
344.632839004013
 30
0.0
 10
162.4698517216093
 20
344.4056387193032
 30
0.0
  0
LINE
  5
87
330
1F
100
AcDbEntity
  8
0
  6
Continuous
 62
     7
370
    25
100
AcDbLine
 10
165.8209977324
 20
360.055551927
 30
0.0
 11
165.8209977324
 21
349.0555520018
 31
0.0
  0
ARC
  5
88
330
1F
100
AcDbEntity
  8
0
  6
Continuous
 62
     7
370
    25
100
AcDbCircle
 10
190.8487215099
 20
465.1238928047
 30
0.0
 40
22.81689189189191
100
AcDbArc
 50
170.2327118159
 51
180.0
  0
ARC
  5
89
330
1F
100
AcDbEntity
  8
0
  6
Continuous
 62
     7
370
    25
100
AcDbCircle
 10
176.4149377261
 20
465.1238928047
 30
0.0
 40
22.81689189189191
100
AcDbArc
 50
0.0
 51
9.4599617976
  0
LINE
  5
8A
330
1F
100
AcDbEntity
  8
0
  6
Continuous
 62
     7
370
    25
100
AcDbLine
 10
201.631876224
 20
464.1238938282
 30
0.0
 11
201.6318762391
 21
454.1238924117
 31
0.0
  0
SPLINE
  5
8B
330
1F
100
AcDbEntity
  8
0
  6
Continuous
 62
     7
370
    25
100
AcDbSpline
210
0.0
220
0.0
230
1.0
 70
     8
 71
     3
 72
    14
 73
    10
 74
     0
 42
0.00000001
 43
0.00000001
 40
0.0
 40
0.0
 40
0.0
 40
0.0
 40
0.25
 40
0.25
 40
0.5
 40
0.5
 40
0.75
 40
0.75
 40
1.0
 40
1.0
 40
1.0
 40
1.0
 10
200.6318762237612
 20
465.1238938267054
 30
0.0
 10
200.7497273539287
 20
465.1238938267066
 30
0.0
 10
200.8768739828474
 20
465.1024150879277
 30
0.0
 10
201.1230678834803
 20
465.0049491678583
 30
0.0
 10
201.241351931713
 20
464.9286316811906
 30
0.0
 10
201.4366140775276
 20
464.7333695356715
 30
0.0
 10
201.5129315643537
 20
464.6150854875748
 30
0.0
 10
201.6103974847225
 20
464.3688915871625
 30
0.0
 10
201.631876223642
 20
464.2417449583284
 30
0.0
 10
201.6318762237611
 20
464.1238938282188
 30
0.0
  0
LINE
  5
8C
330
1F
100
AcDbEntity
  8
0
  6
Continuous
 62
     7
370
    25
100
AcDbLine
 10
166.6318740375
 20
465.1238938267
 30
0.0
 11
200.6318762239
 21
465.1238938267
 31
0.0
  0
SPLINE
  5
8D
330
1F
100
AcDbEntity
  8
0
  6
Continuous
 62
     7
370
    25
100
AcDbSpline
210
0.0
220
0.0
230
1.0
 70
     8
 71
     3
 72
    14
 73
    10
 74
     0
 42
0.00000001
 43
0.00000001
 40
0.0
 40
0.0
 40
0.0
 40
0.0
 40
0.25
 40
0.25
 40
0.5
 40
0.5
 40
0.75
 40
0.75
 40
1.0
 40
1.0
 40
1.0
 40
1.0
 10
165.6318740374815
 20
464.1238938251921
 30
0.0
 10
165.6318740373089
 20
464.2417449554806
 30
0.0
 10
165.6533527759686
 20
464.3688915846091
 30
0.0
 10
165.7508186960287
 20
464.6150854857354
 30
0.0
 10
165.8271361828115
 20
464.7333695342456
 30
0.0
 10
166.0223983287482
 20
464.9286316804778
 30
0.0
 10
166.1406823771403
 20
465.0049491674371
 30
0.0
 10
166.3868762781103
 20
465.102415087861
 30
0.0
 10
166.5140229072
 20
465.1238938267067
 30
0.0
 10
166.6318740374814
 20
465.1238938267055
 30
0.0
  0
LINE
  5
8E
330
1F
100
AcDbEntity
  8
0
  6
Continuous
 62
     7
370
    25
100
AcDbLine
 10
165.6318740528
 20
454.1238924117
 30
0.0
 11
165.6318740378
 21
464.1238938252
 31
0.0
  0
SPLINE
  5
8F
330
1F
100
AcDbEntity
  8
0
  6
Continuous
 62
     7
370
    25
100
AcDbSpline
210
0.0
220
0.0
230
1.0
 70
     8
 71
     3
 72
    22
 73
    18
 74
     0
 42
0.00000001
 43
0.00000001
 40
0.0
 40
0.0
 40
0.0
 40
0.0
 40
1.642405407302315
 40
1.642405407302315
 40
3.284810814604629
 40
3.284810814604629
 40
4.927216221906944
 40
4.927216221906944
 40
5.748418925558101
 40
5.748418925558101
 40
6.569621629209259
 40
6.569621629209259
 40
8.212027036511573
 40
8.212027036511573
 40
9.854432443813888
 40
9.854432443813888
 40
12.84707673440169
 40
12.84707673440169
 40
12.84707673440169
 40
12.84707673440169
 10
201.6318793213402
 20
454.1238922005148
 30
0.0
 10
201.6316095451299
 20
453.6782810468729
 30
0.0
 10
201.618928781751
 20
453.2320883377259
 30
0.0
 10
201.5392994867115
 20
452.3443693577
 30
0.0
 10
201.4736121907307
 20
451.9009999012204
 30
0.0
 10
201.2249751128664
 20
451.0458092126648
 30
0.0
 10
201.0343324412066
 20
450.6311146714726
 30
0.0
 10
200.5923183341914
 20
450.1265705299159
 30
0.0
 10
200.4220598796787
 20
449.9803916342361
 30
0.0
 10
200.0480550504693
 20
449.7371771023762
 30
0.0
 10
199.8463270198961
 20
449.6397906897045
 30
0.0
 10
199.2194693684982
 20
449.4052464739655
 30
0.0
 10
198.7787766796943
 20
449.3199615980849
 30
0.0
 10
197.8952978542479
 20
449.2047555106554
 30
0.0
 10
197.4497269434329
 20
449.1757231881786
 30
0.0
 10
196.1927395815738
 20
449.1248716925966
 30
0.0
 10
195.3804258531016
 20
449.1245616382484
 30
0.0
 10
194.5681745294626
 20
449.1243183975273
 30
0.0
  0
SPLINE
  5
90
330
1F
100
AcDbEntity
  8
0
  6
Continuous
 62
     7
370
    25
100
AcDbSpline
210
0.0
220
0.0
230
1.0
 70
     8
 71
     3
 72
    22
 73
    18
 74
     0
 42
0.00000001
 43
0.00000001
 40
39.71234552961985
 40
39.71234552961985
 40
39.71234552961985
 40
39.71234552961985
 40
42.70254058986018
 40
42.70254058986018
 40
44.3449459971625
 40
44.3449459971625
 40
45.98735140446481
 40
45.98735140446481
 40
46.80855410811597
 40
46.80855410811597
 40
47.62975681176712
 40
47.62975681176712
 40
49.27216221906944
 40
49.27216221906944
 40
50.91456762637176
 40
50.91456762637176
 40
52.55697303367407
 40
52.55697303367407
 40
52.55697303367407
 40
52.55697303367407
 10
172.6936600539127
 20
449.1243183975272
 30
0.0
 10
171.8821223629183
 20
449.1245614481419
 30
0.0
 10
171.0701544177564
 20
449.1249006951099
 30
0.0
 10
169.8140590233202
 20
449.17572397618
 30
0.0
 10
169.3685706677322
 20
449.2047471866981
 30
0.0
 10
168.4850101205924
 20
449.3199476661839
 30
0.0
 10
168.0441663023489
 20
449.405284334135
 30
0.0
 10
167.4174903124045
 20
449.6397648011198
 30
0.0
 10
167.2156692143006
 20
449.7371992784322
 30
0.0
 10
166.8417898007145
 20
449.9803179094746
 30
0.0
 10
166.6713799443503
 20
450.1266258344558
 30
0.0
 10
166.2294910047609
 20
450.6310317098259
 30
0.0
 10
166.0387912141564
 20
451.0457816494749
 30
0.0
 10
165.7901668693343
 20
451.9008851172987
 30
0.0
 10
165.7244428587551
 20
452.3444797394195
 30
0.0
 10
165.6448382945204
 20
453.2319972298868
 30
0.0
 10
165.6321462309394
 20
453.6782811255698
 30
0.0
 10
165.6318793213402
 20
454.123892200515
 30
0.0
  0
LINE
  5
91
330
1F
100
AcDbEntity
  8
0
  6
Continuous
 62
     7
370
    25
100
AcDbLine
 10
194.5681745295
 20
449.1243183975
 30
0.0
 11
172.6936600539
 21
449.1243183975
 31
0.0
  0
SPLINE
  5
92
330
1F
100
AcDbEntity
  8
0
  6
Continuous
 62
     7
370
    25
100
AcDbSpline
210
0.0
220
0.0
230
1.0
 70
    24
 71
     3
 72
    10
 73
     6
 74
     0
 42
0.00000001
 43
0.00000001
 40
0.0
 40
0.0
 40
0.0
 40
0.0
 40
0.5
 40
0.5
 40
1.0
 40
1.0
 40
1.0
 40
1.0
 10
191.1157340350167
 20
449.1243183975272
 30
0.0
 10
191.4349440698432
 20
449.1243183975272
 30
0.0
 10
191.6803402518305
 20
449.1243183975272
 30
0.0
 10
192.0091833962566
 20
449.1243183975273
 30
0.0
 10
192.0926114135113
 20
449.1243183975273
 30
0.0
 10
192.0926114135099
 20
449.1243183975272
 30
0.0
  0
SPLINE
  5
93
330
1F
100
AcDbEntity
  8
0
  6
Continuous
 62
     7
370
    25
100
AcDbSpline
210
0.0
220
0.0
230
1.0
 70
     8
 71
     3
 72
     9
 73
     5
 74
     0
 42
0.00000001
 43
0.00000001
 40
0.0
 40
0.0
 40
0.0
 40
0.0
 40
0.2232286676084823
 40
1.0
 40
1.0
 40
1.0
 40
1.0
 10
166.423376975734
 20
473.2642539128807
 30
0.0
 10
166.4151750484814
 20
473.3699144498006
 30
0.0
 10
166.3784327817268
 20
473.8432431582137
 30
0.0
 10
166.2219968103252
 20
474.3005263719151
 30
0.0
 10
166.1004818323856
 20
474.6557308631023
 30
0.0
  0
LINE
  5
94
330
1F
100
AcDbEntity
  8
0
  6
Continuous
 62
     7
370
    25
100
AcDbLine
 10
165.6314661307
 20
475.6359387092
 30
0.0
 11
165.6314661307
 21
490.7895054913
 31
0.0
  0
SPLINE
  5
95
330
1F
100
AcDbEntity
  8
0
  6
Continuous
 62
     7
370
    25
100
AcDbSpline
210
0.0
220
0.0
230
1.0
 70
     8
 71
     3
 72
    14
 73
    10
 74
     0
 42
0.00000001
 43
0.00000001
 40
0.0
 40
0.0
 40
0.0
 40
0.0
 40
0.25
 40
0.25
 40
0.5
 40
0.5
 40
0.75
 40
0.75
 40
1.0
 40
1.0
 40
1.0
 40
1.0
 10
165.6314661471332
 20
490.7895054844312
 30
0.0
 10
165.6314420864575
 20
490.8136590997051
 30
0.0
 10
165.6581963427264
 20
490.8378048735068
 30
0.0
 10
165.7612279238266
 20
490.8827807968292
 30
0.0
 10
165.8374646897903
 20
490.9035950187765
 30
0.0
 10
166.0278864508459
 20
490.9390783183254
 30
0.0
 10
166.1419964855138
 20
490.9537352051697
 30
0.0
 10
166.3908112348682
 20
490.9750100894744
 30
0.0
 10
166.5254180024554
 20
490.9816214893868
 30
0.0
 10
166.6600772692207
 20
490.9838786481838
 30
0.0
  0
LINE
  5
96
330
1F
100
AcDbEntity
  8
0
  6
Continuous
 62
     7
370
    25
100
AcDbLine
 10
166.6600772691
 20
490.9838786482
 30
0.0
 11
200.6027041325
 21
490.9840441882
 31
0.0
  0
SPLINE
  5
97
330
1F
100
AcDbEntity
  8
0
  6
Continuous
 62
     7
370
    25
100
AcDbSpline
210
0.0
220
0.0
230
1.0
 70
     8
 71
     3
 72
    14
 73
    10
 74
     0
 42
0.00000001
 43
0.00000001
 40
0.0
 40
0.0
 40
0.0
 40
0.0
 40
0.25
 40
0.25
 40
0.5
 40
0.5
 40
0.75
 40
0.75
 40
1.0
 40
1.0
 40
1.0
 40
1.0
 10
200.6027041305841
 20
490.9840441870158
 30
0.0
 10
200.7373687942269
 20
490.9817506349135
 30
0.0
 10
200.8719833651297
 20
490.9751024875709
 30
0.0
 10
201.1208157672927
 20
490.9537532070125
 30
0.0
 10
201.2349356288559
 20
490.939058671476
 30
0.0
 10
201.4253762150138
 20
490.9034992111998
 30
0.0
 10
201.5016219597974
 20
490.8826464789374
 30
0.0
 10
201.6046683766821
 20
490.837592915519
 30
0.0
 10
201.6314284775949
 20
490.8134080148357
 30
0.0
 10
201.6314080896728
 20
490.7892151522253
 30
0.0
  0
SPLINE
  5
98
330
1F
100
AcDbEntity
  8
0
  6
Continuous
 62
     7
370
    25
100
AcDbSpline
210
0.0
220
0.0
230
1.0
 70
    24
 71
     3
 72
    17
 73
    13
 74
     0
 42
0.00000001
 43
0.00000001
 40
0.0
 40
0.0
 40
0.0
 40
0.0
 40
0.0125608246447144
 40
0.0445525619353226
 40
0.0959752278017524
 40
0.1668288250680362
 40
0.2571133547348524
 40
0.3668288172712101
 40
0.4959752129344206
 40
0.6445525418808433
 40
0.8125608042125856
 40
1.0
 40
1.0
 40
1.0
 40
1.0
 10
201.6314081014274
 20
490.7892151475546
 30
0.0
 10
201.6314081014274
 20
490.7249167860772
 30
0.0
 10
201.6314081014274
 20
490.496853994574
 30
0.0
 10
201.6314081014275
 20
490.0119518830343
 30
0.0
 10
201.6314081014275
 20
489.2309511074806
 30
0.0
 10
201.6314081014275
 20
488.1569943131929
 30
0.0
 10
201.6314081014276
 20
486.7886823538488
 30
0.0
 10
201.6314081014276
 20
485.1266137810753
 30
0.0
 10
201.6314081014276
 20
483.1705786001569
 30
0.0
 10
201.6314081014277
 20
480.9206602808249
 30
0.0
 10
201.6314081014277
 20
478.3768185058375
 30
0.0
 10
201.6314081014278
 20
476.5830881430353
 30
0.0
 10
201.6314081014278
 20
475.6371948218614
 30
0.0
  0
LINE
  5
99
330
1F
100
AcDbEntity
  8
0
  6
Continuous
 62
     7
370
    25
100
AcDbLine
 10
200.6186699953
 20
468.9207267785
 30
0.0
 11
200.6315038637
 21
468.9789474117
 31
0.0
  0
SPLINE
  5
9A
330
1F
100
AcDbEntity
  8
0
  6
Continuous
 62
     7
370
    25
100
AcDbSpline
210
0.0
220
0.0
230
1.0
 70
     8
 71
     3
 72
    12
 73
     8
 74
     0
 42
0.00000001
 43
0.00000001
 40
0.0
 40
0.0
 40
0.0
 40
0.0
 40
0.249999999999999
 40
0.249999999999999
 40
0.499999999999998
 40
0.499999999999998
 40
1.0
 40
1.0
 40
1.0
 40
1.0
 10
200.2566350689206
 20
468.8968230144382
 30
0.0
 10
200.3094472253664
 20
468.8988095079296
 30
0.0
 10
200.3528280744384
 20
468.9007982868561
 30
0.0
 10
200.432398746175
 20
468.9047775872697
 30
0.0
 10
200.4678610599438
 20
468.9067682850498
 30
0.0
 10
200.5591136246075
 20
468.9127440458179
 30
0.0
 10
200.5978775696329
 20
468.9167332346939
 30
0.0
 10
200.6186699654852
 20
468.9207267785131
 30
0.0
  0
SPLINE
  5
9B
330
1F
100
AcDbEntity
  8
0
  6
Continuous
 62
     7
370
    25
100
AcDbSpline
210
0.0
220
0.0
230
1.0
 70
     8
 71
     3
 72
    14
 73
    10
 74
     0
 42
0.00000001
 43
0.00000001
 40
0.0
 40
0.0
 40
0.0
 40
0.0
 40
0.25
 40
0.25
 40
0.5
 40
0.5
 40
0.75
 40
0.75
 40
1.0
 40
1.0
 40
1.0
 40
1.0
 10
198.5985349073636
 20
468.8697998056452
 30
0.0
 10
198.822688987556
 20
468.8719673324896
 30
0.0
 10
199.0140428736968
 20
468.8741670598843
 30
0.0
 10
199.367506988625
 20
468.8785952237063
 30
0.0
 10
199.5254198291871
 20
468.8808277807867
 30
0.0
 10
199.8019534415315
 20
468.8853314686896
 30
0.0
 10
199.9207478327487
 20
468.8876024290668
 30
0.0
 10
200.117615712516
 20
468.892184326276
 30
0.0
 10
200.1947742420991
 20
468.8944961613398
 30
0.0
 10
200.2566350689206
 20
468.8968230144382
 30
0.0
  0
SPLINE
  5
9C
330
1F
100
AcDbEntity
  8
0
  6
Continuous
 62
     7
370
    25
100
AcDbSpline
210
0.0
220
0.0
230
1.0
 70
     8
 71
     3
 72
    22
 73
    18
 74
     0
 42
0.00000001
 43
0.00000001
 40
0.0
 40
0.0
 40
0.0
 40
0.0
 40
0.125
 40
0.125
 40
0.25
 40
0.25
 40
0.375
 40
0.375
 40
0.5
 40
0.5
 40
0.625
 40
0.625
 40
0.75
 40
0.75
 40
0.875
 40
0.875
 40
1.0
 40
1.0
 40
1.0
 40
1.0
 10
191.4079917709476
 20
468.8474629156655
 30
0.0
 10
191.8055493725326
 20
468.8476832071162
 30
0.0
 10
192.1965659567512
 20
468.8479876362064
 30
0.0
 10
192.9621960972456
 20
468.8488074878715
 30
0.0
 10
193.3370999616128
 20
468.8493191761897
 30
0.0
 10
194.0711619403642
 20
468.8505450916915
 30
0.0
 10
194.4327525112539
 20
468.8512654751042
 30
0.0
 10
195.1214309044311
 20
468.852872926552
 30
0.0
 10
195.4499830515574
 20
468.8537608280213
 30
0.0
 10
196.0759437568922
 20
468.8557026869934
 30
0.0
 10
196.3733428123807
 20
468.8567566951641
 30
0.0
 10
196.9351597171099
 20
468.8590405656213
 30
0.0
 10
197.1965119930603
 20
468.8602592513926
 30
0.0
 10
197.6720349640959
 20
468.8627939538816
 30
0.0
 10
197.8878425519467
 20
468.864117305263
 30
0.0
 10
198.2748572502735
 20
468.8668777751973
 30
0.0
 10
198.4452009807434
 20
468.8683170960653
 30
0.0
 10
198.5985349073636
 20
468.8697998056452
 30
0.0
  0
SPLINE
  5
9D
330
1F
100
AcDbEntity
  8
0
  6
Continuous
 62
     7
370
    25
100
AcDbSpline
210
0.0
220
0.0
230
1.0
 70
     8
 71
     3
 72
    14
 73
    10
 74
     0
 42
0.00000001
 43
0.00000001
 40
0.0
 40
0.0
 40
0.0
 40
0.0
 40
0.5000000000000027
 40
0.5000000000000027
 40
0.7500000000000013
 40
0.7500000000000013
 40
0.8750000000000007
 40
0.8750000000000007
 40
1.0
 40
1.0
 40
1.0
 40
1.0
 10
183.6318358318357
 20
468.8454413122826
 30
0.0
 10
184.9333522754719
 20
468.8454403445552
 30
0.0
 10
186.2320867265991
 20
468.8456105903242
 30
0.0
 10
188.176124032446
 20
468.8461160944971
 30
0.0
 10
188.823438229303
 20
468.8463275679097
 30
0.0
 10
189.7934006680558
 20
468.8467068665688
 30
0.0
 10
190.1165957224639
 20
468.8468410390712
 30
0.0
 10
190.7625069795996
 20
468.8471388542743
 30
0.0
 10
191.0855199936535
 20
468.8472842301735
 30
0.0
 10
191.4079917709476
 20
468.8474629156655
 30
0.0
  0
SPLINE
  5
9E
330
1F
100
AcDbEntity
  8
0
  6
Continuous
 62
     7
370
    25
100
AcDbSpline
210
0.0
220
0.0
230
1.0
 70
     8
 71
     3
 72
    14
 73
    10
 74
     0
 42
0.00000001
 43
0.00000001
 40
0.0
 40
0.0
 40
0.0
 40
0.0
 40
0.1249999999999987
 40
0.1249999999999987
 40
0.2499999999999973
 40
0.2499999999999973
 40
0.4999999999999973
 40
0.4999999999999973
 40
1.0
 40
1.0
 40
1.0
 40
1.0
 10
175.8554693495268
 20
468.8474610783859
 30
0.0
 10
176.1779193326401
 20
468.8472804980191
 30
0.0
 10
176.5009864879243
 20
468.8471379361549
 30
0.0
 10
177.1469941366402
 20
468.8468450099135
 30
0.0
 10
177.4700932743199
 20
468.846704418201
 30
0.0
 10
178.4401300162172
 20
468.8463281865562
 30
0.0
 10
179.087452100689
 20
468.8461162310418
 30
0.0
 10
181.0315315463114
 20
468.845610539525
 30
0.0
 10
182.3303258260034
 20
468.8454422800052
 30
0.0
 10
183.6318358318357
 20
468.8454413122826
 30
0.0
  0
SPLINE
  5
9F
330
1F
100
AcDbEntity
  8
0
  6
Continuous
 62
     7
370
    25
100
AcDbSpline
210
0.0
220
0.0
230
1.0
 70
     8
 71
     3
 72
    22
 73
    18
 74
     0
 42
0.00000001
 43
0.00000001
 40
0.0
 40
0.0
 40
0.0
 40
0.0
 40
0.125
 40
0.125
 40
0.25
 40
0.25
 40
0.375
 40
0.375
 40
0.5
 40
0.5
 40
0.625
 40
0.625
 40
0.75
 40
0.75
 40
0.875
 40
0.875
 40
1.0
 40
1.0
 40
1.0
 40
1.0
 10
168.6661287763201
 20
468.8698006499023
 30
0.0
 10
168.8189929461376
 20
468.8683172954965
 30
0.0
 10
168.9869445383039
 20
468.866871868827
 30
0.0
 10
169.3737993730601
 20
468.8641091010366
 30
0.0
 10
169.5908301514293
 20
468.8627870527941
 30
0.0
 10
170.0682163938377
 20
468.8602518687015
 30
0.0
 10
170.3309468217018
 20
468.8590304510047
 30
0.0
 10
170.8918474560566
 20
468.8567524552911
 30
0.0
 10
171.1887089362328
 20
468.8556991974492
 30
0.0
 10
171.8141045890524
 20
468.8537581555423
 30
0.0
 10
172.1425700965984
 20
468.8528700127371
 30
0.0
 10
172.8319037173297
 20
468.85126301433
 30
0.0
 10
173.1934732292606
 20
468.8505445438294
 30
0.0
 10
173.9269863710799
 20
468.8493198714619
 30
0.0
 10
174.3015947390337
 20
468.8488072693737
 30
0.0
 10
175.0669004171925
 20
468.8479864281089
 30
0.0
 10
175.4580281191418
 20
468.8476836557993
 30
0.0
 10
175.8554693495268
 20
468.8474610783859
 30
0.0
  0
SPLINE
  5
A0
330
1F
100
AcDbEntity
  8
0
  6
Continuous
 62
     7
370
    25
100
AcDbSpline
210
0.0
220
0.0
230
1.0
 70
     8
 71
     3
 72
    14
 73
    10
 74
     0
 42
0.00000001
 43
0.00000001
 40
0.0
 40
0.0
 40
0.0
 40
0.0
 40
0.25
 40
0.25
 40
0.5
 40
0.5
 40
0.75
 40
0.75
 40
1.0
 40
1.0
 40
1.0
 40
1.0
 10
167.0043055266272
 20
468.8969638315831
 30
0.0
 10
167.0658581871703
 20
468.8946249274366
 30
0.0
 10
167.141590732684
 20
468.8922999033051
 30
0.0
 10
167.3380059280117
 20
468.8876938545613
 30
0.0
 10
167.4567842691684
 20
468.8854109659119
 30
0.0
 10
167.7345290286301
 20
468.8808845268101
 30
0.0
 10
167.8935253033109
 20
468.8786410055829
 30
0.0
 10
168.2485756124474
 20
468.874190237207
 30
0.0
 10
168.4415433332347
 20
468.8719799690123
 30
0.0
 10
168.6661287763201
 20
468.8698006499023
 30
0.0
  0
SPLINE
  5
A1
330
1F
100
AcDbEntity
  8
0
  6
Continuous
 62
     7
370
    25
100
AcDbSpline
210
0.0
220
0.0
230
1.0
 70
     8
 71
     3
 72
    12
 73
     8
 74
     0
 42
0.00000001
 43
0.00000001
 40
0.0
 40
0.0
 40
0.0
 40
0.0
 40
0.5
 40
0.5
 40
0.75
 40
0.75
 40
1.0
 40
1.0
 40
1.0
 40
1.0
 10
166.6467626228169
 20
468.9207267641753
 30
0.0
 10
166.6682183731087
 20
468.9167570950041
 30
0.0
 10
166.7052972036238
 20
468.9127911868718
 30
0.0
 10
166.7962816306473
 20
468.9068508385888
 30
0.0
 10
166.8314488329458
 20
468.9048718874308
 30
0.0
 10
166.9094492406061
 20
468.9009158305981
 30
0.0
 10
166.952332179827
 20
468.898938736896
 30
0.0
 10
167.0043055266272
 20
468.8969638315831
 30
0.0
  0
LINE
  5
A2
330
1F
100
AcDbEntity
  8
0
  6
Continuous
 62
     7
370
    25
100
AcDbLine
 10
166.6363588561
 20
468.9671224244
 30
0.0
 11
166.6467626181
 21
468.920726765
 31
0.0
  0
LINE
  5
A3
330
1F
100
AcDbEntity
  8
0
  6
Continuous
 62
     7
370
    25
100
AcDbLine
 10
201.6314081014
 20
492.7976223913
 30
0.0
 11
201.6314081014
 21
490.7794611451
 31
0.0
  0
LINE
  5
A4
330
1F
100
AcDbEntity
  8
0
  6
Continuous
 62
     7
370
    25
100
AcDbLine
 10
165.6314661307
 20
490.7794611451
 30
0.0
 11
165.6314661307
 21
492.7976223911
 31
0.0
  0
SPLINE
  5
A5
330
1F
100
AcDbEntity
  8
0
  6
Continuous
 62
     7
370
    25
100
AcDbSpline
210
0.0
220
0.0
230
1.0
 70
     8
 71
     3
 72
    11
 73
     7
 74
     0
 42
0.00000001
 43
0.00000001
 40
0.0
 40
0.0
 40
0.0
 40
0.0
 40
0.2938960606543132
 40
0.6066937600517476
 40
0.9324237895241451
 40
0.9999999999999999
 40
0.9999999999999999
 40
0.9999999999999999
 40
0.9999999999999999
 10
165.6314661288854
 20
492.7973288816291
 30
0.0
 10
165.6354286221423
 20
492.8661745306354
 30
0.0
 10
165.6436084525488
 20
493.0082935694746
 30
0.0
 10
165.7168148117816
 20
493.2148925019629
 30
0.0
 10
165.7943293040639
 20
493.3646084240726
 30
0.0
 10
165.8596231883747
 20
493.4301935157566
 30
0.0
 10
165.870841706722
 20
493.44146206812
 30
0.0
  0
SPLINE
  5
A6
330
1F
100
AcDbEntity
  8
0
  6
Continuous
 62
     7
370
    25
100
AcDbSpline
210
0.0
220
0.0
230
1.0
 70
     8
 71
     3
 72
    11
 73
     7
 74
     0
 42
0.00000001
 43
0.00000001
 40
0.0
 40
0.0
 40
0.0
 40
0.0
 40
0.2940857438333836
 40
0.6070853256989157
 40
0.9330255842826201
 40
1.0
 40
1.0
 40
1.0
 40
1.0
 10
201.6314081032979
 20
492.7973288816291
 30
0.0
 10
201.6274461450446
 20
492.8661749613943
 30
0.0
 10
201.6192674190537
 20
493.0082948894553
 30
0.0
 10
201.5460522454778
 20
493.2148867250661
 30
0.0
 10
201.4686343599163
 20
493.3644866623178
 30
0.0
 10
201.4034573038564
 20
493.4299720505308
 30
0.0
 10
201.392347524728
 20
493.4411343865299
 30
0.0
  0
SPLINE
  5
A7
330
1F
100
AcDbEntity
  8
0
  6
Continuous
 62
     7
370
    25
100
AcDbSpline
210
0.0
220
0.0
230
1.0
 70
     8
 71
     3
 72
    16
 73
    12
 74
     0
 42
0.00000001
 43
0.00000001
 40
0.0
 40
0.0
 40
0.0
 40
0.0
 40
0.0001358551756093
 40
0.001179227746137
 40
0.0026686736325275
 40
0.0054891262411728
 40
0.0157218010443409
 40
0.056218816717775
 40
0.2176756894413253
 40
0.8649640078040923
 40
1.0
 40
1.0
 40
1.0
 40
1.0
 10
172.6936599983061
 20
449.1243183975296
 30
0.0
 10
172.6936616324238
 20
449.12431839704
 30
0.0
 10
172.6936758166235
 20
449.1243183927897
 30
0.0
 10
172.6941877809429
 20
449.1243182394534
 30
0.0
 10
172.6966270006177
 20
449.1243175091261
 30
0.0
 10
172.7061600744415
 20
449.1243146567973
 30
0.0
 10
172.7482592939008
 20
449.1243020676494
 30
0.0
 10
172.9207954894254
 20
449.124247112096
 30
0.0
 10
173.6176225877006
 20
449.1237514268107
 30
0.0
 10
174.4083753931977
 20
449.1239104669177
 30
0.0
 10
175.0586041216488
 20
449.1239001836731
 30
0.0
 10
175.1708392654577
 20
449.1238984086955
 30
0.0
  0
SPLINE
  5
A8
330
1F
100
AcDbEntity
  8
0
  6
Continuous
 62
     7
370
    25
100
AcDbSpline
210
0.0
220
0.0
230
1.0
 70
     8
 71
     3
 72
     9
 73
     5
 74
     0
 42
0.00000001
 43
0.00000001
 40
0.0
 40
0.0
 40
0.0
 40
0.0
 40
0.2128619803338122
 40
0.9999999999999999
 40
0.9999999999999999
 40
0.9999999999999999
 40
0.9999999999999999
 10
176.7327213763636
 20
449.1238933512568
 30
0.0
 10
176.9951878419804
 20
449.123892411237
 30
0.0
 10
178.2282237519406
 20
449.123887995137
 30
0.0
 10
179.461259948271
 20
449.1238895473948
 30
0.0
 10
180.4318296180273
 20
449.1238907692359
 30
0.0
  0
SPLINE
  5
A9
330
1F
100
AcDbEntity
  8
0
  6
Continuous
 62
     7
370
    25
100
AcDbSpline
210
0.0
220
0.0
230
1.0
 70
     8
 71
     3
 72
    10
 73
     6
 74
     0
 42
0.00000001
 43
0.00000001
 40
0.0
 40
0.0
 40
0.0
 40
0.0
 40
0.3858298325519793
 40
0.9480584785636719
 40
0.9999999999999999
 40
0.9999999999999999
 40
0.9999999999999999
 40
0.9999999999999999
 10
186.8318296180273
 20
449.123890698044
 30
0.0
 10
187.3091767473847
 20
449.1238913965104
 30
0.0
 10
188.482110914274
 20
449.1238931127772
 30
0.0
 10
189.7193113433433
 20
449.1238814768798
 30
0.0
 10
190.4791569604278
 20
449.1238952553124
 30
0.0
 10
190.5434185274983
 20
449.1238964205803
 30
0.0
  0
SPLINE
  5
AA
330
1F
100
AcDbEntity
  8
0
  6
Continuous
 62
     7
370
    25
100
AcDbSpline
210
0.0
220
0.0
230
1.0
 70
     8
 71
     3
 72
    24
 73
    20
 74
     0
 42
0.00000001
 43
0.00000001
 40
0.0
 40
0.0
 40
0.0
 40
0.0
 40
0.2359003116434662
 40
0.4861601509801185
 40
0.6540465345729932
 40
0.7670022886255102
 40
0.8432102819274225
 40
0.8948025299775272
 40
0.9298814042979803
 40
0.953002192671635
 40
0.968320410558211
 40
0.9785653691915901
 40
0.9854814592480726
 40
0.9902012811345462
 40
0.994461706741118
 40
0.9969151333482184
 40
0.9984441104725027
 40
0.9995751849525165
 40
0.9999999999999999
 40
0.9999999999999999
 40
0.9999999999999999
 40
0.9999999999999999
 10
192.0928169745842
 20
449.1239044567939
 30
0.0
 10
192.2889202008845
 20
449.1238976653051
 30
0.0
 10
192.6930636860783
 20
449.1238836689217
 30
0.0
 10
193.2368026821647
 20
449.1238564630103
 30
0.0
 10
193.6782891818347
 20
449.1239234848078
 30
0.0
 10
193.974573856949
 20
449.1240237606852
 30
0.0
 10
194.1736737582943
 20
449.1241200063866
 30
0.0
 10
194.3071093069649
 20
449.1242043630932
 30
0.0
 10
194.3958643185061
 20
449.1242587028759
 30
0.0
 10
194.4556762875361
 20
449.1242823497183
 30
0.0
 10
194.4951247725675
 20
449.1242959721835
 30
0.0
 10
194.5212292157707
 20
449.124304214086
 30
0.0
 10
194.5385573309376
 20
449.1243095078843
 30
0.0
 10
194.5508215433001
 20
449.1243132014006
 30
0.0
 10
194.5592549644941
 20
449.1243157275644
 30
0.0
 10
194.564658720918
 20
449.1243173448685
 30
0.0
 10
194.5672324878242
 20
449.1243181154177
 30
0.0
 10
194.5681026957168
 20
449.1243183760149
 30
0.0
 10
194.5681591249175
 20
449.1243183929134
 30
0.0
 10
194.5681745321641
 20
449.1243183975272
 30
0.0
  0
SPLINE
  5
AB
330
1F
100
AcDbEntity
  8
0
  6
Continuous
 62
     7
370
    25
100
AcDbSpline
210
0.0
220
0.0
230
1.0
 70
     8
 71
     3
 72
    38
 73
    34
 74
     0
 42
0.00000001
 43
0.00000001
 40
0.0
 40
0.0
 40
0.0
 40
0.0
 40
0.0625
 40
0.0625
 40
0.1249999999999999
 40
0.1249999999999999
 40
0.1874999999999999
 40
0.1874999999999999
 40
0.2499999999999999
 40
0.2499999999999999
 40
0.3124999999999999
 40
0.3124999999999999
 40
0.3749999999999999
 40
0.3749999999999999
 40
0.4375
 40
0.4375
 40
0.5
 40
0.5
 40
0.5625
 40
0.5625
 40
0.625
 40
0.625
 40
0.6875
 40
0.6875
 40
0.7499999999999999
 40
0.7499999999999999
 40
0.8124999999999999
 40
0.8124999999999999
 40
0.8749999999999999
 40
0.8749999999999999
 40
0.9374999999999999
 40
0.9374999999999999
 40
1.0
 40
1.0
 40
1.0
 40
1.0
 10
165.6318793213405
 20
454.1238922004999
 30
0.0
 10
165.6318793213405
 20
454.1238922004999
 30
0.0
 10
165.631879321145
 20
454.1243986995705
 30
0.0
 10
165.6318793095682
 20
454.1154877864387
 30
0.0
 10
165.6318792982076
 20
454.1059842445508
 30
0.0
 10
165.6318792578691
 20
454.0553384373603
 30
0.0
 10
165.6318792289119
 20
454.0141100423722
 30
0.0
 10
165.6318791506531
 20
453.8702779640472
 30
0.0
 10
165.6318791013722
 20
453.7675881510248
 30
0.0
 10
165.6318789828264
 20
453.4656588094691
 30
0.0
 10
165.6318789135821
 20
453.2663331512502
 30
0.0
 10
165.6318787579392
 20
452.7331037204751
 30
0.0
 10
165.6318786715613
 20
452.3991138182336
 30
0.0
 10
165.6318784863335
 20
451.5582574194868
 30
0.0
 10
165.6318783875041
 20
451.0513047932964
 30
0.0
 10
165.6318781832905
 20
449.82853827619
 30
0.0
 10
165.6318780779267
 20
449.1126382555888
 30
0.0
 10
165.6318778671786
 20
447.4408899792274
 30
0.0
 10
165.6318777618148
 20
446.484955593782
 30
0.0
 10
165.6318775576011
 20
444.3095332078914
 30
0.0
 10
165.6318774587718
 20
443.0899590777607
 30
0.0
 10
165.6318772735439
 20
440.3737173038157
 30
0.0
 10
165.631877187166
 20
438.8769635303158
 30
0.0
 10
165.6318770315231
 20
435.605471942669
 30
0.0
 10
165.6318769622788
 20
433.8306479988366
 30
0.0
 10
165.631876843733
 20
430.0173588058465
 30
0.0
 10
165.6318767944521
 20
427.9788074270033
 30
0.0
 10
165.6318767161933
 20
423.6702232521624
 30
0.0
 10
165.631876687236
 20
421.4001043264793
 30
0.0
 10
165.6318766468975
 20
416.6809459895428
 30
0.0
 10
165.6318766355368
 20
414.2318204486041
 30
0.0
 10
165.6318766239601
 20
409.230194746718
 30
0.0
 10
165.6318766237646
 20
406.6776084560852
 30
0.0
 10
165.6318766237645
 20
404.1238922004999
 30
0.0
  0
SPLINE
  5
AC
330
1F
100
AcDbEntity
  8
0
  6
Continuous
 62
     7
370
    25
100
AcDbSpline
210
0.0
220
0.0
230
1.0
 70
     8
 71
     3
 72
    38
 73
    34
 74
     0
 42
0.00000001
 43
0.00000001
 40
0.0
 40
0.0
 40
0.0
 40
0.0
 40
0.0625
 40
0.0625
 40
0.1250000000000001
 40
0.1250000000000001
 40
0.1875000000000001
 40
0.1875000000000001
 40
0.2500000000000001
 40
0.2500000000000001
 40
0.3125000000000001
 40
0.3125000000000001
 40
0.3750000000000002
 40
0.3750000000000002
 40
0.4375000000000002
 40
0.4375000000000002
 40
0.5000000000000002
 40
0.5000000000000002
 40
0.5625000000000002
 40
0.5625000000000002
 40
0.6250000000000001
 40
0.6250000000000001
 40
0.6875000000000001
 40
0.6875000000000001
 40
0.75
 40
0.75
 40
0.8125
 40
0.8125
 40
0.875
 40
0.875
 40
0.9375
 40
0.9375
 40
1.0
 40
1.0
 40
1.0
 40
1.0
 10
201.6318766237646
 20
404.1238922004997
 30
0.0
 10
201.6318766237646
 20
406.6776084560851
 30
0.0
 10
201.6318766239601
 20
409.2301947467178
 30
0.0
 10
201.6318766355368
 20
414.2318204486039
 30
0.0
 10
201.6318766468975
 20
416.6809459895427
 30
0.0
 10
201.631876687236
 20
421.4001043264791
 30
0.0
 10
201.6318767161933
 20
423.6702232521623
 30
0.0
 10
201.6318767944521
 20
427.9788074270032
 30
0.0
 10
201.631876843733
 20
430.0173588058464
 30
0.0
 10
201.6318769622788
 20
433.8306479988365
 30
0.0
 10
201.6318770315231
 20
435.6054719426689
 30
0.0
 10
201.631877187166
 20
438.8769635303157
 30
0.0
 10
201.6318772735439
 20
440.3737173038156
 30
0.0
 10
201.6318774587718
 20
443.0899590777606
 30
0.0
 10
201.6318775576011
 20
444.3095332078912
 30
0.0
 10
201.6318777618149
 20
446.4849555937818
 30
0.0
 10
201.6318778671787
 20
447.4408899792273
 30
0.0
 10
201.6318780779267
 20
449.1126382555886
 30
0.0
 10
201.6318781832905
 20
449.8285382761899
 30
0.0
 10
201.6318783875042
 20
451.0513047932963
 30
0.0
 10
201.6318784863335
 20
451.5582574194867
 30
0.0
 10
201.6318786715613
 20
452.3991138182334
 30
0.0
 10
201.6318787579393
 20
452.733103720475
 30
0.0
 10
201.6318789135821
 20
453.2663331512501
 30
0.0
 10
201.6318789828265
 20
453.4656588094689
 30
0.0
 10
201.6318791013722
 20
453.7675881510247
 30
0.0
 10
201.6318791506531
 20
453.870277964047
 30
0.0
 10
201.6318792289119
 20
454.014110042372
 30
0.0
 10
201.6318792578692
 20
454.0553384373602
 30
0.0
 10
201.6318792982077
 20
454.1059842445507
 30
0.0
 10
201.6318793095683
 20
454.1154877864386
 30
0.0
 10
201.631879321145
 20
454.1243986995703
 30
0.0
 10
201.6318793213405
 20
454.1238922004998
 30
0.0
 10
201.6318793213405
 20
454.1238922004998
 30
0.0
  0
LINE
  5
AD
330
1F
100
AcDbEntity
  8
0
  6
Continuous
 62
     7
370
    25
100
AcDbLine
 10
160.5318296278
 20
339.0555519124
 30
0.0
 11
206.7318296278
 21
339.0555519124
 31
0.0
  0
LINE
  5
AE
330
1F
100
AcDbEntity
  8
0
  6
Continuous
 62
     7
370
    25
100
AcDbLine
 10
160.5318296278
 20
344.0555519131
 30
0.0
 11
206.7318296278
 21
344.0555519131
 31
0.0
  0
LINE
  5
AF
330
1F
100
AcDbEntity
  8
0
  6
Continuous
 62
     7
370
    25
100
AcDbLine
 10
207.7318296278
 20
343.0555519131
 30
0.0
 11
207.7318296278
 21
339.0555519124
 31
0.0
  0
LINE
  5
B0
330
1F
100
AcDbEntity
  8
0
  6
Continuous
 62
     7
370
    25
100
AcDbLine
 10
206.7318296278
 20
339.0555519124
 30
0.0
 11
207.7318296278
 21
339.0555519124
 31
0.0
  0
ARC
  5
B1
330
1F
100
AcDbEntity
  8
0
  6
Continuous
 62
     7
370
    25
100
AcDbCircle
 10
206.7318296278
 20
343.0555519131
 30
0.0
 40
1.0
100
AcDbArc
 50
0.0
 51
90.0
  0
LINE
  5
B2
330
1F
100
AcDbEntity
  8
0
  6
Continuous
 62
     7
370
    25
100
AcDbLine
 10
159.5318296278
 20
339.0555519124
 30
0.0
 11
159.5318296278
 21
343.0555519131
 31
0.0
  0
LINE
  5
B3
330
1F
100
AcDbEntity
  8
0
  6
Continuous
 62
     7
370
    25
100
AcDbLine
 10
159.5318296278
 20
339.0555519124
 30
0.0
 11
160.5318296278
 21
339.0555519124
 31
0.0
  0
ARC
  5
B4
330
1F
100
AcDbEntity
  8
0
  6
Continuous
 62
     7
370
    25
100
AcDbCircle
 10
160.5318296278
 20
343.0555519131
 30
0.0
 40
1.0
100
AcDbArc
 50
90.0
 51
180.0
  0
SPLINE
  5
B5
330
1F
100
AcDbEntity
  8
0
  6
Continuous
 62
     7
370
    25
100
AcDbSpline
210
0.0
220
0.0
230
1.0
 70
     8
 71
     3
 72
    10
 73
     6
 74
     0
 42
0.00000001
 43
0.00000001
 40
0.0
 40
0.0
 40
0.0
 40
0.0
 40
0.140237219944185
 40
0.4411018757567702
 40
1.0
 40
1.0
 40
1.0
 40
1.0
 10
164.5203879001451
 20
345.9545958712356
 30
0.0
 10
164.6224494857261
 20
346.0737088681768
 30
0.0
 10
164.943473796251
 20
346.4483666544525
 30
0.0
 10
165.4523314922234
 20
347.4674862108503
 30
0.0
 10
165.5611171871426
 20
348.4299148614734
 30
0.0
 10
165.6318345085308
 20
349.0555520488803
 30
0.0
  0
ARC
  5
B6
330
1F
100
AcDbEntity
  8
0
  6
Continuous
 62
     7
370
    25
100
AcDbCircle
 10
206.6318386563
 20
349.0555519139
 30
0.0
 40
5.000000000935103
100
AcDbArc
 50
179.9999996668
 51
269.9999999906
  0
LINE
  5
B7
330
1F
100
AcDbEntity
  8
0
  6
Continuous
 62
     7
370
    25
100
AcDbLine
 10
201.6318386555
 20
360.0555519055
 30
0.0
 11
201.6318386117
 21
389.123892855
 31
0.0
  0
LINE
  5
B8
330
1F
100
AcDbEntity
  8
0
  6
Continuous
 62
     7
370
    25
100
AcDbLine
 10
165.6318345085
 20
360.0555520489
 30
0.0
 11
165.6318337189
 21
389.123892855
 31
0.0
  0
LINE
  5
B9
330
1F
100
AcDbEntity
  8
0
  6
Continuous
 62
     7
370
    25
100
AcDbLine
 10
201.6318377627
 20
360.0555519055
 30
0.0
 11
201.6318377627
 21
349.055551943
 31
0.0
  0
LINE
  5
BA
330
1F
100
AcDbEntity
  8
0
  6
Continuous
 62
     7
370
    25
100
AcDbLine
 10
165.6318741509
 20
389.123892855
 30
0.0
 11
165.6318741283
 21
404.1238928271
 31
0.0
  0
LINE
  5
BB
330
1F
100
AcDbEntity
  8
0
  6
Continuous
 62
     7
370
    25
100
AcDbLine
 10
201.6318763372
 20
389.123892855
 30
0.0
 11
201.6318763146
 21
404.1238928271
 31
0.0
  0
SPLINE
  5
BC
330
1F
100
AcDbEntity
  8
0
  6
Continuous
 62
     7
370
    25
100
AcDbSpline
210
0.0
220
0.0
230
1.0
 70
     8
 71
     3
 72
    11
 73
     7
 74
     0
 42
0.00000001
 43
0.00000001
 40
0.0
 40
0.0
 40
0.0
 40
0.0
 40
0.2838371913768796
 40
0.5737887902893581
 40
0.8282849467280157
 40
1.0
 40
1.0
 40
1.0
 40
1.0
 10
201.0493348809819
 20
473.4517512847976
 30
0.0
 10
201.141337346665
 20
473.5041138086856
 30
0.0
 10
201.327324190855
 20
473.6099668475082
 30
0.0
 10
201.514402464542
 20
473.7513626772352
 30
0.0
 10
201.616628930846
 20
473.8522940161732
 30
0.0
 10
201.6271636591895
 20
473.8874206171168
 30
0.0
 10
201.6314079667006
 20
473.9015726760371
 30
0.0
  0
SPLINE
  5
BD
330
1F
100
AcDbEntity
  8
0
  6
Continuous
 62
     7
370
    25
100
AcDbSpline
210
0.0
220
0.0
230
1.0
 70
    24
 71
     3
 72
    14
 73
    10
 74
     0
 42
0.00000001
 43
0.00000001
 40
0.0000000000000009
 40
0.0000000000000009
 40
0.0000000000000009
 40
0.0000000000000009
 40
0.0027220924773576
 40
0.0027220924773576
 40
0.0027220924773576
 40
0.0054441839602498
 40
0.0054441839602498
 40
0.0054441839602498
 40
0.0104862958462568
 40
0.0104862958462568
 40
0.0104862958462568
 40
0.0104862958462568
 10
201.6314081014278
 20
475.6372008185909
 30
0.0
 10
201.6314081014278
 20
475.4875728152266
 30
0.0
 10
201.6314081014278
 20
475.3368889445622
 30
0.0
 10
201.6314081014278
 20
475.1861859004384
 30
0.0
 10
201.6314081014278
 20
475.0354829013193
 30
0.0
 10
201.6314081014278
 20
474.8847894023561
 30
0.0
 10
201.6314081014278
 20
474.734562739384
 30
0.0
 10
201.6314081014278
 20
474.4562988954762
 30
0.0
 10
201.6314081014278
 20
474.178542588421
 30
0.0
 10
201.6314081014278
 20
473.9015819950441
 30
0.0
  0
SPLINE
  5
BE
330
1F
100
AcDbEntity
  8
0
  6
Continuous
 62
     7
370
    25
100
AcDbSpline
210
0.0
220
0.0
230
1.0
 70
     8
 71
     3
 72
    12
 73
     8
 74
     0
 42
0.00000001
 43
0.00000001
 40
0.0
 40
0.0
 40
0.0
 40
0.0
 40
0.5000000000000078
 40
0.5000000000000078
 40
0.7500000000000039
 40
0.7500000000000039
 40
1.0
 40
1.0
 40
1.0
 40
1.0
 10
166.3943446547517
 20
473.3550804469865
 30
0.0
 10
166.1839267388517
 20
473.4609015817278
 30
0.0
 10
165.9922115986023
 20
473.5735697568414
 30
0.0
 10
165.7862069742154
 20
473.7233243591588
 30
0.0
 10
165.7305306792786
 20
473.7698028117923
 30
0.0
 10
165.6527199427222
 20
473.8491600223925
 30
0.0
 10
165.6314674307744
 20
473.8812786180537
 30
0.0
 10
165.6314661307886
 20
473.9015442189644
 30
0.0
  0
SPLINE
  5
BF
330
1F
100
AcDbEntity
  8
0
  6
Continuous
 62
     7
370
    25
100
AcDbSpline
210
0.0
220
0.0
230
1.0
 70
    24
 71
     3
 72
    14
 73
    10
 74
     0
 42
0.00000001
 43
0.00000001
 40
0.0
 40
0.0
 40
0.0
 40
0.0
 40
0.0026283545570111
 40
0.0026283545570111
 40
0.0026283545570111
 40
0.0052567090778632
 40
0.0052567090778632
 40
0.0052567090778632
 40
0.0104863578434055
 40
0.0104863578434055
 40
0.0104863578434055
 40
0.0104863578434055
 10
165.6314661307479
 20
473.901544220633
 30
0.0
 10
165.6314661307479
 20
474.0459454809885
 30
0.0
 10
165.6314661307478
 20
474.1905485811057
 30
0.0
 10
165.6314661307478
 20
474.33536395624
 30
0.0
 10
165.6314661307478
 20
474.480179330448
 30
0.0
 10
165.6314661307478
 20
474.625204655261
 30
0.0
 10
165.6314661307478
 20
474.7703517417062
 30
0.0
 10
165.6314661307477
 20
475.0591515446924
 30
0.0
 10
165.6314661307477
 20
475.350293501994
 30
0.0
 10
165.6314661307477
 20
475.6380818111413
 30
0.0
  0
LINE
  5
C0
330
1F
100
AcDbEntity
  8
0
  6
Continuous
 62
     7
370
    25
100
AcDbLine
 10
165.6318334093
 20
389.123892855
 30
0.0
 11
165.6318341989
 21
360.0555520489
 31
0.0
  0
LINE
  5
C1
330
1F
100
AcDbEntity
  8
0
  6
Continuous
 62
     7
370
    25
100
AcDbLine
 10
165.6318337189
 20
389.123892855
 30
0.0
 11
165.6318334093
 21
389.123892855
 31
0.0
  0
LINE
  5
C2
330
1F
100
AcDbEntity
  8
0
  6
Continuous
 62
     7
370
    25
100
AcDbLine
 10
165.6318341325
 20
360.0555520489
 30
0.0
 11
165.6318341325
 21
349.0555520863
 31
0.0
  0
LINE
  5
C3
330
1F
100
AcDbEntity
  8
0
  6
Continuous
 62
     8
370
    18
100
AcDbLine
 10
200.6318762391
 20
454.1238924102
 30
0.0
 11
200.631876224
 21
464.1238938267
 31
0.0
  0
SPLINE
  5
C4
330
1F
100
AcDbEntity
  8
0
  6
Continuous
 62
     8
370
    18
100
AcDbSpline
210
0.0
220
0.0
230
1.0
 70
    24
 71
     3
 72
    10
 73
     6
 74
     0
 42
0.00000001
 43
0.00000001
 40
0.0
 40
0.0
 40
0.0
 40
0.0
 40
0.5
 40
0.5
 40
1.0
 40
1.0
 40
1.0
 40
1.0
 10
200.6318762241403
 20
464.1238938267054
 30
0.0
 10
200.8936756119223
 20
464.1238938271013
 30
0.0
 10
201.1538628828588
 20
464.1238938274947
 30
0.0
 10
201.5241031276622
 20
464.1238938280546
 30
0.0
 10
201.6318762240378
 20
464.1238938282176
 30
0.0
 10
201.6318762240378
 20
464.1238938282176
 30
0.0
  0
SPLINE
  5
C5
330
1F
100
AcDbEntity
  8
0
  6
Continuous
 62
     8
370
    18
100
AcDbSpline
210
0.0
220
0.0
230
1.0
 70
     8
 71
     3
 72
    20
 73
    16
 74
     0
 42
0.00000001
 43
0.00000001
 40
0.0
 40
0.0
 40
0.0
 40
0.0
 40
0.0602271756808131
 40
0.121109874031512
 40
0.1826480791035844
 40
0.2448417747661474
 40
0.307690944705718
 40
0.3711955724254757
 40
0.4353556412449697
 40
0.5001711342995796
 40
0.580709848927398
 40
0.6709676515600425
 40
0.7709392673129832
 40
0.8806188535002034
 40
1.0
 40
1.0
 40
1.0
 40
1.0
 10
201.6318793213402
 20
454.1238922005148
 30
0.0
 10
201.6310173910668
 20
454.123892176326
 30
0.0
 10
201.6292841491267
 20
454.123892127685
 30
0.0
 10
201.6151897115694
 20
454.1238918981139
 30
0.0
 10
201.5924764088929
 20
454.1238917183309
 30
0.0
 10
201.5602345111381
 20
454.1238916449619
 30
0.0
 10
201.5187125353847
 20
454.1238917128446
 30
0.0
 10
201.4679767665021
 20
454.123891915362
 30
0.0
 10
201.4082804904513
 20
454.1238921245076
 30
0.0
 10
201.3346892801038
 20
454.1238924316678
 30
0.0
 10
201.2419366479265
 20
454.123891576607
 30
0.0
 10
201.1236687557391
 20
454.1238903912744
 30
0.0
 10
200.9810194322869
 20
454.1238902889913
 30
0.0
 10
200.8144625124893
 20
454.123891631461
 30
0.0
 10
200.6944347953522
 20
454.1238921421972
 30
0.0
 10
200.6318791302432
 20
454.123892408381
 30
0.0
  0
SPLINE
  5
C6
330
1F
100
AcDbEntity
  8
0
  6
Continuous
 62
     8
370
    18
100
AcDbSpline
210
0.0
220
0.0
230
1.0
 70
    24
 71
     3
 72
    10
 73
     6
 74
     0
 42
0.00000001
 43
0.00000001
 40
0.0
 40
0.0
 40
0.0
 40
0.0
 40
0.5
 40
0.5
 40
1.0
 40
1.0
 40
1.0
 40
1.0
 10
200.6318762239353
 20
464.1238938267054
 30
0.0
 10
200.6318762239353
 20
464.3856932145045
 30
0.0
 10
200.6318762239353
 20
464.6458804854686
 30
0.0
 10
200.6318762239353
 20
465.0161207303152
 30
0.0
 10
200.6318762239353
 20
465.1238938267054
 30
0.0
 10
200.6318762239353
 20
465.1238938267054
 30
0.0
  0
SPLINE
  5
C7
330
1F
100
AcDbEntity
  8
0
  6
Continuous
 62
     8
370
    18
100
AcDbSpline
210
0.0
220
0.0
230
1.0
 70
     8
 71
     3
 72
    28
 73
    24
 74
     0
 42
0.00000001
 43
0.00000001
 40
0.0
 40
0.0
 40
0.0
 40
0.0
 40
0.2499999999999972
 40
0.2499999999999972
 40
0.3749999999999958
 40
0.3749999999999958
 40
0.4374999999999951
 40
0.4374999999999951
 40
0.4999999999999944
 40
0.4999999999999944
 40
0.5624999999999938
 40
0.5624999999999938
 40
0.6249999999999931
 40
0.6249999999999931
 40
0.6562499999999926
 40
0.6562499999999926
 40
0.6874999999999921
 40
0.6874999999999921
 40
0.7499999999999956
 40
0.7499999999999956
 40
0.8749999999999978
 40
0.8749999999999978
 40
1.0
 40
1.0
 40
1.0
 40
1.0
 10
194.5678750646256
 20
450.1243183526877
 30
0.0
 10
195.3051662242897
 20
450.1245391454745
 30
0.0
 10
196.0424636145989
 20
450.1246407284074
 30
0.0
 10
197.1464331002333
 20
450.1626110451878
 30
0.0
 10
197.5141286546995
 20
450.1808981124526
 30
0.0
 10
198.0642884984804
 20
450.2347987482091
 30
0.0
 10
198.2474528913435
 20
450.2570173566996
 30
0.0
 10
198.6130869477898
 20
450.3147467087309
 30
0.0
 10
198.7965368625927
 20
450.3508359795245
 30
0.0
 10
199.1546599423458
 20
450.4472724822944
 30
0.0
 10
199.3300614234882
 20
450.5063237553888
 30
0.0
 10
199.6652003414519
 20
450.6707886538001
 30
0.0
 10
199.8195228128994
 20
450.775909244705
 30
0.0
 10
200.0123165866055
 20
450.9779442412462
 30
0.0
 10
200.0700287468034
 20
451.0531440848614
 30
0.0
 10
200.1700402885296
 20
451.209657124409
 30
0.0
 10
200.2134173639155
 20
451.2917222353008
 30
0.0
 10
200.3289451027365
 20
451.5463081649399
 30
0.0
 10
200.3853821920489
 20
451.7253989014345
 30
0.0
 10
200.5205495791036
 20
452.2675697246538
 30
0.0
 10
200.5656869951181
 20
452.6393627543061
 30
0.0
 10
200.6224960819819
 20
453.3799032087454
 30
0.0
 10
200.6316439261253
 20
453.7515737521442
 30
0.0
 10
200.6318791302432
 20
454.1238924083808
 30
0.0
  0
LINE
  5
C8
330
1F
100
AcDbEntity
  8
0
  6
Continuous
 62
     8
370
    18
100
AcDbLine
 10
172.6936600539
 20
450.1243184424
 30
0.0
 11
194.5678750646
 21
450.1243183975
 31
0.0
  0
SPLINE
  5
C9
330
1F
100
AcDbEntity
  8
0
  6
Continuous
 62
     8
370
    18
100
AcDbSpline
210
0.0
220
0.0
230
1.0
 70
     8
 71
     3
 72
    26
 73
    22
 74
     0
 42
0.00000001
 43
0.00000001
 40
0.0
 40
0.0
 40
0.0
 40
0.0
 40
0.1250000000000013
 40
0.1250000000000013
 40
0.2500000000000027
 40
0.2500000000000027
 40
0.3125000000000033
 40
0.3125000000000033
 40
0.375000000000004
 40
0.375000000000004
 40
0.4375000000000047
 40
0.4375000000000047
 40
0.5000000000000053
 40
0.5000000000000053
 40
0.562500000000006
 40
0.562500000000006
 40
0.6250000000000067
 40
0.6250000000000067
 40
0.7500000000000052
 40
0.7500000000000052
 40
1.0
 40
1.0
 40
1.0
 40
1.0
 10
166.6318795084003
 20
454.1238924166352
 30
0.0
 10
166.6321105872098
 20
453.754193402774
 30
0.0
 10
166.641127724724
 20
453.3849866891933
 30
0.0
 10
166.6971013966067
 20
452.6486990816206
 30
0.0
 10
166.7417588255713
 20
452.2793609356248
 30
0.0
 10
166.8730410461823
 20
451.7439893196097
 30
0.0
 10
166.9270581465408
 20
451.5682477122782
 30
0.0
 10
167.0773441158476
 20
451.2279515870725
 30
0.0
 10
167.1716731590556
 20
451.0667617395652
 30
0.0
 10
167.4255575720859
 20
450.7908933203942
 30
0.0
 10
167.5780403096482
 20
450.6834541120457
 30
0.0
 10
167.9112038199193
 20
450.5150801132826
 30
0.0
 10
168.086453036919
 20
450.4545671610954
 30
0.0
 10
168.4450790333527
 20
450.3557406386912
 30
0.0
 10
168.6276347899907
 20
450.31903828105
 30
0.0
 10
168.9930351462006
 20
450.2601110782005
 30
0.0
 10
169.1765575582729
 20
450.2374317688858
 30
0.0
 10
169.7286816784419
 20
450.1822397654998
 30
0.0
 10
170.0991906955247
 20
450.1634191131811
 30
0.0
 10
171.2107703811525
 20
450.1246415031259
 30
0.0
 10
171.9522161407731
 20
450.1245405223773
 30
0.0
 10
172.6936600539278
 20
450.12431844238
 30
0.0
  0
LINE
  5
CA
330
1F
100
AcDbEntity
  8
0
  6
Continuous
 62
     8
370
    18
100
AcDbLine
 10
166.6318740378
 20
464.1238938267
 30
0.0
 11
166.6318740528
 21
454.1238924132
 31
0.0
  0
LINE
  5
CB
330
1F
100
AcDbEntity
  8
0
  6
Continuous
 62
     8
370
    18
100
AcDbLine
 10
200.631876224
 20
464.1238938267
 30
0.0
 11
166.6318740378
 21
464.1238938267
 31
0.0
  0
SPLINE
  5
CC
330
1F
100
AcDbEntity
  8
0
  6
Continuous
 62
     8
370
    18
100
AcDbSpline
210
0.0
220
0.0
230
1.0
 70
    24
 71
     3
 72
    10
 73
     6
 74
     0
 42
0.00000001
 43
0.00000001
 40
0.0
 40
0.0
 40
0.0
 40
0.0
 40
0.5
 40
0.5
 40
1.0
 40
1.0
 40
1.0
 40
1.0
 10
166.6318740377581
 20
464.1238938267089
 30
0.0
 10
166.6318740377021
 20
464.3856932145075
 30
0.0
 10
166.6318740376464
 20
464.6458804854707
 30
0.0
 10
166.6318740375671
 20
465.0161207303158
 30
0.0
 10
166.631874037544
 20
465.1238938267055
 30
0.0
 10
166.631874037544
 20
465.1238938267055
 30
0.0
  0
SPLINE
  5
CD
330
1F
100
AcDbEntity
  8
0
  6
Continuous
 62
     8
370
    18
100
AcDbSpline
210
0.0
220
0.0
230
1.0
 70
    24
 71
     3
 72
    10
 73
     6
 74
     0
 42
0.00000001
 43
0.00000001
 40
0.0
 40
0.0
 40
0.0
 40
0.0
 40
0.5
 40
0.5
 40
1.0
 40
1.0
 40
1.0
 40
1.0
 10
166.6318740377581
 20
464.1238938267089
 30
0.0
 10
166.370074649959
 20
464.1238938263139
 30
0.0
 10
166.1098873789948
 20
464.1238938259214
 30
0.0
 10
165.7396471341484
 20
464.1238938253628
 30
0.0
 10
165.6318740377581
 20
464.1238938252001
 30
0.0
 10
165.6318740377581
 20
464.1238938252001
 30
0.0
  0
SPLINE
  5
CE
330
1F
100
AcDbEntity
  8
0
  6
Continuous
 62
     8
370
    18
100
AcDbSpline
210
0.0
220
0.0
230
1.0
 70
    24
 71
     3
 72
    10
 73
     6
 74
     0
 42
0.00000001
 43
0.00000001
 40
0.0
 40
0.0
 40
0.0
 40
0.0
 40
0.5
 40
0.5
 40
1.0
 40
1.0
 40
1.0
 40
1.0
 10
165.631874052846
 20
454.1238924117164
 30
0.0
 10
165.631874052846
 20
454.1238924117164
 30
0.0
 10
165.7396471492362
 20
454.123892411879
 30
0.0
 10
166.1098873940827
 20
454.1238924124376
 30
0.0
 10
166.3700746650468
 20
454.1238924128302
 30
0.0
 10
166.631874052846
 20
454.1238924132251
 30
0.0
  0
LINE
  5
CF
330
1F
100
AcDbEntity
  8
0
  6
Continuous
 62
     8
370
    18
100
AcDbLine
 10
194.5681745295
 20
449.1243183975
 30
0.0
 11
194.5678750646
 21
450.1243183975
 31
0.0
  0
LINE
  5
D0
330
1F
100
AcDbEntity
  8
0
  6
Continuous
 62
     8
370
    18
100
AcDbLine
 10
172.6936600539
 20
449.1243183975
 30
0.0
 11
172.6936600539
 21
450.1243184424
 31
0.0
  0
LINE
  5
D1
330
1F
100
AcDbEntity
  8
0
  6
Continuous
 62
     8
370
    18
100
AcDbLine
 10
166.1004818324
 20
474.6557308631
 30
0.0
 11
166.0554448367
 21
474.8213960249
 31
0.0
  0
SPLINE
  5
D2
330
1F
100
AcDbEntity
  8
0
  6
Continuous
 62
     8
370
    18
100
AcDbSpline
210
0.0
220
0.0
230
1.0
 70
     8
 71
     3
 72
    12
 73
     8
 74
     0
 42
0.00000001
 43
0.00000001
 40
8.172668223544328
 40
8.172668223544328
 40
8.172668223544328
 40
8.172668223544328
 40
8.176115058065244
 40
8.176115058065244
 40
8.468667056943024
 40
8.468667056943024
 40
8.487454801976577
 40
8.487454801976577
 40
8.487454801976577
 40
8.487454801976577
 10
165.9609312292008
 20
475.0371696974599
 30
0.0
 10
165.961296795183
 20
475.0363871441619
 30
0.0
 10
165.961662140435
 20
475.0356045232986
 30
0.0
 10
165.9930174804327
 20
474.9683905755649
 30
0.0
 10
166.0223539369887
 20
474.9016165727653
 30
0.0
 10
166.0518977765905
 20
474.830042743715
 30
0.0
 10
166.0536745334684
 20
474.825720445875
 30
0.0
 10
166.055444836738
 20
474.82139602493
 30
0.0
  0
SPLINE
  5
D3
330
1F
100
AcDbEntity
  8
0
  6
Continuous
 62
     8
370
    18
100
AcDbSpline
210
0.0
220
0.0
230
1.0
 70
     8
 71
     3
 72
    16
 73
    12
 74
     0
 42
0.00000001
 43
0.00000001
 40
8.48745480197669
 40
8.48745480197669
 40
8.48745480197669
 40
8.48745480197669
 40
8.505695716722947
 40
8.505695716722947
 40
8.523980216652808
 40
8.523980216652808
 40
8.542264716582668
 40
8.542264716582668
 40
8.578833716442398
 40
8.578833716442398
 40
8.648524881640807
 40
8.648524881640807
 40
8.648524881640807
 40
8.648524881640807
 10
165.9081626998534
 20
475.1465906062888
 30
0.0
 10
165.9102210734493
 20
475.1424503551229
 30
0.0
 10
165.9122701453626
 20
475.1383129991071
 30
0.0
 10
165.9163475971107
 20
475.1300600783198
 30
0.0
 10
165.9183810767248
 20
475.1259298132335
 30
0.0
 10
165.9224400403427
 20
475.1176562630154
 30
0.0
 10
165.9244555905357
 20
475.1135333103173
 30
0.0
 10
165.9304941665628
 20
475.1011372595185
 30
0.0
 10
165.9345033182068
 20
475.0928483926431
 30
0.0
 10
165.946058317746
 20
475.0687867933501
 30
0.0
 10
165.9535398911175
 20
475.0529920558697
 30
0.0
 10
165.9609312292007
 20
475.03716969746
 30
0.0
  0
SPLINE
  5
D4
330
1F
100
AcDbEntity
  8
0
  6
Continuous
 62
     8
370
    18
100
AcDbSpline
210
0.0
220
0.0
230
1.0
 70
     8
 71
     3
 72
    16
 73
    12
 74
     0
 42
0.00000001
 43
0.00000001
 40
8.64852488164624
 40
8.64852488164624
 40
8.64852488164624
 40
8.64852488164624
 40
8.67384782792568
 40
8.67384782792568
 40
8.746985827645121
 40
8.746985827645121
 40
8.783554827504851
 40
8.783554827504851
 40
8.801839327434712
 40
8.801839327434712
 40
8.80188291261288
 40
8.80188291261288
 40
8.80188291261288
 40
8.80188291261288
 10
165.8548131431917
 20
475.2509242180921
 30
0.0
 10
165.8578315677076
 20
475.2451816429214
 30
0.0
 10
165.8608400041454
 20
475.2394307519494
 30
0.0
 10
165.8724771891188
 20
475.2170878612038
 30
0.0
 10
165.8809887972428
 20
475.2005304966408
 30
0.0
 10
165.8936244357417
 20
475.1756228186442
 30
0.0
 10
165.8977923199688
 20
475.1673516345983
 30
0.0
 10
165.9040226379527
 20
475.1549041772021
 30
0.0
 10
165.9060846082948
 20
475.1507704424737
 30
0.0
 10
165.9081528631668
 20
475.1466103918941
 30
0.0
 10
165.9081577815357
 20
475.146600499085
 30
0.0
 10
165.9081626998515
 20
475.1465906062925
 30
0.0
  0
SPLINE
  5
D5
330
1F
100
AcDbEntity
  8
0
  6
Continuous
 62
     8
370
    18
100
AcDbSpline
210
0.0
220
0.0
230
1.0
 70
     8
 71
     3
 72
    18
 73
    14
 74
     0
 42
0.00000001
 43
0.00000001
 40
8.801882912619167
 40
8.801882912619167
 40
8.801882912619167
 40
8.801882912619167
 40
8.8095006011305
 40
8.8095006011305
 40
8.818642851095431
 40
8.818642851095431
 40
8.83692735102529
 40
8.83692735102529
 40
8.91006535074473
 40
8.91006535074473
 40
8.94663435060446
 40
8.94663435060446
 40
8.957880404178454
 40
8.957880404178454
 40
8.957880404178454
 40
8.957880404178454
 10
165.7978866617094
 20
475.356111073912
 30
0.0
 10
165.7988314554577
 20
475.3544157914104
 30
0.0
 10
165.7997765315623
 20
475.3527178676061
 30
0.0
 10
165.8018421865638
 20
475.3490003656342
 30
0.0
 10
165.8029798117837
 20
475.3469479166872
 30
0.0
 10
165.8063735268047
 20
475.3408168480403
 30
0.0
 10
165.8086236224467
 20
475.3367380491003
 30
0.0
 10
165.8198753892608
 20
475.3162736938831
 30
0.0
 10
165.8287872656327
 20
475.2998455291074
 30
0.0
 10
165.8420268955938
 20
475.2751056773974
 30
0.0
 10
165.8464160556248
 20
475.2668476375401
 30
0.0
 10
165.8521301768533
 20
475.2560231936233
 30
0.0
 10
165.8534726449931
 20
475.2534745259204
 30
0.0
 10
165.8548131431895
 20
475.2509242180964
 30
0.0
  0
SPLINE
  5
D6
330
1F
100
AcDbEntity
  8
0
  6
Continuous
 62
     8
370
    18
100
AcDbSpline
210
0.0
220
0.0
230
1.0
 70
     8
 71
     3
 72
    18
 73
    14
 74
     0
 42
0.00000001
 43
0.00000001
 40
8.957880404168616
 40
8.957880404168616
 40
8.957880404168616
 40
8.957880404168616
 40
8.963411976457529
 40
8.963411976457529
 40
8.972554226422458
 40
8.972554226422458
 40
9.009123226282188
 40
9.009123226282188
 40
9.082261226001629
 40
9.082261226001629
 40
9.118830225861348
 40
9.118830225861348
 40
9.120354787324793
 40
9.120354787324793
 40
9.120354787324793
 40
9.120354787324793
 10
165.7359846544743
 20
475.464168762013
 30
0.0
 10
165.7367075429375
 20
475.4629381769878
 30
0.0
 10
165.7374296707081
 20
475.4617080912558
 30
0.0
 10
165.7393330466678
 20
475.4584676042631
 30
0.0
 10
165.7405214872928
 20
475.456441635768
 30
0.0
 10
165.7464396357857
 20
475.4463369575025
 30
0.0
 10
165.7511525355747
 20
475.4382416743704
 30
0.0
 10
165.7652091552658
 20
475.4139500118666
 30
0.0
 10
165.7744802791138
 20
475.3977316883715
 30
0.0
 10
165.7882337684708
 20
475.3733722336742
 30
0.0
 10
165.7927857614027
 20
475.3652596194178
 30
0.0
 10
165.7975085015765
 20
475.3567895367789
 30
0.0
 10
165.79769757599
 20
475.3564503582393
 30
0.0
 10
165.797886661713
 20
475.3561110739054
 30
0.0
  0
SPLINE
  5
D7
330
1F
100
AcDbEntity
  8
0
  6
Continuous
 62
     8
370
    18
100
AcDbSpline
210
0.0
220
0.0
230
1.0
 70
     8
 71
     3
 72
    22
 73
    18
 74
     0
 42
0.00000001
 43
0.00000001
 40
9.12035478733263
 40
9.12035478733263
 40
9.12035478733263
 40
9.12035478733263
 40
9.156923787192351
 40
9.156923787192351
 40
9.17520828712221
 40
9.17520828712221
 40
9.19349278705207
 40
9.19349278705207
 40
9.23006178691179
 40
9.23006178691179
 40
9.26663078677152
 40
9.26663078677152
 40
9.33976878649096
 40
9.33976878649096
 40
9.358053286420821
 40
9.358053286420821
 40
9.361663964089
 40
9.361663964089
 40
9.361663964089
 40
9.361663964089
 10
165.6353080537407
 20
475.6313307267187
 30
0.0
 10
165.6408119534548
 20
475.622288923385
 30
0.0
 10
165.6462627886548
 20
475.6133064446324
 30
0.0
 10
165.6543368146047
 20
475.6000061257181
 30
0.0
 10
165.6570115084518
 20
475.5956007559316
 30
0.0
 10
165.6623022424568
 20
475.5868933327411
 30
0.0
 10
165.6649220742858
 20
475.5825866915333
 30
0.0
 10
165.6727452096808
 20
475.5697151216943
 30
0.0
 10
165.6778706101418
 20
475.5612754316587
 30
0.0
 10
165.6880451797627
 20
475.5444779315867
 30
0.0
 10
165.6930711186377
 20
475.5361551174392
 30
0.0
 10
165.7080092388557
 20
475.5113424626452
 30
0.0
 10
165.7177592861428
 20
475.4950326040944
 30
0.0
 10
165.7297759448938
 20
475.4747144250322
 30
0.0
 10
165.7321818315228
 20
475.4706354517485
 30
0.0
 10
165.7350406141488
 20
475.4657754785221
 30
0.0
 10
165.7355127963639
 20
475.4649720139034
 30
0.0
 10
165.7359846544712
 20
475.4641687620182
 30
0.0
  0
SPLINE
  5
D8
330
1F
100
AcDbEntity
  8
0
  6
Continuous
 62
     8
370
    18
100
AcDbSpline
210
0.0
220
0.0
230
1.0
 70
     8
 71
     3
 72
     9
 73
     5
 74
     0
 42
0.00000001
 43
0.00000001
 40
0.0
 40
0.0
 40
0.0
 40
0.0
 40
0.4796725236756209
 40
1.0
 40
1.0
 40
1.0
 40
1.0
 10
201.536379788154
 20
475.4631040429859
 30
0.0
 10
201.5514065641105
 20
475.4891630587248
 30
0.0
 10
201.5827337200655
 20
475.543489738809
 30
0.0
 10
201.6175581378093
 20
475.6028695090817
 30
0.0
 10
201.6356782392084
 20
475.6337664350924
 30
0.0
  0
SPLINE
  5
D9
330
1F
100
AcDbEntity
  8
0
  6
Continuous
 62
     8
370
    18
100
AcDbSpline
210
0.0
220
0.0
230
1.0
 70
     8
 71
     3
 72
     9
 73
     5
 74
     0
 42
0.00000001
 43
0.00000001
 40
0.0
 40
0.0
 40
0.0
 40
0.0
 40
0.9000875101033808
 40
1.0
 40
1.0
 40
1.0
 40
1.0
 10
201.4741943415125
 20
475.351817494596
 30
0.0
 10
201.4926305538654
 20
475.3852388825997
 30
0.0
 10
201.513113242655
 20
475.4223701477583
 30
0.0
 10
201.5342663304811
 20
475.4594039078102
 30
0.0
 10
201.5363797881548
 20
475.4631040429872
 30
0.0
  0
LWPOLYLINE
  5
DA
330
1F
100
AcDbEntity
  8
0
  6
Continuous
 62
     8
370
    18
100
AcDbPolyline
 90
        3
 70
   128
 43
0.0
 10
201.4048523902
 20
475.2437726016
 10
201.4333959416
 20
475.2974888649
 10
201.4625475727
 20
475.3507591066
  0
LWPOLYLINE
  5
DB
330
1F
100
AcDbEntity
  8
0
  6
Continuous
 62
     8
370
    18
100
AcDbPolyline
 90
        3
 70
   128
 43
0.0
 10
201.3501907427
 20
475.1363666502
 10
201.3771248322
 20
475.190061113
 10
201.4048523902
 20
475.2437726016
  0
SPLINE
  5
DC
330
1F
100
AcDbEntity
  8
0
  6
Continuous
 62
     8
370
    18
100
AcDbSpline
210
0.0
220
0.0
230
1.0
 70
     8
 71
     3
 72
     9
 73
     5
 74
     0
 42
0.00000001
 43
0.00000001
 40
0.0
 40
0.0
 40
0.0
 40
0.0
 40
0.521592163647868
 40
1.0
 40
1.0
 40
1.0
 40
1.0
 10
201.211542118325
 20
474.8021981777993
 30
0.0
 10
201.2361892986889
 20
474.8606913511944
 30
0.0
 10
201.2834430384529
 20
474.9728348561617
 30
0.0
 10
201.3369421949471
 20
475.0835119034766
 30
0.0
 10
201.3625366106521
 20
475.1364606702163
 30
0.0
  0
LINE
  5
DD
330
1F
100
AcDbEntity
  8
0
  6
Continuous
 62
     8
370
    18
100
AcDbLine
 10
200.9176315354
 20
473.6742032926
 30
0.0
 11
201.2006398611
 21
474.8033322304
 31
0.0
  0
ARC
  5
DE
330
1F
100
AcDbEntity
  8
0
  6
Continuous
 62
     8
370
    18
100
AcDbCircle
 10
200.8531654964
 20
491.2579921641
 30
0.0
 40
1.725144280449369
100
AcDbArc
 50
63.1846021029
 51
98.3440939803
  0
LINE
  5
DF
330
1F
100
AcDbEntity
  8
0
  6
Continuous
 62
     8
370
    18
100
AcDbLine
 10
200.6028165557
 20
490.9849892875
 30
0.0
 11
200.6028165557
 21
492.9648747571
 31
0.0
  0
LINE
  5
E0
330
1F
100
AcDbEntity
  8
0
  6
Continuous
 62
     8
370
    18
100
AcDbLine
 10
166.6600576765
 20
492.964874754
 30
0.0
 11
166.6600576765
 21
490.9849892875
 31
0.0
  0
ARC
  5
E1
330
1F
100
AcDbEntity
  8
0
  6
Continuous
 62
     8
370
    18
100
AcDbCircle
 10
166.4097087359
 20
491.257992157
 30
0.0
 40
1.725144281376605
100
AcDbArc
 50
81.6559060272
 51
116.8153978848
  0
LINE
  5
E2
330
1F
100
AcDbEntity
  8
0
  6
Continuous
 62
     8
370
    18
100
AcDbLine
 10
166.6600576758
 20
492.9648747537
 30
0.0
 11
183.6314371161
 21
492.9648747571
 31
0.0
  0
LINE
  5
E3
330
1F
100
AcDbEntity
  8
0
  6
Continuous
 62
     8
370
    18
100
AcDbLine
 10
183.6314371161
 20
492.964874754
 30
0.0
 11
200.6028165564
 21
492.9648747523
 31
0.0
  0
LINE
  5
E4
330
1F
100
AcDbEntity
  8
0
  6
Continuous
 62
     8
370
    18
100
AcDbLine
 10
166.6600576765
 20
493.8262139274
 30
0.0
 11
166.6600576765
 21
492.9648747535
 31
0.0
  0
LINE
  5
E5
330
1F
100
AcDbEntity
  8
0
  6
Continuous
 62
     8
370
    18
100
AcDbLine
 10
200.6028165557
 20
492.9648747566
 30
0.0
 11
200.6028165557
 21
493.8262139274
 31
0.0
  0
LINE
  5
E6
330
1F
100
AcDbEntity
  8
0
  6
Continuous
 62
     8
370
    18
100
AcDbLine
 10
183.6314371161
 20
492.9648747571
 30
0.0
 11
183.6314371161
 21
493.826213931
 31
0.0
  0
LINE
  5
E7
330
1F
100
AcDbEntity
  8
0
  6
Continuous
 62
     8
370
    18
100
AcDbLine
 10
206.7318296278
 20
343.0555519131
 30
0.0
 11
160.5318296278
 21
343.0555519131
 31
0.0
  0
LINE
  5
E8
330
1F
100
AcDbEntity
  8
0
  6
Continuous
 62
     8
370
    18
100
AcDbLine
 10
206.7318296278
 20
339.0555519124
 30
0.0
 11
206.7318296278
 21
343.0555519131
 31
0.0
  0
LINE
  5
E9
330
1F
100
AcDbEntity
  8
0
  6
Continuous
 62
     8
370
    18
100
AcDbLine
 10
160.5318296278
 20
343.0555519131
 30
0.0
 11
160.5318296278
 21
339.0555519124
 31
0.0
  0
LINE
  5
EA
330
1F
100
AcDbEntity
  8
0
  6
Continuous
 62
     8
370
    18
100
AcDbLine
 10
206.7318296278
 20
344.0555519131
 30
0.0
 11
206.7318296278
 21
343.0555519131
 31
0.0
  0
LINE
  5
EB
330
1F
100
AcDbEntity
  8
0
  6
Continuous
 62
     8
370
    18
100
AcDbLine
 10
160.5318296278
 20
344.0555519131
 30
0.0
 11
160.5318296278
 21
343.0555519131
 31
0.0
  0
LINE
  5
EC
330
1F
100
AcDbEntity
  8
0
  6
Continuous
 62
     8
370
    18
100
AcDbLine
 10
207.7318296278
 20
343.0555519131
 30
0.0
 11
206.7318296278
 21
343.0555519131
 31
0.0
  0
LINE
  5
ED
330
1F
100
AcDbEntity
  8
0
  6
Continuous
 62
     8
370
    18
100
AcDbLine
 10
159.5318296278
 20
343.0555519131
 30
0.0
 11
160.5318296278
 21
343.0555519131
 31
0.0
  0
LINE
  5
EE
330
1F
100
AcDbEntity
  8
0
  6
Continuous
 62
     8
370
    18
100
AcDbLine
 10
160.6318345085
 20
344.0555519131
 30
0.0
 11
162.4699797139
 21
344.4061662971
 31
0.0
  0
LINE
  5
EF
330
1F
100
AcDbEntity
  8
0
  6
Continuous
 62
     8
370
    18
100
AcDbLine
 10
165.6318346023
 20
349.0555520863
 30
0.0
 11
165.6318346023
 21
360.0555520489
 31
0.0
  0
LINE
  5
F0
330
1F
100
AcDbEntity
  8
0
  6
Continuous
 62
     8
370
    18
100
AcDbLine
 10
165.6318341325
 20
349.0555520863
 30
0.0
 11
165.6318346023
 21
349.0555520863
 31
0.0
  0
LINE
  5
F1
330
1F
100
AcDbEntity
  8
0
  6
Continuous
 62
     7
370
    25
100
AcDbLine
 10
165.6486390456
 20
266.7772148984
 30
0.0
 11
165.6339309089
 21
265.9922893669
 31
0.0
  0
SPLINE
  5
F2
330
1F
100
AcDbEntity
  8
0
  6
Continuous
 62
     7
370
    25
100
AcDbSpline
210
0.0
220
0.0
230
1.0
 70
     8
 71
     3
 72
    13
 73
     9
 74
     0
 42
0.00000001
 43
0.00000001
 40
0.0
 40
0.0
 40
0.0
 40
0.0
 40
0.1819688671826261
 40
0.3649168341721277
 40
0.5441416619674264
 40
0.7177721741981377
 40
0.8929497497647871
 40
1.0
 40
1.0
 40
1.0
 40
1.0
 10
165.6653889104765
 20
166.4212004926714
 30
0.0
 10
165.6606924272676
 20
166.3528875275778
 30
0.0
 10
165.651274191001
 20
166.2158940333563
 30
0.0
 10
165.685238601456
 20
166.0049279775438
 30
0.0
 10
165.752302558087
 20
165.806372185621
 30
0.0
 10
165.8537044750369
 20
165.6289782690881
 30
0.0
 10
165.9627856171005
 20
165.4922726090374
 30
0.0
 10
166.0470345162392
 20
165.4293194379527
 30
0.0
 10
166.0789904926183
 20
165.405441024481
 30
0.0
  0
SPLINE
  5
F3
330
1F
100
AcDbEntity
  8
0
  6
Continuous
 62
     7
370
    25
100
AcDbSpline
210
0.0
220
0.0
230
1.0
 70
     8
 71
     3
 72
    13
 73
     9
 74
     0
 42
0.00000001
 43
0.00000001
 40
0.0
 40
0.0
 40
0.0
 40
0.0
 40
0.1091872211126007
 40
0.2839573644839203
 40
0.4571773531573972
 40
0.6359719879348001
 40
0.818475897614947
 40
1.0
 40
1.0
 40
1.0
 40
1.0
 10
201.181865485853
 20
165.4038064062216
 30
0.0
 10
201.2145467329913
 20
165.4282061192455
 30
0.0
 10
201.2995391039932
 20
165.4916611475338
 30
0.0
 10
201.4092549295055
 20
165.6290024938738
 30
0.0
 10
201.5106290160973
 20
165.8064183951038
 30
0.0
 10
201.5776877726812
 20
166.0049522914094
 30
0.0
 10
201.6116408916402
 20
166.2158964947232
 30
0.0
 10
201.6022197464786
 20
166.3528727194673
 30
0.0
 10
201.597521852739
 20
166.4211764912119
 30
0.0
  0
LINE
  5
F4
330
1F
100
AcDbEntity
  8
0
  6
Continuous
 62
     7
370
    25
100
AcDbLine
 10
201.6289433233
 20
265.9922893671
 30
0.0
 11
201.6142351866
 21
266.7772148984
 31
0.0
  0
ARC
  5
F5
330
1F
100
AcDbEntity
  8
0
  6
Continuous
 62
     7
370
    18
100
AcDbCircle
 10
166.4029139056
 20
331.0644216522
 30
0.0
 40
64.29108665815477
100
AcDbArc
 50
269.3124744848
 51
270.2291653905
  0
SPLINE
  5
F6
330
1F
100
AcDbEntity
  8
0
  6
Continuous
 62
     7
370
    18
100
AcDbSpline
210
0.0
220
0.0
230
1.0
 70
     8
 71
     3
 72
    23
 73
    19
 74
     0
 42
0.00000001
 43
0.00000001
 40
0.0
 40
0.0
 40
0.0
 40
0.0
 40
1.736884773864148
 40
3.473769547728295
 40
5.210654321592443
 40
6.947539095456591
 40
8.684423869320739
 40
10.42130864318489
 40
12.15819341704903
 40
13.89507819091318
 40
15.63196296477733
 40
17.36884773864148
 40
19.10573251250563
 40
20.84261728636977
 40
52.39352589075726
 40
83.94443449514475
 40
92.75701556081138
 40
101.569596626478
 40
101.569596626478
 40
101.569596626478
 40
101.569596626478
 10
166.6600227489435
 20
266.7738492425298
 30
0.0
 10
166.6600225969762
 20
266.2026377633309
 30
0.0
 10
166.6600222688325
 20
265.0598219463619
 30
0.0
 10
166.6600217411297
 20
263.3479422922711
 30
0.0
 10
166.6600212151047
 20
261.6354601864948
 30
0.0
 10
166.6600207279002
 20
259.9231906019587
 30
0.0
 10
166.6600203166758
 20
258.2109353481194
 30
0.0
 10
166.6600200185769
 20
256.4987818880636
 30
0.0
 10
166.6600198707613
 20
254.7866840756403
 30
0.0
 10
166.6600199103781
 20
253.0748405379559
 30
0.0
 10
166.6600201745845
 20
251.3626003596475
 30
0.0
 10
166.6600207005269
 20
249.6502899407948
 30
0.0
 10
166.6600215253587
 20
247.9379950604588
 30
0.0
 10
166.6600293284874
 20
236.4299925812061
 30
0.0
 10
166.6600882740798
 20
215.0243364151872
 30
0.0
 10
166.6601169835549
 20
191.3659013050459
 30
0.0
 10
166.6600636124784
 20
175.1301671254901
 30
0.0
 10
166.6600369698446
 20
169.3129560161473
 30
0.0
 10
166.6600227478596
 20
166.4039888155876
 30
0.0
  0
SPLINE
  5
F7
330
1F
100
AcDbEntity
  8
0
  6
Continuous
 62
     7
370
    18
100
AcDbSpline
210
0.0
220
0.0
230
1.0
 70
     8
 71
     3
 72
    10
 73
     6
 74
     0
 42
0.00000001
 43
0.00000001
 40
0.0
 40
0.0
 40
0.0
 40
0.0
 40
0.5
 40
0.5
 40
1.0
 40
1.0
 40
1.0
 40
1.0
 10
165.9994634724893
 20
166.3649371395875
 30
0.0
 10
166.0965642465156
 20
166.3781661005663
 30
0.0
 10
166.2080586642902
 20
166.3882492413142
 30
0.0
 10
166.435843997827
 20
166.4011404891293
 30
0.0
 10
166.5517208264997
 20
166.403988815639
 30
0.0
 10
166.6600576746495
 20
166.4039888155876
 30
0.0
  0
SPLINE
  5
F8
330
1F
100
AcDbEntity
  8
0
  6
Continuous
 62
     7
370
    18
100
AcDbSpline
210
0.0
220
0.0
230
1.0
 70
     8
 71
     3
 72
     8
 73
     4
 74
     0
 42
0.00000001
 43
0.00000001
 40
0.0
 40
0.0
 40
0.0
 40
0.0
 40
1.0
 40
1.0
 40
1.0
 40
1.0
 10
165.6314661288853
 20
266.7779635758
 30
0.0
 10
165.7363708488796
 20
233.3005360477925
 30
0.0
 10
165.8560295656333
 20
199.8279733836806
 30
0.0
 10
165.9994634724893
 20
166.3649371395875
 30
0.0
  0
LINE
  5
F9
330
1F
100
AcDbEntity
  8
0
  6
Continuous
 62
     7
370
    18
100
AcDbLine
 10
183.6314371161
 20
166.404037184
 30
0.0
 11
200.6027816289
 21
166.4040371834
 31
0.0
  0
LINE
  5
FA
330
1F
100
AcDbEntity
  8
0
  6
Continuous
 62
     7
370
    18
100
AcDbLine
 10
166.6600227479
 20
166.4040371834
 30
0.0
 11
183.6314371161
 21
166.404037184
 31
0.0
  0
LINE
  5
FB
330
1F
100
AcDbEntity
  8
0
  6
Continuous
 62
     7
370
    18
100
AcDbLine
 10
183.6314371162
 20
266.7738492425
 30
0.0
 11
166.6600227489
 21
266.7738492425
 31
0.0
  0
LINE
  5
FC
330
1F
100
AcDbEntity
  8
0
  6
Continuous
 62
     7
370
    18
100
AcDbLine
 10
200.6027816291
 20
266.7738492425
 30
0.0
 11
183.6314371162
 21
266.7738492425
 31
0.0
  0
LINE
  5
FD
330
1F
100
AcDbEntity
  8
0
  6
Continuous
 62
     7
370
    18
100
AcDbLine
 10
200.6027816289
 20
166.4039888156
 30
0.0
 11
200.6027816291
 21
266.7738492425
 31
0.0
  0
SPLINE
  5
FE
330
1F
100
AcDbEntity
  8
0
  6
Continuous
 62
     7
370
    25
100
AcDbSpline
210
0.0
220
0.0
230
1.0
 70
     8
 71
     3
 72
     9
 73
     5
 74
     0
 42
0.00000001
 43
0.00000001
 40
0.0
 40
0.0
 40
0.0
 40
0.0
 40
0.9129139648748541
 40
1.0
 40
1.0
 40
1.0
 40
1.0
 10
165.6314661288854
 20
166.2367364468539
 30
0.0
 10
165.6320139691105
 20
166.2482041248645
 30
0.0
 10
165.6326140697183
 20
166.2607657445261
 30
0.0
 10
165.6566145615142
 20
166.2725306802872
 30
0.0
 10
165.6587046691858
 20
166.2735552418961
 30
0.0
  0
SPLINE
  5
FF
330
1F
100
AcDbEntity
  8
0
  6
Continuous
 62
     7
370
    18
100
AcDbSpline
210
0.0
220
0.0
230
1.0
 70
     8
 71
     3
 72
    16
 73
    12
 74
     0
 42
0.00000001
 43
0.00000001
 40
0.0
 40
0.0
 40
0.0
 40
0.0
 40
0.1445578844925662
 40
0.282018332661735
 40
0.4115521941844035
 40
0.5325416620284497
 40
0.6445656509225068
 40
0.7473756175406182
 40
0.8408661968056939
 40
0.9250443774193391
 40
1.0
 40
1.0
 40
1.0
 40
1.0
 10
201.2635572137434
 20
166.364965551019
 30
0.0
 10
201.2364102823686
 20
166.3684719661809
 30
0.0
 10
201.1834492671317
 20
166.3753126401507
 30
0.0
 10
201.0990088933258
 20
166.3837948402814
 30
0.0
 10
201.0156758212842
 20
166.390618751238
 30
0.0
 10
200.9346814030325
 20
166.3957818654347
 30
0.0
 10
200.8575927779443
 20
166.3994682756242
 30
0.0
 10
200.7854571993788
 20
166.4018912951502
 30
0.0
 10
200.719035068293
 20
166.4032882972129
 30
0.0
 10
200.6587961766874
 20
166.4039509317313
 30
0.0
 10
200.6207412766518
 20
166.4040095658796
 30
0.0
 10
200.6028165575339
 20
166.4040371838903
 30
0.0
  0
LINE
  5
100
330
1F
100
AcDbEntity
  8
0
  6
Continuous
 62
     7
370
    18
100
AcDbLine
 10
201.629464805
 20
266.2477084906
 30
0.0
 11
201.2634107597
 21
166.3649371396
 31
0.0
  0
SPLINE
  5
101
330
1F
100
AcDbEntity
  8
0
  6
Continuous
 62
     7
370
    18
100
AcDbSpline
210
0.0
220
0.0
230
1.0
 70
     8
 71
     3
 72
    20
 73
    16
 74
     0
 42
0.00000001
 43
0.00000001
 40
0.0
 40
0.0
 40
0.0
 40
0.0
 40
0.2499999999999989
 40
0.2499999999999989
 40
0.4999999999999978
 40
0.4999999999999978
 40
0.7499999999999967
 40
0.7499999999999967
 40
0.8750000000000008
 40
0.8750000000000008
 40
0.9375000000000292
 40
0.9375000000000292
 40
0.9687500000000147
 40
0.9687500000000147
 40
1.0
 40
1.0
 40
1.0
 40
1.0
 10
200.6028165556707
 20
266.773849242531
 30
0.0
 10
200.7240372318658
 20
266.7738492425369
 30
0.0
 10
200.8548191795207
 20
266.773937613232
 30
0.0
 10
201.1080521444881
 20
266.7743386205178
 30
0.0
 10
201.2297181165766
 20
266.7746526160949
 30
0.0
 10
201.4305631090321
 20
266.7754559896378
 30
0.0
 10
201.5090626307576
 20
266.7759426496308
 30
0.0
 10
201.5842520969189
 20
266.7767023424425
 30
0.0
 10
201.6024523073658
 20
266.7769602077328
 30
0.0
 10
201.6201280631413
 20
266.7773422748856
 30
0.0
 10
201.624427514135
 20
266.7774688642094
 30
0.0
 10
201.6286572748972
 20
266.7776563949467
 30
0.0
 10
201.6296977811685
 20
266.7777185150675
 30
0.0
 10
201.6310731840776
 20
266.7778418005734
 30
0.0
 10
201.6314081014349
 20
266.777896255187
 30
0.0
 10
201.6314081014349
 20
266.7779635757998
 30
0.0
  0
LINE
  5
102
330
1F
100
AcDbEntity
  8
0
  6
Continuous
 62
     7
370
    25
100
AcDbLine
 10
165.6314661307
 20
266.6622333865
 30
0.0
 11
165.6314661307
 21
166.2367364469
 31
0.0
  0
LINE
  5
103
330
1F
100
AcDbEntity
  8
0
  6
Continuous
 62
     7
370
    25
100
AcDbLine
 10
165.6314661289
 20
266.7787135207
 30
0.0
 11
165.6314661289
 21
266.7859635113
 31
0.0
  0
LINE
  5
104
330
1F
100
AcDbEntity
  8
0
  6
Continuous
 62
     7
370
    25
100
AcDbLine
 10
201.6314081014
 20
266.7779635758
 30
0.0
 11
201.6314081014
 21
266.7839685228
 31
0.0
  0
LINE
  5
105
330
1F
100
AcDbEntity
  8
0
  6
Continuous
 62
     7
370
    25
100
AcDbLine
 10
201.6314081014
 20
266.545773252
 30
0.0
 11
201.6314081014
 21
166.2367364469
 31
0.0
  0
LINE
  5
106
330
1F
100
AcDbEntity
  8
0
  6
Continuous
 62
     7
370
    25
100
AcDbLine
 10
166.6600772691
 20
164.8954210694
 30
0.0
 11
200.6027041325
 21
164.8954483498
 31
0.0
  0
SPLINE
  5
107
330
1F
100
AcDbEntity
  8
0
  6
Continuous
 62
     7
370
    25
100
AcDbSpline
210
0.0
220
0.0
230
1.0
 70
     8
 71
     3
 72
    14
 73
    10
 74
     0
 42
0.00000001
 43
0.00000001
 40
0.0
 40
0.0
 40
0.0
 40
0.0
 40
0.25
 40
0.25
 40
0.5
 40
0.5
 40
0.75
 40
0.75
 40
1.0
 40
1.0
 40
1.0
 40
1.0
 10
200.6027041305841
 20
164.895448355938
 30
0.0
 10
200.7373687942269
 20
164.8950554692413
 30
0.0
 10
200.8719833651297
 20
164.9210866619204
 30
0.0
 10
201.1208157672927
 20
165.0220152968774
 30
0.0
 10
201.2349356288559
 20
165.0968727038382
 30
0.0
 10
201.4253762150138
 20
165.2840299997943
 30
0.0
 10
201.5016219597974
 20
165.3962559037306
 30
0.0
 10
201.6046683766821
 20
165.6410242797342
 30
0.0
 10
201.6314284775949
 20
165.7734700842461
 30
0.0
 10
201.6314080896728
 20
165.9059642024486
 30
0.0
  0
LINE
  5
108
330
1F
100
AcDbEntity
  8
0
  6
Continuous
 62
     7
370
    25
100
AcDbLine
 10
201.6314081014
 20
166.2367848171
 30
0.0
 11
201.6314081014
 21
165.9042019878
 31
0.0
  0
SPLINE
  5
109
330
1F
100
AcDbEntity
  8
0
  6
Continuous
 62
     7
370
    25
100
AcDbSpline
210
0.0
220
0.0
230
1.0
 70
     8
 71
     3
 72
    14
 73
    10
 74
     0
 42
0.00000001
 43
0.00000001
 40
0.0
 40
0.0
 40
0.0
 40
0.0
 40
0.25
 40
0.25
 40
0.5
 40
0.5
 40
0.75
 40
0.75
 40
1.0
 40
1.0
 40
1.0
 40
1.0
 10
165.6314661471332
 20
165.9060404871339
 30
0.0
 10
165.6314420864575
 20
165.7735453721838
 30
0.0
 10
165.6581963427264
 20
165.6410978399929
 30
0.0
 10
165.7612279238266
 20
165.3963222848435
 30
0.0
 10
165.8374646897903
 20
165.2840909118474
 30
0.0
 10
166.0278864508459
 20
165.0969174598008
 30
0.0
 10
166.1419964855138
 20
165.0220493553732
 30
0.0
 10
166.3908112348682
 20
164.9210938573408
 30
0.0
 10
166.5254180024554
 20
164.8950464982548
 30
0.0
 10
166.6600772692207
 20
164.8954210696837
 30
0.0
  0
LINE
  5
10A
330
1F
100
AcDbEntity
  8
0
  6
Continuous
 62
     7
370
    25
100
AcDbLine
 10
165.6314661307
 20
165.9042019878
 30
0.0
 11
165.6314661307
 21
166.2367848171
 31
0.0
  0
SPLINE
  5
10B
330
1F
100
AcDbEntity
  8
0
  6
Continuous
 62
     7
370
    25
100
AcDbSpline
210
0.0
220
0.0
230
1.0
 70
     8
 71
     3
 72
    12
 73
     8
 74
     0
 42
0.00000001
 43
0.00000001
 40
0.0
 40
0.0
 40
0.0
 40
0.0
 40
0.5000000000000078
 40
0.5000000000000078
 40
0.7500000000000039
 40
0.7500000000000039
 40
1.0
 40
1.0
 40
1.0
 40
1.0
 10
166.3943446547517
 20
267.7911879627248
 30
0.0
 10
166.1839267388517
 20
267.7344977649873
 30
0.0
 10
165.9922115986023
 20
267.6094631885599
 30
0.0
 10
165.7862069742154
 20
267.3497140137943
 30
0.0
 10
165.7305306792786
 20
267.2511590396134
 30
0.0
 10
165.6527199427222
 20
267.0334365204037
 30
0.0
 10
165.6314674307744
 20
266.9165967769641
 30
0.0
 10
165.6314661307886
 20
266.7953265933735
 30
0.0
  0
ELLIPSE
  5
10C
330
1F
100
AcDbEntity
  8
0
  6
Continuous
 62
     7
370
    25
100
AcDbEllipse
 10
166.6600576761
 20
266.7978942805
 30
0.0
 11
1.028591545345307
 21
-2.057674919342389E-9
 31
0.0
210
0.0
220
0.0
230
1.0
 40
0.9996126348
 41
1.570796328383855
 42
1.832086402291958
  0
LINE
  5
10D
330
1F
100
AcDbEntity
  8
0
  6
Continuous
 62
     7
370
    25
100
AcDbLine
 10
166.6600576765
 20
267.8260873853
 30
0.0
 11
200.6028165549
 21
267.8260873853
 31
0.0
  0
SPLINE
  5
10E
330
1F
100
AcDbEntity
  8
0
  6
Continuous
 62
     7
370
    25
100
AcDbSpline
210
0.0
220
0.0
230
1.0
 70
     8
 71
     3
 72
    10
 73
     6
 74
     0
 42
0.00000001
 43
0.00000001
 40
0.0
 40
0.0
 40
0.0
 40
0.0
 40
0.5
 40
0.5
 40
1.0
 40
1.0
 40
1.0
 40
1.0
 10
201.6314079667006
 20
266.7958419460004
 30
0.0
 10
201.6312851386811
 20
267.0359681599381
 30
0.0
 10
201.5450504077841
 20
267.2637183048069
 30
0.0
 10
201.2701225157276
 20
267.6099146877636
 30
0.0
 10
201.078012274365
 20
267.7347837110312
 30
0.0
 10
200.8683777329666
 20
267.7912285382944
 30
0.0
  0
ELLIPSE
  5
10F
330
1F
100
AcDbEntity
  8
0
  6
Continuous
 62
     7
370
    25
100
AcDbEllipse
 10
200.6028165561
 20
266.7978942805
 30
0.0
 11
1.028591545345279
 21
2.057618075923529E-9
 31
0.0
210
0.0
220
0.0
230
1.0
 40
0.9996126348
 41
1.309659058651292
 42
1.570796325925412
  0
ARC
  5
110
330
1F
100
AcDbEntity
  8
0
  6
Continuous
 62
     7
370
    25
100
AcDbCircle
 10
166.6318740374
 20
266.7973681097
 30
0.0
 40
1.000000000287656
100
AcDbArc
 50
89.99999999
 51
179.9999999847
  0
LINE
  5
111
330
1F
100
AcDbEntity
  8
0
  6
Continuous
 62
     7
370
    25
100
AcDbLine
 10
165.6318740378
 20
108.79736811
 30
0.0
 11
165.6318740378
 21
165.9040213618
 31
0.0
  0
LINE
  5
112
330
1F
100
AcDbEntity
  8
0
  6
Continuous
 62
     7
370
    25
100
AcDbLine
 10
201.631876224
 20
108.79736811
 30
0.0
 11
201.631876224
 21
166.1202572531
 31
0.0
  0
LINE
  5
113
330
1F
100
AcDbEntity
  8
0
  6
Continuous
 62
     7
370
    25
100
AcDbLine
 10
200.631876224
 20
107.79736811
 30
0.0
 11
166.6318740378
 21
107.79736811
 31
0.0
  0
SPLINE
  5
114
330
1F
100
AcDbEntity
  8
0
  6
Continuous
 62
     7
370
    25
100
AcDbSpline
210
0.0
220
0.0
230
1.0
 70
     8
 71
     3
 72
    10
 73
     6
 74
     0
 42
0.00000001
 43
0.00000001
 40
0.0
 40
0.0
 40
0.0
 40
0.0
 40
0.5
 40
0.5
 40
1.0
 40
1.0
 40
1.0
 40
1.0
 10
166.6318740377581
 20
107.7973681099835
 30
0.0
 10
166.370074649959
 20
107.7973681099835
 30
0.0
 10
166.1098873789948
 20
107.9051412063737
 30
0.0
 10
165.7396471341484
 20
108.2753814512202
 30
0.0
 10
165.6318740377581
 20
108.5355687221843
 30
0.0
 10
165.6318740377581
 20
108.7973681099835
 30
0.0
  0
SPLINE
  5
115
330
1F
100
AcDbEntity
  8
0
  6
Continuous
 62
     7
370
    25
100
AcDbSpline
210
0.0
220
0.0
230
1.0
 70
     8
 71
     3
 72
    10
 73
     6
 74
     0
 42
0.00000001
 43
0.00000001
 40
0.0
 40
0.0
 40
0.0
 40
0.0
 40
0.5
 40
0.5
 40
1.0
 40
1.0
 40
1.0
 40
1.0
 10
200.6318762241403
 20
107.7973681099834
 30
0.0
 10
200.8936756119223
 20
107.7973681100102
 30
0.0
 10
201.1538628828588
 20
107.9051412064124
 30
0.0
 10
201.5241031276622
 20
108.2753814512537
 30
0.0
 10
201.6318762240378
 20
108.5355687222013
 30
0.0
 10
201.6318762240378
 20
108.7973681099834
 30
0.0
  0
ARC
  5
116
330
1F
100
AcDbEntity
  8
0
  6
Continuous
 62
     7
370
    25
100
AcDbCircle
 10
160.5318296278
 20
272.897367107
 30
0.0
 40
1.0
100
AcDbArc
 50
90.0
 51
180.0
  0
LINE
  5
117
330
1F
100
AcDbEntity
  8
0
  6
Continuous
 62
     7
370
    25
100
AcDbLine
 10
160.5318296278
 20
273.897367107
 30
0.0
 11
206.7318296278
 21
273.897367107
 31
0.0
  0
LINE
  5
118
330
1F
100
AcDbEntity
  8
0
  6
Continuous
 62
     7
370
    25
100
AcDbLine
 10
159.5318296278
 20
226.6973671068
 30
0.0
 11
159.5318296278
 21
272.897367107
 31
0.0
  0
ARC
  5
119
330
1F
100
AcDbEntity
  8
0
  6
Continuous
 62
     7
370
    25
100
AcDbCircle
 10
206.7318296278
 20
272.897367107
 30
0.0
 40
1.0
100
AcDbArc
 50
0.0
 51
90.0
  0
LINE
  5
11A
330
1F
100
AcDbEntity
  8
0
  6
Continuous
 62
     7
370
    25
100
AcDbLine
 10
206.7318296278
 20
225.6973671068
 30
0.0
 11
201.631876224
 21
225.6973671068
 31
0.0
  0
LINE
  5
11B
330
1F
100
AcDbEntity
  8
0
  6
Continuous
 62
     7
370
    25
100
AcDbLine
 10
165.6314661307
 20
225.6973671068
 30
0.0
 11
160.5318296278
 21
225.6973671068
 31
0.0
  0
ARC
  5
11C
330
1F
100
AcDbEntity
  8
0
  6
Continuous
 62
     7
370
    25
100
AcDbCircle
 10
160.5318296278
 20
226.6973671068
 30
0.0
 40
1.0
100
AcDbArc
 50
180.0
 51
270.0
  0
LINE
  5
11D
330
1F
100
AcDbEntity
  8
0
  6
Continuous
 62
     7
370
    25
100
AcDbLine
 10
207.7318296278
 20
272.897367107
 30
0.0
 11
207.7318296278
 21
226.6973671068
 31
0.0
  0
ARC
  5
11E
330
1F
100
AcDbEntity
  8
0
  6
Continuous
 62
     7
370
    25
100
AcDbCircle
 10
206.7318296278
 20
226.6973671068
 30
0.0
 40
1.0
100
AcDbArc
 50
270.0
 51
0.0
  0
LINE
  5
11F
330
1F
100
AcDbEntity
  8
0
  6
Continuous
 62
     8
370
    18
100
AcDbLine
 10
166.6600576765
 20
166.4040371849
 30
0.0
 11
166.6600576765
 21
165.2218822553
 31
0.0
  0
LINE
  5
120
330
1F
100
AcDbEntity
  8
0
  6
Continuous
 62
     8
370
    18
100
AcDbLine
 10
183.6314371161
 20
165.2218822528
 30
0.0
 11
183.6314371161
 21
166.4040371846
 31
0.0
  0
LINE
  5
121
330
1F
100
AcDbEntity
  8
0
  6
Continuous
 62
     8
370
    18
100
AcDbLine
 10
166.6600576758
 20
165.2218822539
 30
0.0
 11
183.6314371161
 21
165.2218822528
 31
0.0
  0
SPLINE
  5
122
330
1F
100
AcDbEntity
  8
0
  6
Continuous
 62
     8
370
    18
100
AcDbSpline
210
0.0
220
0.0
230
1.0
 70
     8
 71
     3
 72
    10
 73
     6
 74
     0
 42
0.00000001
 43
0.00000001
 40
0.0
 40
0.0
 40
0.0
 40
0.0
 40
0.3024767208865317
 40
0.6484701272787396
 40
1.0
 40
1.0
 40
1.0
 40
1.0
 10
165.6587046691858
 20
166.2735552418961
 30
0.0
 10
165.6767070089112
 20
166.2841363920559
 30
0.0
 10
165.7153016468683
 20
166.3068209800492
 30
0.0
 10
165.8306599476372
 20
166.338525512389
 30
0.0
 10
165.9428986726006
 20
166.3560868006595
 30
0.0
 10
165.9994634724893
 20
166.3649371395879
 30
0.0
  0
ARC
  5
123
330
1F
100
AcDbEntity
  8
0
  6
Continuous
 62
     8
370
    18
100
AcDbCircle
 10
166.6532587302
 20
166.2436754662
 30
0.0
 40
1.021815833324232
100
AcDbArc
 50
180.3863789842
 51
270.3812367639
  0
LINE
  5
124
330
1F
100
AcDbEntity
  8
0
  6
Continuous
 62
     8
370
    18
100
AcDbLine
 10
200.6028165557
 20
165.2218822558
 30
0.0
 11
200.6028165557
 21
166.4040371852
 31
0.0
  0
SPLINE
  5
125
330
1F
100
AcDbEntity
  8
0
  6
Continuous
 62
     8
370
    18
100
AcDbSpline
210
0.0
220
0.0
230
1.0
 70
     8
 71
     3
 72
    13
 73
     9
 74
     0
 42
0.00000001
 43
0.00000001
 40
0.0
 40
0.0
 40
0.0
 40
0.0
 40
0.1022359318077744
 40
0.2311188623515433
 40
0.3868899204360742
 40
0.5687097487423806
 40
0.7741023563612888
 40
1.0
 40
1.0
 40
1.0
 40
1.0
 10
201.6314080581498
 20
166.2367364468559
 30
0.0
 10
201.6306149559053
 20
166.2415851516341
 30
0.0
 10
201.6288220354981
 20
166.2525463382972
 30
0.0
 10
201.6113879588082
 20
166.2702147324701
 30
0.0
 10
201.5744107950602
 20
166.2916677628636
 30
0.0
 10
201.5079960255703
 20
166.3160325329484
 30
0.0
 10
201.407315754103
 20
166.3422672873897
 30
0.0
 10
201.3129718724314
 20
166.3571633922934
 30
0.0
 10
201.2635572137434
 20
166.364965551019
 30
0.0
  0
ARC
  5
126
330
1F
100
AcDbEntity
  8
0
  6
Continuous
 62
     8
370
    18
100
AcDbCircle
 10
200.609615502
 20
166.2436754672
 30
0.0
 40
1.02181583331997
100
AcDbArc
 50
269.6187632359
 51
359.6136210311
  0
LINE
  5
127
330
1F
100
AcDbEntity
  8
0
  6
Continuous
 62
     8
370
    18
100
AcDbLine
 10
183.6314371161
 20
165.2218822523
 30
0.0
 11
200.6028165564
 21
165.2218822818
 31
0.0
  0
LINE
  5
128
330
1F
100
AcDbEntity
  8
0
  6
Continuous
 62
     8
370
    18
100
AcDbLine
 10
165.6314661289
 20
266.7779635758
 30
0.0
 11
165.6314661289
 21
266.7787135207
 31
0.0
  0
LINE
  5
129
330
1F
100
AcDbEntity
  8
0
  6
Continuous
 62
     8
370
    18
100
AcDbLine
 10
166.6600576765
 20
165.2218822525
 30
0.0
 11
166.6600576765
 21
164.8956040988
 31
0.0
  0
LINE
  5
12A
330
1F
100
AcDbEntity
  8
0
  6
Continuous
 62
     8
370
    18
100
AcDbLine
 10
200.6028165557
 20
164.8956040988
 30
0.0
 11
200.6028165557
 21
165.221882253
 31
0.0
  0
SPLINE
  5
12B
330
1F
100
AcDbEntity
  8
0
  6
Continuous
 62
     8
370
    18
100
AcDbSpline
210
0.0
220
0.0
230
1.0
 70
     8
 71
     3
 72
    14
 73
    10
 74
     0
 42
0.00000001
 43
0.00000001
 40
0.0
 40
0.0
 40
0.0
 40
0.0
 40
0.25
 40
0.25
 40
0.5
 40
0.5
 40
0.75
 40
0.75
 40
1.0
 40
1.0
 40
1.0
 40
1.0
 10
165.6314661318846
 20
266.785963511335
 30
0.0
 10
165.631459646451
 20
266.9206088810831
 30
0.0
 10
165.6582263103141
 20
267.0552025567089
 30
0.0
 10
165.761271251644
 20
267.3039984821224
 30
0.0
 10
165.8375089803719
 20
267.4181028293743
 30
0.0
 10
166.0279232259853
 20
267.6085247234048
 30
0.0
 10
166.1420248138403
 20
267.6847673381433
 30
0.0
 10
166.3908177660225
 20
267.7878234386038
 30
0.0
 10
166.5254112289841
 20
267.8145963711954
 30
0.0
 10
166.660057676047
 20
267.8145963711941
 30
0.0
  0
LINE
  5
12C
330
1F
100
AcDbEntity
  8
0
  6
Continuous
 62
     8
370
    18
100
AcDbLine
 10
166.6600576763
 20
267.8065468927
 30
0.0
 11
166.660057676
 21
267.8145468287
 31
0.0
  0
LINE
  5
12D
330
1F
100
AcDbEntity
  8
0
  6
Continuous
 62
     8
370
    18
100
AcDbLine
 10
166.6600576765
 20
266.7738492425
 30
0.0
 11
166.6600576763
 21
267.8065468927
 31
0.0
  0
LINE
  5
12E
330
1F
100
AcDbEntity
  8
0
  6
Continuous
 62
     8
370
    18
100
AcDbLine
 10
183.6314371162
 20
267.8065468927
 30
0.0
 11
166.6600576763
 21
267.8065468927
 31
0.0
  0
LINE
  5
12F
330
1F
100
AcDbEntity
  8
0
  6
Continuous
 62
     8
370
    18
100
AcDbLine
 10
183.6314371162
 20
266.7738492425
 30
0.0
 11
183.6314371162
 21
267.8065468927
 31
0.0
  0
LINE
  5
130
330
1F
100
AcDbEntity
  8
0
  6
Continuous
 62
     8
370
    18
100
AcDbLine
 10
200.6028165561
 20
266.7738492425
 30
0.0
 11
200.6028165561
 21
267.8065468927
 31
0.0
  0
LINE
  5
131
330
1F
100
AcDbEntity
  8
0
  6
Continuous
 62
     8
370
    18
100
AcDbLine
 10
200.6028165561
 20
267.8065468927
 30
0.0
 11
200.6028165561
 21
267.8145468287
 31
0.0
  0
SPLINE
  5
132
330
1F
100
AcDbEntity
  8
0
  6
Continuous
 62
     8
370
    18
100
AcDbSpline
210
0.0
220
0.0
230
1.0
 70
     8
 71
     3
 72
    10
 73
     6
 74
     0
 42
0.00000001
 43
0.00000001
 40
0.0
 40
0.0
 40
0.0
 40
0.0
 40
0.5
 40
0.5
 40
1.0
 40
1.0
 40
1.0
 40
1.0
 10
201.6314081014349
 20
266.7859635113348
 30
0.0
 10
201.6330692735729
 20
267.0558536222002
 30
0.0
 10
201.5205321592283
 20
267.3229258022395
 30
0.0
 10
201.1402966238611
 20
267.7038685249495
 30
0.0
 10
200.8721936549742
 20
267.8147489213674
 30
0.0
 10
200.602816556137
 20
267.8145468286976
 30
0.0
  0
LINE
  5
133
330
1F
100
AcDbEntity
  8
0
  6
Continuous
 62
     8
370
    18
100
AcDbLine
 10
183.6314371162
 20
267.8065468927
 30
0.0
 11
200.6028165561
 21
267.8065468927
 31
0.0
  0
LINE
  5
134
330
1F
100
AcDbEntity
  8
0
  6
Continuous
 62
     8
370
    18
100
AcDbLine
 10
183.6314371161
 20
267.8065468927
 30
0.0
 11
183.6314371161
 21
267.8145468287
 31
0.0
  0
LINE
  5
135
330
1F
100
AcDbEntity
  8
0
  6
Continuous
 62
     8
370
    18
100
AcDbLine
 10
183.6314371161
 20
267.8145951979
 30
0.0
 11
200.6028165553
 21
267.8145951979
 31
0.0
  0
LINE
  5
136
330
1F
100
AcDbEntity
  8
0
  6
Continuous
 62
     8
370
    18
100
AcDbLine
 10
183.6314371161
 20
267.8145468287
 30
0.0
 11
166.660057676
 21
267.8145468287
 31
0.0
  0
LINE
  5
137
330
1F
100
AcDbEntity
  8
0
  6
Continuous
 62
     8
370
    18
100
AcDbLine
 10
166.6600576765
 20
267.8260873853
 30
0.0
 11
166.6600576776
 21
267.8145951985
 31
0.0
  0
LINE
  5
138
330
1F
100
AcDbEntity
  8
0
  6
Continuous
 62
     8
370
    18
100
AcDbLine
 10
200.6028165553
 20
267.8145951987
 30
0.0
 11
200.6028165549
 21
267.8260873853
 31
0.0
  0
LINE
  5
139
330
1F
100
AcDbEntity
  8
0
  6
Continuous
 62
     8
370
    18
100
AcDbLine
 10
200.6318762239
 20
108.79736811
 30
0.0
 11
200.6318762239
 21
164.8954483732
 31
0.0
  0
LINE
  5
13A
330
1F
100
AcDbEntity
  8
0
  6
Continuous
 62
     8
370
    18
100
AcDbLine
 10
166.6318740375
 20
108.79736811
 30
0.0
 11
200.6318762239
 21
108.79736811
 31
0.0
  0
LINE
  5
13B
330
1F
100
AcDbEntity
  8
0
  6
Continuous
 62
     8
370
    18
100
AcDbLine
 10
166.6318740375
 20
108.79736811
 30
0.0
 11
166.6318740375
 21
164.8954210467
 31
0.0
  0
SPLINE
  5
13C
330
1F
100
AcDbEntity
  8
0
  6
Continuous
 62
     8
370
    18
100
AcDbSpline
210
0.0
220
0.0
230
1.0
 70
    24
 71
     3
 72
    14
 73
    10
 74
     0
 42
0.00000001
 43
0.00000001
 40
0.0
 40
0.0
 40
0.0
 40
0.0
 40
0.25
 40
0.25
 40
0.5
 40
0.5
 40
0.75
 40
0.75
 40
1.0
 40
1.0
 40
1.0
 40
1.0
 10
165.6318740374815
 20
108.7973681099835
 30
0.0
 10
165.6318740373089
 20
108.7973681100138
 30
0.0
 10
165.6533527759686
 20
108.7973681100409
 30
0.0
 10
165.7508186960287
 20
108.7973681100791
 30
0.0
 10
165.8271361828115
 20
108.7973681100899
 30
0.0
 10
166.0223983287482
 20
108.7973681100899
 30
0.0
 10
166.1406823771403
 20
108.7973681100792
 30
0.0
 10
166.3868762781103
 20
108.7973681100409
 30
0.0
 10
166.5140229072
 20
108.7973681100138
 30
0.0
 10
166.6318740374814
 20
108.7973681099835
 30
0.0
  0
SPLINE
  5
13D
330
1F
100
AcDbEntity
  8
0
  6
Continuous
 62
     8
370
    18
100
AcDbSpline
210
0.0
220
0.0
230
1.0
 70
     8
 71
     3
 72
    14
 73
    10
 74
     0
 42
0.00000001
 43
0.00000001
 40
0.0
 40
0.0
 40
0.0
 40
0.0
 40
0.25
 40
0.25
 40
0.5
 40
0.5
 40
0.75
 40
0.75
 40
1.0
 40
1.0
 40
1.0
 40
1.0
 10
200.6318762237612
 20
108.7973681099834
 30
0.0
 10
200.7497273539287
 20
108.7973681099155
 30
0.0
 10
200.8768739828474
 20
108.7973681098546
 30
0.0
 10
201.1230678834803
 20
108.7973681097689
 30
0.0
 10
201.241351931713
 20
108.7973681097447
 30
0.0
 10
201.4366140775276
 20
108.7973681097447
 30
0.0
 10
201.5129315643537
 20
108.7973681097689
 30
0.0
 10
201.6103974847225
 20
108.7973681098546
 30
0.0
 10
201.631876223642
 20
108.7973681099155
 30
0.0
 10
201.6318762237611
 20
108.7973681099834
 30
0.0
  0
SPLINE
  5
13E
330
1F
100
AcDbEntity
  8
0
  6
Continuous
 62
     8
370
    18
100
AcDbSpline
210
0.0
220
0.0
230
1.0
 70
    24
 71
     3
 72
    10
 73
     6
 74
     0
 42
0.00000001
 43
0.00000001
 40
0.0
 40
0.0
 40
0.0
 40
0.0
 40
0.5
 40
0.5
 40
1.0
 40
1.0
 40
1.0
 40
1.0
 10
166.6318740377581
 20
107.7973681099835
 30
0.0
 10
166.6318740377021
 20
107.7973681099844
 30
0.0
 10
166.6318740376464
 20
107.905141206375
 30
0.0
 10
166.6318740375671
 20
108.2753814512214
 30
0.0
 10
166.631874037544
 20
108.5355687221849
 30
0.0
 10
166.631874037544
 20
108.7973681099835
 30
0.0
  0
SPLINE
  5
13F
330
1F
100
AcDbEntity
  8
0
  6
Continuous
 62
     8
370
    18
100
AcDbSpline
210
0.0
220
0.0
230
1.0
 70
    24
 71
     3
 72
    10
 73
     6
 74
     0
 42
0.00000001
 43
0.00000001
 40
0.0
 40
0.0
 40
0.0
 40
0.0
 40
0.5
 40
0.5
 40
1.0
 40
1.0
 40
1.0
 40
1.0
 10
200.6318762239353
 20
107.7973681099834
 30
0.0
 10
200.6318762239353
 20
107.7973681099834
 30
0.0
 10
200.6318762239353
 20
107.9051412063736
 30
0.0
 10
200.6318762239353
 20
108.2753814512201
 30
0.0
 10
200.6318762239353
 20
108.5355687221842
 30
0.0
 10
200.6318762239353
 20
108.7973681099834
 30
0.0
  0
SPLINE
  5
140
330
1F
100
AcDbEntity
  8
0
  6
Continuous
 62
     8
370
    18
100
AcDbSpline
210
0.0
220
0.0
230
1.0
 70
     8
 71
     3
 72
    33
 73
    29
 74
     0
 42
0.00000001
 43
0.00000001
 40
0.0
 40
0.0
 40
0.0
 40
0.0
 40
0.0190878135364
 40
0.0381795741833243
 40
0.0572924407854303
 40
0.0868746858683158
 40
0.1165117299857782
 40
0.1774738038076334
 40
0.239983308589099
 40
0.3037884199867963
 40
0.368600991572039
 40
0.4059787639266889
 40
0.4341242959769488
 40
0.4717449285430055
 40
0.4999981980460815
 40
0.53766201613568
 40
0.5658720918559889
 40
0.6033780455041944
 40
0.631395372006781
 40
0.668547415862245
 40
0.6962285011515315
 40
0.760033612549129
 40
0.8225431173304684
 40
0.8835051911521787
 40
0.9427084540340297
 40
0.9716034496708349
 40
0.9857879152615971
 40
1.0
 40
1.0
 40
1.0
 40
1.0
 10
160.6318341989098
 20
266.7973677730831
 30
0.0
 10
160.6323530892813
 20
266.857321198863
 30
0.0
 10
160.633390977324
 20
266.9772404480083
 30
0.0
 10
160.6417929262101
 20
267.1570307215836
 30
0.0
 10
160.6576401362039
 20
267.3693670271381
 30
0.0
 10
160.6854768478355
 20
267.6139175777448
 30
0.0
 10
160.7455151353744
 20
267.986686840917
 30
0.0
 10
160.855730592661
 20
268.4555958202245
 30
0.0
 10
161.0454432679809
 20
269.0133443083297
 30
0.0
 10
161.2944992643725
 20
269.5606261875894
 30
0.0
 10
161.5577088163864
 20
270.0117868770354
 30
0.0
 10
161.791802510207
 20
270.3478711653235
 30
0.0
 10
161.990440897375
 20
270.6039032771081
 30
0.0
 10
162.1833821861335
 20
270.8277042736175
 30
0.0
 10
162.4082319642953
 20
271.0627595959028
 30
0.0
 10
162.6235098381008
 20
271.2656647325517
 30
0.0
 10
162.8710615035074
 20
271.4759112835808
 30
0.0
 10
163.1051369292818
 20
271.6547752037511
 30
0.0
 10
163.3711776333274
 20
271.8371855340474
 30
0.0
 10
163.61998136529
 20
271.9896762185933
 30
0.0
 10
163.9748308706536
 20
272.18304591147
 30
0.0
 10
164.4158740510117
 20
272.3837695558913
 30
0.0
 10
164.9736203718725
 20
272.5734753634607
 30
0.0
 10
165.5329880892389
 20
272.7049387729847
 30
0.0
 10
165.9975280496188
 20
272.7688071482636
 30
0.0
 10
166.3181492831459
 20
272.7902732691863
 30
0.0
 10
166.4980044426263
 20
272.7965062247712
 30
0.0
 10
166.5871946242143
 20
272.7970797351472
 30
0.0
 10
166.6318330892345
 20
272.7973667692401
 30
0.0
  0
SPLINE
  5
141
330
1F
100
AcDbEntity
  8
0
  6
Continuous
 62
     8
370
    18
100
AcDbSpline
210
0.0
220
0.0
230
1.0
 70
     8
 71
     3
 72
    18
 73
    14
 74
     0
 42
0.00000001
 43
0.00000001
 40
0.0
 40
0.0
 40
0.0
 40
0.0
 40
0.2500000000000016
 40
0.2500000000000016
 40
0.3750000000000012
 40
0.3750000000000012
 40
0.500000000000001
 40
0.500000000000001
 40
0.6250000000000008
 40
0.6250000000000008
 40
0.7500000000000004
 40
0.7500000000000004
 40
1.0
 40
1.0
 40
1.0
 40
1.0
 10
166.6318331053585
 20
267.7973667654556
 30
0.0
 10
166.6318331057933
 20
267.7973667521068
 30
0.0
 10
166.6318331058358
 20
267.9047604342911
 30
0.0
 10
166.6318331050653
 20
268.2702576229773
 30
0.0
 10
166.6318331046715
 20
268.4255083970959
 30
0.0
 10
166.6318331036087
 20
268.7992699363065
 30
0.0
 10
166.6318331029398
 20
269.0177551315726
 30
0.0
 10
166.6318331013611
 20
269.5059104967864
 30
0.0
 10
166.6318331004516
 20
269.7754707710091
 30
0.0
 10
166.6318330984566
 20
270.3471651437766
 30
0.0
 10
166.6318330973717
 20
270.649150806635
 30
0.0
 10
166.6318330939743
 20
271.5723779477881
 30
0.0
 10
166.6318330915284
 20
272.2081111049088
 30
0.0
 10
166.6318330891879
 20
272.7973667692401
 30
0.0
  0
SPLINE
  5
142
330
1F
100
AcDbEntity
  8
0
  6
Continuous
 62
     8
370
    18
100
AcDbSpline
210
0.0
220
0.0
230
1.0
 70
    24
 71
     3
 72
    18
 73
    14
 74
     0
 42
0.00000001
 43
0.00000001
 40
0.0
 40
0.0
 40
0.0
 40
0.0
 40
0.2500000000000006
 40
0.2500000000000006
 40
0.3750000000000001
 40
0.3750000000000001
 40
0.4999999999999996
 40
0.4999999999999996
 40
0.6249999999999991
 40
0.6249999999999991
 40
0.7499999999999986
 40
0.7499999999999986
 40
1.0
 40
1.0
 40
1.0
 40
1.0
 10
165.6318341989096
 20
266.7973678762903
 30
0.0
 10
165.6318342149162
 20
266.79736787629
 30
0.0
 10
165.5244405351207
 20
266.797367874073
 30
0.0
 10
165.1589433473297
 20
266.7973678665283
 30
0.0
 10
165.003692573077
 20
266.7973678633236
 30
0.0
 10
164.6299310327884
 20
266.7973678556086
 30
0.0
 10
164.4114458365797
 20
266.7973678510987
 30
0.0
 10
163.9232904691442
 20
266.7973678410225
 30
0.0
 10
163.6537301936509
 20
266.7973678354584
 30
0.0
 10
163.0820358187571
 20
266.7973678236578
 30
0.0
 10
162.7800501550535
 20
266.7973678174245
 30
0.0
 10
161.8568230130755
 20
266.797367798368
 30
0.0
 10
161.221089857901
 20
266.7973677852459
 30
0.0
 10
160.6318341989089
 20
266.7973677730831
 30
0.0
  0
SPLINE
  5
143
330
1F
100
AcDbEntity
  8
0
  6
Continuous
 62
     8
370
    18
100
AcDbSpline
210
0.0
220
0.0
230
1.0
 70
    24
 71
     3
 72
    18
 73
    14
 74
     0
 42
0.00000001
 43
0.00000001
 40
0.0
 40
0.0
 40
0.0
 40
0.0
 40
0.2500000000000003
 40
0.2500000000000003
 40
0.3750000000000004
 40
0.3750000000000004
 40
0.5000000000000004
 40
0.5000000000000004
 40
0.6250000000000004
 40
0.6250000000000004
 40
0.7500000000000006
 40
0.7500000000000006
 40
1.0
 40
1.0
 40
1.0
 40
1.0
 10
160.63183450853
 20
251.7973669263936
 30
0.0
 10
161.2210901675221
 20
251.7973669385563
 30
0.0
 10
161.8568233226965
 20
251.7973669516783
 30
0.0
 10
162.7800504646743
 20
251.7973669707347
 30
0.0
 10
163.0820361283779
 20
251.797366976968
 30
0.0
 10
163.6537305032717
 20
251.7973669887684
 30
0.0
 10
163.9232907787651
 20
251.7973669943324
 30
0.0
 10
164.4114461462005
 20
251.7973670044086
 30
0.0
 10
164.6299313424092
 20
251.7973670089184
 30
0.0
 10
165.0036928826978
 20
251.7973670166334
 30
0.0
 10
165.1589436569506
 20
251.797367019838
 30
0.0
 10
165.5244408447417
 20
251.7973670273826
 30
0.0
 10
165.6318345245373
 20
251.7973670295996
 30
0.0
 10
165.6318345085308
 20
251.7973670295999
 30
0.0
  0
LINE
  5
144
330
1F
100
AcDbEntity
  8
0
  6
Continuous
 62
     8
370
    18
100
AcDbLine
 10
160.6318345085
 20
266.7973677731
 30
0.0
 11
160.6318345085
 21
251.7973669264
 31
0.0
  0
LINE
  5
145
330
1F
100
AcDbEntity
  8
0
  6
Continuous
 62
     8
370
    18
100
AcDbLine
 10
206.6318386555
 20
251.7973670296
 30
0.0
 11
201.6318386554
 21
251.7973670296
 31
0.0
  0
SPLINE
  5
146
330
1F
100
AcDbEntity
  8
0
  6
Continuous
 62
     8
370
    18
100
AcDbSpline
210
0.0
220
0.0
230
1.0
 70
     8
 71
     3
 72
    14
 73
    10
 74
     0
 42
0.00000001
 43
0.00000001
 40
0.0
 40
0.0
 40
0.0
 40
0.0
 40
0.1738748365796194
 40
0.3472541162751507
 40
0.5204005073940636
 40
0.6504965794456002
 40
0.7805651009971109
 40
0.910666518704122
 40
1.0
 40
1.0
 40
1.0
 40
1.0
 10
160.6318345085318
 20
251.7973669263936
 30
0.0
 10
160.6456570473701
 20
250.7112370971149
 30
0.0
 10
160.6732627297299
 20
248.542072993524
 30
0.0
 10
160.9900061996325
 20
245.3025305699002
 30
0.0
 10
161.5738146515832
 20
242.3771910657507
 30
0.0
 10
162.3982031339597
 20
239.7940829214768
 30
0.0
 10
163.3839993389626
 20
237.5620552281333
 30
0.0
 10
164.4543826890068
 20
235.6503057585998
 30
0.0
 10
165.2911999011194
 20
234.5635577942294
 30
0.0
 10
165.6318740377586
 20
234.1211351012595
 30
0.0
  0
SPLINE
  5
147
330
1F
100
AcDbEntity
  8
0
  6
Continuous
 62
     8
370
    18
100
AcDbSpline
210
0.0
220
0.0
230
1.0
 70
     8
 71
     3
 72
    14
 73
    10
 74
     0
 42
0.00000001
 43
0.00000001
 40
0.0
 40
0.0
 40
0.0
 40
0.0
 40
0.0893607590446239
 40
0.2194460873065106
 40
0.3495264999918513
 40
0.4796119160856785
 40
0.6528274409662009
 40
0.8260500970649813
 40
1.0
 40
1.0
 40
1.0
 40
1.0
 10
201.6318762240382
 20
234.1203143689692
 30
0.0
 10
201.9725525184425
 20
234.5629901574445
 30
0.0
 10
202.8091622411482
 20
235.6500833151663
 30
0.0
 10
203.8773853201071
 20
237.5631187322973
 30
0.0
 10
204.8677474156958
 20
239.7931154621702
 30
0.0
 10
205.689598885859
 20
242.3777576874491
 30
0.0
 10
206.2731943844424
 20
245.3024443384785
 30
0.0
 10
206.5897613766096
 20
248.5420448420819
 30
0.0
 10
206.6177933223879
 20
250.7107453238278
 30
0.0
 10
206.6318386555237
 20
251.7973670296006
 30
0.0
  0
LINE
  5
148
330
1F
100
AcDbEntity
  8
0
  6
Continuous
 62
     8
370
    18
100
AcDbLine
 10
166.6318330892
 20
272.7973678761
 30
0.0
 11
200.631835279
 21
272.7973678761
 31
0.0
  0
SPLINE
  5
149
330
1F
100
AcDbEntity
  8
0
  6
Continuous
 62
     8
370
    18
100
AcDbSpline
210
0.0
220
0.0
230
1.0
 70
     8
 71
     3
 72
    18
 73
    14
 74
     0
 42
0.00000001
 43
0.00000001
 40
0.0
 40
0.0
 40
0.0
 40
0.0
 40
0.2499999999999994
 40
0.2499999999999994
 40
0.3749999999999991
 40
0.3749999999999991
 40
0.4999999999999988
 40
0.4999999999999988
 40
0.6249999999999984
 40
0.6249999999999984
 40
0.7499999999999982
 40
0.7499999999999982
 40
1.0
 40
1.0
 40
1.0
 40
1.0
 10
200.6318352820642
 20
272.7973712527415
 30
0.0
 10
200.6318352817087
 20
272.2081156021988
 30
0.0
 10
200.6318352812408
 20
271.5723824579501
 30
0.0
 10
200.6318352803966
 20
270.6491553311304
 30
0.0
 10
200.6318352800925
 20
270.3471696722121
 30
0.0
 10
200.631835279454
 20
269.77547530514
 30
0.0
 10
200.6318352791197
 20
269.5059150326683
 30
0.0
 10
200.6318352784417
 20
269.0177596685006
 30
0.0
 10
200.6318352780982
 20
268.7992744725284
 30
0.0
 10
200.6318352774236
 20
268.4255129295181
 30
0.0
 10
200.6318352770927
 20
268.2702621523086
 30
0.0
 10
200.631835276147
 20
267.9047649513474
 30
0.0
 10
200.6318352755829
 20
267.7973712569691
 30
0.0
 10
200.63183527512
 20
267.797371256527
 30
0.0
  0
LINE
  5
14A
330
1F
100
AcDbEntity
  8
0
  6
Continuous
 62
     8
370
    18
100
AcDbLine
 10
201.6318386555
 20
266.7973678763
 30
0.0
 11
206.6318386555
 21
266.7973678763
 31
0.0
  0
SPLINE
  5
14B
330
1F
100
AcDbEntity
  8
0
  6
Continuous
 62
     8
370
    18
100
AcDbSpline
210
0.0
220
0.0
230
1.0
 70
     8
 71
     3
 72
    22
 73
    18
 74
     0
 42
0.00000001
 43
0.00000001
 40
0.0
 40
0.0
 40
0.0
 40
0.0
 40
0.125
 40
0.125
 40
0.25
 40
0.25
 40
0.375
 40
0.375
 40
0.5
 40
0.5
 40
0.625
 40
0.625
 40
0.75
 40
0.75
 40
0.875
 40
0.875
 40
1.0
 40
1.0
 40
1.0
 40
1.0
 10
206.6318386555229
 20
266.7973678762901
 30
0.0
 10
206.6318386555043
 20
267.1509214657545
 30
0.0
 10
206.6004085541923
 20
267.5176967092323
 30
0.0
 10
206.4629330651212
 20
268.2605969004688
 30
0.0
 10
206.3567671875509
 20
268.6366463170173
 30
0.0
 10
206.0643692624202
 20
269.3752284347243
 30
0.0
 10
205.8780682249659
 20
269.7376114296809
 30
0.0
 10
205.4295541209113
 20
270.4236450568638
 30
0.0
 10
205.1673717381226
 20
270.7471175661706
 30
0.0
 10
204.5815849712145
 20
271.3329043333709
 30
0.0
 10
204.2581124620385
 20
271.5950867163209
 30
0.0
 10
203.5720788350793
 20
272.0436008207176
 30
0.0
 10
203.2096958402155
 20
272.2299018583527
 30
0.0
 10
202.4711137226545
 20
272.5222997838519
 30
0.0
 10
202.0950643061588
 20
272.6284656616099
 30
0.0
 10
201.3521641149908
 20
272.7659411510515
 30
0.0
 10
200.9853888715287
 20
272.7973712525466
 30
0.0
 10
200.6318352820642
 20
272.7973712527415
 30
0.0
  0
LINE
  5
14C
330
1F
100
AcDbEntity
  8
0
  6
Continuous
 62
     8
370
    18
100
AcDbLine
 10
206.6318386555
 20
251.7973670296
 30
0.0
 11
206.6318386555
 21
266.7973678763
 31
0.0
  0
LINE
  5
14D
330
1F
100
AcDbEntity
  8
0
  6
Continuous
 62
     8
370
    18
100
AcDbLine
 10
206.7318296278
 20
272.897367107
 30
0.0
 11
160.5318296278
 21
272.897367107
 31
0.0
  0
LINE
  5
14E
330
1F
100
AcDbEntity
  8
0
  6
Continuous
 62
     8
370
    18
100
AcDbLine
 10
206.7318296278
 20
226.6973671068
 30
0.0
 11
206.7318296278
 21
272.897367107
 31
0.0
  0
LINE
  5
14F
330
1F
100
AcDbEntity
  8
0
  6
Continuous
 62
     8
370
    18
100
AcDbLine
 10
160.5318296278
 20
226.6973671068
 30
0.0
 11
165.6314661307
 21
226.6973671068
 31
0.0
  0
LINE
  5
150
330
1F
100
AcDbEntity
  8
0
  6
Continuous
 62
     8
370
    18
100
AcDbLine
 10
201.631876224
 20
226.6973671068
 30
0.0
 11
206.7318296278
 21
226.6973671068
 31
0.0
  0
LINE
  5
151
330
1F
100
AcDbEntity
  8
0
  6
Continuous
 62
     8
370
    18
100
AcDbLine
 10
160.5318296278
 20
272.897367107
 30
0.0
 11
160.5318296278
 21
226.6973671068
 31
0.0
  0
LINE
  5
152
330
1F
100
AcDbEntity
  8
0
  6
Continuous
 62
     8
370
    18
100
AcDbLine
 10
160.5318296278
 20
272.897367107
 30
0.0
 11
159.5318296278
 21
272.897367107
 31
0.0
  0
LINE
  5
153
330
1F
100
AcDbEntity
  8
0
  6
Continuous
 62
     8
370
    18
100
AcDbLine
 10
160.5318296278
 20
273.897367107
 30
0.0
 11
160.5318296278
 21
272.897367107
 31
0.0
  0
LINE
  5
154
330
1F
100
AcDbEntity
  8
0
  6
Continuous
 62
     8
370
    18
100
AcDbLine
 10
206.7318296278
 20
273.897367107
 30
0.0
 11
206.7318296278
 21
272.897367107
 31
0.0
  0
LINE
  5
155
330
1F
100
AcDbEntity
  8
0
  6
Continuous
 62
     8
370
    18
100
AcDbLine
 10
160.5318296278
 20
226.6973671068
 30
0.0
 11
159.5318296278
 21
226.6973671068
 31
0.0
  0
LINE
  5
156
330
1F
100
AcDbEntity
  8
0
  6
Continuous
 62
     8
370
    18
100
AcDbLine
 10
207.7318296278
 20
272.897367107
 30
0.0
 11
206.7318296278
 21
272.897367107
 31
0.0
  0
LINE
  5
157
330
1F
100
AcDbEntity
  8
0
  6
Continuous
 62
     8
370
    18
100
AcDbLine
 10
206.7318296278
 20
226.6973671068
 30
0.0
 11
206.7318296278
 21
225.6973671068
 31
0.0
  0
LINE
  5
158
330
1F
100
AcDbEntity
  8
0
  6
Continuous
 62
     8
370
    18
100
AcDbLine
 10
160.5318296278
 20
226.6973671068
 30
0.0
 11
160.5318296278
 21
225.6973671068
 31
0.0
  0
LINE
  5
159
330
1F
100
AcDbEntity
  8
0
  6
Continuous
 62
     8
370
    18
100
AcDbLine
 10
207.7318296278
 20
226.6973671068
 30
0.0
 11
206.7318296278
 21
226.6973671068
 31
0.0
  0
SPLINE
  5
15A
330
1F
100
AcDbEntity
  8
0
  6
Continuous
 62
     7
370
    25
100
AcDbSpline
210
0.0
220
0.0
230
1.0
 70
     8
 71
     3
 72
    31
 73
    27
 74
     0
 42
0.00000001
 43
0.00000001
 40
0.0
 40
0.0
 40
0.0
 40
0.0
 40
0.0280936424366799
 40
0.0554975164660504
 40
0.0755688082495289
 40
0.0963206744227252
 40
0.1333002144924787
 40
0.1741407769333791
 40
0.2184985731748997
 40
0.2646180056238655
 40
0.3123451489456091
 40
0.3615099550378787
 40
0.4593274032025953
 40
0.5607356280083531
 40
0.6561071281990861
 40
0.7409213682283989
 40
0.8161852312031207
 40
0.8449408745743937
 40
0.8722492083044209
 40
0.897341983955283
 40
0.9138115298679611
 40
0.9292521396995976
 40
0.9448369792218841
 40
0.9616829784984627
 40
0.9806707625340677
 40
1.0
 40
1.0
 40
1.0
 40
1.0
 10
357.8262517434998
 20
468.834418081919
 30
0.0
 10
358.309948739293
 20
469.1800043815733
 30
0.0
 10
359.2654667732793
 20
469.8626919824686
 30
0.0
 10
360.644555158316
 20
470.7395622773984
 30
0.0
 10
361.921077310155
 20
471.4952855310361
 30
0.0
 10
363.4773462841904
 20
472.3626738596545
 30
0.0
 10
365.5355358375792
 20
473.4186714117423
 30
0.0
 10
368.1216350628074
 20
474.6124157733554
 30
0.0
 10
370.9260256775233
 20
475.7662560867916
 30
0.0
 10
373.9430361838605
 20
476.8767674648924
 30
0.0
 10
377.0985912011489
 20
477.939699571614
 30
0.0
 10
381.4269515096785
 20
479.309953282718
 30
0.0
 10
386.9791045093785
 20
480.9780856895454
 30
0.0
 10
393.5799233827991
 20
482.9151014010379
 30
0.0
 10
399.8991158677426
 20
484.7416852991788
 30
0.0
 10
405.6426960451996
 20
486.3727698983348
 30
0.0
 10
409.8963743977062
 20
487.5500166267447
 30
0.0
 10
412.858636023553
 20
488.3538643312444
 30
0.0
 10
414.6852655642231
 20
488.842488268502
 30
0.0
 10
416.2491462224452
 20
489.2550664366458
 30
0.0
 10
417.4739376633777
 20
489.5753093227348
 30
0.0
 10
418.3635363944499
 20
489.8096835067024
 30
0.0
 10
419.0477326242178
 20
489.9962549085566
 30
0.0
 10
419.5221846745834
 20
490.1341540909125
 30
0.0
 10
419.8063645159892
 20
490.2264719319674
 30
0.0
 10
419.8359511261084
 20
490.250179085966
 30
0.0
 10
419.8508762583445
 20
490.2621382934232
 30
0.0
  0
SPLINE
  5
15B
330
1F
100
AcDbEntity
  8
0
  6
Continuous
 62
     7
370
    25
100
AcDbSpline
210
0.0
220
0.0
230
1.0
 70
     8
 71
     3
 72
    11
 73
     7
 74
     0
 42
0.00000001
 43
0.00000001
 40
0.0
 40
0.0
 40
0.0
 40
0.0
 40
0.2327870170059991
 40
0.4795759535503099
 40
0.7368349554233827
 40
1.0
 40
1.0
 40
1.0
 40
1.0
 10
320.0080575989845
 20
349.0555520495008
 30
0.0
 10
319.9895391028612
 20
348.7504595351567
 30
0.0
 10
319.9513882405369
 20
348.1219234794546
 30
0.0
 10
319.667207591677
 20
347.1918407139212
 30
0.0
 10
319.2095521583882
 20
346.2870450670982
 30
0.0
 10
318.7561637488403
 20
345.7776207720469
 30
0.0
 10
318.5268969003479
 20
345.5200180186189
 30
0.0
  0
SPLINE
  5
15C
330
1F
100
AcDbEntity
  8
0
  6
Continuous
 62
     7
370
    25
100
AcDbSpline
210
0.0
220
0.0
230
1.0
 70
     8
 71
     3
 72
    13
 73
     9
 74
     0
 42
0.00000001
 43
0.00000001
 40
0.0
 40
0.0
 40
0.0
 40
0.0
 40
0.2394557791914638
 40
0.3683592375999074
 40
0.4999984459826755
 40
0.6316379126455167
 40
0.7605420833652963
 40
1.0
 40
1.0
 40
1.0
 40
1.0
 10
360.9914581049647
 20
344.0555519130602
 30
0.0
 10
360.3624822564155
 20
344.1223419949537
 30
0.0
 10
359.3949171184067
 20
344.2250864086762
 30
0.0
 10
358.2308482744319
 20
344.848574522107
 30
0.0
 10
357.4298223566767
 20
345.4938835639378
 30
0.0
 10
356.784519895892
 20
346.2949172458553
 30
0.0
 10
356.1610380095387
 20
347.4589981353122
 30
0.0
 10
356.0582951420192
 20
348.4265705717029
 30
0.0
 10
355.991505985779
 20
349.0555519130654
 30
0.0
  0
SPLINE
  5
15D
330
1F
100
AcDbEntity
  8
0
  6
Continuous
 62
     7
370
    25
100
AcDbSpline
210
0.0
220
0.0
230
1.0
 70
     8
 71
     3
 72
    13
 73
     9
 74
     0
 42
0.00000001
 43
0.00000001
 40
0.0
 40
0.0
 40
0.0
 40
0.0
 40
0.22686527978709
 40
0.4705771359655878
 40
0.5950858510865064
 40
0.7260689191965356
 40
0.8622424065684469
 40
0.9999999999999999
 40
0.9999999999999999
 40
0.9999999999999999
 40
0.9999999999999999
 10
422.5690631640588
 20
492.9508191603074
 30
0.0
 10
422.5372851027084
 20
493.0702524545572
 30
0.0
 10
422.4713692027046
 20
493.3179879282259
 30
0.0
 10
422.2421253894657
 20
493.5593874737737
 30
0.0
 10
422.0069571121572
 20
493.7018765769515
 30
0.0
 10
421.8013800068069
 20
493.7753083069961
 30
0.0
 10
421.5767534024263
 20
493.8114110284322
 30
0.0
 10
421.4277485638245
 20
493.7972635547382
 30
0.0
 10
421.3528153071994
 20
493.7901489114363
 30
0.0
  0
SPLINE
  5
15E
330
1F
100
AcDbEntity
  8
0
  6
Continuous
 62
     7
370
    25
100
AcDbSpline
210
0.0
220
0.0
230
1.0
 70
     8
 71
     3
 72
    14
 73
    10
 74
     0
 42
0.00000001
 43
0.00000001
 40
0.0
 40
0.0
 40
0.0
 40
0.0
 40
0.120435025258865
 40
0.2438890632789728
 40
0.4927195107660653
 40
0.616314550123675
 40
0.7430413674208812
 40
0.871849421093131
 40
0.9999999999999999
 40
0.9999999999999999
 40
0.9999999999999999
 40
0.9999999999999999
 10
321.0045059877083
 20
465.1238074265691
 30
0.0
 10
320.9412732805926
 20
465.1210853654957
 30
0.0
 10
320.8132227763985
 20
465.1155730079072
 30
0.0
 10
320.5675105108813
 20
465.0421859582482
 30
0.0
 10
320.3493224302291
 20
464.8978474030839
 30
0.0
 10
320.1834722069178
 20
464.6958999522858
 30
0.0
 10
320.0888434864654
 20
464.5198494950914
 30
0.0
 10
320.0251192701734
 20
464.3253485959899
 30
0.0
 10
320.0137342295332
 20
464.1909307712237
 30
0.0
 10
320.0080562745477
 20
464.1238938249019
 30
0.0
  0
LINE
  5
15F
330
1F
100
AcDbEntity
  8
0
  6
Continuous
 62
     7
370
    25
100
AcDbLine
 10
355.9913618771
 20
360.0555519461
 30
0.0
 11
355.9913618772
 21
389.1238928433
 31
0.0
  0
LINE
  5
160
330
1F
100
AcDbEntity
  8
0
  6
Continuous
 62
     7
370
    25
100
AcDbLine
 10
355.9915059858
 20
349.055551988
 30
0.0
 11
355.9915059858
 21
360.0555519131
 31
0.0
  0
LINE
  5
161
330
1F
100
AcDbEntity
  8
0
  6
Continuous
 62
     7
370
    25
100
AcDbLine
 10
355.9913616435
 20
389.1239328426
 30
0.0
 11
355.9913616435
 21
404.1238934957
 31
0.0
  0
SPLINE
  5
162
330
1F
100
AcDbEntity
  8
0
  6
Continuous
 62
     7
370
    25
100
AcDbSpline
210
0.0
220
0.0
230
1.0
 70
     8
 71
     3
 72
    27
 73
    23
 74
     0
 42
0.00000001
 43
0.00000001
 40
0.0
 40
0.0
 40
0.0
 40
0.0
 40
0.087769470271123
 40
0.1696715055538859
 40
0.2452734996176735
 40
0.3136091891838335
 40
0.3739157539079977
 40
0.4258679236426202
 40
0.4695438322820461
 40
0.5073354632571332
 40
0.543256558488913
 40
0.577463337455209
 40
0.6180171338578188
 40
0.6582807194412497
 40
0.7023851810750827
 40
0.750421918906965
 40
0.7823843616652212
 40
0.8139749666019626
 40
0.84592951695641
 40
0.8861376685520678
 40
0.9374308051819622
 40
1.0
 40
1.0
 40
1.0
 40
1.0
 10
355.9911827447647
 20
404.1238922004998
 30
0.0
 10
355.991160412609
 20
405.9825891989301
 30
0.0
 10
355.9911172412139
 20
409.5757283294042
 30
0.0
 10
356.1052548181958
 20
414.7693895024943
 30
0.0
 10
356.3944692090857
 20
419.5448226911222
 30
0.0
 10
356.8741739399344
 20
423.8456263846195
 30
0.0
 10
357.5243682797679
 20
427.61696763992
 30
0.0
 10
358.2995166895284
 20
430.8295544425907
 30
0.0
 10
359.151882622782
 20
433.5257467362447
 30
0.0
 10
360.0682249672524
 20
435.8388522868934
 30
0.0
 10
361.0686165816675
 20
437.8963804564238
 30
0.0
 10
362.2666247838285
 20
439.914196315032
 30
0.0
 10
363.7194785517612
 20
441.8765882593923
 30
0.0
 10
365.5531202659392
 20
443.7939866643177
 30
0.0
 10
367.7706586546315
 20
445.5280679220203
 30
0.0
 10
370.0865163172876
 20
446.7972191373033
 30
0.0
 10
372.2924100501219
 20
447.6541985702221
 30
0.0
 10
374.2400057522275
 20
448.2093138089155
 30
0.0
 10
376.3964725823088
 20
448.6403019035677
 30
0.0
 10
378.9940199351127
 20
448.957674234251
 30
0.0
 10
382.2548105928694
 20
449.1229089658876
 30
0.0
 10
384.6662413793017
 20
449.1235435112935
 30
0.0
 10
385.9913616429376
 20
449.1238922042687
 30
0.0
  0
ARC
  5
163
330
1F
100
AcDbEntity
  8
0
  6
Continuous
 62
     7
370
    25
100
AcDbCircle
 10
344.1082545378
 20
465.1238928047
 30
0.0
 40
22.81689189189191
100
AcDbArc
 50
160.3646928818
 51
180.0
  0
ARC
  5
164
330
1F
100
AcDbEntity
  8
0
  6
Continuous
 62
     7
370
    25
100
AcDbCircle
 10
329.674470754
 20
465.1238928047
 30
0.0
 40
22.81689189189194
100
AcDbArc
 50
0.0
 51
9.445670957
  0
ARC
  5
165
330
1F
100
AcDbEntity
  8
0
  6
Continuous
 62
     7
370
    25
100
AcDbCircle
 10
322.8065222409
 20
472.7238928047
 30
0.0
 40
0.2000000000000482
100
AcDbArc
 50
90.0
 51
160.3646928818
  0
LINE
  5
166
330
1F
100
AcDbEntity
  8
0
  6
Continuous
 62
     7
370
    25
100
AcDbLine
 10
322.8065222409
 20
473.0773296209
 30
0.0
 11
322.8065222409
 21
472.9238928047
 31
0.0
  0
LWPOLYLINE
  5
167
330
1F
100
AcDbEntity
  8
0
  6
Continuous
 62
     7
370
    25
100
AcDbPolyline
 90
        8
 70
   128
 43
0.0
 10
331.3353351029
 20
475.6359387092
 10
398.774858876
 20
486.9174393487
 10
415.8702357585
 20
489.7796517321
 10
420.2618279488
 20
490.5161234397
 10
421.4185999811
 20
490.7107006725
 10
421.7372299816
 20
490.7645746337
 10
421.831605978
 20
490.7806579504
 10
421.882689305
 20
490.7895054913
  0
SPLINE
  5
168
330
1F
100
AcDbEntity
  8
0
  6
Continuous
 62
     7
370
    25
100
AcDbSpline
210
0.0
220
0.0
230
1.0
 70
     8
 71
     3
 72
    14
 73
    10
 74
     0
 42
0.00000001
 43
0.00000001
 40
0.0
 40
0.0
 40
0.0
 40
0.0
 40
0.25
 40
0.25
 40
0.5
 40
0.5
 40
0.75
 40
0.75
 40
1.0
 40
1.0
 40
1.0
 40
1.0
 10
421.8826892657866
 20
490.7895054844312
 30
0.0
 10
422.0151843807367
 20
490.8136590997051
 30
0.0
 10
422.1476319129276
 20
490.8378048735068
 30
0.0
 10
422.3924074680771
 20
490.8827807968292
 30
0.0
 10
422.5046388410731
 20
490.9035950187765
 30
0.0
 10
422.6918122931198
 20
490.9390783183254
 30
0.0
 10
422.7666803975473
 20
490.9537352051697
 30
0.0
 10
422.8676358955797
 20
490.9750100894744
 30
0.0
 10
422.8936832546657
 20
490.9816214893868
 30
0.0
 10
422.8933086832368
 20
490.9838786481838
 30
0.0
  0
SPLINE
  5
169
330
1F
100
AcDbEntity
  8
0
  6
Continuous
 62
     7
370
    25
100
AcDbSpline
210
0.0
220
0.0
230
1.0
 70
     8
 71
     3
 72
    10
 73
     6
 74
     0
 42
0.00000001
 43
0.00000001
 40
0.0
 40
0.0
 40
0.0
 40
0.0
 40
0.1343875136950564
 40
0.4677207743934542
 40
1.0
 40
1.0
 40
1.0
 40
1.0
 10
421.8827655246178
 20
490.7892151475546
 30
0.0
 10
421.6070700537411
 20
490.742333532848
 30
0.0
 10
420.6475426721438
 20
490.5791672941665
 30
0.0
 10
418.5951914040857
 20
490.2353721180822
 30
0.0
 10
416.8187324711192
 20
489.9373008686161
 30
0.0
 10
415.7263589204584
 20
489.7540119993456
 30
0.0
  0
SPLINE
  5
16A
330
1F
100
AcDbEntity
  8
0
  6
Continuous
 62
     7
370
    25
100
AcDbSpline
210
0.0
220
0.0
230
1.0
 70
    24
 71
     3
 72
     9
 73
     5
 74
     0
 42
0.00000001
 43
0.00000001
 40
0.0
 40
0.0
 40
0.0
 40
0.0
 40
0.5622445587646744
 40
1.0
 40
1.0
 40
1.0
 40
1.0
 10
357.3422876988695
 20
468.8474610783859
 30
0.0
 10
357.4917371586197
 20
468.8468632805469
 30
0.0
 10
357.7575457954849
 20
468.8458000459995
 30
0.0
 10
357.8000039194956
 20
468.8456302135035
 30
0.0
 10
357.8185901943059
 20
468.8455558684042
 30
0.0
  0
SPLINE
  5
16B
330
1F
100
AcDbEntity
  8
0
  6
Continuous
 62
     7
370
    25
100
AcDbSpline
210
0.0
220
0.0
230
1.0
 70
    24
 71
     3
 72
    22
 73
    18
 74
     0
 42
0.00000001
 43
0.00000001
 40
0.0
 40
0.0
 40
0.0
 40
0.0
 40
0.125
 40
0.125
 40
0.25
 40
0.25
 40
0.375
 40
0.375
 40
0.5
 40
0.5
 40
0.625
 40
0.625
 40
0.75
 40
0.75
 40
0.875
 40
0.875
 40
1.0
 40
1.0
 40
1.0
 40
1.0
 10
351.7573948197648
 20
468.8698006499023
 30
0.0
 10
352.1282334212499
 20
468.8683172954965
 30
0.0
 10
352.4895900886269
 20
468.866871868827
 30
0.0
 10
353.1802820362383
 20
468.8641091010366
 30
0.0
 10
353.5107940968365
 20
468.8627870527941
 30
0.0
 10
354.1445901200001
 20
468.8602518687015
 30
0.0
 10
354.4499445441938
 20
468.8590304510047
 30
0.0
 10
355.0194434725868
 20
468.8567524552911
 30
0.0
 10
355.2827579330535
 20
468.8556991974492
 30
0.0
 10
355.7680184097624
 20
468.8537581555423
 30
0.0
 10
355.9900541110941
 20
468.8528700127371
 30
0.0
 10
356.3918037128715
 20
468.85126301433
 30
0.0
 10
356.5714213380321
 20
468.8505445438294
 30
0.0
 10
356.8775894298844
 20
468.8493198714619
 30
0.0
 10
357.0057399519197
 20
468.8488072693737
 30
0.0
 10
357.2109502681294
 20
468.8479864281089
 30
0.0
 10
357.2866433455152
 20
468.8476836557993
 30
0.0
 10
357.3422876988695
 20
468.8474610783859
 30
0.0
  0
SPLINE
  5
16C
330
1F
100
AcDbEntity
  8
0
  6
Continuous
 62
     7
370
    25
100
AcDbSpline
210
0.0
220
0.0
230
1.0
 70
    24
 71
     3
 72
    14
 73
    10
 74
     0
 42
0.00000001
 43
0.00000001
 40
0.0
 40
0.0
 40
0.0
 40
0.0
 40
0.25
 40
0.25
 40
0.5
 40
0.5
 40
0.75
 40
0.75
 40
1.0
 40
1.0
 40
1.0
 40
1.0
 10
344.966599399613
 20
468.8969638315831
 30
0.0
 10
345.5513254362128
 20
468.8946249274366
 30
0.0
 10
346.1325814690738
 20
468.8922999033051
 30
0.0
 10
347.2840936550155
 20
468.8876938545613
 30
0.0
 10
347.8548158173884
 20
468.8854109659119
 30
0.0
 10
348.986425592824
 20
468.8808845268101
 30
0.0
 10
349.5473058996403
 20
468.8786410055829
 30
0.0
 10
350.6599979936596
 20
468.874190237207
 30
0.0
 10
351.2125650422763
 20
468.8719799690123
 30
0.0
 10
351.7573948197648
 20
468.8698006499023
 30
0.0
  0
SPLINE
  5
16D
330
1F
100
AcDbEntity
  8
0
  6
Continuous
 62
     7
370
    25
100
AcDbSpline
210
0.0
220
0.0
230
1.0
 70
    24
 71
     3
 72
    12
 73
     8
 74
     0
 42
0.00000001
 43
0.00000001
 40
0.0
 40
0.0
 40
0.0
 40
0.0
 40
0.5
 40
0.5
 40
0.75
 40
0.75
 40
1.0
 40
1.0
 40
1.0
 40
1.0
 10
339.0258662515555
 20
468.9207267641753
 30
0.0
 10
340.0182835443483
 20
468.9167570950041
 30
0.0
 10
341.0097605774195
 20
468.9127911868718
 30
0.0
 10
342.4948476481818
 20
468.9068508385888
 30
0.0
 10
342.9895854377039
 20
468.9048718874308
 30
0.0
 10
343.9785996458911
 20
468.9009158305981
 30
0.0
 10
344.472873071373
 20
468.898938736896
 30
0.0
 10
344.966599399613
 20
468.8969638315831
 30
0.0
  0
SPLINE
  5
16E
330
1F
100
AcDbEntity
  8
0
  6
Continuous
 62
     7
370
    25
100
AcDbSpline
210
0.0
220
0.0
230
1.0
 70
     8
 71
     3
 72
     8
 73
     4
 74
     0
 42
0.00000001
 43
0.00000001
 40
0.0
 40
0.0
 40
0.0
 40
0.0
 40
1.0
 40
1.0
 40
1.0
 40
1.0
 10
337.4947591103294
 20
469.0052328073952
 30
0.0
 10
338.0037631282021
 20
468.9509344997674
 30
0.0
 10
338.5141139423026
 20
468.9227737802312
 30
0.0
 10
339.0258658163037
 20
468.9207267659164
 30
0.0
  0
LINE
  5
16F
330
1F
100
AcDbEntity
  8
0
  6
Continuous
 62
     7
370
    25
100
AcDbLine
 10
314.8913626459
 20
339.0555519124
 30
0.0
 11
361.0913626461
 21
339.0555519124
 31
0.0
  0
LINE
  5
170
330
1F
100
AcDbEntity
  8
0
  6
Continuous
 62
     7
370
    25
100
AcDbLine
 10
314.8913626459
 20
344.0555519131
 30
0.0
 11
361.0913626461
 21
344.0555519131
 31
0.0
  0
LINE
  5
171
330
1F
100
AcDbEntity
  8
0
  6
Continuous
 62
     7
370
    25
100
AcDbLine
 10
313.8913626459
 20
339.0555519124
 30
0.0
 11
313.8913626459
 21
343.0555519131
 31
0.0
  0
LINE
  5
172
330
1F
100
AcDbEntity
  8
0
  6
Continuous
 62
     7
370
    25
100
AcDbLine
 10
313.8913626459
 20
339.0555519124
 30
0.0
 11
314.8913626459
 21
339.0555519124
 31
0.0
  0
LINE
  5
173
330
1F
100
AcDbEntity
  8
0
  6
Continuous
 62
     7
370
    25
100
AcDbLine
 10
362.0913626461
 20
343.0555519131
 30
0.0
 11
362.0913626461
 21
339.0555519124
 31
0.0
  0
LINE
  5
174
330
1F
100
AcDbEntity
  8
0
  6
Continuous
 62
     7
370
    25
100
AcDbLine
 10
361.0913626461
 20
339.0555519124
 30
0.0
 11
362.0913626461
 21
339.0555519124
 31
0.0
  0
ARC
  5
175
330
1F
100
AcDbEntity
  8
0
  6
Continuous
 62
     7
370
    25
100
AcDbCircle
 10
314.8913626459
 20
343.0555519131
 30
0.0
 40
1.0
100
AcDbArc
 50
90.0
 51
180.0
  0
ARC
  5
176
330
1F
100
AcDbEntity
  8
0
  6
Continuous
 62
     7
370
    25
100
AcDbCircle
 10
361.0913626461
 20
343.0555519131
 30
0.0
 40
1.0
100
AcDbArc
 50
0.0
 51
90.0
  0
SPLINE
  5
177
330
1F
100
AcDbEntity
  8
0
  6
Continuous
 62
     7
370
    25
100
AcDbSpline
210
0.0
220
0.0
230
1.0
 70
     8
 71
     3
 72
    18
 73
    14
 74
     0
 42
0.00000001
 43
0.00000001
 40
0.0
 40
0.0
 40
0.0
 40
0.0
 40
0.2500000000000016
 40
0.2500000000000016
 40
0.3750000000000012
 40
0.3750000000000012
 40
0.500000000000001
 40
0.500000000000001
 40
0.6250000000000008
 40
0.6250000000000008
 40
0.7500000000000004
 40
0.7500000000000004
 40
1.0
 40
1.0
 40
1.0
 40
1.0
 10
319.9913629874649
 20
349.055552049637
 30
0.0
 10
319.9913630008137
 20
348.4662963853057
 30
0.0
 10
319.8839693186294
 20
347.8305632254302
 30
0.0
 10
319.5184721299432
 20
346.9073360749019
 30
0.0
 10
319.3632213558247
 20
346.605350408061
 30
0.0
 10
318.989459816614
 20
346.0336560257065
 30
0.0
 10
318.7709746213478
 20
345.7640957458796
 30
0.0
 10
318.2828192561341
 20
345.2759403681443
 30
0.0
 10
318.0132589819115
 20
345.0574551659639
 30
0.0
 10
317.4415646091439
 20
344.6836936120891
 30
0.0
 10
317.1395789462856
 20
344.5284428302245
 30
0.0
 10
316.2163518051324
 20
344.1629456178573
 30
0.0
 10
315.5806186480117
 20
344.0555519193662
 30
0.0
 10
314.9913629836805
 20
344.0555519176005
 30
0.0
  0
SPLINE
  5
178
330
1F
100
AcDbEntity
  8
0
  6
Continuous
 62
     7
370
    25
100
AcDbSpline
210
0.0
220
0.0
230
1.0
 70
     8
 71
     3
 72
    14
 73
    10
 74
     0
 42
0.00000001
 43
0.00000001
 40
0.0
 40
0.0
 40
0.0
 40
0.0
 40
0.0026283545570111
 40
0.0026283545570111
 40
0.0026283545570111
 40
0.0052567090778632
 40
0.0052567090778632
 40
0.0052567090778632
 40
0.0104863578434055
 40
0.0104863578434055
 40
0.0104863578434055
 40
0.0104863578434055
 10
320.9934031693861
 20
473.901544220633
 30
0.0
 10
321.8575393573045
 20
474.0459454809885
 30
0.0
 10
322.7216418436246
 20
474.1905485811057
 30
0.0
 10
323.5857087289912
 20
474.33536395624
 30
0.0
 10
324.4497756088318
 20
474.480179330448
 30
0.0
 10
325.3138073087742
 20
474.625204655261
 30
0.0
 10
326.1778185290377
 20
474.7703517417062
 30
0.0
 10
327.896945493974
 20
475.0591515446924
 30
0.0
 10
329.6156791248374
 20
475.350293501994
 30
0.0
 10
331.3349757068424
 20
475.6380818111413
 30
0.0
  0
LINE
  5
179
330
1F
100
AcDbEntity
  8
0
  6
Continuous
 62
     7
370
    25
100
AcDbLine
 10
422.5668475004
 20
492.964874754
 30
0.0
 11
422.8931256541
 21
490.9849892875
 31
0.0
  0
SPLINE
  5
17A
330
1F
100
AcDbEntity
  8
0
  6
Continuous
 62
     7
370
    18
100
AcDbSpline
210
0.0
220
0.0
230
1.0
 70
    24
 71
     3
 72
    10
 73
     6
 74
     0
 42
0.00000001
 43
0.00000001
 40
0.0
 40
0.0
 40
0.0
 40
0.0
 40
0.5
 40
0.5
 40
1.0
 40
1.0
 40
1.0
 40
1.0
 10
421.423792613333
 20
493.5752623302057
 30
0.0
 10
421.4105636523542
 20
493.6555368659165
 30
0.0
 10
421.4004805116064
 20
493.7167222791003
 30
0.0
 10
421.3875892637912
 20
493.7949475410742
 30
0.0
 10
421.3847409372815
 20
493.8122314450887
 30
0.0
 10
421.384740937333
 20
493.8122314450914
 30
0.0
  0
ARC
  5
17B
330
1F
100
AcDbEntity
  8
0
  6
Continuous
 62
     7
370
    25
100
AcDbCircle
 10
421.5519449343
 20
492.7976223812
 30
0.0
 40
1.028591546237928
100
AcDbArc
 50
9.3580330718
 51
99.3580327291
  0
LINE
  5
17C
330
1F
100
AcDbEntity
  8
0
  6
Continuous
 62
     7
370
    25
100
AcDbLine
 10
319.9626423676
 20
473.3585312875
 30
0.0
 11
319.9741345545
 21
476.2315781431
 31
0.0
  0
SPLINE
  5
17D
330
1F
100
AcDbEntity
  8
0
  6
Continuous
 62
     7
370
    25
100
AcDbSpline
210
0.0
220
0.0
230
1.0
 70
     8
 71
     3
 72
    12
 73
     8
 74
     0
 42
0.00000001
 43
0.00000001
 40
0.0
 40
0.0
 40
0.0
 40
0.0
 40
0.5000000000000078
 40
0.5000000000000078
 40
0.7500000000000039
 40
0.7500000000000039
 40
1.0
 40
1.0
 40
1.0
 40
1.0
 10
319.9975417901957
 20
473.3550804469865
 30
0.0
 10
320.0542319879332
 20
473.4609015817278
 30
0.0
 10
320.1792665643606
 20
473.5735697568414
 30
0.0
 10
320.4390157391263
 20
473.7233243591588
 30
0.0
 10
320.5375707133071
 20
473.7698028117923
 30
0.0
 10
320.7552932325169
 20
473.8491600223925
 30
0.0
 10
320.8721329759564
 20
473.8812786180537
 30
0.0
 10
320.9934031595469
 20
473.9015442189644
 30
0.0
  0
LINE
  5
17E
330
1F
100
AcDbEntity
  8
0
  6
Continuous
 62
     7
370
    25
100
AcDbLine
 10
319.9975417902
 20
473.355080447
 30
0.0
 11
319.9626423676
 21
473.3585312875
 31
0.0
  0
LINE
  5
17F
330
1F
100
AcDbEntity
  8
0
  6
Continuous
 62
     7
370
    25
100
AcDbLine
 10
319.9913616432
 20
464.1238938267
 30
0.0
 11
319.9913616432
 21
389.123892855
 31
0.0
  0
LINE
  5
180
330
1F
100
AcDbEntity
  8
0
  6
Continuous
 62
     7
370
    25
100
AcDbLine
 10
478.9913616429
 20
465.1238938267
 30
0.0
 11
320.9913616429
 21
465.1238938267
 31
0.0
  0
SPLINE
  5
181
330
1F
100
AcDbEntity
  8
0
  6
Continuous
 62
     7
370
    25
100
AcDbSpline
210
0.0
220
0.0
230
1.0
 70
    24
 71
     3
 72
     8
 73
     4
 74
     0
 42
0.00000001
 43
0.00000001
 40
0.0
 40
0.0
 40
0.0
 40
0.0
 40
1.0
 40
1.0
 40
1.0
 40
1.0
 10
319.9975417901939
 20
473.3550804469826
 30
0.0
 10
320.9104981959542
 20
473.2648076948926
 30
0.0
 10
321.8637669715676
 20
473.1705488723321
 30
0.0
 10
322.8442462259754
 20
473.073599488874
 30
0.0
  0
SPLINE
  5
182
330
1F
100
AcDbEntity
  8
0
  6
Continuous
 62
     7
370
    25
100
AcDbSpline
210
0.0
220
0.0
230
1.0
 70
     8
 71
     3
 72
    10
 73
     6
 74
     0
 42
0.00000001
 43
0.00000001
 40
0.0
 40
0.0
 40
0.0
 40
0.0
 40
0.5
 40
0.5
 40
1.0
 40
1.0
 40
1.0
 40
1.0
 10
332.687995220167
 20
470.3534679591457
 30
0.0
 10
333.4509679698992
 20
469.9936720746393
 30
0.0
 10
334.233056547075
 20
469.7029340960117
 30
0.0
 10
335.8349049600438
 20
469.2535270782244
 30
0.0
 10
336.6546472077499
 20
469.0948522220204
 30
0.0
 10
337.4947595381255
 20
469.0052327617598
 30
0.0
  0
SPLINE
  5
183
330
1F
100
AcDbEntity
  8
0
  6
Continuous
 62
     7
370
    25
100
AcDbSpline
210
0.0
220
0.0
230
1.0
 70
     8
 71
     3
 72
    14
 73
    10
 74
     0
 42
0.00000001
 43
0.00000001
 40
0.0
 40
0.0
 40
0.0
 40
0.0
 40
0.25
 40
0.25
 40
0.5
 40
0.5
 40
0.75
 40
0.75
 40
1.0
 40
1.0
 40
1.0
 40
1.0
 10
322.8442462259753
 20
473.073599488874
 30
0.0
 10
323.696233330104
 20
472.9893553561316
 30
0.0
 10
324.5472232988737
 20
472.868257617999
 30
0.0
 10
326.2338815155562
 20
472.5538062751715
 30
0.0
 10
327.0677071754885
 20
472.361002763247
 30
0.0
 10
328.7172762342416
 20
471.9045758888633
 30
0.0
 10
329.5336861343226
 20
471.6404827005947
 30
0.0
 10
331.1324329321002
 20
471.0469723661876
 30
0.0
 10
331.9173908321038
 20
470.716862703591
 30
0.0
 10
332.6879952201671
 20
470.3534679591457
 30
0.0
  0
SPLINE
  5
184
330
1F
100
AcDbEntity
  8
0
  6
Continuous
 62
     7
370
    25
100
AcDbSpline
210
0.0
220
0.0
230
1.0
 70
     8
 71
     3
 72
    10
 73
     6
 74
     0
 42
0.00000001
 43
0.00000001
 40
0.0
 40
0.0
 40
0.0
 40
0.0
 40
0.5
 40
0.5
 40
1.0
 40
1.0
 40
1.0
 40
1.0
 10
479.991361642937
 20
464.1238938267089
 30
0.0
 10
479.9913616429361
 20
464.3856932145075
 30
0.0
 10
479.8835885465455
 20
464.6458804854707
 30
0.0
 10
479.5133483016991
 20
465.0161207303158
 30
0.0
 10
479.2531610307356
 20
465.1238938267055
 30
0.0
 10
478.991361642937
 20
465.1238938267055
 30
0.0
  0
LINE
  5
185
330
1F
100
AcDbEntity
  8
0
  6
Continuous
 62
     7
370
    25
100
AcDbLine
 10
479.9913616429
 20
464.1238938267
 30
0.0
 11
479.9913616429
 21
454.1238924132
 31
0.0
  0
SPLINE
  5
186
330
1F
100
AcDbEntity
  8
0
  6
Continuous
 62
     7
370
    18
100
AcDbSpline
210
0.0
220
0.0
230
1.0
 70
     8
 71
     3
 72
     8
 73
     4
 74
     0
 42
0.00000001
 43
0.00000001
 40
0.0
 40
0.0
 40
0.0
 40
0.0
 40
1.0
 40
1.0
 40
1.0
 40
1.0
 10
321.0107661771206
 20
478.2271543054809
 30
0.0
 10
354.488193705128
 20
483.4021459607605
 30
0.0
 10
387.96075636924
 20
488.5282405288536
 30
0.0
 10
421.423792613333
 20
493.5752623302058
 30
0.0
  0
LINE
  5
187
330
1F
100
AcDbEntity
  8
0
  6
Continuous
 62
     7
370
    18
100
AcDbLine
 10
321.0148805104
 20
479.2557376227
 30
0.0
 11
321.0107661771
 21
478.2271543055
 31
0.0
  0
LINE
  5
188
330
1F
100
AcDbEntity
  8
0
  6
Continuous
 62
     7
370
    25
100
AcDbLine
 10
319.9821828602
 20
478.231268639
 30
0.0
 11
319.9741829242
 21
476.2312846386
 31
0.0
  0
ARC
  5
189
330
1F
100
AcDbEntity
  8
0
  6
Continuous
 62
     7
370
    25
100
AcDbCircle
 10
321.0107661771
 20
478.2271543059
 30
0.0
 40
1.028591545499509
100
AcDbArc
 50
89.7708181024
 51
179.7708181144
  0
SPLINE
  5
18A
330
1F
100
AcDbEntity
  8
0
  6
Continuous
 62
     7
370
    25
100
AcDbSpline
210
0.0
220
0.0
230
1.0
 70
     8
 71
     3
 72
    17
 73
    13
 74
     0
 42
0.00000001
 43
0.00000001
 40
0.0
 40
0.0
 40
0.0
 40
0.0
 40
0.0000309342141816
 40
0.0002685100770304
 40
0.0006076568033498
 40
0.0012498736691662
 40
0.0035798530210144
 40
0.0128010207162254
 40
0.0495647395772391
 40
0.1969522453358347
 40
0.4421349999705055
 40
0.9999999999999999
 40
0.9999999999999999
 40
0.9999999999999999
 40
0.9999999999999999
 10
385.9913616436017
 20
449.1243183975296
 30
0.0
 10
385.9912486848006
 20
449.12431839704
 30
0.0
 10
385.9902681983974
 20
449.1243183927896
 30
0.0
 10
385.9880593382765
 20
449.1243182394528
 30
0.0
 10
385.9842484997887
 20
449.1243175091302
 30
0.0
 10
385.9765503911281
 20
449.1243146567298
 30
0.0
 10
385.9605019980953
 20
449.1243020700426
 30
0.0
 10
385.9244905493698
 20
449.1242470211778
 30
0.0
 10
385.8007182609556
 20
449.1237549075849
 30
0.0
 10
385.8772021343519
 20
449.1239964860174
 30
0.0
 10
385.8208158132805
 20
449.1238105976338
 30
0.0
 10
385.8351651027772
 20
449.1238578843087
 30
0.0
 10
385.8451333348519
 20
449.1238907336391
 30
0.0
  0
SPLINE
  5
18B
330
1F
100
AcDbEntity
  8
0
  6
Continuous
 62
     7
370
    25
100
AcDbSpline
210
0.0
220
0.0
230
1.0
 70
     8
 71
     3
 72
    23
 73
    19
 74
     0
 42
0.00000001
 43
0.00000001
 40
0.0
 40
0.0
 40
0.0
 40
0.0
 40
1.736884773864148
 40
3.473769547728295
 40
5.210654321592443
 40
6.947539095456591
 40
8.684423869320739
 40
10.42130864318489
 40
12.15819341704903
 40
13.89507819091318
 40
15.63196296477733
 40
17.36884773864148
 40
19.10573251250563
 40
20.84261728636977
 40
52.39352589075726
 40
83.94443449514475
 40
92.75701556081138
 40
101.569596626478
 40
101.569596626478
 40
101.569596626478
 40
101.569596626478
 10
321.0148805103908
 20
479.2557376226989
 30
0.0
 10
321.5860919895896
 20
479.3385021003937
 30
0.0
 10
322.7289078065586
 20
479.5040756956136
 30
0.0
 10
324.4407874606494
 20
479.7520780598453
 30
0.0
 10
326.1532695664258
 20
480.0001686612717
 30
0.0
 10
327.8655391509619
 20
480.248248241654
 30
0.0
 10
329.5777944048011
 20
480.4963644802911
 30
0.0
 10
331.2899478648569
 20
480.7445236285578
 30
0.0
 10
333.0020456772802
 20
480.9927513149615
 30
0.0
 10
334.7138892149646
 20
481.2410376688907
 30
0.0
 10
336.426129393273
 20
481.4894960276165
 30
0.0
 10
338.1384398121258
 20
481.7380979897699
 30
0.0
 10
339.8507346924617
 20
481.9868500509258
 30
0.0
 10
351.3587371717144
 20
483.6598162580421
 30
0.0
 10
372.7643933377334
 20
486.7942930349304
 30
0.0
 10
396.4228284478746
 20
490.2400754847914
 30
0.0
 10
412.6585626274304
 20
492.5675162569864
 30
0.0
 10
418.4757737367732
 20
493.3975975304022
 30
0.0
 10
421.384740937333
 20
493.8122314450914
 30
0.0
  0
LINE
  5
18C
330
1F
100
AcDbEntity
  8
0
  6
Continuous
 62
     7
370
    25
100
AcDbLine
 10
319.9913618769
 20
389.123892855
 30
0.0
 11
319.9913618769
 21
360.0555519131
 31
0.0
  0
LINE
  5
18D
330
1F
100
AcDbEntity
  8
0
  6
Continuous
 62
     7
370
    25
100
AcDbLine
 10
319.9913621942
 20
349.0555520484
 30
0.0
 11
319.9913621942
 21
360.0555520109
 31
0.0
  0
LINE
  5
18E
330
1F
100
AcDbEntity
  8
0
  6
Continuous
 62
     7
370
    25
100
AcDbLine
 10
478.9913616429
 20
449.1243183975
 30
0.0
 11
385.9913616429
 21
449.1243183975
 31
0.0
  0
SPLINE
  5
18F
330
1F
100
AcDbEntity
  8
0
  6
Continuous
 62
     7
370
    25
100
AcDbSpline
210
0.0
220
0.0
230
1.0
 70
    24
 71
     3
 72
    26
 73
    22
 74
     0
 42
0.00000001
 43
0.00000001
 40
0.0
 40
0.0
 40
0.0
 40
0.0
 40
0.1250000000000013
 40
0.1250000000000013
 40
0.2500000000000027
 40
0.2500000000000027
 40
0.3125000000000033
 40
0.3125000000000033
 40
0.375000000000004
 40
0.375000000000004
 40
0.4375000000000047
 40
0.4375000000000047
 40
0.5000000000000053
 40
0.5000000000000053
 40
0.562500000000006
 40
0.562500000000006
 40
0.6250000000000067
 40
0.6250000000000067
 40
0.7500000000000052
 40
0.7500000000000052
 40
1.0
 40
1.0
 40
1.0
 40
1.0
 10
479.991361642937
 20
454.1238924166352
 30
0.0
 10
479.991361642937
 20
453.754193402774
 30
0.0
 10
479.991361642937
 20
453.3849866891933
 30
0.0
 10
479.991361642937
 20
452.6486990816206
 30
0.0
 10
479.991361642937
 20
452.2793609356248
 30
0.0
 10
479.991361642937
 20
451.7439893196097
 30
0.0
 10
479.991361642937
 20
451.5682477122782
 30
0.0
 10
479.9913616429371
 20
451.2279515870725
 30
0.0
 10
479.991361642937
 20
451.0667617395652
 30
0.0
 10
479.991361642937
 20
450.7908933203942
 30
0.0
 10
479.991361642937
 20
450.6834541120457
 30
0.0
 10
479.991361642937
 20
450.5150801132826
 30
0.0
 10
479.991361642937
 20
450.4545671610954
 30
0.0
 10
479.991361642937
 20
450.3557406386912
 30
0.0
 10
479.991361642937
 20
450.31903828105
 30
0.0
 10
479.991361642937
 20
450.2601110782005
 30
0.0
 10
479.991361642937
 20
450.2374317688858
 30
0.0
 10
479.991361642937
 20
450.1822397654998
 30
0.0
 10
479.991361642937
 20
450.1634191131811
 30
0.0
 10
479.991361642937
 20
450.1246415031259
 30
0.0
 10
479.9913616429371
 20
450.1245405223773
 30
0.0
 10
479.991361642937
 20
450.12431844238
 30
0.0
  0
ARC
  5
190
330
1F
100
AcDbEntity
  8
0
  6
Continuous
 62
     7
370
    25
100
AcDbCircle
 10
478.9913616429
 20
450.1243183975
 30
0.0
 40
1.000000000000001
100
AcDbArc
 50
270.0
 51
0.0000025699
  0
LWPOLYLINE
  5
191
330
1F
100
AcDbEntity
  8
0
  6
Continuous
 62
     7
370
    25
100
AcDbPolyline
 90
        2
 70
   128
 43
0.0
 10
321.0148805104
 20
479.2557376227
 10
321.0148805104
 20
479.2557376227
  0
LINE
  5
192
330
1F
100
AcDbEntity
  8
0
  6
Continuous
 62
     7
370
    25
100
AcDbLine
 10
319.991360911
 20
360.0555519071
 30
0.0
 11
319.991360911
 21
349.0555519446
 31
0.0
  0
LINE
  5
193
330
1F
100
AcDbEntity
  8
0
  6
Continuous
 62
     7
370
    25
100
AcDbLine
 10
319.9913621942
 20
360.0555520109
 30
0.0
 11
319.991360911
 21
360.0555519071
 31
0.0
  0
LINE
  5
194
330
1F
100
AcDbEntity
  8
0
  6
Continuous
 62
     7
370
    25
100
AcDbLine
 10
322.8065222409
 20
472.9238928047
 30
0.0
 11
323.8630522548
 21
472.9238928047
 31
0.0
  0
SPLINE
  5
195
330
1F
100
AcDbEntity
  8
0
  6
Continuous
 62
     7
370
    25
100
AcDbSpline
210
0.0
220
0.0
230
1.0
 70
    24
 71
     3
 72
     8
 73
     4
 74
     0
 42
0.00000001
 43
0.00000001
 40
0.0
 40
0.0
 40
0.0
 40
0.0
 40
1.0
 40
1.0
 40
1.0
 40
1.0
 10
470.8490709617908
 20
449.1243183975272
 30
0.0
 10
471.2462741842007
 20
449.1243183975272
 30
0.0
 10
471.4521444413858
 20
449.1243183975272
 30
0.0
 10
471.4521444413858
 20
449.1243183975272
 30
0.0
  0
SPLINE
  5
196
330
1F
100
AcDbEntity
  8
0
  6
Continuous
 62
     8
370
    18
100
AcDbSpline
210
0.0
220
0.0
230
1.0
 70
     8
 71
     3
 72
    10
 73
     6
 74
     0
 42
0.00000001
 43
0.00000001
 40
0.5781271939100342
 40
0.5781271939100342
 40
0.5781271939100342
 40
0.5781271939100342
 40
1.154236230988867
 40
1.154236230988867
 40
1.161213034834396
 40
1.161213034834396
 40
1.161213034834396
 40
1.161213034834396
 10
336.7898648308425
 20
469.7593362364473
 30
0.0
 10
336.919659040529
 20
469.6200008009206
 30
0.0
 10
337.0495755439169
 20
469.4807447947119
 30
0.0
 10
337.1811726766608
 20
469.3400295288242
 30
0.0
 10
337.1827472999701
 20
469.3383458426347
 30
0.0
 10
337.1843219456779
 20
469.336662172434
 30
0.0
  0
SPLINE
  5
197
330
1F
100
AcDbEntity
  8
0
  6
Continuous
 62
     8
370
    18
100
AcDbSpline
210
0.0
220
0.0
230
1.0
 70
     8
 71
     3
 72
    44
 73
    40
 74
     0
 42
0.00000001
 43
0.00000001
 40
1.161213034834238
 40
1.161213034834238
 40
1.161213034834238
 40
1.161213034834238
 40
1.215563289518763
 40
1.215563289518763
 40
1.288701289238202
 40
1.288701289238202
 40
1.434977288677093
 40
1.434977288677093
 40
1.727529287554872
 40
1.727529287554872
 40
2.020081286432652
 40
2.020081286432652
 40
2.312633285310443
 40
2.312633285310443
 40
2.897737283066002
 40
2.897737283066002
 40
3.190289281943782
 40
3.190289281943782
 40
3.482841280821562
 40
3.482841280821562
 40
4.067945278577133
 40
4.067945278577133
 40
4.360497277454912
 40
4.360497277454912
 40
4.653049276332692
 40
4.653049276332692
 40
5.238153274088252
 40
5.238153274088252
 40
5.823257271843812
 40
5.823257271843812
 40
6.408361269599383
 40
6.408361269599383
 40
6.993465267354942
 40
6.993465267354942
 40
7.578569265110502
 40
7.578569265110502
 40
8.163673262866062
 40
8.163673262866062
 40
8.172668223542955
 40
8.172668223542955
 40
8.172668223542955
 40
8.172668223542955
 10
332.0806276302228
 20
474.8213960249291
 30
0.0
 10
332.0924753791141
 20
474.8088860946899
 30
0.0
 10
332.1043328822907
 20
474.7963583969918
 30
0.0
 10
332.1321914174682
 20
474.7669911796357
 30
0.0
 10
332.1481837682529
 20
474.7501056018013
 30
0.0
 10
332.1962072741821
 20
474.6993942946479
 30
0.0
 10
332.2282862567801
 20
474.6654827774126
 30
0.0
 10
332.3246909512301
 20
474.5634955598189
 30
0.0
 10
332.3891721875563
 20
474.4951783125181
 30
0.0
 10
332.5186186118972
 20
474.3579699585123
 30
0.0
 10
332.5835343617281
 20
474.2891082413924
 30
0.0
 10
332.7136895016398
 20
474.1508591392476
 30
0.0
 10
332.7788760943084
 20
474.0815414707282
 30
0.0
 10
332.9747723572247
 20
473.8727680576728
 30
0.0
 10
333.1055641800075
 20
473.7327676905412
 30
0.0
 10
333.3020801074878
 20
473.5219344764306
 30
0.0
 10
333.3675931290377
 20
473.4515669875469
 30
0.0
 10
333.4987624085899
 20
473.3105956308885
 30
0.0
 10
333.5643512017336
 20
473.2400582353649
 30
0.0
 10
333.7612036235049
 20
473.0281656190257
 30
0.0
 10
333.8924840588504
 20
472.8866346566383
 30
0.0
 10
334.0893965846681
 20
472.6741224522456
 30
0.0
 10
334.1550513826784
 20
472.6032288072171
 30
0.0
 10
334.2863182204883
 20
472.4614339393618
 30
0.0
 10
334.351971753917
 20
472.3904890447778
 30
0.0
 10
334.5488901253111
 20
472.1776460388966
 30
0.0
 10
334.6801777154255
 20
472.0356700639619
 30
0.0
 10
334.9427618890107
 20
471.7516952616165
 30
0.0
 10
335.0740877885432
 20
471.6096663746656
 30
0.0
 10
335.3367354134935
 20
471.325693387062
 30
0.0
 10
335.4681136251968
 20
471.1836899058709
 30
0.0
 10
335.7309090416459
 20
470.8998058682643
 30
0.0
 10
335.8623578839115
 20
470.7578808167202
 30
0.0
 10
336.1253677592384
 20
470.4741682123559
 30
0.0
 10
336.256915742852
 20
470.3323870183411
 30
0.0
 10
336.5202374567677
 20
470.0489730569966
 30
0.0
 10
336.6519685316843
 20
469.9073761539942
 30
0.0
 10
336.7858118299364
 20
469.7636872264868
 30
0.0
 10
336.7878383154835
 20
469.7615117217856
 30
0.0
 10
336.7898648308426
 20
469.7593362364472
 30
0.0
  0
SPLINE
  5
198
330
1F
100
AcDbEntity
  8
0
  6
Continuous
 62
     8
370
    18
100
AcDbSpline
210
0.0
220
0.0
230
1.0
 70
     8
 71
     3
 72
    12
 73
     8
 74
     0
 42
0.00000001
 43
0.00000001
 40
8.172668223544328
 40
8.172668223544328
 40
8.172668223544328
 40
8.172668223544328
 40
8.176115058065244
 40
8.176115058065244
 40
8.468667056943024
 40
8.468667056943024
 40
8.487454801976577
 40
8.487454801976577
 40
8.487454801976577
 40
8.487454801976577
 10
331.8757043193045
 20
475.0371696974599
 30
0.0
 10
331.876448019318
 20
475.0363871441619
 30
0.0
 10
331.877191794607
 20
475.0356045232986
 30
0.0
 10
331.9410704691592
 20
474.9683905755649
 30
0.0
 10
332.0046014505091
 20
474.9016165727653
 30
0.0
 10
332.0724377583646
 20
474.830042743715
 30
0.0
 10
332.0765321115039
 20
474.825720445875
 30
0.0
 10
332.080627630222
 20
474.82139602493
 30
0.0
  0
SPLINE
  5
199
330
1F
100
AcDbEntity
  8
0
  6
Continuous
 62
     8
370
    18
100
AcDbSpline
210
0.0
220
0.0
230
1.0
 70
     8
 71
     3
 72
    16
 73
    12
 74
     0
 42
0.00000001
 43
0.00000001
 40
8.48745480197669
 40
8.48745480197669
 40
8.48745480197669
 40
8.48745480197669
 40
8.505695716722947
 40
8.505695716722947
 40
8.523980216652808
 40
8.523980216652808
 40
8.542264716582668
 40
8.542264716582668
 40
8.578833716442398
 40
8.578833716442398
 40
8.648524881640807
 40
8.648524881640807
 40
8.648524881640807
 40
8.648524881640807
 10
331.7719295524674
 20
475.1465906062888
 30
0.0
 10
331.7758174232731
 20
475.1424503551229
 30
0.0
 10
331.7796865411031
 20
475.1383129991071
 30
0.0
 10
331.7875091429869
 20
475.1300600783198
 30
0.0
 10
331.7914261733774
 20
475.1259298132335
 30
0.0
 10
331.7992732372482
 20
475.1176562630154
 30
0.0
 10
331.8031846070439
 20
475.1135333103173
 30
0.0
 10
331.8149466569167
 20
475.1011372595185
 30
0.0
 10
331.822814645178
 20
475.0928483926431
 30
0.0
 10
331.8456615158822
 20
475.0687867933501
 30
0.0
 10
331.8606675311489
 20
475.0529920558697
 30
0.0
 10
331.8757043193045
 20
475.03716969746
 30
0.0
  0
SPLINE
  5
19A
330
1F
100
AcDbEntity
  8
0
  6
Continuous
 62
     8
370
    18
100
AcDbSpline
210
0.0
220
0.0
230
1.0
 70
     8
 71
     3
 72
    16
 73
    12
 74
     0
 42
0.00000001
 43
0.00000001
 40
8.64852488164624
 40
8.64852488164624
 40
8.64852488164624
 40
8.64852488164624
 40
8.67384782792568
 40
8.67384782792568
 40
8.746985827645121
 40
8.746985827645121
 40
8.783554827504851
 40
8.783554827504851
 40
8.801839327434712
 40
8.801839327434712
 40
8.80188291261288
 40
8.80188291261288
 40
8.80188291261288
 40
8.80188291261288
 10
331.6749382471179
 20
475.2509242180921
 30
0.0
 10
331.68023513715
 20
475.2451816429214
 30
0.0
 10
331.6855314689271
 20
475.2394307519494
 30
0.0
 10
331.7061721297183
 20
475.2170878612038
 30
0.0
 10
331.7215334426988
 20
475.2005304966408
 30
0.0
 10
331.7447498514368
 20
475.1756228186442
 30
0.0
 10
331.7524763834807
 20
475.1673516345983
 30
0.0
 10
331.7641313079008
 20
475.1549041772021
 30
0.0
 10
331.7680044321806
 20
475.1507704424737
 30
0.0
 10
331.7719109728564
 20
475.1466103918941
 30
0.0
 10
331.7719202627137
 20
475.146600499085
 30
0.0
 10
331.7719295524639
 20
475.1465906062925
 30
0.0
  0
SPLINE
  5
19B
330
1F
100
AcDbEntity
  8
0
  6
Continuous
 62
     8
370
    18
100
AcDbSpline
210
0.0
220
0.0
230
1.0
 70
     8
 71
     3
 72
    18
 73
    14
 74
     0
 42
0.00000001
 43
0.00000001
 40
8.801882912619167
 40
8.801882912619167
 40
8.801882912619167
 40
8.801882912619167
 40
8.8095006011305
 40
8.8095006011305
 40
8.818642851095431
 40
8.818642851095431
 40
8.83692735102529
 40
8.83692735102529
 40
8.91006535074473
 40
8.91006535074473
 40
8.94663435060446
 40
8.94663435060446
 40
8.957880404178454
 40
8.957880404178454
 40
8.957880404178454
 40
8.957880404178454
 10
331.5767619297129
 20
475.356111073912
 30
0.0
 10
331.5783721739614
 20
475.3544157914104
 30
0.0
 10
331.5799860365164
 20
475.3527178676061
 30
0.0
 10
331.5835069221326
 20
475.3490003656342
 30
0.0
 10
331.5854345169248
 20
475.3469479166872
 30
0.0
 10
331.5912067508792
 20
475.3408168480403
 30
0.0
 10
331.5950400043735
 20
475.3367380491003
 30
0.0
 10
331.6142508082085
 20
475.3162736938831
 30
0.0
 10
331.6295917900957
 20
475.2998455291074
 30
0.0
 10
331.6525756618194
 20
475.2751056773974
 30
0.0
 10
331.6602260552652
 20
475.2668476375401
 30
0.0
 10
331.670233383588
 20
475.2560231936233
 30
0.0
 10
331.6725858704032
 20
475.2534745259204
 30
0.0
 10
331.6749382471139
 20
475.2509242180964
 30
0.0
  0
SPLINE
  5
19C
330
1F
100
AcDbEntity
  8
0
  6
Continuous
 62
     8
370
    18
100
AcDbSpline
210
0.0
220
0.0
230
1.0
 70
     8
 71
     3
 72
    18
 73
    14
 74
     0
 42
0.00000001
 43
0.00000001
 40
8.957880404168616
 40
8.957880404168616
 40
8.957880404168616
 40
8.957880404168616
 40
8.963411976457529
 40
8.963411976457529
 40
8.972554226422458
 40
8.972554226422458
 40
9.009123226282188
 40
9.009123226282188
 40
9.082261226001629
 40
9.082261226001629
 40
9.118830225861348
 40
9.118830225861348
 40
9.120354787324793
 40
9.120354787324793
 40
9.120354787324793
 40
9.120354787324793
 10
331.4744800225641
 20
475.464168762013
 30
0.0
 10
331.4756247190844
 20
475.4629381769878
 30
0.0
 10
331.4767711854309
 20
475.4617080912558
 30
0.0
 10
331.4798280976186
 20
475.4584676042631
 30
0.0
 10
331.4817426999708
 20
475.456441635768
 30
0.0
 10
331.4912876185176
 20
475.4463369575025
 30
0.0
 10
331.4989399213192
 20
475.4382416743704
 30
0.0
 10
331.5219166758214
 20
475.4139500118666
 30
0.0
 10
331.5372771199844
 20
475.3977316883715
 30
0.0
 10
331.560377288209
 20
475.3733722336742
 30
0.0
 10
331.5680759236195
 20
475.3652596194178
 30
0.0
 10
331.5761175441366
 20
475.3567895367789
 30
0.0
 10
331.5764396644644
 20
475.3564503582393
 30
0.0
 10
331.5767619297191
 20
475.3561110739054
 30
0.0
  0
SPLINE
  5
19D
330
1F
100
AcDbEntity
  8
0
  6
Continuous
 62
     8
370
    18
100
AcDbSpline
210
0.0
220
0.0
230
1.0
 70
     8
 71
     3
 72
    22
 73
    18
 74
     0
 42
0.00000001
 43
0.00000001
 40
9.12035478733263
 40
9.12035478733263
 40
9.12035478733263
 40
9.12035478733263
 40
9.156923787192351
 40
9.156923787192351
 40
9.17520828712221
 40
9.17520828712221
 40
9.19349278705207
 40
9.19349278705207
 40
9.23006178691179
 40
9.23006178691179
 40
9.26663078677152
 40
9.26663078677152
 40
9.33976878649096
 40
9.33976878649096
 40
9.358053286420821
 40
9.358053286420821
 40
9.361663964089
 40
9.361663964089
 40
9.361663964089
 40
9.361663964089
 10
331.3364429775459
 20
475.6313307267187
 30
0.0
 10
331.342307097103
 20
475.622288923385
 30
0.0
 10
331.3482524146506
 20
475.6133064446324
 30
0.0
 10
331.3575969095317
 20
475.6000061257181
 30
0.0
 10
331.3607800672796
 20
475.5956007559316
 30
0.0
 10
331.3672801384415
 20
475.5868933327411
 30
0.0
 10
331.3706088585586
 20
475.5825866915333
 30
0.0
 10
331.3807463689741
 20
475.5697151216943
 30
0.0
 10
331.387673561335
 20
475.5612754316587
 30
0.0
 10
331.4018117291001
 20
475.5444779315867
 30
0.0
 10
331.4089927834544
 20
475.5361551174392
 30
0.0
 10
331.430847049964
 20
475.5113424626452
 30
0.0
 10
331.4458092708167
 20
475.4950326040944
 30
0.0
 10
331.4646644432686
 20
475.4747144250322
 30
0.0
 10
331.4684576284617
 20
475.4706354517485
 30
0.0
 10
331.4729863985573
 20
475.4657754785221
 30
0.0
 10
331.4737328335239
 20
475.4649720139034
 30
0.0
 10
331.4744800225593
 20
475.4641687620182
 30
0.0
  0
SPLINE
  5
19E
330
1F
100
AcDbEntity
  8
0
  6
Continuous
 62
     8
370
    18
100
AcDbSpline
210
0.0
220
0.0
230
1.0
 70
     8
 71
     3
 72
     8
 73
     4
 74
     0
 42
0.00000001
 43
0.00000001
 40
0.1199204586113476
 40
0.1199204586113476
 40
0.1199204586113476
 40
0.1199204586113476
 40
0.5781271939121482
 40
0.5781271939121482
 40
0.5781271939121482
 40
0.5781271939121482
 10
337.1843219456765
 20
469.3366621724355
 30
0.0
 10
337.2877379632402
 20
469.2260858909365
 30
0.0
 10
337.3912505922236
 20
469.1155785741923
 30
0.0
 10
337.494804238479
 20
469.0051851088948
 30
0.0
  0
LINE
  5
19F
330
1F
100
AcDbEntity
  8
0
  6
Continuous
 62
     8
370
    18
100
AcDbLine
 10
361.0913626461
 20
343.0555519131
 30
0.0
 11
314.8913626459
 21
343.0555519131
 31
0.0
  0
LINE
  5
1A0
330
1F
100
AcDbEntity
  8
0
  6
Continuous
 62
     8
370
    18
100
AcDbLine
 10
361.0913626461
 20
339.0555519124
 30
0.0
 11
361.0913626461
 21
343.0555519131
 31
0.0
  0
LINE
  5
1A1
330
1F
100
AcDbEntity
  8
0
  6
Continuous
 62
     8
370
    18
100
AcDbLine
 10
314.8913626459
 20
343.0555519131
 30
0.0
 11
314.8913626459
 21
339.0555519124
 31
0.0
  0
LINE
  5
1A2
330
1F
100
AcDbEntity
  8
0
  6
Continuous
 62
     8
370
    18
100
AcDbLine
 10
361.0913626461
 20
344.0555519131
 30
0.0
 11
361.0913626461
 21
343.0555519131
 31
0.0
  0
LINE
  5
1A3
330
1F
100
AcDbEntity
  8
0
  6
Continuous
 62
     8
370
    18
100
AcDbLine
 10
314.8913626459
 20
344.0555519131
 30
0.0
 11
314.8913626459
 21
343.0555519131
 31
0.0
  0
LINE
  5
1A4
330
1F
100
AcDbEntity
  8
0
  6
Continuous
 62
     8
370
    18
100
AcDbLine
 10
313.8913626459
 20
343.0555519131
 30
0.0
 11
314.8913626459
 21
343.0555519131
 31
0.0
  0
LINE
  5
1A5
330
1F
100
AcDbEntity
  8
0
  6
Continuous
 62
     8
370
    18
100
AcDbLine
 10
361.0913626461
 20
343.0555519131
 30
0.0
 11
362.0913626461
 21
343.0555519131
 31
0.0
  0
SPLINE
  5
1A6
330
1F
100
AcDbEntity
  8
0
  6
Continuous
 62
     8
370
    18
100
AcDbSpline
210
0.0
220
0.0
230
1.0
 70
     8
 71
     3
 72
    18
 73
    14
 74
     0
 42
0.00000001
 43
0.00000001
 40
0.0
 40
0.0
 40
0.0
 40
0.0
 40
0.2500000000000006
 40
0.2500000000000006
 40
0.3750000000000001
 40
0.3750000000000001
 40
0.4999999999999996
 40
0.4999999999999996
 40
0.6249999999999991
 40
0.6249999999999991
 40
0.7499999999999986
 40
0.7499999999999986
 40
1.0
 40
1.0
 40
1.0
 40
1.0
 10
320.9913618766303
 20
349.0555520488803
 30
0.0
 10
320.9913618766305
 20
348.4662963898882
 30
0.0
 10
320.9913618788475
 20
347.8305632317967
 30
0.0
 10
320.9913618863922
 20
346.9073360798906
 30
0.0
 10
320.9913618895969
 20
346.6053504119697
 30
0.0
 10
320.991361897312
 20
346.0336560269232
 30
0.0
 10
320.9913619018218
 20
345.764095745495
 30
0.0
 10
320.991361911898
 20
345.2759403647993
 30
0.0
 10
320.9913619174621
 20
345.0574551612683
 30
0.0
 10
320.9913619292627
 20
344.6836936054502
 30
0.0
 10
320.991361935496
 20
344.5284428229945
 30
0.0
 10
320.9913619545525
 20
344.1629456101249
 30
0.0
 10
320.9913619676747
 20
344.0555519130603
 30
0.0
 10
320.9913619798374
 20
344.0555519130603
 30
0.0
  0
SPLINE
  5
1A7
330
1F
100
AcDbEntity
  8
0
  6
Continuous
 62
     8
370
    18
100
AcDbSpline
210
0.0
220
0.0
230
1.0
 70
     8
 71
     3
 72
    18
 73
    14
 74
     0
 42
0.00000001
 43
0.00000001
 40
0.0
 40
0.0
 40
0.0
 40
0.0
 40
0.2500000000000003
 40
0.2500000000000003
 40
0.3750000000000004
 40
0.3750000000000004
 40
0.5000000000000004
 40
0.5000000000000004
 40
0.6250000000000004
 40
0.6250000000000004
 40
0.7500000000000006
 40
0.7500000000000006
 40
1.0
 40
1.0
 40
1.0
 40
1.0
 10
335.991362826527
 20
344.0555519130603
 30
0.0
 10
335.9913628143643
 20
344.0555519130603
 30
0.0
 10
335.9913628012422
 20
344.162945610125
 30
0.0
 10
335.9913627821858
 20
344.5284428229945
 30
0.0
 10
335.9913627759526
 20
344.6836936054502
 30
0.0
 10
335.9913627641521
 20
345.0574551612684
 30
0.0
 10
335.9913627585881
 20
345.2759403647993
 30
0.0
 10
335.991362748512
 20
345.764095745495
 30
0.0
 10
335.9913627440022
 20
346.0336560269232
 30
0.0
 10
335.9913627362872
 20
346.6053504119697
 30
0.0
 10
335.9913627330825
 20
346.9073360798906
 30
0.0
 10
335.9913627255379
 20
347.8305632317967
 30
0.0
 10
335.9913627233209
 20
348.4662963898882
 30
0.0
 10
335.9913627233207
 20
349.0555520488803
 30
0.0
  0
LINE
  5
1A8
330
1F
100
AcDbEntity
  8
0
  6
Continuous
 62
     8
370
    18
100
AcDbLine
 10
321.002717872
 20
476.2274638093
 30
0.0
 11
320.9934108719
 21
473.9007137829
 31
0.0
  0
LINE
  5
1A9
330
1F
100
AcDbEntity
  8
0
  6
Continuous
 62
     8
370
    18
100
AcDbLine
 10
321.0027662416
 20
476.2271703053
 30
0.0
 11
421.5519933061
 21
492.7973288816
 31
0.0
  0
LINE
  5
1AA
330
1F
100
AcDbEntity
  8
0
  6
Continuous
 62
     8
370
    18
100
AcDbLine
 10
421.8845277651
 20
490.7794611451
 30
0.0
 11
421.5519449359
 21
492.7976223911
 31
0.0
  0
LINE
  5
1AB
330
1F
100
AcDbEntity
  8
0
  6
Continuous
 62
     8
370
    18
100
AcDbLine
 10
421.5519449369
 20
492.7976223851
 30
0.0
 11
422.5668475004
 21
492.964874754
 31
0.0
  0
SPLINE
  5
1AC
330
1F
100
AcDbEntity
  8
0
  6
Continuous
 62
     8
370
    18
100
AcDbSpline
210
0.0
220
0.0
230
1.0
 70
    24
 71
     3
 72
    10
 73
     6
 74
     0
 42
0.00000001
 43
0.00000001
 40
0.0
 40
0.0
 40
0.0
 40
0.0
 40
0.5
 40
0.5
 40
1.0
 40
1.0
 40
1.0
 40
1.0
 10
421.5519933060666
 20
492.7973288816291
 30
0.0
 10
421.5301874726485
 20
492.9296486596982
 30
0.0
 10
421.5064540511443
 20
493.0736652173092
 30
0.0
 10
421.4613328164643
 20
493.3474649679356
 30
0.0
 10
421.4401680503184
 20
493.4758946913103
 30
0.0
 10
421.423792613333
 20
493.5752623302057
 30
0.0
  0
SPLINE
  5
1AD
330
1F
100
AcDbEntity
  8
0
  6
Continuous
 62
     8
370
    18
100
AcDbSpline
210
0.0
220
0.0
230
1.0
 70
    24
 71
     3
 72
    14
 73
    10
 74
     0
 42
0.00000001
 43
0.00000001
 40
0.0
 40
0.0
 40
0.0
 40
0.0
 40
0.25
 40
0.25
 40
0.5
 40
0.5
 40
0.75
 40
0.75
 40
1.0
 40
1.0
 40
1.0
 40
1.0
 10
321.0027662415856
 20
476.2271703052871
 30
0.0
 10
320.8681208718375
 20
476.2277088867639
 30
0.0
 10
320.7335271962116
 20
476.2282472614645
 30
0.0
 10
320.4847312707981
 20
476.2292424451638
 30
0.0
 10
320.3706269235462
 20
476.2296988625523
 30
0.0
 10
320.1802050295157
 20
476.2304605501283
 30
0.0
 10
320.1039624147772
 20
476.230765520588
 30
0.0
 10
320.0009063143168
 20
476.2311777449922
 30
0.0
 10
319.9741333817252
 20
476.2312848367243
 30
0.0
 10
319.9741333817265
 20
476.2312848367265
 30
0.0
  0
LINE
  5
1AE
330
1F
100
AcDbEntity
  8
0
  6
Continuous
 62
     8
370
    18
100
AcDbLine
 10
320.9913616429
 20
464.1238938252
 30
0.0
 11
319.9913616432
 21
464.1238938267
 31
0.0
  0
LINE
  5
1AF
330
1F
100
AcDbEntity
  8
0
  6
Continuous
 62
     8
370
    18
100
AcDbLine
 10
320.9913616428
 20
464.1238938252
 30
0.0
 11
320.9913616428
 21
389.123892855
 31
0.0
  0
SPLINE
  5
1B0
330
1F
100
AcDbEntity
  8
0
  6
Continuous
 62
     8
370
    18
100
AcDbSpline
210
0.0
220
0.0
230
1.0
 70
     8
 71
     3
 72
    14
 73
    10
 74
     0
 42
0.00000001
 43
0.00000001
 40
0.0
 40
0.0
 40
0.0
 40
0.0
 40
0.25
 40
0.25
 40
0.5
 40
0.5
 40
0.75
 40
0.75
 40
1.0
 40
1.0
 40
1.0
 40
1.0
 10
320.9913616431681
 20
465.1238938267055
 30
0.0
 10
320.9913616431237
 20
465.1238938267061
 30
0.0
 10
320.9913616430839
 20
465.1024150878599
 30
0.0
 10
320.9913616430279
 20
465.0049491674354
 30
0.0
 10
320.991361643012
 20
464.9286316804758
 30
0.0
 10
320.991361643012
 20
464.7333695342437
 30
0.0
 10
320.9913616430278
 20
464.6150854857337
 30
0.0
 10
320.9913616430839
 20
464.368891584608
 30
0.0
 10
320.9913616431237
 20
464.24174495548
 30
0.0
 10
320.9913616431681
 20
464.1238938251921
 30
0.0
  0
SPLINE
  5
1B1
330
1F
100
AcDbEntity
  8
0
  6
Continuous
 62
     8
370
    18
100
AcDbSpline
210
0.0
220
0.0
230
1.0
 70
    24
 71
     3
 72
    14
 73
    10
 74
     0
 42
0.00000001
 43
0.00000001
 40
0.0
 40
0.0
 40
0.0
 40
0.0
 40
0.25
 40
0.25
 40
0.5
 40
0.5
 40
0.75
 40
0.75
 40
1.0
 40
1.0
 40
1.0
 40
1.0
 10
478.991361642937
 20
464.1238938251921
 30
0.0
 10
478.9913616429067
 20
464.2417449554806
 30
0.0
 10
478.9913616428796
 20
464.3688915846091
 30
0.0
 10
478.9913616428414
 20
464.6150854857354
 30
0.0
 10
478.9913616428306
 20
464.7333695342456
 30
0.0
 10
478.9913616428306
 20
464.9286316804778
 30
0.0
 10
478.9913616428414
 20
465.0049491674371
 30
0.0
 10
478.9913616428796
 20
465.102415087861
 30
0.0
 10
478.9913616429067
 20
465.1238938267067
 30
0.0
 10
478.991361642937
 20
465.1238938267055
 30
0.0
  0
LINE
  5
1B2
330
1F
100
AcDbEntity
  8
0
  6
Continuous
 62
     8
370
    18
100
AcDbLine
 10
478.9913616429
 20
464.1238938252
 30
0.0
 11
320.9913616429
 21
464.1238938252
 31
0.0
  0
SPLINE
  5
1B3
330
1F
100
AcDbEntity
  8
0
  6
Continuous
 62
     8
370
    18
100
AcDbSpline
210
0.0
220
0.0
230
1.0
 70
     8
 71
     3
 72
    38
 73
    34
 74
     0
 42
0.00000001
 43
0.00000001
 40
0.0
 40
0.0
 40
0.0
 40
0.0
 40
0.0625
 40
0.0625
 40
0.1249999999999999
 40
0.1249999999999999
 40
0.1874999999999999
 40
0.1874999999999999
 40
0.2499999999999999
 40
0.2499999999999999
 40
0.3124999999999999
 40
0.3124999999999999
 40
0.3749999999999999
 40
0.3749999999999999
 40
0.4375
 40
0.4375
 40
0.5
 40
0.5
 40
0.5625
 40
0.5625
 40
0.625
 40
0.625
 40
0.6875
 40
0.6875
 40
0.7499999999999999
 40
0.7499999999999999
 40
0.8124999999999999
 40
0.8124999999999999
 40
0.8749999999999999
 40
0.8749999999999999
 40
0.9374999999999999
 40
0.9374999999999999
 40
1.0
 40
1.0
 40
1.0
 40
1.0
 10
385.9913616429376
 20
454.1238922004999
 30
0.0
 10
383.4376453873431
 20
454.1238922004999
 30
0.0
 10
380.8850590967181
 20
454.1243986995705
 30
0.0
 10
375.8834333956044
 20
454.1154877864387
 30
0.0
 10
373.434307855429
 20
454.1059842445508
 30
0.0
 10
368.7151495212065
 20
454.0553384373603
 30
0.0
 10
366.4450305974726
 20
454.0141100423722
 30
0.0
 10
362.1364464278992
 20
453.8702779640472
 30
0.0
 10
360.097895052373
 20
453.7675881510248
 30
0.0
 10
356.2846058673603
 20
453.4656588094691
 30
0.0
 10
354.5097819281872
 20
453.2663331512502
 30
0.0
 10
351.2382903510117
 20
452.7331037204751
 30
0.0
 10
349.7415365833224
 20
452.3991138182336
 30
0.0
 10
347.0252948218362
 20
451.5582574194868
 30
0.0
 10
345.8057206983523
 20
451.0513047932964
 30
0.0
 10
343.6302983261949
 20
449.82853827619
 30
0.0
 10
342.6743639478344
 20
449.1126382555888
 30
0.0
 10
341.0026156856433
 20
447.4408899792274
 30
0.0
 10
340.286715672126
 20
446.484955593782
 30
0.0
 10
339.0639491687487
 20
444.3095332078914
 30
0.0
 10
338.556996549202
 20
443.0899590777607
 30
0.0
 10
337.7161401629066
 20
440.3737173038157
 30
0.0
 10
337.3821502664711
 20
438.8769635303158
 30
0.0
 10
336.8489208461576
 20
435.605471942669
 30
0.0
 10
336.6495951925928
 20
433.8306479988366
 30
0.0
 10
336.3476658590043
 20
430.0173588058465
 30
0.0
 10
336.2449760492939
 20
427.9788074270033
 30
0.0
 10
336.1011439762282
 20
423.6702232521624
 30
0.0
 10
336.0599155831861
 20
421.4001043264793
 30
0.0
 10
336.0092697787064
 20
416.6809459895428
 30
0.0
 10
335.9997662375819
 20
414.2318204486041
 30
0.0
 10
335.990855325228
 20
409.230194746718
 30
0.0
 10
335.9913618243118
 20
406.6776084560852
 30
0.0
 10
335.9913618243118
 20
404.1238922004999
 30
0.0
  0
LINE
  5
1B4
330
1F
100
AcDbEntity
  8
0
  6
Continuous
 62
     8
370
    18
100
AcDbLine
 10
335.9913618243
 20
389.123892855
 30
0.0
 11
335.9913618243
 21
404.1238928271
 31
0.0
  0
LINE
  5
1B5
330
1F
100
AcDbEntity
  8
0
  6
Continuous
 62
     8
370
    18
100
AcDbLine
 10
478.9913616429
 20
454.1238924117
 30
0.0
 11
478.9913616429
 21
464.1238938252
 31
0.0
  0
LINE
  5
1B6
330
1F
100
AcDbEntity
  8
0
  6
Continuous
 62
     8
370
    18
100
AcDbLine
 10
385.9913616429
 20
454.1238922005
 30
0.0
 11
478.9913616429
 21
454.1238924117
 31
0.0
  0
SPLINE
  5
1B7
330
1F
100
AcDbEntity
  8
0
  6
Continuous
 62
     8
370
    18
100
AcDbSpline
210
0.0
220
0.0
230
1.0
 70
     8
 71
     3
 72
    10
 73
     6
 74
     0
 42
0.00000001
 43
0.00000001
 40
0.0
 40
0.0
 40
0.0
 40
0.0
 40
0.5
 40
0.5
 40
1.0
 40
1.0
 40
1.0
 40
1.0
 10
479.991361642937
 20
464.1238938267089
 30
0.0
 10
479.991361642937
 20
464.1238938263139
 30
0.0
 10
479.8835885465468
 20
464.1238938259214
 30
0.0
 10
479.5133483017003
 20
464.1238938253628
 30
0.0
 10
479.2531610307362
 20
464.1238938252001
 30
0.0
 10
478.991361642937
 20
464.1238938252001
 30
0.0
  0
SPLINE
  5
1B8
330
1F
100
AcDbEntity
  8
0
  6
Continuous
 62
     8
370
    18
100
AcDbSpline
210
0.0
220
0.0
230
1.0
 70
     8
 71
     3
 72
    10
 73
     6
 74
     0
 42
0.00000001
 43
0.00000001
 40
0.0
 40
0.0
 40
0.0
 40
0.0
 40
0.5
 40
0.5
 40
1.0
 40
1.0
 40
1.0
 40
1.0
 10
478.991361642937
 20
454.1238924117164
 30
0.0
 10
479.2531610307362
 20
454.1238924117164
 30
0.0
 10
479.5133483017003
 20
454.123892411879
 30
0.0
 10
479.8835885465468
 20
454.1238924124376
 30
0.0
 10
479.991361642937
 20
454.1238924128302
 30
0.0
 10
479.991361642937
 20
454.1238924132251
 30
0.0
  0
LINE
  5
1B9
330
1F
100
AcDbEntity
  8
0
  6
Continuous
 62
     8
370
    18
100
AcDbLine
 10
321.0107661771
 20
478.2271543055
 30
0.0
 11
321.0027662416
 21
476.2271703053
 31
0.0
  0
LINE
  5
1BA
330
1F
100
AcDbEntity
  8
0
  6
Continuous
 62
     8
370
    18
100
AcDbLine
 10
335.9913627233
 20
349.0555520863
 30
0.0
 11
335.9913627233
 21
360.0555520489
 31
0.0
  0
LINE
  5
1BB
330
1F
100
AcDbEntity
  8
0
  6
Continuous
 62
     8
370
    18
100
AcDbLine
 10
320.9913618766
 20
360.0555520489
 30
0.0
 11
320.9913618766
 21
349.0555520863
 31
0.0
  0
LINE
  5
1BC
330
1F
100
AcDbEntity
  8
0
  6
Continuous
 62
     8
370
    18
100
AcDbLine
 10
335.9913620585
 20
360.0555520489
 30
0.0
 11
335.9913620585
 21
389.123892855
 31
0.0
  0
LINE
  5
1BD
330
1F
100
AcDbEntity
  8
0
  6
Continuous
 62
     8
370
    18
100
AcDbLine
 10
320.9913618766
 20
389.123892855
 30
0.0
 11
320.9913618766
 21
360.0555520489
 31
0.0
  0
SPLINE
  5
1BE
330
1F
100
AcDbEntity
  8
0
  6
Continuous
 62
     8
370
    18
100
AcDbSpline
210
0.0
220
0.0
230
1.0
 70
    24
 71
     3
 72
    22
 73
    18
 74
     0
 42
0.00000001
 43
0.00000001
 40
39.71234552961985
 40
39.71234552961985
 40
39.71234552961985
 40
39.71234552961985
 40
42.70254058986018
 40
42.70254058986018
 40
44.3449459971625
 40
44.3449459971625
 40
45.98735140446481
 40
45.98735140446481
 40
46.80855410811597
 40
46.80855410811597
 40
47.62975681176712
 40
47.62975681176712
 40
49.27216221906944
 40
49.27216221906944
 40
50.91456762637176
 40
50.91456762637176
 40
52.55697303367407
 40
52.55697303367407
 40
52.55697303367407
 40
52.55697303367407
 10
478.9913616429371
 20
449.1243183975272
 30
0.0
 10
478.9913616429371
 20
449.1245614481419
 30
0.0
 10
478.9913616429371
 20
449.1249006951099
 30
0.0
 10
478.9913616429371
 20
449.17572397618
 30
0.0
 10
478.9913616429371
 20
449.2047471866981
 30
0.0
 10
478.9913616429371
 20
449.3199476661839
 30
0.0
 10
478.9913616429371
 20
449.405284334135
 30
0.0
 10
478.9913616429371
 20
449.6397648011198
 30
0.0
 10
478.9913616429371
 20
449.7371992784322
 30
0.0
 10
478.9913616429371
 20
449.9803179094746
 30
0.0
 10
478.9913616429371
 20
450.1266258344558
 30
0.0
 10
478.9913616429371
 20
450.6310317098259
 30
0.0
 10
478.9913616429371
 20
451.0457816494749
 30
0.0
 10
478.9913616429371
 20
451.9008851172987
 30
0.0
 10
478.9913616429371
 20
452.3444797394195
 30
0.0
 10
478.9913616429371
 20
453.2319972298868
 30
0.0
 10
478.9913616429371
 20
453.6782811255698
 30
0.0
 10
478.9913616429371
 20
454.123892200515
 30
0.0
  0
LINE
  5
1BF
330
1F
100
AcDbEntity
  8
0
  6
Continuous
 62
     8
370
    18
100
AcDbLine
 10
324.8549916423
 20
472.7910992099
 30
0.0
 11
322.6181521289
 21
472.7910992099
 31
0.0
  0
ENDSEC
  0
SECTION
  2
OBJECTS
  0
DICTIONARY
  5
C
330
0
100
AcDbDictionary
281
     1
  3
ACAD_GROUP
350
D
  3
ACAD_LAYOUT
350
1A
  3
ACAD_MLINESTYLE
350
17
  3
ACAD_PLOTSETTINGS
350
19
  3
ACAD_PLOTSTYLENAME
350
E
  3
ACAD_SCALELIST
350
47
  3
DWGPROPS
350
1C0
  0
DICTIONARY
  5
D
102
{ACAD_REACTORS
330
C
102
}
330
C
100
AcDbDictionary
281
     1
  0
DICTIONARY
  5
1A
102
{ACAD_REACTORS
330
C
102
}
330
C
100
AcDbDictionary
281
     1
  3
Layout1
350
1E
  3
Layout2
350
26
  3
Model
350
22
  0
DICTIONARY
  5
17
102
{ACAD_REACTORS
330
C
102
}
330
C
100
AcDbDictionary
281
     1
  3
Standard
350
18
  0
DICTIONARY
  5
19
102
{ACAD_REACTORS
330
C
102
}
330
C
100
AcDbDictionary
281
     1
  0
ACDBDICTIONARYWDFLT
  5
E
102
{ACAD_REACTORS
330
C
102
}
330
C
100
AcDbDictionary
281
     1
  3
Normal
350
F
100
AcDbDictionaryWithDefault
340
F
  0
DICTIONARY
  5
47
102
{ACAD_REACTORS
330
C
102
}
330
C
100
AcDbDictionary
281
     1
  3
A0
350
48
  3
A1
350
49
  3
A2
350
4A
  3
A3
350
4B
  3
A4
350
4C
  3
A5
350
4D
  3
A6
350
4E
  3
A7
350
4F
  3
A8
350
50
  3
A9
350
51
  3
B0
350
52
  3
B1
350
53
  3
B2
350
54
  3
B3
350
55
  3
B4
350
56
  3
B5
350
57
  3
B6
350
58
  0
XRECORD
  5
1C0
102
{ACAD_REACTORS
330
C
102
}
330
C
100
AcDbXrecord
280
     1
  1
DWGPROPS COOKIE
  2

  3

  4

  6

  7

  8
fue-task
  9

300
=
301
=
302
=
303
=
304
=
305
=
306
=
307
=
308
=
309
=
 40
0.0
 41
2460346.415988496
 42
2460346.415989757
  1

 90
        0
  0
LAYOUT
  5
1E
102
{ACAD_REACTORS
330
1A
102
}
330
1A
100
AcDbPlotSettings
  1

  2
none_device
  4

  6

 40
0.0
 41
0.0
 42
0.0
 43
0.0
 44
0.0
 45
0.0
 46
0.0
 47
0.0
 48
0.0
 49
0.0
140
0.0
141
0.0
142
1.0
143
1.0
 70
   688
 72
     1
 73
     0
 74
     5
  7

 75
    16
147
1.0
148
0.0
149
0.0
100
AcDbLayout
  1
Layout1
 70
     1
 71
     1
 10
0.0
 20
0.0
 11
420.0
 21
297.0
 12
0.0
 22
0.0
 32
0.0
 14
1.0000000000E+20
 24
1.0000000000E+20
 34
1.0000000000E+20
 15
-1.0000000000E+20
 25
-1.0000000000E+20
 35
-1.0000000000E+20
146
0.0
 13
0.0
 23
0.0
 33
0.0
 16
1.0
 26
0.0
 36
0.0
 17
0.0
 27
1.0
 37
0.0
 76
     0
330
1B
  0
LAYOUT
  5
26
102
{ACAD_REACTORS
330
1A
102
}
330
1A
100
AcDbPlotSettings
  1

  2
none_device
  4

  6

 40
0.0
 41
0.0
 42
0.0
 43
0.0
 44
0.0
 45
0.0
 46
0.0
 47
0.0
 48
0.0
 49
0.0
140
0.0
141
0.0
142
1.0
143
1.0
 70
   688
 72
     1
 73
     0
 74
     5
  7

 75
    16
147
1.0
148
0.0
149
0.0
100
AcDbLayout
  1
Layout2
 70
     1
 71
     2
 10
0.0
 20
0.0
 11
0.0
 21
0.0
 12
0.0
 22
0.0
 32
0.0
 14
0.0
 24
0.0
 34
0.0
 15
0.0
 25
0.0
 35
0.0
146
0.0
 13
0.0
 23
0.0
 33
0.0
 16
1.0
 26
0.0
 36
0.0
 17
0.0
 27
1.0
 37
0.0
 76
     0
330
23
  0
LAYOUT
  5
22
102
{ACAD_REACTORS
330
1A
102
}
330
1A
100
AcDbPlotSettings
  1

  2
none_device
  4
Letter_(8.50_x_11.00_Inches)
  6

 40
6.35
 41
6.35
 42
6.35000508
 43
6.35000508
 44
215.9
 45
279.4
 46
0.0
 47
0.0
 48
0.0
 49
0.0
140
0.0
141
0.0
142
1.0
143
1.0
 70
  1712
 72
     1
 73
     0
 74
     0
  7

 75
     0
147
1.0
148
0.0
149
0.0
100
AcDbLayout
  1
Model
 70
     1
 71
     0
 10
0.0
 20
0.0
 11
594.0
 21
841.0
 12
0.0
 22
0.0
 32
0.0
 14
0.0
 24
0.0
 34
0.0
 15
594.0
 25
841.0
 35
0.0
146
0.0
 13
0.0
 23
0.0
 33
0.0
 16
1.0
 26
0.0
 36
0.0
 17
0.0
 27
1.0
 37
0.0
 76
     0
330
1F
331
29
  0
MLINESTYLE
  5
18
102
{ACAD_REACTORS
330
17
102
}
330
17
100
AcDbMlineStyle
  2
Standard
 70
     0
  3

 62
   256
 51
90.0
 52
90.0
 71
     2
 49
0.5
 62
   256
  6
BYLAYER
 49
-0.5
 62
   256
  6
BYLAYER
  0
ACDBPLACEHOLDER
  5
F
102
{ACAD_REACTORS
330
E
102
}
330
E
  0
SCALE
  5
48
102
{ACAD_REACTORS
330
47
102
}
330
47
100
AcDbScale
 70
     0
300
1:1
140
1.0
141
1.0
290
     1
  0
SCALE
  5
49
102
{ACAD_REACTORS
330
47
102
}
330
47
100
AcDbScale
 70
     0
300
1:2
140
1.0
141
2.0
290
     0
  0
SCALE
  5
4A
102
{ACAD_REACTORS
330
47
102
}
330
47
100
AcDbScale
 70
     0
300
1:4
140
1.0
141
4.0
290
     0
  0
SCALE
  5
4B
102
{ACAD_REACTORS
330
47
102
}
330
47
100
AcDbScale
 70
     0
300
1:5
140
1.0
141
5.0
290
     0
  0
SCALE
  5
4C
102
{ACAD_REACTORS
330
47
102
}
330
47
100
AcDbScale
 70
     0
300
1:8
140
1.0
141
8.0
290
     0
  0
SCALE
  5
4D
102
{ACAD_REACTORS
330
47
102
}
330
47
100
AcDbScale
 70
     0
300
1:10
140
1.0
141
10.0
290
     0
  0
SCALE
  5
4E
102
{ACAD_REACTORS
330
47
102
}
330
47
100
AcDbScale
 70
     0
300
1:16
140
1.0
141
16.0
290
     0
  0
SCALE
  5
4F
102
{ACAD_REACTORS
330
47
102
}
330
47
100
AcDbScale
 70
     0
300
1:20
140
1.0
141
20.0
290
     0
  0
SCALE
  5
50
102
{ACAD_REACTORS
330
47
102
}
330
47
100
AcDbScale
 70
     0
300
1:30
140
1.0
141
30.0
290
     0
  0
SCALE
  5
51
102
{ACAD_REACTORS
330
47
102
}
330
47
100
AcDbScale
 70
     0
300
1:40
140
1.0
141
40.0
290
     0
  0
SCALE
  5
52
102
{ACAD_REACTORS
330
47
102
}
330
47
100
AcDbScale
 70
     0
300
1:50
140
1.0
141
50.0
290
     0
  0
SCALE
  5
53
102
{ACAD_REACTORS
330
47
102
}
330
47
100
AcDbScale
 70
     0
300
1:100
140
1.0
141
100.0
290
     0
  0
SCALE
  5
54
102
{ACAD_REACTORS
330
47
102
}
330
47
100
AcDbScale
 70
     0
300
2:1
140
2.0
141
1.0
290
     0
  0
SCALE
  5
55
102
{ACAD_REACTORS
330
47
102
}
330
47
100
AcDbScale
 70
     0
300
4:1
140
4.0
141
1.0
290
     0
  0
SCALE
  5
56
102
{ACAD_REACTORS
330
47
102
}
330
47
100
AcDbScale
 70
     0
300
8:1
140
8.0
141
1.0
290
     0
  0
SCALE
  5
57
102
{ACAD_REACTORS
330
47
102
}
330
47
100
AcDbScale
 70
     0
300
10:1
140
10.0
141
1.0
290
     0
  0
SCALE
  5
58
102
{ACAD_REACTORS
330
47
102
}
330
47
100
AcDbScale
 70
     0
300
100:1
140
100.0
141
1.0
290
     0
  0
ENDSEC
  0
EOF
