  0
SECTION
  2
HEADER
  9
$ACADVER
  1
AC1032
  9
$ACADMAINTVER
 90
        4
  9
$DWGCODEPAGE
  3
ANSI_1252
  9
$LASTSAVEDBY
  1
MKramer
  9
$REQUIREDVERSIONS
160
                 0
  9
$INSBASE
 10
0.0
 20
0.0
 30
0.0
  9
$EXTMIN
 10
35.3395332945783
 20
37.46023423127906
 30
0.0
  9
$EXTMAX
 10
762.8835175917711
 20
721.5591213389123
 30
0.0
  9
$LIMMIN
 10
0.0
 20
0.0
  9
$LIMMAX
 10
841.0
 20
1189.0
  9
$ORTHOMODE
 70
     0
  9
$REGENMODE
 70
     1
  9
$FILLMODE
 70
     1
  9
$QTEXTMODE
 70
     0
  9
$MIRRTEXT
 70
     1
  9
$LTSCALE
 40
1.0
  9
$ATTMODE
 70
     1
  9
$TEXTSIZE
 40
10.0
  9
$TRACEWID
 40
1.0
  9
$TEXTSTYLE
  7
Standard
  9
$CLAYER
  8
0
  9
$CELTYPE
  6
ByLayer
  9
$CECOLOR
 62
   256
  9
$CELTSCALE
 40
1.0
  9
$DISPSILH
 70
     0
  9
$DIMSCALE
 40
1.0
  9
$DIMASZ
 40
2.5
  9
$DIMEXO
 40
0.0
  9
$DIMDLI
 40
3.75
  9
$DIMRND
 40
0.0
  9
$DIMDLE
 40
0.0
  9
$DIMEXE
 40
1.0
  9
$DIMTP
 40
0.0
  9
$DIMTM
 40
0.0
  9
$DIMTXT
 40
3.5
  9
$DIMCEN
 40
2.5
  9
$DIMTSZ
 40
0.0
  9
$DIMTOL
 70
     0
  9
$DIMLIM
 70
     0
  9
$DIMTIH
 70
     1
  9
$DIMTOH
 70
     1
  9
$DIMSE1
 70
     0
  9
$DIMSE2
 70
     0
  9
$DIMTAD
 70
     1
  9
$DIMZIN
 70
     0
  9
$DIMBLK
  1

  9
$DIMASO
 70
     1
  9
$DIMSHO
 70
     1
  9
$DIMPOST
  1

  9
$DIMAPOST
  1

  9
$DIMALT
 70
     0
  9
$DIMALTD
 70
     3
  9
$DIMALTF
 40
0.0393700787401575
  9
$DIMLFAC
 40
1.0
  9
$DIMTOFL
 70
     1
  9
$DIMTVP
 40
0.0
  9
$DIMTIX
 70
     0
  9
$DIMSOXD
 70
     0
  9
$DIMSAH
 70
     0
  9
$DIMBLK1
  1

  9
$DIMBLK2
  1

  9
$DIMSTYLE
  2
ISO-25
  9
$DIMCLRD
 70
     0
  9
$DIMCLRE
 70
     0
  9
$DIMCLRT
 70
     0
  9
$DIMTFAC
 40
1.0
  9
$DIMGAP
 40
1.5
  9
$DIMJUST
 70
     0
  9
$DIMSD1
 70
     0
  9
$DIMSD2
 70
     0
  9
$DIMTOLJ
 70
     0
  9
$DIMTZIN
 70
     0
  9
$DIMALTZ
 70
     0
  9
$DIMALTTZ
 70
     0
  9
$DIMUPT
 70
     0
  9
$DIMDEC
 70
     2
  9
$DIMTDEC
 70
     2
  9
$DIMALTU
 70
     2
  9
$DIMALTTD
 70
     3
  9
$DIMTXSTY
  7
Standard
  9
$DIMAUNIT
 70
     0
  9
$DIMADEC
 70
     2
  9
$DIMALTRND
 40
0.0
  9
$DIMAZIN
 70
     0
  9
$DIMDSEP
 70
    44
  9
$DIMATFIT
 70
     3
  9
$DIMFRAC
 70
     0
  9
$DIMLDRBLK
  1

  9
$DIMLUNIT
 70
     2
  9
$DIMLWD
 70
    -2
  9
$DIMLWE
 70
    -2
  9
$DIMTMOVE
 70
     0
  9
$DIMFXL
 40
1.0
  9
$DIMFXLON
 70
     0
  9
$DIMJOGANG
 40
0.7853981633974483
  9
$DIMTFILL
 70
     0
  9
$DIMTFILLCLR
 70
     0
  9
$DIMARCSYM
 70
     0
  9
$DIMLTYPE
  6

  9
$DIMLTEX1
  6

  9
$DIMLTEX2
  6

  9
$DIMTXTDIRECTION
 70
     0
  9
$LUNITS
 70
     2
  9
$LUPREC
 70
     2
  9
$SKETCHINC
 40
1.0
  9
$FILLETRAD
 40
10.0
  9
$AUNITS
 70
     0
  9
$AUPREC
 70
     2
  9
$MENU
  1
.
  9
$ELEVATION
 40
0.0
  9
$PELEVATION
 40
0.0
  9
$THICKNESS
 40
0.0
  9
$LIMCHECK
 70
     0
  9
$CHAMFERA
 40
0.0
  9
$CHAMFERB
 40
0.0
  9
$CHAMFERC
 40
0.0
  9
$CHAMFERD
 40
0.0
  9
$SKPOLY
 70
     0
  9
$TDCREATE
 40
2459534.315041563
  9
$TDUCREATE
 40
2459534.273374896
  9
$TDUPDATE
 40
2459958.449129514
  9
$TDUUPDATE
 40
2459958.407462847
  9
$TDINDWG
 40
0.0003428588
  9
$TDUSRTIMER
 40
0.0003435648
  9
$USRTIMER
 70
     1
  9
$ANGBASE
 50
0.0
  9
$ANGDIR
 70
     0
  9
$PDMODE
 70
     0
  9
$PDSIZE
 40
-1.0
  9
$PLINEWID
 40
0.0
  9
$SPLFRAME
 70
     0
  9
$SPLINETYPE
 70
     6
  9
$SPLINESEGS
 70
     8
  9
$HANDSEED
  5
155
  9
$SURFTAB1
 70
     6
  9
$SURFTAB2
 70
     6
  9
$SURFTYPE
 70
     6
  9
$SURFU
 70
     6
  9
$SURFV
 70
     6
  9
$UCSBASE
  2

  9
$UCSNAME
  2

  9
$UCSORG
 10
0.0
 20
0.0
 30
0.0
  9
$UCSXDIR
 10
1.0
 20
0.0
 30
0.0
  9
$UCSYDIR
 10
0.0
 20
1.0
 30
0.0
  9
$UCSORTHOREF
  2

  9
$UCSORTHOVIEW
 70
     0
  9
$UCSORGTOP
 10
0.0
 20
0.0
 30
0.0
  9
$UCSORGBOTTOM
 10
0.0
 20
0.0
 30
0.0
  9
$UCSORGLEFT
 10
0.0
 20
0.0
 30
0.0
  9
$UCSORGRIGHT
 10
0.0
 20
0.0
 30
0.0
  9
$UCSORGFRONT
 10
0.0
 20
0.0
 30
0.0
  9
$UCSORGBACK
 10
0.0
 20
0.0
 30
0.0
  9
$PUCSBASE
  2

  9
$PUCSNAME
  2

  9
$PUCSORG
 10
0.0
 20
0.0
 30
0.0
  9
$PUCSXDIR
 10
1.0
 20
0.0
 30
0.0
  9
$PUCSYDIR
 10
0.0
 20
1.0
 30
0.0
  9
$PUCSORTHOREF
  2

  9
$PUCSORTHOVIEW
 70
     0
  9
$PUCSORGTOP
 10
0.0
 20
0.0
 30
0.0
  9
$PUCSORGBOTTOM
 10
0.0
 20
0.0
 30
0.0
  9
$PUCSORGLEFT
 10
0.0
 20
0.0
 30
0.0
  9
$PUCSORGRIGHT
 10
0.0
 20
0.0
 30
0.0
  9
$PUCSORGFRONT
 10
0.0
 20
0.0
 30
0.0
  9
$PUCSORGBACK
 10
0.0
 20
0.0
 30
0.0
  9
$USERI1
 70
     0
  9
$USERI2
 70
     0
  9
$USERI3
 70
     0
  9
$USERI4
 70
     0
  9
$USERI5
 70
     0
  9
$USERR1
 40
0.0
  9
$USERR2
 40
0.0
  9
$USERR3
 40
0.0
  9
$USERR4
 40
0.0
  9
$USERR5
 40
0.0
  9
$WORLDVIEW
 70
     1
  9
$SHADEDGE
 70
     3
  9
$SHADEDIF
 70
    70
  9
$TILEMODE
 70
     1
  9
$MAXACTVP
 70
    64
  9
$PINSBASE
 10
0.0
 20
0.0
 30
0.0
  9
$PLIMCHECK
 70
     0
  9
$PEXTMIN
 10
1.000000000000000E+20
 20
1.000000000000000E+20
 30
1.000000000000000E+20
  9
$PEXTMAX
 10
-1.000000000000000E+20
 20
-1.000000000000000E+20
 30
-1.000000000000000E+20
  9
$PLIMMIN
 10
0.0
 20
0.0
  9
$PLIMMAX
 10
0.0
 20
0.0
  9
$UNITMODE
 70
     0
  9
$VISRETAIN
 70
     1
  9
$PLINEGEN
 70
     0
  9
$PSLTSCALE
 70
     1
  9
$TREEDEPTH
 70
  3020
  9
$CMLSTYLE
  2
Standard
  9
$CMLJUST
 70
     0
  9
$CMLSCALE
 40
20.0
  9
$PROXYGRAPHICS
 70
     1
  9
$MEASUREMENT
 70
     1
  9
$CELWEIGHT
370
    -1
  9
$ENDCAPS
280
     0
  9
$JOINSTYLE
280
     0
  9
$LWDISPLAY
290
     1
  9
$INSUNITS
 70
     4
  9
$HYPERLINKBASE
  1

  9
$STYLESHEET
  1

  9
$XEDIT
290
     1
  9
$CEPSNTYPE
380
     0
  9
$PSTYLEMODE
290
     1
  9
$FINGERPRINTGUID
  2
{da8264ab-6269-4fc2-ad7f-da61faa2ab72}
  9
$VERSIONGUID
  2
{FAEB1C32-E019-11D5-929B-00C0DF256EC4}
  9
$EXTNAMES
290
     1
  9
$PSVPSCALE
 40
0.0
  9
$OLESTARTUP
290
     0
  9
$SORTENTS
280
   127
  9
$INDEXCTL
280
     0
  9
$HIDETEXT
280
     1
  9
$XCLIPFRAME
280
     2
  9
$HALOGAP
280
     0
  9
$OBSCOLOR
 70
   257
  9
$OBSLTYPE
280
     0
  9
$INTERSECTIONDISPLAY
280
     0
  9
$INTERSECTIONCOLOR
 70
   257
  9
$DIMASSOC
280
     2
  9
$PROJECTNAME
  1

  9
$CAMERADISPLAY
290
     0
  9
$LENSLENGTH
 40
50.0
  9
$CAMERAHEIGHT
 40
0.0
  9
$STEPSPERSEC
 40
2.0
  9
$STEPSIZE
 40
6.0
  9
$3DDWFPREC
 40
2.0
  9
$PSOLWIDTH
 40
0.25
  9
$PSOLHEIGHT
 40
4.0
  9
$LOFTANG1
 40
1.570796326794897
  9
$LOFTANG2
 40
1.570796326794897
  9
$LOFTMAG1
 40
0.0
  9
$LOFTMAG2
 40
0.0
  9
$LOFTPARAM
 70
     7
  9
$LOFTNORMALS
280
     1
  9
$LATITUDE
 40
37.795
  9
$LONGITUDE
 40
-122.394
  9
$NORTHDIRECTION
 40
0.0
  9
$TIMEZONE
 70
 -8000
  9
$LIGHTGLYPHDISPLAY
280
     1
  9
$TILEMODELIGHTSYNCH
280
     1
  9
$SOLIDHIST
280
     0
  9
$SHOWHIST
280
     1
  9
$DWFFRAME
280
     2
  9
$DGNFRAME
280
     2
  9
$REALWORLDSCALE
290
     1
  9
$INTERFERECOLOR
 62
   256
  9
$CSHADOW
280
     0
  9
$SHADOWPLANELOCATION
 40
0.0
  0
ENDSEC
  0
SECTION
  2
CLASSES
  0
CLASS
  1
ACDBDICTIONARYWDFLT
  2
AcDbDictionaryWithDefault
  3
ObjectDBX Classes
 90
        0
 91
        3
280
     0
281
     0
  0
CLASS
  1
VISUALSTYLE
  2
AcDbVisualStyle
  3
ObjectDBX Classes
 90
     4095
 91
        3
280
     0
281
     0
  0
CLASS
  1
MATERIAL
  2
AcDbMaterial
  3
ObjectDBX Classes
 90
     1153
 91
        3
280
     0
281
     0
  0
CLASS
  1
SCALE
  2
AcDbScale
  3
ObjectDBX Classes
 90
     1153
 91
        3
280
     0
281
     0
  0
CLASS
  1
TABLESTYLE
  2
AcDbTableStyle
  3
ObjectDBX Classes
 90
     4095
 91
        3
280
     0
281
     0
  0
CLASS
  1
MLEADERSTYLE
  2
AcDbMLeaderStyle
  3
ACDB_MLEADERSTYLE_CLASS
 90
     4095
 91
        3
280
     0
281
     0
  0
CLASS
  1
SUN
  2
AcDbSun
  3
SCENEOE
 90
     1153
 91
        3
280
     0
281
     0
  0
CLASS
  1
ACDBPLACEHOLDER
  2
AcDbPlaceHolder
  3
ObjectDBX Classes
 90
        0
 91
        1
280
     0
281
     0
  0
CLASS
  1
LAYOUT
  2
AcDbLayout
  3
ObjectDBX Classes
 90
        0
 91
        1
280
     0
281
     0
  0
CLASS
  1
DICTIONARYVAR
  2
AcDbDictionaryVar
  3
ObjectDBX Classes
 90
        0
 91
        3
280
     0
281
     0
  0
CLASS
  1
CELLSTYLEMAP
  2
AcDbCellStyleMap
  3
ObjectDBX Classes
 90
     1152
 91
        3
280
     0
281
     0
  0
ENDSEC
  0
SECTION
  2
TABLES
  0
TABLE
  2
VPORT
  5
8
330
0
100
AcDbSymbolTable
 70
     1
  0
VPORT
  5
29
330
8
100
AcDbSymbolTableRecord
100
AcDbViewportTableRecord
  2
*Active
 70
     0
 10
0.0
 20
0.0
 11
1.0
 21
1.0
 12
405.7491389312978
 22
317.7588885496185
 13
0.0
 23
0.0
 14
10.0
 24
10.0
 15
10.0
 25
10.0
 16
0.0
 26
0.0
 36
1.0
 17
0.0
 27
0.0
 37
0.0
 40
608.768
 41
1.757251908396947
 42
50.0
 43
0.0
 44
0.0
 50
0.0
 51
0.0
 71
    16
 72
  2000
 73
     1
 74
     3
 75
     0
 76
     0
 77
     0
 78
     0
281
     0
 65
     1
110
0.0
120
0.0
130
0.0
111
1.0
121
0.0
131
0.0
112
0.0
122
1.0
132
0.0
 79
     0
146
0.0
348
12C
 60
     3
 61
     5
292
     1
282
     1
141
0.0
142
0.0
 63
   256
  0
ENDTAB
  0
TABLE
  2
LTYPE
  5
5
330
0
100
AcDbSymbolTable
 70
     6
  0
LTYPE
  5
14
330
5
100
AcDbSymbolTableRecord
100
AcDbLinetypeTableRecord
  2
ByBlock
 70
     0
  3

 72
    65
 73
     0
 40
0.0
  0
LTYPE
  5
15
330
5
100
AcDbSymbolTableRecord
100
AcDbLinetypeTableRecord
  2
ByLayer
 70
     0
  3

 72
    65
 73
     0
 40
0.0
  0
LTYPE
  5
16
330
5
100
AcDbSymbolTableRecord
100
AcDbLinetypeTableRecord
  2
Continuous
 70
     0
  3
Solid line
 72
    65
 73
     0
 40
0.0
  0
LTYPE
  5
6E
330
5
100
AcDbSymbolTableRecord
100
AcDbLinetypeTableRecord
  2
HIDDEN
 70
     0
  3
Hidden __ __ __ __ __ __ __ __ __ __ __ __ __ __
 72
    65
 73
     2
 40
1.905
 49
1.27
 74
     0
 49
-0.635
 74
     0
  0
LTYPE
  5
6F
330
5
100
AcDbSymbolTableRecord
100
AcDbLinetypeTableRecord
  2
PHANTOM
 70
     0
  3
Phantom ______  __  __  ______  __  __  ______
 72
    65
 73
     6
 40
12.7
 49
6.35
 74
     0
 49
-1.27
 74
     0
 49
1.27
 74
     0
 49
-1.27
 74
     0
 49
1.27
 74
     0
 49
-1.27
 74
     0
  0
LTYPE
  5
70
330
5
100
AcDbSymbolTableRecord
100
AcDbLinetypeTableRecord
  2
CENTER
 70
     0
  3
Center ____ _ ____ _ ____ _ ____ _ ____ _ ____
 72
    65
 73
     4
 40
10.16
 49
6.35
 74
     0
 49
-1.27
 74
     0
 49
1.27
 74
     0
 49
-1.27
 74
     0
  0
LTYPE
  5
71
330
5
100
AcDbSymbolTableRecord
100
AcDbLinetypeTableRecord
  2
CENTERX2
 70
     0
  3
Center (2x) ________  __  ________  __  _____
 72
    65
 73
     4
 40
20.32
 49
12.7
 74
     0
 49
-2.54
 74
     0
 49
2.54
 74
     0
 49
-2.54
 74
     0
  0
LTYPE
  5
72
330
5
100
AcDbSymbolTableRecord
100
AcDbLinetypeTableRecord
  2
DOT2
 70
     0
  3
Dot (.5x) ........................................
 72
    65
 73
     2
 40
0.635
 49
0.0
 74
     0
 49
-0.635
 74
     0
  0
ENDTAB
  0
TABLE
  2
LAYER
  5
2
330
0
100
AcDbSymbolTable
 70
     1
  0
LAYER
  5
10
330
2
100
AcDbSymbolTableRecord
100
AcDbLayerTableRecord
  2
0
 70
     0
 62
     7
  6
Continuous
370
    -3
390
F
347
143
348
0
  0
ENDTAB
  0
TABLE
  2
STYLE
  5
3
330
0
100
AcDbSymbolTable
 70
     3
  0
STYLE
  5
11
330
3
100
AcDbSymbolTableRecord
100
AcDbTextStyleTableRecord
  2
Standard
 70
     0
 40
0.0
 41
1.0
 50
0.0
 71
     0
 42
10.0
  3
txt
  4

  0
STYLE
  5
76
330
3
100
AcDbSymbolTableRecord
100
AcDbTextStyleTableRecord
  2
SLDTEXTSTYLE0
 70
     0
 40
0.0
 41
0.96
 50
0.0
 71
     0
 42
10.0
  3
ISOCP3
  4

  0
STYLE
  5
8D
330
3
100
AcDbSymbolTableRecord
100
AcDbTextStyleTableRecord
  2
SLDTEXTSTYLE1
 70
     0
 40
0.0
 41
0.605
 50
0.0
 71
     0
 42
10.0
  3
TXT
  4

  0
ENDTAB
  0
TABLE
  2
VIEW
  5
6
330
0
100
AcDbSymbolTable
 70
     0
  0
ENDTAB
  0
TABLE
  2
UCS
  5
7
330
0
100
AcDbSymbolTable
 70
     0
  0
ENDTAB
  0
TABLE
  2
APPID
  5
9
330
0
100
AcDbSymbolTable
 70
     1
  0
APPID
  5
12
330
9
100
AcDbSymbolTableRecord
100
AcDbRegAppTableRecord
  2
ACAD
 70
     0
  0
ENDTAB
  0
TABLE
  2
DIMSTYLE
  5
A
330
0
100
AcDbSymbolTable
 70
     2
100
AcDbDimStyleTable
  0
DIMSTYLE
105
27
330
A
100
AcDbSymbolTableRecord
100
AcDbDimStyleTableRecord
  2
ISO-25
 70
     0
 41
2.5
 42
0.625
 43
3.75
 44
1.25
 73
     0
 74
     0
 77
     1
 78
     8
140
2.5
141
2.5
143
0.03937007874016
147
0.625
171
     3
172
     1
178
     0
271
     2
272
     2
274
     3
278
    44
283
     0
284
     8
340
11
  0
DIMSTYLE
105
77
102
{ACAD_REACTORS
330
75
330
82
102
}
330
A
100
AcDbSymbolTableRecord
100
AcDbDimStyleTableRecord
  2
SLDDIMSTYLE0
 70
     0
 41
2.5
 44
0.0
 45
0.000000001
 73
     0
 74
     0
 77
     1
 78
    12
 79
     3
140
6.0
147
1.5
173
     1
178
     0
271
     2
272
     2
276
     2
284
    12
340
76
  0
ENDTAB
  0
TABLE
  2
BLOCK_RECORD
  5
1
330
0
100
AcDbSymbolTable
 70
     3
  0
BLOCK_RECORD
  5
1F
102
{ACAD_XDICTIONARY
360
149
102
}
330
1
100
AcDbSymbolTableRecord
100
AcDbBlockTableRecord
  2
*Model_Space
340
22
 70
     0
280
     1
281
     0
  0
BLOCK_RECORD
  5
1B
330
1
100
AcDbSymbolTableRecord
100
AcDbBlockTableRecord
  2
*Paper_Space
340
1E
 70
     0
280
     1
281
     0
  0
BLOCK_RECORD
  5
23
330
1
100
AcDbSymbolTableRecord
100
AcDbBlockTableRecord
  2
*Paper_Space0
340
26
 70
     0
280
     1
281
     0
  0
BLOCK_RECORD
  5
78
330
1
100
AcDbSymbolTableRecord
100
AcDbBlockTableRecord
  2
_D
340
0
 70
     0
280
     1
281
     0
  0
BLOCK_RECORD
  5
83
330
1
100
AcDbSymbolTableRecord
100
AcDbBlockTableRecord
  2
_D_1
340
0
 70
     0
280
     1
281
     0
  0
ENDTAB
  0
ENDSEC
  0
SECTION
  2
BLOCKS
  0
BLOCK
  5
20
330
1F
100
AcDbEntity
  8
0
100
AcDbBlockBegin
  2
*Model_Space
 70
     0
 10
0.0
 20
0.0
 30
0.0
  3
*Model_Space
  1

  0
ENDBLK
  5
21
330
1F
100
AcDbEntity
  8
0
100
AcDbBlockEnd
  0
BLOCK
  5
1C
330
1B
100
AcDbEntity
 67
     1
  8
0
100
AcDbBlockBegin
  2
*Paper_Space
 70
     0
 10
0.0
 20
0.0
 30
0.0
  3
*Paper_Space
  1

  0
ENDBLK
  5
1D
330
1B
100
AcDbEntity
 67
     1
  8
0
100
AcDbBlockEnd
  0
BLOCK
  5
24
330
23
100
AcDbEntity
  8
0
100
AcDbBlockBegin
  2
*Paper_Space0
 70
     0
 10
0.0
 20
0.0
 30
0.0
  3
*Paper_Space0
  1

  0
ENDBLK
  5
25
330
23
100
AcDbEntity
  8
0
100
AcDbBlockEnd
  0
BLOCK
  5
79
330
78
100
AcDbEntity
  8
0
100
AcDbBlockBegin
  2
_D
 70
     0
 10
0.0
 20
0.0
 30
0.0
  3
_D
  1

  0
SOLID
  5
7B
330
78
100
AcDbEntity
  8
0
  6
Continuous
 62
     7
370
    18
100
AcDbTrace
 10
42.76143950037947
 20
152.0299240878882
 30
0.0
 11
42.46143950037947
 21
149.5299240878882
 31
0.0
 12
43.06143950037946
 22
149.5299240878882
 32
0.0
 13
43.06143950037946
 23
149.5299240878882
 33
0.0
  0
SOLID
  5
7C
330
78
100
AcDbEntity
  8
0
  6
Continuous
 62
     7
370
    18
100
AcDbTrace
 10
42.76143950037948
 20
52.0299240878882
 30
0.0
 11
43.06143950037948
 21
54.5299240878882
 31
0.0
 12
42.46143950037948
 22
54.5299240878882
 32
0.0
 13
42.46143950037948
 23
54.5299240878882
 33
0.0
  0
LINE
  5
7D
330
78
100
AcDbEntity
  8
0
  6
Continuous
 62
     7
370
     0
100
AcDbLine
 10
56.68500799020809
 20
152.0299240878882
 30
0.0
 11
41.76143950037947
 21
152.0299240878882
 31
0.0
  0
LINE
  5
7E
330
78
100
AcDbEntity
  8
0
  6
Continuous
 62
     7
370
     0
100
AcDbLine
 10
56.68500799020809
 20
52.0299240878882
 30
0.0
 11
41.76143950037948
 21
52.0299240878882
 31
0.0
  0
LINE
  5
7F
330
78
100
AcDbEntity
  8
0
  6
Continuous
 62
     7
370
     0
100
AcDbLine
 10
42.76143950037947
 20
152.0299240878882
 30
0.0
 11
42.76143950037948
 21
52.0299240878882
 31
0.0
  0
MTEXT
  5
80
330
78
100
AcDbEntity
  8
0
  6
Continuous
 62
     7
370
    18
100
AcDbMText
 10
35.02703329457838
 20
94.36805414627578
 30
0.0
 40
6.0
 41
0.0
 46
0.0
 71
     1
 72
     1
  1
100
  7
SLDTEXTSTYLE0
 11
-7.044195017643634E-15
 21
1.0
 31
0.0
 73
     1
 44
1.0
  0
MTEXT
  5
81
330
78
100
AcDbEntity
  8
0
  6
Continuous
 62
     7
370
    18
100
AcDbMText
 10
35.0270332945783
 20
105.7430548466304
 30
0.0
 40
6.0
 41
0.0
 46
0.0
 71
     1
 72
     1
  1
mm
  7
SLDTEXTSTYLE0
 11
-7.044195017643634E-15
 21
1.0
 31
0.0
 73
     1
 44
1.0
  0
ENDBLK
  5
7A
330
78
100
AcDbEntity
  8
0
100
AcDbBlockEnd
  0
BLOCK
  5
84
330
83
100
AcDbEntity
  8
0
100
AcDbBlockBegin
  2
_D_1
 70
     0
 10
0.0
 20
0.0
 30
0.0
  3
_D_1
  1

  0
SOLID
  5
86
330
83
100
AcDbEntity
  8
0
  6
Continuous
 62
     7
370
    18
100
AcDbTrace
 10
56.68500799020809
 20
38.46023423127903
 30
0.0
 11
59.18500799020809
 21
38.16023423127903
 31
0.0
 12
59.18500799020809
 22
38.76023423127903
 32
0.0
 13
59.18500799020809
 23
38.76023423127903
 33
0.0
  0
SOLID
  5
87
330
83
100
AcDbEntity
  8
0
  6
Continuous
 62
     7
370
    18
100
AcDbTrace
 10
156.6850079902081
 20
38.46023423127905
 30
0.0
 11
154.1850079902081
 21
38.76023423127904
 31
0.0
 12
154.1850079902081
 22
38.16023423127905
 32
0.0
 13
154.1850079902081
 23
38.16023423127905
 33
0.0
  0
LINE
  5
88
330
83
100
AcDbEntity
  8
0
  6
Continuous
 62
     7
370
     0
100
AcDbLine
 10
56.68500799020809
 20
52.0299240878882
 30
0.0
 11
56.68500799020809
 21
37.46023423127903
 31
0.0
  0
LINE
  5
89
330
83
100
AcDbEntity
  8
0
  6
Continuous
 62
     7
370
     0
100
AcDbLine
 10
156.6850079902081
 20
52.0299240878882
 30
0.0
 11
156.6850079902081
 21
37.46023423127905
 31
0.0
  0
LINE
  5
8A
330
83
100
AcDbEntity
  8
0
  6
Continuous
 62
     7
370
     0
100
AcDbLine
 10
56.68500799020809
 20
38.46023423127903
 30
0.0
 11
156.6850079902081
 21
38.46023423127905
 31
0.0
  0
MTEXT
  5
8B
330
83
100
AcDbEntity
  8
0
  6
Continuous
 62
     7
370
    18
100
AcDbMText
 10
93.96264848609465
 20
46.19464043708017
 30
0.0
 40
6.0
 41
0.0
 46
0.0
 71
     1
 72
     1
  1
100
  7
SLDTEXTSTYLE0
 73
     1
 44
1.0
  0
MTEXT
  5
8C
330
83
100
AcDbEntity
  8
0
  6
Continuous
 62
     7
370
    18
100
AcDbMText
 10
105.3376491864492
 20
46.19464043708017
 30
0.0
 40
6.0
 41
0.0
 46
0.0
 71
     1
 72
     1
  1
mm
  7
SLDTEXTSTYLE0
 73
     1
 44
1.0
  0
ENDBLK
  5
85
330
83
100
AcDbEntity
  8
0
100
AcDbBlockEnd
  0
ENDSEC
  0
SECTION
  2
ENTITIES
  0
LINE
  5
73
330
1F
100
AcDbEntity
  8
0
  6
Continuous
 62
     7
370
    18
100
AcDbLine
 10
56.68500799020809
 20
152.0299240878882
 30
0.0
 11
56.68500799020809
 21
52.0299240878882
 31
0.0
  0
LINE
  5
74
330
1F
100
AcDbEntity
  8
0
  6
Continuous
 62
     7
370
    18
100
AcDbLine
 10
56.68500799020809
 20
52.0299240878882
 30
0.0
 11
156.6850079902081
 21
52.0299240878882
 31
0.0
  0
DIMENSION
  5
75
330
1F
100
AcDbEntity
  8
0
  6
Continuous
 62
     7
370
    18
100
AcDbDimension
280
     0
  2
_D
 10
42.76143950037947
 20
52.0299240878882
 30
0.0
 11
42.76143950037947
 21
105.4472211621264
 31
0.0
 70
   160
  1
<>mm
 71
     2
 42
-1.0
 73
     0
 74
     0
 75
     0
  3
SLDDIMSTYLE0
100
AcDbAlignedDimension
 13
56.68500799020809
 23
152.0299240878882
 33
0.0
 14
56.68500799020809
 24
52.0299240878882
 34
0.0
 50
90.0000000000002
100
AcDbRotatedDimension
  0
DIMENSION
  5
82
330
1F
100
AcDbEntity
  8
0
  6
Continuous
 62
     7
370
    18
100
AcDbDimension
280
     0
  2
_D_1
 10
156.6850079902081
 20
38.46023423127903
 30
0.0
 11
105.0418155019452
 21
38.46023423127903
 31
0.0
 70
   160
  1
<>mm
 71
     2
 42
-1.0
 73
     0
 74
     0
 75
     0
  3
SLDDIMSTYLE0
100
AcDbAlignedDimension
 13
56.68500799020809
 23
52.0299240878882
 33
0.0
 14
156.6850079902081
 24
52.0299240878882
 34
0.0
100
AcDbRotatedDimension
  0
MTEXT
  5
8E
330
1F
100
AcDbEntity
  8
0
  6
Continuous
 62
     7
370
     0
100
AcDbMText
 10
658.0168509251044
 20
48.43424494991422
 30
0.0
 40
10.0
 41
0.0
 46
0.0
 71
     1
 72
     1
  1
KLUDI GmbH & Co KG
  7
SLDTEXTSTYLE1
 73
     1
 44
1.0
  0
MTEXT
  5
8F
330
1F
100
AcDbEntity
  8
0
  6
Continuous
 62
     7
370
     0
100
AcDbMText
 10
362.6071641649135
 20
48.43424494991433
 30
0.0
 40
10.0
 41
0.0
 46
10.0
 71
     1
 72
     1
  1
{20 298 .. 15}
  7
SLDTEXTSTYLE1
 73
     1
 44
1.0
  0
ARC
  5
90
330
1F
100
AcDbEntity
  8
0
  6
Continuous
 62
     7
370
    25
100
AcDbCircle
 10
382.9828555582067
 20
390.7591213389122
 30
0.0
 40
0.7999999999999545
100
AcDbArc
 50
90.0
 51
180.0
  0
ARC
  5
91
330
1F
100
AcDbEntity
  8
0
  6
Continuous
 62
     7
370
    25
100
AcDbCircle
 10
431.3828555582067
 20
390.7591213389122
 30
0.0
 40
0.8000000000000114
100
AcDbArc
 50
0.0
 51
89.99999999999594
  0
LINE
  5
92
330
1F
100
AcDbEntity
  8
0
  6
Continuous
 62
     7
370
    25
100
AcDbLine
 10
432.1828555582067
 20
384.5591213389122
 30
0.0
 11
432.1828555582067
 21
390.7591213389122
 31
0.0
  0
LINE
  5
93
330
1F
100
AcDbEntity
  8
0
  6
Continuous
 62
     7
370
    25
100
AcDbLine
 10
382.1828555582068
 20
390.7591213389122
 30
0.0
 11
382.1828555582068
 21
384.5591213389122
 31
0.0
  0
LINE
  5
94
330
1F
100
AcDbEntity
  8
0
  6
Continuous
 62
     7
370
    25
100
AcDbLine
 10
425.1828555582067
 20
666.8174515881099
 30
0.0
 11
425.1828555582067
 21
695.7591213389122
 31
0.0
  0
LINE
  5
95
330
1F
100
AcDbEntity
  8
0
  6
Continuous
 62
     7
370
    25
100
AcDbLine
 10
425.1828555582067
 20
391.5591213389122
 30
0.0
 11
425.1828555582067
 21
644.81745158811
 31
0.0
  0
LINE
  5
96
330
1F
100
AcDbEntity
  8
0
  6
Continuous
 62
     7
370
    25
100
AcDbLine
 10
389.1828555582068
 20
695.7591213389122
 30
0.0
 11
389.1828555582068
 21
391.5591213389122
 31
0.0
  0
ARC
  5
97
330
1F
100
AcDbEntity
  8
0
  6
Continuous
 62
     7
370
    25
100
AcDbCircle
 10
389.9828555582067
 20
720.7591213389122
 30
0.0
 40
0.8000000000000682
100
AcDbArc
 50
90.0
 51
180.0
  0
LINE
  5
98
330
1F
100
AcDbEntity
  8
0
  6
Continuous
 62
     7
370
    25
100
AcDbLine
 10
425.1828555582067
 20
700.0591213389123
 30
0.0
 11
425.1828555582067
 21
710.4378009953525
 31
0.0
  0
LINE
  5
99
330
1F
100
AcDbEntity
  8
0
  6
Continuous
 62
     7
370
    25
100
AcDbLine
 10
389.1828555582068
 20
720.7591213389122
 30
0.0
 11
389.1828555582068
 21
705.2643319571215
 31
0.0
  0
ARC
  5
9A
330
1F
100
AcDbEntity
  8
0
  6
Continuous
 62
     7
370
    25
100
AcDbCircle
 10
424.3828555582067
 20
695.7591213389122
 30
0.0
 40
0.8000000000000114
100
AcDbArc
 50
0.0
 51
90.0
  0
ARC
  5
9B
330
1F
100
AcDbEntity
  8
0
  6
Continuous
 62
     7
370
    25
100
AcDbCircle
 10
389.9828555582067
 20
695.7591213389122
 30
0.0
 40
0.7999999999999545
100
AcDbArc
 50
90.0
 51
180.0
  0
ARC
  5
9C
330
1F
100
AcDbEntity
  8
0
  6
Continuous
 62
     7
370
    25
100
AcDbCircle
 10
389.6828555582067
 20
705.2643319571215
 30
0.0
 40
0.5000000000000279
100
AcDbArc
 50
181.5004393326924
 51
253.500000000003
  0
ARC
  5
9D
330
1F
100
AcDbEntity
  8
0
  6
Continuous
 62
     7
370
    25
100
AcDbCircle
 10
424.6828555582067
 20
700.0591213389123
 30
0.0
 40
0.5000000000001137
100
AcDbArc
 50
270.0000000000008
 51
0.0
  0
ARC
  5
9E
330
1F
100
AcDbEntity
  8
0
  6
Continuous
 62
     7
370
    25
100
AcDbCircle
 10
424.0357663872845
 20
690.4573534523848
 30
0.0
 40
33.99999999999999
100
AcDbArc
 50
156.8390559553526
 51
168.6348556495144
  0
ARC
  5
9F
330
1F
100
AcDbEntity
  8
0
  6
Continuous
 62
     7
370
    25
100
AcDbCircle
 10
390.3299447291289
 20
690.4573534523848
 30
0.0
 40
34.00000000000004
100
AcDbArc
 50
11.36514435048554
 51
15.52739300802064
  0
ARC
  5
A0
330
1F
100
AcDbEntity
  8
0
  6
Continuous
 62
     7
370
    25
100
AcDbCircle
 10
391.6828555582067
 20
696.960365130503
 30
0.0
 40
1.0
100
AcDbArc
 50
168.6348556495204
 51
180.0
  0
ARC
  5
A1
330
1F
100
AcDbEntity
  8
0
  6
Continuous
 62
     7
370
    25
100
AcDbCircle
 10
422.6828555582067
 20
696.960365130503
 30
0.0
 40
1.000000000000012
100
AcDbArc
 50
0.0
 51
11.36514435047896
  0
LINE
  5
A2
330
1F
100
AcDbEntity
  8
0
  6
Continuous
 62
     7
370
    25
100
AcDbLine
 10
423.6828555582067
 20
696.5591213389122
 30
0.0
 11
423.6828555582067
 21
696.960365130503
 31
0.0
  0
LINE
  5
A3
330
1F
100
AcDbEntity
  8
0
  6
Continuous
 62
     7
370
    25
100
AcDbLine
 10
390.6828555582067
 20
696.960365130503
 30
0.0
 11
390.6828555582067
 21
696.5591213389122
 31
0.0
  0
LINE
  5
A4
330
1F
100
AcDbEntity
  8
0
  6
Continuous
 62
     7
370
    25
100
AcDbLine
 10
425.1868077940013
 20
666.3181091109939
 30
0.0
 11
425.1826745152713
 21
666.9657113446841
 31
0.0
  0
LINE
  5
A5
330
1F
100
AcDbEntity
  8
0
  6
Continuous
 62
     7
370
    25
100
AcDbLine
 10
425.18267719588
 20
644.6696551677417
 30
0.0
 11
425.1876802040909
 21
645.3175199570369
 31
0.0
  0
LINE
  5
A6
330
1F
100
AcDbEntity
  8
0
  6
Continuous
 62
     7
370
    25
100
AcDbLine
 10
520.4346215121351
 20
632.5679136441519
 30
0.0
 11
528.0896199720684
 21
619.309067379686
 31
0.0
  0
LINE
  5
A7
330
1F
100
AcDbEntity
  8
0
  6
Continuous
 62
     7
370
    25
100
AcDbLine
 10
546.27609144646
 20
629.8091747748603
 30
0.0
 11
538.6210896042785
 21
643.068026897552
 31
0.0
  0
LINE
  5
A8
330
1F
100
AcDbEntity
  8
0
  6
Continuous
 62
     7
370
    25
100
AcDbLine
 10
425.1836663758627
 20
645.31745158811
 30
0.0
 11
498.3508478596078
 21
645.31745158811
 31
0.0
  0
LINE
  5
A9
330
1F
100
AcDbEntity
  8
0
  6
Continuous
 62
     7
370
    25
100
AcDbLine
 10
498.3508596532062
 20
666.3174515881099
 30
0.0
 11
425.1836717422125
 21
666.3174515881099
 31
0.0
  0
SPLINE
  5
AA
330
1F
100
AcDbEntity
  8
0
  6
Continuous
 62
     7
370
    25
100
AcDbSpline
210
0.0
220
0.0
230
1.0
 70
     8
 71
     3
 72
    16
 73
    12
 74
     0
 42
0.000000001
 43
0.00000001
 40
0.0
 40
0.0
 40
0.0
 40
0.0
 40
0.1578927237795896
 40
0.2851102892521755
 40
0.3816193388279959
 40
0.4522042673261705
 40
0.5425355792287191
 40
0.6639268777655526
 40
0.7621483678878959
 40
0.8741747199208462
 40
1.0
 40
1.0
 40
1.0
 40
1.0
 10
498.3508478596078
 20
645.3174515880506
 30
0.0
 10
499.7655402763081
 20
645.2504625507828
 30
0.0
 10
502.3200808179692
 20
645.1294990045536
 30
0.0
 10
505.6523130267722
 20
644.3073935352418
 30
0.0
 10
508.1294541062475
 20
643.4048280653112
 30
0.0
 10
510.2162332109584
 20
642.42339356856
 30
0.0
 10
512.4065426142424
 20
641.1578202758751
 30
0.0
 10
514.6465596501582
 20
639.5072639723649
 30
0.0
 10
516.8147789657872
 20
637.4759358051251
 30
0.0
 10
518.7960153945007
 20
635.1984185979187
 30
0.0
 10
519.9198051265788
 20
633.3871068733556
 30
0.0
 10
520.514298242027
 20
632.4289095171719
 30
0.0
  0
SPLINE
  5
AB
330
1F
100
AcDbEntity
  8
0
  6
Continuous
 62
     7
370
    25
100
AcDbSpline
210
0.0
220
0.0
230
1.0
 70
     8
 71
     3
 72
    19
 73
    15
 74
     0
 42
0.000000001
 43
0.00000001
 40
0.0
 40
0.0
 40
0.0
 40
0.0
 40
0.1087148038529716
 40
0.2037806296519518
 40
0.2851925534361371
 40
0.3529463584523621
 40
0.4070385353735123
 40
0.4522766586675027
 40
0.509041105094662
 40
0.5796203784628307
 40
0.6640107402959228
 40
0.7622077205656377
 40
0.874206117928226
 40
1.0
 40
1.0
 40
1.0
 40
1.0
 10
538.766393900661
 20
642.814524764783
 30
0.0
 10
537.8377470683055
 20
644.3289141758299
 30
0.0
 10
536.0970435990921
 20
647.1675637137417
 30
0.0
 10
533.1330926076756
 20
650.7732373551637
 30
0.0
 10
530.3458628296066
 20
653.6279803386343
 30
0.0
 10
527.842610541564
 20
655.8101383967983
 30
0.0
 10
525.6758042821482
 20
657.4684762417763
 30
0.0
 10
523.5734384813462
 20
658.9093679019383
 30
0.0
 10
521.166326457267
 20
660.3758517418596
 30
0.0
 10
518.0982020810522
 20
661.9731125448685
 30
0.0
 10
514.2846740244028
 20
663.5804440965181
 30
0.0
 10
509.6861964726884
 20
665.0058438008599
 30
0.0
 10
504.2899526040373
 20
666.0919011492565
 30
0.0
 10
500.4056726174162
 20
666.2394154351803
 30
0.0
 10
498.3508596532062
 20
666.3174515881267
 30
0.0
  0
SPLINE
  5
AC
330
1F
100
AcDbEntity
  8
0
  6
Continuous
 62
     7
370
    25
100
AcDbSpline
210
0.0
220
0.0
230
1.0
 70
     8
 71
     3
 72
    13
 73
     9
 74
     0
 42
0.000000001
 43
0.00000001
 40
0.0
 40
0.0
 40
0.0
 40
0.0
 40
0.2557892542062198
 40
0.3810911806243825
 40
0.5000087859727759
 40
0.6189246143629842
 40
0.7442220647576797
 40
0.9999999999999999
 40
0.9999999999999999
 40
0.9999999999999999
 40
0.9999999999999999
 10
425.1819787808367
 20
710.4378009953525
 30
0.0
 10
425.1858309572573
 20
710.7406094933308
 30
0.0
 10
425.1915701759145
 20
711.1917529487343
 30
0.0
 10
425.3823252995251
 20
711.7543076175614
 30
0.0
 10
425.6301166782307
 20
712.1109488289595
 30
0.0
 10
425.9867375327717
 20
712.3587580263746
 30
0.0
 10
426.5492613955478
 20
712.5495269505824
 30
0.0
 10
427.0003796029945
 20
712.5552679667832
 30
0.0
 10
427.3031703053067
 20
712.5591213389122
 30
0.0
  0
SPLINE
  5
AD
330
1F
100
AcDbEntity
  8
0
  6
Continuous
 62
     7
370
    25
100
AcDbSpline
210
0.0
220
0.0
230
1.0
 70
     8
 71
     3
 72
    10
 73
     6
 74
     0
 42
0.000000001
 43
0.00000001
 40
0.0
 40
0.0
 40
0.0
 40
0.0
 40
0.4074308472914856
 40
0.8369620769577774
 40
1.0
 40
1.0
 40
1.0
 40
1.0
 10
425.3557246751989
 20
712.1147195828095
 30
0.0
 10
425.4566237431982
 20
712.1932154357784
 30
0.0
 10
425.6638949748126
 20
712.3544650136396
 30
0.0
 10
425.9710219369069
 20
712.4661751692925
 30
0.0
 10
426.152895552128
 20
712.4968639696951
 30
0.0
 10
426.2029357817726
 20
712.5053076057761
 30
0.0
  0
LINE
  5
AE
330
1F
100
AcDbEntity
  8
0
  6
Continuous
 62
     7
370
    25
100
AcDbLine
 10
382.9828555582067
 20
391.5591213389122
 30
0.0
 11
431.3828555582067
 21
391.5591213389122
 31
0.0
  0
LINE
  5
AF
330
1F
100
AcDbEntity
  8
0
  6
Continuous
 62
     7
370
    25
100
AcDbLine
 10
431.4654381093155
 20
384.5591213389122
 30
0.0
 11
382.1828555582068
 21
384.5591213389122
 31
0.0
  0
LINE
  5
B0
330
1F
100
AcDbEntity
  8
0
  6
Continuous
 62
     7
370
    25
100
AcDbLine
 10
432.1828555582067
 20
384.5591213389122
 30
0.0
 11
431.4654381093155
 21
384.5591213389122
 31
0.0
  0
SPLINE
  5
B1
330
1F
100
AcDbEntity
  8
0
  6
Continuous
 62
     7
370
    25
100
AcDbSpline
210
0.0
220
0.0
230
1.0
 70
     8
 71
     3
 72
    12
 73
     8
 74
     0
 42
0.000000001
 43
0.00000001
 40
0.0
 40
0.0
 40
0.0
 40
0.0
 40
0.5
 40
0.5
 40
0.75
 40
0.75
 40
1.0
 40
1.0
 40
1.0
 40
1.0
 10
411.648643022549
 20
699.5591213389123
 30
0.0
 10
410.1928758437001
 20
699.5591213389123
 30
0.0
 10
408.7257849192279
 20
699.6618454573438
 30
0.0
 10
406.5108424290902
 20
699.9815067753528
 30
0.0
 10
405.7685708108567
 20
700.1164909040316
 30
0.0
 10
404.3172865191989
 20
700.4351651055484
 30
0.0
 10
403.6034421236236
 20
700.6193919022843
 30
0.0
 10
402.9009704056683
 20
700.8274735049717
 30
0.0
  0
LINE
  5
B2
330
1F
100
AcDbEntity
  8
0
  6
Continuous
 62
     7
370
    25
100
AcDbLine
 10
389.9828555582067
 20
721.5591213389122
 30
0.0
 11
423.3245848555327
 21
721.5591213389123
 31
0.0
  0
LINE
  5
B3
330
1F
100
AcDbEntity
  8
0
  6
Continuous
 62
     7
370
    25
100
AcDbLine
 10
424.3828555582067
 20
696.5591213389122
 30
0.0
 11
389.9828555582067
 21
696.5591213389122
 31
0.0
  0
LINE
  5
B4
330
1F
100
AcDbEntity
  8
0
  6
Continuous
 62
     7
370
    25
100
AcDbLine
 10
402.9009704056683
 20
700.8274735049717
 30
0.0
 11
389.5408482892813
 21
704.7849219701869
 31
0.0
  0
LINE
  5
B5
330
1F
100
AcDbEntity
  8
0
  6
Continuous
 62
     7
370
    25
100
AcDbLine
 10
424.6828555582067
 20
699.5591213389123
 30
0.0
 11
411.648643022549
 21
699.5591213389123
 31
0.0
  0
SPLINE
  5
B6
330
1F
100
AcDbEntity
  8
0
  6
Continuous
 62
     7
370
    25
100
AcDbSpline
210
0.0
220
0.0
230
1.0
 70
     8
 71
     3
 72
    46
 73
    42
 74
     0
 42
0.000000001
 43
0.00000001
 40
0.0
 40
0.0
 40
0.0
 40
0.0
 40
0.0624999999999968
 40
0.0624999999999968
 40
0.1249999999999935
 40
0.1249999999999935
 40
0.1874999999999903
 40
0.1874999999999903
 40
0.249999999999987
 40
0.249999999999987
 40
0.2812499999999854
 40
0.2812499999999854
 40
0.3124999999999838
 40
0.3124999999999838
 40
0.3749999999999844
 40
0.3749999999999844
 40
0.4062499999999847
 40
0.4062499999999847
 40
0.4374999999999851
 40
0.4374999999999851
 40
0.4999999999999857
 40
0.4999999999999857
 40
0.5624999999999863
 40
0.5624999999999863
 40
0.624999999999987
 40
0.624999999999987
 40
0.6874999999999877
 40
0.6874999999999877
 40
0.7499999999999883
 40
0.7499999999999883
 40
0.7812499999999886
 40
0.7812499999999886
 40
0.8124999999999889
 40
0.8124999999999889
 40
0.8749999999999922
 40
0.8749999999999922
 40
0.9062499999999939
 40
0.9062499999999939
 40
0.9374999999999957
 40
0.9374999999999957
 40
1.0
 40
1.0
 40
1.0
 40
1.0
 10
425.1836717441695
 20
666.3174515881096
 30
0.0
 10
425.183646148261
 20
666.3174515860289
 30
0.0
 10
425.1414657778174
 20
666.2456256374724
 30
0.0
 10
424.9810520503336
 20
665.967130431964
 30
0.0
 10
424.8608113158996
 20
665.7568675691967
 30
0.0
 10
424.5648251256058
 20
665.2209740187185
 30
0.0
 10
424.3887552511971
 20
664.8949577191199
 30
0.0
 10
423.9970070876378
 20
664.1290541596732
 30
0.0
 10
423.7868613644626
 20
663.6999095648692
 30
0.0
 10
423.4651337003044
 20
662.9882142242304
 30
0.0
 10
423.3567972396609
 20
662.7395438526103
 30
0.0
 10
423.1406015052911
 20
662.2181776565526
 30
0.0
 10
423.0330760487599
 20
661.9461131548023
 30
0.0
 10
422.7218630790657
 20
661.1085859582035
 30
0.0
 10
422.5272788200301
 20
660.5173107018043
 30
0.0
 10
422.2739763780409
 20
659.5743916467788
 30
0.0
 10
422.1957924207304
 20
659.249574858646
 30
0.0
 10
422.057380656267
 20
658.5835633160356
 30
0.0
 10
421.9980510786467
 20
658.2468426473506
 30
0.0
 10
421.853120874916
 20
657.2252516281234
 30
0.0
 10
421.8006751068768
 20
656.5288727095505
 30
0.0
 10
421.8007419691763
 20
655.1029914896249
 30
0.0
 10
421.8532392963077
 20
654.406481006229
 30
0.0
 10
422.046898728412
 20
653.0430711826375
 30
0.0
 10
422.1901069209027
 20
652.3708012105856
 30
0.0
 10
422.5290188586284
 20
651.110644395508
 30
0.0
 10
422.7250277244359
 20
650.5156019622315
 30
0.0
 10
423.1448843667964
 20
649.3886162026458
 30
0.0
 10
423.3628334089674
 20
648.8721837993403
 30
0.0
 10
423.6847066572331
 20
648.1615096122562
 30
0.0
 10
423.7912120314978
 20
647.9353708979522
 30
0.0
 10
424.0000897874963
 20
647.5047336195936
 30
0.0
 10
424.1024747133951
 20
647.3002838350179
 30
0.0
 10
424.3933881976783
 20
646.7323987744307
 30
0.0
 10
424.568017718382
 20
646.4091454168239
 30
0.0
 10
424.7888344618098
 20
646.009261573329
 30
0.0
 10
424.8555797154019
 20
645.8902497988703
 30
0.0
 10
424.9729901977954
 20
645.682733176378
 30
0.0
 10
425.0225603794903
 20
645.5961525398318
 30
0.0
 10
425.142190336106
 20
645.3882175465583
 30
0.0
 10
425.1836916245714
 20
645.3174514293787
 30
0.0
 10
425.1836663404929
 20
645.3174515881102
 30
0.0
  0
SPLINE
  5
B7
330
1F
100
AcDbEntity
  8
0
  6
Continuous
 62
     7
370
    25
100
AcDbSpline
210
0.0
220
0.0
230
1.0
 70
     8
 71
     3
 72
     8
 73
     4
 74
     0
 42
0.000000001
 43
0.00000001
 40
0.0
 40
0.0
 40
0.0
 40
0.0
 40
1.0
 40
1.0
 40
1.0
 40
1.0
 10
425.183666340493
 20
645.3174515881102
 30
0.0
 10
425.1836534957121
 20
645.3174516687485
 30
0.0
 10
425.1727037314622
 20
645.3361730007059
 30
0.0
 10
425.1512524941158
 20
645.3730485197207
 30
0.0
  0
SPLINE
  5
B8
330
1F
100
AcDbEntity
  8
0
  6
Continuous
 62
     7
370
    25
100
AcDbSpline
210
0.0
220
0.0
230
1.0
 70
    24
 71
     3
 72
    12
 73
     8
 74
     0
 42
0.000000001
 43
0.00000001
 40
0.0
 40
0.0
 40
0.0
 40
0.0
 40
0.2012749079427391
 40
0.4025498158854718
 40
0.6038247238282585
 40
0.8050996317711946
 40
1.0
 40
1.0
 40
1.0
 40
1.0
 10
538.1383451477724
 20
625.110781083602
 30
0.0
 10
537.1112234170616
 20
624.517763935203
 30
0.0
 10
535.0569799556403
 20
623.3317296384049
 30
0.0
 10
532.1811380585528
 20
621.6713387518473
 30
0.0
 10
529.89808987567
 20
620.353202174079
 30
0.0
 10
528.3712356698798
 20
619.4716603859284
 30
0.0
 10
528.1930255316836
 20
619.3687693022243
 30
0.0
 10
528.1053541810326
 20
619.318151529467
 30
0.0
  0
SPLINE
  5
B9
330
1F
100
AcDbEntity
  8
0
  6
Continuous
 62
     7
370
    25
100
AcDbSpline
210
0.0
220
0.0
230
1.0
 70
    24
 71
     3
 72
    12
 73
     8
 74
     0
 42
0.000000001
 43
0.00000001
 40
0.0
 40
0.0
 40
0.0
 40
0.0
 40
0.1658186683507004
 40
0.3958815527545395
 40
0.6259444371582922
 40
0.8560073215618725
 40
1.0
 40
1.0
 40
1.0
 40
1.0
 10
546.172326570475
 20
629.749266095778
 30
0.0
 10
546.1618313614683
 20
629.7432066008506
 30
0.0
 10
546.1367747156795
 20
629.7287399410675
 30
0.0
 10
544.9108545961758
 20
629.0209449137634
 30
0.0
 10
542.8207206283201
 20
627.8141889389557
 30
0.0
 10
540.4043558112952
 20
626.4190809099472
 30
0.0
 10
538.7681879284445
 20
625.4744259745297
 30
0.0
 10
538.1383451477724
 20
625.110781083602
 30
0.0
  0
SPLINE
  5
BA
330
1F
100
AcDbEntity
  8
0
  6
Continuous
 62
     7
370
    25
100
AcDbSpline
210
0.0
220
0.0
230
1.0
 70
    24
 71
     3
 72
    22
 73
    18
 74
     0
 42
0.000000001
 43
0.00000001
 40
0.0
 40
0.0
 40
0.0
 40
0.0
 40
0.1249999999999999
 40
0.1249999999999999
 40
0.2499999999999998
 40
0.2499999999999998
 40
0.3749999999999998
 40
0.3749999999999998
 40
0.4999999999999998
 40
0.4999999999999998
 40
0.6249999999999998
 40
0.6249999999999998
 40
0.7499999999999998
 40
0.7499999999999998
 40
0.8749999999999999
 40
0.8749999999999999
 40
1.0
 40
1.0
 40
1.0
 40
1.0
 10
426.5358692610374
 20
721.5591213389123
 30
0.0
 10
426.3589218888911
 20
721.5591213389122
 30
0.0
 10
426.1820200825973
 20
721.5591213389123
 30
0.0
 10
425.8290904225551
 20
721.5591213389123
 30
0.0
 10
425.6530338321991
 20
721.5591213389123
 30
0.0
 10
425.3021335882203
 20
721.5591213389121
 30
0.0
 10
425.1296547570045
 20
721.5591213389122
 30
0.0
 10
424.8007529780436
 20
721.5591213389122
 30
0.0
 10
424.6413593894905
 20
721.5591213389123
 30
0.0
 10
424.347723645097
 20
721.5591213389123
 30
0.0
 10
424.2143709794341
 20
721.5591213389123
 30
0.0
 10
423.9717936704192
 20
721.5591213389123
 30
0.0
 10
423.8628009792187
 20
721.5591213389123
 30
0.0
 10
423.6735003775166
 20
721.5591213389123
 30
0.0
 10
423.5917605708312
 20
721.5591213389123
 30
0.0
 10
423.4474090848927
 20
721.5591213389123
 30
0.0
 10
423.3860836012652
 20
721.5591213389121
 30
0.0
 10
423.3245848555327
 20
721.5591213389122
 30
0.0
  0
LINE
  5
BB
330
1F
100
AcDbEntity
  8
0
  6
Continuous
 62
     7
370
    25
100
AcDbLine
 10
496.3828555582067
 20
712.5591213389122
 30
0.0
 11
426.9610640809201
 21
712.5591213389122
 31
0.0
  0
ARC
  5
BC
330
1F
100
AcDbEntity
  8
0
  6
Continuous
 62
     7
370
    25
100
AcDbCircle
 10
496.3828555582067
 20
713.3591213389121
 30
0.0
 40
0.8000000000000114
100
AcDbArc
 50
270.0000000000008
 51
0.0000000000000318
  0
LINE
  5
BD
330
1F
100
AcDbEntity
  8
0
  6
Continuous
 62
     7
370
    25
100
AcDbLine
 10
497.1828555582067
 20
720.7591213389122
 30
0.0
 11
497.1828555582067
 21
713.3591213389121
 31
0.0
  0
LINE
  5
BE
330
1F
100
AcDbEntity
  8
0
  6
Continuous
 62
     7
370
    25
100
AcDbLine
 10
426.5358692610374
 20
721.5591213389122
 30
0.0
 11
496.3828555582067
 21
721.5591213389122
 31
0.0
  0
ARC
  5
BF
330
1F
100
AcDbEntity
  8
0
  6
Continuous
 62
     7
370
    25
100
AcDbCircle
 10
496.3828555582067
 20
720.7591213389122
 30
0.0
 40
0.8000000000000114
100
AcDbArc
 50
0.0000000000000318
 51
90.0
  0
ARC
  5
C0
330
1F
100
AcDbEntity
  8
0
  6
Continuous
 62
     8
370
    18
100
AcDbCircle
 10
423.2991671476989
 20
720.7829751621217
 30
0.0
 40
0.776562262550885
100
AcDbArc
 50
358.2397568356304
 51
88.1243132557998
  0
SPLINE
  5
C1
330
1F
100
AcDbEntity
  8
0
  6
Continuous
 62
     8
370
    18
100
AcDbSpline
210
0.0
220
0.0
230
1.0
 70
     8
 71
     3
 72
    21
 73
    17
 74
     0
 42
0.000000001
 43
0.00000001
 40
0.0
 40
0.0
 40
0.0
 40
0.0
 40
0.0276447721780821
 40
0.0552428195415965
 40
0.0828588255560675
 40
0.1105573478725331
 40
0.1674199268070611
 40
0.2244273239294121
 40
0.3414926866829857
 40
0.4633589029261918
 40
0.5906748595160526
 40
0.7227374015014332
 40
0.7913815171671933
 40
0.8602228214983662
 40
0.9300718087027422
 40
1.0
 40
1.0
 40
1.0
 40
1.0
 10
424.8759168151326
 20
710.4378009953745
 30
0.0
 10
424.8678628271727
 20
710.4351873315478
 30
0.0
 10
424.8517684639928
 20
710.429964421473
 30
0.0
 10
424.8264055858482
 20
710.430096238457
 30
0.0
 10
424.8002039496722
 20
710.4360912303226
 30
0.0
 10
424.7636161346257
 20
710.4528340396203
 30
0.0
 10
424.7154531229669
 20
710.4900704821777
 30
0.0
 10
424.6336585102345
 20
710.5858368721913
 30
0.0
 10
424.5244364447926
 20
710.7749042315527
 30
0.0
 10
424.3914449725177
 20
711.1101680529324
 30
0.0
 10
424.2661886383416
 20
711.5522167444126
 30
0.0
 10
424.1798003703581
 20
711.9981514485112
 30
0.0
 10
424.1273047641998
 20
712.3918759716943
 30
0.0
 10
424.0978863110857
 20
712.706115573446
 30
0.0
 10
424.0788899566652
 20
713.029825802669
 30
0.0
 10
424.0765390711846
 20
713.249314702707
 30
0.0
 10
424.0753629623851
 20
713.3591213389121
 30
0.0
  0
SPLINE
  5
C2
330
1F
100
AcDbEntity
  8
0
  6
Continuous
 62
     8
370
    18
100
AcDbSpline
210
0.0
220
0.0
230
1.0
 70
    24
 71
     3
 72
     8
 73
     4
 74
     0
 42
0.000000001
 43
0.00000001
 40
0.0
 40
0.0
 40
0.0
 40
0.0
 40
1.0
 40
1.0
 40
1.0
 40
1.0
 10
425.1828555582067
 20
710.4378009953525
 30
0.0
 10
425.1828555582059
 20
710.4378009953525
 30
0.0
 10
425.0799590989845
 20
710.4378009953526
 30
0.0
 10
424.8759168151306
 20
710.4378009953526
 30
0.0
  0
LINE
  5
C3
330
1F
100
AcDbEntity
  8
0
  6
Continuous
 62
     8
370
    18
100
AcDbLine
 10
424.0753629623851
 20
713.3591213389121
 30
0.0
 11
424.0753629623851
 21
720.7591213389122
 31
0.0
  0
LINE
  5
C4
330
1F
100
AcDbEntity
  8
0
  6
Continuous
 62
     8
370
    18
100
AcDbLine
 10
423.658860535665
 20
697.1574260904458
 30
0.0
 11
423.6632467954515
 21
697.1574260904458
 31
0.0
  0
LINE
  5
C5
330
1F
100
AcDbEntity
  8
0
  6
Continuous
 62
     8
370
    18
100
AcDbLine
 10
390.702464320962
 20
697.1574260904458
 30
0.0
 11
423.658860535665
 21
697.1574260904458
 31
0.0
  0
LINE
  5
C6
330
1F
100
AcDbEntity
  8
0
  6
Continuous
 62
     8
370
    18
100
AcDbLine
 10
423.6828555582067
 20
696.960365130503
 30
0.0
 11
390.6828555582067
 21
696.960365130503
 31
0.0
  0
LINE
  5
C7
330
1F
100
AcDbEntity
  8
0
  6
Continuous
 62
     8
370
    18
100
AcDbLine
 10
426.5358692610374
 20
720.7591213389115
 30
0.0
 11
426.5358692610374
 21
713.3591213389121
 31
0.0
  0
LINE
  5
C8
330
1F
100
AcDbEntity
  8
0
  6
Continuous
 62
     8
370
    18
100
AcDbLine
 10
426.5358692610374
 20
720.7591213389115
 30
0.0
 11
426.5358692610374
 21
721.5591213389122
 31
0.0
  0
SPLINE
  5
C9
330
1F
100
AcDbEntity
  8
0
  6
Continuous
 62
     8
370
    18
100
AcDbSpline
210
0.0
220
0.0
230
1.0
 70
     8
 71
     3
 72
    17
 73
    13
 74
     0
 42
0.000000001
 43
0.00000001
 40
0.0
 40
0.0
 40
0.0
 40
0.0
 40
0.0571821084761184
 40
0.1151571412022654
 40
0.1741201764736159
 40
0.2342566777818319
 40
0.3505549998483437
 40
0.4811250368318729
 40
0.5911658860424865
 40
0.7403127443770082
 40
0.8960290661571488
 40
1.0
 40
1.0
 40
1.0
 40
1.0
 10
426.5358692610374
 20
713.3591213389122
 30
0.0
 10
426.5363164003357
 20
713.333640828314
 30
0.0
 10
426.5372168792561
 20
713.2823264778103
 30
0.0
 10
426.5444042083576
 20
713.2057256255756
 30
0.0
 10
426.5558510456552
 20
713.1297998055624
 30
0.0
 10
426.57685050228
 20
713.0327469967478
 30
0.0
 10
426.614601773974
 20
712.9154934242192
 30
0.0
 10
426.6699674411756
 20
712.7987676124768
 30
0.0
 10
426.7392456781816
 20
712.6950800883674
 30
0.0
 10
426.817136950511
 20
712.6134405767758
 30
0.0
 10
426.8949550528709
 20
712.5661303704064
 30
0.0
 10
426.942163317548
 20
712.5611252413978
 30
0.0
 10
426.9610640808981
 20
712.5591213389122
 30
0.0
  0
LINE
  5
CA
330
1F
100
AcDbEntity
  8
0
  6
Continuous
 62
     7
370
    25
100
AcDbLine
 10
224.6684023430965
 20
624.5591213690351
 30
0.0
 11
224.6684023430965
 21
637.817970270852
 31
0.0
  0
LINE
  5
CB
330
1F
100
AcDbEntity
  8
0
  6
Continuous
 62
     7
370
    25
100
AcDbLine
 10
203.6684023430965
 20
637.817970270852
 30
0.0
 11
203.6684023430965
 21
624.5591213806455
 31
0.0
  0
SPLINE
  5
CC
330
1F
100
AcDbEntity
  8
0
  6
Continuous
 62
     7
370
    25
100
AcDbSpline
210
0.0
220
0.0
230
1.0
 70
    24
 71
     3
 72
     9
 73
     5
 74
     0
 42
0.000000001
 43
0.00000001
 40
0.0
 40
0.0
 40
0.0
 40
0.0
 40
0.4999999999999997
 40
1.0
 40
1.0
 40
1.0
 40
1.0
 10
224.6684023430965
 20
654.5762157948889
 30
0.0
 10
224.6684023430965
 20
654.9375810192117
 30
0.0
 10
224.6684023430965
 20
655.6603114678577
 30
0.0
 10
224.6684023430965
 20
655.7650715502948
 30
0.0
 10
224.6684023430965
 20
655.8174515915134
 30
0.0
  0
SPLINE
  5
CD
330
1F
100
AcDbEntity
  8
0
  6
Continuous
 62
     7
370
    25
100
AcDbSpline
210
0.0
220
0.0
230
1.0
 70
    24
 71
     3
 72
    14
 73
    10
 74
     0
 42
0.000000001
 43
0.00000001
 40
0.0
 40
0.0
 40
0.0
 40
0.0
 40
0.1435191418308298
 40
0.2962866785723158
 40
0.4583005661616589
 40
0.5859196118433131
 40
0.7187429112613453
 40
0.8567699020966892
 40
1.0
 40
1.0
 40
1.0
 40
1.0
 10
224.6684023430965
 20
637.6217155749588
 30
0.0
 10
224.6684023430965
 20
638.7822145457487
 30
0.0
 10
224.6684023430965
 20
641.1779952141366
 30
0.0
 10
224.6684023430965
 20
644.5185049522901
 30
0.0
 10
224.6684023430965
 20
647.4040437795428
 30
0.0
 10
224.6684023430965
 20
649.8022796642936
 30
0.0
 10
224.6684023430965
 20
651.7351099959398
 30
0.0
 10
224.6684023430965
 20
653.4017510750772
 30
0.0
 10
224.6684023430965
 20
654.1799289268265
 30
0.0
 10
224.6684023430965
 20
654.5762157916026
 30
0.0
  0
SPLINE
  5
CE
330
1F
100
AcDbEntity
  8
0
  6
Continuous
 62
     7
370
    25
100
AcDbSpline
210
0.0
220
0.0
230
1.0
 70
     8
 71
     3
 72
    25
 73
    21
 74
     0
 42
0.000000001
 43
0.00000001
 40
0.0
 40
0.0
 40
0.0
 40
0.0
 40
0.0519782761012361
 40
0.128340376331198
 40
0.1977952968142356
 40
0.2599648482891645
 40
0.3145650988467467
 40
0.3614561032539049
 40
0.4006851228703236
 40
0.4325579463127566
 40
0.4609856279185559
 40
0.4959161910832428
 40
0.5382280704967592
 40
0.5880613667290732
 40
0.6454481971807615
 40
0.7103223533982128
 40
0.7825234202333609
 40
0.8618123485628179
 40
0.9479089657406989
 40
1.0
 40
1.0
 40
1.0
 40
1.0
 10
224.4302555921998
 20
652.9868673883387
 30
0.0
 10
224.5372416927682
 20
653.4868111074028
 30
0.0
 10
224.8014027507921
 20
654.7212299812439
 30
0.0
 10
224.4304378966802
 20
657.4647780942681
 30
0.0
 10
223.5482505520973
 20
659.8928137148057
 30
0.0
 10
222.3011032412857
 20
661.8955589743146
 30
0.0
 10
220.8988169030527
 20
663.3906078523748
 30
0.0
 10
219.4790241358347
 20
664.4499872251932
 30
0.0
 10
218.1485501092423
 20
665.1446644614267
 30
0.0
 10
216.9314836483046
 20
665.5743633487527
 30
0.0
 10
215.7162756986702
 20
665.8221918810881
 30
0.0
 10
214.3626103584627
 20
665.9165709279747
 30
0.0
 10
212.7498392546017
 20
665.7860139497649
 30
0.0
 10
210.915136595871
 20
665.3109495744573
 30
0.0
 10
208.9457778551791
 20
664.3655510653048
 30
0.0
 10
206.988721228031
 20
662.8428587636183
 30
0.0
 10
205.2396957142079
 20
660.6533258980238
 30
0.0
 10
204.0058633796882
 20
657.8871407442788
 30
0.0
 10
203.4884367682876
 20
654.8666190378339
 30
0.0
 10
203.8316962493823
 20
653.4159304022539
 30
0.0
 10
203.961090889233
 20
652.8690807334909
 30
0.0
  0
SPLINE
  5
CF
330
1F
100
AcDbEntity
  8
0
  6
Continuous
 62
     7
370
    25
100
AcDbSpline
210
0.0
220
0.0
230
1.0
 70
    24
 71
     3
 72
    14
 73
    10
 74
     0
 42
0.000000001
 43
0.00000001
 40
0.0
 40
0.0
 40
0.0
 40
0.0
 40
0.143230097903311
 40
0.2812570887386557
 40
0.4140803881566872
 40
0.5416994338383413
 40
0.7037133214276852
 40
0.8564808581691711
 40
1.0
 40
1.0
 40
1.0
 40
1.0
 10
203.6684023430965
 20
654.5762157916027
 30
0.0
 10
203.6684023430965
 20
654.1799289268267
 30
0.0
 10
203.6684023430965
 20
653.4017510750774
 30
0.0
 10
203.6684023430965
 20
651.73510999594
 30
0.0
 10
203.6684023430965
 20
649.8022796642937
 30
0.0
 10
203.6684023430965
 20
647.4040437795428
 30
0.0
 10
203.6684023430965
 20
644.5185049522902
 30
0.0
 10
203.6684023430965
 20
641.1779952141364
 30
0.0
 10
203.6684023430965
 20
638.7822145457487
 30
0.0
 10
203.6684023430965
 20
637.6217155749588
 30
0.0
  0
SPLINE
  5
D0
330
1F
100
AcDbEntity
  8
0
  6
Continuous
 62
     7
370
    25
100
AcDbSpline
210
0.0
220
0.0
230
1.0
 70
    24
 71
     3
 72
     9
 73
     5
 74
     0
 42
0.000000001
 43
0.00000001
 40
0.0
 40
0.0
 40
0.0
 40
0.0
 40
0.4999999999998927
 40
1.0
 40
1.0
 40
1.0
 40
1.0
 10
203.6684023430965
 20
655.8174515847064
 30
0.0
 10
203.6684023430965
 20
655.7650715435027
 30
0.0
 10
203.6684023430965
 20
655.6603114610957
 30
0.0
 10
203.6684023430965
 20
654.9375810125963
 30
0.0
 10
203.6684023430965
 20
654.5762157883464
 30
0.0
  0
ARC
  5
D1
330
1F
100
AcDbEntity
  8
0
  6
Continuous
 62
     7
370
    25
100
AcDbCircle
 10
189.9684023430965
 20
390.7591213389122
 30
0.0
 40
0.799999999999983
100
AcDbArc
 50
90.00000000000203
 51
179.9999999999995
  0
ARC
  5
D2
330
1F
100
AcDbEntity
  8
0
  6
Continuous
 62
     7
370
    25
100
AcDbCircle
 10
238.3684023430965
 20
390.7591213389122
 30
0.0
 40
0.799999999999983
100
AcDbArc
 50
0.0000000000005089
 51
89.99999999999797
  0
LINE
  5
D3
330
1F
100
AcDbEntity
  8
0
  6
Continuous
 62
     7
370
    25
100
AcDbLine
 10
239.1684023430965
 20
384.5591213389122
 30
0.0
 11
239.1684023430965
 21
390.7591213389122
 31
0.0
  0
LINE
  5
D4
330
1F
100
AcDbEntity
  8
0
  6
Continuous
 62
     7
370
    25
100
AcDbLine
 10
189.1684023430965
 20
390.7591213389122
 30
0.0
 11
189.1684023430965
 21
384.5591213389122
 31
0.0
  0
LINE
  5
D5
330
1F
100
AcDbEntity
  8
0
  6
Continuous
 62
     7
370
    25
100
AcDbLine
 10
232.1684023430965
 20
391.5591213389122
 30
0.0
 11
232.1684023430965
 21
695.7591213389122
 31
0.0
  0
LINE
  5
D6
330
1F
100
AcDbEntity
  8
0
  6
Continuous
 62
     7
370
    25
100
AcDbLine
 10
196.1684023430965
 20
695.7591213389122
 30
0.0
 11
196.1684023430965
 21
391.5591213389122
 31
0.0
  0
LINE
  5
D7
330
1F
100
AcDbEntity
  8
0
  6
Continuous
 62
     7
370
    25
100
AcDbLine
 10
232.1684023430965
 20
700.4163462342034
 30
0.0
 11
232.1684023430965
 21
720.7591213389122
 31
0.0
  0
LINE
  5
D8
330
1F
100
AcDbEntity
  8
0
  6
Continuous
 62
     7
370
    25
100
AcDbLine
 10
196.1684023430965
 20
720.7591213389122
 30
0.0
 11
196.1684023430965
 21
700.4127947974408
 31
0.0
  0
ARC
  5
D9
330
1F
100
AcDbEntity
  8
0
  6
Continuous
 62
     7
370
    25
100
AcDbCircle
 10
231.3684023430965
 20
695.7591213389122
 30
0.0
 40
0.799999999999983
100
AcDbArc
 50
0.0
 51
90.0
  0
ARC
  5
DA
330
1F
100
AcDbEntity
  8
0
  6
Continuous
 62
     7
370
    25
100
AcDbCircle
 10
196.9684023430965
 20
695.7591213389122
 30
0.0
 40
0.799999999999983
100
AcDbArc
 50
90.0
 51
180.0
  0
ARC
  5
DB
330
1F
100
AcDbEntity
  8
0
  6
Continuous
 62
     7
370
    25
100
AcDbCircle
 10
196.9684023430965
 20
720.7591213389122
 30
0.0
 40
0.8000000000000682
100
AcDbArc
 50
90.0
 51
179.9999999999995
  0
ARC
  5
DC
330
1F
100
AcDbEntity
  8
0
  6
Continuous
 62
     7
370
    25
100
AcDbCircle
 10
231.3684023430965
 20
720.7591213389122
 30
0.0
 40
0.8000000000000682
100
AcDbArc
 50
0.0000000000005089
 51
90.0
  0
LINE
  5
DD
330
1F
100
AcDbEntity
  8
0
  6
Continuous
 62
     7
370
    25
100
AcDbLine
 10
230.6684023430965
 20
696.5591213389122
 30
0.0
 11
230.6684023430965
 21
696.960365130503
 31
0.0
  0
LINE
  5
DE
330
1F
100
AcDbEntity
  8
0
  6
Continuous
 62
     7
370
    25
100
AcDbLine
 10
197.6684023430965
 20
696.960365130503
 30
0.0
 11
197.6684023430965
 21
696.5591213389122
 31
0.0
  0
ARC
  5
DF
330
1F
100
AcDbEntity
  8
0
  6
Continuous
 62
     7
370
    25
100
AcDbCircle
 10
198.6684023430965
 20
696.960365130503
 30
0.0
 40
1.0
100
AcDbArc
 50
168.6348556495207
 51
180.0
  0
ARC
  5
E0
330
1F
100
AcDbEntity
  8
0
  6
Continuous
 62
     7
370
    25
100
AcDbCircle
 10
229.6684023430965
 20
696.960365130503
 30
0.0
 40
1.0
100
AcDbArc
 50
0.0
 51
11.36514435047929
  0
ARC
  5
E1
330
1F
100
AcDbEntity
  8
0
  6
Continuous
 62
     7
370
    25
100
AcDbCircle
 10
231.0213131721743
 20
690.4573534523848
 30
0.0
 40
34.00000000000004
100
AcDbArc
 50
164.4726069919793
 51
168.6348556495145
  0
ARC
  5
E2
330
1F
100
AcDbEntity
  8
0
  6
Continuous
 62
     7
370
    25
100
AcDbCircle
 10
197.3154915140187
 20
690.4573534523848
 30
0.0
 40
34.00000000000001
100
AcDbArc
 50
11.36514435048555
 51
15.52739300802066
  0
SPLINE
  5
E3
330
1F
100
AcDbEntity
  8
0
  6
Continuous
 62
     7
370
    25
100
AcDbSpline
210
0.0
220
0.0
230
1.0
 70
     8
 71
     3
 72
    12
 73
     8
 74
     0
 42
0.000000001
 43
0.00000001
 40
0.0
 40
0.0
 40
0.0
 40
0.0
 40
0.0472390277985501
 40
0.3779990357124777
 40
0.6572801566307465
 40
0.9552071455252921
 40
1.0
 40
1.0
 40
1.0
 40
1.0
 10
231.109869607545
 20
699.5678485121422
 30
0.0
 10
231.1363603095491
 20
699.5654044503354
 30
0.0
 10
231.3483346087579
 20
699.5458474643161
 30
0.0
 10
231.6268785373133
 20
699.6132735878965
 30
0.0
 10
232.0621444845663
 20
699.8838657258664
 30
0.0
 10
232.199876751895
 20
700.2834819068011
 30
0.0
 10
232.1597727352261
 20
700.4451794259116
 30
0.0
 10
232.1545312138574
 20
700.4663129948677
 30
0.0
  0
SPLINE
  5
E4
330
1F
100
AcDbEntity
  8
0
  6
Continuous
 62
     7
370
    25
100
AcDbSpline
210
0.0
220
0.0
230
1.0
 70
     8
 71
     3
 72
    11
 73
     7
 74
     0
 42
0.000000001
 43
0.00000001
 40
0.0
 40
0.0
 40
0.0
 40
0.0
 40
0.2233195737452063
 40
0.5219097343088637
 40
0.8038196700184352
 40
1.0
 40
1.0
 40
1.0
 40
1.0
 10
196.1885767235957
 20
700.4282677439581
 30
0.0
 10
196.1880276070948
 20
700.3066469190819
 30
0.0
 10
196.1867442925949
 20
700.0224125757459
 30
0.0
 10
196.5636653264193
 20
699.661857968287
 30
0.0
 10
196.9141704664782
 20
699.5660012183642
 30
0.0
 10
197.1580806116589
 20
699.5717708228948
 30
0.0
 10
197.2581670936504
 20
699.5741383317145
 30
0.0
  0
SPLINE
  5
E5
330
1F
100
AcDbEntity
  8
0
  6
Continuous
 62
     7
370
    25
100
AcDbSpline
210
0.0
220
0.0
230
1.0
 70
    11
 71
     3
 72
    95
 73
    91
 74
     0
 42
0.000000001
 43
0.00000001
 40
0.0
 40
0.0
 40
0.0
 40
0.0
 40
0.0312500000000016
 40
0.0312500000000016
 40
0.0468750000000016
 40
0.0468750000000016
 40
0.0625000000000015
 40
0.0625000000000015
 40
0.0937500000000014
 40
0.0937500000000014
 40
0.1093750000000016
 40
0.1093750000000016
 40
0.1250000000000023
 40
0.1250000000000023
 40
0.1562500000000037
 40
0.1562500000000037
 40
0.1718750000000044
 40
0.1718750000000044
 40
0.1875000000000051
 40
0.2031250000000058
 40
0.2031250000000058
 40
0.2187500000000065
 40
0.2187500000000065
 40
0.2500000000000077
 40
0.2500000000000077
 40
0.2656250000000084
 40
0.2656250000000084
 40
0.281250000000009
 40
0.281250000000009
 40
0.3125000000000102
 40
0.3125000000000102
 40
0.3281250000000108
 40
0.3281250000000108
 40
0.3437500000000114
 40
0.3437500000000114
 40
0.3750000000000121
 40
0.3750000000000121
 40
0.4062500000000128
 40
0.4062500000000128
 40
0.4218750000000131
 40
0.4218750000000131
 40
0.4375000000000129
 40
0.4375000000000129
 40
0.4687500000000127
 40
0.4687500000000127
 40
0.5000000000000124
 40
0.5000000000000124
 40
0.5312500000000122
 40
0.5312500000000122
 40
0.546875000000012
 40
0.546875000000012
 40
0.5625000000000118
 40
0.5781250000000117
 40
0.5781250000000117
 40
0.5937500000000114
 40
0.5937500000000114
 40
0.6250000000000105
 40
0.6250000000000105
 40
0.6406250000000102
 40
0.6406250000000102
 40
0.6562500000000098
 40
0.6562500000000098
 40
0.687500000000009
 40
0.687500000000009
 40
0.7031250000000083
 40
0.7031250000000083
 40
0.7187500000000077
 40
0.7187500000000077
 40
0.7500000000000066
 40
0.7500000000000066
 40
0.765625000000006
 40
0.765625000000006
 40
0.7812500000000056
 40
0.796875000000005
 40
0.796875000000005
 40
0.8125000000000044
 40
0.8125000000000044
 40
0.8437500000000033
 40
0.8437500000000033
 40
0.8750000000000021
 40
0.8750000000000021
 40
0.906250000000001
 40
0.906250000000001
 40
0.9218750000000008
 40
0.9218750000000008
 40
0.9375000000000007
 40
0.9375000000000007
 40
0.9687500000000003
 40
0.9687500000000003
 40
1.0
 40
1.0
 40
1.0
 40
1.0
 10
203.7265293707645
 20
625.110781083602
 30
0.0
 10
203.6536394609603
 20
624.765857034446
 30
0.0
 10
203.6496570987785
 20
624.4231207660465
 30
0.0
 10
203.7428177298845
 20
623.9121638247417
 30
0.0
 10
203.7905164955992
 20
623.7423733219216
 30
0.0
 10
203.9199640415807
 20
623.4038733875016
 30
0.0
 10
204.0021798214318
 20
623.2346892861076
 30
0.0
 10
204.2950549843257
 20
622.7397153706816
 30
0.0
 10
204.552411335771
 20
622.4228905885653
 30
0.0
 10
205.030770616134
 20
621.9672133369452
 30
0.0
 10
205.2063832826741
 20
621.8181068669153
 30
0.0
 10
205.5868749055781
 20
621.5289418362271
 30
0.0
 10
205.7899046401696
 20
621.3901741816329
 30
0.0
 10
206.4361479827004
 20
620.9907710490521
 30
0.0
 10
206.9161640114655
 20
620.7468754207988
 30
0.0
 10
207.7117296060245
 20
620.4153926044568
 30
0.0
 10
207.9895518150838
 20
620.3108453462374
 30
0.0
 10
208.5583527448694
 20
620.1179201762012
 30
0.0
 10
209.1432338297815
 20
619.9398791107714
 30
0.0
 10
209.759788958658
 20
619.7911561570115
 30
0.0
 10
210.3923967660282
 20
619.6572918749516
 30
0.0
 10
210.7184891334963
 20
619.5975317451556
 30
0.0
 10
211.7081247750972
 20
619.4435415905077
 30
0.0
 10
212.3786143320809
 20
619.3745824135322
 30
0.0
 10
213.4000177214507
 20
619.3203459279375
 30
0.0
 10
213.7431158263722
 20
619.3105265115003
 30
0.0
 10
214.4347326369596
 20
619.3079088668015
 30
0.0
 10
214.781145988199
 20
619.3152049419667
 30
0.0
 10
215.8066577984593
 20
619.3620151732375
 30
0.0
 10
216.4783820764799
 20
619.426158795238
 30
0.0
 10
217.4679432887325
 20
619.572054526288
 30
0.0
 10
217.7965237289198
 20
619.6294234255785
 30
0.0
 10
218.4356955683331
 20
619.7590938527719
 30
0.0
 10
218.7468329386815
 20
619.8313615128077
 30
0.0
 10
219.6555079561637
 20
620.0699264682752
 30
0.0
 10
220.2285499664112
 20
620.2577733222676
 30
0.0
 10
221.3065972591263
 20
620.6933210138965
 30
0.0
 10
221.7955264168446
 20
620.9346934203566
 30
0.0
 10
222.4524948911327
 20
621.3287330953666
 30
0.0
 10
222.65891308737
 20
621.4655549085406
 30
0.0
 10
223.0460778900876
 20
621.7503794429681
 30
0.0
 10
223.2273961186986
 20
621.8990558579383
 30
0.0
 10
223.7210588802004
 20
622.3527969349122
 30
0.0
 10
223.9873805803712
 20
622.6678019140212
 30
0.0
 10
224.3960038007876
 20
623.322524189647
 30
0.0
 10
224.537642111937
 20
623.6649080074815
 30
0.0
 10
224.6821272154283
 20
624.3463241993721
 30
0.0
 10
224.6878606542597
 20
624.6884250946654
 30
0.0
 10
224.5946689668206
 20
625.2037081096436
 30
0.0
 10
224.5462154994757
 20
625.3760203526109
 30
0.0
 10
224.4170811992566
 20
625.7137781889696
 30
0.0
 10
224.255522211869
 20
626.0466005405881
 30
0.0
 10
224.0302012327683
 20
626.3697174373632
 30
0.0
 10
223.7726207203707
 20
626.6879239880953
 30
0.0
 10
223.6269416788854
 20
626.84527699025
 30
0.0
 10
223.1449721847069
 20
627.3045758024101
 30
0.0
 10
222.7684851520685
 20
627.5905387566934
 30
0.0
 10
222.1234813454076
 20
627.990041259984
 30
0.0
 10
221.8950042055445
 20
628.1182661981875
 30
0.0
 10
221.4103273959093
 20
628.3645482458977
 30
0.0
 10
221.1547944790784
 20
628.482115900612
 30
0.0
 10
220.3633265368002
 20
628.8119502561609
 30
0.0
 10
219.7977882664894
 20
629.0041780341477
 30
0.0
 10
218.8925214942543
 20
629.2509394831969
 30
0.0
 10
218.5793873514424
 20
629.3265688089796
 30
0.0
 10
217.9436708108357
 20
629.4611225991482
 30
0.0
 10
217.6213539676997
 20
629.5201252509617
 30
0.0
 10
216.6413716753999
 20
629.6729487912403
 30
0.0
 10
215.9708006708734
 20
629.7428194811498
 30
0.0
 10
214.9381543203224
 20
629.7979087809096
 30
0.0
 10
214.5927102693355
 20
629.8076908507
 30
0.0
 10
213.9065939366381
 20
629.8103455664302
 30
0.0
 10
213.2229725996423
 20
629.7962162484657
 30
0.0
 10
212.5442927928946
 20
629.7488448651378
 30
0.0
 10
211.8681313368532
 20
629.6845323371476
 30
0.0
 10
211.5296654957839
 20
629.6436062334088
 30
0.0
 10
210.5380615166617
 20
629.497431571288
 30
0.0
 10
209.9040883491643
 20
629.3689425757764
 30
0.0
 10
208.6894795247073
 20
629.0508653272037
 30
0.0
 10
208.104875452999
 20
628.8589779632017
 30
0.0
 10
207.0382518621967
 20
628.4282973056023
 30
0.0
 10
206.5503167790785
 20
628.1885500870666
 30
0.0
 10
205.8876234101448
 20
627.7917034976628
 30
0.0
 10
205.6779387364211
 20
627.6527121075994
 30
0.0
 10
205.2910782277499
 20
627.3681321003033
 30
0.0
 10
205.1126738694125
 20
627.2218876763653
 30
0.0
 10
204.621703326116
 20
626.7715109348286
 30
0.0
 10
204.3522756125092
 20
626.4547674453471
 30
0.0
 10
203.9392506865027
 20
625.7934760831503
 30
0.0
 10
203.7994192805686
 20
625.4557051327579
 30
0.0
 10
203.7265293707645
 20
625.110781083602
 30
0.0
  0
LINE
  5
E6
330
1F
100
AcDbEntity
  8
0
  6
Continuous
 62
     7
370
    25
100
AcDbLine
 10
218.6684023430965
 20
720.7591213389122
 30
0.0
 11
218.6684023430965
 21
713.3591213389121
 31
0.0
  0
ARC
  5
E7
330
1F
100
AcDbEntity
  8
0
  6
Continuous
 62
     7
370
    25
100
AcDbCircle
 10
217.8684023430965
 20
713.3591213389121
 30
0.0
 40
0.8000000000000114
100
AcDbArc
 50
270.0000000000008
 51
0.0
  0
LINE
  5
E8
330
1F
100
AcDbEntity
  8
0
  6
Continuous
 62
     7
370
    25
100
AcDbLine
 10
210.4684023430965
 20
721.5591213389122
 30
0.0
 11
217.8684023430965
 21
721.5591213389122
 31
0.0
  0
ARC
  5
E9
330
1F
100
AcDbEntity
  8
0
  6
Continuous
 62
     7
370
    25
100
AcDbCircle
 10
217.8684023430965
 20
720.7591213389122
 30
0.0
 40
0.8000000000000114
100
AcDbArc
 50
0.0
 51
90.0
  0
LINE
  5
EA
330
1F
100
AcDbEntity
  8
0
  6
Continuous
 62
     7
370
    25
100
AcDbLine
 10
217.8684023430965
 20
712.5591213389122
 30
0.0
 11
210.4684023430965
 21
712.5591213389122
 31
0.0
  0
ARC
  5
EB
330
1F
100
AcDbEntity
  8
0
  6
Continuous
 62
     7
370
    25
100
AcDbCircle
 10
210.4684023430965
 20
720.7591213389122
 30
0.0
 40
0.8000000000000398
100
AcDbArc
 50
90.0
 51
180.0
  0
ARC
  5
EC
330
1F
100
AcDbEntity
  8
0
  6
Continuous
 62
     7
370
    25
100
AcDbCircle
 10
210.4684023430965
 20
713.3591213389121
 30
0.0
 40
0.8000000000000398
100
AcDbArc
 50
180.0
 51
270.0000000000008
  0
LINE
  5
ED
330
1F
100
AcDbEntity
  8
0
  6
Continuous
 62
     7
370
    25
100
AcDbLine
 10
209.6684023430965
 20
713.3591213389121
 30
0.0
 11
209.6684023430965
 21
720.7591213389122
 31
0.0
  0
LINE
  5
EE
330
1F
100
AcDbEntity
  8
0
  6
Continuous
 62
     7
370
    25
100
AcDbLine
 10
189.9684023430965
 20
391.5591213389122
 30
0.0
 11
238.3684023430965
 21
391.5591213389122
 31
0.0
  0
LINE
  5
EF
330
1F
100
AcDbEntity
  8
0
  6
Continuous
 62
     7
370
    25
100
AcDbLine
 10
208.2222956632101
 20
384.5591213389122
 30
0.0
 11
189.1684023430965
 21
384.5591213389122
 31
0.0
  0
LINE
  5
F0
330
1F
100
AcDbEntity
  8
0
  6
Continuous
 62
     7
370
    25
100
AcDbLine
 10
239.1684023430965
 20
384.5591213389122
 30
0.0
 11
208.2222956632101
 21
384.5591213389122
 31
0.0
  0
SPLINE
  5
F1
330
1F
100
AcDbEntity
  8
0
  6
Continuous
 62
     7
370
    25
100
AcDbSpline
210
0.0
220
0.0
230
1.0
 70
    24
 71
     3
 72
    22
 73
    18
 74
     0
 42
0.000000001
 43
0.00000001
 40
0.0
 40
0.0
 40
0.0
 40
0.0
 40
0.1249999999999999
 40
0.1249999999999999
 40
0.2499999999999999
 40
0.2499999999999999
 40
0.3749999999999998
 40
0.3749999999999998
 40
0.4999999999999998
 40
0.4999999999999998
 40
0.6249999999999998
 40
0.6249999999999998
 40
0.7499999999999998
 40
0.7499999999999998
 40
0.8749999999999998
 40
0.8749999999999998
 40
1.0
 40
1.0
 40
1.0
 40
1.0
 10
220.1084844378026
 20
721.5591213389123
 30
0.0
 10
219.9425079736441
 20
721.5591213389123
 30
0.0
 10
219.7764350297842
 20
721.5591213389123
 30
0.0
 10
219.4535260610316
 20
721.5591213389123
 30
0.0
 10
219.2961532061995
 20
721.5591213389123
 30
0.0
 10
218.9928684508581
 20
721.5591213389121
 30
0.0
 10
218.849025522084
 20
721.5591213389122
 30
0.0
 10
218.5875304616958
 20
721.5591213389121
 30
0.0
 10
218.4676685199049
 20
721.5591213389123
 30
0.0
 10
218.2628609731227
 20
721.5591213389122
 30
0.0
 10
218.1782662629382
 20
721.5591213389123
 30
0.0
 10
218.0412950869435
 20
721.5591213389121
 30
0.0
 10
217.9893011342953
 20
721.5591213389123
 30
0.0
 10
217.915915321614
 20
721.5591213389123
 30
0.0
 10
217.8937124182389
 20
721.5591213389122
 30
0.0
 10
217.8695933282761
 20
721.5591213389123
 30
0.0
 10
217.8684023430965
 20
721.5591213389123
 30
0.0
 10
217.8684023430965
 20
721.5591213389122
 30
0.0
  0
SPLINE
  5
F2
330
1F
100
AcDbEntity
  8
0
  6
Continuous
 62
     7
370
    25
100
AcDbSpline
210
0.0
220
0.0
230
1.0
 70
    24
 71
     3
 72
    22
 73
    18
 74
     0
 42
0.000000001
 43
0.00000001
 40
0.0
 40
0.0
 40
0.0
 40
0.0
 40
0.1249999999999999
 40
0.1249999999999999
 40
0.2499999999999998
 40
0.2499999999999998
 40
0.3749999999999998
 40
0.3749999999999998
 40
0.4999999999999998
 40
0.4999999999999998
 40
0.6249999999999998
 40
0.6249999999999998
 40
0.7499999999999998
 40
0.7499999999999998
 40
0.8749999999999999
 40
0.8749999999999999
 40
1.0
 40
1.0
 40
1.0
 40
1.0
 10
210.4684023430965
 20
721.5591213389123
 30
0.0
 10
210.4684023430965
 20
721.5591213389122
 30
0.0
 10
210.4672736228494
 20
721.5591213389123
 30
0.0
 10
210.4433673405682
 20
721.5591213389123
 30
0.0
 10
210.4213016184138
 20
721.5591213389123
 30
0.0
 10
210.3471242916603
 20
721.5591213389121
 30
0.0
 10
210.2952981409525
 20
721.5591213389122
 30
0.0
 10
210.1587743924894
 20
721.5591213389122
 30
0.0
 10
210.0725119775476
 20
721.5591213389123
 30
0.0
 10
209.8673699893446
 20
721.5591213389123
 30
0.0
 10
209.7497255811862
 20
721.5591213389123
 30
0.0
 10
209.4874270290929
 20
721.5591213389123
 30
0.0
 10
209.3424736243099
 20
721.5591213389123
 30
0.0
 10
209.0425038839334
 20
721.5591213389123
 30
0.0
 10
208.8858466160709
 20
721.5591213389123
 30
0.0
 10
208.5626462873346
 20
721.5591213389123
 30
0.0
 10
208.3954384952282
 20
721.5591213389121
 30
0.0
 10
208.2283202483904
 20
721.5591213389122
 30
0.0
  0
LINE
  5
F3
330
1F
100
AcDbEntity
  8
0
  6
Continuous
 62
     7
370
    25
100
AcDbLine
 10
231.0890034649043
 20
699.5591213389123
 30
0.0
 11
197.2478012212887
 21
699.5591213389123
 31
0.0
  0
LINE
  5
F4
330
1F
100
AcDbEntity
  8
0
  6
Continuous
 62
     7
370
    25
100
AcDbLine
 10
214.1684023430965
 20
696.5591213389122
 30
0.0
 11
231.3684023430965
 21
696.5591213389122
 31
0.0
  0
LINE
  5
F5
330
1F
100
AcDbEntity
  8
0
  6
Continuous
 62
     7
370
    25
100
AcDbLine
 10
196.9684023430965
 20
696.5591213389122
 30
0.0
 11
214.1684023430965
 21
696.5591213389122
 31
0.0
  0
LINE
  5
F6
330
1F
100
AcDbEntity
  8
0
  6
Continuous
 62
     7
370
    25
100
AcDbLine
 10
220.1084844378027
 20
721.5591213389123
 30
0.0
 11
231.3684023430965
 21
721.5591213389122
 31
0.0
  0
LINE
  5
F7
330
1F
100
AcDbEntity
  8
0
  6
Continuous
 62
     7
370
    25
100
AcDbLine
 10
196.9684023430965
 20
721.5591213389122
 30
0.0
 11
208.2283202483904
 21
721.5591213389123
 31
0.0
  0
SPLINE
  5
F8
330
1F
100
AcDbEntity
  8
0
  6
Continuous
 62
     8
370
    18
100
AcDbSpline
210
0.0
220
0.0
230
1.0
 70
    24
 71
     3
 72
     8
 73
     4
 74
     0
 42
0.000000001
 43
0.00000001
 40
0.0
 40
0.0
 40
0.0
 40
0.0
 40
1.0
 40
1.0
 40
1.0
 40
1.0
 10
217.478324299663
 20
710.4378009953525
 30
0.0
 10
215.2969238469789
 20
710.4378009953525
 30
0.0
 10
213.0398808391864
 20
710.4378009953526
 30
0.0
 10
210.8584803865029
 20
710.4378009953526
 30
0.0
  0
SPLINE
  5
F9
330
1F
100
AcDbEntity
  8
0
  6
Continuous
 62
     8
370
    18
100
AcDbSpline
210
0.0
220
0.0
230
1.0
 70
     8
 71
     3
 72
    21
 73
    17
 74
     0
 42
0.000000001
 43
0.00000001
 40
0.0
 40
0.0
 40
0.0
 40
0.0
 40
0.0351002472297268
 40
0.0700652891713245
 40
0.1049983694210785
 40
0.1400030143326208
 40
0.2085180087362833
 40
0.2768584892933067
 40
0.4095185876183504
 40
0.53609007472488
 40
0.6582820748322858
 40
0.7752213172417965
 40
0.8322233449811102
 40
0.8890975713829625
 40
0.9445807527626584
 40
1.0
 40
1.0
 40
1.0
 40
1.0
 10
220.3847673259286
 20
713.3591213389121
 30
0.0
 10
220.3839593884435
 20
713.3040250713352
 30
0.0
 10
220.3823466256286
 20
713.1940447656475
 30
0.0
 10
220.3693299136417
 20
713.0297136582038
 30
0.0
 10
220.3485272727461
 20
712.8664981905858
 30
0.0
 10
220.3098946793344
 20
712.6530320105069
 30
0.0
 10
220.2420948390537
 20
712.3925088550898
 30
0.0
 10
220.0947163104013
 20
711.9987790103148
 30
0.0
 10
219.8440766875504
 20
711.5533305648308
 30
0.0
 10
219.4540932663865
 20
711.1109804731168
 30
0.0
 10
219.0023333953298
 20
710.7758285289052
 30
0.0
 10
218.5883829517313
 20
710.5864664465769
 30
0.0
 10
218.2482317012875
 20
710.4903863543907
 30
0.0
 10
217.9921709980556
 20
710.4460388846485
 30
0.0
 10
217.7346452429994
 20
710.4257201171396
 30
0.0
 10
217.5637317707969
 20
710.4337755839136
 30
0.0
 10
217.4783242996504
 20
710.4378009953525
 30
0.0
  0
SPLINE
  5
FA
330
1F
100
AcDbEntity
  8
0
  6
Continuous
 62
     8
370
    18
100
AcDbSpline
210
0.0
220
0.0
230
1.0
 70
     8
 71
     3
 72
    21
 73
    17
 74
     0
 42
0.000000001
 43
0.00000001
 40
0.0
 40
0.0
 40
0.0
 40
0.0
 40
0.0276447721780821
 40
0.0552428195415965
 40
0.0828588255560675
 40
0.1105573478725331
 40
0.1674199268070611
 40
0.2244273239294121
 40
0.3414926866829857
 40
0.4633589029261918
 40
0.5906748595160526
 40
0.7227374015014332
 40
0.7913815171671933
 40
0.8602228214983662
 40
0.9300718087027422
 40
1.0
 40
1.0
 40
1.0
 40
1.0
 10
210.8584803865139
 20
710.4378009953745
 30
0.0
 10
210.815918387832
 20
710.4351873315478
 30
0.0
 10
210.7308663281743
 20
710.429964421473
 30
0.0
 10
210.6032404275528
 20
710.430096238457
 30
0.0
 10
210.4758741271465
 20
710.4360912303226
 30
0.0
 10
210.304415570268
 20
710.4528340396203
 30
0.0
 10
210.0902983600507
 20
710.4900704821777
 30
0.0
 10
209.7499259425398
 20
710.5858368721913
 30
0.0
 10
209.3361237656839
 20
710.7749042315527
 30
0.0
 10
208.8834874752552
 20
711.1101680529324
 30
0.0
 10
208.4934753173929
 20
711.5522167444126
 30
0.0
 10
208.2424895486321
 20
711.9981514485112
 30
0.0
 10
208.0947601166912
 20
712.3918759716943
 30
0.0
 10
208.0134548062203
 20
712.706115573446
 30
0.0
 10
207.9616064346704
 20
713.029825802669
 30
0.0
 10
207.9552282564549
 20
713.249314702707
 30
0.0
 10
207.9520373602645
 20
713.3591213389121
 30
0.0
  0
LINE
  5
FB
330
1F
100
AcDbEntity
  8
0
  6
Continuous
 62
     8
370
    18
100
AcDbLine
 10
220.3847673259286
 20
720.7591213389115
 30
0.0
 11
220.3847673259286
 21
713.3591213389121
 31
0.0
  0
LINE
  5
FC
330
1F
100
AcDbEntity
  8
0
  6
Continuous
 62
     8
370
    18
100
AcDbLine
 10
207.9520373602645
 20
713.3591213389121
 30
0.0
 11
207.9520373602645
 21
720.7591213389122
 31
0.0
  0
LWPOLYLINE
  5
FD
330
1F
100
AcDbEntity
  8
0
  6
Continuous
 62
     8
370
    18
100
AcDbPolyline
 90
        9
 70
   128
 43
0.0
 10
220.3847673259286
 20
720.7591213389115
 10
220.3794586277039
 20
720.9151935965244
 10
220.3637365433253
 20
721.0652680848037
 10
220.3382052636786
 20
721.2035775253274
 10
220.3038459415224
 20
721.3248067638611
 10
220.2619789863382
 20
721.4242970287542
 10
220.2142133217345
 20
721.4982249649212
 10
220.1623845554147
 20
721.5437495632349
 10
220.1084844378027
 20
721.5591213389123
  0
LWPOLYLINE
  5
FE
330
1F
100
AcDbEntity
  8
0
  6
Continuous
 62
     8
370
    18
100
AcDbPolyline
 90
        9
 70
   128
 43
0.0
 10
207.9520373602645
 20
720.7591213389122
 10
207.9573460584892
 20
720.9151935965251
 10
207.9730681428678
 20
721.0652680848043
 10
207.9985994225145
 20
721.2035775253279
 10
208.0329587446707
 20
721.3248067638615
 10
208.074825699855
 20
721.4242970287544
 10
208.1225913644586
 20
721.4982249649213
 10
208.1744201307783
 20
721.5437495632349
 10
208.2283202483904
 20
721.5591213389123
  0
SPLINE
  5
FF
330
1F
100
AcDbEntity
  8
0
  6
Continuous
 62
     8
370
    18
100
AcDbSpline
210
0.0
220
0.0
230
1.0
 70
     8
 71
     3
 72
    17
 73
    13
 74
     0
 42
0.000000001
 43
0.00000001
 40
0.0
 40
0.0
 40
0.0
 40
0.0
 40
0.1035404943631824
 40
0.2081370794161635
 40
0.3148530210527209
 40
0.4227916402741222
 40
0.5324323079669397
 40
0.6396975376770753
 40
0.7459393760843837
 40
0.8495227089515659
 40
0.9531313728770086
 40
1.0
 40
1.0
 40
1.0
 40
1.0
 10
214.1684023430965
 20
666.8174515881097
 30
0.0
 10
213.4452632617053
 20
666.7758975867454
 30
0.0
 10
211.9916092364068
 20
666.6923657421733
 30
0.0
 10
209.908107658894
 20
666.0304953977501
 30
0.0
 10
208.0025169398468
 20
665.013117567742
 30
0.0
 10
206.3349926643292
 20
663.6395706397598
 30
0.0
 10
204.9690360483541
 20
661.9761589509394
 30
0.0
 10
203.9467559999319
 20
660.0674952916199
 30
0.0
 10
203.3060873928411
 20
657.9813480234995
 30
0.0
 10
203.1098306173929
 20
655.7987386314489
 30
0.0
 10
203.2374568638812
 20
654.0015152858922
 30
0.0
 10
203.5646333279273
 20
653.0298934745621
 30
0.0
 10
203.6665378185648
 20
652.7272658816374
 30
0.0
  0
SPLINE
  5
100
330
1F
100
AcDbEntity
  8
0
  6
Continuous
 62
     8
370
    18
100
AcDbSpline
210
0.0
220
0.0
230
1.0
 70
     8
 71
     3
 72
    17
 73
    13
 74
     0
 42
0.000000001
 43
0.00000001
 40
0.0
 40
0.0
 40
0.0
 40
0.0
 40
0.0832413117275367
 40
0.1823555998904527
 40
0.2823874086065653
 40
0.3850811694750128
 40
0.4881715862141164
 40
0.5933032686898946
 40
0.6976602409175261
 40
0.8002304833760402
 40
0.9003713048909961
 40
1.0
 40
1.0
 40
1.0
 40
1.0
 10
224.6684023430962
 20
652.6410286150482
 30
0.0
 10
224.8216465490129
 20
653.1940540111921
 30
0.0
 10
225.1573565290665
 20
654.4055591614058
 30
0.0
 10
225.213427837459
 20
656.4099609870443
 30
0.0
 10
224.9069512457857
 20
658.5005438153202
 30
0.0
 10
224.2046058617176
 20
660.4772354219717
 30
0.0
 10
223.1529306694729
 20
662.276560005867
 30
0.0
 10
221.7871716127717
 20
663.8426393537844
 30
0.0
 10
220.1433122395414
 20
665.133161844282
 30
0.0
 10
218.2833927347338
 20
666.0849132886977
 30
0.0
 10
216.2674820662854
 20
666.7010576758153
 30
0.0
 10
214.8668987453983
 20
666.778719982021
 30
0.0
 10
214.1684023430965
 20
666.8174515881097
 30
0.0
  0
LINE
  5
101
330
1F
100
AcDbEntity
  8
0
  6
Continuous
 62
     8
370
    18
100
AcDbLine
 10
230.6684023430965
 20
696.960365130503
 30
0.0
 11
197.6684023430965
 21
696.960365130503
 31
0.0
  0
LINE
  5
102
330
1F
100
AcDbEntity
  8
0
  6
Continuous
 62
     8
370
    18
100
AcDbLine
 10
213.7881980356209
 20
697.1574260904458
 30
0.0
 11
230.6487935803413
 21
697.1574260904458
 31
0.0
  0
LINE
  5
103
330
1F
100
AcDbEntity
  8
0
  6
Continuous
 62
     8
370
    18
100
AcDbLine
 10
197.6880111058517
 20
697.1574260904458
 30
0.0
 11
213.7881980356209
 21
697.1574260904458
 31
0.0
  0
LINE
  5
104
330
1F
100
AcDbEntity
  8
0
  6
Continuous
 62
     7
370
    25
100
AcDbLine
 10
203.6684023430965
 20
232.0963594517769
 30
0.0
 11
203.6684023430965
 21
155.5485509689905
 31
0.0
  0
LINE
  5
105
330
1F
100
AcDbEntity
  8
0
  6
Continuous
 62
     7
370
    25
100
AcDbLine
 10
224.6684023430965
 20
155.5485509689905
 30
0.0
 11
224.6684023430965
 21
232.0528094755456
 31
0.0
  0
SPLINE
  5
106
330
1F
100
AcDbEntity
  8
0
  6
Continuous
 62
     7
370
    25
100
AcDbSpline
210
0.0
220
0.0
230
1.0
 70
    24
 71
     3
 72
    18
 73
    14
 74
     0
 42
0.000000001
 43
0.00000001
 40
0.0
 40
0.0
 40
0.0
 40
0.0
 40
0.1087217950689081
 40
0.203793734347312
 40
0.2852108935577571
 40
0.3529690556759096
 40
0.4070647111489765
 40
0.4523057436096796
 40
0.542620322110944
 40
0.6639891335470375
 40
0.7621924286540052
 40
0.8741980283933893
 40
1.0
 40
1.0
 40
1.0
 40
1.0
 10
203.6684023430965
 20
155.5485509689905
 30
0.0
 10
203.6684023430965
 20
154.1739749992507
 30
0.0
 10
203.6684023430965
 20
151.5973989793292
 30
0.0
 10
203.6684023430965
 20
148.0363344793316
 30
0.0
 10
203.6684023430965
 20
145.0482215628925
 30
0.0
 10
203.6684023430965
 20
142.6214128564005
 30
0.0
 10
203.6684023430965
 20
140.6758908154909
 30
0.0
 10
203.6684023430965
 20
138.5200336052058
 30
0.0
 10
203.6684023430965
 20
135.7051965255448
 30
0.0
 10
203.6684023430965
 20
132.5428902219571
 30
0.0
 10
203.6684023430965
 20
129.4818735841515
 30
0.0
 10
203.6684023430965
 20
126.6848532138886
 30
0.0
 10
203.6684023430965
 20
125.0983379326772
 30
0.0
 10
203.6684023430965
 20
124.2590595647482
 30
0.0
  0
SPLINE
  5
107
330
1F
100
AcDbEntity
  8
0
  6
Continuous
 62
     7
370
    25
100
AcDbSpline
210
0.0
220
0.0
230
1.0
 70
    24
 71
     3
 72
    18
 73
    14
 74
     0
 42
0.000000001
 43
0.00000001
 40
0.0
 40
0.0
 40
0.0
 40
0.0
 40
0.108721795068908
 40
0.203793734347311
 40
0.2852108935577567
 40
0.3529690556759096
 40
0.4070647111489772
 40
0.4523057436096792
 40
0.542620322110944
 40
0.6639891335470374
 40
0.7621924286540055
 40
0.8741980283933889
 40
1.0
 40
1.0
 40
1.0
 40
1.0
 10
224.6684023430965
 20
124.2590595647482
 30
0.0
 10
224.6684023430965
 20
124.9780149491015
 30
0.0
 10
224.6684023430965
 20
126.3256619642524
 30
0.0
 10
224.6684023430965
 20
128.6203399090204
 30
0.0
 10
224.6684023430965
 20
130.7782030890507
 30
0.0
 10
224.6684023430965
 20
132.7162024535786
 30
0.0
 10
224.6684023430965
 20
134.3937513023276
 30
0.0
 10
224.6684023430965
 20
136.3710963026728
 30
0.0
 10
224.6684023430965
 20
139.177180253799
 30
0.0
 10
224.6684023430965
 20
142.7662770302123
 30
0.0
 10
224.6684023430965
 20
146.7726962894208
 30
0.0
 10
224.6684023430965
 20
150.9505755014332
 30
0.0
 10
224.6684023430965
 20
153.9577390928211
 30
0.0
 10
224.6684023430965
 20
155.5485509689905
 30
0.0
  0
LINE
  5
108
330
1F
100
AcDbEntity
  8
0
  6
Continuous
 62
     7
370
    25
100
AcDbLine
 10
224.6684023430965
 20
116.716550986382
 30
0.0
 11
224.6684023430965
 21
124.3715509689905
 31
0.0
  0
LINE
  5
109
330
1F
100
AcDbEntity
  8
0
  6
Continuous
 62
     7
370
    25
100
AcDbLine
 10
203.6684023430965
 20
124.3715509689905
 30
0.0
 11
203.6684023430965
 21
116.7165509930852
 31
0.0
  0
ARC
  5
10A
330
1F
100
AcDbEntity
  8
0
  6
Continuous
 62
     7
370
    25
100
AcDbCircle
 10
214.1684023430965
 20
246.7165509689905
 30
0.0
 40
18.0
100
AcDbArc
 50
290.2033829340738
 51
249.7966170659278
  0
SPLINE
  5
10B
330
1F
100
AcDbEntity
  8
0
  6
Continuous
 62
     7
370
    25
100
AcDbSpline
210
0.0
220
0.0
230
1.0
 70
     8
 71
     3
 72
    20
 73
    16
 74
     0
 42
0.000000001
 43
0.00000001
 40
0.0
 40
0.0
 40
0.0
 40
0.0
 40
0.1250000000000001
 40
0.1250000000000001
 40
0.2500000000000002
 40
0.2500000000000002
 40
0.3750000000000003
 40
0.3750000000000003
 40
0.5000000000000004
 40
0.5000000000000004
 40
0.7500000000000002
 40
0.7500000000000002
 40
0.8750000000000001
 40
0.8750000000000001
 40
1.0
 40
1.0
 40
1.0
 40
1.0
 10
220.3847673259286
 20
229.8240435648122
 30
0.0
 10
220.2661068840855
 20
229.7803770683074
 30
0.0
 10
220.1442872543267
 20
229.7366424106506
 30
0.0
 10
219.8954199293267
 20
229.632232477644
 30
0.0
 10
219.7687109528909
 20
229.5717263762909
 30
0.0
 10
219.5237497313844
 20
229.4286961979274
 30
0.0
 10
219.4058362051192
 20
229.3463412949136
 30
0.0
 10
219.193906165528
 20
229.1608495247979
 30
0.0
 10
219.1002283710074
 20
229.0578818316926
 30
0.0
 10
218.8655918100631
 20
228.7215170480526
 30
0.0
 10
218.7703527049033
 20
228.4567128510756
 30
0.0
 10
218.6961037260368
 20
228.045543320885
 30
0.0
 10
218.6824627613369
 20
227.9068428997341
 30
0.0
 10
218.6685994478353
 20
227.6329319571123
 30
0.0
 10
218.6684023430965
 20
227.497949456894
 30
0.0
 10
218.6684023430965
 20
227.3635372661598
 30
0.0
  0
SPLINE
  5
10C
330
1F
100
AcDbEntity
  8
0
  6
Continuous
 62
     7
370
    25
100
AcDbSpline
210
0.0
220
0.0
230
1.0
 70
     8
 71
     3
 72
    20
 73
    16
 74
     0
 42
0.000000001
 43
0.00000001
 40
0.0
 40
0.0
 40
0.0
 40
0.0
 40
0.1249999999999999
 40
0.1249999999999999
 40
0.2499999999999999
 40
0.2499999999999999
 40
0.4999999999999997
 40
0.4999999999999997
 40
0.6249999999999998
 40
0.6249999999999998
 40
0.7499999999999998
 40
0.7499999999999998
 40
0.8749999999999998
 40
0.8749999999999998
 40
1.0
 40
1.0
 40
1.0
 40
1.0
 10
209.6684023430965
 20
227.3635372661598
 30
0.0
 10
209.6684023430965
 20
227.497949456894
 30
0.0
 10
209.6682052383577
 20
227.6329319571123
 30
0.0
 10
209.6543419248562
 20
227.9068428997341
 30
0.0
 10
209.6407009601562
 20
228.045543320885
 30
0.0
 10
209.5664519812897
 20
228.4567128510756
 30
0.0
 10
209.4712128761299
 20
228.7215170480526
 30
0.0
 10
209.2365763151856
 20
229.0578818316926
 30
0.0
 10
209.1428985206651
 20
229.1608495247979
 30
0.0
 10
208.9309684810739
 20
229.3463412949136
 30
0.0
 10
208.8130549548086
 20
229.4286961979274
 30
0.0
 10
208.5680937333021
 20
229.5717263762909
 30
0.0
 10
208.4413847568663
 20
229.632232477644
 30
0.0
 10
208.1925174318663
 20
229.7366424106506
 30
0.0
 10
208.0706978021075
 20
229.7803770683074
 30
0.0
 10
207.9520373602645
 20
229.8240435648122
 30
0.0
  0
LINE
  5
10D
330
1F
100
AcDbEntity
  8
0
  6
Continuous
 62
     7
370
    25
100
AcDbLine
 10
218.6684023430965
 20
227.3635372661598
 30
0.0
 11
218.6684023430965
 21
157.5165509689905
 31
0.0
  0
LINE
  5
10E
330
1F
100
AcDbEntity
  8
0
  6
Continuous
 62
     7
370
    25
100
AcDbLine
 10
209.6684023430965
 20
157.5165509689905
 30
0.0
 11
209.6684023430965
 21
227.3635372661598
 31
0.0
  0
ARC
  5
10F
330
1F
100
AcDbEntity
  8
0
  6
Continuous
 62
     7
370
    25
100
AcDbCircle
 10
217.8684023430965
 20
157.5165509689905
 30
0.0
 40
0.8000000000000114
100
AcDbArc
 50
270.0000000000008
 51
0.0
  0
ARC
  5
110
330
1F
100
AcDbEntity
  8
0
  6
Continuous
 62
     7
370
    25
100
AcDbCircle
 10
210.4684023430965
 20
157.5165509689905
 30
0.0
 40
0.8000000000000398
100
AcDbArc
 50
180.0
 51
270.0000000000008
  0
LINE
  5
111
330
1F
100
AcDbEntity
  8
0
  6
Continuous
 62
     7
370
    25
100
AcDbLine
 10
217.8684023430965
 20
156.7165509689905
 30
0.0
 11
210.4684023430965
 21
156.7165509689905
 31
0.0
  0
LINE
  5
112
330
1F
100
AcDbEntity
  8
0
  6
Continuous
 62
     7
370
    25
100
AcDbLine
 10
203.7265293707645
 20
115.7610613794249
 30
0.0
 11
203.7960728578766
 21
116.7095302388665
 31
0.0
  0
LWPOLYLINE
  5
113
330
1F
100
AcDbEntity
  8
0
  6
Continuous
 62
     7
370
    25
100
AcDbPolyline
 90
       12
 70
   128
 43
0.0
 10
224.5286899339077
 20
116.7114834306103
 10
224.5840694928522
 20
115.5663773782479
 10
223.557313721207
 20
112.6454769595653
 10
221.4720294137053
 20
110.1835592532565
 10
218.5633165575509
 20
108.458186805191
 10
215.1591104624772
 20
107.6638822706286
 10
211.6432095422149
 20
107.8901974604399
 10
208.4120049547462
 20
109.1116170537473
 10
205.8297905061695
 20
111.1904352568003
 10
204.1876912875047
 20
113.8922810866177
 10
203.7265293707645
 20
115.7610613794249
 10
203.7265293707645
 20
115.7610613794249
  0
ARC
  5
114
330
1F
100
AcDbEntity
  8
0
  6
Continuous
 62
     7
370
    25
100
AcDbCircle
 10
214.1684023430965
 20
246.7165509689905
 30
0.0
 40
25.0
100
AcDbArc
 50
294.8345874897024
 51
76.24065788156491
  0
ARC
  5
115
330
1F
100
AcDbEntity
  8
0
  6
Continuous
 62
     7
370
    25
100
AcDbCircle
 10
214.1684023430965
 20
246.7165509689905
 30
0.0
 40
25.0
100
AcDbArc
 50
76.24065788156491
 51
245.1654125102992
  0
SPLINE
  5
116
330
1F
100
AcDbEntity
  8
0
  6
Continuous
 62
     8
370
    18
100
AcDbSpline
210
0.0
220
0.0
230
1.0
 70
     8
 71
     3
 72
    22
 73
    18
 74
     0
 42
0.000000001
 43
0.00000001
 40
0.0
 40
0.0
 40
0.0
 40
0.0
 40
0.1249999999999999
 40
0.1249999999999999
 40
0.2499999999999998
 40
0.2499999999999998
 40
0.3749999999999998
 40
0.3749999999999998
 40
0.4999999999999998
 40
0.4999999999999998
 40
0.6249999999999998
 40
0.6249999999999998
 40
0.7499999999999998
 40
0.7499999999999998
 40
0.8749999999999999
 40
0.8749999999999999
 40
1.0
 40
1.0
 40
1.0
 40
1.0
 10
210.4684023430965
 20
227.3635372661598
 30
0.0
 10
210.4684023430965
 20
227.5404846383061
 30
0.0
 10
210.4672736228494
 20
227.7173864445999
 30
0.0
 10
210.4433673405682
 20
228.0703161046421
 30
0.0
 10
210.4213016184138
 20
228.2463726949982
 30
0.0
 10
210.3471242916603
 20
228.597272938977
 30
0.0
 10
210.2952981409525
 20
228.7697517701927
 30
0.0
 10
210.1587743924894
 20
229.0986535491536
 30
0.0
 10
210.0725119775476
 20
229.2580471377068
 30
0.0
 10
209.8673699893446
 20
229.5516828821003
 30
0.0
 10
209.7497255811862
 20
229.6850355477631
 30
0.0
 10
209.4874270290929
 20
229.9276128567781
 30
0.0
 10
209.3424736243099
 20
230.0366055479785
 30
0.0
 10
209.0425038839334
 20
230.2259061496806
 30
0.0
 10
208.8858466160709
 20
230.307645956366
 30
0.0
 10
208.5626462873346
 20
230.4519974423044
 30
0.0
 10
208.3954384952282
 20
230.513322925932
 30
0.0
 10
208.2283202483904
 20
230.5748216716646
 30
0.0
  0
ARC
  5
117
330
1F
100
AcDbEntity
  8
0
  6
Continuous
 62
     8
370
    18
100
AcDbCircle
 10
214.1684023430965
 20
246.7165509689905
 30
0.0
 40
17.19999999999999
100
AcDbArc
 50
290.2033829340738
 51
249.7966170659279
  0
SPLINE
  5
118
330
1F
100
AcDbEntity
  8
0
  6
Continuous
 62
     8
370
    18
100
AcDbSpline
210
0.0
220
0.0
230
1.0
 70
     8
 71
     3
 72
    22
 73
    18
 74
     0
 42
0.000000001
 43
0.00000001
 40
0.0
 40
0.0
 40
0.0
 40
0.0
 40
0.1249999999999999
 40
0.1249999999999999
 40
0.2499999999999999
 40
0.2499999999999999
 40
0.3749999999999998
 40
0.3749999999999998
 40
0.4999999999999998
 40
0.4999999999999998
 40
0.6249999999999998
 40
0.6249999999999998
 40
0.7499999999999998
 40
0.7499999999999998
 40
0.8749999999999998
 40
0.8749999999999998
 40
1.0
 40
1.0
 40
1.0
 40
1.0
 10
220.1084844378026
 20
230.5748216716646
 30
0.0
 10
219.9425079736441
 20
230.5137430967033
 30
0.0
 10
219.7764350297842
 20
230.4528974254843
 30
0.0
 10
219.4535260610316
 20
230.3089079937542
 30
0.0
 10
219.2961532061995
 20
230.2270601504165
 30
0.0
 10
218.9928684508581
 20
230.0356975129138
 30
0.0
 10
218.849025522084
 20
229.9272810276682
 30
0.0
 10
218.5875304616958
 20
229.6854591361002
 30
0.0
 10
218.4676685199049
 20
229.5495153755048
 30
0.0
 10
218.2628609731227
 20
229.2556315530765
 30
0.0
 10
218.1782662629382
 20
229.0992163734773
 30
0.0
 10
218.0412950869435
 20
228.7692479945911
 30
0.0
 10
217.9893011342953
 20
228.595457790043
 30
0.0
 10
217.915915321614
 20
228.248343912646
 30
0.0
 10
217.8937124182389
 20
228.072972738335
 30
0.0
 10
217.8695933282761
 20
227.7196903706294
 30
0.0
 10
217.8684023430965
 20
227.5416883776522
 30
0.0
 10
217.8684023430965
 20
227.3635372661598
 30
0.0
  0
LINE
  5
119
330
1F
100
AcDbEntity
  8
0
  6
Continuous
 62
     8
370
    18
100
AcDbLine
 10
217.8684023430965
 20
157.5165509689905
 30
0.0
 11
217.8684023430965
 21
227.3635372661598
 31
0.0
  0
LINE
  5
11A
330
1F
100
AcDbEntity
  8
0
  6
Continuous
 62
     8
370
    18
100
AcDbLine
 10
210.4684023430965
 20
157.5165509689905
 30
0.0
 11
217.8684023430965
 21
157.5165509689905
 31
0.0
  0
LINE
  5
11B
330
1F
100
AcDbEntity
  8
0
  6
Continuous
 62
     8
370
    18
100
AcDbLine
 10
210.4684023430965
 20
227.3635372661598
 30
0.0
 11
210.4684023430965
 21
157.5165509689905
 31
0.0
  0
LINE
  5
11C
330
1F
100
AcDbEntity
  8
0
  6
Continuous
 62
     8
370
    18
100
AcDbLine
 10
220.3847673259286
 20
229.8240435648122
 30
0.0
 11
220.1084844378027
 21
230.5748216716646
 31
0.0
  0
LINE
  5
11D
330
1F
100
AcDbEntity
  8
0
  6
Continuous
 62
     8
370
    18
100
AcDbLine
 10
207.9520373602645
 20
229.8240435648122
 30
0.0
 11
208.2283202483904
 21
230.5748216716646
 31
0.0
  0
LINE
  5
11E
330
1F
100
AcDbEntity
  8
0
  6
Continuous
 62
     8
370
    18
100
AcDbLine
 10
218.6684023430965
 20
227.3635372661598
 30
0.0
 11
217.8684023430965
 21
227.3635372661598
 31
0.0
  0
LINE
  5
11F
330
1F
100
AcDbEntity
  8
0
  6
Continuous
 62
     8
370
    18
100
AcDbLine
 10
209.6684023430965
 20
227.3635372661598
 30
0.0
 11
210.4684023430965
 21
227.3635372661598
 31
0.0
  0
LINE
  5
120
330
1F
100
AcDbEntity
  8
0
  6
Continuous
 62
     8
370
    18
100
AcDbLine
 10
217.8684023430965
 20
157.5165509689905
 30
0.0
 11
218.6684023430965
 21
157.5165509689905
 31
0.0
  0
LINE
  5
121
330
1F
100
AcDbEntity
  8
0
  6
Continuous
 62
     8
370
    18
100
AcDbLine
 10
209.6684023430965
 20
157.5165509689905
 30
0.0
 11
210.4684023430965
 21
157.5165509689905
 31
0.0
  0
LINE
  5
122
330
1F
100
AcDbEntity
  8
0
  6
Continuous
 62
     8
370
    18
100
AcDbLine
 10
217.8684023430965
 20
156.7165509689905
 30
0.0
 11
217.8684023430965
 21
157.5165509689905
 31
0.0
  0
LINE
  5
123
330
1F
100
AcDbEntity
  8
0
  6
Continuous
 62
     8
370
    18
100
AcDbLine
 10
210.4684023430965
 20
156.7165509689905
 30
0.0
 11
210.4684023430965
 21
157.5165509689905
 31
0.0
  0
ARC
  5
124
330
1F
100
AcDbEntity
  8
0
  6
Continuous
 62
     8
370
    18
100
AcDbCircle
 10
214.1684023430965
 20
246.7165509689905
 30
0.0
 40
24.19999999999999
100
AcDbArc
 50
76.24065788156487
 51
244.2856787748923
  0
ARC
  5
125
330
1F
100
AcDbEntity
  8
0
  6
Continuous
 62
     8
370
    18
100
AcDbCircle
 10
214.1684023430965
 20
246.7165509689905
 30
0.0
 40
24.19999999999999
100
AcDbArc
 50
295.7143212251094
 51
76.24065788156487
  0
ENDSEC
  0
SECTION
  2
OBJECTS
  0
DICTIONARY
  5
C
330
0
100
AcDbDictionary
281
     1
  3
ACAD_DETAILVIEWSTYLE
350
150
  3
ACAD_GROUP
350
D
  3
ACAD_LAYOUT
350
1A
  3
ACAD_MATERIAL
350
140
  3
ACAD_MLEADERSTYLE
350
146
  3
ACAD_MLINESTYLE
350
17
  3
ACAD_PLOTSETTINGS
350
19
  3
ACAD_PLOTSTYLENAME
350
E
  3
ACAD_SCALELIST
350
47
  3
ACAD_SECTIONVIEWSTYLE
350
151
  3
ACAD_TABLESTYLE
350
144
  3
ACAD_VISUALSTYLE
350
127
  3
ACDB_RECOMPOSE_DATA
350
154
  3
AcDbVariableDictionary
350
14B
  3
APPDATA
350
148
  0
DICTIONARY
  5
149
330
1F
100
AcDbDictionary
280
     1
281
     1
  3
DIM_BOUNDING_BOXES_V1
360
14A
  0
DICTIONARY
  5
150
102
{ACAD_REACTORS
330
C
102
}
330
C
100
AcDbDictionary
281
     1
  0
DICTIONARY
  5
D
102
{ACAD_REACTORS
330
C
102
}
330
C
100
AcDbDictionary
281
     1
  0
DICTIONARY
  5
1A
102
{ACAD_REACTORS
330
C
102
}
330
C
100
AcDbDictionary
281
     1
  3
Layout1
350
1E
  3
Layout2
350
26
  3
Model
350
22
  0
DICTIONARY
  5
140
102
{ACAD_REACTORS
330
C
102
}
330
C
100
AcDbDictionary
281
     1
  3
ByBlock
350
142
  3
ByLayer
350
141
  3
Global
350
143
  0
DICTIONARY
  5
146
102
{ACAD_REACTORS
330
C
102
}
330
C
100
AcDbDictionary
281
     1
  3
Standard
350
147
  0
DICTIONARY
  5
17
102
{ACAD_REACTORS
330
C
102
}
330
C
100
AcDbDictionary
281
     1
  3
Standard
350
18
  0
DICTIONARY
  5
19
102
{ACAD_REACTORS
330
C
102
}
330
C
100
AcDbDictionary
281
     1
  0
ACDBDICTIONARYWDFLT
  5
E
102
{ACAD_REACTORS
330
C
102
}
330
C
100
AcDbDictionary
281
     1
  3
Normal
350
F
100
AcDbDictionaryWithDefault
340
F
  0
DICTIONARY
  5
47
102
{ACAD_REACTORS
330
C
102
}
330
C
100
AcDbDictionary
281
     1
  3
A0
350
48
  3
A1
350
49
  3
A2
350
4A
  3
A3
350
4B
  3
A4
350
4C
  3
A5
350
4D
  3
A6
350
4E
  3
A7
350
4F
  3
A8
350
50
  3
A9
350
51
  3
B0
350
52
  3
B1
350
53
  3
B2
350
54
  3
B3
350
55
  3
B4
350
56
  3
B5
350
57
  3
B6
350
58
  3
B7
350
59
  3
B8
350
5A
  3
B9
350
5B
  3
C0
350
5C
  3
C1
350
5D
  3
C2
350
5E
  3
C3
350
5F
  3
C4
350
60
  3
C5
350
61
  3
C6
350
62
  3
C7
350
63
  3
C8
350
64
  3
C9
350
65
  3
D0
350
66
  3
D1
350
67
  3
D2
350
68
  0
DICTIONARY
  5
151
102
{ACAD_REACTORS
330
C
102
}
330
C
100
AcDbDictionary
281
     1
  0
DICTIONARY
  5
144
102
{ACAD_REACTORS
330
C
102
}
330
C
100
AcDbDictionary
281
     1
  3
Standard
350
145
  0
DICTIONARY
  5
127
102
{ACAD_REACTORS
330
C
102
}
330
C
100
AcDbDictionary
281
     1
  3
2dWireframe
350
12C
  3
Basic
350
12F
  3
Brighten
350
133
  3
ColorChange
350
137
  3
Conceptual
350
131
  3
Dim
350
132
  3
EdgeColorOff
350
13A
  3
Facepattern
350
136
  3
Flat
350
128
  3
FlatWithEdges
350
129
  3
Gouraud
350
12A
  3
GouraudWithEdges
350
12B
  3
Hidden
350
12E
  3
JitterOff
350
138
  3
Linepattern
350
135
  3
OverhangOff
350
139
  3
Realistic
350
130
  3
Shaded
350
13F
  3
Shaded with edges
350
13E
  3
Shades of Gray
350
13B
  3
Sketchy
350
13C
  3
Thicken
350
134
  3
Wireframe
350
12D
  3
X-Ray
350
13D
  0
XRECORD
  5
154
102
{ACAD_REACTORS
330
C
102
}
330
C
100
AcDbXrecord
280
     1
 90
        1
330
145
  0
DICTIONARY
  5
14B
102
{ACAD_REACTORS
330
C
102
}
330
C
100
AcDbDictionary
281
     1
  3
CANNOSCALE
350
14C
  3
CMLEADERSTYLE
350
14E
  3
CTABLESTYLE
350
14D
  3
MSLTSCALE
350
14F
  0
DICTIONARY
  5
148
102
{ACAD_REACTORS
330
C
102
}
330
C
100
AcDbDictionary
281
     1
  0
DICTIONARY
  5
14A
102
{ACAD_REACTORS
330
149
102
}
330
149
100
AcDbDictionary
281
     1
  0
LAYOUT
  5
1E
102
{ACAD_REACTORS
330
1A
102
}
330
1A
100
AcDbPlotSettings
  1

  2
none_device
  4

  6

 40
0.0
 41
0.0
 42
0.0
 43
0.0
 44
0.0
 45
0.0
 46
0.0
 47
0.0
 48
0.0
 49
0.0
140
0.0
141
0.0
142
1.0
143
1.0
 70
   688
 72
     1
 73
     0
 74
     5
  7

 75
    16
 76
     0
 77
     2
 78
   300
147
1.0
148
0.0
149
0.0
100
AcDbLayout
  1
Layout1
 70
     1
 71
     1
 10
0.0
 20
0.0
 11
420.0
 21
297.0
 12
0.0
 22
0.0
 32
0.0
 14
1.000000000000000E+20
 24
1.000000000000000E+20
 34
1.000000000000000E+20
 15
-1.000000000000000E+20
 25
-1.000000000000000E+20
 35
-1.000000000000000E+20
146
0.0
 13
0.0
 23
0.0
 33
0.0
 16
1.0
 26
0.0
 36
0.0
 17
0.0
 27
1.0
 37
0.0
 76
     0
330
1B
  0
LAYOUT
  5
26
102
{ACAD_REACTORS
330
1A
102
}
330
1A
100
AcDbPlotSettings
  1

  2
none_device
  4

  6

 40
0.0
 41
0.0
 42
0.0
 43
0.0
 44
0.0
 45
0.0
 46
0.0
 47
0.0
 48
0.0
 49
0.0
140
0.0
141
0.0
142
1.0
143
1.0
 70
   688
 72
     1
 73
     0
 74
     5
  7

 75
    16
 76
     0
 77
     2
 78
   300
147
1.0
148
0.0
149
0.0
100
AcDbLayout
  1
Layout2
 70
     1
 71
     2
 10
0.0
 20
0.0
 11
0.0
 21
0.0
 12
0.0
 22
0.0
 32
0.0
 14
0.0
 24
0.0
 34
0.0
 15
0.0
 25
0.0
 35
0.0
146
0.0
 13
0.0
 23
0.0
 33
0.0
 16
1.0
 26
0.0
 36
0.0
 17
0.0
 27
1.0
 37
0.0
 76
     0
330
23
  0
LAYOUT
  5
22
102
{ACAD_REACTORS
330
1A
102
}
330
1A
100
AcDbPlotSettings
  1

  2
none_device
  4
Letter_(8.50_x_11.00_Inches)
  6

 40
6.35
 41
6.35
 42
6.35000508
 43
6.35000508
 44
215.9
 45
279.4
 46
0.0
 47
0.0
 48
0.0
 49
0.0
140
0.0
141
0.0
142
1.0
143
1.0
 70
  1712
 72
     1
 73
     0
 74
     0
  7

 75
     0
 76
     0
 77
     2
 78
   300
147
1.0
148
0.0
149
0.0
100
AcDbLayout
  1
Model
 70
     1
 71
     0
 10
0.0
 20
0.0
 11
841.0
 21
1189.0
 12
0.0
 22
0.0
 32
0.0
 14
35.3395332945783
 24
37.46023423127906
 34
0.0
 15
762.8835175917711
 25
721.5591213389123
 35
0.0
146
0.0
 13
0.0
 23
0.0
 33
0.0
 16
1.0
 26
0.0
 36
0.0
 17
0.0
 27
1.0
 37
0.0
 76
     0
330
1F
331
29
  0
MATERIAL
  5
142
102
{ACAD_REACTORS
330
140
102
}
330
140
100
AcDbMaterial
  1
ByBlock
 72
     1
 94
      127
  0
MATERIAL
  5
141
102
{ACAD_REACTORS
330
140
102
}
330
140
100
AcDbMaterial
  1
ByLayer
 72
     1
 94
      127
  0
MATERIAL
  5
143
102
{ACAD_REACTORS
330
140
102
}
330
140
100
AcDbMaterial
  1
Global
 72
     1
 94
      127
  0
MLEADERSTYLE
  5
147
102
{ACAD_REACTORS
330
146
102
}
330
146
100
AcDbMLeaderStyle
179
     2
170
     2
171
     1
172
     0
 90
        2
 40
0.0
 41
0.0
173
     1
 91
-1056964608
340
14
 92
       -2
290
     1
 42
2.0
291
     1
 43
8.0
  3
Standard
341
0
 44
4.0
300

342
11
174
     1
178
     1
175
     1
176
     0
 93
-1056964608
 45
4.0
292
     0
297
     0
 46
4.0
343
0
 94
-1056964608
 47
1.0
 49
1.0
140
1.0
293
     1
141
0.0
294
     1
177
     0
142
1.0
295
     0
296
     0
143
3.75
271
     0
272
     9
273
     9
298
     0
  0
MLINESTYLE
  5
18
102
{ACAD_REACTORS
330
17
102
}
330
17
100
AcDbMlineStyle
  2
Standard
 70
     0
  3

 62
   256
 51
90.0
 52
90.0
 71
     2
 49
0.5
 62
   256
  6
BYLAYER
 49
-0.5
 62
   256
  6
BYLAYER
  0
ACDBPLACEHOLDER
  5
F
102
{ACAD_REACTORS
330
E
102
}
330
E
  0
SCALE
  5
48
102
{ACAD_REACTORS
330
47
102
}
330
47
100
AcDbScale
 70
     0
300
1:1
140
1.0
141
1.0
290
     1
  0
SCALE
  5
49
102
{ACAD_REACTORS
330
47
102
}
330
47
100
AcDbScale
 70
     0
300
1:2
140
1.0
141
2.0
290
     0
  0
SCALE
  5
4A
102
{ACAD_REACTORS
330
47
102
}
330
47
100
AcDbScale
 70
     0
300
1:4
140
1.0
141
4.0
290
     0
  0
SCALE
  5
4B
102
{ACAD_REACTORS
330
47
102
}
330
47
100
AcDbScale
 70
     0
300
1:5
140
1.0
141
5.0
290
     0
  0
SCALE
  5
4C
102
{ACAD_REACTORS
330
47
102
}
330
47
100
AcDbScale
 70
     0
300
1:8
140
1.0
141
8.0
290
     0
  0
SCALE
  5
4D
102
{ACAD_REACTORS
330
47
102
}
330
47
100
AcDbScale
 70
     0
300
1:10
140
1.0
141
10.0
290
     0
  0
SCALE
  5
4E
102
{ACAD_REACTORS
330
47
102
}
330
47
100
AcDbScale
 70
     0
300
1:16
140
1.0
141
16.0
290
     0
  0
SCALE
  5
4F
102
{ACAD_REACTORS
330
47
102
}
330
47
100
AcDbScale
 70
     0
300
1:20
140
1.0
141
20.0
290
     0
  0
SCALE
  5
50
102
{ACAD_REACTORS
330
47
102
}
330
47
100
AcDbScale
 70
     0
300
1:30
140
1.0
141
30.0
290
     0
  0
SCALE
  5
51
102
{ACAD_REACTORS
330
47
102
}
330
47
100
AcDbScale
 70
     0
300
1:40
140
1.0
141
40.0
290
     0
  0
SCALE
  5
52
102
{ACAD_REACTORS
330
47
102
}
330
47
100
AcDbScale
 70
     0
300
1:50
140
1.0
141
50.0
290
     0
  0
SCALE
  5
53
102
{ACAD_REACTORS
330
47
102
}
330
47
100
AcDbScale
 70
     0
300
1:100
140
1.0
141
100.0
290
     0
  0
SCALE
  5
54
102
{ACAD_REACTORS
330
47
102
}
330
47
100
AcDbScale
 70
     0
300
2:1
140
2.0
141
1.0
290
     0
  0
SCALE
  5
55
102
{ACAD_REACTORS
330
47
102
}
330
47
100
AcDbScale
 70
     0
300
4:1
140
4.0
141
1.0
290
     0
  0
SCALE
  5
56
102
{ACAD_REACTORS
330
47
102
}
330
47
100
AcDbScale
 70
     0
300
8:1
140
8.0
141
1.0
290
     0
  0
SCALE
  5
57
102
{ACAD_REACTORS
330
47
102
}
330
47
100
AcDbScale
 70
     0
300
10:1
140
10.0
141
1.0
290
     0
  0
SCALE
  5
58
102
{ACAD_REACTORS
330
47
102
}
330
47
100
AcDbScale
 70
     0
300
100:1
140
100.0
141
1.0
290
     0
  0
SCALE
  5
59
102
{ACAD_REACTORS
330
47
102
}
330
47
100
AcDbScale
 70
     0
300
1/128" = 1'-0"
140
0.0078125
141
12.0
290
     0
  0
SCALE
  5
5A
102
{ACAD_REACTORS
330
47
102
}
330
47
100
AcDbScale
 70
     0
300
1/64" = 1'-0"
140
0.015625
141
12.0
290
     0
  0
SCALE
  5
5B
102
{ACAD_REACTORS
330
47
102
}
330
47
100
AcDbScale
 70
     0
300
1/32" = 1'-0"
140
0.03125
141
12.0
290
     0
  0
SCALE
  5
5C
102
{ACAD_REACTORS
330
47
102
}
330
47
100
AcDbScale
 70
     0
300
1/16" = 1'-0"
140
0.0625
141
12.0
290
     0
  0
SCALE
  5
5D
102
{ACAD_REACTORS
330
47
102
}
330
47
100
AcDbScale
 70
     0
300
3/32" = 1'-0"
140
0.09375
141
12.0
290
     0
  0
SCALE
  5
5E
102
{ACAD_REACTORS
330
47
102
}
330
47
100
AcDbScale
 70
     0
300
1/8" = 1'-0"
140
0.125
141
12.0
290
     0
  0
SCALE
  5
5F
102
{ACAD_REACTORS
330
47
102
}
330
47
100
AcDbScale
 70
     0
300
3/16" = 1'-0"
140
0.1875
141
12.0
290
     0
  0
SCALE
  5
60
102
{ACAD_REACTORS
330
47
102
}
330
47
100
AcDbScale
 70
     0
300
1/4" = 1'-0"
140
0.25
141
12.0
290
     0
  0
SCALE
  5
61
102
{ACAD_REACTORS
330
47
102
}
330
47
100
AcDbScale
 70
     0
300
3/8" = 1'-0"
140
0.375
141
12.0
290
     0
  0
SCALE
  5
62
102
{ACAD_REACTORS
330
47
102
}
330
47
100
AcDbScale
 70
     0
300
1/2" = 1'-0"
140
0.5
141
12.0
290
     0
  0
SCALE
  5
63
102
{ACAD_REACTORS
330
47
102
}
330
47
100
AcDbScale
 70
     0
300
3/4" = 1'-0"
140
0.75
141
12.0
290
     0
  0
SCALE
  5
64
102
{ACAD_REACTORS
330
47
102
}
330
47
100
AcDbScale
 70
     0
300
1" = 1'-0"
140
1.0
141
12.0
290
     0
  0
SCALE
  5
65
102
{ACAD_REACTORS
330
47
102
}
330
47
100
AcDbScale
 70
     0
300
1-1/2" = 1'-0"
140
1.5
141
12.0
290
     0
  0
SCALE
  5
66
102
{ACAD_REACTORS
330
47
102
}
330
47
100
AcDbScale
 70
     0
300
3" = 1'-0"
140
3.0
141
12.0
290
     0
  0
SCALE
  5
67
102
{ACAD_REACTORS
330
47
102
}
330
47
100
AcDbScale
 70
     0
300
6" = 1'-0"
140
6.0
141
12.0
290
     0
  0
SCALE
  5
68
102
{ACAD_REACTORS
330
47
102
}
330
47
100
AcDbScale
 70
     0
300
1'-0" = 1'-0"
140
12.0
141
12.0
290
     0
  0
TABLESTYLE
  5
145
102
{ACAD_REACTORS
330
144
102
}
102
{ACAD_XDICTIONARY
360
152
102
}
330
144
100
AcDbTableStyle
  3
Standard
 70
     0
 71
     0
 40
0.06
 41
0.06
280
     0
281
     0
  7
Standard
140
4.5
170
     2
 62
     0
 63
   257
283
     0
 90
        4
 91
        0
  1

274
    -2
284
     1
 64
     0
275
    -2
285
     1
 65
     0
276
    -2
286
     1
 66
     0
277
    -2
287
     1
 67
     0
278
    -2
288
     1
 68
     0
279
    -2
289
     1
 69
     0
  7
Standard
140
6.0
170
     5
 62
     0
 63
   257
283
     0
 90
        4
 91
        0
  1

274
    -2
284
     1
 64
     0
275
    -2
285
     1
 65
     0
276
    -2
286
     1
 66
     0
277
    -2
287
     1
 67
     0
278
    -2
288
     1
 68
     0
279
    -2
289
     1
 69
     0
  7
Standard
140
4.5
170
     5
 62
     0
 63
   257
283
     0
 90
        4
 91
        0
  1

274
    -2
284
     1
 64
     0
275
    -2
285
     1
 65
     0
276
    -2
286
     1
 66
     0
277
    -2
287
     1
 67
     0
278
    -2
288
     1
 68
     0
279
    -2
289
     1
 69
     0
  0
VISUALSTYLE
  5
12C
102
{ACAD_REACTORS
330
127
102
}
330
127
100
AcDbVisualStyle
  2
2dWireframe
 70
     4
177
     3
291
     0
 70
    58
 90
        0
176
     1
 90
        2
176
     1
 90
        0
176
     1
 90
        0
176
     1
 40
0.6
176
     1
 40
30.0
176
     1
 62
     7
420
 16777215
176
     1
 90
        1
176
     1
 90
        4
176
     1
 62
     7
176
     1
 62
   257
176
     1
 90
        1
176
     1
 90
        1
176
     1
 40
1.0
176
     1
 90
        0
176
     1
 62
   257
176
     1
 40
1.0
176
     1
 90
        1
176
     1
 90
        6
176
     1
 90
        2
176
     1
 62
     7
176
     1
 90
        5
176
     1
 90
        0
176
     1
 90
        0
176
     1
290
     0
176
     1
 90
        1
176
     1
 40
0.0
176
     1
 90
        0
176
     1
290
     1
176
     1
290
     1
176
     1
290
     0
176
     1
290
     0
176
     1
290
     0
176
     1
290
     0
176
     1
290
     0
176
     1
290
     0
176
     1
290
     0
176
     1
 90
       50
176
     1
 40
0.0
176
     1
 40
1.0
176
     1
 90
        0
176
     1
 62
    18
420
        0
176
     1
 90
       50
176
     1
 90
        3
176
     1
 62
     5
420
      255
176
     1
290
     0
176
     1
 90
       50
176
     1
 90
       50
176
     1
 90
       50
176
     1
290
     0
176
     1
 90
       50
176
     1
 62
   256
176
     0
 40
1.0
176
     0
 90
        2
176
     1
  1
strokes_ogs.tif
176
     1
290
     0
176
     1
 40
1.0
176
     1
 40
1.0
176
     1
  0
VISUALSTYLE
  5
12F
102
{ACAD_REACTORS
330
127
102
}
330
127
100
AcDbVisualStyle
  2
Basic
 70
     7
177
     3
291
     1
 70
    58
 90
        1
176
     1
 90
        0
176
     1
 90
        1
176
     1
 90
        0
176
     1
 40
0.6
176
     1
 40
30.0
176
     1
 62
     7
420
 16777215
176
     1
 90
        0
176
     1
 90
        4
176
     1
 62
     7
176
     1
 62
   257
176
     1
 90
        1
176
     1
 90
        1
176
     1
 40
1.0
176
     1
 90
        8
176
     1
 62
     7
176
     1
 40
1.0
176
     1
 90
        1
176
     1
 90
        6
176
     1
 90
        2
176
     1
 62
     7
176
     1
 90
        5
176
     1
 90
        0
176
     1
 90
        0
176
     1
290
     0
176
     1
 90
        1
176
     1
 40
0.0
176
     1
 90
        0
176
     1
290
     0
176
     1
290
     1
176
     1
290
     1
176
     1
290
     0
176
     1
290
     0
176
     1
290
     0
176
     1
290
     0
176
     1
290
     0
176
     1
290
     0
176
     1
 90
       50
176
     1
 40
0.0
176
     1
 40
1.0
176
     1
 90
        0
176
     1
 62
    18
420
        0
176
     1
 90
       50
176
     1
 90
        3
176
     1
 62
     5
420
      255
176
     1
290
     0
176
     1
 90
       50
176
     1
 90
       50
176
     1
 90
       50
176
     1
290
     0
176
     1
 90
       50
176
     1
 62
   256
176
     0
 40
1.0
176
     0
 90
        2
176
     1
  1
strokes_ogs.tif
176
     1
290
     0
176
     1
 40
1.0
176
     1
 40
1.0
176
     1
  0
VISUALSTYLE
  5
133
102
{ACAD_REACTORS
330
127
102
}
330
127
100
AcDbVisualStyle
  2
Brighten
 70
    12
177
     3
291
     1
 70
    58
 90
        2
176
     1
 90
        2
176
     1
 90
        0
176
     1
 90
        0
176
     1
 40
0.6
176
     1
 40
30.0
176
     1
 62
     7
420
 16777215
176
     1
 90
        1
176
     1
 90
        4
176
     1
 62
     7
176
     1
 62
   257
176
     1
 90
        1
176
     1
 90
        1
176
     1
 40
1.0
176
     1
 90
        8
176
     1
 62
     7
176
     1
 40
1.0
176
     1
 90
        1
176
     1
 90
        6
176
     1
 90
        2
176
     1
 62
     7
176
     1
 90
        5
176
     1
 90
        0
176
     1
 90
        0
176
     1
290
     0
176
     1
 90
        1
176
     1
 40
50.0
176
     1
 90
        0
176
     1
290
     0
176
     1
290
     1
176
     1
290
     1
176
     1
290
     0
176
     1
290
     0
176
     1
290
     0
176
     1
290
     0
176
     1
290
     0
176
     1
290
     0
176
     1
 90
       50
176
     1
 40
0.0
176
     1
 40
1.0
176
     1
 90
        0
176
     1
 62
    18
420
        0
176
     1
 90
       50
176
     1
 90
        3
176
     1
 62
     5
420
      255
176
     1
290
     0
176
     1
 90
       50
176
     1
 90
       50
176
     1
 90
       50
176
     1
290
     0
176
     1
 90
       50
176
     1
 62
   256
176
     0
 40
1.0
176
     0
 90
        2
176
     1
  1
strokes_ogs.tif
176
     1
290
     0
176
     1
 40
1.0
176
     1
 40
1.0
176
     1
  0
VISUALSTYLE
  5
137
102
{ACAD_REACTORS
330
127
102
}
330
127
100
AcDbVisualStyle
  2
ColorChange
 70
    16
177
     3
291
     1
 70
    58
 90
        2
176
     1
 90
        2
176
     1
 90
        3
176
     1
 90
        0
176
     1
 40
0.6
176
     1
 40
30.0
176
     1
 62
     8
420
  8421504
176
     1
 90
        1
176
     1
 90
        4
176
     1
 62
     7
176
     1
 62
   257
176
     1
 90
        1
176
     1
 90
        1
176
     1
 40
1.0
176
     1
 90
        8
176
     1
 62
     8
420
  8421504
176
     1
 40
1.0
176
     1
 90
        1
176
     1
 90
        6
176
     1
 90
        2
176
     1
 62
     7
176
     1
 90
        5
176
     1
 90
        0
176
     1
 90
        0
176
     1
290
     0
176
     1
 90
        1
176
     1
 40
0.0
176
     1
 90
        0
176
     1
290
     0
176
     1
290
     1
176
     1
290
     1
176
     1
290
     0
176
     1
290
     0
176
     1
290
     0
176
     1
290
     0
176
     1
290
     0
176
     1
290
     0
176
     1
 90
       50
176
     1
 40
0.0
176
     1
 40
1.0
176
     1
 90
        0
176
     1
 62
    18
420
        0
176
     1
 90
       50
176
     1
 90
        3
176
     1
 62
     5
420
      255
176
     1
290
     0
176
     1
 90
       50
176
     1
 90
       50
176
     1
 90
       50
176
     1
290
     0
176
     1
 90
       50
176
     1
 62
   256
176
     0
 40
1.0
176
     0
 90
        2
176
     1
  1
strokes_ogs.tif
176
     1
290
     0
176
     1
 40
1.0
176
     1
 40
1.0
176
     1
  0
VISUALSTYLE
  5
131
102
{ACAD_REACTORS
330
127
102
}
330
127
100
AcDbVisualStyle
  2
Conceptual
 70
     9
177
     3
291
     0
 70
    58
 90
        3
176
     1
 90
        2
176
     1
 90
        0
176
     1
 90
        0
176
     1
 40
0.6
176
     1
 40
30.0
176
     1
 62
     7
420
 16777215
176
     1
 90
        2
176
     1
 90
        2
176
     1
 62
     7
176
     1
 62
   257
176
     1
 90
        1
176
     1
 90
        1
176
     1
 40
179.0
176
     1
 90
        8
176
     1
 62
     7
176
     1
 40
1.0
176
     1
 90
        1
176
     1
 90
        6
176
     1
 90
        2
176
     1
 62
     7
176
     1
 90
        3
176
     1
 90
        0
176
     1
 90
        0
176
     1
290
     0
176
     1
 90
        1
176
     1
 40
0.0
176
     1
 90
        0
176
     1
290
     0
176
     1
290
     1
176
     1
290
     1
176
     1
290
     0
176
     1
290
     0
176
     1
290
     0
176
     1
290
     0
176
     1
290
     0
176
     1
290
     0
176
     1
 90
       50
176
     1
 40
0.0
176
     1
 40
1.0
176
     1
 90
        0
176
     1
 62
    18
420
        0
176
     1
 90
       50
176
     1
 90
        3
176
     1
 62
     5
420
      255
176
     1
290
     0
176
     1
 90
       50
176
     1
 90
       50
176
     1
 90
       50
176
     1
290
     0
176
     1
 90
       50
176
     1
 62
   256
176
     0
 40
1.0
176
     0
 90
        2
176
     1
  1
strokes_ogs.tif
176
     1
290
     0
176
     1
 40
1.0
176
     1
 40
1.0
176
     1
  0
VISUALSTYLE
  5
132
102
{ACAD_REACTORS
330
127
102
}
330
127
100
AcDbVisualStyle
  2
Dim
 70
    11
177
     3
291
     1
 70
    58
 90
        2
176
     1
 90
        2
176
     1
 90
        0
176
     1
 90
        0
176
     1
 40
0.6
176
     1
 40
30.0
176
     1
 62
     7
420
 16777215
176
     1
 90
        1
176
     1
 90
        4
176
     1
 62
     7
176
     1
 62
   257
176
     1
 90
        1
176
     1
 90
        1
176
     1
 40
1.0
176
     1
 90
        8
176
     1
 62
     7
176
     1
 40
1.0
176
     1
 90
        1
176
     1
 90
        6
176
     1
 90
        2
176
     1
 62
     7
176
     1
 90
        5
176
     1
 90
        0
176
     1
 90
        0
176
     1
290
     0
176
     1
 90
        1
176
     1
 40
-50.0
176
     1
 90
        0
176
     1
290
     0
176
     1
290
     1
176
     1
290
     1
176
     1
290
     0
176
     1
290
     0
176
     1
290
     0
176
     1
290
     0
176
     1
290
     0
176
     1
290
     0
176
     1
 90
       50
176
     1
 40
0.0
176
     1
 40
1.0
176
     1
 90
        0
176
     1
 62
    18
420
        0
176
     1
 90
       50
176
     1
 90
        3
176
     1
 62
     5
420
      255
176
     1
290
     0
176
     1
 90
       50
176
     1
 90
       50
176
     1
 90
       50
176
     1
290
     0
176
     1
 90
       50
176
     1
 62
   256
176
     0
 40
1.0
176
     0
 90
        2
176
     1
  1
strokes_ogs.tif
176
     1
290
     0
176
     1
 40
1.0
176
     1
 40
1.0
176
     1
  0
VISUALSTYLE
  5
13A
102
{ACAD_REACTORS
330
127
102
}
330
127
100
AcDbVisualStyle
  2
EdgeColorOff
 70
    22
177
     3
291
     1
 70
    58
 90
        2
176
     0
 90
        2
176
     0
 90
        0
176
     0
 90
        0
176
     0
 40
0.6
176
     0
 40
30.0
176
     0
 62
     7
420
 16777215
176
     0
 90
        1
176
     0
 90
        4
176
     0
 62
     7
176
     0
 62
   257
176
     0
 90
        1
176
     0
 90
        1
176
     0
 40
1.0
176
     0
 90
        8
176
     2
 62
     7
176
     0
 40
1.0
176
     0
 90
        1
176
     0
 90
        6
176
     0
 90
        2
176
     0
 62
     7
176
     0
 90
        5
176
     0
 90
        0
176
     0
 90
        0
176
     0
290
     0
176
     0
 90
        1
176
     0
 40
0.0
176
     0
 90
        0
176
     0
290
     0
176
     0
290
     1
176
     0
290
     1
176
     0
290
     0
176
     0
290
     0
176
     0
290
     0
176
     0
290
     0
176
     0
290
     0
176
     0
290
     0
176
     0
 90
       50
176
     0
 40
0.0
176
     0
 40
1.0
176
     0
 90
        0
176
     0
 62
    18
420
        0
176
     0
 90
       50
176
     0
 90
        3
176
     0
 62
     5
420
      255
176
     0
290
     0
176
     0
 90
       50
176
     0
 90
       50
176
     0
 90
       50
176
     0
290
     0
176
     0
 90
       50
176
     0
 62
   256
176
     0
 40
1.0
176
     0
 90
        2
176
     0
  1
strokes_ogs.tif
176
     0
290
     0
176
     0
 40
1.0
176
     0
 40
1.0
176
     0
  0
VISUALSTYLE
  5
136
102
{ACAD_REACTORS
330
127
102
}
330
127
100
AcDbVisualStyle
  2
Facepattern
 70
    15
177
     3
291
     1
 70
    58
 90
        2
176
     1
 90
        2
176
     1
 90
        0
176
     1
 90
        0
176
     1
 40
0.6
176
     1
 40
30.0
176
     1
 62
     7
420
 16777215
176
     1
 90
        1
176
     1
 90
        4
176
     1
 62
     7
176
     1
 62
   257
176
     1
 90
        1
176
     1
 90
        1
176
     1
 40
1.0
176
     1
 90
        8
176
     1
 62
     7
176
     1
 40
1.0
176
     1
 90
        1
176
     1
 90
        6
176
     1
 90
        2
176
     1
 62
     7
176
     1
 90
        5
176
     1
 90
        0
176
     1
 90
        0
176
     1
290
     0
176
     1
 90
        1
176
     1
 40
0.0
176
     1
 90
        0
176
     1
290
     0
176
     1
290
     1
176
     1
290
     1
176
     1
290
     0
176
     1
290
     0
176
     1
290
     0
176
     1
290
     0
176
     1
290
     0
176
     1
290
     0
176
     1
 90
       50
176
     1
 40
0.0
176
     1
 40
1.0
176
     1
 90
        0
176
     1
 62
    18
420
        0
176
     1
 90
       50
176
     1
 90
        3
176
     1
 62
     5
420
      255
176
     1
290
     0
176
     1
 90
       50
176
     1
 90
       50
176
     1
 90
       50
176
     1
290
     0
176
     1
 90
       50
176
     1
 62
   256
176
     0
 40
1.0
176
     0
 90
        2
176
     1
  1
strokes_ogs.tif
176
     1
290
     0
176
     1
 40
1.0
176
     1
 40
1.0
176
     1
  0
VISUALSTYLE
  5
128
102
{ACAD_REACTORS
330
127
102
}
330
127
100
AcDbVisualStyle
  2
Flat
 70
     0
177
     3
291
     1
 70
    58
 90
        2
176
     1
 90
        1
176
     1
 90
        1
176
     1
 90
        2
176
     1
 40
0.6
176
     1
 40
30.0
176
     1
 62
     7
420
 16777215
176
     1
 90
        0
176
     1
 90
        0
176
     1
 62
     7
176
     1
 62
   257
176
     1
 90
        1
176
     1
 90
        1
176
     1
 40
1.0
176
     1
 90
        8
176
     1
 62
     7
176
     1
 40
1.0
176
     1
 90
        1
176
     1
 90
        6
176
     1
 90
        2
176
     1
 62
     7
176
     1
 90
        5
176
     1
 90
        0
176
     1
 90
        0
176
     1
290
     0
176
     1
 90
       13
176
     1
 40
0.0
176
     1
 90
        0
176
     1
290
     0
176
     1
290
     1
176
     1
290
     1
176
     1
290
     0
176
     1
290
     0
176
     1
290
     0
176
     1
290
     0
176
     1
290
     0
176
     1
290
     0
176
     1
 90
       50
176
     1
 40
0.0
176
     1
 40
1.0
176
     1
 90
        0
176
     1
 62
    18
420
        0
176
     1
 90
       50
176
     1
 90
        3
176
     1
 62
     5
420
      255
176
     1
290
     0
176
     1
 90
       50
176
     1
 90
       50
176
     1
 90
       50
176
     1
290
     0
176
     1
 90
       50
176
     1
 62
   256
176
     0
 40
1.0
176
     0
 90
        2
176
     1
  1
strokes_ogs.tif
176
     1
290
     0
176
     1
 40
1.0
176
     1
 40
1.0
176
     1
  0
VISUALSTYLE
  5
129
102
{ACAD_REACTORS
330
127
102
}
330
127
100
AcDbVisualStyle
  2
FlatWithEdges
 70
     1
177
     3
291
     1
 70
    58
 90
        2
176
     1
 90
        1
176
     1
 90
        1
176
     1
 90
        2
176
     1
 40
0.6
176
     1
 40
30.0
176
     1
 62
     7
420
 16777215
176
     1
 90
        1
176
     1
 90
        0
176
     1
 62
     7
176
     1
 62
   257
176
     1
 90
        1
176
     1
 90
        1
176
     1
 40
1.0
176
     1
 90
        0
176
     1
 62
   257
176
     1
 40
1.0
176
     1
 90
        1
176
     1
 90
        6
176
     1
 90
        2
176
     1
 62
     7
176
     1
 90
        5
176
     1
 90
        0
176
     1
 90
        0
176
     1
290
     0
176
     1
 90
       13
176
     1
 40
0.0
176
     1
 90
        0
176
     1
290
     0
176
     1
290
     1
176
     1
290
     1
176
     1
290
     0
176
     1
290
     0
176
     1
290
     0
176
     1
290
     0
176
     1
290
     0
176
     1
290
     0
176
     1
 90
       50
176
     1
 40
0.0
176
     1
 40
1.0
176
     1
 90
        0
176
     1
 62
    18
420
        0
176
     1
 90
       50
176
     1
 90
        3
176
     1
 62
     5
420
      255
176
     1
290
     0
176
     1
 90
       50
176
     1
 90
       50
176
     1
 90
       50
176
     1
290
     0
176
     1
 90
       50
176
     1
 62
   256
176
     0
 40
1.0
176
     0
 90
        2
176
     1
  1
strokes_ogs.tif
176
     1
290
     0
176
     1
 40
1.0
176
     1
 40
1.0
176
     1
  0
VISUALSTYLE
  5
12A
102
{ACAD_REACTORS
330
127
102
}
330
127
100
AcDbVisualStyle
  2
Gouraud
 70
     2
177
     3
291
     1
 70
    58
 90
        2
176
     1
 90
        2
176
     1
 90
        1
176
     1
 90
        2
176
     1
 40
0.6
176
     1
 40
30.0
176
     1
 62
     7
420
 16777215
176
     1
 90
        0
176
     1
 90
        0
176
     1
 62
     7
176
     1
 62
   257
176
     1
 90
        1
176
     1
 90
        1
176
     1
 40
1.0
176
     1
 90
        0
176
     1
 62
     7
176
     1
 40
1.0
176
     1
 90
        1
176
     1
 90
        6
176
     1
 90
        2
176
     1
 62
     7
176
     1
 90
        5
176
     1
 90
        0
176
     1
 90
        0
176
     1
290
     0
176
     1
 90
       13
176
     1
 40
0.0
176
     1
 90
        0
176
     1
290
     0
176
     1
290
     1
176
     1
290
     1
176
     1
290
     0
176
     1
290
     0
176
     1
290
     0
176
     1
290
     0
176
     1
290
     0
176
     1
290
     0
176
     1
 90
       50
176
     1
 40
0.0
176
     1
 40
1.0
176
     1
 90
        0
176
     1
 62
    18
420
        0
176
     1
 90
       50
176
     1
 90
        3
176
     1
 62
     5
420
      255
176
     1
290
     0
176
     1
 90
       50
176
     1
 90
       50
176
     1
 90
       50
176
     1
290
     0
176
     1
 90
       50
176
     1
 62
   256
176
     0
 40
1.0
176
     0
 90
        2
176
     1
  1
strokes_ogs.tif
176
     1
290
     0
176
     1
 40
1.0
176
     1
 40
1.0
176
     1
  0
VISUALSTYLE
  5
12B
102
{ACAD_REACTORS
330
127
102
}
330
127
100
AcDbVisualStyle
  2
GouraudWithEdges
 70
     3
177
     3
291
     1
 70
    58
 90
        2
176
     1
 90
        2
176
     1
 90
        1
176
     1
 90
        2
176
     1
 40
0.6
176
     1
 40
30.0
176
     1
 62
     7
420
 16777215
176
     1
 90
        1
176
     1
 90
        0
176
     1
 62
     7
176
     1
 62
   257
176
     1
 90
        1
176
     1
 90
        1
176
     1
 40
1.0
176
     1
 90
        0
176
     1
 62
   257
176
     1
 40
1.0
176
     1
 90
        1
176
     1
 90
        6
176
     1
 90
        2
176
     1
 62
     7
176
     1
 90
        5
176
     1
 90
        0
176
     1
 90
        0
176
     1
290
     0
176
     1
 90
       13
176
     1
 40
0.0
176
     1
 90
        0
176
     1
290
     0
176
     1
290
     1
176
     1
290
     1
176
     1
290
     0
176
     1
290
     0
176
     1
290
     0
176
     1
290
     0
176
     1
290
     0
176
     1
290
     0
176
     1
 90
       50
176
     1
 40
0.0
176
     1
 40
1.0
176
     1
 90
        0
176
     1
 62
    18
420
        0
176
     1
 90
       50
176
     1
 90
        3
176
     1
 62
     5
420
      255
176
     1
290
     0
176
     1
 90
       50
176
     1
 90
       50
176
     1
 90
       50
176
     1
290
     0
176
     1
 90
       50
176
     1
 62
   256
176
     0
 40
1.0
176
     0
 90
        2
176
     1
  1
strokes_ogs.tif
176
     1
290
     0
176
     1
 40
1.0
176
     1
 40
1.0
176
     1
  0
VISUALSTYLE
  5
12E
102
{ACAD_REACTORS
330
127
102
}
330
127
100
AcDbVisualStyle
  2
Hidden
 70
     6
177
     3
291
     0
 70
    58
 90
        1
176
     1
 90
        2
176
     1
 90
        2
176
     1
 90
        0
176
     1
 40
0.6
176
     1
 40
30.0
176
     1
 62
     7
420
 16777215
176
     1
 90
        2
176
     1
 90
        2
176
     1
 62
     7
176
     1
 62
   257
176
     1
 90
        2
176
     1
 90
        1
176
     1
 40
40.0
176
     1
 90
        0
176
     1
 62
   257
176
     1
 40
1.0
176
     1
 90
        1
176
     1
 90
        6
176
     1
 90
        2
176
     1
 62
     7
176
     1
 90
        3
176
     1
 90
        0
176
     1
 90
        0
176
     1
290
     0
176
     1
 90
        1
176
     1
 40
0.0
176
     1
 90
        0
176
     1
290
     0
176
     1
290
     1
176
     1
290
     1
176
     1
290
     0
176
     1
290
     0
176
     1
290
     0
176
     1
290
     0
176
     1
290
     0
176
     1
290
     0
176
     1
 90
       50
176
     1
 40
0.0
176
     1
 40
1.0
176
     1
 90
        0
176
     1
 62
    18
420
        0
176
     1
 90
       50
176
     1
 90
        3
176
     1
 62
     5
420
      255
176
     1
290
     0
176
     1
 90
       50
176
     1
 90
       50
176
     1
 90
       50
176
     1
290
     0
176
     1
 90
       50
176
     1
 62
   256
176
     0
 40
1.0
176
     0
 90
        2
176
     1
  1
strokes_ogs.tif
176
     1
290
     0
176
     1
 40
1.0
176
     1
 40
1.0
176
     1
  0
VISUALSTYLE
  5
138
102
{ACAD_REACTORS
330
127
102
}
330
127
100
AcDbVisualStyle
  2
JitterOff
 70
    20
177
     3
291
     1
 70
    58
 90
        2
176
     0
 90
        2
176
     0
 90
        0
176
     0
 90
        0
176
     0
 40
0.6
176
     0
 40
30.0
176
     0
 62
     7
420
 16777215
176
     0
 90
        1
176
     0
 90
        4
176
     0
 62
     7
176
     0
 62
   257
176
     0
 90
        1
176
     0
 90
        1
176
     0
 40
1.0
176
     0
 90
       10
176
     2
 62
     7
176
     0
 40
1.0
176
     0
 90
        1
176
     0
 90
        6
176
     0
 90
        2
176
     0
 62
     7
176
     0
 90
        5
176
     0
 90
        0
176
     0
 90
        0
176
     0
290
     0
176
     0
 90
        1
176
     0
 40
0.0
176
     0
 90
        0
176
     0
290
     0
176
     0
290
     1
176
     0
290
     1
176
     0
290
     0
176
     0
290
     0
176
     0
290
     0
176
     0
290
     0
176
     0
290
     0
176
     0
290
     0
176
     0
 90
       50
176
     0
 40
0.0
176
     0
 40
1.0
176
     0
 90
        0
176
     0
 62
    18
420
        0
176
     0
 90
       50
176
     0
 90
        3
176
     0
 62
     5
420
      255
176
     0
290
     0
176
     0
 90
       50
176
     0
 90
       50
176
     0
 90
       50
176
     0
290
     0
176
     0
 90
       50
176
     0
 62
   256
176
     0
 40
1.0
176
     0
 90
        2
176
     0
  1
strokes_ogs.tif
176
     0
290
     0
176
     0
 40
1.0
176
     0
 40
1.0
176
     0
  0
VISUALSTYLE
  5
135
102
{ACAD_REACTORS
330
127
102
}
330
127
100
AcDbVisualStyle
  2
Linepattern
 70
    14
177
     3
291
     1
 70
    58
 90
        2
176
     1
 90
        2
176
     1
 90
        0
176
     1
 90
        0
176
     1
 40
0.6
176
     1
 40
30.0
176
     1
 62
     7
420
 16777215
176
     1
 90
        1
176
     1
 90
        4
176
     1
 62
     7
176
     1
 62
   257
176
     1
 90
        7
176
     1
 90
        7
176
     1
 40
1.0
176
     1
 90
        8
176
     1
 62
     7
176
     1
 40
1.0
176
     1
 90
        1
176
     1
 90
        6
176
     1
 90
        2
176
     1
 62
     7
176
     1
 90
        5
176
     1
 90
        0
176
     1
 90
        0
176
     1
290
     0
176
     1
 90
        1
176
     1
 40
0.0
176
     1
 90
        0
176
     1
290
     0
176
     1
290
     1
176
     1
290
     1
176
     1
290
     0
176
     1
290
     0
176
     1
290
     0
176
     1
290
     0
176
     1
290
     0
176
     1
290
     0
176
     1
 90
       50
176
     1
 40
0.0
176
     1
 40
1.0
176
     1
 90
        0
176
     1
 62
    18
420
        0
176
     1
 90
       50
176
     1
 90
        3
176
     1
 62
     5
420
      255
176
     1
290
     0
176
     1
 90
       50
176
     1
 90
       50
176
     1
 90
       50
176
     1
290
     0
176
     1
 90
       50
176
     1
 62
   256
176
     0
 40
1.0
176
     0
 90
        2
176
     1
  1
strokes_ogs.tif
176
     1
290
     0
176
     1
 40
1.0
176
     1
 40
1.0
176
     1
  0
VISUALSTYLE
  5
139
102
{ACAD_REACTORS
330
127
102
}
330
127
100
AcDbVisualStyle
  2
OverhangOff
 70
    21
177
     3
291
     1
 70
    58
 90
        2
176
     0
 90
        2
176
     0
 90
        0
176
     0
 90
        0
176
     0
 40
0.6
176
     0
 40
30.0
176
     0
 62
     7
420
 16777215
176
     0
 90
        1
176
     0
 90
        4
176
     0
 62
     7
176
     0
 62
   257
176
     0
 90
        1
176
     0
 90
        1
176
     0
 40
1.0
176
     0
 90
        9
176
     2
 62
     7
176
     0
 40
1.0
176
     0
 90
        1
176
     0
 90
        6
176
     0
 90
        2
176
     0
 62
     7
176
     0
 90
        5
176
     0
 90
        0
176
     0
 90
        0
176
     0
290
     0
176
     0
 90
        1
176
     0
 40
0.0
176
     0
 90
        0
176
     0
290
     0
176
     0
290
     1
176
     0
290
     1
176
     0
290
     0
176
     0
290
     0
176
     0
290
     0
176
     0
290
     0
176
     0
290
     0
176
     0
290
     0
176
     0
 90
       50
176
     0
 40
0.0
176
     0
 40
1.0
176
     0
 90
        0
176
     0
 62
    18
420
        0
176
     0
 90
       50
176
     0
 90
        3
176
     0
 62
     5
420
      255
176
     0
290
     0
176
     0
 90
       50
176
     0
 90
       50
176
     0
 90
       50
176
     0
290
     0
176
     0
 90
       50
176
     0
 62
   256
176
     0
 40
1.0
176
     0
 90
        2
176
     0
  1
strokes_ogs.tif
176
     0
290
     0
176
     0
 40
1.0
176
     0
 40
1.0
176
     0
  0
VISUALSTYLE
  5
130
102
{ACAD_REACTORS
330
127
102
}
330
127
100
AcDbVisualStyle
  2
Realistic
 70
     8
177
     3
291
     0
 70
    58
 90
        2
176
     1
 90
        3
176
     1
 90
        0
176
     1
 90
        2
176
     1
 40
0.6
176
     1
 40
30.0
176
     1
 62
     7
420
 16777215
176
     1
 90
        0
176
     1
 90
        0
176
     1
 62
     7
176
     1
 62
   257
176
     1
 90
        1
176
     1
 90
        1
176
     1
 40
1.0
176
     1
 90
        8
176
     1
 62
   257
176
     1
 40
1.0
176
     1
 90
        1
176
     1
 90
        6
176
     1
 90
        2
176
     1
 62
     7
176
     1
 90
        3
176
     1
 90
        0
176
     1
 90
        0
176
     1
290
     0
176
     1
 90
       13
176
     1
 40
0.0
176
     1
 90
        0
176
     1
290
     0
176
     1
290
     1
176
     1
290
     1
176
     1
290
     0
176
     1
290
     0
176
     1
290
     0
176
     1
290
     0
176
     1
290
     0
176
     1
290
     0
176
     1
 90
       50
176
     1
 40
0.0
176
     1
 40
1.0
176
     1
 90
        0
176
     1
 62
    18
420
        0
176
     1
 90
       50
176
     1
 90
        3
176
     1
 62
     5
420
      255
176
     1
290
     0
176
     1
 90
       50
176
     1
 90
       50
176
     1
 90
       50
176
     1
290
     0
176
     1
 90
       50
176
     1
 62
   256
176
     0
 40
1.0
176
     0
 90
        2
176
     1
  1
strokes_ogs.tif
176
     1
290
     0
176
     1
 40
1.0
176
     1
 40
1.0
176
     1
  0
VISUALSTYLE
  5
13F
102
{ACAD_REACTORS
330
127
102
}
330
127
100
AcDbVisualStyle
  2
Shaded
 70
    27
177
     3
291
     0
 70
    58
 90
        2
176
     1
 90
        2
176
     1
 90
        1
176
     1
 90
        2
176
     1
 40
0.6
176
     1
 40
30.0
176
     1
 62
     7
420
 16777215
176
     1
 90
        0
176
     1
 90
        4
176
     1
 62
     7
176
     1
 62
   257
176
     1
 90
        1
176
     1
 90
        1
176
     1
 40
1.0
176
     1
 90
        8
176
     1
 62
   257
176
     1
 40
1.0
176
     1
 90
        1
176
     1
 90
        6
176
     1
 90
        2
176
     1
 62
     8
420
  7895160
176
     1
 90
        3
176
     1
 90
        0
176
     1
 90
        0
176
     1
290
     0
176
     1
 90
        5
176
     1
 40
0.0
176
     1
 90
        0
176
     1
290
     0
176
     1
290
     1
176
     1
290
     1
176
     1
290
     0
176
     1
290
     0
176
     1
290
     0
176
     1
290
     0
176
     1
290
     0
176
     1
290
     0
176
     1
 90
       50
176
     1
 40
0.0
176
     1
 40
1.0
176
     1
 90
        0
176
     1
 62
    18
420
        0
176
     1
 90
       50
176
     1
 90
        3
176
     1
 62
     5
420
      255
176
     1
290
     0
176
     1
 90
       50
176
     1
 90
       50
176
     1
 90
       50
176
     1
290
     0
176
     1
 90
       50
176
     1
 62
   256
176
     0
 40
1.0
176
     0
 90
        2
176
     1
  1
strokes_ogs.tif
176
     1
290
     0
176
     1
 40
1.0
176
     1
 40
1.0
176
     1
  0
VISUALSTYLE
  5
13E
102
{ACAD_REACTORS
330
127
102
}
330
127
100
AcDbVisualStyle
  2
Shaded with edges
 70
    26
177
     3
291
     0
 70
    58
 90
        2
176
     1
 90
        2
176
     1
 90
        1
176
     1
 90
        2
176
     1
 40
0.6
176
     1
 40
30.0
176
     1
 62
     7
420
 16777215
176
     1
 90
        1
176
     1
 90
       10
176
     1
 62
     7
176
     1
 62
   257
176
     1
 90
        2
176
     1
 90
        1
176
     1
 40
1.0
176
     1
 90
        8
176
     1
 62
   257
176
     1
 40
1.0
176
     1
 90
        1
176
     1
 90
        6
176
     1
 90
        2
176
     1
 62
     7
176
     1
 90
        3
176
     1
 90
        0
176
     1
 90
        0
176
     1
290
     0
176
     1
 90
        5
176
     1
 40
0.0
176
     1
 90
        0
176
     1
290
     0
176
     1
290
     1
176
     1
290
     1
176
     1
290
     0
176
     1
290
     0
176
     1
290
     0
176
     1
290
     0
176
     1
290
     0
176
     1
290
     0
176
     1
 90
       50
176
     1
 40
0.0
176
     1
 40
1.0
176
     1
 90
        0
176
     1
 62
    18
420
        0
176
     1
 90
       50
176
     1
 90
        3
176
     1
 62
     5
420
      255
176
     1
290
     0
176
     1
 90
       50
176
     1
 90
       50
176
     1
 90
       50
176
     1
290
     0
176
     1
 90
       50
176
     1
 62
   256
176
     0
 40
1.0
176
     0
 90
        2
176
     1
  1
strokes_ogs.tif
176
     1
290
     0
176
     1
 40
1.0
176
     1
 40
1.0
176
     1
  0
VISUALSTYLE
  5
13B
102
{ACAD_REACTORS
330
127
102
}
330
127
100
AcDbVisualStyle
  2
Shades of Gray
 70
    23
177
     3
291
     0
 70
    58
 90
        2
176
     1
 90
        2
176
     1
 90
        3
176
     1
 90
        0
176
     1
 40
0.6
176
     1
 40
30.0
176
     1
 62
     7
420
 16777215
176
     1
 90
        2
176
     1
 90
        2
176
     1
 62
     7
176
     1
 62
     7
176
     1
 90
        1
176
     1
 90
        1
176
     1
 40
40.0
176
     1
 90
        8
176
     1
 62
     7
176
     1
 40
1.0
176
     1
 90
        1
176
     1
 90
        6
176
     1
 90
        2
176
     1
 62
     7
176
     1
 90
        3
176
     1
 90
        0
176
     1
 90
        0
176
     1
290
     0
176
     1
 90
        1
176
     1
 40
0.0
176
     1
 90
        0
176
     1
290
     0
176
     1
290
     1
176
     1
290
     1
176
     1
290
     0
176
     1
290
     0
176
     1
290
     0
176
     1
290
     0
176
     1
290
     0
176
     1
290
     0
176
     1
 90
       50
176
     1
 40
0.0
176
     1
 40
1.0
176
     1
 90
        0
176
     1
 62
    18
420
        0
176
     1
 90
       50
176
     1
 90
        3
176
     1
 62
     5
420
      255
176
     1
290
     0
176
     1
 90
       50
176
     1
 90
       50
176
     1
 90
       50
176
     1
290
     0
176
     1
 90
       50
176
     1
 62
   256
176
     0
 40
1.0
176
     0
 90
        2
176
     1
  1
strokes_ogs.tif
176
     1
290
     0
176
     1
 40
1.0
176
     1
 40
1.0
176
     1
  0
VISUALSTYLE
  5
13C
102
{ACAD_REACTORS
330
127
102
}
330
127
100
AcDbVisualStyle
  2
Sketchy
 70
    24
177
     3
291
     0
 70
    58
 90
        1
176
     1
 90
        2
176
     1
 90
        2
176
     1
 90
        0
176
     1
 40
0.6
176
     1
 40
30.0
176
     1
 62
     7
420
 16777215
176
     1
 90
        2
176
     1
 90
        2
176
     1
 62
     7
176
     1
 62
     7
176
     1
 90
        1
176
     1
 90
        1
176
     1
 40
40.0
176
     1
 90
       11
176
     1
 62
     7
176
     1
 40
1.0
176
     1
 90
        1
176
     1
 90
        6
176
     1
 90
        2
176
     1
 62
     7
176
     1
 90
        6
176
     1
 90
        0
176
     1
 90
        0
176
     1
290
     0
176
     1
 90
        1
176
     1
 40
0.0
176
     1
 90
        0
176
     1
290
     0
176
     1
290
     1
176
     1
290
     1
176
     1
290
     0
176
     1
290
     0
176
     1
290
     0
176
     1
290
     0
176
     1
290
     0
176
     1
290
     0
176
     1
 90
       50
176
     1
 40
0.0
176
     1
 40
1.0
176
     1
 90
        0
176
     1
 62
    18
420
        0
176
     1
 90
       50
176
     1
 90
        3
176
     1
 62
     5
420
      255
176
     1
290
     0
176
     1
 90
       50
176
     1
 90
       50
176
     1
 90
       50
176
     1
290
     0
176
     1
 90
       50
176
     1
 62
   256
176
     0
 40
1.0
176
     0
 90
        2
176
     1
  1
strokes_ogs.tif
176
     1
290
     0
176
     1
 40
1.0
176
     1
 40
1.0
176
     1
  0
VISUALSTYLE
  5
134
102
{ACAD_REACTORS
330
127
102
}
330
127
100
AcDbVisualStyle
  2
Thicken
 70
    13
177
     3
291
     1
 70
    58
 90
        2
176
     1
 90
        2
176
     1
 90
        0
176
     1
 90
        0
176
     1
 40
0.6
176
     1
 40
30.0
176
     1
 62
     7
420
 16777215
176
     1
 90
        1
176
     1
 90
        4
176
     1
 62
     7
176
     1
 62
   257
176
     1
 90
        1
176
     1
 90
        1
176
     1
 40
1.0
176
     1
 90
       12
176
     1
 62
     7
176
     1
 40
1.0
176
     1
 90
        1
176
     1
 90
        6
176
     1
 90
        2
176
     1
 62
     7
176
     1
 90
        5
176
     1
 90
        0
176
     1
 90
        0
176
     1
290
     0
176
     1
 90
        1
176
     1
 40
0.0
176
     1
 90
        0
176
     1
290
     0
176
     1
290
     1
176
     1
290
     1
176
     1
290
     0
176
     1
290
     0
176
     1
290
     0
176
     1
290
     0
176
     1
290
     0
176
     1
290
     0
176
     1
 90
       50
176
     1
 40
0.0
176
     1
 40
1.0
176
     1
 90
        0
176
     1
 62
    18
420
        0
176
     1
 90
       50
176
     1
 90
        3
176
     1
 62
     5
420
      255
176
     1
290
     0
176
     1
 90
       50
176
     1
 90
       50
176
     1
 90
       50
176
     1
290
     0
176
     1
 90
       50
176
     1
 62
   256
176
     0
 40
1.0
176
     0
 90
        2
176
     1
  1
strokes_ogs.tif
176
     1
290
     0
176
     1
 40
1.0
176
     1
 40
1.0
176
     1
  0
VISUALSTYLE
  5
12D
102
{ACAD_REACTORS
330
127
102
}
330
127
100
AcDbVisualStyle
  2
Wireframe
 70
     5
177
     3
291
     0
 70
    58
 90
        0
176
     1
 90
        2
176
     1
 90
        0
176
     1
 90
        0
176
     1
 40
0.6
176
     1
 40
30.0
176
     1
 62
     7
420
 16777215
176
     1
 90
        1
176
     1
 90
        4
176
     1
 62
     7
176
     1
 62
   257
176
     1
 90
        1
176
     1
 90
        1
176
     1
 40
1.0
176
     1
 90
        0
176
     1
 62
   257
176
     1
 40
1.0
176
     1
 90
        1
176
     1
 90
        6
176
     1
 90
        2
176
     1
 62
     7
176
     1
 90
        3
176
     1
 90
        0
176
     1
 90
        0
176
     1
290
     0
176
     1
 90
        1
176
     1
 40
0.0
176
     1
 90
        0
176
     1
290
     0
176
     1
290
     1
176
     1
290
     1
176
     1
290
     0
176
     1
290
     0
176
     1
290
     0
176
     1
290
     0
176
     1
290
     0
176
     1
290
     0
176
     1
 90
       50
176
     1
 40
0.0
176
     1
 40
1.0
176
     1
 90
        0
176
     1
 62
    18
420
        0
176
     1
 90
       50
176
     1
 90
        3
176
     1
 62
     5
420
      255
176
     1
290
     0
176
     1
 90
       50
176
     1
 90
       50
176
     1
 90
       50
176
     1
290
     0
176
     1
 90
       50
176
     1
 62
   256
176
     0
 40
1.0
176
     0
 90
        2
176
     1
  1
strokes_ogs.tif
176
     1
290
     0
176
     1
 40
1.0
176
     1
 40
1.0
176
     1
  0
VISUALSTYLE
  5
13D
102
{ACAD_REACTORS
330
127
102
}
330
127
100
AcDbVisualStyle
  2
X-Ray
 70
    25
177
     3
291
     0
 70
    58
 90
        2
176
     1
 90
        2
176
     1
 90
        1
176
     1
 90
        1
176
     1
 40
0.5
176
     1
 40
30.0
176
     1
 62
     7
420
 16777215
176
     1
 90
        1
176
     1
 90
        0
176
     1
 62
     7
176
     1
 62
   257
176
     1
 90
        1
176
     1
 90
        1
176
     1
 40
1.0
176
     1
 90
        8
176
     1
 62
     7
176
     1
 40
1.0
176
     1
 90
        1
176
     1
 90
        6
176
     1
 90
        2
176
     1
 62
     7
176
     1
 90
        3
176
     1
 90
        0
176
     1
 90
        0
176
     1
290
     0
176
     1
 90
       13
176
     1
 40
0.0
176
     1
 90
        0
176
     1
290
     0
176
     1
290
     1
176
     1
290
     1
176
     1
290
     0
176
     1
290
     0
176
     1
290
     0
176
     1
290
     0
176
     1
290
     0
176
     1
290
     0
176
     1
 90
       50
176
     1
 40
0.0
176
     1
 40
1.0
176
     1
 90
        0
176
     1
 62
    18
420
        0
176
     1
 90
       50
176
     1
 90
        3
176
     1
 62
     5
420
      255
176
     1
290
     0
176
     1
 90
       50
176
     1
 90
       50
176
     1
 90
       50
176
     1
290
     0
176
     1
 90
       50
176
     1
 62
   256
176
     0
 40
1.0
176
     0
 90
        2
176
     1
  1
strokes_ogs.tif
176
     1
290
     0
176
     1
 40
1.0
176
     1
 40
1.0
176
     1
  0
DICTIONARYVAR
  5
14C
102
{ACAD_REACTORS
330
14B
102
}
330
14B
100
DictionaryVariables
280
     0
  1
1:1
  0
DICTIONARYVAR
  5
14E
102
{ACAD_REACTORS
330
14B
102
}
330
14B
100
DictionaryVariables
280
     0
  1
Standard
  0
DICTIONARYVAR
  5
14D
102
{ACAD_REACTORS
330
14B
102
}
330
14B
100
DictionaryVariables
280
     0
  1
Standard
  0
DICTIONARYVAR
  5
14F
102
{ACAD_REACTORS
330
14B
102
}
330
14B
100
DictionaryVariables
280
     0
  1
0
  0
DICTIONARY
  5
152
330
145
100
AcDbDictionary
280
     1
281
     1
  3
ACAD_ROUNDTRIP_2008_TABLESTYLE_CELLSTYLEMAP
360
153
  0
CELLSTYLEMAP
  5
153
102
{ACAD_REACTORS
330
152
102
}
330
152
100
AcDbCellStyleMap
 90
        3
300
CELLSTYLE
  1
TABLEFORMAT_BEGIN
 90
        5
170
     1
 91
        0
 92
    32768
 62
   257
 93
        1
300
CONTENTFORMAT
  1
CONTENTFORMAT_BEGIN
 90
        0
 91
        0
 92
        4
 93
        0
300

 40
0.0
140
1.0
 94
        5
 62
     0
340
11
144
6.0
309
CONTENTFORMAT_END
171
     1
301
MARGIN
  1
CELLMARGIN_BEGIN
 40
1.5
 40
1.5
 40
1.5
 40
1.5
 40
1.5
 40
1.5
309
CELLMARGIN_END
 94
        6
 95
        1
302
GRIDFORMAT
  1
GRIDFORMAT_BEGIN
 90
        0
 91
        1
 62
     0
 92
       -2
340
14
 93
        0
 40
0.045
309
GRIDFORMAT_END
 95
        2
302
GRIDFORMAT
  1
GRIDFORMAT_BEGIN
 90
        0
 91
        1
 62
     0
 92
       -2
340
14
 93
        0
 40
0.045
309
GRIDFORMAT_END
 95
        4
302
GRIDFORMAT
  1
GRIDFORMAT_BEGIN
 90
        0
 91
        1
 62
     0
 92
       -2
340
14
 93
        0
 40
0.045
309
GRIDFORMAT_END
 95
        8
302
GRIDFORMAT
  1
GRIDFORMAT_BEGIN
 90
        0
 91
        1
 62
     0
 92
       -2
340
14
 93
        0
 40
0.045
309
GRIDFORMAT_END
 95
       16
302
GRIDFORMAT
  1
GRIDFORMAT_BEGIN
 90
        0
 91
        1
 62
     0
 92
       -2
340
14
 93
        0
 40
0.045
309
GRIDFORMAT_END
 95
       32
302
GRIDFORMAT
  1
GRIDFORMAT_BEGIN
 90
        0
 91
        1
 62
     0
 92
       -2
340
14
 93
        0
 40
0.045
309
GRIDFORMAT_END
309
TABLEFORMAT_END
  1
CELLSTYLE_BEGIN
 90
        1
 91
        1
300
_TITLE
309
CELLSTYLE_END
300
CELLSTYLE
  1
TABLEFORMAT_BEGIN
 90
        5
170
     1
 91
        0
 92
        0
 62
   257
 93
        1
300
CONTENTFORMAT
  1
CONTENTFORMAT_BEGIN
 90
        0
 91
        0
 92
        4
 93
        0
300

 40
0.0
140
1.0
 94
        5
 62
     0
340
11
144
4.5
309
CONTENTFORMAT_END
171
     1
301
MARGIN
  1
CELLMARGIN_BEGIN
 40
1.5
 40
1.5
 40
1.5
 40
1.5
 40
1.5
 40
1.5
309
CELLMARGIN_END
 94
        6
 95
        1
302
GRIDFORMAT
  1
GRIDFORMAT_BEGIN
 90
        0
 91
        1
 62
     0
 92
       -2
340
14
 93
        0
 40
0.045
309
GRIDFORMAT_END
 95
        2
302
GRIDFORMAT
  1
GRIDFORMAT_BEGIN
 90
        0
 91
        1
 62
     0
 92
       -2
340
14
 93
        0
 40
0.045
309
GRIDFORMAT_END
 95
        4
302
GRIDFORMAT
  1
GRIDFORMAT_BEGIN
 90
        0
 91
        1
 62
     0
 92
       -2
340
14
 93
        0
 40
0.045
309
GRIDFORMAT_END
 95
        8
302
GRIDFORMAT
  1
GRIDFORMAT_BEGIN
 90
        0
 91
        1
 62
     0
 92
       -2
340
14
 93
        0
 40
0.045
309
GRIDFORMAT_END
 95
       16
302
GRIDFORMAT
  1
GRIDFORMAT_BEGIN
 90
        0
 91
        1
 62
     0
 92
       -2
340
14
 93
        0
 40
0.045
309
GRIDFORMAT_END
 95
       32
302
GRIDFORMAT
  1
GRIDFORMAT_BEGIN
 90
        0
 91
        1
 62
     0
 92
       -2
340
14
 93
        0
 40
0.045
309
GRIDFORMAT_END
309
TABLEFORMAT_END
  1
CELLSTYLE_BEGIN
 90
        2
 91
        1
300
_HEADER
309
CELLSTYLE_END
300
CELLSTYLE
  1
TABLEFORMAT_BEGIN
 90
        5
170
     1
 91
        0
 92
        0
 62
   257
 93
        1
300
CONTENTFORMAT
  1
CONTENTFORMAT_BEGIN
 90
        0
 91
        0
 92
        4
 93
        0
300

 40
0.0
140
1.0
 94
        2
 62
     0
340
11
144
4.5
309
CONTENTFORMAT_END
171
     1
301
MARGIN
  1
CELLMARGIN_BEGIN
 40
1.5
 40
1.5
 40
1.5
 40
1.5
 40
1.5
 40
1.5
309
CELLMARGIN_END
 94
        6
 95
        1
302
GRIDFORMAT
  1
GRIDFORMAT_BEGIN
 90
        0
 91
        1
 62
     0
 92
       -2
340
14
 93
        0
 40
0.045
309
GRIDFORMAT_END
 95
        2
302
GRIDFORMAT
  1
GRIDFORMAT_BEGIN
 90
        0
 91
        1
 62
     0
 92
       -2
340
14
 93
        0
 40
0.045
309
GRIDFORMAT_END
 95
        4
302
GRIDFORMAT
  1
GRIDFORMAT_BEGIN
 90
        0
 91
        1
 62
     0
 92
       -2
340
14
 93
        0
 40
0.045
309
GRIDFORMAT_END
 95
        8
302
GRIDFORMAT
  1
GRIDFORMAT_BEGIN
 90
        0
 91
        1
 62
     0
 92
       -2
340
14
 93
        0
 40
0.045
309
GRIDFORMAT_END
 95
       16
302
GRIDFORMAT
  1
GRIDFORMAT_BEGIN
 90
        0
 91
        1
 62
     0
 92
       -2
340
14
 93
        0
 40
0.045
309
GRIDFORMAT_END
 95
       32
302
GRIDFORMAT
  1
GRIDFORMAT_BEGIN
 90
        0
 91
        1
 62
     0
 92
       -2
340
14
 93
        0
 40
0.045
309
GRIDFORMAT_END
309
TABLEFORMAT_END
  1
CELLSTYLE_BEGIN
 90
        3
 91
        2
300
_DATA
309
CELLSTYLE_END
  0
ENDSEC
  0
EOF
