  0
SECTION
  2
HEADER
  9
$ACADVER
  1
AC1009
  9
$DWGCODEPAGE
  3
ansi_1252
  9
$INSBASE
 10
0.0
 20
0.0
 30
0.0
  9
$EXTMIN
 10
0.0
 20
0.0
 30
0.0
  9
$EXTMAX
 10
841.0
 20
594.0
 30
0.0
  9
$LIMMIN
 10
0.0
 20
0.0
  9
$LIMMAX
 10
841.0
 20
594.0
  9
$ORTHOMODE
 70
     0
  9
$REGENMODE
 70
     1
  9
$FILLMODE
 70
     1
  9
$QTEXTMODE
 70
     0
  9
$MIRRTEXT
 70
     1
  9
$DRAGMODE
 70
     2
  9
$LTSCALE
 40
1.0
  9
$OSMODE
 70
    37
  9
$ATTMODE
 70
     1
  9
$TEXTSIZE
 40
10.0
  9
$TRACEWID
 40
1.0
  9
$TEXTSTYLE
  7
STANDARD
  9
$CLAYER
  8
0
  9
$CELTYPE
  6
BYLAYER
  9
$CECOLOR
 62
   256
  9
$DIMSCALE
 40
1.0
  9
$DIMASZ
 40
2.5
  9
$DIMEXO
 40
0.0
  9
$DIMDLI
 40
3.75
  9
$DIMRND
 40
0.0
  9
$DIMDLE
 40
0.0
  9
$DIMEXE
 40
1.0
  9
$DIMTP
 40
0.0
  9
$DIMTM
 40
0.0
  9
$DIMTXT
 40
3.5
  9
$DIMCEN
 40
2.5
  9
$DIMTSZ
 40
0.0
  9
$DIMTOL
 70
     0
  9
$DIMLIM
 70
     0
  9
$DIMTIH
 70
     1
  9
$DIMTOH
 70
     1
  9
$DIMSE1
 70
     0
  9
$DIMSE2
 70
     0
  9
$DIMTAD
 70
     1
  9
$DIMZIN
 70
     0
  9
$DIMBLK
  1

  9
$DIMASO
 70
     1
  9
$DIMSHO
 70
     1
  9
$DIMPOST
  1

  9
$DIMAPOST
  1

  9
$DIMALT
 70
     0
  9
$DIMALTD
 70
     3
  9
$DIMALTF
 40
0.0393700787
  9
$DIMLFAC
 40
2.0
  9
$DIMTOFL
 70
     1
  9
$DIMTVP
 40
0.0
  9
$DIMTIX
 70
     0
  9
$DIMSOXD
 70
     0
  9
$DIMSAH
 70
     0
  9
$DIMBLK1
  1

  9
$DIMBLK2
  1

  9
$DIMSTYLE
  2
ISO-25
  9
$DIMCLRD
 70
     0
  9
$DIMCLRE
 70
     0
  9
$DIMCLRT
 70
     0
  9
$DIMTFAC
 40
1.0
  9
$DIMGAP
 40
1.5
  9
$LUNITS
 70
     2
  9
$LUPREC
 70
     2
  9
$SKETCHINC
 40
1.0
  9
$FILLETRAD
 40
10.0
  9
$AUNITS
 70
     0
  9
$AUPREC
 70
     2
  9
$MENU
  1
.
  9
$ELEVATION
 40
0.0
  9
$PELEVATION
 40
0.0
  9
$THICKNESS
 40
0.0
  9
$LIMCHECK
 70
     0
  9
$CHAMFERA
 40
0.0
  9
$CHAMFERB
 40
0.0
  9
$SKPOLY
 70
     0
  9
$TDCREATE
 40
2458702.559777523
  9
$TDUPDATE
 40
2458702.559777894
  9
$TDINDWG
 40
0.0000000116
  9
$TDUSRTIMER
 40
0.0000000116
  9
$USRTIMER
 70
     1
  9
$ANGBASE
 50
0.0
  9
$ANGDIR
 70
     0
  9
$PDMODE
 70
     0
  9
$PDSIZE
 40
-1.0
  9
$PLINEWID
 40
0.0
  9
$COORDS
 70
     1
  9
$SPLFRAME
 70
     0
  9
$SPLINETYPE
 70
     6
  9
$SPLINESEGS
 70
     8
  9
$ATTDIA
 70
     0
  9
$ATTREQ
 70
     1
  9
$HANDLING
 70
     1
  9
$HANDSEED
  5
33A
  9
$SURFTAB1
 70
     6
  9
$SURFTAB2
 70
     6
  9
$SURFTYPE
 70
     6
  9
$SURFU
 70
     6
  9
$SURFV
 70
     6
  9
$UCSNAME
  2

  9
$UCSORG
 10
0.0
 20
0.0
 30
0.0
  9
$UCSXDIR
 10
1.0
 20
0.0
 30
0.0
  9
$UCSYDIR
 10
0.0
 20
1.0
 30
0.0
  9
$PUCSNAME
  2

  9
$PUCSORG
 10
0.0
 20
0.0
 30
0.0
  9
$PUCSXDIR
 10
1.0
 20
0.0
 30
0.0
  9
$PUCSYDIR
 10
0.0
 20
1.0
 30
0.0
  9
$USERI1
 70
     0
  9
$USERI2
 70
     0
  9
$USERI3
 70
     0
  9
$USERI4
 70
     0
  9
$USERI5
 70
     0
  9
$USERR1
 40
0.0
  9
$USERR2
 40
0.0
  9
$USERR3
 40
0.0
  9
$USERR4
 40
0.0
  9
$USERR5
 40
0.0
  9
$WORLDVIEW
 70
     1
  9
$SHADEDGE
 70
     3
  9
$SHADEDIF
 70
    70
  9
$TILEMODE
 70
     1
  9
$MAXACTVP
 70
    64
  9
$PLIMCHECK
 70
     0
  9
$PEXTMIN
 10
1.0000000000E+20
 20
1.0000000000E+20
 30
1.0000000000E+20
  9
$PEXTMAX
 10
-1.0000000000E+20
 20
-1.0000000000E+20
 30
-1.0000000000E+20
  9
$PLIMMIN
 10
0.0
 20
0.0
  9
$PLIMMAX
 10
420.0
 20
297.0
  9
$UNITMODE
 70
     0
  9
$VISRETAIN
 70
     1
  9
$PLINEGEN
 70
     0
  9
$PSLTSCALE
 70
     1
  0
ENDSEC
  0
SECTION
  2
TABLES
  0
TABLE
  2
VPORT
 70
     1
  0
VPORT
  2
*ACTIVE
 70
     0
 10
0.0
 20
0.0
 11
1.0
 21
1.0
 12
420.5
 22
297.0
 13
0.0
 23
0.0
 14
10.0
 24
10.0
 15
10.0
 25
10.0
 16
0.0
 26
0.0
 36
1.0
 17
0.0
 27
0.0
 37
0.0
 40
594.0
 41
1.4158249158
 42
50.0
 43
0.0
 44
0.0
 50
0.0
 51
0.0
 71
     0
 72
  2000
 73
     1
 74
     3
 75
     0
 76
     0
 77
     0
 78
     0
  0
ENDTAB
  0
TABLE
  2
LTYPE
 70
     6
  0
LTYPE
  2
CONTINUOUS
 70
     0
  3
Solid line
 72
    65
 73
     0
 40
0.0
  0
LTYPE
  2
HIDDEN
 70
     0
  3
Hidden __ __ __ __ __ __ __ __ __ __ __ __ __ __
 72
    65
 73
     2
 40
1.905
 49
1.27
 49
-0.635
  0
LTYPE
  2
PHANTOM
 70
     0
  3
Phantom ______  __  __  ______  __  __  ______
 72
    65
 73
     6
 40
12.7
 49
6.35
 49
-1.27
 49
1.27
 49
-1.27
 49
1.27
 49
-1.27
  0
LTYPE
  2
CENTER
 70
     0
  3
Center ____ _ ____ _ ____ _ ____ _ ____ _ ____
 72
    65
 73
     4
 40
10.16
 49
6.35
 49
-1.27
 49
1.27
 49
-1.27
  0
LTYPE
  2
CENTERX2
 70
     0
  3
Center (2x) ________  __  ________  __  _____
 72
    65
 73
     4
 40
20.32
 49
12.7
 49
-2.54
 49
2.54
 49
-2.54
  0
LTYPE
  2
DOT2
 70
     0
  3
Dot (.5x) ........................................
 72
    65
 73
     2
 40
0.635
 49
0.0
 49
-0.635
  0
ENDTAB
  0
TABLE
  2
LAYER
 70
     1
  0
LAYER
  2
0
 70
     0
 62
     7
  6
CONTINUOUS
  0
ENDTAB
  0
TABLE
  2
STYLE
 70
     1
  0
STYLE
  2
STANDARD
 70
     0
 40
0.0
 41
1.0
 50
0.0
 71
     0
 42
10.0
  3
txt
  4

  0
ENDTAB
  0
TABLE
  2
VIEW
 70
     0
  0
ENDTAB
  0
TABLE
  2
UCS
 70
     0
  0
ENDTAB
  0
TABLE
  2
APPID
 70
     1
  0
APPID
  2
ACAD
 70
     0
  0
ENDTAB
  0
TABLE
  2
DIMSTYLE
 70
     2
  0
DIMSTYLE
  2
ISO-25
 70
     0
  3

  4

  5

  6

  7

 40
1.0
 41
2.5
 42
0.625
 43
3.75
 44
1.25
 45
0.0
 46
0.0
 47
0.0
 48
0.0
140
2.5
141
2.5
142
0.0
143
0.0393700787
144
1.0
145
0.0
146
1.0
147
0.625
 71
     0
 72
     0
 73
     0
 74
     0
 75
     0
 76
     0
 77
     1
 78
     8
170
     0
171
     3
172
     1
173
     0
174
     0
175
     0
176
     0
177
     0
178
     0
  0
DIMSTYLE
  2
SLDDIMSTYLE0
 70
     0
  3

  4

  5

  6

  7

 40
1.0
 41
2.5
 42
0.0625
 43
0.38
 44
0.0
 45
0.000000001
 46
0.0
 47
0.0
 48
0.0
140
6.0
141
0.09
142
0.0
143
25.4
144
2.0
145
0.0
146
1.0
147
1.5
 71
     0
 72
     0
 73
     0
 74
     0
 75
     0
 76
     0
 77
     1
 78
    12
170
     0
171
     2
172
     0
173
     1
174
     0
175
     0
176
     0
177
     0
178
     0
  0
ENDTAB
  0
ENDSEC
  0
SECTION
  2
BLOCKS
  0
BLOCK
  8
0
  2
$MODEL_SPACE
 70
     0
 10
0.0
 20
0.0
 30
0.0
  3
$MODEL_SPACE
  1

  0
ENDBLK
  5
21
  8
0
  0
BLOCK
 67
     1
  8
0
  2
$PAPER_SPACE
 70
     0
 10
0.0
 20
0.0
 30
0.0
  3
$PAPER_SPACE
  1

  0
ENDBLK
  5
1D
 67
     1
  8
0
  0
BLOCK
  8
0
  2
_D
 70
     0
 10
0.0
 20
0.0
 30
0.0
  3
_D
  1

  0
SOLID
  5
7A
  8
0
  6
CONTINUOUS
 62
     7
 10
42.7614395004
 20
152.0299240879
 30
0.0
 11
42.4614395004
 21
149.5299240879
 31
0.0
 12
43.0614395004
 22
149.5299240879
 32
0.0
 13
43.0614395004
 23
149.5299240879
 33
0.0
  0
SOLID
  5
7B
  8
0
  6
CONTINUOUS
 62
     7
 10
42.7614395004
 20
52.0299240879
 30
0.0
 11
43.0614395004
 21
54.5299240879
 31
0.0
 12
42.4614395004
 22
54.5299240879
 32
0.0
 13
42.4614395004
 23
54.5299240879
 33
0.0
  0
LINE
  5
7C
  8
0
  6
CONTINUOUS
 62
     7
 10
56.6850079902
 20
152.0299240879
 30
0.0
 11
41.7614395004
 21
152.0299240879
 31
0.0
  0
LINE
  5
7D
  8
0
  6
CONTINUOUS
 62
     7
 10
56.6850079902
 20
52.0299240879
 30
0.0
 11
41.7614395004
 21
52.0299240879
 31
0.0
  0
LINE
  5
7E
  8
0
  6
CONTINUOUS
 62
     7
 10
42.7614395004
 20
152.0299240879
 30
0.0
 11
42.7614395004
 21
52.0299240879
 31
0.0
  0
TEXT
  5
7F
  8
0
  6
CONTINUOUS
 62
     7
 10
40.6418793617
 20
94.3680541463
 30
0.0
 40
6.0
  1
100
 50
90.0
 41
0.7
 11
42.7614397332
 21
94.3680541463
 31
0.0
 73
     1
  0
TEXT
  5
80
  8
0
  6
CONTINUOUS
 62
     7
 10
40.6418793617
 20
105.7430548466
 30
0.0
 40
6.0
  1
mm
 50
90.0
 41
0.7
 11
42.7614397332
 21
105.7430548466
 31
0.0
 73
     1
  0
ENDBLK
  5
79
  8
0
  0
BLOCK
  8
0
  2
_D_1
 70
     0
 10
0.0
 20
0.0
 30
0.0
  3
_D_1
  1

  0
SOLID
  5
85
  8
0
  6
CONTINUOUS
 62
     7
 10
56.6850079902
 20
38.4602342313
 30
0.0
 11
59.1850079902
 21
38.1602342313
 31
0.0
 12
59.1850079902
 22
38.7602342313
 32
0.0
 13
59.1850079902
 23
38.7602342313
 33
0.0
  0
SOLID
  5
86
  8
0
  6
CONTINUOUS
 62
     7
 10
156.6850079902
 20
38.4602342313
 30
0.0
 11
154.1850079902
 21
38.7602342313
 31
0.0
 12
154.1850079902
 22
38.1602342313
 32
0.0
 13
154.1850079902
 23
38.1602342313
 33
0.0
  0
LINE
  5
87
  8
0
  6
CONTINUOUS
 62
     7
 10
56.6850079902
 20
52.0299240879
 30
0.0
 11
56.6850079902
 21
37.4602342313
 31
0.0
  0
LINE
  5
88
  8
0
  6
CONTINUOUS
 62
     7
 10
156.6850079902
 20
52.0299240879
 30
0.0
 11
156.6850079902
 21
37.4602342313
 31
0.0
  0
LINE
  5
89
  8
0
  6
CONTINUOUS
 62
     7
 10
56.6850079902
 20
38.4602342313
 30
0.0
 11
156.6850079902
 21
38.4602342313
 31
0.0
  0
TEXT
  5
8A
  8
0
  6
CONTINUOUS
 62
     7
 10
93.9626484861
 20
40.57979437
 30
0.0
 40
6.0
  1
100
 41
0.7
 11
93.9626484861
 21
38.4602339984
 31
0.0
 73
     1
  0
TEXT
  5
8B
  8
0
  6
CONTINUOUS
 62
     7
 10
105.3376491864
 20
40.57979437
 30
0.0
 40
6.0
  1
mm
 41
0.7
 11
105.3376491864
 21
38.4602339984
 31
0.0
 73
     1
  0
ENDBLK
  5
84
  8
0
  0
ENDSEC
  0
SECTION
  2
ENTITIES
  0
LINE
  5
73
  8
0
  6
CONTINUOUS
 62
     7
 10
56.6850079902
 20
152.0299240879
 30
0.0
 11
56.6850079902
 21
52.0299240879
 31
0.0
  0
LINE
  5
74
  8
0
  6
CONTINUOUS
 62
     7
 10
56.6850079902
 20
52.0299240879
 30
0.0
 11
156.6850079902
 21
52.0299240879
 31
0.0
  0
DIMENSION
  5
75
  8
0
  6
CONTINUOUS
 62
     7
  2
_D
 10
42.7614395004
 20
52.0299240879
 30
0.0
 11
42.7614395004
 21
105.4472211621
 31
0.0
 70
   160
  1
<>mm
  3
SLDDIMSTYLE0
 13
56.6850079902
 23
152.0299240879
 33
0.0
 14
56.6850079902
 24
52.0299240879
 34
0.0
 50
90.0
  0
DIMENSION
  5
81
  8
0
  6
CONTINUOUS
 62
     7
  2
_D_1
 10
156.6850079902
 20
38.4602342313
 30
0.0
 11
105.0418155019
 21
38.4602342313
 31
0.0
 70
   160
  1
<>mm
  3
SLDDIMSTYLE0
 13
56.6850079902
 23
52.0299240879
 33
0.0
 14
156.6850079902
 24
52.0299240879
 34
0.0
  0
TEXT
  5
8C
  8
0
  6
CONTINUOUS
 62
     7
 10
664.658399795
 20
39.0761681714
 30
0.0
 40
10.0
  1
KLUDI GmbH & Co KG
 41
0.6222222222
 11
664.658399795
 21
35.5435675522
 31
0.0
 73
     1
  0
TEXT
  5
8D
  8
0
  6
CONTINUOUS
 62
     7
 10
349.0758972247
 20
39.0761681714
 30
0.0
 40
10.0
  1
20 146 05 20
 41
0.6125
 11
349.0758972247
 21
35.5435675522
 31
0.0
 73
     1
  0
ARC
  5
8E
  8
0
  6
CONTINUOUS
 62
     7
 10
245.7404977022
 20
408.5700867556
 30
0.0
 40
20.26604252740441
 50
249.6514666336
 51
271.5804393125
  0
POLYLINE
  5
8F
  8
0
  6
CONTINUOUS
 62
     7
 66
     1
 10
0.0
 20
0.0
 30
0.0
 70
   128
  0
VERTEX
  5
291
  8
0
  6
CONTINUOUS
 62
     7
 10
246.2994426902
 20
388.3117536499
 30
0.0
  0
VERTEX
  5
292
  8
0
  6
CONTINUOUS
 62
     7
 10
247.2234320309
 20
388.3267814709
 30
0.0
  0
VERTEX
  5
293
  8
0
  6
CONTINUOUS
 62
     7
 10
248.9573181089
 20
388.4381937279
 30
0.0
  0
VERTEX
  5
294
  8
0
  6
CONTINUOUS
 62
     7
 10
250.6093856361
 20
388.6555010869
 30
0.0
  0
VERTEX
  5
295
  8
0
  6
CONTINUOUS
 62
     7
 10
252.1274637844
 20
388.9729628755
 30
0.0
  0
VERTEX
  5
296
  8
0
  6
CONTINUOUS
 62
     7
 10
253.4663871344
 20
389.383355756
 30
0.0
  0
VERTEX
  5
297
  8
0
  6
CONTINUOUS
 62
     7
 10
254.588215467
 20
389.8801753713
 30
0.0
  0
VERTEX
  5
298
  8
0
  6
CONTINUOUS
 62
     7
 10
254.8636932339
 20
390.0637986554
 30
0.0
  0
SEQEND
  5
331
  8
0
  6
CONTINUOUS
 62
     7
  0
LINE
  5
90
  8
0
  6
CONTINUOUS
 62
     7
 10
256.2994424667
 20
391.9951456084
 30
0.0
 11
256.2994424667
 21
410.4131205423
 31
0.0
  0
LINE
  5
91
  8
0
  6
CONTINUOUS
 62
     7
 10
236.2994410511
 20
410.4131205423
 30
0.0
 11
236.2994410511
 21
391.9951456084
 31
0.0
  0
LINE
  5
92
  8
0
  6
CONTINUOUS
 62
     7
 10
236.2994410511
 20
449.89191242
 30
0.0
 11
236.2994410511
 21
410.4131205423
 31
0.0
  0
LINE
  5
93
  8
0
  6
CONTINUOUS
 62
     7
 10
256.2994424667
 20
410.4131205423
 30
0.0
 11
256.2994424667
 21
449.89191242
 31
0.0
  0
ARC
  5
94
  8
0
  6
CONTINUOUS
 62
     7
 10
334.7994422311
 20
438.3919127412
 30
0.0
 40
7.0
 50
0.0
 51
90.0
  0
LINE
  5
95
  8
0
  6
CONTINUOUS
 62
     7
 10
334.7994432267
 20
445.3919126137
 30
0.0
 11
312.0994426724
 21
445.3919126137
 31
0.0
  0
ARC
  5
96
  8
0
  6
CONTINUOUS
 62
     7
 10
357.7994422311
 20
438.3919127412
 30
0.0
 40
7.0
 50
90.0
 51
180.0
  0
LINE
  5
97
  8
0
  6
CONTINUOUS
 62
     7
 10
341.7994387861
 20
415.6919127746
 30
0.0
 11
341.7994387861
 21
438.3919128633
 31
0.0
  0
ARC
  5
98
  8
0
  6
CONTINUOUS
 62
     7
 10
312.0994422311
 20
453.5919127412
 30
0.0
 40
0.8000000000000682
 50
90.0
 51
180.0
  0
LINE
  5
99
  8
0
  6
CONTINUOUS
 62
     7
 10
381.2994443294
 20
453.5919135852
 30
0.0
 11
381.2994443294
 21
446.1919131173
 31
0.0
  0
LINE
  5
9A
  8
0
  6
CONTINUOUS
 62
     7
 10
357.7994414087
 20
454.3919122262
 30
0.0
 11
380.4994456883
 21
454.3919122262
 31
0.0
  0
LINE
  5
9B
  8
0
  6
CONTINUOUS
 62
     7
 10
350.799442124
 20
438.3919128633
 30
0.0
 11
350.799442124
 21
415.6919127746
 31
0.0
  0
ARC
  5
9C
  8
0
  6
CONTINUOUS
 62
     7
 10
312.0994422311
 20
446.1919127412
 30
0.0
 40
0.8000000000000682
 50
180.0
 51
270.0
  0
ARC
  5
9D
  8
0
  6
CONTINUOUS
 62
     7
 10
342.5994422311
 20
415.6919127412
 30
0.0
 40
0.8000000000000114
 50
180.0
 51
270.0
  0
LINE
  5
9E
  8
0
  6
CONTINUOUS
 62
     7
 10
350.799442124
 20
484.091913928
 30
0.0
 11
350.799442124
 21
461.3919133736
 31
0.0
  0
LINE
  5
9F
  8
0
  6
CONTINUOUS
 62
     7
 10
349.999443483
 20
414.8919122709
 30
0.0
 11
342.5994448777
 21
414.8919122709
 31
0.0
  0
ARC
  5
A0
  8
0
  6
CONTINUOUS
 62
     7
 10
380.4994422311
 20
446.1919127412
 30
0.0
 40
0.8000000000000682
 50
270.0
 51
0.0
  0
ARC
  5
A1
  8
0
  6
CONTINUOUS
 62
     7
 10
380.4994422311
 20
453.5919127412
 30
0.0
 40
0.8000000000000682
 50
0.0
 51
90.0
  0
ARC
  5
A2
  8
0
  6
CONTINUOUS
 62
     7
 10
342.5994422311
 20
484.0919127412
 30
0.0
 40
0.8000000000000114
 50
90.0
 51
180.0
  0
LINE
  5
A3
  8
0
  6
CONTINUOUS
 62
     7
 10
380.4994456883
 20
445.3919126137
 30
0.0
 11
357.7994414087
 21
445.3919126137
 31
0.0
  0
LINE
  5
A4
  8
0
  6
CONTINUOUS
 62
     7
 10
311.2994440313
 20
446.1919131173
 30
0.0
 11
311.2994440313
 21
453.5919135852
 31
0.0
  0
LINE
  5
A5
  8
0
  6
CONTINUOUS
 62
     7
 10
342.5994448777
 20
484.891912569
 30
0.0
 11
349.999443483
 21
484.891912569
 31
0.0
  0
ARC
  5
A6
  8
0
  6
CONTINUOUS
 62
     7
 10
349.9994422311
 20
484.0919127412
 30
0.0
 40
0.8000000000000114
 50
0.0
 51
90.0
  0
ARC
  5
A7
  8
0
  6
CONTINUOUS
 62
     7
 10
357.7994422311
 20
461.3919127412
 30
0.0
 40
7.0
 50
180.0
 51
270.0
  0
ARC
  5
A8
  8
0
  6
CONTINUOUS
 62
     7
 10
349.9994422311
 20
415.6919127412
 30
0.0
 40
0.8000000000000114
 50
270.0
 51
0.0
  0
ARC
  5
A9
  8
0
  6
CONTINUOUS
 62
     7
 10
334.7994422311
 20
461.3919127412
 30
0.0
 40
7.0
 50
270.0
 51
0.0
  0
LINE
  5
AA
  8
0
  6
CONTINUOUS
 62
     7
 10
341.7994387861
 20
461.3919133736
 30
0.0
 11
341.7994387861
 21
484.091913928
 31
0.0
  0
LINE
  5
AB
  8
0
  6
CONTINUOUS
 62
     7
 10
312.0994426724
 20
454.3919122262
 30
0.0
 11
334.7994432267
 21
454.3919122262
 31
0.0
  0
ARC
  5
AC
  8
0
  6
CONTINUOUS
 62
     7
 10
346.2994422311
 20
449.8919127457
 30
0.0
 40
18.49999999999999
 50
194.0780386183
 51
255.9219613962
  0
ARC
  5
AD
  8
0
  6
CONTINUOUS
 62
     7
 10
346.2994422311
 20
449.8919127457
 30
0.0
 40
18.50000000000002
 50
104.0780386038
 51
165.9219614108
  0
ARC
  5
AE
  8
0
  6
CONTINUOUS
 62
     7
 10
346.2994422311
 20
449.8919127457
 30
0.0
 40
18.50000000000002
 50
14.0780385892
 51
75.9219613962
  0
ARC
  5
AF
  8
0
  6
CONTINUOUS
 62
     7
 10
346.2994422311
 20
449.8919127457
 30
0.0
 40
18.50000000000002
 50
284.0780386038
 51
345.9219613817
  0
ARC
  5
B0
  8
0
  6
CONTINUOUS
 62
     7
 10
346.2994422311
 20
449.8919127457
 30
0.0
 40
28.5
 50
189.0847202967
 51
260.9152797126
  0
ARC
  5
B1
  8
0
  6
CONTINUOUS
 62
     7
 10
346.2994422311
 20
449.8919127457
 30
0.0
 40
28.50000000000004
 50
99.0847202874
 51
170.9152797219
  0
ARC
  5
B2
  8
0
  6
CONTINUOUS
 62
     7
 10
346.2994422311
 20
449.8919127457
 30
0.0
 40
28.49999999999999
 50
9.0847202781
 51
80.9152797126
  0
ARC
  5
B3
  8
0
  6
CONTINUOUS
 62
     7
 10
346.2994422311
 20
449.8919127457
 30
0.0
 40
28.5
 50
279.0847202874
 51
350.9152797033
  0
POLYLINE
  5
B4
  8
0
  6
CONTINUOUS
 62
     7
 66
     1
 10
0.0
 20
0.0
 30
0.0
 70
   128
  0
VERTEX
  5
299
  8
0
  6
CONTINUOUS
 62
     7
 10
246.2994426902
 20
388.3313300504
 30
0.0
  0
VERTEX
  5
29A
  8
0
  6
CONTINUOUS
 62
     7
 10
244.4238502946
 20
388.3945109739
 30
0.0
  0
VERTEX
  5
29B
  8
0
  6
CONTINUOUS
 62
     7
 10
242.6203385409
 20
388.581624855
 30
0.0
  0
VERTEX
  5
29C
  8
0
  6
CONTINUOUS
 62
     7
 10
240.9582108673
 20
388.8854856087
 30
0.0
  0
VERTEX
  5
29D
  8
0
  6
CONTINUOUS
 62
     7
 10
239.5013429638
 20
389.2944107248
 30
0.0
  0
VERTEX
  5
29E
  8
0
  6
CONTINUOUS
 62
     7
 10
238.3057259437
 20
389.792690654
 30
0.0
  0
VERTEX
  5
29F
  8
0
  6
CONTINUOUS
 62
     7
 10
237.4173000868
 20
390.3611699535
 30
0.0
  0
VERTEX
  5
2A0
  8
0
  6
CONTINUOUS
 62
     7
 10
236.8702076789
 20
390.9780072464
 30
0.0
  0
VERTEX
  5
2A1
  8
0
  6
CONTINUOUS
 62
     7
 10
236.6854779836
 20
391.6194985105
 30
0.0
  0
VERTEX
  5
2A2
  8
0
  6
CONTINUOUS
 62
     7
 10
236.8702076789
 20
392.2609897746
 30
0.0
  0
VERTEX
  5
2A3
  8
0
  6
CONTINUOUS
 62
     7
 10
237.4173000868
 20
392.8778270675
 30
0.0
  0
VERTEX
  5
2A4
  8
0
  6
CONTINUOUS
 62
     7
 10
238.3057259437
 20
393.4463063671
 30
0.0
  0
VERTEX
  5
2A5
  8
0
  6
CONTINUOUS
 62
     7
 10
239.5013429638
 20
393.9445862962
 30
0.0
  0
VERTEX
  5
2A6
  8
0
  6
CONTINUOUS
 62
     7
 10
240.9582108673
 20
394.3535114123
 30
0.0
  0
VERTEX
  5
2A7
  8
0
  6
CONTINUOUS
 62
     7
 10
242.6203385409
 20
394.6573684408
 30
0.0
  0
VERTEX
  5
2A8
  8
0
  6
CONTINUOUS
 62
     7
 10
244.4238502946
 20
394.8444860472
 30
0.0
  0
VERTEX
  5
2A9
  8
0
  6
CONTINUOUS
 62
     7
 10
246.2994426902
 20
394.9076669707
 30
0.0
  0
VERTEX
  5
2AA
  8
0
  6
CONTINUOUS
 62
     7
 10
248.1750332233
 20
394.8444860472
 30
0.0
  0
VERTEX
  5
2AB
  8
0
  6
CONTINUOUS
 62
     7
 10
249.9785468396
 20
394.6573684408
 30
0.0
  0
VERTEX
  5
2AC
  8
0
  6
CONTINUOUS
 62
     7
 10
251.6406745132
 20
394.3535114123
 30
0.0
  0
VERTEX
  5
2AD
  8
0
  6
CONTINUOUS
 62
     7
 10
253.097540554
 20
393.9445862962
 30
0.0
  0
VERTEX
  5
2AE
  8
0
  6
CONTINUOUS
 62
     7
 10
254.2931594368
 20
393.4463063671
 30
0.0
  0
VERTEX
  5
2AF
  8
0
  6
CONTINUOUS
 62
     7
 10
255.1815852936
 20
392.8778270675
 30
0.0
  0
VERTEX
  5
2B0
  8
0
  6
CONTINUOUS
 62
     7
 10
255.7286758389
 20
392.2609897746
 30
0.0
  0
VERTEX
  5
2B1
  8
0
  6
CONTINUOUS
 62
     7
 10
255.9134055342
 20
391.6194985105
 30
0.0
  0
VERTEX
  5
2B2
  8
0
  6
CONTINUOUS
 62
     7
 10
255.7286758389
 20
390.9780072464
 30
0.0
  0
VERTEX
  5
2B3
  8
0
  6
CONTINUOUS
 62
     7
 10
255.1815852936
 20
390.3611699535
 30
0.0
  0
VERTEX
  5
2B4
  8
0
  6
CONTINUOUS
 62
     7
 10
254.2931594368
 20
389.792690654
 30
0.0
  0
VERTEX
  5
2B5
  8
0
  6
CONTINUOUS
 62
     7
 10
253.097540554
 20
389.2944107248
 30
0.0
  0
VERTEX
  5
2B6
  8
0
  6
CONTINUOUS
 62
     7
 10
251.6406745132
 20
388.8854856087
 30
0.0
  0
VERTEX
  5
2B7
  8
0
  6
CONTINUOUS
 62
     7
 10
249.9785468396
 20
388.581624855
 30
0.0
  0
VERTEX
  5
2B8
  8
0
  6
CONTINUOUS
 62
     7
 10
248.1750332233
 20
388.3945109739
 30
0.0
  0
VERTEX
  5
2B9
  8
0
  6
CONTINUOUS
 62
     7
 10
246.2994426902
 20
388.3313300504
 30
0.0
  0
SEQEND
  5
332
  8
0
  6
CONTINUOUS
 62
     7
  0
POLYLINE
  5
B5
  8
0
  6
CONTINUOUS
 62
     7
 66
     1
 10
0.0
 20
0.0
 30
0.0
 70
   128
  0
VERTEX
  5
2BA
  8
0
  6
CONTINUOUS
 62
     7
 10
238.5162458237
 20
389.8477094664
 30
0.0
  0
VERTEX
  5
2BB
  8
0
  6
CONTINUOUS
 62
     7
 10
238.1536819454
 20
390.0112348093
 30
0.0
  0
VERTEX
  5
2BC
  8
0
  6
CONTINUOUS
 62
     7
 10
237.2031219717
 20
390.5743422403
 30
0.0
  0
VERTEX
  5
2BD
  8
0
  6
CONTINUOUS
 62
     7
 10
236.5813263174
 20
391.188802798
 30
0.0
  0
VERTEX
  5
2BE
  8
0
  6
CONTINUOUS
 62
     7
 10
236.3107696589
 20
391.8324063017
 30
0.0
  0
VERTEX
  5
2BF
  8
0
  6
CONTINUOUS
 62
     7
 10
236.4012271579
 20
392.4818920387
 30
0.0
  0
VERTEX
  5
2C0
  8
0
  6
CONTINUOUS
 62
     7
 10
236.8494354602
 20
393.1137832298
 30
0.0
  0
VERTEX
  5
2C1
  8
0
  6
CONTINUOUS
 62
     7
 10
237.6391895529
 20
393.7052475704
 30
0.0
  0
VERTEX
  5
2C2
  8
0
  6
CONTINUOUS
 62
     7
 10
238.7419462617
 20
394.2349018945
 30
0.0
  0
VERTEX
  5
2C3
  8
0
  6
CONTINUOUS
 62
     7
 10
240.1178524312
 20
394.6836056604
 30
0.0
  0
VERTEX
  5
2C4
  8
0
  6
CONTINUOUS
 62
     7
 10
241.7171772983
 20
395.0351426794
 30
0.0
  0
VERTEX
  5
2C5
  8
0
  6
CONTINUOUS
 62
     7
 10
243.4821173962
 20
395.2768059863
 30
0.0
  0
VERTEX
  5
2C6
  8
0
  6
CONTINUOUS
 62
     7
 10
245.3488827165
 20
395.3998597755
 30
0.0
  0
VERTEX
  5
2C7
  8
0
  6
CONTINUOUS
 62
     7
 10
247.250002664
 20
395.3998597755
 30
0.0
  0
VERTEX
  5
2C8
  8
0
  6
CONTINUOUS
 62
     7
 10
249.1167679843
 20
395.2768059863
 30
0.0
  0
VERTEX
  5
2C9
  8
0
  6
CONTINUOUS
 62
     7
 10
250.8817080822
 20
395.0351426794
 30
0.0
  0
VERTEX
  5
2CA
  8
0
  6
CONTINUOUS
 62
     7
 10
252.4810329493
 20
394.6836056604
 30
0.0
  0
VERTEX
  5
2CB
  8
0
  6
CONTINUOUS
 62
     7
 10
253.8569372561
 20
394.2349018945
 30
0.0
  0
VERTEX
  5
2CC
  8
0
  6
CONTINUOUS
 62
     7
 10
254.9596958276
 20
393.7052475704
 30
0.0
  0
VERTEX
  5
2CD
  8
0
  6
CONTINUOUS
 62
     7
 10
255.7494499203
 20
393.1137832298
 30
0.0
  0
VERTEX
  5
2CE
  8
0
  6
CONTINUOUS
 62
     7
 10
256.1976563599
 20
392.4818920387
 30
0.0
  0
VERTEX
  5
2CF
  8
0
  6
CONTINUOUS
 62
     7
 10
256.2881157216
 20
391.8324063017
 30
0.0
  0
VERTEX
  5
2D0
  8
0
  6
CONTINUOUS
 62
     7
 10
256.0175572004
 20
391.188802798
 30
0.0
  0
VERTEX
  5
2D1
  8
0
  6
CONTINUOUS
 62
     7
 10
255.3957615461
 20
390.5743422403
 30
0.0
  0
VERTEX
  5
2D2
  8
0
  6
CONTINUOUS
 62
     7
 10
255.047469255
 20
390.338129033
 30
0.0
  0
SEQEND
  5
333
  8
0
  6
CONTINUOUS
 62
     7
  0
POLYLINE
  5
B6
  8
0
  6
CONTINUOUS
 62
     7
 66
     1
 10
0.0
 20
0.0
 30
0.0
 70
   128
  0
VERTEX
  5
2D3
  8
0
  6
CONTINUOUS
 62
     7
 10
246.2994426902
 20
388.6477524831
 30
0.0
  0
VERTEX
  5
2D4
  8
0
  6
CONTINUOUS
 62
     7
 10
244.47047044
 20
388.7093650593
 30
0.0
  0
VERTEX
  5
2D5
  8
0
  6
CONTINUOUS
 62
     7
 10
242.7117851045
 20
388.8918297781
 30
0.0
  0
VERTEX
  5
2D6
  8
0
  6
CONTINUOUS
 62
     7
 10
241.0909727629
 20
389.1881356432
 30
0.0
  0
VERTEX
  5
2D7
  8
0
  6
CONTINUOUS
 62
     7
 10
239.6703146812
 20
389.5868981673
 30
0.0
  0
VERTEX
  5
2D8
  8
0
  6
CONTINUOUS
 62
     7
 10
238.5044143017
 20
390.0727915062
 30
0.0
  0
VERTEX
  5
2D9
  8
0
  6
CONTINUOUS
 62
     7
 10
237.6380719658
 20
390.6271407797
 30
0.0
  0
VERTEX
  5
2DA
  8
0
  6
CONTINUOUS
 62
     7
 10
237.1045805927
 20
391.228648503
 30
0.0
  0
VERTEX
  5
2DB
  8
0
  6
CONTINUOUS
 62
     7
 10
236.9244404551
 20
391.8541917993
 30
0.0
  0
VERTEX
  5
2DC
  8
0
  6
CONTINUOUS
 62
     7
 10
237.1045805927
 20
392.479738821
 30
0.0
  0
VERTEX
  5
2DD
  8
0
  6
CONTINUOUS
 62
     7
 10
237.4050811347
 20
392.8676868273
 30
0.0
  0
SEQEND
  5
334
  8
0
  6
CONTINUOUS
 62
     7
  0
POLYLINE
  5
B7
  8
0
  6
CONTINUOUS
 62
     7
 66
     1
 10
0.0
 20
0.0
 30
0.0
 70
   128
  0
VERTEX
  5
2DE
  8
0
  6
CONTINUOUS
 62
     7
 10
255.1938042458
 20
392.8676868273
 30
0.0
  0
VERTEX
  5
2DF
  8
0
  6
CONTINUOUS
 62
     7
 10
255.4943047877
 20
392.479738821
 30
0.0
  0
VERTEX
  5
2E0
  8
0
  6
CONTINUOUS
 62
     7
 10
255.6744430628
 20
391.8541917993
 30
0.0
  0
VERTEX
  5
2E1
  8
0
  6
CONTINUOUS
 62
     7
 10
255.4943047877
 20
391.228648503
 30
0.0
  0
VERTEX
  5
2E2
  8
0
  6
CONTINUOUS
 62
     7
 10
254.9608134147
 20
390.6271407797
 30
0.0
  0
VERTEX
  5
2E3
  8
0
  6
CONTINUOUS
 62
     7
 10
254.0944692161
 20
390.0727915062
 30
0.0
  0
VERTEX
  5
2E4
  8
0
  6
CONTINUOUS
 62
     7
 10
252.9285688367
 20
389.5868981673
 30
0.0
  0
VERTEX
  5
2E5
  8
0
  6
CONTINUOUS
 62
     7
 10
251.5079126175
 20
389.1881356432
 30
0.0
  0
VERTEX
  5
2E6
  8
0
  6
CONTINUOUS
 62
     7
 10
249.887100276
 20
388.8918297781
 30
0.0
  0
VERTEX
  5
2E7
  8
0
  6
CONTINUOUS
 62
     7
 10
248.1284130778
 20
388.7093650593
 30
0.0
  0
VERTEX
  5
2E8
  8
0
  6
CONTINUOUS
 62
     7
 10
246.2994426902
 20
388.6477524831
 30
0.0
  0
SEQEND
  5
335
  8
0
  6
CONTINUOUS
 62
     7
  0
ARC
  5
B8
  8
0
  6
CONTINUOUS
 62
     7
 10
246.2994422311
 20
449.8919127413
 30
0.0
 40
10.00000000000003
 50
0.0
 51
180.0
  0
ARC
  5
B9
  8
0
  6
CONTINUOUS
 62
     7
 10
246.2994422311
 20
449.8919127412
 30
0.0
 40
18.5
 50
302.7204433664
 51
237.2795566337
  0
LINE
  5
BA
  8
0
  6
CONTINUOUS
 62
     7
 10
257.2163388547
 20
423.5656639977
 30
0.0
 11
256.2994424667
 21
423.2039001255
 31
0.0
  0
ARC
  5
BB
  8
0
  6
CONTINUOUS
 62
     7
 10
246.2994422311
 20
449.8919127412
 30
0.0
 40
28.5
 50
292.5226735859
 51
249.4590224625
  0
ARC
  5
BC
  8
0
  6
CONTINUOUS
 62
     7
 10
180.4994422311
 20
446.1919127412
 30
0.0
 40
0.8000000000000114
 50
270.0
 51
0.0
  0
ARC
  5
BD
  8
0
  6
CONTINUOUS
 62
     7
 10
134.7994422311
 20
461.3919127412
 30
0.0
 40
7.0
 50
270.0
 51
0.0
  0
LINE
  5
BE
  8
0
  6
CONTINUOUS
 62
     7
 10
142.5994418975
 20
484.891912569
 30
0.0
 11
149.9994405027
 21
484.891912569
 31
0.0
  0
ARC
  5
BF
  8
0
  6
CONTINUOUS
 62
     7
 10
142.5994422311
 20
415.6919127412
 30
0.0
 40
0.8000000000000114
 50
180.0
 51
270.0
  0
LINE
  5
C0
  8
0
  6
CONTINUOUS
 62
     7
 10
134.7994439717
 20
445.3919126137
 30
0.0
 11
112.0994471427
 21
445.3919126137
 31
0.0
  0
ARC
  5
C1
  8
0
  6
CONTINUOUS
 62
     7
 10
134.7994422311
 20
438.3919127412
 30
0.0
 40
7.0
 50
0.0
 51
90.0
  0
LINE
  5
C2
  8
0
  6
CONTINUOUS
 62
     7
 10
141.7994432565
 20
415.6919127746
 30
0.0
 11
141.7994432565
 21
438.3919128633
 31
0.0
  0
ARC
  5
C3
  8
0
  6
CONTINUOUS
 62
     7
 10
149.9994422311
 20
415.6919127412
 30
0.0
 40
0.8000000000001819
 50
270.0
 51
0.0
  0
LINE
  5
C4
  8
0
  6
CONTINUOUS
 62
     7
 10
141.7994432565
 20
461.3919133736
 30
0.0
 11
141.7994432565
 21
484.091913928
 31
0.0
  0
ARC
  5
C5
  8
0
  6
CONTINUOUS
 62
     7
 10
149.9994422311
 20
484.0919127412
 30
0.0
 40
0.8000000000000114
 50
0.0
 51
90.0
  0
ARC
  5
C6
  8
0
  6
CONTINUOUS
 62
     7
 10
142.5994422311
 20
484.0919127412
 30
0.0
 40
0.8000000000000114
 50
90.0
 51
180.0
  0
LINE
  5
C7
  8
0
  6
CONTINUOUS
 62
     7
 10
112.0994471427
 20
454.3919122262
 30
0.0
 11
134.7994439717
 21
454.3919122262
 31
0.0
  0
ARC
  5
C8
  8
0
  6
CONTINUOUS
 62
     7
 10
157.7994422311
 20
438.3919127412
 30
0.0
 40
7.000000000000199
 50
90.0
 51
180.0
  0
LINE
  5
C9
  8
0
  6
CONTINUOUS
 62
     7
 10
111.2994485017
 20
446.1919131173
 30
0.0
 11
111.2994485017
 21
453.5919135852
 31
0.0
  0
LINE
  5
CA
  8
0
  6
CONTINUOUS
 62
     7
 10
180.4994427081
 20
445.3919126137
 30
0.0
 11
157.7994458791
 21
445.3919126137
 31
0.0
  0
LINE
  5
CB
  8
0
  6
CONTINUOUS
 62
     7
 10
181.2994413491
 20
453.5919135852
 30
0.0
 11
181.2994413491
 21
446.1919131173
 31
0.0
  0
LINE
  5
CC
  8
0
  6
CONTINUOUS
 62
     7
 10
157.7994458791
 20
454.3919122262
 30
0.0
 11
180.4994427081
 21
454.3919122262
 31
0.0
  0
ARC
  5
CD
  8
0
  6
CONTINUOUS
 62
     7
 10
157.7994422311
 20
461.3919127412
 30
0.0
 40
7.0
 50
180.0
 51
270.0
  0
LINE
  5
CE
  8
0
  6
CONTINUOUS
 62
     7
 10
150.7994391438
 20
484.091913928
 30
0.0
 11
150.7994391438
 21
461.3919133736
 31
0.0
  0
ARC
  5
CF
  8
0
  6
CONTINUOUS
 62
     7
 10
180.4994422311
 20
453.5919127412
 30
0.0
 40
0.8000000000000114
 50
0.0
 51
90.0
  0
ARC
  5
D0
  8
0
  6
CONTINUOUS
 62
     7
 10
112.0994422311
 20
453.5919127412
 30
0.0
 40
0.8000000000000256
 50
90.0
 51
180.0
  0
LINE
  5
D1
  8
0
  6
CONTINUOUS
 62
     7
 10
150.7994391438
 20
438.3919128633
 30
0.0
 11
150.7994391438
 21
415.6919127746
 31
0.0
  0
LINE
  5
D2
  8
0
  6
CONTINUOUS
 62
     7
 10
149.9994405027
 20
414.8919122709
 30
0.0
 11
142.5994418975
 21
414.8919122709
 31
0.0
  0
ARC
  5
D3
  8
0
  6
CONTINUOUS
 62
     7
 10
112.0994422311
 20
446.1919127412
 30
0.0
 40
0.8000000000000256
 50
180.0
 51
270.0
  0
ARC
  5
D4
  8
0
  6
CONTINUOUS
 62
     7
 10
146.2994422311
 20
449.8919127457
 30
0.0
 40
18.49999999999999
 50
194.0780386183
 51
255.9219613962
  0
ARC
  5
D5
  8
0
  6
CONTINUOUS
 62
     7
 10
146.2994422311
 20
449.8919127457
 30
0.0
 40
18.49999999999999
 50
104.0780386038
 51
165.9219614108
  0
ARC
  5
D6
  8
0
  6
CONTINUOUS
 62
     7
 10
146.2994422311
 20
449.8919127457
 30
0.0
 40
18.50000000000003
 50
14.0780385892
 51
75.9219613962
  0
ARC
  5
D7
  8
0
  6
CONTINUOUS
 62
     7
 10
146.2994422311
 20
449.8919127457
 30
0.0
 40
18.50000000000003
 50
284.0780386038
 51
345.9219613817
  0
ARC
  5
D8
  8
0
  6
CONTINUOUS
 62
     7
 10
146.2994422311
 20
449.8919127457
 30
0.0
 40
28.50000000000004
 50
189.0847202967
 51
260.9152797126
  0
ARC
  5
D9
  8
0
  6
CONTINUOUS
 62
     7
 10
146.2994422311
 20
449.8919127457
 30
0.0
 40
28.50000000000004
 50
99.0847202874
 51
170.9152797219
  0
ARC
  5
DA
  8
0
  6
CONTINUOUS
 62
     7
 10
146.2994422311
 20
449.8919127457
 30
0.0
 40
28.50000000000003
 50
9.0847202781
 51
80.9152797126
  0
ARC
  5
DB
  8
0
  6
CONTINUOUS
 62
     7
 10
146.2994422311
 20
449.8919127457
 30
0.0
 40
28.50000000000004
 50
279.0847202874
 51
350.9152797033
  0
LINE
  5
DC
  8
0
  6
CONTINUOUS
 62
     8
 10
334.7994432267
 20
445.3919126137
 30
0.0
 11
334.7994432267
 21
446.1919131173
 31
0.0
  0
ARC
  5
DD
  8
0
  6
CONTINUOUS
 62
     8
 10
334.7994422311
 20
438.3919127412
 30
0.0
 40
7.800000000000011
 50
0.0
 51
90.0
  0
LINE
  5
DE
  8
0
  6
CONTINUOUS
 62
     8
 10
341.7994387861
 20
438.3919128633
 30
0.0
 11
342.5994448777
 21
438.3919128633
 31
0.0
  0
LINE
  5
DF
  8
0
  6
CONTINUOUS
 62
     8
 10
312.0994426724
 20
445.3919126137
 30
0.0
 11
312.0994426724
 21
446.1919131173
 31
0.0
  0
LINE
  5
E0
  8
0
  6
CONTINUOUS
 62
     8
 10
312.0994426724
 20
446.1919131173
 30
0.0
 11
334.7994432267
 21
446.1919131173
 31
0.0
  0
LINE
  5
E1
  8
0
  6
CONTINUOUS
 62
     8
 10
350.799442124
 20
438.3919128633
 30
0.0
 11
349.999443483
 21
438.3919128633
 31
0.0
  0
ARC
  5
E2
  8
0
  6
CONTINUOUS
 62
     8
 10
357.7994422311
 20
438.3919127412
 30
0.0
 40
7.800000000000011
 50
90.0
 51
180.0
  0
LINE
  5
E3
  8
0
  6
CONTINUOUS
 62
     8
 10
357.7994414087
 20
445.3919126137
 30
0.0
 11
357.7994414087
 21
446.1919131173
 31
0.0
  0
LINE
  5
E4
  8
0
  6
CONTINUOUS
 62
     8
 10
342.5994448777
 20
438.3919128633
 30
0.0
 11
342.5994448777
 21
415.6919127746
 31
0.0
  0
LINE
  5
E5
  8
0
  6
CONTINUOUS
 62
     8
 10
342.5994448777
 20
415.6919127746
 30
0.0
 11
341.7994387861
 21
415.6919127746
 31
0.0
  0
LINE
  5
E6
  8
0
  6
CONTINUOUS
 62
     8
 10
312.0994426724
 20
453.5919135852
 30
0.0
 11
312.0994426724
 21
454.3919122262
 31
0.0
  0
LINE
  5
E7
  8
0
  6
CONTINUOUS
 62
     8
 10
312.0994426724
 20
453.5919135852
 30
0.0
 11
311.2994440313
 21
453.5919135852
 31
0.0
  0
LINE
  5
E8
  8
0
  6
CONTINUOUS
 62
     8
 10
381.2994443294
 20
446.1919131173
 30
0.0
 11
380.4994456883
 21
446.1919131173
 31
0.0
  0
LINE
  5
E9
  8
0
  6
CONTINUOUS
 62
     8
 10
380.4994456883
 20
446.1919131173
 30
0.0
 11
380.4994456883
 21
453.5919135852
 31
0.0
  0
LINE
  5
EA
  8
0
  6
CONTINUOUS
 62
     8
 10
381.2994443294
 20
453.5919135852
 30
0.0
 11
380.4994456883
 21
453.5919135852
 31
0.0
  0
LINE
  5
EB
  8
0
  6
CONTINUOUS
 62
     8
 10
380.4994456883
 20
453.5919135852
 30
0.0
 11
357.7994414087
 21
453.5919135852
 31
0.0
  0
LINE
  5
EC
  8
0
  6
CONTINUOUS
 62
     8
 10
357.7994414087
 20
453.5919135852
 30
0.0
 11
357.7994414087
 21
454.3919122262
 31
0.0
  0
LINE
  5
ED
  8
0
  6
CONTINUOUS
 62
     8
 10
380.4994456883
 20
454.3919122262
 30
0.0
 11
380.4994456883
 21
453.5919135852
 31
0.0
  0
LINE
  5
EE
  8
0
  6
CONTINUOUS
 62
     8
 10
350.799442124
 20
415.6919127746
 30
0.0
 11
349.999443483
 21
415.6919127746
 31
0.0
  0
LINE
  5
EF
  8
0
  6
CONTINUOUS
 62
     8
 10
349.999443483
 20
415.6919127746
 30
0.0
 11
349.999443483
 21
438.3919128633
 31
0.0
  0
LINE
  5
F0
  8
0
  6
CONTINUOUS
 62
     8
 10
312.0994426724
 20
446.1919131173
 30
0.0
 11
311.2994440313
 21
446.1919131173
 31
0.0
  0
LINE
  5
F1
  8
0
  6
CONTINUOUS
 62
     8
 10
342.5994448777
 20
414.8919122709
 30
0.0
 11
342.5994448777
 21
415.6919127746
 31
0.0
  0
LINE
  5
F2
  8
0
  6
CONTINUOUS
 62
     8
 10
349.999443483
 20
461.3919133736
 30
0.0
 11
349.999443483
 21
484.091913928
 31
0.0
  0
LINE
  5
F3
  8
0
  6
CONTINUOUS
 62
     8
 10
349.999443483
 20
484.091913928
 30
0.0
 11
350.799442124
 21
484.091913928
 31
0.0
  0
LINE
  5
F4
  8
0
  6
CONTINUOUS
 62
     8
 10
349.999443483
 20
461.3919133736
 30
0.0
 11
350.799442124
 21
461.3919133736
 31
0.0
  0
LINE
  5
F5
  8
0
  6
CONTINUOUS
 62
     8
 10
342.5994448777
 20
415.6919127746
 30
0.0
 11
349.999443483
 21
415.6919127746
 31
0.0
  0
LINE
  5
F6
  8
0
  6
CONTINUOUS
 62
     8
 10
349.999443483
 20
414.8919122709
 30
0.0
 11
349.999443483
 21
415.6919127746
 31
0.0
  0
LINE
  5
F7
  8
0
  6
CONTINUOUS
 62
     8
 10
380.4994456883
 20
445.3919126137
 30
0.0
 11
380.4994456883
 21
446.1919131173
 31
0.0
  0
LINE
  5
F8
  8
0
  6
CONTINUOUS
 62
     8
 10
342.5994448777
 20
484.091913928
 30
0.0
 11
342.5994448777
 21
484.891912569
 31
0.0
  0
LINE
  5
F9
  8
0
  6
CONTINUOUS
 62
     8
 10
342.5994448777
 20
484.091913928
 30
0.0
 11
341.7994387861
 21
484.091913928
 31
0.0
  0
LINE
  5
FA
  8
0
  6
CONTINUOUS
 62
     8
 10
357.7994414087
 20
446.1919131173
 30
0.0
 11
380.4994456883
 21
446.1919131173
 31
0.0
  0
LINE
  5
FB
  8
0
  6
CONTINUOUS
 62
     8
 10
342.5994448777
 20
484.091913928
 30
0.0
 11
342.5994448777
 21
461.3919133736
 31
0.0
  0
LINE
  5
FC
  8
0
  6
CONTINUOUS
 62
     8
 10
349.999443483
 20
484.091913928
 30
0.0
 11
342.5994448777
 21
484.091913928
 31
0.0
  0
ARC
  5
FD
  8
0
  6
CONTINUOUS
 62
     8
 10
357.7994422311
 20
461.3919127412
 30
0.0
 40
7.800000000000011
 50
180.0
 51
270.0
  0
LINE
  5
FE
  8
0
  6
CONTINUOUS
 62
     8
 10
312.0994426724
 20
453.5919135852
 30
0.0
 11
312.0994426724
 21
446.1919131173
 31
0.0
  0
LINE
  5
FF
  8
0
  6
CONTINUOUS
 62
     8
 10
334.7994432267
 20
453.5919135852
 30
0.0
 11
312.0994426724
 21
453.5919135852
 31
0.0
  0
ARC
  5
100
  8
0
  6
CONTINUOUS
 62
     8
 10
334.7994422311
 20
461.3919127412
 30
0.0
 40
7.799999999999955
 50
270.0
 51
0.0
  0
LINE
  5
101
  8
0
  6
CONTINUOUS
 62
     8
 10
349.999443483
 20
484.091913928
 30
0.0
 11
349.999443483
 21
484.891912569
 31
0.0
  0
LINE
  5
102
  8
0
  6
CONTINUOUS
 62
     8
 10
334.7994432267
 20
453.5919135852
 30
0.0
 11
334.7994432267
 21
454.3919122262
 31
0.0
  0
LINE
  5
103
  8
0
  6
CONTINUOUS
 62
     8
 10
342.5994448777
 20
461.3919133736
 30
0.0
 11
341.7994387861
 21
461.3919133736
 31
0.0
  0
ARC
  5
104
  8
0
  6
CONTINUOUS
 62
     8
 10
346.2994422311
 20
449.8919127457
 30
0.0
 40
17.90000000000002
 50
284.5601740166
 51
345.4398259683
  0
ARC
  5
105
  8
0
  6
CONTINUOUS
 62
     8
 10
346.2994422311
 20
449.8919127457
 30
0.0
 40
17.90000000000002
 50
14.5601740016
 51
75.4398259834
  0
ARC
  5
106
  8
0
  6
CONTINUOUS
 62
     8
 10
346.2994422311
 20
449.8919127457
 30
0.0
 40
17.9
 50
104.5601740166
 51
165.4398259984
  0
ARC
  5
107
  8
0
  6
CONTINUOUS
 62
     8
 10
346.2994422311
 20
449.8919127457
 30
0.0
 40
17.90000000000005
 50
194.5601740317
 51
255.4398259834
  0
ARC
  5
108
  8
0
  6
CONTINUOUS
 62
     8
 10
346.2994422311
 20
449.8919127457
 30
0.0
 40
18.99999999999999
 50
193.7002335025
 51
256.2997665116
  0
ARC
  5
109
  8
0
  6
CONTINUOUS
 62
     8
 10
346.2994422311
 20
449.8919127457
 30
0.0
 40
19.0
 50
103.7002334884
 51
166.2997665258
  0
ARC
  5
10A
  8
0
  6
CONTINUOUS
 62
     8
 10
346.2994422311
 20
449.8919127457
 30
0.0
 40
19.00000000000001
 50
13.7002334742
 51
76.2997665116
  0
ARC
  5
10B
  8
0
  6
CONTINUOUS
 62
     8
 10
346.2994422311
 20
449.8919127457
 30
0.0
 40
19.00000000000001
 50
283.7002334884
 51
346.2997664975
  0
ARC
  5
10C
  8
0
  6
CONTINUOUS
 62
     8
 10
346.2994422311
 20
449.8919127457
 30
0.0
 40
27.70000000000003
 50
279.3494146892
 51
350.6505853013
  0
ARC
  5
10D
  8
0
  6
CONTINUOUS
 62
     8
 10
346.2994422311
 20
449.8919127457
 30
0.0
 40
27.70000000000003
 50
9.3494146796
 51
80.6505853108
  0
ARC
  5
10E
  8
0
  6
CONTINUOUS
 62
     8
 10
346.2994422311
 20
449.8919127457
 30
0.0
 40
27.69999999999998
 50
99.3494146892
 51
170.6505853204
  0
ARC
  5
10F
  8
0
  6
CONTINUOUS
 62
     8
 10
346.2994422311
 20
449.8919127457
 30
0.0
 40
27.70000000000003
 50
189.3494146987
 51
260.6505853108
  0
ARC
  5
110
  8
0
  6
CONTINUOUS
 62
     8
 10
246.2994422311
 20
449.8919127412
 30
0.0
 40
17.90000000000001
 50
303.9631243511
 51
236.036875649
  0
ARC
  5
111
  8
0
  6
CONTINUOUS
 62
     8
 10
246.2994422311
 20
449.8919127412
 30
0.0
 40
19.10000000000002
 50
301.5713677392
 51
238.4286322609
  0
ARC
  5
112
  8
0
  6
CONTINUOUS
 62
     8
 10
246.2994422311
 20
449.8919127412
 30
0.0
 40
27.69999999999999
 50
291.1622875528
 51
248.8377124472
  0
LINE
  5
113
  8
0
  6
CONTINUOUS
 62
     8
 10
180.4994427081
 20
445.3919126137
 30
0.0
 11
180.4994427081
 21
446.1919131173
 31
0.0
  0
LINE
  5
114
  8
0
  6
CONTINUOUS
 62
     8
 10
181.2994413491
 20
446.1919131173
 30
0.0
 11
180.4994427081
 21
446.1919131173
 31
0.0
  0
ARC
  5
115
  8
0
  6
CONTINUOUS
 62
     8
 10
134.7994422311
 20
461.3919127412
 30
0.0
 40
7.799999999999983
 50
270.0
 51
0.0
  0
LINE
  5
116
  8
0
  6
CONTINUOUS
 62
     8
 10
134.7994439717
 20
453.5919135852
 30
0.0
 11
134.7994439717
 21
454.3919122262
 31
0.0
  0
LINE
  5
117
  8
0
  6
CONTINUOUS
 62
     8
 10
142.5994418975
 20
461.3919133736
 30
0.0
 11
141.7994432565
 21
461.3919133736
 31
0.0
  0
LINE
  5
118
  8
0
  6
CONTINUOUS
 62
     8
 10
149.9994405027
 20
484.091913928
 30
0.0
 11
142.5994418975
 21
484.091913928
 31
0.0
  0
LINE
  5
119
  8
0
  6
CONTINUOUS
 62
     8
 10
142.5994418975
 20
484.091913928
 30
0.0
 11
142.5994418975
 21
484.891912569
 31
0.0
  0
LINE
  5
11A
  8
0
  6
CONTINUOUS
 62
     8
 10
149.9994405027
 20
484.091913928
 30
0.0
 11
149.9994405027
 21
484.891912569
 31
0.0
  0
LINE
  5
11B
  8
0
  6
CONTINUOUS
 62
     8
 10
142.5994418975
 20
415.6919127746
 30
0.0
 11
141.7994432565
 21
415.6919127746
 31
0.0
  0
LINE
  5
11C
  8
0
  6
CONTINUOUS
 62
     8
 10
142.5994418975
 20
414.8919122709
 30
0.0
 11
142.5994418975
 21
415.6919127746
 31
0.0
  0
LINE
  5
11D
  8
0
  6
CONTINUOUS
 62
     8
 10
112.0994471427
 20
445.3919126137
 30
0.0
 11
112.0994471427
 21
446.1919131173
 31
0.0
  0
LINE
  5
11E
  8
0
  6
CONTINUOUS
 62
     8
 10
112.0994471427
 20
446.1919131173
 30
0.0
 11
134.7994439717
 21
446.1919131173
 31
0.0
  0
LINE
  5
11F
  8
0
  6
CONTINUOUS
 62
     8
 10
134.7994439717
 20
445.3919126137
 30
0.0
 11
134.7994439717
 21
446.1919131173
 31
0.0
  0
ARC
  5
120
  8
0
  6
CONTINUOUS
 62
     8
 10
134.7994422311
 20
438.3919127412
 30
0.0
 40
7.800000000000011
 50
0.0
 51
90.0
  0
LINE
  5
121
  8
0
  6
CONTINUOUS
 62
     8
 10
141.7994432565
 20
438.3919128633
 30
0.0
 11
142.5994418975
 21
438.3919128633
 31
0.0
  0
LINE
  5
122
  8
0
  6
CONTINUOUS
 62
     8
 10
142.5994418975
 20
438.3919128633
 30
0.0
 11
142.5994418975
 21
415.6919127746
 31
0.0
  0
LINE
  5
123
  8
0
  6
CONTINUOUS
 62
     8
 10
149.9994405027
 20
414.8919122709
 30
0.0
 11
149.9994405027
 21
415.6919127746
 31
0.0
  0
LINE
  5
124
  8
0
  6
CONTINUOUS
 62
     8
 10
150.7994391438
 20
415.6919127746
 30
0.0
 11
149.9994405027
 21
415.6919127746
 31
0.0
  0
LINE
  5
125
  8
0
  6
CONTINUOUS
 62
     8
 10
142.5994418975
 20
484.091913928
 30
0.0
 11
142.5994418975
 21
461.3919133736
 31
0.0
  0
LINE
  5
126
  8
0
  6
CONTINUOUS
 62
     8
 10
142.5994418975
 20
484.091913928
 30
0.0
 11
141.7994432565
 21
484.091913928
 31
0.0
  0
LINE
  5
127
  8
0
  6
CONTINUOUS
 62
     8
 10
149.9994405027
 20
484.091913928
 30
0.0
 11
150.7994391438
 21
484.091913928
 31
0.0
  0
LINE
  5
128
  8
0
  6
CONTINUOUS
 62
     8
 10
134.7994439717
 20
453.5919135852
 30
0.0
 11
112.0994471427
 21
453.5919135852
 31
0.0
  0
LINE
  5
129
  8
0
  6
CONTINUOUS
 62
     8
 10
112.0994471427
 20
453.5919135852
 30
0.0
 11
112.0994471427
 21
454.3919122262
 31
0.0
  0
LINE
  5
12A
  8
0
  6
CONTINUOUS
 62
     8
 10
150.7994391438
 20
438.3919128633
 30
0.0
 11
149.9994405027
 21
438.3919128633
 31
0.0
  0
ARC
  5
12B
  8
0
  6
CONTINUOUS
 62
     8
 10
157.7994422311
 20
438.3919127412
 30
0.0
 40
7.800000000000182
 50
90.0
 51
180.0
  0
LINE
  5
12C
  8
0
  6
CONTINUOUS
 62
     8
 10
157.7994458791
 20
445.3919126137
 30
0.0
 11
157.7994458791
 21
446.1919131173
 31
0.0
  0
LINE
  5
12D
  8
0
  6
CONTINUOUS
 62
     8
 10
112.0994471427
 20
453.5919135852
 30
0.0
 11
112.0994471427
 21
446.1919131173
 31
0.0
  0
LINE
  5
12E
  8
0
  6
CONTINUOUS
 62
     8
 10
112.0994471427
 20
446.1919131173
 30
0.0
 11
111.2994485017
 21
446.1919131173
 31
0.0
  0
LINE
  5
12F
  8
0
  6
CONTINUOUS
 62
     8
 10
112.0994471427
 20
453.5919135852
 30
0.0
 11
111.2994485017
 21
453.5919135852
 31
0.0
  0
LINE
  5
130
  8
0
  6
CONTINUOUS
 62
     8
 10
157.7994458791
 20
446.1919131173
 30
0.0
 11
180.4994427081
 21
446.1919131173
 31
0.0
  0
LINE
  5
131
  8
0
  6
CONTINUOUS
 62
     8
 10
180.4994427081
 20
446.1919131173
 30
0.0
 11
180.4994427081
 21
453.5919135852
 31
0.0
  0
LINE
  5
132
  8
0
  6
CONTINUOUS
 62
     8
 10
181.2994413491
 20
453.5919135852
 30
0.0
 11
180.4994427081
 21
453.5919135852
 31
0.0
  0
LINE
  5
133
  8
0
  6
CONTINUOUS
 62
     8
 10
180.4994427081
 20
453.5919135852
 30
0.0
 11
157.7994458791
 21
453.5919135852
 31
0.0
  0
LINE
  5
134
  8
0
  6
CONTINUOUS
 62
     8
 10
157.7994458791
 20
453.5919135852
 30
0.0
 11
157.7994458791
 21
454.3919122262
 31
0.0
  0
LINE
  5
135
  8
0
  6
CONTINUOUS
 62
     8
 10
180.4994427081
 20
454.3919122262
 30
0.0
 11
180.4994427081
 21
453.5919135852
 31
0.0
  0
ARC
  5
136
  8
0
  6
CONTINUOUS
 62
     8
 10
157.7994422311
 20
461.3919127412
 30
0.0
 40
7.799999999999983
 50
180.0
 51
270.0
  0
LINE
  5
137
  8
0
  6
CONTINUOUS
 62
     8
 10
149.9994405027
 20
461.3919133736
 30
0.0
 11
150.7994391438
 21
461.3919133736
 31
0.0
  0
LINE
  5
138
  8
0
  6
CONTINUOUS
 62
     8
 10
149.9994405027
 20
461.3919133736
 30
0.0
 11
149.9994405027
 21
484.091913928
 31
0.0
  0
LINE
  5
139
  8
0
  6
CONTINUOUS
 62
     8
 10
149.9994405027
 20
415.6919127746
 30
0.0
 11
149.9994405027
 21
438.3919128633
 31
0.0
  0
LINE
  5
13A
  8
0
  6
CONTINUOUS
 62
     8
 10
142.5994418975
 20
415.6919127746
 30
0.0
 11
149.9994405027
 21
415.6919127746
 31
0.0
  0
ARC
  5
13B
  8
0
  6
CONTINUOUS
 62
     8
 10
146.2994422311
 20
449.8919127457
 30
0.0
 40
17.90000000000002
 50
284.5601740166
 51
345.4398259683
  0
ARC
  5
13C
  8
0
  6
CONTINUOUS
 62
     8
 10
146.2994422311
 20
449.8919127457
 30
0.0
 40
17.89999999999998
 50
14.5601740016
 51
75.4398259834
  0
ARC
  5
13D
  8
0
  6
CONTINUOUS
 62
     8
 10
146.2994422311
 20
449.8919127457
 30
0.0
 40
17.9
 50
104.5601740167
 51
165.4398259984
  0
ARC
  5
13E
  8
0
  6
CONTINUOUS
 62
     8
 10
146.2994422311
 20
449.8919127457
 30
0.0
 40
17.90000000000004
 50
194.5601740317
 51
255.4398259833
  0
ARC
  5
13F
  8
0
  6
CONTINUOUS
 62
     8
 10
146.2994422311
 20
449.8919127457
 30
0.0
 40
19.0
 50
193.7002335025
 51
256.2997665116
  0
ARC
  5
140
  8
0
  6
CONTINUOUS
 62
     8
 10
146.2994422311
 20
449.8919127457
 30
0.0
 40
19.00000000000002
 50
103.7002334884
 51
166.2997665258
  0
ARC
  5
141
  8
0
  6
CONTINUOUS
 62
     8
 10
146.2994422311
 20
449.8919127457
 30
0.0
 40
19.00000000000003
 50
13.7002334742
 51
76.2997665116
  0
ARC
  5
142
  8
0
  6
CONTINUOUS
 62
     8
 10
146.2994422311
 20
449.8919127457
 30
0.0
 40
19.00000000000002
 50
283.7002334884
 51
346.2997664975
  0
ARC
  5
143
  8
0
  6
CONTINUOUS
 62
     8
 10
146.2994422311
 20
449.8919127457
 30
0.0
 40
27.70000000000002
 50
279.3494146892
 51
350.6505853013
  0
ARC
  5
144
  8
0
  6
CONTINUOUS
 62
     8
 10
146.2994422311
 20
449.8919127457
 30
0.0
 40
27.70000000000003
 50
9.3494146796
 51
80.6505853108
  0
ARC
  5
145
  8
0
  6
CONTINUOUS
 62
     8
 10
146.2994422311
 20
449.8919127457
 30
0.0
 40
27.7
 50
99.3494146892
 51
170.6505853204
  0
ARC
  5
146
  8
0
  6
CONTINUOUS
 62
     8
 10
146.2994422311
 20
449.8919127457
 30
0.0
 40
27.70000000000002
 50
189.3494146987
 51
260.6505853108
  0
ARC
  5
147
  8
0
  6
CONTINUOUS
 62
     7
 10
473.0260866202
 20
430.7919127412
 30
0.0
 40
0.6000000000000796
 50
90.0
 51
180.0
  0
ARC
  5
148
  8
0
  6
CONTINUOUS
 62
     7
 10
473.0260866202
 20
468.9919127412
 30
0.0
 40
0.6000000000000796
 50
180.0
 51
270.0
  0
LINE
  5
149
  8
0
  6
CONTINUOUS
 62
     7
 10
479.0260884516
 20
431.3919127345
 30
0.0
 11
479.2260843866
 21
431.3919127345
 31
0.0
  0
LINE
  5
14A
  8
0
  6
CONTINUOUS
 62
     7
 10
479.2260843866
 20
468.3919126584
 30
0.0
 11
479.0260884516
 21
468.3919126584
 31
0.0
  0
ARC
  5
14B
  8
0
  6
CONTINUOUS
 62
     7
 10
479.2260866202
 20
431.9919127412
 30
0.0
 40
0.6000000000000227
 50
270.0
 51
0.0
  0
ARC
  5
14C
  8
0
  6
CONTINUOUS
 62
     7
 10
479.2260866202
 20
467.7919127412
 30
0.0
 40
0.6000000000000796
 50
0.0
 51
90.0
  0
LINE
  5
14D
  8
0
  6
CONTINUOUS
 62
     7
 10
479.8260870926
 20
439.8919126435
 30
0.0
 11
499.1260859721
 21
439.8919126435
 31
0.0
  0
LINE
  5
14E
  8
0
  6
CONTINUOUS
 62
     7
 10
499.1260859721
 20
459.8919121964
 30
0.0
 11
479.8260870926
 21
459.8919121964
 31
0.0
  0
ARC
  5
14F
  8
0
  6
CONTINUOUS
 62
     7
 10
499.1260866202
 20
440.1919127412
 30
0.0
 40
0.3000000000000114
 50
270.0
 51
0.0
  0
ARC
  5
150
  8
0
  6
CONTINUOUS
 62
     7
 10
499.1260866202
 20
459.5919127412
 30
0.0
 40
0.3000000000000682
 50
0.0
 51
90.0
  0
ARC
  5
151
  8
0
  6
CONTINUOUS
 62
     7
 10
499.8260866202
 20
459.4919127413
 30
0.0
 40
0.3999999999999773
 50
90.0
 51
180.0
  0
ARC
  5
152
  8
0
  6
CONTINUOUS
 62
     7
 10
499.8260866202
 20
440.2919127413
 30
0.0
 40
0.4000000000000341
 50
180.0
 51
270.0
  0
LINE
  5
153
  8
0
  6
CONTINUOUS
 62
     7
 10
499.8260829203
 20
439.8919126435
 30
0.0
 11
510.7260886185
 21
439.8919126435
 31
0.0
  0
LINE
  5
154
  8
0
  6
CONTINUOUS
 62
     7
 10
519.7260845058
 20
439.8919126435
 30
0.0
 11
641.204135453
 21
439.8919126435
 31
0.0
  0
LINE
  5
155
  8
0
  6
CONTINUOUS
 62
     7
 10
641.204135453
 20
459.8919121964
 30
0.0
 11
519.7260845058
 21
459.8919121964
 31
0.0
  0
LINE
  5
156
  8
0
  6
CONTINUOUS
 62
     7
 10
510.7260886185
 20
459.8919121964
 30
0.0
 11
499.8260829203
 21
459.8919121964
 31
0.0
  0
ARC
  5
157
  8
0
  6
CONTINUOUS
 62
     7
 10
641.2041265065
 20
389.8919127413
 30
0.0
 40
50.0
 50
20.0
 51
90.0
  0
ARC
  5
158
  8
0
  6
CONTINUOUS
 62
     7
 10
641.2041265065
 20
389.8919127413
 30
0.0
 40
70.00000000000006
 50
20.0
 51
90.0
  0
LINE
  5
159
  8
0
  6
CONTINUOUS
 62
     7
 10
713.6862147205
 20
395.4153458072
 30
0.0
 11
706.9825995319
 21
413.8333226039
 31
0.0
  0
LINE
  5
15A
  8
0
  6
CONTINUOUS
 62
     7
 10
688.1887483947
 20
406.9929203434
 30
0.0
 11
694.8923635833
 21
388.5749454095
 31
0.0
  0
ARC
  5
15B
  8
0
  6
CONTINUOUS
 62
     7
 10
695.2682294033
 20
388.7117525975
 30
0.0
 40
0.400000000000045
 50
200.0
 51
287.9995981047
  0
ARC
  5
15C
  8
0
  6
CONTINUOUS
 62
     7
 10
713.3103277224
 20
395.2785393493
 30
0.0
 40
0.4000000000000029
 50
292.0004018953
 51
20.0
  0
LINE
  5
15D
  8
0
  6
CONTINUOUS
 62
     7
 10
464.4260871761
 20
421.3919124051
 30
0.0
 11
471.6260898464
 21
421.3919124051
 31
0.0
  0
LINE
  5
15E
  8
0
  6
CONTINUOUS
 62
     7
 10
471.6260898464
 20
478.3919142975
 30
0.0
 11
464.4260871761
 21
478.3919142975
 31
0.0
  0
ARC
  5
15F
  8
0
  6
CONTINUOUS
 62
     7
 10
471.6260866202
 20
477.5919127457
 30
0.0
 40
0.8000000000000114
 50
0.0
 51
90.0
  0
ARC
  5
160
  8
0
  6
CONTINUOUS
 62
     7
 10
471.6260866202
 20
422.1919127457
 30
0.0
 40
0.8000000000000114
 50
270.0
 51
0.0
  0
ARC
  5
161
  8
0
  6
CONTINUOUS
 62
     7
 10
472.9260866202
 20
468.8919127457
 30
0.0
 40
0.5
 50
180.0
 51
270.0
  0
ARC
  5
162
  8
0
  6
CONTINUOUS
 62
     7
 10
472.9260866202
 20
430.8919127457
 30
0.0
 40
0.5
 50
90.0
 51
180.0
  0
LINE
  5
163
  8
0
  6
CONTINUOUS
 62
     7
 10
472.9260895007
 20
431.3919127345
 30
0.0
 11
479.0260884516
 21
431.3919127345
 31
0.0
  0
LINE
  5
164
  8
0
  6
CONTINUOUS
 62
     7
 10
479.0260884516
 20
468.3919126584
 30
0.0
 11
472.9260895007
 21
468.3919126584
 31
0.0
  0
ARC
  5
165
  8
0
  6
CONTINUOUS
 62
     7
 10
479.0260866202
 20
467.7919127457
 30
0.0
 40
0.5999999999999659
 50
0.0
 51
90.0
  0
ARC
  5
166
  8
0
  6
CONTINUOUS
 62
     7
 10
479.0260866202
 20
431.9919127457
 30
0.0
 40
0.6000000000000227
 50
270.0
 51
0.0
  0
ARC
  5
167
  8
0
  6
CONTINUOUS
 62
     7
 10
480.1260866202
 20
458.3919127457
 30
0.0
 40
0.5
 50
180.0
 51
270.0
  0
ARC
  5
168
  8
0
  6
CONTINUOUS
 62
     7
 10
480.1260866202
 20
441.3919127457
 30
0.0
 40
0.5
 50
90.0
 51
180.0
  0
ARC
  5
169
  8
0
  6
CONTINUOUS
 62
     7
 10
510.3260866202
 20
458.2919127412
 30
0.0
 40
0.4000000000000341
 50
270.0
 51
0.0
  0
ARC
  5
16A
  8
0
  6
CONTINUOUS
 62
     7
 10
510.3260866202
 20
441.4919127412
 30
0.0
 40
0.3999999999999773
 50
0.0
 51
90.0
  0
ARC
  5
16B
  8
0
  6
CONTINUOUS
 62
     7
 10
500.0260866202
 20
442.1919127412
 30
0.0
 40
0.3000000000000114
 50
180.0
 51
270.0
  0
ARC
  5
16C
  8
0
  6
CONTINUOUS
 62
     7
 10
500.0260866202
 20
457.5919127412
 30
0.0
 40
0.3000000000000114
 50
90.0
 51
180.0
  0
LINE
  5
16D
  8
0
  6
CONTINUOUS
 62
     7
 10
500.0260863059
 20
441.8919129713
 30
0.0
 11
510.326089298
 21
441.8919129713
 31
0.0
  0
LINE
  5
16E
  8
0
  6
CONTINUOUS
 62
     7
 10
510.326089298
 20
457.8919118686
 30
0.0
 11
500.0260863059
 21
457.8919118686
 31
0.0
  0
LINE
  5
16F
  8
0
  6
CONTINUOUS
 62
     7
 10
480.1260847204
 20
441.8919129713
 30
0.0
 11
499.1260859721
 21
441.8919129713
 31
0.0
  0
LINE
  5
170
  8
0
  6
CONTINUOUS
 62
     7
 10
499.1260859721
 20
457.8919118686
 30
0.0
 11
480.1260847204
 21
457.8919118686
 31
0.0
  0
ARC
  5
171
  8
0
  6
CONTINUOUS
 62
     7
 10
499.1260866202
 20
457.5919127457
 30
0.0
 40
0.3000000000000114
 50
0.0
 51
90.0
  0
ARC
  5
172
  8
0
  6
CONTINUOUS
 62
     7
 10
499.1260866202
 20
442.1919127457
 30
0.0
 40
0.3000000000000114
 50
270.0
 51
0.0
  0
ARC
  5
173
  8
0
  6
CONTINUOUS
 62
     7
 10
499.7260866202
 20
455.9919127457
 30
0.0
 40
0.3000000000000114
 50
180.0
 51
270.0
  0
ARC
  5
174
  8
0
  6
CONTINUOUS
 62
     7
 10
499.7260866202
 20
443.7919127457
 30
0.0
 40
0.3000000000000682
 50
90.0
 51
180.0
  0
LINE
  5
175
  8
0
  6
CONTINUOUS
 62
     7
 10
479.8260870926
 20
467.7919136776
 30
0.0
 11
479.8260870926
 21
457.9919135614
 31
0.0
  0
LINE
  5
176
  8
0
  6
CONTINUOUS
 62
     7
 10
479.8260870926
 20
441.7919131412
 30
0.0
 11
479.8260870926
 21
431.9919127412
 31
0.0
  0
LINE
  5
177
  8
0
  6
CONTINUOUS
 62
     7
 10
499.4260835998
 20
459.5919127061
 30
0.0
 11
499.4260835998
 21
457.5919123782
 31
0.0
  0
LINE
  5
178
  8
0
  6
CONTINUOUS
 62
     7
 10
499.4260835998
 20
442.1919124617
 30
0.0
 11
499.4260835998
 21
440.1919130652
 31
0.0
  0
POLYLINE
  5
179
  8
0
  6
CONTINUOUS
 62
     7
 66
     1
 10
0.0
 20
0.0
 30
0.0
 70
   128
  0
VERTEX
  5
2E9
  8
0
  6
CONTINUOUS
 62
     7
 10
695.3918207042
 20
388.3313300504
 30
0.0
  0
VERTEX
  5
2EA
  8
0
  6
CONTINUOUS
 62
     7
 10
695.5654192321
 20
388.3945109739
 30
0.0
  0
VERTEX
  5
2EB
  8
0
  6
CONTINUOUS
 62
     7
 10
696.0795092933
 20
388.581624855
 30
0.0
  0
VERTEX
  5
2EC
  8
0
  6
CONTINUOUS
 62
     7
 10
696.9143617504
 20
388.8854856087
 30
0.0
  0
VERTEX
  5
2ED
  8
0
  6
CONTINUOUS
 62
     7
 10
698.0378795021
 20
389.2944107248
 30
0.0
  0
VERTEX
  5
2EE
  8
0
  6
CONTINUOUS
 62
     7
 10
699.4068789833
 20
389.792690654
 30
0.0
  0
VERTEX
  5
2EF
  8
0
  6
CONTINUOUS
 62
     7
 10
700.9687888973
 20
390.3611699535
 30
0.0
  0
VERTEX
  5
2F0
  8
0
  6
CONTINUOUS
 62
     7
 10
702.6635277622
 20
390.9780072464
 30
0.0
  0
VERTEX
  5
2F1
  8
0
  6
CONTINUOUS
 62
     7
 10
704.4260073059
 20
391.6194985105
 30
0.0
  0
VERTEX
  5
2F2
  8
0
  6
CONTINUOUS
 62
     7
 10
706.1884868496
 20
392.2609897746
 30
0.0
  0
VERTEX
  5
2F3
  8
0
  6
CONTINUOUS
 62
     7
 10
707.8832257145
 20
392.8778270675
 30
0.0
  0
VERTEX
  5
2F4
  8
0
  6
CONTINUOUS
 62
     7
 10
709.4451058261
 20
393.4463063671
 30
0.0
  0
VERTEX
  5
2F5
  8
0
  6
CONTINUOUS
 62
     7
 10
710.8141351097
 20
393.9445862962
 30
0.0
  0
VERTEX
  5
2F6
  8
0
  6
CONTINUOUS
 62
     7
 10
711.9376528614
 20
394.3535114123
 30
0.0
  0
VERTEX
  5
2F7
  8
0
  6
CONTINUOUS
 62
     7
 10
712.7724755161
 20
394.6573684408
 30
0.0
  0
VERTEX
  5
2F8
  8
0
  6
CONTINUOUS
 62
     7
 10
713.2865953796
 20
394.8444860472
 30
0.0
  0
VERTEX
  5
2F9
  8
0
  6
CONTINUOUS
 62
     7
 10
713.4601641052
 20
394.9076669707
 30
0.0
  0
VERTEX
  5
2FA
  8
0
  6
CONTINUOUS
 62
     7
 10
713.4601641052
 20
394.9076669707
 30
0.0
  0
SEQEND
  5
336
  8
0
  6
CONTINUOUS
 62
     7
  0
ARC
  5
17A
  8
0
  6
CONTINUOUS
 62
     7
 10
511.5260866202
 20
453.5919127412
 30
0.0
 40
0.8000000000000114
 50
90.0
 51
180.0
  0
LINE
  5
17B
  8
0
  6
CONTINUOUS
 62
     7
 10
511.5260872595
 20
454.3919122262
 30
0.0
 11
518.9260858648
 21
454.3919122262
 31
0.0
  0
ARC
  5
17C
  8
0
  6
CONTINUOUS
 62
     7
 10
511.5260866202
 20
446.1919127412
 30
0.0
 40
0.8000000000000114
 50
180.0
 51
270.0
  0
LINE
  5
17D
  8
0
  6
CONTINUOUS
 62
     7
 10
518.9260858648
 20
445.3919126137
 30
0.0
 11
511.5260872595
 21
445.3919126137
 31
0.0
  0
LINE
  5
17E
  8
0
  6
CONTINUOUS
 62
     7
 10
510.7260886185
 20
446.1919131173
 30
0.0
 11
510.7260886185
 21
453.5919135852
 31
0.0
  0
ARC
  5
17F
  8
0
  6
CONTINUOUS
 62
     7
 10
518.9260866202
 20
453.5919127412
 30
0.0
 40
0.8000000000000682
 50
0.0
 51
90.0
  0
LINE
  5
180
  8
0
  6
CONTINUOUS
 62
     7
 10
519.7260845058
 20
453.5919135852
 30
0.0
 11
519.7260845058
 21
446.1919131173
 31
0.0
  0
ARC
  5
181
  8
0
  6
CONTINUOUS
 62
     7
 10
518.9260866202
 20
446.1919127412
 30
0.0
 40
0.8000000000000682
 50
270.0
 51
0.0
  0
LINE
  5
182
  8
0
  6
CONTINUOUS
 62
     7
 10
464.4260871761
 20
421.3919124051
 30
0.0
 11
464.4260871761
 21
478.3919142975
 31
0.0
  0
LINE
  5
183
  8
0
  6
CONTINUOUS
 62
     7
 10
472.4260884874
 20
477.5919119312
 30
0.0
 11
472.4260884874
 21
422.1919129087
 31
0.0
  0
LINE
  5
184
  8
0
  6
CONTINUOUS
 62
     7
 10
479.6260837071
 20
431.9919127485
 30
0.0
 11
479.6260837071
 21
467.7919136776
 31
0.0
  0
LINE
  5
185
  8
0
  6
CONTINUOUS
 62
     7
 10
510.7260886185
 20
438.3919128633
 30
0.0
 11
510.7260886185
 21
446.1919131173
 31
0.0
  0
LINE
  5
186
  8
0
  6
CONTINUOUS
 62
     7
 10
510.7260886185
 20
453.5919135852
 30
0.0
 11
510.7260886185
 21
461.3919133736
 31
0.0
  0
LINE
  5
187
  8
0
  6
CONTINUOUS
 62
     7
 10
519.7260845058
 20
461.3919133736
 30
0.0
 11
519.7260845058
 21
453.5919135852
 31
0.0
  0
LINE
  5
188
  8
0
  6
CONTINUOUS
 62
     7
 10
519.7260845058
 20
446.1919131173
 30
0.0
 11
519.7260845058
 21
438.3919128633
 31
0.0
  0
LINE
  5
189
  8
0
  6
CONTINUOUS
 62
     7
 10
499.7260886781
 20
442.1919124617
 30
0.0
 11
499.7260886781
 21
457.5919123782
 31
0.0
  0
LINE
  5
18A
  8
0
  6
CONTINUOUS
 62
     7
 10
499.4260835998
 20
457.5919123782
 30
0.0
 11
499.4260835998
 21
442.1919124617
 31
0.0
  0
LINE
  5
18B
  8
0
  6
CONTINUOUS
 62
     7
 10
511.5260872595
 20
484.891912569
 30
0.0
 11
518.9260858648
 21
484.891912569
 31
0.0
  0
LINE
  5
18C
  8
0
  6
CONTINUOUS
 62
     7
 10
510.7260886185
 20
461.3919133736
 30
0.0
 11
510.7260886185
 21
484.091913928
 31
0.0
  0
ARC
  5
18D
  8
0
  6
CONTINUOUS
 62
     7
 10
511.5260866202
 20
484.0919127412
 30
0.0
 40
0.8000000000000114
 50
90.0
 51
180.0
  0
LINE
  5
18E
  8
0
  6
CONTINUOUS
 62
     7
 10
510.7260886185
 20
415.6919127746
 30
0.0
 11
510.7260886185
 21
438.3919128633
 31
0.0
  0
LINE
  5
18F
  8
0
  6
CONTINUOUS
 62
     7
 10
519.7260845058
 20
484.091913928
 30
0.0
 11
519.7260845058
 21
461.3919133736
 31
0.0
  0
ARC
  5
190
  8
0
  6
CONTINUOUS
 62
     7
 10
518.9260866202
 20
484.0919127412
 30
0.0
 40
0.8000000000000682
 50
0.0
 51
90.0
  0
LINE
  5
191
  8
0
  6
CONTINUOUS
 62
     7
 10
519.7260845058
 20
438.3919128633
 30
0.0
 11
519.7260845058
 21
415.6919127746
 31
0.0
  0
LINE
  5
192
  8
0
  6
CONTINUOUS
 62
     7
 10
518.9260858648
 20
414.8919122709
 30
0.0
 11
511.5260872595
 21
414.8919122709
 31
0.0
  0
ARC
  5
193
  8
0
  6
CONTINUOUS
 62
     7
 10
511.5260866202
 20
415.6919127412
 30
0.0
 40
0.8000000000000114
 50
180.0
 51
270.0
  0
ARC
  5
194
  8
0
  6
CONTINUOUS
 62
     7
 10
518.9260866202
 20
415.6919127412
 30
0.0
 40
0.8000000000000682
 50
270.0
 51
0.0
  0
LINE
  5
195
  8
0
  6
CONTINUOUS
 62
     8
 10
479.2260843866
 20
431.3919127345
 30
0.0
 11
479.2260843866
 21
431.4262273148
 31
0.0
  0
LINE
  5
196
  8
0
  6
CONTINUOUS
 62
     8
 10
479.2260843866
 20
468.3575990094
 30
0.0
 11
479.2260843866
 21
468.3919126584
 31
0.0
  0
LINE
  5
197
  8
0
  6
CONTINUOUS
 62
     8
 10
499.1260859721
 20
439.8919126435
 30
0.0
 11
499.1260859721
 21
441.8919129713
 31
0.0
  0
LINE
  5
198
  8
0
  6
CONTINUOUS
 62
     8
 10
499.1260859721
 20
457.8919118686
 30
0.0
 11
499.1260859721
 21
459.8919121964
 31
0.0
  0
LINE
  5
199
  8
0
  6
CONTINUOUS
 62
     8
 10
499.8260829203
 20
459.8919121964
 30
0.0
 11
499.8260829203
 21
457.8155192031
 31
0.0
  0
LINE
  5
19A
  8
0
  6
CONTINUOUS
 62
     8
 10
499.8260829203
 20
441.9683056368
 30
0.0
 11
499.8260829203
 21
439.8919126435
 31
0.0
  0
POLYLINE
  5
19B
  8
0
  6
CONTINUOUS
 62
     8
 66
     1
 10
0.0
 20
0.0
 30
0.0
 70
   128
  0
VERTEX
  5
2FB
  8
0
  6
CONTINUOUS
 62
     8
 10
694.8923635833
 20
388.5749454095
 30
0.0
  0
VERTEX
  5
2FC
  8
0
  6
CONTINUOUS
 62
     8
 10
695.0621772163
 20
388.6367517008
 30
0.0
  0
VERTEX
  5
2FD
  8
0
  6
CONTINUOUS
 62
     8
 10
695.5654788368
 20
388.8199391259
 30
0.0
  0
VERTEX
  5
2FE
  8
0
  6
CONTINUOUS
 62
     8
 10
696.3840890281
 20
389.117887844
 30
0.0
  0
VERTEX
  5
2FF
  8
0
  6
CONTINUOUS
 62
     8
 10
697.4884140842
 20
389.5198280408
 30
0.0
  0
VERTEX
  5
300
  8
0
  6
CONTINUOUS
 62
     8
 10
698.838518893
 20
390.0112348093
 30
0.0
  0
VERTEX
  5
301
  8
0
  6
CONTINUOUS
 62
     8
 10
700.3856468551
 20
390.5743422403
 30
0.0
  0
VERTEX
  5
302
  8
0
  6
CONTINUOUS
 62
     8
 10
702.0738590114
 20
391.188802798
 30
0.0
  0
VERTEX
  5
303
  8
0
  6
CONTINUOUS
 62
     8
 10
703.842150008
 20
391.8324063017
 30
0.0
  0
VERTEX
  5
304
  8
0
  6
CONTINUOUS
 62
     8
 10
705.6265938633
 20
392.4818920387
 30
0.0
  0
VERTEX
  5
305
  8
0
  6
CONTINUOUS
 62
     8
 10
707.3626983516
 20
393.1137832298
 30
0.0
  0
VERTEX
  5
306
  8
0
  6
CONTINUOUS
 62
     8
 10
708.9877295845
 20
393.7052475704
 30
0.0
  0
VERTEX
  5
307
  8
0
  6
CONTINUOUS
 62
     8
 10
710.4429471843
 20
394.2349018945
 30
0.0
  0
VERTEX
  5
308
  8
0
  6
CONTINUOUS
 62
     8
 10
711.6757500522
 20
394.6836056604
 30
0.0
  0
VERTEX
  5
309
  8
0
  6
CONTINUOUS
 62
     8
 10
712.6416135185
 20
395.0351426794
 30
0.0
  0
VERTEX
  5
30A
  8
0
  6
CONTINUOUS
 62
     8
 10
713.3055496566
 20
395.2768059863
 30
0.0
  0
VERTEX
  5
30B
  8
0
  6
CONTINUOUS
 62
     8
 10
713.6436570041
 20
395.3998597755
 30
0.0
  0
VERTEX
  5
30C
  8
0
  6
CONTINUOUS
 62
     8
 10
713.6862147205
 20
395.4153458072
 30
0.0
  0
SEQEND
  5
337
  8
0
  6
CONTINUOUS
 62
     8
  0
LINE
  5
19C
  8
0
  6
CONTINUOUS
 62
     8
 10
511.5260872595
 20
446.1919131173
 30
0.0
 11
518.9260858648
 21
446.1919131173
 31
0.0
  0
LINE
  5
19D
  8
0
  6
CONTINUOUS
 62
     8
 10
511.5260872595
 20
453.5919135852
 30
0.0
 11
511.5260872595
 21
446.1919131173
 31
0.0
  0
LINE
  5
19E
  8
0
  6
CONTINUOUS
 62
     8
 10
518.9260858648
 20
453.5919135852
 30
0.0
 11
511.5260872595
 21
453.5919135852
 31
0.0
  0
LINE
  5
19F
  8
0
  6
CONTINUOUS
 62
     8
 10
518.9260858648
 20
446.1919131173
 30
0.0
 11
518.9260858648
 21
453.5919135852
 31
0.0
  0
LINE
  5
1A0
  8
0
  6
CONTINUOUS
 62
     8
 10
511.5260872595
 20
453.5919135852
 30
0.0
 11
510.7260886185
 21
453.5919135852
 31
0.0
  0
LINE
  5
1A1
  8
0
  6
CONTINUOUS
 62
     8
 10
511.5260872595
 20
453.5919135852
 30
0.0
 11
511.5260872595
 21
454.3919122262
 31
0.0
  0
LINE
  5
1A2
  8
0
  6
CONTINUOUS
 62
     8
 10
518.9260858648
 20
453.5919135852
 30
0.0
 11
518.9260858648
 21
454.3919122262
 31
0.0
  0
LINE
  5
1A3
  8
0
  6
CONTINUOUS
 62
     8
 10
511.5260872595
 20
446.1919131173
 30
0.0
 11
510.7260886185
 21
446.1919131173
 31
0.0
  0
LINE
  5
1A4
  8
0
  6
CONTINUOUS
 62
     8
 10
511.5260872595
 20
445.3919126137
 30
0.0
 11
511.5260872595
 21
446.1919131173
 31
0.0
  0
LINE
  5
1A5
  8
0
  6
CONTINUOUS
 62
     8
 10
518.9260858648
 20
445.3919126137
 30
0.0
 11
518.9260858648
 21
446.1919131173
 31
0.0
  0
LINE
  5
1A6
  8
0
  6
CONTINUOUS
 62
     8
 10
519.7260845058
 20
453.5919135852
 30
0.0
 11
518.9260858648
 21
453.5919135852
 31
0.0
  0
LINE
  5
1A7
  8
0
  6
CONTINUOUS
 62
     8
 10
519.7260845058
 20
446.1919131173
 30
0.0
 11
518.9260858648
 21
446.1919131173
 31
0.0
  0
LINE
  5
1A8
  8
0
  6
CONTINUOUS
 62
     8
 10
518.9260858648
 20
438.3919128633
 30
0.0
 11
518.9260858648
 21
445.3919126137
 31
0.0
  0
LINE
  5
1A9
  8
0
  6
CONTINUOUS
 62
     8
 10
518.9260858648
 20
438.3919128633
 30
0.0
 11
511.5260872595
 21
438.3919128633
 31
0.0
  0
LINE
  5
1AA
  8
0
  6
CONTINUOUS
 62
     8
 10
511.5260872595
 20
445.3919126137
 30
0.0
 11
511.5260872595
 21
438.3919128633
 31
0.0
  0
LINE
  5
1AB
  8
0
  6
CONTINUOUS
 62
     8
 10
518.9260858648
 20
454.3919122262
 30
0.0
 11
518.9260858648
 21
461.3919133736
 31
0.0
  0
LINE
  5
1AC
  8
0
  6
CONTINUOUS
 62
     8
 10
511.5260872595
 20
461.3919133736
 30
0.0
 11
511.5260872595
 21
454.3919122262
 31
0.0
  0
LINE
  5
1AD
  8
0
  6
CONTINUOUS
 62
     8
 10
518.9260858648
 20
461.3919133736
 30
0.0
 11
511.5260872595
 21
461.3919133736
 31
0.0
  0
LINE
  5
1AE
  8
0
  6
CONTINUOUS
 62
     8
 10
510.7260886185
 20
438.3919128633
 30
0.0
 11
511.5260872595
 21
438.3919128633
 31
0.0
  0
LINE
  5
1AF
  8
0
  6
CONTINUOUS
 62
     8
 10
511.5260872595
 20
461.3919133736
 30
0.0
 11
510.7260886185
 21
461.3919133736
 31
0.0
  0
LINE
  5
1B0
  8
0
  6
CONTINUOUS
 62
     8
 10
519.7260845058
 20
461.3919133736
 30
0.0
 11
518.9260858648
 21
461.3919133736
 31
0.0
  0
LINE
  5
1B1
  8
0
  6
CONTINUOUS
 62
     8
 10
518.9260858648
 20
438.3919128633
 30
0.0
 11
519.7260845058
 21
438.3919128633
 31
0.0
  0
LINE
  5
1B2
  8
0
  6
CONTINUOUS
 62
     8
 10
510.326089298
 20
441.8919129713
 30
0.0
 11
510.326089298
 21
457.8919118686
 31
0.0
  0
LINE
  5
1B3
  8
0
  6
CONTINUOUS
 62
     8
 10
500.0260863059
 20
457.8919118686
 30
0.0
 11
500.0260863059
 21
441.8919129713
 31
0.0
  0
LINE
  5
1B4
  8
0
  6
CONTINUOUS
 62
     8
 10
499.1260859721
 20
441.8919129713
 30
0.0
 11
499.1260859721
 21
457.8919118686
 31
0.0
  0
LINE
  5
1B5
  8
0
  6
CONTINUOUS
 62
     8
 10
518.9260858648
 20
461.3919133736
 30
0.0
 11
518.9260858648
 21
484.091913928
 31
0.0
  0
LINE
  5
1B6
  8
0
  6
CONTINUOUS
 62
     8
 10
511.5260872595
 20
484.091913928
 30
0.0
 11
511.5260872595
 21
461.3919133736
 31
0.0
  0
LINE
  5
1B7
  8
0
  6
CONTINUOUS
 62
     8
 10
518.9260858648
 20
484.091913928
 30
0.0
 11
511.5260872595
 21
484.091913928
 31
0.0
  0
LINE
  5
1B8
  8
0
  6
CONTINUOUS
 62
     8
 10
511.5260872595
 20
438.3919128633
 30
0.0
 11
511.5260872595
 21
415.6919127746
 31
0.0
  0
LINE
  5
1B9
  8
0
  6
CONTINUOUS
 62
     8
 10
518.9260858648
 20
415.6919127746
 30
0.0
 11
518.9260858648
 21
438.3919128633
 31
0.0
  0
LINE
  5
1BA
  8
0
  6
CONTINUOUS
 62
     8
 10
511.5260872595
 20
415.6919127746
 30
0.0
 11
518.9260858648
 21
415.6919127746
 31
0.0
  0
LINE
  5
1BB
  8
0
  6
CONTINUOUS
 62
     8
 10
511.5260872595
 20
484.091913928
 30
0.0
 11
511.5260872595
 21
484.891912569
 31
0.0
  0
LINE
  5
1BC
  8
0
  6
CONTINUOUS
 62
     8
 10
518.9260858648
 20
484.091913928
 30
0.0
 11
518.9260858648
 21
484.891912569
 31
0.0
  0
LINE
  5
1BD
  8
0
  6
CONTINUOUS
 62
     8
 10
511.5260872595
 20
484.091913928
 30
0.0
 11
510.7260886185
 21
484.091913928
 31
0.0
  0
LINE
  5
1BE
  8
0
  6
CONTINUOUS
 62
     8
 10
510.7260886185
 20
415.6919127746
 30
0.0
 11
511.5260872595
 21
415.6919127746
 31
0.0
  0
LINE
  5
1BF
  8
0
  6
CONTINUOUS
 62
     8
 10
519.7260845058
 20
484.091913928
 30
0.0
 11
518.9260858648
 21
484.091913928
 31
0.0
  0
LINE
  5
1C0
  8
0
  6
CONTINUOUS
 62
     8
 10
519.7260845058
 20
415.6919127746
 30
0.0
 11
518.9260858648
 21
415.6919127746
 31
0.0
  0
LINE
  5
1C1
  8
0
  6
CONTINUOUS
 62
     8
 10
511.5260872595
 20
414.8919122709
 30
0.0
 11
511.5260872595
 21
415.6919127746
 31
0.0
  0
LINE
  5
1C2
  8
0
  6
CONTINUOUS
 62
     8
 10
518.9260858648
 20
414.8919122709
 30
0.0
 11
518.9260858648
 21
415.6919127746
 31
0.0
  0
LINE
  5
1C3
  8
0
  6
CONTINUOUS
 62
     7
 10
317.7994423028
 20
327.0990921068
 30
0.0
 11
317.7994423028
 21
319.8990894365
 31
0.0
  0
LINE
  5
1C4
  8
0
  6
CONTINUOUS
 62
     7
 10
374.7994386073
 20
319.8990894365
 30
0.0
 11
374.7994386073
 21
327.0990921068
 31
0.0
  0
ARC
  5
1C5
  8
0
  6
CONTINUOUS
 62
     7
 10
373.9994422311
 20
319.8990926627
 30
0.0
 40
0.8000000000000114
 50
270.0
 51
0.0
  0
ARC
  5
1C6
  8
0
  6
CONTINUOUS
 62
     7
 10
318.5994422311
 20
319.8990926627
 30
0.0
 40
0.8000000000000114
 50
180.0
 51
270.0
  0
ARC
  5
1C7
  8
0
  6
CONTINUOUS
 62
     7
 10
365.2994422311
 20
318.5990926627
 30
0.0
 40
0.5
 50
90.0
 51
180.0
  0
ARC
  5
1C8
  8
0
  6
CONTINUOUS
 62
     7
 10
327.2994422311
 20
318.5990926627
 30
0.0
 40
0.5
 50
0.0
 51
90.0
  0
LINE
  5
1C9
  8
0
  6
CONTINUOUS
 62
     7
 10
327.7994439419
 20
318.5990897822
 30
0.0
 11
327.7994439419
 21
312.4990908312
 31
0.0
  0
LINE
  5
1CA
  8
0
  6
CONTINUOUS
 62
     7
 10
364.7994406935
 20
312.4990908312
 30
0.0
 11
364.7994406935
 21
318.5990897822
 31
0.0
  0
ARC
  5
1CB
  8
0
  6
CONTINUOUS
 62
     7
 10
364.1994422311
 20
312.4990926627
 30
0.0
 40
0.6000000000000227
 50
270.0
 51
0.0
  0
ARC
  5
1CC
  8
0
  6
CONTINUOUS
 62
     7
 10
328.3994422311
 20
312.4990926627
 30
0.0
 40
0.6000000000000227
 50
180.0
 51
270.0
  0
ARC
  5
1CD
  8
0
  6
CONTINUOUS
 62
     7
 10
354.7994422311
 20
311.3990926627
 30
0.0
 40
0.5
 50
90.0
 51
180.0
  0
ARC
  5
1CE
  8
0
  6
CONTINUOUS
 62
     7
 10
337.7994422311
 20
311.3990926627
 30
0.0
 40
0.5
 50
0.0
 51
90.0
  0
ARC
  5
1CF
  8
0
  6
CONTINUOUS
 62
     7
 10
354.6994422311
 20
281.1990926627
 30
0.0
 40
0.4000000000000341
 50
180.0
 51
270.0
  0
ARC
  5
1D0
  8
0
  6
CONTINUOUS
 62
     7
 10
337.8994422311
 20
281.1990926627
 30
0.0
 40
0.3999999999999773
 50
270.0
 51
0.0
  0
LINE
  5
1D1
  8
0
  6
CONTINUOUS
 62
     7
 10
338.2994391438
 20
311.3990945625
 30
0.0
 11
338.2994391438
 21
292.3990933108
 31
0.0
  0
LINE
  5
1D2
  8
0
  6
CONTINUOUS
 62
     7
 10
354.2994417664
 20
292.3990933108
 30
0.0
 11
354.2994417664
 21
311.3990945625
 31
0.0
  0
ARC
  5
1D3
  8
0
  6
CONTINUOUS
 62
     7
 10
353.9994422311
 20
292.3990926627
 30
0.0
 40
0.3000000000000114
 50
270.0
 51
0.0
  0
ARC
  5
1D4
  8
0
  6
CONTINUOUS
 62
     7
 10
338.5994422311
 20
292.3990926627
 30
0.0
 40
0.3000000000000114
 50
180.0
 51
270.0
  0
ARC
  5
1D5
  8
0
  6
CONTINUOUS
 62
     7
 10
338.5994422311
 20
291.4990926627
 30
0.0
 40
0.2999999999999545
 50
90.0
 51
180.0
  0
ARC
  5
1D6
  8
0
  6
CONTINUOUS
 62
     7
 10
353.9994422311
 20
291.4990926627
 30
0.0
 40
0.2999999999999545
 50
0.0
 51
90.0
  0
LINE
  5
1D7
  8
0
  6
CONTINUOUS
 62
     7
 10
338.2994391438
 20
291.499092977
 30
0.0
 11
338.2994391438
 21
281.1990899849
 31
0.0
  0
LINE
  5
1D8
  8
0
  6
CONTINUOUS
 62
     7
 10
354.2994417664
 20
281.1990899849
 30
0.0
 11
354.2994417664
 21
291.499092977
 31
0.0
  0
ARC
  5
1D9
  8
0
  6
CONTINUOUS
 62
     7
 10
352.3994422311
 20
291.7990926627
 30
0.0
 40
0.3000000000000114
 50
90.0
 51
180.0
  0
ARC
  5
1DA
  8
0
  6
CONTINUOUS
 62
     7
 10
340.1994422311
 20
291.7990926627
 30
0.0
 40
0.3000000000000114
 50
0.0
 51
90.0
  0
LINE
  5
1DB
  8
0
  6
CONTINUOUS
 62
     7
 10
217.7994408127
 20
327.0990921068
 30
0.0
 11
217.7994408127
 21
319.8990894365
 31
0.0
  0
LINE
  5
1DC
  8
0
  6
CONTINUOUS
 62
     7
 10
274.7994422395
 20
319.8990894365
 30
0.0
 11
274.7994422395
 21
327.0990921068
 31
0.0
  0
ARC
  5
1DD
  8
0
  6
CONTINUOUS
 62
     7
 10
218.5994422311
 20
319.8990926627
 30
0.0
 40
0.799999999999983
 50
180.0
 51
270.0
  0
ARC
  5
1DE
  8
0
  6
CONTINUOUS
 62
     7
 10
273.9994422311
 20
319.8990926627
 30
0.0
 40
0.8000000000000114
 50
270.0
 51
0.0
  0
ARC
  5
1DF
  8
0
  6
CONTINUOUS
 62
     7
 10
227.1994422311
 20
318.4990926627
 30
0.0
 40
0.6000000000000227
 50
0.0
 51
90.0
  0
ARC
  5
1E0
  8
0
  6
CONTINUOUS
 62
     7
 10
265.3994422311
 20
318.4990926627
 30
0.0
 40
0.6000000000000227
 50
90.0
 51
180.0
  0
LINE
  5
1E1
  8
0
  6
CONTINUOUS
 62
     7
 10
227.7994424518
 20
318.49909554
 30
0.0
 11
227.7994424518
 21
312.2990948963
 31
0.0
  0
LINE
  5
1E2
  8
0
  6
CONTINUOUS
 62
     7
 10
264.799442463
 20
312.2990948963
 30
0.0
 11
264.799442463
 21
318.49909554
 31
0.0
  0
ARC
  5
1E3
  8
0
  6
CONTINUOUS
 62
     7
 10
228.3994422311
 20
312.2990926627
 30
0.0
 40
0.6000000000000227
 50
180.0
 51
270.0
  0
ARC
  5
1E4
  8
0
  6
CONTINUOUS
 62
     7
 10
264.1994422311
 20
312.2990926627
 30
0.0
 40
0.6000000000000227
 50
270.0
 51
0.0
  0
LINE
  5
1E5
  8
0
  6
CONTINUOUS
 62
     7
 10
236.2994410511
 20
291.6990963625
 30
0.0
 11
236.2994410511
 21
150.3210438299
 31
0.0
  0
LINE
  5
1E6
  8
0
  6
CONTINUOUS
 62
     7
 10
256.2994424667
 20
150.3210438299
 30
0.0
 11
256.2994424667
 21
291.6990963625
 31
0.0
  0
ARC
  5
1E7
  8
0
  6
CONTINUOUS
 62
     7
 10
255.8994422311
 20
291.6990926627
 30
0.0
 40
0.4000000000000341
 50
0.0
 51
90.0
  0
ARC
  5
1E8
  8
0
  6
CONTINUOUS
 62
     7
 10
236.6994422311
 20
291.6990926627
 30
0.0
 40
0.4000000000000341
 50
90.0
 51
180.0
  0
LINE
  5
1E9
  8
0
  6
CONTINUOUS
 62
     7
 10
236.2994410511
 20
150.3210438299
 30
0.0
 11
236.2994410511
 21
93.9394904184
 31
0.0
  0
LINE
  5
1EA
  8
0
  6
CONTINUOUS
 62
     7
 10
256.2994424667
 20
93.9394904184
 30
0.0
 11
256.2994424667
 21
150.3210438299
 31
0.0
  0
LINE
  5
1EB
  8
0
  6
CONTINUOUS
 62
     7
 10
236.2994410511
 20
311.6990921902
 30
0.0
 11
236.2994410511
 21
292.3990933108
 31
0.0
  0
LINE
  5
1EC
  8
0
  6
CONTINUOUS
 62
     7
 10
256.2994424667
 20
292.3990933108
 30
0.0
 11
256.2994424667
 21
311.6990921902
 31
0.0
  0
ARC
  5
1ED
  8
0
  6
CONTINUOUS
 62
     7
 10
236.5994422311
 20
292.3990926627
 30
0.0
 40
0.2999999999999829
 50
180.0
 51
270.0
  0
ARC
  5
1EE
  8
0
  6
CONTINUOUS
 62
     7
 10
255.9994422311
 20
292.3990926627
 30
0.0
 40
0.3000000000000398
 50
270.0
 51
0.0
  0
LINE
  5
1EF
  8
0
  6
CONTINUOUS
 62
     7
 10
256.2994424667
 20
87.2359050321
 30
0.0
 11
256.2994424667
 21
93.9394904184
 31
0.0
  0
LINE
  5
1F0
  8
0
  6
CONTINUOUS
 62
     7
 10
236.2994410511
 20
93.9394904184
 30
0.0
 11
236.2994410511
 21
87.2359050321
 31
0.0
  0
LINE
  5
1F1
  8
0
  6
CONTINUOUS
 62
     7
 10
117.7994393226
 20
327.0990921068
 30
0.0
 11
117.7994393226
 21
319.8990894365
 31
0.0
  0
LINE
  5
1F2
  8
0
  6
CONTINUOUS
 62
     7
 10
174.7994430777
 20
319.8990894365
 30
0.0
 11
174.7994430777
 21
327.0990921068
 31
0.0
  0
ARC
  5
1F3
  8
0
  6
CONTINUOUS
 62
     7
 10
173.9994422311
 20
319.8990926627
 30
0.0
 40
0.8000000000000114
 50
270.0
 51
0.0
  0
ARC
  5
1F4
  8
0
  6
CONTINUOUS
 62
     7
 10
118.5994422311
 20
319.8990926627
 30
0.0
 40
0.8000000000000114
 50
180.0
 51
270.0
  0
ARC
  5
1F5
  8
0
  6
CONTINUOUS
 62
     7
 10
165.2994422311
 20
318.5990926627
 30
0.0
 40
0.5
 50
90.0
 51
180.0
  0
ARC
  5
1F6
  8
0
  6
CONTINUOUS
 62
     7
 10
127.2994422311
 20
318.5990926627
 30
0.0
 40
0.5
 50
0.0
 51
90.0
  0
LINE
  5
1F7
  8
0
  6
CONTINUOUS
 62
     7
 10
127.799444687
 20
318.5990897822
 30
0.0
 11
127.799444687
 21
312.4990908312
 31
0.0
  0
LINE
  5
1F8
  8
0
  6
CONTINUOUS
 62
     7
 10
164.7994451638
 20
312.4990908312
 30
0.0
 11
164.7994451638
 21
318.5990897822
 31
0.0
  0
ARC
  5
1F9
  8
0
  6
CONTINUOUS
 62
     7
 10
164.1994422311
 20
312.4990926627
 30
0.0
 40
0.6000000000000227
 50
270.0
 51
0.0
  0
ARC
  5
1FA
  8
0
  6
CONTINUOUS
 62
     7
 10
128.3994422311
 20
312.4990926627
 30
0.0
 40
0.6000000000000227
 50
180.0
 51
270.0
  0
ARC
  5
1FB
  8
0
  6
CONTINUOUS
 62
     7
 10
154.7994422311
 20
311.3990926627
 30
0.0
 40
0.5
 50
90.0
 51
180.0
  0
ARC
  5
1FC
  8
0
  6
CONTINUOUS
 62
     7
 10
137.7994422311
 20
311.3990926627
 30
0.0
 40
0.5
 50
0.0
 51
90.0
  0
ARC
  5
1FD
  8
0
  6
CONTINUOUS
 62
     7
 10
154.6994422311
 20
281.1990926627
 30
0.0
 40
0.4000000000000341
 50
180.0
 51
270.0
  0
ARC
  5
1FE
  8
0
  6
CONTINUOUS
 62
     7
 10
137.8994422311
 20
281.1990926627
 30
0.0
 40
0.4000000000000341
 50
270.0
 51
0.0
  0
LINE
  5
1FF
  8
0
  6
CONTINUOUS
 62
     7
 10
138.2994436141
 20
311.3990945625
 30
0.0
 11
138.2994436141
 21
292.3990933108
 31
0.0
  0
LINE
  5
200
  8
0
  6
CONTINUOUS
 62
     7
 10
154.2994387861
 20
292.3990933108
 30
0.0
 11
154.2994387861
 21
311.3990945625
 31
0.0
  0
ARC
  5
201
  8
0
  6
CONTINUOUS
 62
     7
 10
153.9994422311
 20
292.3990926627
 30
0.0
 40
0.3000000000000398
 50
270.0
 51
0.0
  0
ARC
  5
202
  8
0
  6
CONTINUOUS
 62
     7
 10
138.5994422311
 20
292.3990926627
 30
0.0
 40
0.2999999999999829
 50
180.0
 51
270.0
  0
ARC
  5
203
  8
0
  6
CONTINUOUS
 62
     7
 10
138.5994422311
 20
291.4990926627
 30
0.0
 40
0.3000000000000114
 50
90.0
 51
180.0
  0
ARC
  5
204
  8
0
  6
CONTINUOUS
 62
     7
 10
153.9994422311
 20
291.4990926627
 30
0.0
 40
0.3000000000000114
 50
0.0
 51
90.0
  0
LINE
  5
205
  8
0
  6
CONTINUOUS
 62
     7
 10
138.2994436141
 20
291.499092977
 30
0.0
 11
138.2994436141
 21
281.1990899849
 31
0.0
  0
LINE
  5
206
  8
0
  6
CONTINUOUS
 62
     7
 10
154.2994387861
 20
281.1990899849
 30
0.0
 11
154.2994387861
 21
291.499092977
 31
0.0
  0
ARC
  5
207
  8
0
  6
CONTINUOUS
 62
     7
 10
152.3994422311
 20
291.7990926627
 30
0.0
 40
0.3000000000000114
 50
90.0
 51
180.0
  0
ARC
  5
208
  8
0
  6
CONTINUOUS
 62
     7
 10
140.1994422311
 20
291.7990926627
 30
0.0
 40
0.3000000000000114
 50
0.0
 51
90.0
  0
LINE
  5
209
  8
0
  6
CONTINUOUS
 62
     7
 10
342.5994448777
 20
280.7990906643
 30
0.0
 11
349.999443483
 21
280.7990906643
 31
0.0
  0
ARC
  5
20A
  8
0
  6
CONTINUOUS
 62
     7
 10
342.5994422311
 20
279.9990926627
 30
0.0
 40
0.8000000000000114
 50
90.0
 51
180.0
  0
ARC
  5
20B
  8
0
  6
CONTINUOUS
 62
     7
 10
349.9994422311
 20
279.9990926627
 30
0.0
 40
0.8000000000000114
 50
0.0
 51
90.0
  0
LINE
  5
20C
  8
0
  6
CONTINUOUS
 62
     7
 10
350.799442124
 20
279.9990920233
 30
0.0
 11
350.799442124
 21
272.5990934181
 31
0.0
  0
LINE
  5
20D
  8
0
  6
CONTINUOUS
 62
     7
 10
341.7994387861
 20
272.5990934181
 30
0.0
 11
341.7994387861
 21
279.9990920233
 31
0.0
  0
LINE
  5
20E
  8
0
  6
CONTINUOUS
 62
     7
 10
349.999443483
 20
271.7990947771
 30
0.0
 11
342.5994448777
 21
271.7990947771
 31
0.0
  0
ARC
  5
20F
  8
0
  6
CONTINUOUS
 62
     7
 10
342.5994422311
 20
272.5990926627
 30
0.0
 40
0.7999999999999545
 50
180.0
 51
270.0
  0
ARC
  5
210
  8
0
  6
CONTINUOUS
 62
     7
 10
349.9994422311
 20
272.5990926627
 30
0.0
 40
0.8000000000000114
 50
270.0
 51
0.0
  0
LINE
  5
211
  8
0
  6
CONTINUOUS
 62
     7
 10
346.2994404551
 20
327.0990921068
 30
0.0
 11
374.7994386073
 21
327.0990921068
 31
0.0
  0
LINE
  5
212
  8
0
  6
CONTINUOUS
 62
     7
 10
317.7994423028
 20
327.0990921068
 30
0.0
 11
346.2994404551
 21
327.0990921068
 31
0.0
  0
LINE
  5
213
  8
0
  6
CONTINUOUS
 62
     7
 10
373.9994399663
 20
319.0990907955
 30
0.0
 11
318.5994409438
 21
319.0990907955
 31
0.0
  0
LINE
  5
214
  8
0
  6
CONTINUOUS
 62
     7
 10
364.199445438
 20
311.8990955758
 30
0.0
 11
328.3994429227
 21
311.8990955758
 31
0.0
  0
LINE
  5
215
  8
0
  6
CONTINUOUS
 62
     7
 10
349.999443483
 20
280.7990906643
 30
0.0
 11
357.7994414087
 21
280.7990906643
 31
0.0
  0
LINE
  5
216
  8
0
  6
CONTINUOUS
 62
     7
 10
334.7994432267
 20
280.7990906643
 30
0.0
 11
342.5994448777
 21
280.7990906643
 31
0.0
  0
LINE
  5
217
  8
0
  6
CONTINUOUS
 62
     7
 10
342.5994448777
 20
271.7990947771
 30
0.0
 11
334.7994432267
 21
271.7990947771
 31
0.0
  0
LINE
  5
218
  8
0
  6
CONTINUOUS
 62
     7
 10
357.7994414087
 20
271.7990947771
 30
0.0
 11
349.999443483
 21
271.7990947771
 31
0.0
  0
LINE
  5
219
  8
0
  6
CONTINUOUS
 62
     7
 10
353.9994441386
 20
292.0990956831
 30
0.0
 11
338.5994442221
 21
292.0990956831
 31
0.0
  0
LINE
  5
21A
  8
0
  6
CONTINUOUS
 62
     7
 10
338.5994442221
 20
291.7990906047
 30
0.0
 11
353.9994441386
 21
291.7990906047
 31
0.0
  0
LINE
  5
21B
  8
0
  6
CONTINUOUS
 62
     7
 10
312.0994426724
 20
280.7990906643
 30
0.0
 11
334.7994432267
 21
280.7990906643
 31
0.0
  0
ARC
  5
21C
  8
0
  6
CONTINUOUS
 62
     7
 10
380.4994422311
 20
279.9990926627
 30
0.0
 40
0.8000000000000682
 50
0.0
 51
90.0
  0
LINE
  5
21D
  8
0
  6
CONTINUOUS
 62
     7
 10
357.7994414087
 20
280.7990906643
 30
0.0
 11
380.4994456883
 21
280.7990906643
 31
0.0
  0
ARC
  5
21E
  8
0
  6
CONTINUOUS
 62
     7
 10
312.0994422311
 20
279.9990926627
 30
0.0
 40
0.8000000000000682
 50
90.0
 51
180.0
  0
LINE
  5
21F
  8
0
  6
CONTINUOUS
 62
     7
 10
381.2994443294
 20
279.9990920233
 30
0.0
 11
381.2994443294
 21
272.5990934181
 31
0.0
  0
LINE
  5
220
  8
0
  6
CONTINUOUS
 62
     7
 10
311.2994440313
 20
272.5990934181
 30
0.0
 11
311.2994440313
 21
279.9990920233
 31
0.0
  0
ARC
  5
221
  8
0
  6
CONTINUOUS
 62
     7
 10
312.0994422311
 20
272.5990926627
 30
0.0
 40
0.8000000000000682
 50
180.0
 51
270.0
  0
LINE
  5
222
  8
0
  6
CONTINUOUS
 62
     7
 10
380.4994456883
 20
271.7990947771
 30
0.0
 11
357.7994414087
 21
271.7990947771
 31
0.0
  0
ARC
  5
223
  8
0
  6
CONTINUOUS
 62
     7
 10
380.4994422311
 20
272.5990926627
 30
0.0
 40
0.8000000000000682
 50
270.0
 51
0.0
  0
LINE
  5
224
  8
0
  6
CONTINUOUS
 62
     7
 10
334.7994432267
 20
271.7990947771
 30
0.0
 11
312.0994426724
 21
271.7990947771
 31
0.0
  0
LINE
  5
225
  8
0
  6
CONTINUOUS
 62
     7
 10
217.7994408127
 20
327.0990921068
 30
0.0
 11
274.7994422395
 21
327.0990921068
 31
0.0
  0
LINE
  5
226
  8
0
  6
CONTINUOUS
 62
     7
 10
273.9994422015
 20
319.0990907955
 30
0.0
 11
218.599443179
 21
319.0990907955
 31
0.0
  0
LINE
  5
227
  8
0
  6
CONTINUOUS
 62
     7
 10
264.1994420852
 20
311.6990921902
 30
0.0
 11
228.3994414326
 21
311.6990921902
 31
0.0
  0
LINE
  5
228
  8
0
  6
CONTINUOUS
 62
     7
 10
255.9994429763
 20
292.0990956831
 30
0.0
 11
236.5994424041
 21
292.0990956831
 31
0.0
  0
POLYLINE
  5
229
  8
0
  6
CONTINUOUS
 62
     7
 66
     1
 10
0.0
 20
0.0
 30
0.0
 70
   128
  0
VERTEX
  5
30D
  8
0
  6
CONTINUOUS
 62
     7
 10
236.2994410511
 20
87.2359050321
 30
0.0
  0
VERTEX
  5
30E
  8
0
  6
CONTINUOUS
 62
     7
 10
236.4012271579
 20
85.8985854196
 30
0.0
  0
VERTEX
  5
30F
  8
0
  6
CONTINUOUS
 62
     7
 10
236.8494354602
 20
84.1624809312
 30
0.0
  0
VERTEX
  5
310
  8
0
  6
CONTINUOUS
 62
     7
 10
237.6391895529
 20
82.5374496984
 30
0.0
  0
VERTEX
  5
311
  8
0
  6
CONTINUOUS
 62
     7
 10
238.7419462617
 20
81.0822320985
 30
0.0
  0
VERTEX
  5
312
  8
0
  6
CONTINUOUS
 62
     7
 10
240.1178524312
 20
79.8494292306
 30
0.0
  0
VERTEX
  5
313
  8
0
  6
CONTINUOUS
 62
     7
 10
241.7171772983
 20
78.8835657644
 30
0.0
  0
VERTEX
  5
314
  8
0
  6
CONTINUOUS
 62
     7
 10
243.4821173962
 20
78.2196296262
 30
0.0
  0
VERTEX
  5
315
  8
0
  6
CONTINUOUS
 62
     7
 10
245.3488827165
 20
77.8815222787
 30
0.0
  0
VERTEX
  5
316
  8
0
  6
CONTINUOUS
 62
     7
 10
247.250002664
 20
77.8815222787
 30
0.0
  0
VERTEX
  5
317
  8
0
  6
CONTINUOUS
 62
     7
 10
249.1167679843
 20
78.2196296262
 30
0.0
  0
VERTEX
  5
318
  8
0
  6
CONTINUOUS
 62
     7
 10
250.8817080822
 20
78.8835657644
 30
0.0
  0
VERTEX
  5
319
  8
0
  6
CONTINUOUS
 62
     7
 10
252.4810329493
 20
79.8494292306
 30
0.0
  0
VERTEX
  5
31A
  8
0
  6
CONTINUOUS
 62
     7
 10
253.8569372561
 20
81.0822320985
 30
0.0
  0
VERTEX
  5
31B
  8
0
  6
CONTINUOUS
 62
     7
 10
254.9596958276
 20
82.5374496984
 30
0.0
  0
VERTEX
  5
31C
  8
0
  6
CONTINUOUS
 62
     7
 10
255.7494499203
 20
84.1624809312
 30
0.0
  0
VERTEX
  5
31D
  8
0
  6
CONTINUOUS
 62
     7
 10
256.1976563599
 20
85.8985854196
 30
0.0
  0
VERTEX
  5
31E
  8
0
  6
CONTINUOUS
 62
     7
 10
256.2994424667
 20
87.2359050321
 30
0.0
  0
SEQEND
  5
338
  8
0
  6
CONTINUOUS
 62
     7
  0
ARC
  5
22A
  8
0
  6
CONTINUOUS
 62
     7
 10
149.9994422311
 20
279.9990926627
 30
0.0
 40
0.799999999999983
 50
0.0
 51
90.0
  0
ARC
  5
22B
  8
0
  6
CONTINUOUS
 62
     7
 10
142.5994422311
 20
279.9990926627
 30
0.0
 40
0.8000000000000114
 50
90.0
 51
180.0
  0
LINE
  5
22C
  8
0
  6
CONTINUOUS
 62
     7
 10
142.5994418975
 20
280.7990906643
 30
0.0
 11
149.9994405027
 21
280.7990906643
 31
0.0
  0
LINE
  5
22D
  8
0
  6
CONTINUOUS
 62
     7
 10
150.7994391438
 20
279.9990920233
 30
0.0
 11
150.7994391438
 21
272.5990934181
 31
0.0
  0
LINE
  5
22E
  8
0
  6
CONTINUOUS
 62
     7
 10
141.7994432565
 20
272.5990934181
 30
0.0
 11
141.7994432565
 21
279.9990920233
 31
0.0
  0
ARC
  5
22F
  8
0
  6
CONTINUOUS
 62
     7
 10
142.5994422311
 20
272.5990926627
 30
0.0
 40
0.8000000000000114
 50
180.0
 51
270.0
  0
LINE
  5
230
  8
0
  6
CONTINUOUS
 62
     7
 10
149.9994405027
 20
271.7990947771
 30
0.0
 11
142.5994418975
 21
271.7990947771
 31
0.0
  0
ARC
  5
231
  8
0
  6
CONTINUOUS
 62
     7
 10
149.9994422311
 20
272.5990926627
 30
0.0
 40
0.799999999999983
 50
270.0
 51
0.0
  0
LINE
  5
232
  8
0
  6
CONTINUOUS
 62
     7
 10
146.2994449254
 20
327.0990921068
 30
0.0
 11
174.7994430777
 21
327.0990921068
 31
0.0
  0
LINE
  5
233
  8
0
  6
CONTINUOUS
 62
     7
 10
117.7994393226
 20
327.0990921068
 30
0.0
 11
146.2994449254
 21
327.0990921068
 31
0.0
  0
LINE
  5
234
  8
0
  6
CONTINUOUS
 62
     7
 10
173.9994444367
 20
319.0990907955
 30
0.0
 11
118.5994379636
 21
319.0990907955
 31
0.0
  0
LINE
  5
235
  8
0
  6
CONTINUOUS
 62
     7
 10
164.1994424578
 20
311.8990955758
 30
0.0
 11
128.3994399425
 21
311.8990955758
 31
0.0
  0
LINE
  5
236
  8
0
  6
CONTINUOUS
 62
     7
 10
134.7994439717
 20
280.7990906643
 30
0.0
 11
142.5994418975
 21
280.7990906643
 31
0.0
  0
LINE
  5
237
  8
0
  6
CONTINUOUS
 62
     7
 10
149.9994405027
 20
280.7990906643
 30
0.0
 11
157.7994458791
 21
280.7990906643
 31
0.0
  0
LINE
  5
238
  8
0
  6
CONTINUOUS
 62
     7
 10
142.5994418975
 20
271.7990947771
 30
0.0
 11
134.7994439717
 21
271.7990947771
 31
0.0
  0
LINE
  5
239
  8
0
  6
CONTINUOUS
 62
     7
 10
157.7994458791
 20
271.7990947771
 30
0.0
 11
149.9994405027
 21
271.7990947771
 31
0.0
  0
LINE
  5
23A
  8
0
  6
CONTINUOUS
 62
     7
 10
153.9994411584
 20
292.0990956831
 30
0.0
 11
138.5994486924
 21
292.0990956831
 31
0.0
  0
LINE
  5
23B
  8
0
  6
CONTINUOUS
 62
     7
 10
138.5994486924
 20
291.7990906047
 30
0.0
 11
153.9994411584
 21
291.7990906047
 31
0.0
  0
ARC
  5
23C
  8
0
  6
CONTINUOUS
 62
     7
 10
180.4994422311
 20
279.9990926627
 30
0.0
 40
0.8000000000000114
 50
0.0
 51
90.0
  0
LINE
  5
23D
  8
0
  6
CONTINUOUS
 62
     7
 10
157.7994458791
 20
280.7990906643
 30
0.0
 11
180.4994427081
 21
280.7990906643
 31
0.0
  0
LINE
  5
23E
  8
0
  6
CONTINUOUS
 62
     7
 10
181.2994413491
 20
279.9990920233
 30
0.0
 11
181.2994413491
 21
272.5990934181
 31
0.0
  0
LINE
  5
23F
  8
0
  6
CONTINUOUS
 62
     7
 10
180.4994427081
 20
271.7990947771
 30
0.0
 11
157.7994458791
 21
271.7990947771
 31
0.0
  0
ARC
  5
240
  8
0
  6
CONTINUOUS
 62
     7
 10
180.4994422311
 20
272.5990926627
 30
0.0
 40
0.8000000000000114
 50
270.0
 51
0.0
  0
LINE
  5
241
  8
0
  6
CONTINUOUS
 62
     7
 10
112.0994471427
 20
280.7990906643
 30
0.0
 11
134.7994439717
 21
280.7990906643
 31
0.0
  0
ARC
  5
242
  8
0
  6
CONTINUOUS
 62
     7
 10
112.0994422311
 20
279.9990926627
 30
0.0
 40
0.8000000000000256
 50
90.0
 51
180.0
  0
LINE
  5
243
  8
0
  6
CONTINUOUS
 62
     7
 10
111.2994485017
 20
272.5990934181
 30
0.0
 11
111.2994485017
 21
279.9990920233
 31
0.0
  0
LINE
  5
244
  8
0
  6
CONTINUOUS
 62
     7
 10
134.7994439717
 20
271.7990947771
 30
0.0
 11
112.0994471427
 21
271.7990947771
 31
0.0
  0
ARC
  5
245
  8
0
  6
CONTINUOUS
 62
     7
 10
112.0994422311
 20
272.5990926627
 30
0.0
 40
0.8000000000000256
 50
180.0
 51
270.0
  0
LINE
  5
246
  8
0
  6
CONTINUOUS
 62
     8
 10
349.999443483
 20
279.9990920233
 30
0.0
 11
342.5994448777
 21
279.9990920233
 31
0.0
  0
LINE
  5
247
  8
0
  6
CONTINUOUS
 62
     8
 10
342.5994448777
 20
279.9990920233
 30
0.0
 11
342.5994448777
 21
280.7990906643
 31
0.0
  0
LINE
  5
248
  8
0
  6
CONTINUOUS
 62
     8
 10
349.999443483
 20
279.9990920233
 30
0.0
 11
349.999443483
 21
280.7990906643
 31
0.0
  0
LINE
  5
249
  8
0
  6
CONTINUOUS
 62
     8
 10
341.7994387861
 20
279.9990920233
 30
0.0
 11
342.5994448777
 21
279.9990920233
 31
0.0
  0
LINE
  5
24A
  8
0
  6
CONTINUOUS
 62
     8
 10
349.999443483
 20
279.9990920233
 30
0.0
 11
350.799442124
 21
279.9990920233
 31
0.0
  0
LINE
  5
24B
  8
0
  6
CONTINUOUS
 62
     8
 10
342.5994448777
 20
279.9990920233
 30
0.0
 11
342.5994448777
 21
272.5990934181
 31
0.0
  0
LINE
  5
24C
  8
0
  6
CONTINUOUS
 62
     8
 10
349.999443483
 20
272.5990934181
 30
0.0
 11
349.999443483
 21
279.9990920233
 31
0.0
  0
LINE
  5
24D
  8
0
  6
CONTINUOUS
 62
     8
 10
342.5994448777
 20
272.5990934181
 30
0.0
 11
349.999443483
 21
272.5990934181
 31
0.0
  0
LINE
  5
24E
  8
0
  6
CONTINUOUS
 62
     8
 10
349.999443483
 20
272.5990934181
 30
0.0
 11
350.799442124
 21
272.5990934181
 31
0.0
  0
LINE
  5
24F
  8
0
  6
CONTINUOUS
 62
     8
 10
341.7994387861
 20
272.5990934181
 30
0.0
 11
342.5994448777
 21
272.5990934181
 31
0.0
  0
LINE
  5
250
  8
0
  6
CONTINUOUS
 62
     8
 10
342.5994448777
 20
271.7990947771
 30
0.0
 11
342.5994448777
 21
272.5990934181
 31
0.0
  0
LINE
  5
251
  8
0
  6
CONTINUOUS
 62
     8
 10
349.999443483
 20
271.7990947771
 30
0.0
 11
349.999443483
 21
272.5990934181
 31
0.0
  0
LINE
  5
252
  8
0
  6
CONTINUOUS
 62
     8
 10
357.7994414087
 20
279.9990920233
 30
0.0
 11
350.799442124
 21
279.9990920233
 31
0.0
  0
LINE
  5
253
  8
0
  6
CONTINUOUS
 62
     8
 10
357.7994414087
 20
279.9990920233
 30
0.0
 11
357.7994414087
 21
280.7990906643
 31
0.0
  0
LINE
  5
254
  8
0
  6
CONTINUOUS
 62
     8
 10
341.7994387861
 20
279.9990920233
 30
0.0
 11
334.7994432267
 21
279.9990920233
 31
0.0
  0
LINE
  5
255
  8
0
  6
CONTINUOUS
 62
     8
 10
334.7994432267
 20
279.9990920233
 30
0.0
 11
334.7994432267
 21
280.7990906643
 31
0.0
  0
LINE
  5
256
  8
0
  6
CONTINUOUS
 62
     8
 10
334.7994432267
 20
272.5990934181
 30
0.0
 11
341.7994387861
 21
272.5990934181
 31
0.0
  0
LINE
  5
257
  8
0
  6
CONTINUOUS
 62
     8
 10
334.7994432267
 20
272.5990934181
 30
0.0
 11
334.7994432267
 21
279.9990920233
 31
0.0
  0
LINE
  5
258
  8
0
  6
CONTINUOUS
 62
     8
 10
350.799442124
 20
272.5990934181
 30
0.0
 11
357.7994414087
 21
272.5990934181
 31
0.0
  0
LINE
  5
259
  8
0
  6
CONTINUOUS
 62
     8
 10
357.7994414087
 20
272.5990934181
 30
0.0
 11
357.7994414087
 21
279.9990920233
 31
0.0
  0
LINE
  5
25A
  8
0
  6
CONTINUOUS
 62
     8
 10
334.7994432267
 20
271.7990947771
 30
0.0
 11
334.7994432267
 21
272.5990934181
 31
0.0
  0
LINE
  5
25B
  8
0
  6
CONTINUOUS
 62
     8
 10
357.7994414087
 20
271.7990947771
 30
0.0
 11
357.7994414087
 21
272.5990934181
 31
0.0
  0
LINE
  5
25C
  8
0
  6
CONTINUOUS
 62
     8
 10
346.2994404551
 20
281.1990899849
 30
0.0
 11
354.2994417664
 21
281.1990899849
 31
0.0
  0
LINE
  5
25D
  8
0
  6
CONTINUOUS
 62
     8
 10
338.2994391438
 20
281.1990899849
 30
0.0
 11
346.2994404551
 21
281.1990899849
 31
0.0
  0
LINE
  5
25E
  8
0
  6
CONTINUOUS
 62
     8
 10
334.7994432267
 20
279.9990920233
 30
0.0
 11
312.0994426724
 21
279.9990920233
 31
0.0
  0
LINE
  5
25F
  8
0
  6
CONTINUOUS
 62
     8
 10
312.0994426724
 20
279.9990920233
 30
0.0
 11
312.0994426724
 21
280.7990906643
 31
0.0
  0
LINE
  5
260
  8
0
  6
CONTINUOUS
 62
     8
 10
380.4994456883
 20
279.9990920233
 30
0.0
 11
381.2994443294
 21
279.9990920233
 31
0.0
  0
LINE
  5
261
  8
0
  6
CONTINUOUS
 62
     8
 10
380.4994456883
 20
280.7990906643
 30
0.0
 11
380.4994456883
 21
279.9990920233
 31
0.0
  0
LINE
  5
262
  8
0
  6
CONTINUOUS
 62
     8
 10
380.4994456883
 20
279.9990920233
 30
0.0
 11
357.7994414087
 21
279.9990920233
 31
0.0
  0
LINE
  5
263
  8
0
  6
CONTINUOUS
 62
     8
 10
311.2994440313
 20
279.9990920233
 30
0.0
 11
312.0994426724
 21
279.9990920233
 31
0.0
  0
LINE
  5
264
  8
0
  6
CONTINUOUS
 62
     8
 10
357.7994414087
 20
272.5990934181
 30
0.0
 11
380.4994456883
 21
272.5990934181
 31
0.0
  0
LINE
  5
265
  8
0
  6
CONTINUOUS
 62
     8
 10
380.4994456883
 20
272.5990934181
 30
0.0
 11
380.4994456883
 21
279.9990920233
 31
0.0
  0
LINE
  5
266
  8
0
  6
CONTINUOUS
 62
     8
 10
380.4994456883
 20
272.5990934181
 30
0.0
 11
381.2994443294
 21
272.5990934181
 31
0.0
  0
LINE
  5
267
  8
0
  6
CONTINUOUS
 62
     8
 10
312.0994426724
 20
272.5990934181
 30
0.0
 11
334.7994432267
 21
272.5990934181
 31
0.0
  0
LINE
  5
268
  8
0
  6
CONTINUOUS
 62
     8
 10
312.0994426724
 20
279.9990920233
 30
0.0
 11
312.0994426724
 21
272.5990934181
 31
0.0
  0
LINE
  5
269
  8
0
  6
CONTINUOUS
 62
     8
 10
311.2994440313
 20
272.5990934181
 30
0.0
 11
312.0994426724
 21
272.5990934181
 31
0.0
  0
LINE
  5
26A
  8
0
  6
CONTINUOUS
 62
     8
 10
312.0994426724
 20
271.7990947771
 30
0.0
 11
312.0994426724
 21
272.5990934181
 31
0.0
  0
LINE
  5
26B
  8
0
  6
CONTINUOUS
 62
     8
 10
380.4994456883
 20
272.5990934181
 30
0.0
 11
380.4994456883
 21
271.7990947771
 31
0.0
  0
POLYLINE
  5
26C
  8
0
  6
CONTINUOUS
 62
     8
 66
     1
 10
0.0
 20
0.0
 30
0.0
 70
   128
  0
VERTEX
  5
31F
  8
0
  6
CONTINUOUS
 62
     8
 10
236.2994410511
 20
93.9394904184
 30
0.0
  0
VERTEX
  5
320
  8
0
  6
CONTINUOUS
 62
     8
 10
236.4801548835
 20
92.1611262369
 30
0.0
  0
VERTEX
  5
321
  8
0
  6
CONTINUOUS
 62
     8
 10
237.0157622214
 20
90.4470158624
 30
0.0
  0
VERTEX
  5
322
  8
0
  6
CONTINUOUS
 62
     8
 10
237.8869064566
 20
88.8591481256
 30
0.0
  0
VERTEX
  5
323
  8
0
  6
CONTINUOUS
 62
     8
 10
239.0621014353
 20
87.4548626947
 30
0.0
  0
VERTEX
  5
324
  8
0
  6
CONTINUOUS
 62
     8
 10
240.4988713976
 20
86.2849725294
 30
0.0
  0
VERTEX
  5
325
  8
0
  6
CONTINUOUS
 62
     8
 10
242.1452913847
 20
85.3917373228
 30
0.0
  0
VERTEX
  5
326
  8
0
  6
CONTINUOUS
 62
     8
 10
243.9418536093
 20
84.8074627924
 30
0.0
  0
VERTEX
  5
327
  8
0
  6
CONTINUOUS
 62
     8
 10
245.8236225363
 20
84.5532191801
 30
0.0
  0
VERTEX
  5
328
  8
0
  6
CONTINUOUS
 62
     8
 10
247.7225911286
 20
84.6382154035
 30
0.0
  0
VERTEX
  5
329
  8
0
  6
CONTINUOUS
 62
     8
 10
249.5701227751
 20
85.0593818235
 30
0.0
  0
VERTEX
  5
32A
  8
0
  6
CONTINUOUS
 62
     8
 10
251.2994416472
 20
85.8015192556
 30
0.0
  0
VERTEX
  5
32B
  8
0
  6
CONTINUOUS
 62
     8
 10
252.8480504122
 20
86.8377758073
 30
0.0
  0
VERTEX
  5
32C
  8
0
  6
CONTINUOUS
 62
     8
 10
254.1599728581
 20
88.1306899595
 30
0.0
  0
VERTEX
  5
32D
  8
0
  6
CONTINUOUS
 62
     8
 10
255.1877972152
 20
89.6335614729
 30
0.0
  0
VERTEX
  5
32E
  8
0
  6
CONTINUOUS
 62
     8
 10
255.8943711635
 20
91.2920607137
 30
0.0
  0
VERTEX
  5
32F
  8
0
  6
CONTINUOUS
 62
     8
 10
256.2541615631
 20
93.0462552118
 30
0.0
  0
VERTEX
  5
330
  8
0
  6
CONTINUOUS
 62
     8
 10
256.2994424667
 20
93.9394904184
 30
0.0
  0
SEQEND
  5
339
  8
0
  6
CONTINUOUS
 62
     8
  0
LINE
  5
26D
  8
0
  6
CONTINUOUS
 62
     8
 10
149.9994405027
 20
279.9990920233
 30
0.0
 11
149.9994405027
 21
280.7990906643
 31
0.0
  0
LINE
  5
26E
  8
0
  6
CONTINUOUS
 62
     8
 10
149.9994405027
 20
279.9990920233
 30
0.0
 11
150.7994391438
 21
279.9990920233
 31
0.0
  0
LINE
  5
26F
  8
0
  6
CONTINUOUS
 62
     8
 10
142.5994418975
 20
279.9990920233
 30
0.0
 11
142.5994418975
 21
280.7990906643
 31
0.0
  0
LINE
  5
270
  8
0
  6
CONTINUOUS
 62
     8
 10
141.7994432565
 20
279.9990920233
 30
0.0
 11
142.5994418975
 21
279.9990920233
 31
0.0
  0
LINE
  5
271
  8
0
  6
CONTINUOUS
 62
     8
 10
149.9994405027
 20
279.9990920233
 30
0.0
 11
142.5994418975
 21
279.9990920233
 31
0.0
  0
LINE
  5
272
  8
0
  6
CONTINUOUS
 62
     8
 10
149.9994405027
 20
272.5990934181
 30
0.0
 11
149.9994405027
 21
279.9990920233
 31
0.0
  0
LINE
  5
273
  8
0
  6
CONTINUOUS
 62
     8
 10
149.9994405027
 20
272.5990934181
 30
0.0
 11
150.7994391438
 21
272.5990934181
 31
0.0
  0
LINE
  5
274
  8
0
  6
CONTINUOUS
 62
     8
 10
142.5994418975
 20
279.9990920233
 30
0.0
 11
142.5994418975
 21
272.5990934181
 31
0.0
  0
LINE
  5
275
  8
0
  6
CONTINUOUS
 62
     8
 10
141.7994432565
 20
272.5990934181
 30
0.0
 11
142.5994418975
 21
272.5990934181
 31
0.0
  0
LINE
  5
276
  8
0
  6
CONTINUOUS
 62
     8
 10
142.5994418975
 20
272.5990934181
 30
0.0
 11
149.9994405027
 21
272.5990934181
 31
0.0
  0
LINE
  5
277
  8
0
  6
CONTINUOUS
 62
     8
 10
142.5994418975
 20
271.7990947771
 30
0.0
 11
142.5994418975
 21
272.5990934181
 31
0.0
  0
LINE
  5
278
  8
0
  6
CONTINUOUS
 62
     8
 10
149.9994405027
 20
271.7990947771
 30
0.0
 11
149.9994405027
 21
272.5990934181
 31
0.0
  0
LINE
  5
279
  8
0
  6
CONTINUOUS
 62
     8
 10
141.7994432565
 20
279.9990920233
 30
0.0
 11
134.7994439717
 21
279.9990920233
 31
0.0
  0
LINE
  5
27A
  8
0
  6
CONTINUOUS
 62
     8
 10
134.7994439717
 20
279.9990920233
 30
0.0
 11
134.7994439717
 21
280.7990906643
 31
0.0
  0
LINE
  5
27B
  8
0
  6
CONTINUOUS
 62
     8
 10
157.7994458791
 20
279.9990920233
 30
0.0
 11
150.7994391438
 21
279.9990920233
 31
0.0
  0
LINE
  5
27C
  8
0
  6
CONTINUOUS
 62
     8
 10
157.7994458791
 20
279.9990920233
 30
0.0
 11
157.7994458791
 21
280.7990906643
 31
0.0
  0
LINE
  5
27D
  8
0
  6
CONTINUOUS
 62
     8
 10
134.7994439717
 20
272.5990934181
 30
0.0
 11
141.7994432565
 21
272.5990934181
 31
0.0
  0
LINE
  5
27E
  8
0
  6
CONTINUOUS
 62
     8
 10
134.7994439717
 20
272.5990934181
 30
0.0
 11
134.7994439717
 21
279.9990920233
 31
0.0
  0
LINE
  5
27F
  8
0
  6
CONTINUOUS
 62
     8
 10
150.7994391438
 20
272.5990934181
 30
0.0
 11
157.7994458791
 21
272.5990934181
 31
0.0
  0
LINE
  5
280
  8
0
  6
CONTINUOUS
 62
     8
 10
157.7994458791
 20
272.5990934181
 30
0.0
 11
157.7994458791
 21
279.9990920233
 31
0.0
  0
LINE
  5
281
  8
0
  6
CONTINUOUS
 62
     8
 10
134.7994439717
 20
271.7990947771
 30
0.0
 11
134.7994439717
 21
272.5990934181
 31
0.0
  0
LINE
  5
282
  8
0
  6
CONTINUOUS
 62
     8
 10
157.7994458791
 20
271.7990947771
 30
0.0
 11
157.7994458791
 21
272.5990934181
 31
0.0
  0
LINE
  5
283
  8
0
  6
CONTINUOUS
 62
     8
 10
180.4994427081
 20
279.9990920233
 30
0.0
 11
181.2994413491
 21
279.9990920233
 31
0.0
  0
LINE
  5
284
  8
0
  6
CONTINUOUS
 62
     8
 10
180.4994427081
 20
280.7990906643
 30
0.0
 11
180.4994427081
 21
279.9990920233
 31
0.0
  0
LINE
  5
285
  8
0
  6
CONTINUOUS
 62
     8
 10
180.4994427081
 20
279.9990920233
 30
0.0
 11
157.7994458791
 21
279.9990920233
 31
0.0
  0
LINE
  5
286
  8
0
  6
CONTINUOUS
 62
     8
 10
157.7994458791
 20
272.5990934181
 30
0.0
 11
180.4994427081
 21
272.5990934181
 31
0.0
  0
LINE
  5
287
  8
0
  6
CONTINUOUS
 62
     8
 10
180.4994427081
 20
272.5990934181
 30
0.0
 11
180.4994427081
 21
279.9990920233
 31
0.0
  0
LINE
  5
288
  8
0
  6
CONTINUOUS
 62
     8
 10
180.4994427081
 20
272.5990934181
 30
0.0
 11
181.2994413491
 21
272.5990934181
 31
0.0
  0
LINE
  5
289
  8
0
  6
CONTINUOUS
 62
     8
 10
180.4994427081
 20
272.5990934181
 30
0.0
 11
180.4994427081
 21
271.7990947771
 31
0.0
  0
LINE
  5
28A
  8
0
  6
CONTINUOUS
 62
     8
 10
134.7994439717
 20
279.9990920233
 30
0.0
 11
112.0994471427
 21
279.9990920233
 31
0.0
  0
LINE
  5
28B
  8
0
  6
CONTINUOUS
 62
     8
 10
112.0994471427
 20
279.9990920233
 30
0.0
 11
112.0994471427
 21
280.7990906643
 31
0.0
  0
LINE
  5
28C
  8
0
  6
CONTINUOUS
 62
     8
 10
111.2994485017
 20
279.9990920233
 30
0.0
 11
112.0994471427
 21
279.9990920233
 31
0.0
  0
LINE
  5
28D
  8
0
  6
CONTINUOUS
 62
     8
 10
112.0994471427
 20
272.5990934181
 30
0.0
 11
134.7994439717
 21
272.5990934181
 31
0.0
  0
LINE
  5
28E
  8
0
  6
CONTINUOUS
 62
     8
 10
112.0994471427
 20
279.9990920233
 30
0.0
 11
112.0994471427
 21
272.5990934181
 31
0.0
  0
LINE
  5
28F
  8
0
  6
CONTINUOUS
 62
     8
 10
111.2994485017
 20
272.5990934181
 30
0.0
 11
112.0994471427
 21
272.5990934181
 31
0.0
  0
LINE
  5
290
  8
0
  6
CONTINUOUS
 62
     8
 10
112.0994471427
 20
271.7990947771
 30
0.0
 11
112.0994471427
 21
272.5990934181
 31
0.0
  0
ENDSEC
  0
EOF
