  0
SECTION
  2
HEADER
  9
$ACADVER
  1
AC1015
  9
$ACADMAINTVER
 70
     6
  9
$DWGCODEPAGE
  3
ANSI_1252
  9
$INSBASE
 10
0.0
 20
0.0
 30
0.0
  9
$EXTMIN
 10
0.0
 20
0.0
 30
0.0
  9
$EXTMAX
 10
841.0
 20
594.0
 30
0.0
  9
$LIMMIN
 10
0.0
 20
0.0
  9
$LIMMAX
 10
841.0
 20
594.0
  9
$ORTHOMODE
 70
     0
  9
$REGENMODE
 70
     1
  9
$FILLMODE
 70
     1
  9
$QTEXTMODE
 70
     0
  9
$MIRRTEXT
 70
     1
  9
$LTSCALE
 40
1.0
  9
$ATTMODE
 70
     1
  9
$TEXTSIZE
 40
10.0
  9
$TRACEWID
 40
1.0
  9
$TEXTSTYLE
  7
Standard
  9
$CLAYER
  8
0
  9
$CELTYPE
  6
ByLayer
  9
$CECOLOR
 62
   256
  9
$CELTSCALE
 40
1.0
  9
$DISPSILH
 70
     0
  9
$DIMSCALE
 40
1.0
  9
$DIMASZ
 40
2.5
  9
$DIMEXO
 40
0.0
  9
$DIMDLI
 40
3.75
  9
$DIMRND
 40
0.0
  9
$DIMDLE
 40
0.0
  9
$DIMEXE
 40
1.0
  9
$DIMTP
 40
0.0
  9
$DIMTM
 40
0.0
  9
$DIMTXT
 40
3.5
  9
$DIMCEN
 40
2.5
  9
$DIMTSZ
 40
0.0
  9
$DIMTOL
 70
     0
  9
$DIMLIM
 70
     0
  9
$DIMTIH
 70
     1
  9
$DIMTOH
 70
     1
  9
$DIMSE1
 70
     0
  9
$DIMSE2
 70
     0
  9
$DIMTAD
 70
     1
  9
$DIMZIN
 70
     0
  9
$DIMBLK
  1

  9
$DIMASO
 70
     1
  9
$DIMSHO
 70
     1
  9
$DIMPOST
  1

  9
$DIMAPOST
  1

  9
$DIMALT
 70
     0
  9
$DIMALTD
 70
     3
  9
$DIMALTF
 40
0.0393700787
  9
$DIMLFAC
 40
1.0
  9
$DIMTOFL
 70
     1
  9
$DIMTVP
 40
0.0
  9
$DIMTIX
 70
     0
  9
$DIMSOXD
 70
     0
  9
$DIMSAH
 70
     0
  9
$DIMBLK1
  1

  9
$DIMBLK2
  1

  9
$DIMSTYLE
  2
ISO-25
  9
$DIMCLRD
 70
     0
  9
$DIMCLRE
 70
     0
  9
$DIMCLRT
 70
     0
  9
$DIMTFAC
 40
1.0
  9
$DIMGAP
 40
1.5
  9
$DIMJUST
 70
     0
  9
$DIMSD1
 70
     0
  9
$DIMSD2
 70
     0
  9
$DIMTOLJ
 70
     0
  9
$DIMTZIN
 70
     0
  9
$DIMALTZ
 70
     0
  9
$DIMALTTZ
 70
     0
  9
$DIMUPT
 70
     0
  9
$DIMDEC
 70
     2
  9
$DIMTDEC
 70
     2
  9
$DIMALTU
 70
     2
  9
$DIMALTTD
 70
     3
  9
$DIMTXSTY
  7
Standard
  9
$DIMAUNIT
 70
     0
  9
$DIMADEC
 70
     2
  9
$DIMALTRND
 40
0.0
  9
$DIMAZIN
 70
     0
  9
$DIMDSEP
 70
    44
  9
$DIMATFIT
 70
     3
  9
$DIMFRAC
 70
     0
  9
$DIMLDRBLK
  1

  9
$DIMLUNIT
 70
     2
  9
$DIMLWD
 70
    -2
  9
$DIMLWE
 70
    -2
  9
$DIMTMOVE
 70
     0
  9
$LUNITS
 70
     2
  9
$LUPREC
 70
     2
  9
$SKETCHINC
 40
1.0
  9
$FILLETRAD
 40
10.0
  9
$AUNITS
 70
     0
  9
$AUPREC
 70
     2
  9
$MENU
  1
.
  9
$ELEVATION
 40
0.0
  9
$PELEVATION
 40
0.0
  9
$THICKNESS
 40
0.0
  9
$LIMCHECK
 70
     0
  9
$CHAMFERA
 40
0.0
  9
$CHAMFERB
 40
0.0
  9
$CHAMFERC
 40
0.0
  9
$CHAMFERD
 40
0.0
  9
$SKPOLY
 70
     0
  9
$TDCREATE
 40
2457641.392794271
  9
$TDUCREATE
 40
2457641.309460938
  9
$TDUPDATE
 40
2457641.392794815
  9
$TDUUPDATE
 40
2457641.309461481
  9
$TDINDWG
 40
0.0000000116
  9
$TDUSRTIMER
 40
0.0000000116
  9
$USRTIMER
 70
     1
  9
$ANGBASE
 50
0.0
  9
$ANGDIR
 70
     0
  9
$PDMODE
 70
     0
  9
$PDSIZE
 40
-1.0
  9
$PLINEWID
 40
0.0
  9
$SPLFRAME
 70
     0
  9
$SPLINETYPE
 70
     6
  9
$SPLINESEGS
 70
     8
  9
$HANDSEED
  5
196
  9
$SURFTAB1
 70
     6
  9
$SURFTAB2
 70
     6
  9
$SURFTYPE
 70
     6
  9
$SURFU
 70
     6
  9
$SURFV
 70
     6
  9
$UCSBASE
  2

  9
$UCSNAME
  2

  9
$UCSORG
 10
0.0
 20
0.0
 30
0.0
  9
$UCSXDIR
 10
1.0
 20
0.0
 30
0.0
  9
$UCSYDIR
 10
0.0
 20
1.0
 30
0.0
  9
$UCSORTHOREF
  2

  9
$UCSORTHOVIEW
 70
     0
  9
$UCSORGTOP
 10
0.0
 20
0.0
 30
0.0
  9
$UCSORGBOTTOM
 10
0.0
 20
0.0
 30
0.0
  9
$UCSORGLEFT
 10
0.0
 20
0.0
 30
0.0
  9
$UCSORGRIGHT
 10
0.0
 20
0.0
 30
0.0
  9
$UCSORGFRONT
 10
0.0
 20
0.0
 30
0.0
  9
$UCSORGBACK
 10
0.0
 20
0.0
 30
0.0
  9
$PUCSBASE
  2

  9
$PUCSNAME
  2

  9
$PUCSORG
 10
0.0
 20
0.0
 30
0.0
  9
$PUCSXDIR
 10
1.0
 20
0.0
 30
0.0
  9
$PUCSYDIR
 10
0.0
 20
1.0
 30
0.0
  9
$PUCSORTHOREF
  2

  9
$PUCSORTHOVIEW
 70
     0
  9
$PUCSORGTOP
 10
0.0
 20
0.0
 30
0.0
  9
$PUCSORGBOTTOM
 10
0.0
 20
0.0
 30
0.0
  9
$PUCSORGLEFT
 10
0.0
 20
0.0
 30
0.0
  9
$PUCSORGRIGHT
 10
0.0
 20
0.0
 30
0.0
  9
$PUCSORGFRONT
 10
0.0
 20
0.0
 30
0.0
  9
$PUCSORGBACK
 10
0.0
 20
0.0
 30
0.0
  9
$USERI1
 70
     0
  9
$USERI2
 70
     0
  9
$USERI3
 70
     0
  9
$USERI4
 70
     0
  9
$USERI5
 70
     0
  9
$USERR1
 40
0.0
  9
$USERR2
 40
0.0
  9
$USERR3
 40
0.0
  9
$USERR4
 40
0.0
  9
$USERR5
 40
0.0
  9
$WORLDVIEW
 70
     1
  9
$SHADEDGE
 70
     3
  9
$SHADEDIF
 70
    70
  9
$TILEMODE
 70
     1
  9
$MAXACTVP
 70
    64
  9
$PINSBASE
 10
0.0
 20
0.0
 30
0.0
  9
$PLIMCHECK
 70
     0
  9
$PEXTMIN
 10
1.0000000000E+20
 20
1.0000000000E+20
 30
1.0000000000E+20
  9
$PEXTMAX
 10
-1.0000000000E+20
 20
-1.0000000000E+20
 30
-1.0000000000E+20
  9
$PLIMMIN
 10
0.0
 20
0.0
  9
$PLIMMAX
 10
420.0
 20
297.0
  9
$UNITMODE
 70
     0
  9
$VISRETAIN
 70
     1
  9
$PLINEGEN
 70
     0
  9
$PSLTSCALE
 70
     1
  9
$TREEDEPTH
 70
  3020
  9
$CMLSTYLE
  2
Standard
  9
$CMLJUST
 70
     0
  9
$CMLSCALE
 40
20.0
  9
$PROXYGRAPHICS
 70
     1
  9
$MEASUREMENT
 70
     1
  9
$CELWEIGHT
370
    -1
  9
$ENDCAPS
280
     0
  9
$JOINSTYLE
280
     0
  9
$LWDISPLAY
290
     1
  9
$INSUNITS
 70
     4
  9
$HYPERLINKBASE
  1

  9
$STYLESHEET
  1

  9
$XEDIT
290
     1
  9
$CEPSNTYPE
380
     0
  9
$PSTYLEMODE
290
     1
  9
$FINGERPRINTGUID
  2
{8469648A-033A-4D35-A3EE-486AE731C58E}
  9
$VERSIONGUID
  2
{FAEB1C32-E019-11D5-929B-00C0DF256EC4}
  9
$EXTNAMES
290
     1
  9
$PSVPSCALE
 40
0.0
  9
$OLESTARTUP
290
     0
  0
ENDSEC
  0
SECTION
  2
CLASSES
  0
CLASS
  1
ACDBDICTIONARYWDFLT
  2
AcDbDictionaryWithDefault
  3
ObjectDBX Classes
 90
        0
280
     0
281
     0
  0
CLASS
  1
VISUALSTYLE
  2
AcDbVisualStyle
  3
ObjectDBX Classes
 90
     4095
280
     0
281
     0
  0
CLASS
  1
MATERIAL
  2
AcDbMaterial
  3
ObjectDBX Classes
 90
     1153
280
     0
281
     0
  0
CLASS
  1
SCALE
  2
AcDbScale
  3
ObjectDBX Classes
 90
     1153
280
     0
281
     0
  0
CLASS
  1
SUN
  2
AcDbSun
  3
SCENEOE
 90
     1153
280
     0
281
     0
  0
CLASS
  1
ACDBPLACEHOLDER
  2
AcDbPlaceHolder
  3
ObjectDBX Classes
 90
        0
280
     0
281
     0
  0
CLASS
  1
LAYOUT
  2
AcDbLayout
  3
ObjectDBX Classes
 90
        0
280
     0
281
     0
  0
ENDSEC
  0
SECTION
  2
TABLES
  0
TABLE
  2
VPORT
  5
8
330
0
100
AcDbSymbolTable
 70
     1
  0
VPORT
  5
29
330
8
100
AcDbSymbolTableRecord
100
AcDbViewportTableRecord
  2
*Active
 70
     0
 10
0.0
 20
0.0
 11
1.0
 21
1.0
 12
420.5
 22
297.0
 13
0.0
 23
0.0
 14
10.0
 24
10.0
 15
10.0
 25
10.0
 16
0.0
 26
0.0
 36
1.0
 17
0.0
 27
0.0
 37
0.0
 40
594.0
 41
1.4158249158
 42
50.0
 43
0.0
 44
0.0
 50
0.0
 51
0.0
 71
     0
 72
  2000
 73
     1
 74
     3
 75
     0
 76
     0
 77
     0
 78
     0
281
     0
 65
     1
110
0.0
120
0.0
130
0.0
111
1.0
121
0.0
131
0.0
112
0.0
122
1.0
132
0.0
 79
     0
146
0.0
  0
ENDTAB
  0
TABLE
  2
LTYPE
  5
5
330
0
100
AcDbSymbolTable
 70
     6
  0
LTYPE
  5
14
330
5
100
AcDbSymbolTableRecord
100
AcDbLinetypeTableRecord
  2
ByBlock
 70
     0
  3

 72
    65
 73
     0
 40
0.0
  0
LTYPE
  5
15
330
5
100
AcDbSymbolTableRecord
100
AcDbLinetypeTableRecord
  2
ByLayer
 70
     0
  3

 72
    65
 73
     0
 40
0.0
  0
LTYPE
  5
16
330
5
100
AcDbSymbolTableRecord
100
AcDbLinetypeTableRecord
  2
Continuous
 70
     0
  3
Solid line
 72
    65
 73
     0
 40
0.0
  0
LTYPE
  5
6A
330
5
100
AcDbSymbolTableRecord
100
AcDbLinetypeTableRecord
  2
HIDDEN
 70
     0
  3
Hidden __ __ __ __ __ __ __ __ __ __ __ __ __ __
 72
    65
 73
     2
 40
1.905
 49
1.27
 74
     0
 49
-0.635
 74
     0
  0
LTYPE
  5
6B
330
5
100
AcDbSymbolTableRecord
100
AcDbLinetypeTableRecord
  2
PHANTOM
 70
     0
  3
Phantom ______  __  __  ______  __  __  ______
 72
    65
 73
     6
 40
12.7
 49
6.35
 74
     0
 49
-1.27
 74
     0
 49
1.27
 74
     0
 49
-1.27
 74
     0
 49
1.27
 74
     0
 49
-1.27
 74
     0
  0
LTYPE
  5
6C
330
5
100
AcDbSymbolTableRecord
100
AcDbLinetypeTableRecord
  2
CENTER
 70
     0
  3
Center ____ _ ____ _ ____ _ ____ _ ____ _ ____
 72
    65
 73
     4
 40
10.16
 49
6.35
 74
     0
 49
-1.27
 74
     0
 49
1.27
 74
     0
 49
-1.27
 74
     0
  0
LTYPE
  5
6D
330
5
100
AcDbSymbolTableRecord
100
AcDbLinetypeTableRecord
  2
CENTERX2
 70
     0
  3
Center (2x) ________  __  ________  __  _____
 72
    65
 73
     4
 40
20.32
 49
12.7
 74
     0
 49
-2.54
 74
     0
 49
2.54
 74
     0
 49
-2.54
 74
     0
  0
LTYPE
  5
6E
330
5
100
AcDbSymbolTableRecord
100
AcDbLinetypeTableRecord
  2
DOT2
 70
     0
  3
Dot (.5x) ........................................
 72
    65
 73
     2
 40
0.635
 49
0.0
 74
     0
 49
-0.635
 74
     0
  0
ENDTAB
  0
TABLE
  2
LAYER
  5
2
330
0
100
AcDbSymbolTable
 70
     1
  0
LAYER
  5
10
330
2
100
AcDbSymbolTableRecord
100
AcDbLayerTableRecord
  2
0
 70
     0
 62
     7
  6
Continuous
370
    -3
390
F
  0
ENDTAB
  0
TABLE
  2
STYLE
  5
3
330
0
100
AcDbSymbolTable
 70
     3
  0
STYLE
  5
11
330
3
100
AcDbSymbolTableRecord
100
AcDbTextStyleTableRecord
  2
Standard
 70
     0
 40
0.0
 41
1.0
 50
0.0
 71
     0
 42
10.0
  3
txt
  4

  0
STYLE
  5
72
330
3
100
AcDbSymbolTableRecord
100
AcDbTextStyleTableRecord
  2
SLDTEXTSTYLE0
 70
     0
 40
0.0
 41
0.96
 50
0.0
 71
     0
 42
10.0
  3
ISOCP3
  4

  0
STYLE
  5
89
330
3
100
AcDbSymbolTableRecord
100
AcDbTextStyleTableRecord
  2
SLDTEXTSTYLE1
 70
     0
 40
0.0
 41
0.605
 50
0.0
 71
     0
 42
10.0
  3
TXT
  4

  0
ENDTAB
  0
TABLE
  2
VIEW
  5
6
330
0
100
AcDbSymbolTable
 70
     0
  0
ENDTAB
  0
TABLE
  2
UCS
  5
7
330
0
100
AcDbSymbolTable
 70
     0
  0
ENDTAB
  0
TABLE
  2
APPID
  5
9
330
0
100
AcDbSymbolTable
 70
     1
  0
APPID
  5
12
330
9
100
AcDbSymbolTableRecord
100
AcDbRegAppTableRecord
  2
ACAD
 70
     0
  0
ENDTAB
  0
TABLE
  2
DIMSTYLE
  5
A
330
0
100
AcDbSymbolTable
 70
     2
100
AcDbDimStyleTable
  0
DIMSTYLE
105
27
330
A
100
AcDbSymbolTableRecord
100
AcDbDimStyleTableRecord
  2
ISO-25
 70
     0
 41
2.5
 42
0.625
 43
3.75
 44
1.25
 73
     0
 74
     0
 77
     1
 78
     8
140
2.5
141
2.5
143
0.0393700787
147
0.625
171
     3
172
     1
178
     0
271
     2
272
     2
274
     3
278
    44
283
     0
284
     8
340
11
  0
DIMSTYLE
105
73
102
{ACAD_REACTORS
330
71
330
7E
102
}
330
A
100
AcDbSymbolTableRecord
100
AcDbDimStyleTableRecord
  2
SLDDIMSTYLE0
 70
     0
 41
2.5
 44
0.0
 45
0.000000001
 73
     0
 74
     0
 77
     1
 78
    12
 79
     3
140
6.0
147
1.5
173
     1
178
     0
271
     2
272
     2
276
     2
284
    12
340
72
  0
ENDTAB
  0
TABLE
  2
BLOCK_RECORD
  5
1
330
0
100
AcDbSymbolTable
 70
     3
  0
BLOCK_RECORD
  5
1F
330
1
100
AcDbSymbolTableRecord
100
AcDbBlockTableRecord
  2
*Model_Space
340
22
  0
BLOCK_RECORD
  5
1B
330
1
100
AcDbSymbolTableRecord
100
AcDbBlockTableRecord
  2
*Paper_Space
340
1E
  0
BLOCK_RECORD
  5
23
330
1
100
AcDbSymbolTableRecord
100
AcDbBlockTableRecord
  2
*Paper_Space0
340
26
  0
BLOCK_RECORD
  5
74
330
1
100
AcDbSymbolTableRecord
100
AcDbBlockTableRecord
  2
_D
340
0
  0
BLOCK_RECORD
  5
7F
330
1
100
AcDbSymbolTableRecord
100
AcDbBlockTableRecord
  2
_D_1
340
0
  0
ENDTAB
  0
ENDSEC
  0
SECTION
  2
BLOCKS
  0
BLOCK
  5
20
330
1F
100
AcDbEntity
  8
0
100
AcDbBlockBegin
  2
*Model_Space
 70
     0
 10
0.0
 20
0.0
 30
0.0
  3
*Model_Space
  1
*Model_Space
  0
ENDBLK
  5
21
330
1F
100
AcDbEntity
  8
0
100
AcDbBlockEnd
  0
BLOCK
  5
1C
330
1B
100
AcDbEntity
 67
     1
  8
0
100
AcDbBlockBegin
  2
*Paper_Space
 70
     0
 10
0.0
 20
0.0
 30
0.0
  3
*Paper_Space
  1
*Paper_Space
  0
ENDBLK
  5
1D
330
1B
100
AcDbEntity
 67
     1
  8
0
100
AcDbBlockEnd
  0
BLOCK
  5
24
330
23
100
AcDbEntity
  8
0
100
AcDbBlockBegin
  2
*Paper_Space0
 70
     0
 10
0.0
 20
0.0
 30
0.0
  3
*Paper_Space0
  1
*Paper_Space0
  0
ENDBLK
  5
25
330
23
100
AcDbEntity
  8
0
100
AcDbBlockEnd
  0
BLOCK
  5
75
330
74
100
AcDbEntity
  8
0
100
AcDbBlockBegin
  2
_D
 70
     0
 10
0.0
 20
0.0
 30
0.0
  3
_D
  1
_D
  0
SOLID
  5
77
330
74
100
AcDbEntity
  8
0
  6
Continuous
 62
     7
370
     0
100
AcDbTrace
 10
42.7614395004
 20
152.0299240879
 30
0.0
 11
42.4614395004
 21
149.5299240879
 31
0.0
 12
43.0614395004
 22
149.5299240879
 32
0.0
 13
43.0614395004
 23
149.5299240879
 33
0.0
  0
SOLID
  5
78
330
74
100
AcDbEntity
  8
0
  6
Continuous
 62
     7
370
     0
100
AcDbTrace
 10
42.7614395004
 20
52.0299240879
 30
0.0
 11
43.0614395004
 21
54.5299240879
 31
0.0
 12
42.4614395004
 22
54.5299240879
 32
0.0
 13
42.4614395004
 23
54.5299240879
 33
0.0
  0
LINE
  5
79
330
74
100
AcDbEntity
  8
0
  6
Continuous
 62
     7
370
     0
100
AcDbLine
 10
56.6850079902
 20
152.0299240879
 30
0.0
 11
41.7614395004
 21
152.0299240879
 31
0.0
  0
LINE
  5
7A
330
74
100
AcDbEntity
  8
0
  6
Continuous
 62
     7
370
     0
100
AcDbLine
 10
56.6850079902
 20
52.0299240879
 30
0.0
 11
41.7614395004
 21
52.0299240879
 31
0.0
  0
LINE
  5
7B
330
74
100
AcDbEntity
  8
0
  6
Continuous
 62
     7
370
     0
100
AcDbLine
 10
42.7614395004
 20
152.0299240879
 30
0.0
 11
42.7614395004
 21
52.0299240879
 31
0.0
  0
MTEXT
  5
7C
330
74
100
AcDbEntity
  8
0
  6
Continuous
 62
     7
370
     0
100
AcDbMText
 10
35.0270332946
 20
94.3680541463
 30
0.0
 40
6.0
 41
0.0
 71
     1
 72
     1
  1
100
  7
SLDTEXTSTYLE0
 11
-7.044195017643634E-15
 21
1.0
 31
0.0
 73
     1
 44
1.0
  0
MTEXT
  5
7D
330
74
100
AcDbEntity
  8
0
  6
Continuous
 62
     7
370
     0
100
AcDbMText
 10
35.0270332946
 20
105.7430548466
 30
0.0
 40
6.0
 41
0.0
 71
     1
 72
     1
  1
mm
  7
SLDTEXTSTYLE0
 11
-7.044195017643634E-15
 21
1.0
 31
0.0
 73
     1
 44
1.0
  0
ENDBLK
  5
76
330
74
100
AcDbEntity
  8
0
100
AcDbBlockEnd
  0
BLOCK
  5
80
330
7F
100
AcDbEntity
  8
0
100
AcDbBlockBegin
  2
_D_1
 70
     0
 10
0.0
 20
0.0
 30
0.0
  3
_D_1
  1
_D_1
  0
SOLID
  5
82
330
7F
100
AcDbEntity
  8
0
  6
Continuous
 62
     7
370
     0
100
AcDbTrace
 10
56.6850079902
 20
38.4602342313
 30
0.0
 11
59.1850079902
 21
38.1602342313
 31
0.0
 12
59.1850079902
 22
38.7602342313
 32
0.0
 13
59.1850079902
 23
38.7602342313
 33
0.0
  0
SOLID
  5
83
330
7F
100
AcDbEntity
  8
0
  6
Continuous
 62
     7
370
     0
100
AcDbTrace
 10
156.6850079902
 20
38.4602342313
 30
0.0
 11
154.1850079902
 21
38.7602342313
 31
0.0
 12
154.1850079902
 22
38.1602342313
 32
0.0
 13
154.1850079902
 23
38.1602342313
 33
0.0
  0
LINE
  5
84
330
7F
100
AcDbEntity
  8
0
  6
Continuous
 62
     7
370
     0
100
AcDbLine
 10
56.6850079902
 20
52.0299240879
 30
0.0
 11
56.6850079902
 21
37.4602342313
 31
0.0
  0
LINE
  5
85
330
7F
100
AcDbEntity
  8
0
  6
Continuous
 62
     7
370
     0
100
AcDbLine
 10
156.6850079902
 20
52.0299240879
 30
0.0
 11
156.6850079902
 21
37.4602342313
 31
0.0
  0
LINE
  5
86
330
7F
100
AcDbEntity
  8
0
  6
Continuous
 62
     7
370
     0
100
AcDbLine
 10
56.6850079902
 20
38.4602342313
 30
0.0
 11
156.6850079902
 21
38.4602342313
 31
0.0
  0
MTEXT
  5
87
330
7F
100
AcDbEntity
  8
0
  6
Continuous
 62
     7
370
     0
100
AcDbMText
 10
93.9626484861
 20
46.1946404371
 30
0.0
 40
6.0
 41
0.0
 71
     1
 72
     1
  1
100
  7
SLDTEXTSTYLE0
 73
     1
 44
1.0
  0
MTEXT
  5
88
330
7F
100
AcDbEntity
  8
0
  6
Continuous
 62
     7
370
     0
100
AcDbMText
 10
105.3376491864
 20
46.1946404371
 30
0.0
 40
6.0
 41
0.0
 71
     1
 72
     1
  1
mm
  7
SLDTEXTSTYLE0
 73
     1
 44
1.0
  0
ENDBLK
  5
81
330
7F
100
AcDbEntity
  8
0
100
AcDbBlockEnd
  0
ENDSEC
  0
SECTION
  2
ENTITIES
  0
LINE
  5
6F
330
1F
100
AcDbEntity
  8
0
  6
Continuous
 62
     7
370
     0
100
AcDbLine
 10
56.6850079902
 20
152.0299240879
 30
0.0
 11
56.6850079902
 21
52.0299240879
 31
0.0
  0
LINE
  5
70
330
1F
100
AcDbEntity
  8
0
  6
Continuous
 62
     7
370
     0
100
AcDbLine
 10
56.6850079902
 20
52.0299240879
 30
0.0
 11
156.6850079902
 21
52.0299240879
 31
0.0
  0
DIMENSION
  5
71
330
1F
100
AcDbEntity
  8
0
  6
Continuous
 62
     7
370
     0
100
AcDbDimension
  2
_D
 10
42.7614395004
 20
52.0299240879
 30
0.0
 11
42.7614395004
 21
105.4472211621
 31
0.0
 70
   160
  1
<>mm
 71
     2
 42
-1.0
  3
SLDDIMSTYLE0
100
AcDbAlignedDimension
 13
56.6850079902
 23
152.0299240879
 33
0.0
 14
56.6850079902
 24
52.0299240879
 34
0.0
 50
90.0
100
AcDbRotatedDimension
  0
DIMENSION
  5
7E
330
1F
100
AcDbEntity
  8
0
  6
Continuous
 62
     7
370
     0
100
AcDbDimension
  2
_D_1
 10
156.6850079902
 20
38.4602342313
 30
0.0
 11
105.0418155019
 21
38.4602342313
 31
0.0
 70
   160
  1
<>mm
 71
     2
 42
-1.0
  3
SLDDIMSTYLE0
100
AcDbAlignedDimension
 13
56.6850079902
 23
52.0299240879
 33
0.0
 14
156.6850079902
 24
52.0299240879
 34
0.0
100
AcDbRotatedDimension
  0
MTEXT
  5
8A
330
1F
100
AcDbEntity
  8
0
  6
Continuous
 62
     7
370
     0
100
AcDbMText
 10
664.658399795
 20
48.4342449499
 30
0.0
 40
10.0
 41
0.0
 71
     1
 72
     1
  1
KLUDI GmbH & Co KG
  7
SLDTEXTSTYLE1
 73
     1
 44
1.0
  0
MTEXT
  5
8B
330
1F
100
AcDbEntity
  8
0
  6
Continuous
 62
     7
370
     0
100
AcDbMText
 10
349.0758972247
 20
48.4342449499
 30
0.0
 40
10.0
 41
0.0
 71
     1
 72
     1
  1
64 430 05-00
  7
SLDTEXTSTYLE1
 73
     1
 44
1.0
  0
LINE
  5
8C
330
1F
100
AcDbEntity
  8
0
  6
Continuous
 62
     7
370
    15
100
AcDbLine
 10
347.9868763044
 20
518.5493877719
 30
0.0
 11
347.9868763044
 21
521.049387716
 31
0.0
  0
LINE
  5
8D
330
1F
100
AcDbEntity
  8
0
  6
Continuous
 62
     7
370
    15
100
AcDbLine
 10
344.486876662
 20
521.049387716
 30
0.0
 11
344.486876662
 21
518.5493877719
 31
0.0
  0
LINE
  5
8E
330
1F
100
AcDbEntity
  8
0
  6
Continuous
 62
     7
370
    15
100
AcDbLine
 10
225.4868795082
 20
518.5493877719
 30
0.0
 11
225.4868795082
 21
521.049387716
 31
0.0
  0
LINE
  5
8F
330
1F
100
AcDbEntity
  8
0
  6
Continuous
 62
     7
370
    15
100
AcDbLine
 10
221.9868798658
 20
521.049387716
 30
0.0
 11
221.9868798658
 21
518.5493877719
 31
0.0
  0
LINE
  5
90
330
1F
100
AcDbEntity
  8
0
  6
Continuous
 62
     7
370
    15
100
AcDbLine
 10
200.9868801489
 20
518.5493877719
 30
0.0
 11
200.9868801489
 21
521.049387716
 31
0.0
  0
LINE
  5
91
330
1F
100
AcDbEntity
  8
0
  6
Continuous
 62
     7
370
    15
100
AcDbLine
 10
197.4868805065
 20
521.049387716
 30
0.0
 11
197.4868805065
 21
518.5493877719
 31
0.0
  0
LINE
  5
92
330
1F
100
AcDbEntity
  8
0
  6
Continuous
 62
     7
370
    15
100
AcDbLine
 10
176.486878927
 20
518.5493877719
 30
0.0
 11
176.486878927
 21
521.049387716
 31
0.0
  0
LINE
  5
93
330
1F
100
AcDbEntity
  8
0
  6
Continuous
 62
     7
370
    15
100
AcDbLine
 10
172.9868792846
 20
521.049387716
 30
0.0
 11
172.9868792846
 21
518.5493877719
 31
0.0
  0
LINE
  5
94
330
1F
100
AcDbEntity
  8
0
  6
Continuous
 62
     7
370
    15
100
AcDbLine
 10
151.9868814304
 20
518.5493877719
 30
0.0
 11
151.9868814304
 21
521.049387716
 31
0.0
  0
LINE
  5
95
330
1F
100
AcDbEntity
  8
0
  6
Continuous
 62
     7
370
    15
100
AcDbLine
 10
148.486881788
 20
521.049387716
 30
0.0
 11
148.486881788
 21
518.5493877719
 31
0.0
  0
LINE
  5
96
330
1F
100
AcDbEntity
  8
0
  6
Continuous
 62
     7
370
    15
100
AcDbLine
 10
127.4868764832
 20
518.5493877719
 30
0.0
 11
127.4868764832
 21
521.049387716
 31
0.0
  0
LINE
  5
97
330
1F
100
AcDbEntity
  8
0
  6
Continuous
 62
     7
370
    15
100
AcDbLine
 10
123.9868768409
 20
521.049387716
 30
0.0
 11
123.9868768409
 21
518.5493877719
 31
0.0
  0
LINE
  5
98
330
1F
100
AcDbEntity
  8
0
  6
Continuous
 62
     7
370
    15
100
AcDbLine
 10
372.4868812516
 20
518.5493877719
 30
0.0
 11
372.4868812516
 21
521.049387716
 31
0.0
  0
LINE
  5
99
330
1F
100
AcDbEntity
  8
0
  6
Continuous
 62
     7
370
    15
100
AcDbLine
 10
368.9868816092
 20
521.049387716
 30
0.0
 11
368.9868816092
 21
518.5493877719
 31
0.0
  0
LINE
  5
9A
330
1F
100
AcDbEntity
  8
0
  6
Continuous
 62
     7
370
    15
100
AcDbLine
 10
323.4868788078
 20
518.5493877719
 30
0.0
 11
323.4868788078
 21
521.049387716
 31
0.0
  0
LINE
  5
9B
330
1F
100
AcDbEntity
  8
0
  6
Continuous
 62
     7
370
    15
100
AcDbLine
 10
319.9868791654
 20
521.049387716
 30
0.0
 11
319.9868791654
 21
518.5493877719
 31
0.0
  0
LINE
  5
9C
330
1F
100
AcDbEntity
  8
0
  6
Continuous
 62
     7
370
    15
100
AcDbLine
 10
298.9868775859
 20
518.5493877719
 30
0.0
 11
298.9868775859
 21
521.049387716
 31
0.0
  0
LINE
  5
9D
330
1F
100
AcDbEntity
  8
0
  6
Continuous
 62
     7
370
    15
100
AcDbLine
 10
295.4868779435
 20
521.049387716
 30
0.0
 11
295.4868779435
 21
518.5493877719
 31
0.0
  0
LINE
  5
9E
330
1F
100
AcDbEntity
  8
0
  6
Continuous
 62
     7
370
    15
100
AcDbLine
 10
274.4868782267
 20
518.5493877719
 30
0.0
 11
274.4868782267
 21
521.049387716
 31
0.0
  0
LINE
  5
9F
330
1F
100
AcDbEntity
  8
0
  6
Continuous
 62
     7
370
    15
100
AcDbLine
 10
270.9868785843
 20
521.049387716
 30
0.0
 11
270.9868785843
 21
518.5493877719
 31
0.0
  0
LINE
  5
A0
330
1F
100
AcDbEntity
  8
0
  6
Continuous
 62
     7
370
    15
100
AcDbLine
 10
249.9868791002
 20
518.5493877719
 30
0.0
 11
249.9868791002
 21
521.049387716
 31
0.0
  0
LINE
  5
A1
330
1F
100
AcDbEntity
  8
0
  6
Continuous
 62
     7
370
    15
100
AcDbLine
 10
246.4868789922
 20
521.049387716
 30
0.0
 11
246.4868789922
 21
518.5493877719
 31
0.0
  0
ARC
  5
A2
330
1F
100
AcDbEntity
  8
0
  6
Continuous
 62
     7
370
    15
100
AcDbCircle
 10
263.7368790462
 20
538.549387716
 30
0.0
 40
1.5
100
AcDbArc
 50
270.0
 51
289.6148291774
  0
ARC
  5
A3
330
1F
100
AcDbEntity
  8
0
  6
Continuous
 62
     7
370
    15
100
AcDbCircle
 10
232.7368790462
 20
538.549387716
 30
0.0
 40
1.500000000000084
100
AcDbArc
 50
250.2327775076
 51
270.0
  0
ARC
  5
A4
330
1F
100
AcDbEntity
  8
0
  6
Continuous
 62
     7
370
    15
100
AcDbCircle
 10
248.2368790462
 20
550.849387716
 30
0.0
 40
13.00000000000006
100
AcDbArc
 50
28.5879480338
 51
34.2288663278
  0
ARC
  5
A5
330
1F
100
AcDbEntity
  8
0
  6
Continuous
 62
     7
370
    15
100
AcDbCircle
 10
248.2368790462
 20
550.849387716
 30
0.0
 40
13.00000000000003
100
AcDbArc
 50
145.1266560904
 51
151.2951523872
  0
ARC
  5
A6
330
1F
100
AcDbEntity
  8
0
  6
Continuous
 62
     7
370
    15
100
AcDbCircle
 10
248.2368790462
 20
550.849387716
 30
0.0
 40
12.99999999999996
100
AcDbArc
 50
34.2288663278
 51
34.8733439096
  0
ARC
  5
A7
330
1F
100
AcDbEntity
  8
0
  6
Continuous
 62
     7
370
    15
100
AcDbCircle
 10
262.7368790462
 20
556.049387716
 30
0.0
 40
1.0
100
AcDbArc
 50
0.0
 51
90.0
  0
ARC
  5
A8
330
1F
100
AcDbEntity
  8
0
  6
Continuous
 62
     7
370
    15
100
AcDbCircle
 10
233.7368790462
 20
556.049387716
 30
0.0
 40
1.0
100
AcDbArc
 50
90.0
 51
180.0
  0
LINE
  5
A9
330
1F
100
AcDbEntity
  8
0
  6
Continuous
 62
     7
370
    15
100
AcDbLine
 10
263.7368787929
 20
545.0493879246
 30
0.0
 11
263.7368787929
 21
556.049387865
 31
0.0
  0
LINE
  5
AA
330
1F
100
AcDbEntity
  8
0
  6
Continuous
 62
     7
370
    15
100
AcDbLine
 10
232.7368792995
 20
556.049387865
 30
0.0
 11
232.7368792995
 21
545.0493879246
 31
0.0
  0
ARC
  5
AB
330
1F
100
AcDbEntity
  8
0
  6
Continuous
 62
     7
370
    15
100
AcDbCircle
 10
258.2368790462
 20
563.899387716
 30
0.0
 40
2.0
100
AcDbArc
 50
308.7069637031
 51
0.0
  0
ARC
  5
AC
330
1F
100
AcDbEntity
  8
0
  6
Continuous
 62
     7
370
    15
100
AcDbCircle
 10
238.2368790462
 20
563.899387716
 30
0.0
 40
2.000000000000028
100
AcDbArc
 50
180.0
 51
231.2930362969
  0
LINE
  5
AD
330
1F
100
AcDbEntity
  8
0
  6
Continuous
 62
     7
370
    15
100
AcDbLine
 10
260.2368791505
 20
563.8993866372
 30
0.0
 11
260.2368791505
 21
571.6493874418
 31
0.0
  0
LINE
  5
AE
330
1F
100
AcDbEntity
  8
0
  6
Continuous
 62
     7
370
    15
100
AcDbLine
 10
236.2368789419
 20
571.6493874418
 30
0.0
 11
236.2368789419
 21
563.8993866372
 31
0.0
  0
ARC
  5
AF
330
1F
100
AcDbEntity
  8
0
  6
Continuous
 62
     7
370
    15
100
AcDbCircle
 10
261.3635665706
 20
559.9976156667
 30
0.0
 40
3.000000000000052
100
AcDbArc
 50
128.7069637029
 51
214.8733439096
  0
ARC
  5
B0
330
1F
100
AcDbEntity
  8
0
  6
Continuous
 62
     7
370
    15
100
AcDbCircle
 10
235.1101915219
 20
559.9976156667
 30
0.0
 40
3.000000000000016
100
AcDbArc
 50
325.1266560904
 51
51.2930362971
  0
LINE
  5
B1
330
1F
100
AcDbEntity
  8
0
  6
Continuous
 62
     7
370
    15
100
AcDbLine
 10
398.2368850067
 20
530.0493873286
 30
0.0
 11
98.2368730858
 21
530.0493873286
 31
0.0
  0
LINE
  5
B2
330
1F
100
AcDbEntity
  8
0
  6
Continuous
 62
     7
370
    15
100
AcDbLine
 10
98.2368730858
 20
521.049387716
 30
0.0
 11
398.2368850067
 21
521.049387716
 31
0.0
  0
LINE
  5
B3
330
1F
100
AcDbEntity
  8
0
  6
Continuous
 62
     7
370
    15
100
AcDbLine
 10
98.2368730858
 20
530.0493873286
 30
0.0
 11
98.2368730858
 21
521.049387716
 31
0.0
  0
LINE
  5
B4
330
1F
100
AcDbEntity
  8
0
  6
Continuous
 62
     7
370
    15
100
AcDbLine
 10
398.2368850067
 20
521.049387716
 30
0.0
 11
398.2368850067
 21
530.0493873286
 31
0.0
  0
LINE
  5
B5
330
1F
100
AcDbEntity
  8
0
  6
Continuous
 62
     7
370
    15
100
AcDbLine
 10
347.9868763044
 20
518.5493877719
 30
0.0
 11
344.486876662
 21
518.5493877719
 31
0.0
  0
LINE
  5
B6
330
1F
100
AcDbEntity
  8
0
  6
Continuous
 62
     7
370
    15
100
AcDbLine
 10
225.4868795082
 20
518.5493877719
 30
0.0
 11
221.9868798658
 21
518.5493877719
 31
0.0
  0
LINE
  5
B7
330
1F
100
AcDbEntity
  8
0
  6
Continuous
 62
     7
370
    15
100
AcDbLine
 10
200.9868801489
 20
518.5493877719
 30
0.0
 11
197.4868805065
 21
518.5493877719
 31
0.0
  0
LINE
  5
B8
330
1F
100
AcDbEntity
  8
0
  6
Continuous
 62
     7
370
    15
100
AcDbLine
 10
176.486878927
 20
518.5493877719
 30
0.0
 11
172.9868792846
 21
518.5493877719
 31
0.0
  0
LINE
  5
B9
330
1F
100
AcDbEntity
  8
0
  6
Continuous
 62
     7
370
    15
100
AcDbLine
 10
151.9868814304
 20
518.5493877719
 30
0.0
 11
148.486881788
 21
518.5493877719
 31
0.0
  0
LINE
  5
BA
330
1F
100
AcDbEntity
  8
0
  6
Continuous
 62
     7
370
    15
100
AcDbLine
 10
127.4868764832
 20
518.5493877719
 30
0.0
 11
123.9868768409
 21
518.5493877719
 31
0.0
  0
LINE
  5
BB
330
1F
100
AcDbEntity
  8
0
  6
Continuous
 62
     7
370
    15
100
AcDbLine
 10
372.4868812516
 20
518.5493877719
 30
0.0
 11
368.9868816092
 21
518.5493877719
 31
0.0
  0
LINE
  5
BC
330
1F
100
AcDbEntity
  8
0
  6
Continuous
 62
     7
370
    15
100
AcDbLine
 10
323.4868788078
 20
518.5493877719
 30
0.0
 11
319.9868791654
 21
518.5493877719
 31
0.0
  0
LINE
  5
BD
330
1F
100
AcDbEntity
  8
0
  6
Continuous
 62
     7
370
    15
100
AcDbLine
 10
298.9868775859
 20
518.5493877719
 30
0.0
 11
295.4868779435
 21
518.5493877719
 31
0.0
  0
LINE
  5
BE
330
1F
100
AcDbEntity
  8
0
  6
Continuous
 62
     7
370
    15
100
AcDbLine
 10
274.4868782267
 20
518.5493877719
 30
0.0
 11
270.9868785843
 21
518.5493877719
 31
0.0
  0
LINE
  5
BF
330
1F
100
AcDbEntity
  8
0
  6
Continuous
 62
     7
370
    15
100
AcDbLine
 10
249.9868791002
 20
518.5493877719
 30
0.0
 11
246.4868789922
 21
518.5493877719
 31
0.0
  0
SPLINE
  5
C0
330
1F
100
AcDbEntity
  8
0
  6
Continuous
 62
     7
370
    15
100
AcDbSpline
210
0.0
220
0.0
230
1.0
 70
    24
 71
     3
 72
    16
 73
    12
 74
     0
 42
0.000000001
 43
0.00000001
 40
0.0
 40
0.0
 40
0.0
 40
0.0
 40
0.1232483566239445
 40
0.3895903429332358
 40
0.5720004107325518
 40
0.6992440409863288
 40
0.8397512065106271
 40
0.8933091565840355
 40
0.947262931760718
 40
0.9787411607859537
 40
1.0
 40
1.0
 40
1.0
 40
1.0
 10
264.2368798061817
 20
537.1503289419071
 30
0.0
 10
264.2368798061817
 20
537.145712115923
 30
0.0
 10
264.2368798061817
 20
537.1311182432931
 30
0.0
 10
264.2368798061817
 20
537.1877042211469
 30
0.0
 10
264.2368798061817
 20
537.30840576367
 30
0.0
 10
264.2368798061817
 20
537.4912411456409
 30
0.0
 10
264.2368798061817
 20
537.708167729642
 30
0.0
 10
264.2368798061817
 20
537.9832251883221
 30
0.0
 10
264.2368798061817
 20
538.1916180713544
 30
0.0
 10
264.2368798061817
 20
538.3956020752821
 30
0.0
 10
264.2368798061817
 20
538.5052055390167
 30
0.0
 10
264.2368798061817
 20
538.5493877905266
 30
0.0
  0
SPLINE
  5
C1
330
1F
100
AcDbEntity
  8
0
  6
Continuous
 62
     7
370
    15
100
AcDbSpline
210
0.0
220
0.0
230
1.0
 70
    24
 71
     3
 72
    14
 73
    10
 74
     0
 42
0.000000001
 43
0.00000001
 40
0.0
 40
0.0
 40
0.0
 40
0.0
 40
0.0306706044721157
 40
0.0682339626352924
 40
0.1296115669128621
 40
0.2586680978141324
 40
0.4926185363850958
 40
0.7316303079921639
 40
1.0
 40
1.0
 40
1.0
 40
1.0
 10
232.2368782862632
 20
538.5493877905266
 30
0.0
 10
232.2368782862632
 20
538.4855689791088
 30
0.0
 10
232.2368782862632
 20
538.3435890452712
 30
0.0
 10
232.2368782862632
 20
538.111535368968
 30
0.0
 10
232.2368782862632
 20
537.8081233923162
 30
0.0
 10
232.2368782862632
 20
537.472970367835
 30
0.0
 10
232.2368782862632
 20
537.2599281189591
 30
0.0
 10
232.2368782862632
 20
537.1466884749806
 30
0.0
 10
232.2368782862632
 20
537.1490683107726
 30
0.0
 10
232.2368782862632
 20
537.150327079262
 30
0.0
  0
LINE
  5
C2
330
1F
100
AcDbEntity
  8
0
  6
Continuous
 62
     7
370
    15
100
AcDbLine
 10
263.3743037387
 20
537.049388476
 30
0.0
 11
263.7368787929
 21
537.049388476
 31
0.0
  0
SPLINE
  5
C3
330
1F
100
AcDbEntity
  8
0
  6
Continuous
 62
     7
370
    15
100
AcDbSpline
210
0.0
220
0.0
230
1.0
 70
    24
 71
     3
 72
    16
 73
    12
 74
     0
 42
0.000000001
 43
0.00000001
 40
0.0
 40
0.0
 40
0.0
 40
0.0
 40
0.1027725353982648
 40
0.2053803247986477
 40
0.3078935373004043
 40
0.4103825362689245
 40
0.512917734918225
 40
0.6155694513913363
 40
0.7184077648160658
 40
0.8593495270238122
 40
1.0
 40
1.0
 40
1.0
 40
1.0
 10
232.7368790462224
 20
537.0493877160208
 30
0.0
 10
232.7378891488427
 20
537.0493877160208
 30
0.0
 10
232.7399077348726
 20
537.0493877160208
 30
0.0
 10
232.7563370607332
 20
537.0493877160208
 30
0.0
 10
232.7825853328114
 20
537.0493877160208
 30
0.0
 10
232.8196045684147
 20
537.0493877160208
 30
0.0
 10
232.8671589513628
 20
537.0493877160208
 30
0.0
 10
232.9252402716488
 20
537.0493877160208
 30
0.0
 10
233.002564687637
 20
537.0493877160208
 30
0.0
 10
233.1024242059831
 20
537.0493877160208
 30
0.0
 10
233.1920413987619
 20
537.0493877160208
 30
0.0
 10
233.2368036435124
 20
537.0493877160208
 30
0.0
  0
SPLINE
  5
C4
330
1F
100
AcDbEntity
  8
0
  6
Continuous
 62
     7
370
    15
100
AcDbSpline
210
0.0
220
0.0
230
1.0
 70
    24
 71
     3
 72
    22
 73
    18
 74
     0
 42
0.000000001
 43
0.00000001
 40
0.0
 40
0.0
 40
0.0
 40
0.0
 40
0.2500000000000003
 40
0.2500000000000003
 40
0.5000000000000006
 40
0.5000000000000006
 40
0.6250000000000006
 40
0.6250000000000006
 40
0.7500000000000004
 40
0.7500000000000004
 40
0.8750000000000002
 40
0.8750000000000002
 40
0.9375000000000002
 40
0.9375000000000002
 40
0.9687500000000002
 40
0.9687500000000002
 40
1.0
 40
1.0
 40
1.0
 40
1.0
 10
232.2368790462224
 20
545.0493877160208
 30
0.0
 10
232.2368790462224
 20
545.0493877160208
 30
0.0
 10
232.2368790462226
 20
545.0502467729442
 30
0.0
 10
232.2368790462226
 20
545.0433544026876
 30
0.0
 10
232.2368790462225
 20
545.0358310297859
 30
0.0
 10
232.2368790462225
 20
544.9937333022255
 30
0.0
 10
232.2368790462299
 20
544.9744165329777
 30
0.0
 10
232.2368790462299
 20
544.9170664852768
 30
0.0
 10
232.2368790462226
 20
544.8793092852529
 30
0.0
 10
232.2368790462226
 20
544.7692745124077
 30
0.0
 10
232.2368790462224
 20
544.6994583184894
 30
0.0
 10
232.2368790462224
 20
544.532118676891
 30
0.0
 10
232.2368790462224
 20
544.4657241278288
 30
0.0
 10
232.2368790462224
 20
544.3361303568679
 30
0.0
 10
232.2368790462224
 20
544.2868343231521
 30
0.0
 10
232.2368790462224
 20
544.1758967072105
 30
0.0
 10
232.2368790462224
 20
544.1136279651865
 30
0.0
 10
232.2368790462224
 20
544.0493877160208
 30
0.0
  0
SPLINE
  5
C5
330
1F
100
AcDbEntity
  8
0
  6
Continuous
 62
     7
370
    15
100
AcDbSpline
210
0.0
220
0.0
230
1.0
 70
    24
 71
     3
 72
    14
 73
    10
 74
     0
 42
0.000000001
 43
0.00000001
 40
0.0
 40
0.0
 40
0.0
 40
0.0
 40
0.25
 40
0.25
 40
0.5
 40
0.5
 40
0.75
 40
0.75
 40
1.0
 40
1.0
 40
1.0
 40
1.0
 10
232.2368790462224
 20
545.0493877160208
 30
0.0
 10
232.2368790462224
 20
545.0493877160208
 30
0.0
 10
233.9226734109498
 20
545.0493877160208
 30
0.0
 10
239.9236676835256
 20
545.0493877160208
 30
0.0
 10
243.9935353022224
 20
545.0493877160208
 30
0.0
 10
252.4802227902224
 20
545.0493877160208
 30
0.0
 10
256.5500904089193
 20
545.0493877160208
 30
0.0
 10
262.5510846814951
 20
545.0493877160208
 30
0.0
 10
264.2368790462224
 20
545.0493877160208
 30
0.0
 10
264.2368790462224
 20
545.0493877160208
 30
0.0
  0
SPLINE
  5
C6
330
1F
100
AcDbEntity
  8
0
  6
Continuous
 62
     7
370
    15
100
AcDbSpline
210
0.0
220
0.0
230
1.0
 70
    24
 71
     3
 72
    22
 73
    18
 74
     0
 42
0.000000001
 43
0.00000001
 40
0.0
 40
0.0
 40
0.0
 40
0.0
 40
0.0312499999999992
 40
0.0312499999999992
 40
0.0624999999999984
 40
0.0624999999999984
 40
0.1249999999999979
 40
0.1249999999999979
 40
0.2499999999999981
 40
0.2499999999999981
 40
0.3749999999999983
 40
0.3749999999999983
 40
0.4999999999999987
 40
0.4999999999999987
 40
0.7499999999999993
 40
0.7499999999999993
 40
1.0
 40
1.0
 40
1.0
 40
1.0
 10
264.2368790462224
 20
544.0493877160208
 30
0.0
 10
264.2368790462224
 20
544.1145011862371
 30
0.0
 10
264.2368790462224
 20
544.1775809212915
 30
0.0
 10
264.2368790462224
 20
544.2893878714078
 30
0.0
 10
264.2368790462224
 20
544.3391322299165
 30
0.0
 10
264.2368790462224
 20
544.4696648615247
 30
0.0
 10
264.2368790462224
 20
544.5361659767682
 30
0.0
 10
264.2368790462224
 20
544.7017514218492
 30
0.0
 10
264.2368790462224
 20
544.7722105644435
 30
0.0
 10
264.2368790462224
 20
544.8812155495808
 30
0.0
 10
264.2368790462224
 20
544.9183697226424
 30
0.0
 10
264.2368790462224
 20
544.9750182092858
 30
0.0
 10
264.2368790462224
 20
544.9941349189297
 30
0.0
 10
264.2368790462224
 20
545.0358705644144
 30
0.0
 10
264.2368790462224
 20
545.043391361728
 30
0.0
 10
264.2368790462224
 20
545.0502414670353
 30
0.0
 10
264.2368790462224
 20
545.0493877160208
 30
0.0
 10
264.2368790462224
 20
545.0493877160208
 30
0.0
  0
LINE
  5
C7
330
1F
100
AcDbEntity
  8
0
  6
Continuous
 62
     7
370
    15
100
AcDbLine
 10
232.2368782863
 20
544.0493877607
 30
0.0
 11
232.2368782863
 21
538.5493877905
 31
0.0
  0
LINE
  5
C8
330
1F
100
AcDbEntity
  8
0
  6
Continuous
 62
     7
370
    15
100
AcDbLine
 10
264.2368798062
 20
538.5493877905
 30
0.0
 11
264.2368798062
 21
544.0493877607
 31
0.0
  0
LINE
  5
C9
330
1F
100
AcDbEntity
  8
0
  6
Continuous
 62
     7
370
    15
100
AcDbLine
 10
263.2368787109
 20
530.0493873286
 30
0.0
 11
263.2368787109
 21
537.049388476
 31
0.0
  0
LINE
  5
CA
330
1F
100
AcDbEntity
  8
0
  6
Continuous
 62
     7
370
    15
100
AcDbLine
 10
233.2368793815
 20
537.049388476
 30
0.0
 11
233.2368793815
 21
530.0493873286
 31
0.0
  0
LINE
  5
CB
330
1F
100
AcDbEntity
  8
0
  6
Continuous
 62
     7
370
    15
100
AcDbLine
 10
263.2368787109
 20
537.049388476
 30
0.0
 11
233.2368793815
 21
537.049388476
 31
0.0
  0
SPLINE
  5
CC
330
1F
100
AcDbEntity
  8
0
  6
Continuous
 62
     7
370
    15
100
AcDbSpline
210
0.0
220
0.0
230
1.0
 70
    24
 71
     3
 72
    10
 73
     6
 74
     0
 42
0.000000001
 43
0.00000001
 40
0.0
 40
0.0
 40
0.0
 40
0.0
 40
0.4999999999999999
 40
0.4999999999999999
 40
0.9999999999999999
 40
0.9999999999999999
 40
0.9999999999999999
 40
0.9999999999999999
 10
233.7368790462224
 20
557.0493877160208
 30
0.0
 10
233.7368790462223
 20
557.0493877160208
 30
0.0
 10
235.2646301892565
 20
557.0493877160208
 30
0.0
 10
240.7030312487783
 20
557.0493877160208
 30
0.0
 10
244.3913487782224
 20
557.0493877160208
 30
0.0
 10
248.2368790462224
 20
557.0493877160208
 30
0.0
  0
SPLINE
  5
CD
330
1F
100
AcDbEntity
  8
0
  6
Continuous
 62
     7
370
    15
100
AcDbSpline
210
0.0
220
0.0
230
1.0
 70
    24
 71
     3
 72
    10
 73
     6
 74
     0
 42
0.000000001
 43
0.00000001
 40
0.0
 40
0.0
 40
0.0
 40
0.0
 40
0.4999999999999997
 40
0.4999999999999997
 40
0.9999999999999999
 40
0.9999999999999999
 40
0.9999999999999999
 40
0.9999999999999999
 10
262.7368790462224
 20
557.0493877160208
 30
0.0
 10
262.7368790462223
 20
557.0493877160208
 30
0.0
 10
261.2091279031882
 20
557.0493877160208
 30
0.0
 10
255.7707268436663
 20
557.0493877160208
 30
0.0
 10
252.0824093142224
 20
557.0493877160208
 30
0.0
 10
248.2368790462224
 20
557.0493877160208
 30
0.0
  0
LINE
  5
CE
330
1F
100
AcDbEntity
  8
0
  6
Continuous
 62
     7
370
    15
100
AcDbLine
 10
259.4868794933
 20
578.1493894386
 30
0.0
 11
236.9868785992
 21
578.1493894386
 31
0.0
  0
SPLINE
  5
CF
330
1F
100
AcDbEntity
  8
0
  6
Continuous
 62
     7
370
    15
100
AcDbSpline
210
0.0
220
0.0
230
1.0
 70
    24
 71
     3
 72
     8
 73
     4
 74
     0
 42
0.000000001
 43
0.00000001
 40
0.0
 40
0.0
 40
0.0
 40
0.0
 40
1.0
 40
1.0
 40
1.0
 40
1.0
 10
236.9868790462306
 20
578.649387715955
 30
0.0
 10
236.9868790462306
 20
578.5232389136759
 30
0.0
 10
236.9868790462224
 20
578.3534947373246
 30
0.0
 10
236.9868790462224
 20
578.1493877159248
 30
0.0
  0
LINE
  5
D0
330
1F
100
AcDbEntity
  8
0
  6
Continuous
 62
     7
370
    15
100
AcDbLine
 10
259.4868794933
 20
578.6493867266
 30
0.0
 11
236.9868785992
 21
578.6493867266
 31
0.0
  0
SPLINE
  5
D1
330
1F
100
AcDbEntity
  8
0
  6
Continuous
 62
     7
370
    15
100
AcDbSpline
210
0.0
220
0.0
230
1.0
 70
    24
 71
     3
 72
     8
 73
     4
 74
     0
 42
0.000000001
 43
0.00000001
 40
0.0
 40
0.0
 40
0.0
 40
0.0
 40
1.0
 40
1.0
 40
1.0
 40
1.0
 10
259.4868790460762
 20
578.1493877168598
 30
0.0
 10
259.4868790460762
 20
578.3534947377955
 30
0.0
 10
259.4868790462224
 20
578.5232389141217
 30
0.0
 10
259.4868790462224
 20
578.6493877163059
 30
0.0
  0
LINE
  5
D2
330
1F
100
AcDbEntity
  8
0
  6
Continuous
 62
     7
370
    15
100
AcDbLine
 10
236.9868785992
 20
571.6493874418
 30
0.0
 11
236.2368789419
 21
571.6493874418
 31
0.0
  0
LINE
  5
D3
330
1F
100
AcDbEntity
  8
0
  6
Continuous
 62
     7
370
    15
100
AcDbLine
 10
236.9868785992
 20
578.1493894386
 30
0.0
 11
236.9868785992
 21
571.6493874418
 31
0.0
  0
LINE
  5
D4
330
1F
100
AcDbEntity
  8
0
  6
Continuous
 62
     7
370
    15
100
AcDbLine
 10
259.4868794933
 20
571.6493874418
 30
0.0
 11
259.4868794933
 21
578.1493894386
 31
0.0
  0
LINE
  5
D5
330
1F
100
AcDbEntity
  8
0
  6
Continuous
 62
     7
370
    15
100
AcDbLine
 10
260.2368791505
 20
571.6493874418
 30
0.0
 11
259.4868794933
 21
571.6493874418
 31
0.0
  0
LINE
  5
D6
330
1F
100
AcDbEntity
  8
0
  6
Continuous
 62
     8
370
     0
100
AcDbLine
 10
264.2368798062
 20
538.5493877905
 30
0.0
 11
232.2368782863
 21
538.5493877905
 31
0.0
  0
LINE
  5
D7
330
1F
100
AcDbEntity
  8
0
  6
Continuous
 62
     8
370
     0
100
AcDbLine
 10
232.2368782863
 20
544.0493877607
 30
0.0
 11
264.2368798062
 21
544.0493877607
 31
0.0
  0
LINE
  5
D8
330
1F
100
AcDbEntity
  8
0
  6
Continuous
 62
     8
370
     0
100
AcDbLine
 10
258.9023125276
 20
558.2823231446
 30
0.0
 11
237.5714455649
 21
558.2823231446
 31
0.0
  0
LINE
  5
D9
330
1F
100
AcDbEntity
  8
0
  6
Continuous
 62
     8
370
     0
100
AcDbLine
 10
248.3208148571
 20
556.049387865
 30
0.0
 11
263.7368787929
 21
556.049387865
 31
0.0
  0
LINE
  5
DA
330
1F
100
AcDbEntity
  8
0
  6
Continuous
 62
     8
370
     0
100
AcDbLine
 10
232.7368792995
 20
556.049387865
 30
0.0
 11
248.3208148571
 21
556.049387865
 31
0.0
  0
LINE
  5
DB
330
1F
100
AcDbEntity
  8
0
  6
Continuous
 62
     8
370
     0
100
AcDbLine
 10
236.9862043216
 20
562.3386799919
 30
0.0
 11
259.4875537708
 21
562.3386799919
 31
0.0
  0
LINE
  5
DC
330
1F
100
AcDbEntity
  8
0
  6
Continuous
 62
     8
370
     0
100
AcDbLine
 10
260.2368791505
 20
563.8993866372
 30
0.0
 11
236.2368789419
 21
563.8993866372
 31
0.0
  0
LINE
  5
DD
330
1F
100
AcDbEntity
  8
0
  6
Continuous
 62
     7
370
    15
100
AcDbLine
 10
504.3250762842
 20
518.5493877719
 30
0.0
 11
504.3250762842
 21
521.049387716
 31
0.0
  0
LINE
  5
DE
330
1F
100
AcDbEntity
  8
0
  6
Continuous
 62
     7
370
    15
100
AcDbLine
 10
500.8250766418
 20
521.049387716
 30
0.0
 11
500.8250766418
 21
518.5493877719
 31
0.0
  0
LINE
  5
DF
330
1F
100
AcDbEntity
  8
0
  6
Continuous
 62
     7
370
    15
100
AcDbLine
 10
528.8250812313
 20
518.5493877719
 30
0.0
 11
528.8250812313
 21
521.049387716
 31
0.0
  0
LINE
  5
E0
330
1F
100
AcDbEntity
  8
0
  6
Continuous
 62
     7
370
    15
100
AcDbLine
 10
525.325081589
 20
521.049387716
 30
0.0
 11
525.325081589
 21
518.5493877719
 31
0.0
  0
LINE
  5
E1
330
1F
100
AcDbEntity
  8
0
  6
Continuous
 62
     7
370
    15
100
AcDbLine
 10
553.325078728
 20
518.5493877719
 30
0.0
 11
553.325078728
 21
521.049387716
 31
0.0
  0
LINE
  5
E2
330
1F
100
AcDbEntity
  8
0
  6
Continuous
 62
     7
370
    15
100
AcDbLine
 10
549.8250790856
 20
521.049387716
 30
0.0
 11
549.8250790856
 21
518.5493877719
 31
0.0
  0
LINE
  5
E3
330
1F
100
AcDbEntity
  8
0
  6
Continuous
 62
     7
370
    15
100
AcDbLine
 10
577.8250799498
 20
518.5493877719
 30
0.0
 11
577.8250799498
 21
521.049387716
 31
0.0
  0
LINE
  5
E4
330
1F
100
AcDbEntity
  8
0
  6
Continuous
 62
     7
370
    15
100
AcDbLine
 10
574.3250803075
 20
521.049387716
 30
0.0
 11
574.3250803075
 21
518.5493877719
 31
0.0
  0
LINE
  5
E5
330
1F
100
AcDbEntity
  8
0
  6
Continuous
 62
     7
370
    15
100
AcDbLine
 10
602.3250793091
 20
518.5493877719
 30
0.0
 11
602.3250793091
 21
521.049387716
 31
0.0
  0
LINE
  5
E6
330
1F
100
AcDbEntity
  8
0
  6
Continuous
 62
     7
370
    15
100
AcDbLine
 10
598.8250796667
 20
521.049387716
 30
0.0
 11
598.8250796667
 21
518.5493877719
 31
0.0
  0
LINE
  5
E7
330
1F
100
AcDbEntity
  8
0
  6
Continuous
 62
     7
370
    15
100
AcDbLine
 10
626.8250789012
 20
518.5493877719
 30
0.0
 11
626.8250789012
 21
521.049387716
 31
0.0
  0
LINE
  5
E8
330
1F
100
AcDbEntity
  8
0
  6
Continuous
 62
     7
370
    15
100
AcDbLine
 10
623.3250787931
 20
521.049387716
 30
0.0
 11
623.3250787931
 21
518.5493877719
 31
0.0
  0
LINE
  5
E9
330
1F
100
AcDbEntity
  8
0
  6
Continuous
 62
     7
370
    15
100
AcDbLine
 10
651.3250780276
 20
518.5493877719
 30
0.0
 11
651.3250780276
 21
521.049387716
 31
0.0
  0
LINE
  5
EA
330
1F
100
AcDbEntity
  8
0
  6
Continuous
 62
     7
370
    15
100
AcDbLine
 10
647.8250783852
 20
521.049387716
 30
0.0
 11
647.8250783852
 21
518.5493877719
 31
0.0
  0
LINE
  5
EB
330
1F
100
AcDbEntity
  8
0
  6
Continuous
 62
     7
370
    15
100
AcDbLine
 10
675.8250773868
 20
518.5493877719
 30
0.0
 11
675.8250773868
 21
521.049387716
 31
0.0
  0
LINE
  5
EC
330
1F
100
AcDbEntity
  8
0
  6
Continuous
 62
     7
370
    15
100
AcDbLine
 10
672.3250777445
 20
521.049387716
 30
0.0
 11
672.3250777445
 21
518.5493877719
 31
0.0
  0
LINE
  5
ED
330
1F
100
AcDbEntity
  8
0
  6
Continuous
 62
     7
370
    15
100
AcDbLine
 10
700.3250786087
 20
518.5493877719
 30
0.0
 11
700.3250786087
 21
521.049387716
 31
0.0
  0
LINE
  5
EE
330
1F
100
AcDbEntity
  8
0
  6
Continuous
 62
     7
370
    15
100
AcDbLine
 10
696.8250789664
 20
521.049387716
 30
0.0
 11
696.8250789664
 21
518.5493877719
 31
0.0
  0
LINE
  5
EF
330
1F
100
AcDbEntity
  8
0
  6
Continuous
 62
     7
370
    15
100
AcDbLine
 10
724.8250761053
 20
518.5493877719
 30
0.0
 11
724.8250761053
 21
521.049387716
 31
0.0
  0
LINE
  5
F0
330
1F
100
AcDbEntity
  8
0
  6
Continuous
 62
     7
370
    15
100
AcDbLine
 10
721.325076463
 20
521.049387716
 30
0.0
 11
721.325076463
 21
518.5493877719
 31
0.0
  0
LINE
  5
F1
330
1F
100
AcDbEntity
  8
0
  6
Continuous
 62
     7
370
    15
100
AcDbLine
 10
749.3250810525
 20
518.5493877719
 30
0.0
 11
749.3250810525
 21
521.049387716
 31
0.0
  0
LINE
  5
F2
330
1F
100
AcDbEntity
  8
0
  6
Continuous
 62
     7
370
    15
100
AcDbLine
 10
745.8250814102
 20
521.049387716
 30
0.0
 11
745.8250814102
 21
518.5493877719
 31
0.0
  0
ARC
  5
F3
330
1F
100
AcDbEntity
  8
0
  6
Continuous
 62
     7
370
    15
100
AcDbCircle
 10
640.5750788472
 20
538.549387716
 30
0.0
 40
1.5
100
AcDbArc
 50
270.0
 51
0.0
  0
ARC
  5
F4
330
1F
100
AcDbEntity
  8
0
  6
Continuous
 62
     7
370
    15
100
AcDbCircle
 10
609.5750788472
 20
538.549387716
 30
0.0
 40
1.5
100
AcDbArc
 50
180.0
 51
270.0
  0
ARC
  5
F5
330
1F
100
AcDbEntity
  8
0
  6
Continuous
 62
     7
370
    15
100
AcDbCircle
 10
609.0750788472
 20
544.049387716
 30
0.0
 40
1.0
100
AcDbArc
 50
90.0
 51
180.0
  0
ARC
  5
F6
330
1F
100
AcDbEntity
  8
0
  6
Continuous
 62
     7
370
    15
100
AcDbCircle
 10
641.0750788472
 20
544.049387716
 30
0.0
 40
1.0
100
AcDbArc
 50
0.0
 51
90.0
  0
LINE
  5
F7
330
1F
100
AcDbEntity
  8
0
  6
Continuous
 62
     7
370
    15
100
AcDbLine
 10
608.0750779233
 20
544.0493877607
 30
0.0
 11
608.0750779233
 21
538.5493877905
 31
0.0
  0
LINE
  5
F8
330
1F
100
AcDbEntity
  8
0
  6
Continuous
 62
     7
370
    15
100
AcDbLine
 10
642.075079771
 20
538.5493877905
 30
0.0
 11
642.075079771
 21
544.0493877607
 31
0.0
  0
ARC
  5
F9
330
1F
100
AcDbEntity
  8
0
  6
Continuous
 62
     7
370
    15
100
AcDbCircle
 10
639.5750788472
 20
556.049387716
 30
0.0
 40
1.0
100
AcDbArc
 50
0.0
 51
90.0
  0
ARC
  5
FA
330
1F
100
AcDbEntity
  8
0
  6
Continuous
 62
     7
370
    15
100
AcDbCircle
 10
610.5750788472
 20
556.049387716
 30
0.0
 40
1.0
100
AcDbArc
 50
90.0
 51
180.0
  0
LINE
  5
FB
330
1F
100
AcDbEntity
  8
0
  6
Continuous
 62
     7
370
    15
100
AcDbLine
 10
640.5750785938
 20
545.0493879246
 30
0.0
 11
640.5750785938
 21
556.049387865
 31
0.0
  0
LINE
  5
FC
330
1F
100
AcDbEntity
  8
0
  6
Continuous
 62
     7
370
    15
100
AcDbLine
 10
609.5750791005
 20
556.049387865
 30
0.0
 11
609.5750791005
 21
545.0493879246
 31
0.0
  0
LINE
  5
FD
330
1F
100
AcDbEntity
  8
0
  6
Continuous
 62
     7
370
    15
100
AcDbLine
 10
609.0750780872
 20
537.049388476
 30
0.0
 11
609.0750780872
 21
530.0493873286
 31
0.0
  0
LINE
  5
FE
330
1F
100
AcDbEntity
  8
0
  6
Continuous
 62
     7
370
    15
100
AcDbLine
 10
641.0750796071
 20
530.0493873286
 30
0.0
 11
641.0750796071
 21
537.049388476
 31
0.0
  0
LINE
  5
FF
330
1F
100
AcDbEntity
  8
0
  6
Continuous
 62
     7
370
    15
100
AcDbLine
 10
636.4480520583
 20
557.1151598918
 30
0.0
 11
635.7220022923
 21
558.2758448648
 31
0.0
  0
SPLINE
  5
100
330
1F
100
AcDbEntity
  8
0
  6
Continuous
 62
     7
370
    15
100
AcDbSpline
210
0.0
220
0.0
230
1.0
 70
     8
 71
     3
 72
     9
 73
     5
 74
     0
 42
0.000000001
 43
0.00000001
 40
0.0
 40
0.0
 40
0.0
 40
0.0
 40
0.2241303000677719
 40
0.9999999999999999
 40
0.9999999999999999
 40
0.9999999999999999
 40
0.9999999999999999
 10
614.479636119952
 20
558.3480558919565
 30
0.0
 10
614.4088753553655
 20
558.2599134336189
 30
0.0
 10
614.0931627338896
 20
557.8666490766312
 30
0.0
 10
613.8672997246458
 20
557.4133672551231
 30
0.0
 10
613.6920594594382
 20
557.0616796242849
 30
0.0
  0
LINE
  5
101
330
1F
100
AcDbEntity
  8
0
  6
Continuous
 62
     7
370
    15
100
AcDbLine
 10
637.0750789515
 20
563.8993866372
 30
0.0
 11
637.0750789515
 21
578.1493894386
 31
0.0
  0
LINE
  5
102
330
1F
100
AcDbEntity
  8
0
  6
Continuous
 62
     7
370
    15
100
AcDbLine
 10
613.0750787429
 20
578.1493894386
 30
0.0
 11
613.0750787429
 21
563.8993866372
 31
0.0
  0
ARC
  5
103
330
1F
100
AcDbEntity
  8
0
  6
Continuous
 62
     7
370
    15
100
AcDbCircle
 10
635.0750788472
 20
563.899387716
 30
0.0
 40
2.0
100
AcDbArc
 50
308.7069637031
 51
0.0
  0
ARC
  5
104
330
1F
100
AcDbEntity
  8
0
  6
Continuous
 62
     7
370
    15
100
AcDbCircle
 10
615.0750788472
 20
563.899387716
 30
0.0
 40
2.0
100
AcDbArc
 50
180.0
 51
231.2930362969
  0
ARC
  5
105
330
1F
100
AcDbEntity
  8
0
  6
Continuous
 62
     7
370
    15
100
AcDbCircle
 10
638.2017663715
 20
559.9976156667
 30
0.0
 40
2.999999999999981
100
AcDbArc
 50
128.7069637029
 51
214.8733439096
  0
ARC
  5
106
330
1F
100
AcDbEntity
  8
0
  6
Continuous
 62
     7
370
    15
100
AcDbCircle
 10
611.9483913228
 20
559.9976156667
 30
0.0
 40
2.99999999999991
100
AcDbArc
 50
325.1266560904
 51
51.2930362971
  0
LINE
  5
107
330
1F
100
AcDbEntity
  8
0
  6
Continuous
 62
     7
370
    15
100
AcDbLine
 10
613.5750788248
 20
578.6493867266
 30
0.0
 11
613.0750787429
 21
578.1493894386
 31
0.0
  0
LINE
  5
108
330
1F
100
AcDbEntity
  8
0
  6
Continuous
 62
     7
370
    15
100
AcDbLine
 10
637.0750789515
 20
578.1493894386
 30
0.0
 11
636.5750788695
 21
578.6493867266
 31
0.0
  0
LINE
  5
109
330
1F
100
AcDbEntity
  8
0
  6
Continuous
 62
     7
370
    15
100
AcDbLine
 10
775.0750848076
 20
530.0493873286
 30
0.0
 11
775.0750848076
 21
521.049387716
 31
0.0
  0
LINE
  5
10A
330
1F
100
AcDbEntity
  8
0
  6
Continuous
 62
     7
370
    15
100
AcDbLine
 10
475.0750728867
 20
521.049387716
 30
0.0
 11
775.0750848076
 21
521.049387716
 31
0.0
  0
LINE
  5
10B
330
1F
100
AcDbEntity
  8
0
  6
Continuous
 62
     7
370
    15
100
AcDbLine
 10
475.0750728867
 20
530.0493873286
 30
0.0
 11
475.0750728867
 21
521.049387716
 31
0.0
  0
LINE
  5
10C
330
1F
100
AcDbEntity
  8
0
  6
Continuous
 62
     7
370
    15
100
AcDbLine
 10
775.0750848076
 20
530.0493873286
 30
0.0
 11
475.0750728867
 21
530.0493873286
 31
0.0
  0
LINE
  5
10D
330
1F
100
AcDbEntity
  8
0
  6
Continuous
 62
     7
370
    15
100
AcDbLine
 10
502.575076463
 20
518.5493877719
 30
0.0
 11
500.8250766418
 21
518.5493877719
 31
0.0
  0
LINE
  5
10E
330
1F
100
AcDbEntity
  8
0
  6
Continuous
 62
     7
370
    15
100
AcDbLine
 10
504.3250762842
 20
518.5493877719
 30
0.0
 11
502.575076463
 21
518.5493877719
 31
0.0
  0
LINE
  5
10F
330
1F
100
AcDbEntity
  8
0
  6
Continuous
 62
     7
370
    15
100
AcDbLine
 10
527.0750814102
 20
518.5493877719
 30
0.0
 11
525.325081589
 21
518.5493877719
 31
0.0
  0
LINE
  5
110
330
1F
100
AcDbEntity
  8
0
  6
Continuous
 62
     7
370
    15
100
AcDbLine
 10
528.8250812313
 20
518.5493877719
 30
0.0
 11
527.0750814102
 21
518.5493877719
 31
0.0
  0
LINE
  5
111
330
1F
100
AcDbEntity
  8
0
  6
Continuous
 62
     7
370
    15
100
AcDbLine
 10
551.5750789068
 20
518.5493877719
 30
0.0
 11
549.8250790856
 21
518.5493877719
 31
0.0
  0
LINE
  5
112
330
1F
100
AcDbEntity
  8
0
  6
Continuous
 62
     7
370
    15
100
AcDbLine
 10
553.325078728
 20
518.5493877719
 30
0.0
 11
551.5750789068
 21
518.5493877719
 31
0.0
  0
LINE
  5
113
330
1F
100
AcDbEntity
  8
0
  6
Continuous
 62
     7
370
    15
100
AcDbLine
 10
576.0750801287
 20
518.5493877719
 30
0.0
 11
574.3250803075
 21
518.5493877719
 31
0.0
  0
LINE
  5
114
330
1F
100
AcDbEntity
  8
0
  6
Continuous
 62
     7
370
    15
100
AcDbLine
 10
577.8250799498
 20
518.5493877719
 30
0.0
 11
576.0750801287
 21
518.5493877719
 31
0.0
  0
LINE
  5
115
330
1F
100
AcDbEntity
  8
0
  6
Continuous
 62
     7
370
    15
100
AcDbLine
 10
600.5750794879
 20
518.5493877719
 30
0.0
 11
598.8250796667
 21
518.5493877719
 31
0.0
  0
LINE
  5
116
330
1F
100
AcDbEntity
  8
0
  6
Continuous
 62
     7
370
    15
100
AcDbLine
 10
602.3250793091
 20
518.5493877719
 30
0.0
 11
600.5750794879
 21
518.5493877719
 31
0.0
  0
LINE
  5
117
330
1F
100
AcDbEntity
  8
0
  6
Continuous
 62
     7
370
    15
100
AcDbLine
 10
625.0750788472
 20
518.5493877719
 30
0.0
 11
623.3250787931
 21
518.5493877719
 31
0.0
  0
LINE
  5
118
330
1F
100
AcDbEntity
  8
0
  6
Continuous
 62
     7
370
    15
100
AcDbLine
 10
626.8250789012
 20
518.5493877719
 30
0.0
 11
625.0750788472
 21
518.5493877719
 31
0.0
  0
LINE
  5
119
330
1F
100
AcDbEntity
  8
0
  6
Continuous
 62
     7
370
    15
100
AcDbLine
 10
649.5750782064
 20
518.5493877719
 30
0.0
 11
647.8250783852
 21
518.5493877719
 31
0.0
  0
LINE
  5
11A
330
1F
100
AcDbEntity
  8
0
  6
Continuous
 62
     7
370
    15
100
AcDbLine
 10
651.3250780276
 20
518.5493877719
 30
0.0
 11
649.5750782064
 21
518.5493877719
 31
0.0
  0
LINE
  5
11B
330
1F
100
AcDbEntity
  8
0
  6
Continuous
 62
     7
370
    15
100
AcDbLine
 10
674.0750775657
 20
518.5493877719
 30
0.0
 11
672.3250777445
 21
518.5493877719
 31
0.0
  0
LINE
  5
11C
330
1F
100
AcDbEntity
  8
0
  6
Continuous
 62
     7
370
    15
100
AcDbLine
 10
675.8250773868
 20
518.5493877719
 30
0.0
 11
674.0750775657
 21
518.5493877719
 31
0.0
  0
LINE
  5
11D
330
1F
100
AcDbEntity
  8
0
  6
Continuous
 62
     7
370
    15
100
AcDbLine
 10
698.5750787876
 20
518.5493877719
 30
0.0
 11
696.8250789664
 21
518.5493877719
 31
0.0
  0
LINE
  5
11E
330
1F
100
AcDbEntity
  8
0
  6
Continuous
 62
     7
370
    15
100
AcDbLine
 10
700.3250786087
 20
518.5493877719
 30
0.0
 11
698.5750787876
 21
518.5493877719
 31
0.0
  0
LINE
  5
11F
330
1F
100
AcDbEntity
  8
0
  6
Continuous
 62
     7
370
    15
100
AcDbLine
 10
723.0750762842
 20
518.5493877719
 30
0.0
 11
721.325076463
 21
518.5493877719
 31
0.0
  0
LINE
  5
120
330
1F
100
AcDbEntity
  8
0
  6
Continuous
 62
     7
370
    15
100
AcDbLine
 10
724.8250761053
 20
518.5493877719
 30
0.0
 11
723.0750762842
 21
518.5493877719
 31
0.0
  0
LINE
  5
121
330
1F
100
AcDbEntity
  8
0
  6
Continuous
 62
     7
370
    15
100
AcDbLine
 10
747.5750812313
 20
518.5493877719
 30
0.0
 11
745.8250814102
 21
518.5493877719
 31
0.0
  0
LINE
  5
122
330
1F
100
AcDbEntity
  8
0
  6
Continuous
 62
     7
370
    15
100
AcDbLine
 10
749.3250810525
 20
518.5493877719
 30
0.0
 11
747.5750812313
 21
518.5493877719
 31
0.0
  0
SPLINE
  5
123
330
1F
100
AcDbEntity
  8
0
  6
Continuous
 62
     7
370
    15
100
AcDbSpline
210
0.0
220
0.0
230
1.0
 70
     8
 71
     3
 72
    36
 73
    32
 74
     0
 42
0.000000001
 43
0.00000001
 40
0.0
 40
0.0
 40
0.0
 40
0.0
 40
0.03125
 40
0.03125
 40
0.0624999999999999
 40
0.0624999999999999
 40
0.1249999999999999
 40
0.1249999999999999
 40
0.1874999999999998
 40
0.1874999999999998
 40
0.2499999999999997
 40
0.2499999999999997
 40
0.3749999999999997
 40
0.3749999999999997
 40
0.4999999999999997
 40
0.4999999999999997
 40
0.6249999999999997
 40
0.6249999999999997
 40
0.7499999999999996
 40
0.7499999999999996
 40
0.8124999999999996
 40
0.8124999999999996
 40
0.8749999999999997
 40
0.8749999999999997
 40
0.9062499999999998
 40
0.9062499999999998
 40
0.9374999999999999
 40
0.9374999999999999
 40
0.9687499999999999
 40
0.9687499999999999
 40
1.0
 40
1.0
 40
1.0
 40
1.0
 10
630.8196414936982
 20
538.5493877160208
 30
0.0
 10
630.8196414936982
 20
538.4162287185322
 30
0.0
 10
630.7652225562505
 20
538.290851554694
 30
0.0
 10
630.6063660489523
 20
538.080518646773
 30
0.0
 10
630.5058445051416
 20
537.9951053468938
 30
0.0
 10
630.180129698078
 20
537.7723371727894
 30
0.0
 10
629.939068951729
 20
537.6718862295494
 30
0.0
 10
629.4425948698356
 20
537.5066976658908
 30
0.0
 10
629.1899445250073
 20
537.4457579979272
 30
0.0
 10
628.6827609623597
 20
537.3467717900887
 30
0.0
 10
628.4275202130766
 20
537.3090566066144
 30
0.0
 10
627.6587778133191
 20
537.2174827966892
 30
0.0
 10
627.142097626337
 20
537.1846042606601
 30
0.0
 10
626.1063570027347
 20
537.1431921767074
 30
0.0
 10
625.5883460628443
 20
537.1351190671612
 30
0.0
 10
624.5521432133647
 20
537.1352297565342
 30
0.0
 10
624.0337762586156
 20
537.1434238021448
 30
0.0
 10
622.998388447479
 20
537.185163390563
 30
0.0
 10
622.4806397604358
 20
537.2182691455167
 30
0.0
 10
621.7090910168847
 20
537.3109259650605
 30
0.0
 10
621.4524093907932
 20
537.3492024367115
 30
0.0
 10
620.9441587934415
 20
537.4494167975233
 30
0.0
 10
620.691406781396
 20
537.5112699071734
 30
0.0
 10
620.324141447445
 20
537.6347047283373
 30
0.0
 10
620.2036689004334
 20
537.6810083035681
 30
0.0
 10
619.9686319563468
 20
537.7892513579094
 30
0.0
 10
619.8534903464345
 20
537.8513751048564
 30
0.0
 10
619.6397955204325
 20
537.998901495861
 30
0.0
 10
619.540325632044
 20
538.0843432203319
 30
0.0
 10
619.3847085118888
 20
538.291934493548
 30
0.0
 10
619.3305162006221
 20
538.4178070424264
 30
0.0
 10
619.3305162006221
 20
538.5493877160208
 30
0.0
  0
SPLINE
  5
124
330
1F
100
AcDbEntity
  8
0
  6
Continuous
 62
     7
370
    15
100
AcDbSpline
210
0.0
220
0.0
230
1.0
 70
    24
 71
     3
 72
    16
 73
    12
 74
     0
 42
0.000000001
 43
0.00000001
 40
0.0
 40
0.0
 40
0.0
 40
0.0
 40
0.0468748425127899
 40
0.0938090406636832
 40
0.1408293211899399
 40
0.3203812341651411
 40
0.500000448308249
 40
0.6795523620700441
 40
0.8591715762174034
 40
0.9296586271259395
 40
1.0
 40
1.0
 40
1.0
 40
1.0
 10
628.9805052553963
 20
537.0493877160208
 30
0.0
 10
628.8609218684489
 20
537.0493877160208
 30
0.0
 10
628.6216036711498
 20
537.0493877160208
 30
0.0
 10
628.2597021487157
 20
537.0493877160208
 30
0.0
 10
627.5536771377909
 20
537.0493877160208
 30
0.0
 10
626.4932357362746
 20
537.0493877160208
 30
0.0
 10
625.0752781463499
 20
537.0493877160208
 30
0.0
 10
623.6570104978117
 20
537.0493877160208
 30
0.0
 10
622.535620710538
 20
537.0493877160208
 30
0.0
 10
621.708857564203
 20
537.0493877160208
 30
0.0
 10
621.3492452145578
 20
537.0493877160208
 30
0.0
 10
621.1696250377704
 20
537.0493877160208
 30
0.0
  0
SPLINE
  5
125
330
1F
100
AcDbEntity
  8
0
  6
Continuous
 62
     7
370
    15
100
AcDbSpline
210
0.0
220
0.0
230
1.0
 70
    24
 71
     3
 72
    10
 73
     6
 74
     0
 42
0.000000001
 43
0.00000001
 40
0.0
 40
0.0
 40
0.0
 40
0.0
 40
0.5000000000000002
 40
0.5000000000000002
 40
0.9999999999999999
 40
0.9999999999999999
 40
0.9999999999999999
 40
0.9999999999999999
 10
609.0750788471602
 20
545.0493877160208
 30
0.0
 10
609.0750788471601
 20
545.0493877160208
 30
0.0
 10
610.7608732118874
 20
545.0493877160208
 30
0.0
 10
616.7618674844632
 20
545.0493877160208
 30
0.0
 10
620.8317351031601
 20
545.0493877160208
 30
0.0
 10
625.0750788471602
 20
545.0493877160208
 30
0.0
  0
SPLINE
  5
126
330
1F
100
AcDbEntity
  8
0
  6
Continuous
 62
     7
370
    15
100
AcDbSpline
210
0.0
220
0.0
230
1.0
 70
     8
 71
     3
 72
    22
 73
    18
 74
     0
 42
0.000000001
 43
0.00000001
 40
0.0
 40
0.0
 40
0.0
 40
0.0
 40
0.0312499999999997
 40
0.0312499999999997
 40
0.0624999999999993
 40
0.0624999999999993
 40
0.1249999999999999
 40
0.1249999999999999
 40
0.2500000000000001
 40
0.2500000000000001
 40
0.3750000000000003
 40
0.3750000000000003
 40
0.5000000000000003
 40
0.5000000000000003
 40
0.7500000000000001
 40
0.7500000000000001
 40
1.0
 40
1.0
 40
1.0
 40
1.0
 10
619.3305162006221
 20
544.0493877160208
 30
0.0
 10
619.3305162006221
 20
544.1145011862372
 30
0.0
 10
619.3500647026578
 20
544.1775809212915
 30
0.0
 10
619.412526280151
 20
544.2893878714078
 30
0.0
 10
619.4552000009822
 20
544.3391322299165
 30
0.0
 10
619.5954643362284
 20
544.4696648615248
 30
0.0
 10
619.7075068166127
 20
544.5361659767682
 30
0.0
 10
620.0498191577524
 20
544.7017514218492
 30
0.0
 10
620.2972371969208
 20
544.7722105644435
 30
0.0
 10
620.7915900713227
 20
544.8812155495808
 30
0.0
 10
621.0407472355139
 20
544.9183697226424
 30
0.0
 10
621.5410778606507
 20
544.9750182092858
 30
0.0
 10
621.7922944341475
 20
544.9941349189297
 30
0.0
 10
622.547726922634
 20
545.0358705644144
 30
0.0
 10
623.0536803831446
 20
545.043391361728
 30
0.0
 10
624.064354185363
 20
545.0502414670353
 30
0.0
 10
624.5697193344228
 20
545.0493877160208
 30
0.0
 10
625.0750788471602
 20
545.0493877160208
 30
0.0
  0
SPLINE
  5
127
330
1F
100
AcDbEntity
  8
0
  6
Continuous
 62
     7
370
    15
100
AcDbSpline
210
0.0
220
0.0
230
1.0
 70
     8
 71
     3
 72
    22
 73
    18
 74
     0
 42
0.000000001
 43
0.00000001
 40
0.0
 40
0.0
 40
0.0
 40
0.0
 40
0.2500000000000003
 40
0.2500000000000003
 40
0.5000000000000006
 40
0.5000000000000006
 40
0.6250000000000006
 40
0.6250000000000006
 40
0.7500000000000004
 40
0.7500000000000004
 40
0.8750000000000002
 40
0.8750000000000002
 40
0.9375000000000002
 40
0.9375000000000002
 40
0.9687500000000002
 40
0.9687500000000002
 40
1.0
 40
1.0
 40
1.0
 40
1.0
 10
625.0750788471602
 20
545.0493877160208
 30
0.0
 10
625.5812126247351
 20
545.0493877160208
 30
0.0
 10
626.0873497450453
 20
545.0502467729442
 30
0.0
 10
627.0995904808218
 20
545.0433544026876
 30
0.0
 10
627.6057785780104
 20
545.0358310297859
 30
0.0
 10
628.3637966832615
 20
544.9937333022255
 30
0.0
 10
628.6162601911259
 20
544.9744165329777
 30
0.0
 10
629.1189914713063
 20
544.9170664852768
 30
0.0
 10
629.3696586811772
 20
544.8793092852529
 30
0.0
 10
629.8636796294023
 20
544.7692745124077
 30
0.0
 10
630.1073996171115
 20
544.6994583184894
 30
0.0
 10
630.4498025397363
 20
544.532118676891
 30
0.0
 10
630.5599958374698
 20
544.4657241278288
 30
0.0
 10
630.6976180327509
 20
544.3361303568679
 30
0.0
 10
630.739425375336
 20
544.2868343231521
 30
0.0
 10
630.8006521678313
 20
544.1758967072105
 30
0.0
 10
630.8196414936982
 20
544.1136279651865
 30
0.0
 10
630.8196414936982
 20
544.0493877160208
 30
0.0
  0
SPLINE
  5
128
330
1F
100
AcDbEntity
  8
0
  6
Continuous
 62
     7
370
    15
100
AcDbSpline
210
0.0
220
0.0
230
1.0
 70
    24
 71
     3
 72
    10
 73
     6
 74
     0
 42
0.000000001
 43
0.00000001
 40
0.0
 40
0.0
 40
0.0
 40
0.0
 40
0.5
 40
0.5
 40
1.0
 40
1.0
 40
1.0
 40
1.0
 10
625.0750788471602
 20
545.0493877160208
 30
0.0
 10
629.3184225911602
 20
545.0493877160208
 30
0.0
 10
633.3882902098569
 20
545.0493877160208
 30
0.0
 10
639.3892844824327
 20
545.0493877160208
 30
0.0
 10
641.0750788471601
 20
545.0493877160208
 30
0.0
 10
641.0750788471602
 20
545.0493877160208
 30
0.0
  0
LINE
  5
129
330
1F
100
AcDbEntity
  8
0
  6
Continuous
 62
     7
370
    15
100
AcDbLine
 10
630.8196413315
 20
544.0493877607
 30
0.0
 11
630.8196413315
 21
538.5493877905
 31
0.0
  0
LINE
  5
12A
330
1F
100
AcDbEntity
  8
0
  6
Continuous
 62
     7
370
    15
100
AcDbLine
 10
619.3305163628
 20
538.5493877905
 30
0.0
 11
619.3305163628
 21
544.0493877607
 31
0.0
  0
SPLINE
  5
12B
330
1F
100
AcDbEntity
  8
0
  6
Continuous
 62
     7
370
    15
100
AcDbSpline
210
0.0
220
0.0
230
1.0
 70
    24
 71
     3
 72
    14
 73
    10
 74
     0
 42
0.000000001
 43
0.00000001
 40
0.0
 40
0.0
 40
0.0
 40
0.0
 40
0.2499999999999999
 40
0.2499999999999999
 40
0.4999999999999999
 40
0.4999999999999999
 40
0.7499999999999999
 40
0.7499999999999999
 40
0.9999999999999999
 40
0.9999999999999999
 40
0.9999999999999999
 40
0.9999999999999999
 10
610.5750788471602
 20
557.0493877160208
 30
0.0
 10
610.5750788471602
 20
557.0493877160208
 30
0.0
 10
612.1028299901943
 20
557.0493877160208
 30
0.0
 10
617.5412310497161
 20
557.0493877160208
 30
0.0
 10
621.2295485791602
 20
557.0493877160208
 30
0.0
 10
628.9206091151602
 20
557.0493877160208
 30
0.0
 10
632.6089266446043
 20
557.0493877160208
 30
0.0
 10
638.0473277041261
 20
557.0493877160208
 30
0.0
 10
639.5750788471602
 20
557.0493877160208
 30
0.0
 10
639.5750788471602
 20
557.0493877160208
 30
0.0
  0
LINE
  5
12C
330
1F
100
AcDbEntity
  8
0
  6
Continuous
 62
     7
370
    15
100
AcDbLine
 10
619.5073144494
 20
530.0493873286
 30
0.0
 11
619.5073144494
 21
537.049388476
 31
0.0
  0
LINE
  5
12D
330
1F
100
AcDbEntity
  8
0
  6
Continuous
 62
     7
370
    15
100
AcDbLine
 10
630.6428432449
 20
537.049388476
 30
0.0
 11
628.9804871644
 21
537.049388476
 31
0.0
  0
LINE
  5
12E
330
1F
100
AcDbEntity
  8
0
  6
Continuous
 62
     7
370
    15
100
AcDbLine
 10
630.6428432449
 20
537.049388476
 30
0.0
 11
630.6428432449
 21
530.0493873286
 31
0.0
  0
LINE
  5
12F
330
1F
100
AcDbEntity
  8
0
  6
Continuous
 62
     7
370
    15
100
AcDbLine
 10
621.1696446857
 20
537.049388476
 30
0.0
 11
619.5073144494
 21
537.049388476
 31
0.0
  0
LINE
  5
130
330
1F
100
AcDbEntity
  8
0
  6
Continuous
 62
     7
370
    15
100
AcDbLine
 10
619.5073144494
 20
537.049388476
 30
0.0
 11
609.0750780872
 21
537.049388476
 31
0.0
  0
LINE
  5
131
330
1F
100
AcDbEntity
  8
0
  6
Continuous
 62
     7
370
    15
100
AcDbLine
 10
641.0750796071
 20
537.049388476
 30
0.0
 11
630.6428432449
 21
537.049388476
 31
0.0
  0
LINE
  5
132
330
1F
100
AcDbEntity
  8
0
  6
Continuous
 62
     7
370
    15
100
AcDbLine
 10
629.250902029
 20
571.6493874418
 30
0.0
 11
620.8992556653
 21
571.6493874418
 31
0.0
  0
LINE
  5
133
330
1F
100
AcDbEntity
  8
0
  6
Continuous
 62
     7
370
    15
100
AcDbLine
 10
629.250902029
 20
578.1493894386
 30
0.0
 11
629.250902029
 21
571.6493874418
 31
0.0
  0
LINE
  5
134
330
1F
100
AcDbEntity
  8
0
  6
Continuous
 62
     7
370
    15
100
AcDbLine
 10
637.0750789515
 20
578.1493894386
 30
0.0
 11
629.250902029
 21
578.1493894386
 31
0.0
  0
LINE
  5
135
330
1F
100
AcDbEntity
  8
0
  6
Continuous
 62
     7
370
    15
100
AcDbLine
 10
620.8992556653
 20
578.1493894386
 30
0.0
 11
613.0750787429
 21
578.1493894386
 31
0.0
  0
LINE
  5
136
330
1F
100
AcDbEntity
  8
0
  6
Continuous
 62
     7
370
    15
100
AcDbLine
 10
620.8992556653
 20
571.6493874418
 30
0.0
 11
620.8992556653
 21
578.1493894386
 31
0.0
  0
LINE
  5
137
330
1F
100
AcDbEntity
  8
0
  6
Continuous
 62
     7
370
    15
100
AcDbLine
 10
622.6902308858
 20
578.6493867266
 30
0.0
 11
613.5750788248
 21
578.6493867266
 31
0.0
  0
SPLINE
  5
138
330
1F
100
AcDbEntity
  8
0
  6
Continuous
 62
     7
370
    15
100
AcDbSpline
210
0.0
220
0.0
230
1.0
 70
     8
 71
     3
 72
     8
 73
     4
 74
     0
 42
0.000000001
 43
0.00000001
 40
0.0
 40
0.0
 40
0.0
 40
0.0
 40
1.0
 40
1.0
 40
1.0
 40
1.0
 10
620.8992555754227
 20
578.1493877151203
 30
0.0
 10
621.4857948276912
 20
578.3534947367109
 30
0.0
 10
622.0819274131991
 20
578.5232389131268
 30
0.0
 10
622.6902308463101
 20
578.6493877154012
 30
0.0
  0
SPLINE
  5
139
330
1F
100
AcDbEntity
  8
0
  6
Continuous
 62
     7
370
    15
100
AcDbSpline
210
0.0
220
0.0
230
1.0
 70
     8
 71
     3
 72
     8
 73
     4
 74
     0
 42
0.000000001
 43
0.00000001
 40
0.0
 40
0.0
 40
0.0
 40
0.0
 40
1.0
 40
1.0
 40
1.0
 40
1.0
 10
627.4599268503125
 20
578.649387715955
 30
0.0
 10
628.0682302827194
 20
578.5232389136759
 30
0.0
 10
628.6643628674904
 20
578.3534947373246
 30
0.0
 10
629.2509021190948
 20
578.1493877159248
 30
0.0
  0
LINE
  5
13A
330
1F
100
AcDbEntity
  8
0
  6
Continuous
 62
     7
370
    15
100
AcDbLine
 10
622.6902308858
 20
578.6493867266
 30
0.0
 11
627.4599268085
 21
578.6493867266
 31
0.0
  0
LINE
  5
13B
330
1F
100
AcDbEntity
  8
0
  6
Continuous
 62
     7
370
    15
100
AcDbLine
 10
636.5750788695
 20
578.6493867266
 30
0.0
 11
627.4599268085
 21
578.6493867266
 31
0.0
  0
LINE
  5
13C
330
1F
100
AcDbEntity
  8
0
  6
Continuous
 62
     8
370
     0
100
AcDbLine
 10
608.0750779233
 20
538.5493877905
 30
0.0
 11
619.3305163628
 21
538.5493877905
 31
0.0
  0
LINE
  5
13D
330
1F
100
AcDbEntity
  8
0
  6
Continuous
 62
     8
370
     0
100
AcDbLine
 10
642.075079771
 20
538.5493877905
 30
0.0
 11
630.8196413315
 21
538.5493877905
 31
0.0
  0
LINE
  5
13E
330
1F
100
AcDbEntity
  8
0
  6
Continuous
 62
     8
370
     0
100
AcDbLine
 10
619.3305163628
 20
544.0493877607
 30
0.0
 11
608.0750779233
 21
544.0493877607
 31
0.0
  0
LINE
  5
13F
330
1F
100
AcDbEntity
  8
0
  6
Continuous
 62
     8
370
     0
100
AcDbLine
 10
630.8196413315
 20
544.0493877607
 30
0.0
 11
642.075079771
 21
544.0493877607
 31
0.0
  0
LINE
  5
140
330
1F
100
AcDbEntity
  8
0
  6
Continuous
 62
     8
370
     0
100
AcDbLine
 10
609.5750791005
 20
556.049387865
 30
0.0
 11
640.5748513511
 21
556.049387865
 31
0.0
  0
LINE
  5
141
330
1F
100
AcDbEntity
  8
0
  6
Continuous
 62
     8
370
     0
100
AcDbLine
 10
625.0750788472
 20
558.2823231446
 30
0.0
 11
614.4096453658
 21
558.2823231446
 31
0.0
  0
LINE
  5
142
330
1F
100
AcDbEntity
  8
0
  6
Continuous
 62
     8
370
     0
100
AcDbLine
 10
635.7405123285
 20
558.2823231446
 30
0.0
 11
625.0750788472
 21
558.2823231446
 31
0.0
  0
LINE
  5
143
330
1F
100
AcDbEntity
  8
0
  6
Continuous
 62
     8
370
     0
100
AcDbLine
 10
625.0750788472
 20
563.8993866372
 30
0.0
 11
613.0750787429
 21
563.8993866372
 31
0.0
  0
LINE
  5
144
330
1F
100
AcDbEntity
  8
0
  6
Continuous
 62
     8
370
     0
100
AcDbLine
 10
637.0750789515
 20
563.8993866372
 30
0.0
 11
625.0750788472
 21
563.8993866372
 31
0.0
  0
LINE
  5
145
330
1F
100
AcDbEntity
  8
0
  6
Continuous
 62
     8
370
     0
100
AcDbLine
 10
625.0750788472
 20
562.3386799919
 30
0.0
 11
636.3257535717
 21
562.3386799919
 31
0.0
  0
LINE
  5
146
330
1F
100
AcDbEntity
  8
0
  6
Continuous
 62
     8
370
     0
100
AcDbLine
 10
613.8244041226
 20
562.3386799919
 30
0.0
 11
625.0750788472
 21
562.3386799919
 31
0.0
  0
LINE
  5
147
330
1F
100
AcDbEntity
  8
0
  6
Continuous
 62
     7
370
    15
100
AcDbLine
 10
259.4868794933
 20
244.8284006678
 30
0.0
 11
259.4868794933
 21
249.5980965906
 31
0.0
  0
ARC
  5
148
330
1F
100
AcDbEntity
  8
0
  6
Continuous
 62
     7
370
    15
100
AcDbCircle
 10
248.2368790468
 20
247.2132486295
 30
0.0
 40
11.50000000057005
100
AcDbArc
 50
191.9687455532
 51
348.0312544212
  0
LINE
  5
149
330
1F
100
AcDbEntity
  8
0
  6
Continuous
 62
     7
370
    15
100
AcDbLine
 10
236.9868785992
 20
249.5980965906
 30
0.0
 11
236.9868785992
 21
244.8284006678
 31
0.0
  0
ARC
  5
14A
330
1F
100
AcDbEntity
  8
0
  6
Continuous
 62
     7
370
    15
100
AcDbCircle
 10
248.2368790469
 20
247.2132486295
 30
0.0
 40
11.49999999963337
100
AcDbArc
 50
11.9687455586
 51
168.0312544712
  0
ARC
  5
14B
330
1F
100
AcDbEntity
  8
0
  6
Continuous
 62
     7
370
    15
100
AcDbCircle
 10
248.2368790462
 20
247.2132486292
 30
0.0
 40
12.00000000004807
100
AcDbArc
 50
200.3641348059
 51
339.6358651932
  0
SPLINE
  5
14C
330
1F
100
AcDbEntity
  8
0
  6
Continuous
 62
     7
370
    15
100
AcDbSpline
210
0.0
220
0.0
230
1.0
 70
    24
 71
     3
 72
     8
 73
     4
 74
     0
 42
0.000000001
 43
0.00000001
 40
0.0
 40
0.0
 40
0.0
 40
0.0
 40
1.0
 40
1.0
 40
1.0
 40
1.0
 10
236.9868790462306
 20
244.828400626035
 30
0.0
 10
236.9868790462306
 20
244.220097193628
 30
0.0
 10
236.9868790462224
 20
243.623964608857
 30
0.0
 10
236.9868790462224
 20
243.0374253572526
 30
0.0
  0
SPLINE
  5
14D
330
1F
100
AcDbEntity
  8
0
  6
Continuous
 62
     7
370
    15
100
AcDbSpline
210
0.0
220
0.0
230
1.0
 70
    24
 71
     3
 72
     8
 73
     4
 74
     0
 42
0.000000001
 43
0.00000001
 40
0.0
 40
0.0
 40
0.0
 40
0.0
 40
1.0
 40
1.0
 40
1.0
 40
1.0
 10
259.4868790460762
 20
243.0374253568101
 30
0.0
 10
259.4868790460762
 20
243.623964606963
 30
0.0
 10
259.4868790462224
 20
244.2200971910089
 30
0.0
 10
259.4868790462224
 20
244.828400621881
 30
0.0
  0
ARC
  5
14E
330
1F
100
AcDbEntity
  8
0
  6
Continuous
 62
     7
370
    15
100
AcDbCircle
 10
248.2368790462
 20
247.2132486292
 30
0.0
 40
11.99999999999999
100
AcDbArc
 50
20.3641348083
 51
159.6358651944
  0
SPLINE
  5
14F
330
1F
100
AcDbEntity
  8
0
  6
Continuous
 62
     7
370
    15
100
AcDbSpline
210
0.0
220
0.0
230
1.0
 70
    24
 71
     3
 72
     8
 73
     4
 74
     0
 42
0.000000001
 43
0.00000001
 40
0.0
 40
0.0
 40
0.0
 40
0.0
 40
1.0
 40
1.0
 40
1.0
 40
1.0
 10
236.9868790460843
 20
251.3890719009248
 30
0.0
 10
236.9868790460843
 20
250.8025326486563
 30
0.0
 10
236.9868790462224
 20
250.2064000631484
 30
0.0
 10
236.9868790462224
 20
249.5980966300374
 30
0.0
  0
SPLINE
  5
150
330
1F
100
AcDbEntity
  8
0
  6
Continuous
 62
     7
370
    15
100
AcDbSpline
210
0.0
220
0.0
230
1.0
 70
    24
 71
     3
 72
     8
 73
     4
 74
     0
 42
0.000000001
 43
0.00000001
 40
0.0
 40
0.0
 40
0.0
 40
0.0
 40
1.0
 40
1.0
 40
1.0
 40
1.0
 10
259.486879046233
 20
249.5980966334952
 30
0.0
 10
259.486879046233
 20
250.206400065647
 30
0.0
 10
259.4868790462224
 20
250.8025326504752
 30
0.0
 10
259.4868790462224
 20
251.3890719018335
 30
0.0
  0
ARC
  5
151
330
1F
100
AcDbEntity
  8
0
  6
Continuous
 62
     7
370
    15
100
AcDbCircle
 10
248.2368790462
 20
247.2132486292
 30
0.0
 40
12.00000000000001
100
AcDbArc
 50
159.6358651935
 51
200.3641348063
  0
ARC
  5
152
330
1F
100
AcDbEntity
  8
0
  6
Continuous
 62
     7
370
    15
100
AcDbCircle
 10
248.2368790462
 20
247.2132486292
 30
0.0
 40
12.0
100
AcDbArc
 50
339.6358651938
 51
20.3641348073
  0
CIRCLE
  5
153
330
1F
100
AcDbEntity
  8
0
  6
Continuous
 62
     7
370
    15
100
AcDbCircle
 10
248.2368790462
 20
247.2132486292
 30
0.0
 40
15.49999999999999
  0
ARC
  5
154
330
1F
100
AcDbEntity
  8
0
  6
Continuous
 62
     7
370
    15
100
AcDbCircle
 10
248.2368790462
 20
247.2132486292
 30
0.0
 40
17.00000000000003
100
AcDbArc
 50
19.7499227956
 51
160.2500772044
  0
SPLINE
  5
155
330
1F
100
AcDbEntity
  8
0
  6
Continuous
 62
     7
370
    15
100
AcDbSpline
210
0.0
220
0.0
230
1.0
 70
    24
 71
     3
 72
    22
 73
    18
 74
     0
 42
0.000000001
 43
0.00000001
 40
0.0
 40
0.0
 40
0.0
 40
0.0
 40
0.0312499999999997
 40
0.0312499999999997
 40
0.0624999999999993
 40
0.0624999999999993
 40
0.1249999999999999
 40
0.1249999999999999
 40
0.2500000000000001
 40
0.2500000000000001
 40
0.3750000000000003
 40
0.3750000000000003
 40
0.5000000000000003
 40
0.5000000000000003
 40
0.7500000000000001
 40
0.7500000000000001
 40
1.0
 40
1.0
 40
1.0
 40
1.0
 10
232.2368790462224
 20
252.9578112757253
 30
0.0
 10
232.2368790462224
 20
252.9578112757253
 30
0.0
 10
232.2368790462224
 20
252.9382627736896
 30
0.0
 10
232.2368790462224
 20
252.8758011961963
 30
0.0
 10
232.2368790462224
 20
252.8331274753652
 30
0.0
 10
232.2368790462224
 20
252.6928631401191
 30
0.0
 10
232.2368790462224
 20
252.5808206597346
 30
0.0
 10
232.2368790462224
 20
252.2385083185951
 30
0.0
 10
232.2368790462224
 20
251.9910902794266
 30
0.0
 10
232.2368790462224
 20
251.4967374050248
 30
0.0
 10
232.2368790462225
 20
251.2475802408336
 30
0.0
 10
232.2368790462225
 20
250.7472496156967
 30
0.0
 10
232.2368790462224
 20
250.4960330421999
 30
0.0
 10
232.2368790462224
 20
249.7406005537135
 30
0.0
 10
232.2368790462224
 20
249.2346470932028
 30
0.0
 10
232.2368790462224
 20
248.2239732909844
 30
0.0
 10
232.2368790462224
 20
247.7186081419247
 30
0.0
 10
232.2368790462224
 20
247.2132486291873
 30
0.0
  0
SPLINE
  5
156
330
1F
100
AcDbEntity
  8
0
  6
Continuous
 62
     7
370
    15
100
AcDbSpline
210
0.0
220
0.0
230
1.0
 70
    24
 71
     3
 72
    22
 73
    18
 74
     0
 42
0.000000001
 43
0.00000001
 40
0.0
 40
0.0
 40
0.0
 40
0.0
 40
0.2500000000000002
 40
0.2500000000000002
 40
0.5000000000000003
 40
0.5000000000000003
 40
0.6250000000000003
 40
0.6250000000000003
 40
0.7500000000000001
 40
0.7500000000000001
 40
0.8749999999999999
 40
0.8749999999999999
 40
0.9374999999999999
 40
0.9374999999999999
 40
0.96875
 40
0.96875
 40
1.0
 40
1.0
 40
1.0
 40
1.0
 10
264.2368790462224
 20
247.2132486291873
 30
0.0
 10
264.2368790462224
 20
247.7193824067622
 30
0.0
 10
264.2368790462222
 20
248.2255195270724
 30
0.0
 10
264.2368790462222
 20
249.2377602628488
 30
0.0
 10
264.2368790462224
 20
249.7439483600375
 30
0.0
 10
264.2368790462224
 20
250.5019664652885
 30
0.0
 10
264.236879046215
 20
250.7544299731531
 30
0.0
 10
264.236879046215
 20
251.2571612533334
 30
0.0
 10
264.2368790462223
 20
251.5078284632041
 30
0.0
 10
264.2368790462223
 20
252.0018494114294
 30
0.0
 10
264.2368790462224
 20
252.2455693991386
 30
0.0
 10
264.2368790462224
 20
252.5879723217633
 30
0.0
 10
264.2368790462224
 20
252.6981656194969
 30
0.0
 10
264.2368790462224
 20
252.835787814778
 30
0.0
 10
264.2368790462224
 20
252.877595157363
 30
0.0
 10
264.2368790462224
 20
252.9388219498584
 30
0.0
 10
264.2368790462224
 20
252.9578112757253
 30
0.0
 10
264.2368790462224
 20
252.9578112757253
 30
0.0
  0
ARC
  5
157
330
1F
100
AcDbEntity
  8
0
  6
Continuous
 62
     7
370
    15
100
AcDbCircle
 10
248.2368790462
 20
247.2132486292
 30
0.0
 40
17.00000000000001
100
AcDbArc
 50
199.7499227956
 51
340.2500772044
  0
SPLINE
  5
158
330
1F
100
AcDbEntity
  8
0
  6
Continuous
 62
     7
370
    15
100
AcDbSpline
210
0.0
220
0.0
230
1.0
 70
    24
 71
     3
 72
    22
 73
    18
 74
     0
 42
0.000000001
 43
0.00000001
 40
0.0
 40
0.0
 40
0.0
 40
0.0
 40
0.2500000000000003
 40
0.2500000000000003
 40
0.5000000000000006
 40
0.5000000000000006
 40
0.6250000000000006
 40
0.6250000000000006
 40
0.7500000000000004
 40
0.7500000000000004
 40
0.8750000000000002
 40
0.8750000000000002
 40
0.9375000000000002
 40
0.9375000000000002
 40
0.9687500000000002
 40
0.9687500000000002
 40
1.0
 40
1.0
 40
1.0
 40
1.0
 10
232.2368790462224
 20
247.2132486291873
 30
0.0
 10
232.2368790462224
 20
246.7071148516123
 30
0.0
 10
232.2368790462226
 20
246.2009777313022
 30
0.0
 10
232.2368790462226
 20
245.1887369955257
 30
0.0
 10
232.2368790462225
 20
244.682548898337
 30
0.0
 10
232.2368790462225
 20
243.924530793086
 30
0.0
 10
232.2368790462299
 20
243.6720672852215
 30
0.0
 10
232.2368790462299
 20
243.1693360050411
 30
0.0
 10
232.2368790462226
 20
242.9186687951704
 30
0.0
 10
232.2368790462226
 20
242.4246478469451
 30
0.0
 10
232.2368790462224
 20
242.180927859236
 30
0.0
 10
232.2368790462224
 20
241.8385249366112
 30
0.0
 10
232.2368790462224
 20
241.7283316388777
 30
0.0
 10
232.2368790462224
 20
241.5907094435966
 30
0.0
 10
232.2368790462224
 20
241.5489021010115
 30
0.0
 10
232.2368790462224
 20
241.4876753085161
 30
0.0
 10
232.2368790462224
 20
241.4686859826492
 30
0.0
 10
232.2368790462224
 20
241.4686859826492
 30
0.0
  0
SPLINE
  5
159
330
1F
100
AcDbEntity
  8
0
  6
Continuous
 62
     7
370
    15
100
AcDbSpline
210
0.0
220
0.0
230
1.0
 70
    24
 71
     3
 72
    22
 73
    18
 74
     0
 42
0.000000001
 43
0.00000001
 40
0.0
 40
0.0
 40
0.0
 40
0.0
 40
0.0312499999999992
 40
0.0312499999999992
 40
0.0624999999999984
 40
0.0624999999999984
 40
0.1249999999999979
 40
0.1249999999999979
 40
0.2499999999999981
 40
0.2499999999999981
 40
0.3749999999999983
 40
0.3749999999999983
 40
0.4999999999999987
 40
0.4999999999999987
 40
0.7499999999999993
 40
0.7499999999999993
 40
1.0
 40
1.0
 40
1.0
 40
1.0
 10
264.2368790462224
 20
241.4686859826492
 30
0.0
 10
264.2368790462224
 20
241.4686859826492
 30
0.0
 10
264.2368790462224
 20
241.4882344846849
 30
0.0
 10
264.2368790462224
 20
241.5506960621782
 30
0.0
 10
264.2368790462224
 20
241.5933697830093
 30
0.0
 10
264.2368790462224
 20
241.7336341182554
 30
0.0
 10
264.2368790462224
 20
241.8456765986399
 30
0.0
 10
264.2368790462224
 20
242.1879889397795
 30
0.0
 10
264.2368790462224
 20
242.435406978948
 30
0.0
 10
264.2368790462224
 20
242.9297598533497
 30
0.0
 10
264.2368790462224
 20
243.1789170175409
 30
0.0
 10
264.2368790462224
 20
243.6792476426778
 30
0.0
 10
264.2368790462224
 20
243.9304642161746
 30
0.0
 10
264.2368790462224
 20
244.6858967046611
 30
0.0
 10
264.2368790462224
 20
245.1918501651717
 30
0.0
 10
264.2368790462224
 20
246.2025239673901
 30
0.0
 10
264.2368790462224
 20
246.7078891164498
 30
0.0
 10
264.2368790462224
 20
247.2132486291873
 30
0.0
  0
LINE
  5
15A
330
1F
100
AcDbEntity
  8
0
  6
Continuous
 62
     7
370
    15
100
AcDbLine
 10
398.2368850067
 20
97.2132426687
 30
0.0
 11
98.2368730858
 21
97.2132426687
 31
0.0
  0
LINE
  5
15B
330
1F
100
AcDbEntity
  8
0
  6
Continuous
 62
     7
370
    15
100
AcDbLine
 10
98.2368730858
 20
397.2132545897
 30
0.0
 11
398.2368850067
 21
397.2132545897
 31
0.0
  0
LINE
  5
15C
330
1F
100
AcDbEntity
  8
0
  6
Continuous
 62
     7
370
    15
100
AcDbLine
 10
98.2368730858
 20
97.2132426687
 30
0.0
 11
98.2368730858
 21
397.2132545897
 31
0.0
  0
LINE
  5
15D
330
1F
100
AcDbEntity
  8
0
  6
Continuous
 62
     7
370
    15
100
AcDbLine
 10
398.2368850067
 20
397.2132545897
 30
0.0
 11
398.2368850067
 21
97.2132426687
 31
0.0
  0
SPLINE
  5
15E
330
1F
100
AcDbEntity
  8
0
  6
Continuous
 62
     8
370
     0
100
AcDbSpline
210
0.0
220
0.0
230
1.0
 70
     8
 71
     3
 72
    14
 73
    10
 74
     0
 42
0.000000001
 43
0.00000001
 40
0.0
 40
0.0
 40
0.0
 40
0.0
 40
0.2499999999999999
 40
0.2499999999999999
 40
0.4999999999999999
 40
0.4999999999999999
 40
0.7499999999999999
 40
0.7499999999999999
 40
0.9999999999999999
 40
0.9999999999999999
 40
0.9999999999999999
 40
0.9999999999999999
 10
248.2368790462224
 20
261.7132486291873
 30
0.0
 10
244.3913487782224
 20
261.7132486291873
 30
0.0
 10
240.7030312487784
 20
260.1854974861531
 30
0.0
 10
235.2646301892566
 20
254.7470964266313
 30
0.0
 10
233.7368790462224
 20
251.0587788971872
 30
0.0
 10
233.7368790462224
 20
243.3677183611873
 30
0.0
 10
235.2646301892566
 20
239.6794008317432
 30
0.0
 10
240.7030312487784
 20
234.2409997722214
 30
0.0
 10
244.3913487782224
 20
232.7132486291873
 30
0.0
 10
248.2368790462224
 20
232.7132486291873
 30
0.0
  0
SPLINE
  5
15F
330
1F
100
AcDbEntity
  8
0
  6
Continuous
 62
     8
370
     0
100
AcDbSpline
210
0.0
220
0.0
230
1.0
 70
     8
 71
     3
 72
    14
 73
    10
 74
     0
 42
0.000000001
 43
0.00000001
 40
0.0
 40
0.0
 40
0.0
 40
0.0
 40
0.25
 40
0.25
 40
0.5
 40
0.5
 40
0.75
 40
0.75
 40
1.0
 40
1.0
 40
1.0
 40
1.0
 10
248.2368790462224
 20
261.7132486291873
 30
0.0
 10
252.0824093142224
 20
261.7132486291873
 30
0.0
 10
255.7707268436665
 20
260.1854974861532
 30
0.0
 10
261.2091279031883
 20
254.7470964266313
 30
0.0
 10
262.7368790462224
 20
251.0587788971872
 30
0.0
 10
262.7368790462224
 20
243.3677183611873
 30
0.0
 10
261.2091279031883
 20
239.6794008317432
 30
0.0
 10
255.7707268436665
 20
234.2409997722214
 30
0.0
 10
252.0824093142224
 20
232.7132486291873
 30
0.0
 10
248.2368790462224
 20
232.7132486291872
 30
0.0
  0
SPLINE
  5
160
330
1F
100
AcDbEntity
  8
0
  6
Continuous
 62
     8
370
     0
100
AcDbSpline
210
0.0
220
0.0
230
1.0
 70
     8
 71
     3
 72
    14
 73
    10
 74
     0
 42
0.000000001
 43
0.00000001
 40
0.0
 40
0.0
 40
0.0
 40
0.0
 40
0.25
 40
0.25
 40
0.5
 40
0.5
 40
0.75
 40
0.75
 40
1.0
 40
1.0
 40
1.0
 40
1.0
 10
232.2368790462224
 20
247.2132486291873
 30
0.0
 10
232.2368790462224
 20
242.9699048851873
 30
0.0
 10
233.9226734109498
 20
238.9000372664904
 30
0.0
 10
239.9236676835256
 20
232.8990429939146
 30
0.0
 10
243.9935353022224
 20
231.2132486291873
 30
0.0
 10
252.4802227902224
 20
231.2132486291873
 30
0.0
 10
256.5500904089193
 20
232.8990429939146
 30
0.0
 10
262.5510846814951
 20
238.9000372664904
 30
0.0
 10
264.2368790462224
 20
242.9699048851873
 30
0.0
 10
264.2368790462224
 20
247.2132486291873
 30
0.0
  0
SPLINE
  5
161
330
1F
100
AcDbEntity
  8
0
  6
Continuous
 62
     8
370
     0
100
AcDbSpline
210
0.0
220
0.0
230
1.0
 70
     8
 71
     3
 72
    14
 73
    10
 74
     0
 42
0.000000001
 43
0.00000001
 40
0.0
 40
0.0
 40
0.0
 40
0.0
 40
0.25
 40
0.25
 40
0.5
 40
0.5
 40
0.75
 40
0.75
 40
1.0
 40
1.0
 40
1.0
 40
1.0
 10
264.2368790462224
 20
247.2132486291873
 30
0.0
 10
264.2368790462224
 20
251.4565923731873
 30
0.0
 10
262.5510846814951
 20
255.5264599918841
 30
0.0
 10
256.5500904089193
 20
261.5274542644599
 30
0.0
 10
252.4802227902224
 20
263.2132486291873
 30
0.0
 10
243.9935353022225
 20
263.2132486291873
 30
0.0
 10
239.9236676835256
 20
261.5274542644599
 30
0.0
 10
233.9226734109498
 20
255.5264599918841
 30
0.0
 10
232.2368790462224
 20
251.4565923731873
 30
0.0
 10
232.2368790462224
 20
247.2132486291873
 30
0.0
  0
LINE
  5
162
330
1F
100
AcDbEntity
  8
0
  6
Continuous
 62
     8
370
     0
100
AcDbLine
 10
396.836876209
 20
98.6132514664
 30
0.0
 11
396.836876209
 21
395.813245792
 31
0.0
  0
LINE
  5
163
330
1F
100
AcDbEntity
  8
0
  6
Continuous
 62
     8
370
     0
100
AcDbLine
 10
396.836876209
 20
395.813245792
 30
0.0
 11
99.6368818834
 21
395.813245792
 31
0.0
  0
LINE
  5
164
330
1F
100
AcDbEntity
  8
0
  6
Continuous
 62
     8
370
     0
100
AcDbLine
 10
99.6368818834
 20
395.813245792
 30
0.0
 11
99.6368818834
 21
98.6132514664
 31
0.0
  0
LINE
  5
165
330
1F
100
AcDbEntity
  8
0
  6
Continuous
 62
     8
370
     0
100
AcDbLine
 10
99.6368818834
 20
98.6132514664
 30
0.0
 11
396.836876209
 21
98.6132514664
 31
0.0
  0
CIRCLE
  5
166
330
1F
100
AcDbEntity
  8
0
  6
Continuous
 62
     8
370
     0
100
AcDbCircle
 10
387.2368790462
 20
386.2132486292
 30
0.0
 40
3.0
  0
CIRCLE
  5
167
330
1F
100
AcDbEntity
  8
0
  6
Continuous
 62
     8
370
     0
100
AcDbCircle
 10
276.0368790462
 20
386.2132486292
 30
0.0
 40
3.0
  0
CIRCLE
  5
168
330
1F
100
AcDbEntity
  8
0
  6
Continuous
 62
     8
370
     0
100
AcDbCircle
 10
109.2368790462
 20
108.2132486292
 30
0.0
 40
3.000000000000014
  0
CIRCLE
  5
169
330
1F
100
AcDbEntity
  8
0
  6
Continuous
 62
     8
370
     0
100
AcDbCircle
 10
164.8368790462
 20
108.2132486292
 30
0.0
 40
3.000000000000014
  0
CIRCLE
  5
16A
330
1F
100
AcDbEntity
  8
0
  6
Continuous
 62
     8
370
     0
100
AcDbCircle
 10
331.6368790462
 20
108.2132486292
 30
0.0
 40
3.000000000000014
  0
CIRCLE
  5
16B
330
1F
100
AcDbEntity
  8
0
  6
Continuous
 62
     8
370
     0
100
AcDbCircle
 10
276.0368790462
 20
108.2132486292
 30
0.0
 40
3.000000000000014
  0
CIRCLE
  5
16C
330
1F
100
AcDbEntity
  8
0
  6
Continuous
 62
     8
370
     0
100
AcDbCircle
 10
220.4368790462
 20
108.2132486292
 30
0.0
 40
3.000000000000014
  0
CIRCLE
  5
16D
330
1F
100
AcDbEntity
  8
0
  6
Continuous
 62
     8
370
     0
100
AcDbCircle
 10
220.4368790462
 20
386.2132486292
 30
0.0
 40
3.0
  0
CIRCLE
  5
16E
330
1F
100
AcDbEntity
  8
0
  6
Continuous
 62
     8
370
     0
100
AcDbCircle
 10
164.8368790462
 20
386.2132486292
 30
0.0
 40
3.0
  0
CIRCLE
  5
16F
330
1F
100
AcDbEntity
  8
0
  6
Continuous
 62
     8
370
     0
100
AcDbCircle
 10
387.2368790462
 20
108.2132486292
 30
0.0
 40
3.000000000000014
  0
CIRCLE
  5
170
330
1F
100
AcDbEntity
  8
0
  6
Continuous
 62
     8
370
     0
100
AcDbCircle
 10
387.2368790462
 20
163.8132486292
 30
0.0
 40
3.0
  0
CIRCLE
  5
171
330
1F
100
AcDbEntity
  8
0
  6
Continuous
 62
     8
370
     0
100
AcDbCircle
 10
387.2368790462
 20
330.6132486292
 30
0.0
 40
3.0
  0
CIRCLE
  5
172
330
1F
100
AcDbEntity
  8
0
  6
Continuous
 62
     8
370
     0
100
AcDbCircle
 10
109.2368790462
 20
386.2132486292
 30
0.0
 40
3.0
  0
CIRCLE
  5
173
330
1F
100
AcDbEntity
  8
0
  6
Continuous
 62
     8
370
     0
100
AcDbCircle
 10
109.2368790462
 20
163.8132486292
 30
0.0
 40
3.0
  0
CIRCLE
  5
174
330
1F
100
AcDbEntity
  8
0
  6
Continuous
 62
     8
370
     0
100
AcDbCircle
 10
211.4868790462
 20
210.4632486292
 30
0.0
 40
3.000000000000028
  0
CIRCLE
  5
175
330
1F
100
AcDbEntity
  8
0
  6
Continuous
 62
     8
370
     0
100
AcDbCircle
 10
331.6368790462
 20
386.2132486292
 30
0.0
 40
3.0
  0
CIRCLE
  5
176
330
1F
100
AcDbEntity
  8
0
  6
Continuous
 62
     8
370
     0
100
AcDbCircle
 10
284.9868790462
 20
283.9632486292
 30
0.0
 40
3.0
  0
CIRCLE
  5
177
330
1F
100
AcDbEntity
  8
0
  6
Continuous
 62
     8
370
     0
100
AcDbCircle
 10
109.2368790462
 20
330.6132486292
 30
0.0
 40
3.0
  0
CIRCLE
  5
178
330
1F
100
AcDbEntity
  8
0
  6
Continuous
 62
     8
370
     0
100
AcDbCircle
 10
387.2368790462
 20
219.4132486292
 30
0.0
 40
3.0
  0
CIRCLE
  5
179
330
1F
100
AcDbEntity
  8
0
  6
Continuous
 62
     8
370
     0
100
AcDbCircle
 10
109.2368790462
 20
219.4132486292
 30
0.0
 40
3.0
  0
CIRCLE
  5
17A
330
1F
100
AcDbEntity
  8
0
  6
Continuous
 62
     8
370
     0
100
AcDbCircle
 10
387.2368790462
 20
275.0132486292
 30
0.0
 40
3.0
  0
CIRCLE
  5
17B
330
1F
100
AcDbEntity
  8
0
  6
Continuous
 62
     8
370
     0
100
AcDbCircle
 10
109.2368790462
 20
275.0132486292
 30
0.0
 40
3.0
  0
CIRCLE
  5
17C
330
1F
100
AcDbEntity
  8
0
  6
Continuous
 62
     8
370
     0
100
AcDbCircle
 10
284.9868790462
 20
210.4632486292
 30
0.0
 40
3.000000000000028
  0
CIRCLE
  5
17D
330
1F
100
AcDbEntity
  8
0
  6
Continuous
 62
     8
370
     0
100
AcDbCircle
 10
211.4868790462
 20
283.9632486292
 30
0.0
 40
3.0
  0
LINE
  5
17E
330
1F
100
AcDbEntity
  8
0
  6
Continuous
 62
     8
370
     0
100
AcDbLine
 10
285.7118801131
 20
285.2189843544
 30
0.0
 11
284.2618779197
 21
285.2189843544
 31
0.0
  0
LINE
  5
17F
330
1F
100
AcDbEntity
  8
0
  6
Continuous
 62
     8
370
     0
100
AcDbLine
 10
284.2618779197
 20
285.2189843544
 30
0.0
 11
283.5368805483
 21
283.9632485994
 31
0.0
  0
LINE
  5
180
330
1F
100
AcDbEntity
  8
0
  6
Continuous
 62
     8
370
     0
100
AcDbLine
 10
283.5368805483
 20
283.9632485994
 30
0.0
 11
284.2618779197
 21
282.7075128444
 31
0.0
  0
LINE
  5
181
330
1F
100
AcDbEntity
  8
0
  6
Continuous
 62
     8
370
     0
100
AcDbLine
 10
284.2618779197
 20
282.7075128444
 30
0.0
 11
285.7118801131
 21
282.7075128444
 31
0.0
  0
LINE
  5
182
330
1F
100
AcDbEntity
  8
0
  6
Continuous
 62
     8
370
     0
100
AcDbLine
 10
285.7118801131
 20
282.7075128444
 30
0.0
 11
286.4368774846
 21
283.9632485994
 31
0.0
  0
LINE
  5
183
330
1F
100
AcDbEntity
  8
0
  6
Continuous
 62
     8
370
     0
100
AcDbLine
 10
286.4368774846
 20
283.9632485994
 30
0.0
 11
285.7118801131
 21
285.2189843544
 31
0.0
  0
LINE
  5
184
330
1F
100
AcDbEntity
  8
0
  6
Continuous
 62
     8
370
     0
100
AcDbLine
 10
210.7618779793
 20
282.7075128444
 30
0.0
 11
210.0368806079
 21
283.9632485994
 31
0.0
  0
LINE
  5
185
330
1F
100
AcDbEntity
  8
0
  6
Continuous
 62
     8
370
     0
100
AcDbLine
 10
212.2118801728
 20
282.7075128444
 30
0.0
 11
210.7618779793
 21
282.7075128444
 31
0.0
  0
LINE
  5
186
330
1F
100
AcDbEntity
  8
0
  6
Continuous
 62
     8
370
     0
100
AcDbLine
 10
212.9368775442
 20
283.9632485994
 30
0.0
 11
212.2118801728
 21
282.7075128444
 31
0.0
  0
LINE
  5
187
330
1F
100
AcDbEntity
  8
0
  6
Continuous
 62
     8
370
     0
100
AcDbLine
 10
212.2118801728
 20
285.2189843544
 30
0.0
 11
212.9368775442
 21
283.9632485994
 31
0.0
  0
LINE
  5
188
330
1F
100
AcDbEntity
  8
0
  6
Continuous
 62
     8
370
     0
100
AcDbLine
 10
210.7618779793
 20
285.2189843544
 30
0.0
 11
212.2118801728
 21
285.2189843544
 31
0.0
  0
LINE
  5
189
330
1F
100
AcDbEntity
  8
0
  6
Continuous
 62
     8
370
     0
100
AcDbLine
 10
210.0368806079
 20
283.9632485994
 30
0.0
 11
210.7618779793
 21
285.2189843544
 31
0.0
  0
LINE
  5
18A
330
1F
100
AcDbEntity
  8
0
  6
Continuous
 62
     8
370
     0
100
AcDbLine
 10
212.2118801728
 20
211.718984414
 30
0.0
 11
210.7618779793
 21
211.718984414
 31
0.0
  0
LINE
  5
18B
330
1F
100
AcDbEntity
  8
0
  6
Continuous
 62
     8
370
     0
100
AcDbLine
 10
210.7618779793
 20
211.718984414
 30
0.0
 11
210.0368806079
 21
210.463248659
 31
0.0
  0
LINE
  5
18C
330
1F
100
AcDbEntity
  8
0
  6
Continuous
 62
     8
370
     0
100
AcDbLine
 10
210.0368806079
 20
210.463248659
 30
0.0
 11
210.7618779793
 21
209.207512904
 31
0.0
  0
LINE
  5
18D
330
1F
100
AcDbEntity
  8
0
  6
Continuous
 62
     8
370
     0
100
AcDbLine
 10
210.7618779793
 20
209.207512904
 30
0.0
 11
212.2118801728
 21
209.207512904
 31
0.0
  0
LINE
  5
18E
330
1F
100
AcDbEntity
  8
0
  6
Continuous
 62
     8
370
     0
100
AcDbLine
 10
212.2118801728
 20
209.207512904
 30
0.0
 11
212.9368775442
 21
210.463248659
 31
0.0
  0
LINE
  5
18F
330
1F
100
AcDbEntity
  8
0
  6
Continuous
 62
     8
370
     0
100
AcDbLine
 10
212.9368775442
 20
210.463248659
 30
0.0
 11
212.2118801728
 21
211.718984414
 31
0.0
  0
LINE
  5
190
330
1F
100
AcDbEntity
  8
0
  6
Continuous
 62
     8
370
     0
100
AcDbLine
 10
285.7118801131
 20
211.718984414
 30
0.0
 11
284.2618779197
 21
211.718984414
 31
0.0
  0
LINE
  5
191
330
1F
100
AcDbEntity
  8
0
  6
Continuous
 62
     8
370
     0
100
AcDbLine
 10
284.2618779197
 20
211.718984414
 30
0.0
 11
283.5368805483
 21
210.463248659
 31
0.0
  0
LINE
  5
192
330
1F
100
AcDbEntity
  8
0
  6
Continuous
 62
     8
370
     0
100
AcDbLine
 10
283.5368805483
 20
210.463248659
 30
0.0
 11
284.2618779197
 21
209.207512904
 31
0.0
  0
LINE
  5
193
330
1F
100
AcDbEntity
  8
0
  6
Continuous
 62
     8
370
     0
100
AcDbLine
 10
284.2618779197
 20
209.207512904
 30
0.0
 11
285.7118801131
 21
209.207512904
 31
0.0
  0
LINE
  5
194
330
1F
100
AcDbEntity
  8
0
  6
Continuous
 62
     8
370
     0
100
AcDbLine
 10
285.7118801131
 20
209.207512904
 30
0.0
 11
286.4368774846
 21
210.463248659
 31
0.0
  0
LINE
  5
195
330
1F
100
AcDbEntity
  8
0
  6
Continuous
 62
     8
370
     0
100
AcDbLine
 10
286.4368774846
 20
210.463248659
 30
0.0
 11
285.7118801131
 21
211.718984414
 31
0.0
  0
ENDSEC
  0
SECTION
  2
OBJECTS
  0
DICTIONARY
  5
C
330
0
100
AcDbDictionary
281
     1
  3
ACAD_GROUP
350
D
  3
ACAD_LAYOUT
350
1A
  3
ACAD_MLINESTYLE
350
17
  3
ACAD_PLOTSETTINGS
350
19
  3
ACAD_PLOTSTYLENAME
350
E
  3
ACAD_SCALELIST
350
47
  0
DICTIONARY
  5
D
102
{ACAD_REACTORS
330
C
102
}
330
C
100
AcDbDictionary
281
     1
  0
DICTIONARY
  5
1A
102
{ACAD_REACTORS
330
C
102
}
330
C
100
AcDbDictionary
281
     1
  3
Layout1
350
1E
  3
Layout2
350
26
  3
Model
350
22
  0
DICTIONARY
  5
17
102
{ACAD_REACTORS
330
C
102
}
330
C
100
AcDbDictionary
281
     1
  3
Standard
350
18
  0
DICTIONARY
  5
19
102
{ACAD_REACTORS
330
C
102
}
330
C
100
AcDbDictionary
281
     1
  0
ACDBDICTIONARYWDFLT
  5
E
102
{ACAD_REACTORS
330
C
102
}
330
C
100
AcDbDictionary
281
     1
  3
Normal
350
F
100
AcDbDictionaryWithDefault
340
F
  0
DICTIONARY
  5
47
102
{ACAD_REACTORS
330
C
102
}
330
C
100
AcDbDictionary
281
     1
  3
A0
350
48
  3
A1
350
49
  3
A2
350
4A
  3
A3
350
4B
  3
A4
350
4C
  3
A5
350
4D
  3
A6
350
4E
  3
A7
350
4F
  3
A8
350
50
  3
A9
350
51
  3
B0
350
52
  3
B1
350
53
  3
B2
350
54
  3
B3
350
55
  3
B4
350
56
  3
B5
350
57
  3
B6
350
58
  3
B7
350
59
  3
B8
350
5A
  3
B9
350
5B
  3
C0
350
5C
  3
C1
350
5D
  3
C2
350
5E
  3
C3
350
5F
  3
C4
350
60
  3
C5
350
61
  3
C6
350
62
  3
C7
350
63
  3
C8
350
64
  3
C9
350
65
  3
D0
350
66
  3
D1
350
67
  3
D2
350
68
  0
LAYOUT
  5
1E
102
{ACAD_REACTORS
330
1A
102
}
330
1A
100
AcDbPlotSettings
  1

  2
none_device
  4

  6

 40
0.0
 41
0.0
 42
0.0
 43
0.0
 44
0.0
 45
0.0
 46
0.0
 47
0.0
 48
0.0
 49
0.0
140
0.0
141
0.0
142
1.0
143
1.0
 70
   688
 72
     1
 73
     0
 74
     5
  7

 75
    16
147
1.0
148
0.0
149
0.0
100
AcDbLayout
  1
Layout1
 70
     1
 71
     1
 10
0.0
 20
0.0
 11
420.0
 21
297.0
 12
0.0
 22
0.0
 32
0.0
 14
1.0000000000E+20
 24
1.0000000000E+20
 34
1.0000000000E+20
 15
-1.0000000000E+20
 25
-1.0000000000E+20
 35
-1.0000000000E+20
146
0.0
 13
0.0
 23
0.0
 33
0.0
 16
1.0
 26
0.0
 36
0.0
 17
0.0
 27
1.0
 37
0.0
 76
     0
330
1B
  0
LAYOUT
  5
26
102
{ACAD_REACTORS
330
1A
102
}
330
1A
100
AcDbPlotSettings
  1

  2
none_device
  4

  6

 40
0.0
 41
0.0
 42
0.0
 43
0.0
 44
0.0
 45
0.0
 46
0.0
 47
0.0
 48
0.0
 49
0.0
140
0.0
141
0.0
142
1.0
143
1.0
 70
   688
 72
     1
 73
     0
 74
     5
  7

 75
    16
147
1.0
148
0.0
149
0.0
100
AcDbLayout
  1
Layout2
 70
     1
 71
     2
 10
0.0
 20
0.0
 11
0.0
 21
0.0
 12
0.0
 22
0.0
 32
0.0
 14
0.0
 24
0.0
 34
0.0
 15
0.0
 25
0.0
 35
0.0
146
0.0
 13
0.0
 23
0.0
 33
0.0
 16
1.0
 26
0.0
 36
0.0
 17
0.0
 27
1.0
 37
0.0
 76
     0
330
23
  0
LAYOUT
  5
22
102
{ACAD_REACTORS
330
1A
102
}
330
1A
100
AcDbPlotSettings
  1

  2
none_device
  4
Letter_(8.50_x_11.00_Inches)
  6

 40
6.35
 41
6.35
 42
6.35000508
 43
6.35000508
 44
215.9
 45
279.4
 46
0.0
 47
0.0
 48
0.0
 49
0.0
140
0.0
141
0.0
142
1.0
143
1.0
 70
  1712
 72
     1
 73
     0
 74
     0
  7

 75
     0
147
1.0
148
0.0
149
0.0
100
AcDbLayout
  1
Model
 70
     1
 71
     0
 10
0.0
 20
0.0
 11
841.0
 21
594.0
 12
0.0
 22
0.0
 32
0.0
 14
0.0
 24
0.0
 34
0.0
 15
841.0
 25
594.0
 35
0.0
146
0.0
 13
0.0
 23
0.0
 33
0.0
 16
1.0
 26
0.0
 36
0.0
 17
0.0
 27
1.0
 37
0.0
 76
     0
330
1F
331
29
  0
MLINESTYLE
  5
18
102
{ACAD_REACTORS
330
17
102
}
330
17
100
AcDbMlineStyle
  2
Standard
 70
     0
  3

 62
   256
 51
90.0
 52
90.0
 71
     2
 49
0.5
 62
   256
  6
BYLAYER
 49
-0.5
 62
   256
  6
BYLAYER
  0
ACDBPLACEHOLDER
  5
F
102
{ACAD_REACTORS
330
E
102
}
330
E
  0
SCALE
  5
48
102
{ACAD_REACTORS
330
47
102
}
330
47
100
AcDbScale
 70
     0
300
1:1
140
1.0
141
1.0
290
     1
  0
SCALE
  5
49
102
{ACAD_REACTORS
330
47
102
}
330
47
100
AcDbScale
 70
     0
300
1:2
140
1.0
141
2.0
290
     0
  0
SCALE
  5
4A
102
{ACAD_REACTORS
330
47
102
}
330
47
100
AcDbScale
 70
     0
300
1:4
140
1.0
141
4.0
290
     0
  0
SCALE
  5
4B
102
{ACAD_REACTORS
330
47
102
}
330
47
100
AcDbScale
 70
     0
300
1:5
140
1.0
141
5.0
290
     0
  0
SCALE
  5
4C
102
{ACAD_REACTORS
330
47
102
}
330
47
100
AcDbScale
 70
     0
300
1:8
140
1.0
141
8.0
290
     0
  0
SCALE
  5
4D
102
{ACAD_REACTORS
330
47
102
}
330
47
100
AcDbScale
 70
     0
300
1:10
140
1.0
141
10.0
290
     0
  0
SCALE
  5
4E
102
{ACAD_REACTORS
330
47
102
}
330
47
100
AcDbScale
 70
     0
300
1:16
140
1.0
141
16.0
290
     0
  0
SCALE
  5
4F
102
{ACAD_REACTORS
330
47
102
}
330
47
100
AcDbScale
 70
     0
300
1:20
140
1.0
141
20.0
290
     0
  0
SCALE
  5
50
102
{ACAD_REACTORS
330
47
102
}
330
47
100
AcDbScale
 70
     0
300
1:30
140
1.0
141
30.0
290
     0
  0
SCALE
  5
51
102
{ACAD_REACTORS
330
47
102
}
330
47
100
AcDbScale
 70
     0
300
1:40
140
1.0
141
40.0
290
     0
  0
SCALE
  5
52
102
{ACAD_REACTORS
330
47
102
}
330
47
100
AcDbScale
 70
     0
300
1:50
140
1.0
141
50.0
290
     0
  0
SCALE
  5
53
102
{ACAD_REACTORS
330
47
102
}
330
47
100
AcDbScale
 70
     0
300
1:100
140
1.0
141
100.0
290
     0
  0
SCALE
  5
54
102
{ACAD_REACTORS
330
47
102
}
330
47
100
AcDbScale
 70
     0
300
2:1
140
2.0
141
1.0
290
     0
  0
SCALE
  5
55
102
{ACAD_REACTORS
330
47
102
}
330
47
100
AcDbScale
 70
     0
300
4:1
140
4.0
141
1.0
290
     0
  0
SCALE
  5
56
102
{ACAD_REACTORS
330
47
102
}
330
47
100
AcDbScale
 70
     0
300
8:1
140
8.0
141
1.0
290
     0
  0
SCALE
  5
57
102
{ACAD_REACTORS
330
47
102
}
330
47
100
AcDbScale
 70
     0
300
10:1
140
10.0
141
1.0
290
     0
  0
SCALE
  5
58
102
{ACAD_REACTORS
330
47
102
}
330
47
100
AcDbScale
 70
     0
300
100:1
140
100.0
141
1.0
290
     0
  0
SCALE
  5
59
102
{ACAD_REACTORS
330
47
102
}
330
47
100
AcDbScale
 70
     0
300
1/128" = 1'-0"
140
0.0078125
141
12.0
290
     0
  0
SCALE
  5
5A
102
{ACAD_REACTORS
330
47
102
}
330
47
100
AcDbScale
 70
     0
300
1/64" = 1'-0"
140
0.015625
141
12.0
290
     0
  0
SCALE
  5
5B
102
{ACAD_REACTORS
330
47
102
}
330
47
100
AcDbScale
 70
     0
300
1/32" = 1'-0"
140
0.03125
141
12.0
290
     0
  0
SCALE
  5
5C
102
{ACAD_REACTORS
330
47
102
}
330
47
100
AcDbScale
 70
     0
300
1/16" = 1'-0"
140
0.0625
141
12.0
290
     0
  0
SCALE
  5
5D
102
{ACAD_REACTORS
330
47
102
}
330
47
100
AcDbScale
 70
     0
300
3/32" = 1'-0"
140
0.09375
141
12.0
290
     0
  0
SCALE
  5
5E
102
{ACAD_REACTORS
330
47
102
}
330
47
100
AcDbScale
 70
     0
300
1/8" = 1'-0"
140
0.125
141
12.0
290
     0
  0
SCALE
  5
5F
102
{ACAD_REACTORS
330
47
102
}
330
47
100
AcDbScale
 70
     0
300
3/16" = 1'-0"
140
0.1875
141
12.0
290
     0
  0
SCALE
  5
60
102
{ACAD_REACTORS
330
47
102
}
330
47
100
AcDbScale
 70
     0
300
1/4" = 1'-0"
140
0.25
141
12.0
290
     0
  0
SCALE
  5
61
102
{ACAD_REACTORS
330
47
102
}
330
47
100
AcDbScale
 70
     0
300
3/8" = 1'-0"
140
0.375
141
12.0
290
     0
  0
SCALE
  5
62
102
{ACAD_REACTORS
330
47
102
}
330
47
100
AcDbScale
 70
     0
300
1/2" = 1'-0"
140
0.5
141
12.0
290
     0
  0
SCALE
  5
63
102
{ACAD_REACTORS
330
47
102
}
330
47
100
AcDbScale
 70
     0
300
3/4" = 1'-0"
140
0.75
141
12.0
290
     0
  0
SCALE
  5
64
102
{ACAD_REACTORS
330
47
102
}
330
47
100
AcDbScale
 70
     0
300
1" = 1'-0"
140
1.0
141
12.0
290
     0
  0
SCALE
  5
65
102
{ACAD_REACTORS
330
47
102
}
330
47
100
AcDbScale
 70
     0
300
1-1/2" = 1'-0"
140
1.5
141
12.0
290
     0
  0
SCALE
  5
66
102
{ACAD_REACTORS
330
47
102
}
330
47
100
AcDbScale
 70
     0
300
3" = 1'-0"
140
3.0
141
12.0
290
     0
  0
SCALE
  5
67
102
{ACAD_REACTORS
330
47
102
}
330
47
100
AcDbScale
 70
     0
300
6" = 1'-0"
140
6.0
141
12.0
290
     0
  0
SCALE
  5
68
102
{ACAD_REACTORS
330
47
102
}
330
47
100
AcDbScale
 70
     0
300
1'-0" = 1'-0"
140
12.0
141
12.0
290
     0
  0
ENDSEC
  0
EOF
