  0
SECTION
  2
HEADER
  9
$ACADVER
  1
AC1032
  9
$ACADMAINTVER
 90
        4
  9
$DWGCODEPAGE
  3
ANSI_1252
  9
$LASTSAVEDBY
  1
MKramer
  9
$REQUIREDVERSIONS
160
                 0
  9
$INSBASE
 10
0.0
 20
0.0
 30
0.0
  9
$EXTMIN
 10
33.76143973321012
 20
37.46023423127906
 30
-0.0000000000000272
  9
$EXTMAX
 10
520.6771150097463
 20
470.6151203112907
 30
0.0000000000001046
  9
$LIMMIN
 10
0.0
 20
0.0
  9
$LIMMAX
 10
594.0
 20
841.0
  9
$ORTHOMODE
 70
     0
  9
$REGENMODE
 70
     1
  9
$FILLMODE
 70
     1
  9
$QTEXTMODE
 70
     0
  9
$MIRRTEXT
 70
     1
  9
$LTSCALE
 40
1.0
  9
$ATTMODE
 70
     1
  9
$TEXTSIZE
 40
10.0
  9
$TRACEWID
 40
1.0
  9
$TEXTSTYLE
  7
STANDARD
  9
$CLAYER
  8
0
  9
$CELTYPE
  6
ByLayer
  9
$CECOLOR
 62
   256
  9
$CELTSCALE
 40
1.0
  9
$DISPSILH
 70
     0
  9
$DIMSCALE
 40
1.0
  9
$DIMASZ
 40
2.5
  9
$DIMEXO
 40
0.0
  9
$DIMDLI
 40
3.75
  9
$DIMRND
 40
0.0
  9
$DIMDLE
 40
0.0
  9
$DIMEXE
 40
1.0
  9
$DIMTP
 40
0.0
  9
$DIMTM
 40
0.0
  9
$DIMTXT
 40
3.5
  9
$DIMCEN
 40
2.5
  9
$DIMTSZ
 40
0.0
  9
$DIMTOL
 70
     0
  9
$DIMLIM
 70
     0
  9
$DIMTIH
 70
     1
  9
$DIMTOH
 70
     1
  9
$DIMSE1
 70
     0
  9
$DIMSE2
 70
     0
  9
$DIMTAD
 70
     1
  9
$DIMZIN
 70
     0
  9
$DIMBLK
  1

  9
$DIMASO
 70
     1
  9
$DIMSHO
 70
     1
  9
$DIMPOST
  1

  9
$DIMAPOST
  1

  9
$DIMALT
 70
     0
  9
$DIMALTD
 70
     3
  9
$DIMALTF
 40
0.0393700787401575
  9
$DIMLFAC
 40
1.0
  9
$DIMTOFL
 70
     1
  9
$DIMTVP
 40
0.0
  9
$DIMTIX
 70
     0
  9
$DIMSOXD
 70
     0
  9
$DIMSAH
 70
     0
  9
$DIMBLK1
  1

  9
$DIMBLK2
  1

  9
$DIMSTYLE
  2
ISO-25
  9
$DIMCLRD
 70
     0
  9
$DIMCLRE
 70
     0
  9
$DIMCLRT
 70
     0
  9
$DIMTFAC
 40
1.0
  9
$DIMGAP
 40
1.5
  9
$DIMJUST
 70
     0
  9
$DIMSD1
 70
     0
  9
$DIMSD2
 70
     0
  9
$DIMTOLJ
 70
     1
  9
$DIMTZIN
 70
     0
  9
$DIMALTZ
 70
     0
  9
$DIMALTTZ
 70
     0
  9
$DIMUPT
 70
     0
  9
$DIMDEC
 70
     2
  9
$DIMTDEC
 70
     2
  9
$DIMALTU
 70
     2
  9
$DIMALTTD
 70
     2
  9
$DIMTXSTY
  7
STANDARD
  9
$DIMAUNIT
 70
     0
  9
$DIMADEC
 70
     0
  9
$DIMALTRND
 40
0.0
  9
$DIMAZIN
 70
     0
  9
$DIMDSEP
 70
    46
  9
$DIMATFIT
 70
     3
  9
$DIMFRAC
 70
     0
  9
$DIMLDRBLK
  1

  9
$DIMLUNIT
 70
     2
  9
$DIMLWD
 70
    -2
  9
$DIMLWE
 70
    -2
  9
$DIMTMOVE
 70
     2
  9
$DIMFXL
 40
1.0
  9
$DIMFXLON
 70
     0
  9
$DIMJOGANG
 40
0.7853981633974483
  9
$DIMTFILL
 70
     0
  9
$DIMTFILLCLR
 70
     0
  9
$DIMARCSYM
 70
     0
  9
$DIMLTYPE
  6

  9
$DIMLTEX1
  6

  9
$DIMLTEX2
  6

  9
$DIMTXTDIRECTION
 70
     0
  9
$LUNITS
 70
     2
  9
$LUPREC
 70
     2
  9
$SKETCHINC
 40
1.0
  9
$FILLETRAD
 40
10.0
  9
$AUNITS
 70
     0
  9
$AUPREC
 70
     2
  9
$MENU
  1
.
  9
$ELEVATION
 40
0.0
  9
$PELEVATION
 40
0.0
  9
$THICKNESS
 40
0.0
  9
$LIMCHECK
 70
     0
  9
$CHAMFERA
 40
0.0
  9
$CHAMFERB
 40
0.0
  9
$CHAMFERC
 40
0.0
  9
$CHAMFERD
 40
0.0
  9
$SKPOLY
 70
     0
  9
$TDCREATE
 40
2458718.320850394
  9
$TDUCREATE
 40
2458718.279183727
  9
$TDUPDATE
 40
2459958.423782257
  9
$TDUUPDATE
 40
2459958.38211559
  9
$TDINDWG
 40
0.0003035417
  9
$TDUSRTIMER
 40
0.0003042593
  9
$USRTIMER
 70
     1
  9
$ANGBASE
 50
0.0
  9
$ANGDIR
 70
     0
  9
$PDMODE
 70
     0
  9
$PDSIZE
 40
-1.0
  9
$PLINEWID
 40
0.0
  9
$SPLFRAME
 70
     0
  9
$SPLINETYPE
 70
     6
  9
$SPLINESEGS
 70
     8
  9
$HANDSEED
  5
190300000000007B
  9
$SURFTAB1
 70
     6
  9
$SURFTAB2
 70
     6
  9
$SURFTYPE
 70
     6
  9
$SURFU
 70
     6
  9
$SURFV
 70
     6
  9
$UCSBASE
  2

  9
$UCSNAME
  2

  9
$UCSORG
 10
0.0
 20
0.0
 30
0.0
  9
$UCSXDIR
 10
1.0
 20
0.0
 30
0.0
  9
$UCSYDIR
 10
0.0
 20
1.0
 30
0.0
  9
$UCSORTHOREF
  2

  9
$UCSORTHOVIEW
 70
     0
  9
$UCSORGTOP
 10
0.0
 20
0.0
 30
0.0
  9
$UCSORGBOTTOM
 10
0.0
 20
0.0
 30
0.0
  9
$UCSORGLEFT
 10
0.0
 20
0.0
 30
0.0
  9
$UCSORGRIGHT
 10
0.0
 20
0.0
 30
0.0
  9
$UCSORGFRONT
 10
0.0
 20
0.0
 30
0.0
  9
$UCSORGBACK
 10
0.0
 20
0.0
 30
0.0
  9
$PUCSBASE
  2

  9
$PUCSNAME
  2

  9
$PUCSORG
 10
0.0
 20
0.0
 30
0.0
  9
$PUCSXDIR
 10
1.0
 20
0.0
 30
0.0
  9
$PUCSYDIR
 10
0.0
 20
1.0
 30
0.0
  9
$PUCSORTHOREF
  2

  9
$PUCSORTHOVIEW
 70
     0
  9
$PUCSORGTOP
 10
0.0
 20
0.0
 30
0.0
  9
$PUCSORGBOTTOM
 10
0.0
 20
0.0
 30
0.0
  9
$PUCSORGLEFT
 10
0.0
 20
0.0
 30
0.0
  9
$PUCSORGRIGHT
 10
0.0
 20
0.0
 30
0.0
  9
$PUCSORGFRONT
 10
0.0
 20
0.0
 30
0.0
  9
$PUCSORGBACK
 10
0.0
 20
0.0
 30
0.0
  9
$USERI1
 70
     0
  9
$USERI2
 70
     0
  9
$USERI3
 70
     0
  9
$USERI4
 70
     0
  9
$USERI5
 70
     0
  9
$USERR1
 40
0.0
  9
$USERR2
 40
0.0
  9
$USERR3
 40
0.0
  9
$USERR4
 40
0.0
  9
$USERR5
 40
0.0
  9
$WORLDVIEW
 70
     1
  9
$SHADEDGE
 70
     3
  9
$SHADEDIF
 70
    70
  9
$TILEMODE
 70
     1
  9
$MAXACTVP
 70
    64
  9
$PINSBASE
 10
0.0
 20
0.0
 30
0.0
  9
$PLIMCHECK
 70
     0
  9
$PEXTMIN
 10
1.000000000000000E+20
 20
1.000000000000000E+20
 30
1.000000000000000E+20
  9
$PEXTMAX
 10
-1.000000000000000E+20
 20
-1.000000000000000E+20
 30
-1.000000000000000E+20
  9
$PLIMMIN
 10
0.0
 20
0.0
  9
$PLIMMAX
 10
0.0
 20
0.0
  9
$UNITMODE
 70
     0
  9
$VISRETAIN
 70
     1
  9
$PLINEGEN
 70
     0
  9
$PSLTSCALE
 70
     1
  9
$TREEDEPTH
 70
  3020
  9
$CMLSTYLE
  2
Standard
  9
$CMLJUST
 70
     0
  9
$CMLSCALE
 40
1.0
  9
$PROXYGRAPHICS
 70
     1
  9
$MEASUREMENT
 70
     0
  9
$CELWEIGHT
370
    -1
  9
$ENDCAPS
280
     0
  9
$JOINSTYLE
280
     0
  9
$LWDISPLAY
290
     0
  9
$INSUNITS
 70
     0
  9
$HYPERLINKBASE
  1

  9
$STYLESHEET
  1

  9
$XEDIT
290
     1
  9
$CEPSNTYPE
380
     0
  9
$PSTYLEMODE
290
     1
  9
$FINGERPRINTGUID
  2
{baedee57-424d-4934-9920-ce27011768f0}
  9
$VERSIONGUID
  2
{FAEB1C32-E019-11D5-929B-00C0DF256EC4}
  9
$EXTNAMES
290
     1
  9
$PSVPSCALE
 40
0.0
  9
$OLESTARTUP
290
     0
  9
$SORTENTS
280
   127
  9
$INDEXCTL
280
     0
  9
$HIDETEXT
280
     1
  9
$XCLIPFRAME
280
     2
  9
$HALOGAP
280
     0
  9
$OBSCOLOR
 70
   257
  9
$OBSLTYPE
280
     0
  9
$INTERSECTIONDISPLAY
280
     0
  9
$INTERSECTIONCOLOR
 70
   257
  9
$DIMASSOC
280
     2
  9
$PROJECTNAME
  1

  9
$CAMERADISPLAY
290
     0
  9
$LENSLENGTH
 40
50.0
  9
$CAMERAHEIGHT
 40
0.0
  9
$STEPSPERSEC
 40
2.0
  9
$STEPSIZE
 40
6.0
  9
$3DDWFPREC
 40
2.0
  9
$PSOLWIDTH
 40
0.25
  9
$PSOLHEIGHT
 40
4.0
  9
$LOFTANG1
 40
1.570796326794897
  9
$LOFTANG2
 40
1.570796326794897
  9
$LOFTMAG1
 40
0.0
  9
$LOFTMAG2
 40
0.0
  9
$LOFTPARAM
 70
     7
  9
$LOFTNORMALS
280
     1
  9
$LATITUDE
 40
37.795
  9
$LONGITUDE
 40
-122.394
  9
$NORTHDIRECTION
 40
0.0
  9
$TIMEZONE
 70
 -8000
  9
$LIGHTGLYPHDISPLAY
280
     1
  9
$TILEMODELIGHTSYNCH
280
     1
  9
$SOLIDHIST
280
     0
  9
$SHOWHIST
280
     1
  9
$DWFFRAME
280
     2
  9
$DGNFRAME
280
     2
  9
$REALWORLDSCALE
290
     1
  9
$INTERFERECOLOR
 62
   256
  9
$CSHADOW
280
     0
  9
$SHADOWPLANELOCATION
 40
0.0
  0
ENDSEC
  0
SECTION
  2
CLASSES
  0
CLASS
  1
ACDBDICTIONARYWDFLT
  2
AcDbDictionaryWithDefault
  3
ObjectDBX Classes
 90
        0
 91
        3
280
     0
281
     0
  0
CLASS
  1
SCALE
  2
AcDbScale
  3
ObjectDBX Classes
 90
     1153
 91
        3
280
     0
281
     0
  0
CLASS
  1
VISUALSTYLE
  2
AcDbVisualStyle
  3
ObjectDBX Classes
 90
     4095
 91
        3
280
     0
281
     0
  0
CLASS
  1
MATERIAL
  2
AcDbMaterial
  3
ObjectDBX Classes
 90
     1153
 91
        3
280
     0
281
     0
  0
CLASS
  1
TABLESTYLE
  2
AcDbTableStyle
  3
ObjectDBX Classes
 90
     4095
 91
        3
280
     0
281
     0
  0
CLASS
  1
MLEADERSTYLE
  2
AcDbMLeaderStyle
  3
ACDB_MLEADERSTYLE_CLASS
 90
     4095
 91
        3
280
     0
281
     0
  0
CLASS
  1
DICTIONARYVAR
  2
AcDbDictionaryVar
  3
ObjectDBX Classes
 90
        0
 91
        3
280
     0
281
     0
  0
CLASS
  1
CELLSTYLEMAP
  2
AcDbCellStyleMap
  3
ObjectDBX Classes
 90
     1152
 91
        3
280
     0
281
     0
  0
ENDSEC
  0
SECTION
  2
TABLES
  0
TABLE
  2
VPORT
  5
1903000000000006
330
0
100
AcDbSymbolTable
 70
     1
  0
VPORT
  5
1903000000000023
330
1903000000000006
100
AcDbSymbolTableRecord
100
AcDbViewportTableRecord
  2
*ACTIVE
 70
     0
 10
0.0
 20
0.0
 11
1.0
 21
1.0
 12
297.0
 22
420.5
 13
0.0
 23
0.0
 14
10.0
 24
10.0
 15
10.0
 25
10.0
 16
0.0
 26
0.0
 36
1.0
 17
0.0
 27
0.0
 37
0.0
 40
841.0
 41
0.7063020214030915
 42
50.0
 43
0.0
 44
0.0
 50
0.0
 51
0.0
 71
     0
 72
  2000
 73
     1
 74
     3
 75
     0
 76
     0
 77
     0
 78
     0
281
     0
 65
     0
110
0.0
120
0.0
130
0.0
111
1.0
121
0.0
131
0.0
112
0.0
122
1.0
132
0.0
 79
     0
146
0.0
348
1903000000000053
 60
     3
 61
     5
292
     1
282
     1
141
0.0
142
0.0
 63
   256
  0
ENDTAB
  0
TABLE
  2
LTYPE
  5
1903000000000003
330
0
100
AcDbSymbolTable
 70
     6
  0
LTYPE
  5
190300000000000E
330
1903000000000003
100
AcDbSymbolTableRecord
100
AcDbLinetypeTableRecord
  2
ByBlock
 70
     0
  3

 72
    65
 73
     0
 40
0.0
  0
LTYPE
  5
190300000000000F
330
1903000000000003
100
AcDbSymbolTableRecord
100
AcDbLinetypeTableRecord
  2
ByLayer
 70
     0
  3

 72
    65
 73
     0
 40
0.0
  0
LTYPE
  5
190300000000001C
330
1903000000000003
100
AcDbSymbolTableRecord
100
AcDbLinetypeTableRecord
  2
CONTINUOUS
 70
     0
  3
Solid line
 72
    65
 73
     0
 40
0.0
  0
LTYPE
  5
190300000000001D
330
1903000000000003
100
AcDbSymbolTableRecord
100
AcDbLinetypeTableRecord
  2
HIDDEN
 70
     0
  3
Hidden __ __ __ __ __ __ __ __ __ __ __ __ __ __
 72
    65
 73
     2
 40
1.905
 49
1.27
 74
     0
 49
-0.635
 74
     0
  0
LTYPE
  5
190300000000001E
330
1903000000000003
100
AcDbSymbolTableRecord
100
AcDbLinetypeTableRecord
  2
PHANTOM
 70
     0
  3
Phantom ______  __  __  ______  __  __  ______
 72
    65
 73
     6
 40
12.7
 49
6.35
 74
     0
 49
-1.27
 74
     0
 49
1.27
 74
     0
 49
-1.27
 74
     0
 49
1.27
 74
     0
 49
-1.27
 74
     0
  0
LTYPE
  5
190300000000001F
330
1903000000000003
100
AcDbSymbolTableRecord
100
AcDbLinetypeTableRecord
  2
CENTER
 70
     0
  3
Center ____ _ ____ _ ____ _ ____ _ ____ _ ____
 72
    65
 73
     4
 40
10.16
 49
6.35
 74
     0
 49
-1.27
 74
     0
 49
1.27
 74
     0
 49
-1.27
 74
     0
  0
LTYPE
  5
1903000000000020
330
1903000000000003
100
AcDbSymbolTableRecord
100
AcDbLinetypeTableRecord
  2
CENTERX2
 70
     0
  3
Center (2x) ________  __  ________  __  _____
 72
    65
 73
     4
 40
20.32
 49
12.7
 74
     0
 49
-2.54
 74
     0
 49
2.54
 74
     0
 49
-2.54
 74
     0
  0
LTYPE
  5
1903000000000021
330
1903000000000003
100
AcDbSymbolTableRecord
100
AcDbLinetypeTableRecord
  2
DOT2
 70
     0
  3
Dot (.5x) ......................................
 72
    65
 73
     2
 40
0.635
 49
0.0
 74
     0
 49
-0.635
 74
     0
  0
ENDTAB
  0
TABLE
  2
LAYER
  5
1903000000000001
330
0
100
AcDbSymbolTable
 70
     1
  0
LAYER
  5
1903000000000022
330
1903000000000001
100
AcDbSymbolTableRecord
100
AcDbLayerTableRecord
  2
0
 70
     0
 62
     7
  6
ByLayer
370
    -3
390
190300000000000D
347
190300000000006A
348
0
  0
ENDTAB
  0
TABLE
  2
STYLE
  5
1903000000000002
330
0
100
AcDbSymbolTable
 70
     1
  0
STYLE
  5
1903000000000025
330
1903000000000002
100
AcDbSymbolTableRecord
100
AcDbTextStyleTableRecord
  2
STANDARD
 70
     0
 40
0.0
 41
1.0
 50
0.0
 71
     0
 42
10.0
  3
txt
  4

  0
ENDTAB
  0
TABLE
  2
VIEW
  5
1903000000000004
330
0
100
AcDbSymbolTable
 70
     0
  0
ENDTAB
  0
TABLE
  2
UCS
  5
1903000000000005
330
0
100
AcDbSymbolTable
 70
     0
  0
ENDTAB
  0
TABLE
  2
APPID
  5
1903000000000007
330
0
100
AcDbSymbolTable
 70
     1
  0
APPID
  5
1903000000000024
330
1903000000000007
100
AcDbSymbolTableRecord
100
AcDbRegAppTableRecord
  2
ACAD
 70
     0
  0
ENDTAB
  0
TABLE
  2
DIMSTYLE
  5
1903000000000008
330
0
100
AcDbSymbolTable
 70
     2
100
AcDbDimStyleTable
  0
DIMSTYLE
105
1903000000000026
330
1903000000000008
100
AcDbSymbolTableRecord
100
AcDbDimStyleTableRecord
  2
ISO-25
 70
     0
 41
2.5
 42
0.625
 43
3.75
 44
1.25
 73
     0
 74
     0
 77
     1
 78
     8
140
2.5
141
2.5
143
0.03937007874016
147
0.625
171
     3
172
     1
178
     0
340
1903000000000025
  0
DIMSTYLE
105
1903000000000027
330
1903000000000008
100
AcDbSymbolTableRecord
100
AcDbDimStyleTableRecord
  2
SLDDIMSTYLE0
 70
     0
 41
2.5
 44
0.0
 45
0.000000001
 73
     0
 74
     0
 77
     1
 78
    12
140
6.0
147
1.5
173
     1
178
     0
340
1903000000000025
  0
ENDTAB
  0
TABLE
  2
BLOCK_RECORD
  5
1903000000000000
330
0
100
AcDbSymbolTable
 70
     3
  0
BLOCK_RECORD
  5
1903000000000016
102
{ACAD_XDICTIONARY
360
1903000000000070
102
}
330
1903000000000000
100
AcDbSymbolTableRecord
100
AcDbBlockTableRecord
  2
*Model_Space
340
1903000000000017
 70
     0
280
     1
281
     0
  0
BLOCK_RECORD
  5
1903000000000014
330
1903000000000000
100
AcDbSymbolTableRecord
100
AcDbBlockTableRecord
  2
*Paper_Space
340
1903000000000015
 70
     0
280
     1
281
     0
  0
BLOCK_RECORD
  5
1903000000000019
330
1903000000000000
100
AcDbSymbolTableRecord
100
AcDbBlockTableRecord
  2
*PAPER_SPACE0
340
0
 70
     0
280
     1
281
     0
  0
BLOCK_RECORD
  5
190300000000001A
330
1903000000000000
100
AcDbSymbolTableRecord
100
AcDbBlockTableRecord
  2
_D
340
0
 70
     0
280
     1
281
     0
  0
BLOCK_RECORD
  5
190300000000001B
330
1903000000000000
100
AcDbSymbolTableRecord
100
AcDbBlockTableRecord
  2
_D_1
340
0
 70
     0
280
     1
281
     0
  0
ENDTAB
  0
ENDSEC
  0
SECTION
  2
BLOCKS
  0
BLOCK
  5
190300000000002A
330
1903000000000016
100
AcDbEntity
  8
0
100
AcDbBlockBegin
  2
*Model_Space
 70
     0
 10
0.0
 20
0.0
 30
0.0
  3
*Model_Space
  1

  0
ENDBLK
  5
190300000000002B
330
1903000000000016
100
AcDbEntity
  8
0
100
AcDbBlockEnd
  0
BLOCK
  5
1903000000000028
330
1903000000000014
100
AcDbEntity
 67
     1
  8
0
100
AcDbBlockBegin
  2
*Paper_Space
 70
     0
 10
0.0
 20
0.0
 30
0.0
  3
*Paper_Space
  1

  0
ENDBLK
  5
1903000000000029
330
1903000000000014
100
AcDbEntity
 67
     1
  8
0
100
AcDbBlockEnd
  0
BLOCK
  5
24
330
1903000000000019
100
AcDbEntity
  8
0
100
AcDbBlockBegin
  2
*PAPER_SPACE0
 70
     0
 10
0.0
 20
0.0
 30
0.0
  3
*PAPER_SPACE0
  1

  0
ENDBLK
  5
25
330
1903000000000019
100
AcDbEntity
  8
0
100
AcDbBlockEnd
  0
BLOCK
  5
78
330
190300000000001A
100
AcDbEntity
  8
0
100
AcDbBlockBegin
  2
_D
 70
     0
 10
0.0
 20
0.0
 30
0.0
  3
_D
  1

  0
SOLID
  5
7A
330
190300000000001A
100
AcDbEntity
  8
0
  6
Continuous
 62
     7
100
AcDbTrace
 10
42.76143950037947
 20
152.0299240878882
 30
0.0
 11
42.46143950037947
 21
149.5299240878882
 31
0.0
 12
43.06143950037946
 22
149.5299240878882
 32
0.0
 13
43.06143950037946
 23
149.5299240878882
 33
0.0
  0
SOLID
  5
7B
330
190300000000001A
100
AcDbEntity
  8
0
  6
Continuous
 62
     7
100
AcDbTrace
 10
42.76143950037948
 20
52.0299240878882
 30
0.0
 11
43.06143950037948
 21
54.5299240878882
 31
0.0
 12
42.46143950037948
 22
54.5299240878882
 32
0.0
 13
42.46143950037948
 23
54.5299240878882
 33
0.0
  0
LINE
  5
7C
330
190300000000001A
100
AcDbEntity
  8
0
  6
Continuous
 62
     7
100
AcDbLine
 10
56.68500799020809
 20
152.0299240878882
 30
0.0
 11
41.76143950037947
 21
152.0299240878882
 31
0.0
  0
LINE
  5
7D
330
190300000000001A
100
AcDbEntity
  8
0
  6
Continuous
 62
     7
100
AcDbLine
 10
56.68500799020809
 20
52.0299240878882
 30
0.0
 11
41.76143950037948
 21
52.0299240878882
 31
0.0
  0
LINE
  5
7E
330
190300000000001A
100
AcDbEntity
  8
0
  6
Continuous
 62
     7
100
AcDbLine
 10
42.76143950037947
 20
152.0299240878882
 30
0.0
 11
42.76143950037948
 21
52.0299240878882
 31
0.0
  0
TEXT
  5
7F
330
190300000000001A
100
AcDbEntity
  8
0
  6
Continuous
 62
     7
100
AcDbText
 10
39.7614397332102
 20
94.36805414627588
 30
0.0000000000001046
 40
6.0
  1
100
 50
90.0000000000004
 41
0.7
 11
42.7614397332102
 21
94.3680541462759
 31
0.0000000000001046
100
AcDbText
 73
     1
  0
TEXT
  5
80
330
190300000000001A
100
AcDbEntity
  8
0
  6
Continuous
 62
     7
100
AcDbText
 10
39.76143973321012
 20
105.7430548466305
 30
0.0000000000001046
 40
6.0
  1
mm
 50
90.0000000000004
 41
0.7
 11
42.76143973321012
 21
105.7430548466305
 31
0.0000000000001046
100
AcDbText
 73
     1
  0
ENDBLK
  5
79
330
190300000000001A
100
AcDbEntity
  8
0
100
AcDbBlockEnd
  0
BLOCK
  5
83
330
190300000000001B
100
AcDbEntity
  8
0
100
AcDbBlockBegin
  2
_D_1
 70
     0
 10
0.0
 20
0.0
 30
0.0
  3
_D_1
  1

  0
SOLID
  5
85
330
190300000000001B
100
AcDbEntity
  8
0
  6
Continuous
 62
     7
100
AcDbTrace
 10
56.68500799020809
 20
38.46023423127903
 30
0.0
 11
59.18500799020809
 21
38.16023423127903
 31
0.0
 12
59.18500799020809
 22
38.76023423127903
 32
0.0
 13
59.18500799020809
 23
38.76023423127903
 33
0.0
  0
SOLID
  5
86
330
190300000000001B
100
AcDbEntity
  8
0
  6
Continuous
 62
     7
100
AcDbTrace
 10
156.6850079902081
 20
38.46023423127903
 30
0.0
 11
154.1850079902081
 21
38.76023423127903
 31
0.0
 12
154.1850079902081
 22
38.16023423127903
 32
0.0
 13
154.1850079902081
 23
38.16023423127903
 33
0.0
  0
LINE
  5
87
330
190300000000001B
100
AcDbEntity
  8
0
  6
Continuous
 62
     7
100
AcDbLine
 10
56.68500799020809
 20
52.0299240878882
 30
0.0
 11
56.68500799020809
 21
37.46023423127903
 31
0.0
  0
LINE
  5
88
330
190300000000001B
100
AcDbEntity
  8
0
  6
Continuous
 62
     7
100
AcDbLine
 10
156.6850079902081
 20
52.0299240878882
 30
0.0
 11
156.6850079902081
 21
37.46023423127903
 31
0.0
  0
LINE
  5
89
330
190300000000001B
100
AcDbEntity
  8
0
  6
Continuous
 62
     7
100
AcDbLine
 10
56.68500799020809
 20
38.46023423127903
 30
0.0
 11
156.6850079902081
 21
38.46023423127903
 31
0.0
  0
TEXT
  5
8A
330
190300000000001B
100
AcDbEntity
  8
0
  6
Continuous
 62
     7
100
AcDbText
 10
93.96264848609465
 20
41.46023399844839
 30
-0.0000000000000272
 40
6.0
  1
100
 41
0.7
 11
93.96264848609465
 21
38.46023399844839
 31
-0.0000000000000272
100
AcDbText
 73
     1
  0
TEXT
  5
8B
330
190300000000001B
100
AcDbEntity
  8
0
  6
Continuous
 62
     7
100
AcDbText
 10
105.3376491864492
 20
41.46023399844839
 30
-0.0000000000000272
 40
6.0
  1
mm
 41
0.7
 11
105.3376491864492
 21
38.46023399844839
 31
-0.0000000000000272
100
AcDbText
 73
     1
  0
ENDBLK
  5
84
330
190300000000001B
100
AcDbEntity
  8
0
100
AcDbBlockEnd
  0
ENDSEC
  0
SECTION
  2
ENTITIES
  0
LINE
  5
73
330
1903000000000016
100
AcDbEntity
  8
0
  6
Continuous
 62
     7
100
AcDbLine
 10
56.68500799020809
 20
152.0299240878882
 30
0.0
 11
56.68500799020809
 21
52.0299240878882
 31
0.0
  0
LINE
  5
74
330
1903000000000016
100
AcDbEntity
  8
0
  6
Continuous
 62
     7
100
AcDbLine
 10
56.68500799020809
 20
52.0299240878882
 30
0.0
 11
156.6850079902081
 21
52.0299240878882
 31
0.0
  0
DIMENSION
  5
75
330
1903000000000016
100
AcDbEntity
  8
0
  6
Continuous
 62
     7
100
AcDbDimension
280
     0
  2
_D
 10
42.76143950037947
 20
52.0299240878882
 30
0.0
 11
42.76143950037947
 21
105.4472211621264
 31
0.0
 70
   160
  1
<>mm
 71
     5
 42
-1.0
 73
     0
 74
     0
 75
     0
  3
SLDDIMSTYLE0
100
AcDbAlignedDimension
 13
56.68500799020809
 23
152.0299240878882
 33
0.0
 14
56.68500799020809
 24
52.0299240878882
 34
0.0
 50
90.0000000000002
100
AcDbRotatedDimension
  0
DIMENSION
  5
81
330
1903000000000016
100
AcDbEntity
  8
0
  6
Continuous
 62
     7
100
AcDbDimension
280
     0
  2
_D_1
 10
156.6850079902081
 20
38.46023423127903
 30
0.0
 11
105.0418155019452
 21
38.46023423127903
 31
0.0
 70
   160
  1
<>mm
 71
     5
 42
-1.0
 73
     0
 74
     0
 75
     0
  3
SLDDIMSTYLE0
100
AcDbAlignedDimension
 13
56.68500799020809
 23
52.0299240878882
 33
0.0
 14
156.6850079902081
 24
52.0299240878882
 34
0.0
100
AcDbRotatedDimension
  0
TEXT
  5
8C
330
1903000000000016
100
AcDbEntity
  8
0
  6
Continuous
 62
     7
100
AcDbText
 10
412.8252631578944
 20
40.54356755219479
 30
0.0
 40
10.0
  1
KLUDI GmbH & Co KG
 41
0.6222222222222222
 11
412.8252631578944
 21
35.54356755219479
 31
0.0
100
AcDbText
 73
     1
  0
TEXT
  5
8D
330
1903000000000016
100
AcDbEntity
  8
0
  6
Continuous
 62
     7
100
AcDbText
 10
210.0873490388933
 20
40.54356755219476
 30
0.0
 40
10.0
  1
38 266 .. 76
 41
0.6124999999999999
 11
210.0873490388933
 21
35.54356755219476
 31
0.0
100
AcDbText
 73
     1
  0
LWPOLYLINE
  5
8E
330
1903000000000016
100
AcDbEntity
  8
0
  6
Continuous
 62
     7
100
AcDbPolyline
 90
       15
 70
   128
 43
0.0
 10
123.8011280583544
 20
387.2997773798789
 10
123.7940192731424
 20
387.2071666630591
 10
123.9191564308806
 20
386.086003294834
 10
124.2477344857855
 20
384.9976820858802
 10
124.7725626962586
 20
383.9525518926467
 10
125.4896438258095
 20
382.9590989264335
 10
126.3940232383413
 20
382.0293186220015
 10
127.4750885131164
 20
381.1787156375731
 10
128.7149480121536
 20
380.4233608754958
 10
130.0897370601399
 20
379.7771198662604
 10
131.5738484772248
 20
379.2496560129012
 10
133.1430697391136
 20
378.8468999775733
 10
134.7734421069129
 20
378.5728229197348
 10
136.4411329777306
 20
378.4298984321441
 10
137.4153038995667
 20
378.4076286467399
  0
LWPOLYLINE
  5
8F
330
1903000000000016
100
AcDbEntity
  8
0
  6
Continuous
 62
     7
100
AcDbPolyline
 90
       14
 70
   128
 43
0.0
 10
137.4153038995667
 20
378.4076286467399
 10
138.3097121069534
 20
378.4263966592635
 10
139.9773771917774
 20
378.5628987463797
 10
141.6088552723033
 20
378.8304416450347
 10
143.1804579260154
 20
379.2266188176955
 10
144.6698993021948
 20
379.7482041629638
 10
146.0553659634991
 20
380.3912488731231
 10
147.3151641475363
 20
381.1509100707854
 10
148.4271018343372
 20
382.020824960121
 10
149.3670261042519
 20
382.990197649845
 10
150.1111900942726
 20
384.0412287029113
 10
150.6414060058398
 20
385.1492268952216
 10
150.9492015974922
 20
386.2855000408973
 10
151.0294797407789
 20
387.3312858852233
  0
LINE
  5
90
330
1903000000000016
100
AcDbEntity
  8
0
  6
Continuous
 62
     7
100
AcDbLine
 10
123.7930451097293
 20
392.0068828376616
 30
0.0
 11
123.7930451097293
 21
387.3155353578414
 31
0.0
  0
LINE
  5
91
330
1903000000000016
100
AcDbEntity
  8
0
  6
Continuous
 62
     7
100
AcDbLine
 10
151.037562689404
 20
387.3155353578414
 30
0.0
 11
151.037562689404
 21
392.0068828376616
 31
0.0
  0
ARC
  5
92
330
1903000000000016
100
AcDbEntity
  8
0
  6
Continuous
 62
     7
100
AcDbCircle
 10
-203.9780033673653
 20
396.5700068456347
 30
0.0
 40
355.0453663287358
100
AcDbArc
 50
359.26360130274
 51
1.368316113774558
  0
LWPOLYLINE
  5
93
330
1903000000000016
100
AcDbEntity
  8
0
  6
Continuous
 62
     7
100
AcDbPolyline
 90
       10
 70
   128
 43
0.0
 10
123.9829613404675
 20
404.1334403666343
 10
123.9704862745805
 20
404.1421426447715
 10
123.9068648355408
 20
403.9653254660453
 10
123.8616975533171
 20
403.4755242976035
 10
123.8310635598703
 20
402.5763137253608
 10
123.811482502739
 20
401.1468378814544
 10
123.8022475080891
 20
399.6379015954818
 10
123.7965226682229
 20
397.6718721898879
 10
123.7934921445651
 20
395.1616151245917
 10
123.7925692038937
 20
392.0068828376616
  0
LINE
  5
94
330
1903000000000016
100
AcDbEntity
  8
0
  6
Continuous
 62
     7
100
AcDbLine
 10
161.4153041081829
 20
444.4019062432135
 30
0.0
 11
161.4153041081829
 21
469.1151244553412
 31
0.0
  0
LINE
  5
95
330
1903000000000016
100
AcDbEntity
  8
0
  6
Continuous
 62
     7
100
AcDbLine
 10
113.4153036909504
 20
469.1151244553412
 30
0.0
 11
113.4153036909504
 21
444.4031132372702
 31
0.0
  0
LINE
  5
96
330
1903000000000016
100
AcDbEntity
  8
0
  6
Continuous
 62
     7
100
AcDbLine
 10
161.4153041081829
 20
310.846929809698
 30
0.0
 11
161.4153041081829
 21
440.1151252898063
 31
0.0
  0
LINE
  5
97
330
1903000000000016
100
AcDbEntity
  8
0
  6
Continuous
 62
     7
100
AcDbLine
 10
113.4153036909504
 20
440.1151252898063
 30
0.0
 11
113.4153036909504
 21
310.846929809698
 31
0.0
  0
ARC
  5
98
330
1903000000000016
100
AcDbEntity
  8
0
  6
Continuous
 62
     7
100
AcDbCircle
 10
160.9153038995667
 20
440.1151179315252
 30
0.0
 40
0.5
100
AcDbArc
 50
0.0
 51
90.0
  0
ARC
  5
99
330
1903000000000016
100
AcDbEntity
  8
0
  6
Continuous
 62
     7
100
AcDbCircle
 10
113.9153038995667
 20
440.1151179315252
 30
0.0
 40
0.5
100
AcDbArc
 50
90.0
 51
180.0
  0
ARC
  5
9A
330
1903000000000016
100
AcDbEntity
  8
0
  6
Continuous
 62
     7
100
AcDbCircle
 10
113.7153038995667
 20
310.8469300789586
 30
0.0
 40
0.3000000000000114
100
AcDbArc
 50
180.0
 51
270.0000000000008
  0
ARC
  5
9B
330
1903000000000016
100
AcDbEntity
  8
0
  6
Continuous
 62
     7
100
AcDbCircle
 10
161.1153038995667
 20
310.8469300789586
 30
0.0
 40
0.2999999999999829
100
AcDbArc
 50
270.0000000000008
 51
0.0
  0
ARC
  5
9C
330
1903000000000016
100
AcDbEntity
  8
0
  6
Continuous
 62
     7
100
AcDbCircle
 10
114.9153038995665
 20
469.1151179315252
 30
0.0
 40
1.5
100
AcDbArc
 50
90.0
 51
180.0
  0
ARC
  5
9D
330
1903000000000016
100
AcDbEntity
  8
0
  6
Continuous
 62
     7
100
AcDbCircle
 10
159.9153038995665
 20
469.1151179315252
 30
0.0
 40
1.5
100
AcDbArc
 50
0.0
 51
90.0
  0
ARC
  5
9E
330
1903000000000016
100
AcDbEntity
  8
0
  6
Continuous
 62
     7
100
AcDbCircle
 10
161.0122696966094
 20
440.8151179315252
 30
0.0
 40
0.2000000000000487
100
AcDbArc
 50
270.0000000000008
 51
26.64216739275312
  0
ARC
  5
9F
330
1903000000000016
100
AcDbEntity
  8
0
  6
Continuous
 62
     7
100
AcDbCircle
 10
113.8183381025239
 20
440.8151179315252
 30
0.0
 40
0.2000000000000233
100
AcDbArc
 50
153.3578326072432
 51
270.0000000000008
  0
ARC
  5
A0
330
1903000000000016
100
AcDbEntity
  8
0
  6
Continuous
 62
     7
100
AcDbCircle
 10
137.4153038995667
 20
428.9769083889807
 30
0.0
 40
26.60000000000002
100
AcDbArc
 50
146.611811187546
 51
153.3578326072985
  0
ARC
  5
A1
330
1903000000000016
100
AcDbEntity
  8
0
  6
Continuous
 62
     7
100
AcDbCircle
 10
137.4153038995667
 20
428.9769083889807
 30
0.0
 40
26.60000000000004
100
AcDbArc
 50
26.64216739270145
 51
33.38818881245403
  0
LWPOLYLINE
  5
A2
330
1903000000000016
100
AcDbEntity
  8
0
  6
Continuous
 62
     7
100
AcDbPolyline
 90
        7
 70
   128
 43
0.0
 10
160.3086321192188
 20
443.6140669497336
 10
160.3900334375305
 20
443.6141265543784
 10
160.7793616639776
 20
443.647073021778
 10
161.0809686171217
 20
443.7644345673407
 10
161.3292238252563
 20
444.0325660618628
 10
161.4149762826366
 20
444.3754715832557
 10
161.4116961645288
 20
444.4032026442374
  0
LWPOLYLINE
  5
A3
330
1903000000000016
100
AcDbEntity
  8
0
  6
Continuous
 62
     7
100
AcDbPolyline
 90
        7
 70
   128
 43
0.0
 10
113.4292362766667
 20
444.4129182013358
 10
113.4314546870394
 20
444.231675377735
 10
113.5895187544031
 20
443.9029557617988
 10
113.87973935775
 20
443.6980498942222
 10
114.1615445303126
 20
443.629549256214
 10
114.51305733494
 20
443.6128897579993
 10
114.5680463450356
 20
443.6128897579993
  0
ARC
  5
A4
330
1903000000000016
100
AcDbEntity
  8
0
  6
Continuous
 62
     7
100
AcDbCircle
 10
136.6431212930114
 20
462.1983316322292
 30
0.0
 40
3.586909547966174
100
AcDbArc
 50
183.0335899279697
 51
219.6115480889659
  0
ARC
  5
A5
330
1903000000000016
100
AcDbEntity
  8
0
  6
Continuous
 62
     7
100
AcDbCircle
 10
138.4407829428892
 20
462.1319050023315
 30
0.0
 40
3.328551556906308
100
AcDbArc
 50
318.1241980464401
 51
357.4918917019343
  0
CIRCLE
  5
A6
330
1903000000000016
100
AcDbEntity
  8
0
  6
Continuous
 62
     7
100
AcDbCircle
 10
137.4153038995667
 20
450.6151179315253
 30
0.0
 40
3.569682227408578
  0
CIRCLE
  5
A7
330
1903000000000016
100
AcDbEntity
  8
0
  6
Continuous
 62
     7
100
AcDbCircle
 10
137.4153038995667
 20
450.6151179315253
 30
0.0
 40
4.0
  0
LINE
  5
A8
330
1903000000000016
100
AcDbEntity
  8
0
  6
Continuous
 62
     7
100
AcDbLine
 10
135.2683874355955
 20
470.6151200445975
 30
0.0
 11
139.562228745441
 21
470.6151200445975
 31
0.0
  0
LINE
  5
A9
330
1903000000000016
100
AcDbEntity
  8
0
  6
Continuous
 62
     7
100
AcDbLine
 10
160.2695892142458
 20
443.6151249321784
 30
0.0
 11
114.5610185848875
 21
443.6151249321784
 31
0.0
  0
LINE
  5
AA
330
1903000000000016
100
AcDbEntity
  8
0
  6
Continuous
 62
     7
100
AcDbLine
 10
137.4153038995667
 20
310.5469303193177
 30
0.0
 11
113.7153031813307
 21
310.5469303193177
 31
0.0
  0
LINE
  5
AB
330
1903000000000016
100
AcDbEntity
  8
0
  6
Continuous
 62
     7
100
AcDbLine
 10
161.1153046178026
 20
310.5469303193177
 30
0.0
 11
137.4153038995667
 21
310.5469303193177
 31
0.0
  0
LINE
  5
AC
330
1903000000000016
100
AcDbEntity
  8
0
  6
Continuous
 62
     7
100
AcDbLine
 10
139.5622375930054
 20
470.6151200445975
 30
0.0
 11
159.9153047936363
 21
470.6151200445975
 31
0.0
  0
LINE
  5
AD
330
1903000000000016
100
AcDbEntity
  8
0
  6
Continuous
 62
     7
100
AcDbLine
 10
114.915303005497
 20
470.6151200445975
 30
0.0
 11
135.2683804506762
 21
470.6151200445975
 31
0.0
  0
LINE
  5
AE
330
1903000000000016
100
AcDbEntity
  8
0
  6
Continuous
 62
     7
100
AcDbLine
 10
161.0122705387278
 20
440.6151188525046
 30
0.0
 11
113.8183372604056
 21
440.6151188525046
 31
0.0
  0
LWPOLYLINE
  5
AF
330
1903000000000016
100
AcDbEntity
  8
0
  6
Continuous
 62
     8
100
AcDbPolyline
 90
       14
 70
   128
 43
0.0
 10
123.7930618735356
 20
387.3022807749595
 10
123.7930451097293
 20
387.3155353578414
 10
123.9095861601038
 20
388.4256495150412
 10
124.2572125556274
 20
389.5167721422995
 10
124.829977801661
 20
390.5702246340598
 10
125.6180825220747
 20
391.5679989370192
 10
126.6080393033428
 20
392.4930034192885
 10
127.7829129757686
 20
393.329427948841
 10
129.1225981476111
 20
394.0629450591887
 10
130.604174504648
 20
394.6810154231871
 10
132.202291446398
 20
395.1730592163886
 10
133.8896039450867
 20
395.5306647332991
 10
135.6372423978848
 20
395.7477001460875
 10
137.4153038995669
 20
395.8204625161971
  0
LWPOLYLINE
  5
B0
330
1903000000000016
100
AcDbEntity
  8
0
  6
Continuous
 62
     8
100
AcDbPolyline
 90
       23
 70
   128
 43
0.0
 10
137.4153038995667
 20
393.5254750760878
 10
135.6901266189618
 20
393.450075200447
 10
134.0000690469844
 20
393.2254029425467
 10
132.3795356365247
 20
392.8560404094542
 10
130.8615161614819
 20
392.3494977864112
 10
129.4769133018656
 20
391.7160941275443
 10
128.253912604074
 20
390.9687189372863
 10
127.2174111144943
 20
390.1225937517966
 10
126.3885098086996
 20
389.1949294122542
 10
125.7840823890968
 20
388.2046280416335
 10
125.416432558219
 20
387.1718360098685
 10
125.2930453555985
 20
386.1175788554038
 10
125.416432558219
 20
385.0633217009391
 10
125.7840823890968
 20
384.0305296691741
 10
126.3885098086996
 20
383.0402282985534
 10
127.2174111144943
 20
382.112563959011
 10
128.253912604074
 20
381.2664387735213
 10
129.4769133018656
 20
380.5190635832633
 10
130.8615161614819
 20
379.8856599243964
 10
132.3795356365247
 20
379.3791173013533
 10
134.0000690469844
 20
379.0097473176803
 10
135.6901266189618
 20
378.7850825103606
 10
137.4153038995668
 20
378.7096751841391
  0
LINE
  5
B1
330
1903000000000016
100
AcDbEntity
  8
0
  6
Continuous
 62
     8
100
AcDbLine
 10
137.4153038995667
 20
378.7096751841391
 30
0.0
 11
137.4153038995667
 21
378.4076286467399
 31
0.0
  0
LWPOLYLINE
  5
B2
330
1903000000000016
100
AcDbEntity
  8
0
  6
Continuous
 62
     8
100
AcDbPolyline
 90
       13
 70
   128
 43
0.0
 10
137.4153038995667
 20
395.8204625161971
 10
139.1933654012485
 20
395.7477001460875
 10
140.9410038540466
 20
395.5306647332991
 10
142.6283163527353
 20
395.1730592163886
 10
144.2264332944853
 20
394.6810154231871
 10
145.7080096515222
 20
394.0629450591887
 10
147.0476948233647
 20
393.329427948841
 10
148.2225684957905
 20
392.4930034192885
 10
149.2125252770586
 20
391.5679989370192
 10
150.0006299974723
 20
390.5702246340598
 10
150.573395243506
 20
389.5167721422995
 10
150.9210216390295
 20
388.4256495150412
 10
151.0375459255977
 20
387.3287824901427
  0
LWPOLYLINE
  5
B3
330
1903000000000016
100
AcDbEntity
  8
0
  6
Continuous
 62
     8
100
AcDbPolyline
 90
       23
 70
   128
 43
0.0
 10
137.4153038995667
 20
378.7096751841391
 10
139.1404811801715
 20
378.7850825103606
 10
140.8305387521489
 20
379.0097473176803
 10
142.4510721626086
 20
379.3791173013533
 10
143.9690916376514
 20
379.8856599243964
 10
145.3536944972677
 20
380.5190635832633
 10
146.5766951950593
 20
381.2664387735213
 10
147.613196684639
 20
382.112563959011
 10
148.4420979904337
 20
383.0402282985534
 10
149.0465254100366
 20
384.0305296691741
 10
149.4141752409143
 20
385.0633217009391
 10
149.5375624435349
 20
386.1175788554038
 10
149.4141752409143
 20
387.1718360098685
 10
149.0465254100366
 20
388.2046280416335
 10
148.4420979904337
 20
389.1949294122542
 10
147.613196684639
 20
390.1225937517966
 10
146.5766951950593
 20
390.9687189372863
 10
145.3536944972677
 20
391.7160941275443
 10
143.9690916376514
 20
392.3494977864112
 10
142.4510721626086
 20
392.8560404094542
 10
140.8305387521489
 20
393.2254029425467
 10
139.1404811801715
 20
393.450075200447
 10
137.4153038995667
 20
393.5254750760878
  0
ARC
  5
B4
330
1903000000000016
100
AcDbEntity
  8
0
  6
Continuous
 62
     8
100
AcDbCircle
 10
137.4153057080624
 20
407.7769054709041
 30
0.0
 40
13.719859657121
100
AcDbArc
 50
348.7500048018282
 51
90.00000755249513
  0
CIRCLE
  5
B5
330
1903000000000016
100
AcDbEntity
  8
0
  6
Continuous
 62
     8
100
AcDbCircle
 10
137.4153038995665
 20
462.6151179315253
 30
0.0
 40
2.828082609483886
  0
CIRCLE
  5
B6
330
1903000000000016
100
AcDbEntity
  8
0
  6
Continuous
 62
     8
100
AcDbCircle
 10
137.4153038995665
 20
462.6151179315253
 30
0.0
 40
4.328080324853772
  0
ARC
  5
B7
330
1903000000000016
100
AcDbEntity
  8
0
  6
Continuous
 62
     8
100
AcDbCircle
 10
137.4228533293331
 20
462.6700112396109
 30
0.0
 40
4.411493438092286
100
AcDbArc
 50
42.59339673234085
 51
188.624034729258
  0
ARC
  5
B8
330
1903000000000016
100
AcDbEntity
  8
0
  6
Continuous
 62
     8
100
AcDbCircle
 10
137.4000229989813
 20
462.5692549170186
 30
0.0
 40
4.410901947144279
100
AcDbArc
 50
217.0539434905203
 51
322.9239825766776
  0
ARC
  5
B9
330
1903000000000016
100
AcDbEntity
  8
0
  6
Continuous
 62
     8
100
AcDbCircle
 10
137.798302936342
 20
462.799769813384
 30
0.0
 40
4.050382719359555
100
AcDbArc
 50
348.413252669756
 51
44.83714876293045
  0
LINE
  5
BA
330
1903000000000016
100
AcDbEntity
  8
0
  6
Continuous
 62
     8
100
AcDbLine
 10
137.4153038995667
 20
421.640978566059
 30
0.0
 11
137.4153038995667
 21
421.4967651280249
 31
0.0
  0
ARC
  5
BB
330
1903000000000016
100
AcDbEntity
  8
0
  6
Continuous
 62
     8
100
AcDbCircle
 10
137.4499074897526
 20
407.8123638273257
 30
0.0
 40
13.82865803325719
100
AcDbArc
 50
348.1423573664388
 51
90.14337195539578
  0
ARC
  5
BC
330
1903000000000016
100
AcDbEntity
  8
0
  6
Continuous
 62
     8
100
AcDbCircle
 10
137.4012262132022
 20
407.7789127173137
 30
0.0
 40
13.86207299707382
100
AcDbArc
 50
89.94181302083683
 51
195.1443413995522
  0
LWPOLYLINE
  5
BD
330
1903000000000016
100
AcDbEntity
  8
0
  6
Continuous
 62
     8
100
AcDbPolyline
 90
       21
 70
   128
 43
0.0
 10
137.4153038995667
 20
426.599354854473
 10
140.5564237429155
 20
426.2823177489127
 10
143.5897998089297
 20
425.3315342577781
 10
146.4005522938771
 20
423.7803233774985
 10
147.6772372188373
 20
422.7970702561225
 10
148.8674982028408
 20
421.6753853472556
 10
150.0209598379536
 20
420.3488690766181
 10
151.0181706907554
 20
418.9321709784354
 10
151.8682158129616
 20
417.4253059538688
 10
152.5803506883187
 20
415.8282889040793
 10
153.2353042202396
 20
413.8788444908942
 10
153.6913319068356
 20
411.8903888377036
 10
153.9605903016729
 20
409.8629368456687
 10
154.0506808596058
 20
407.7964587124671
 10
153.96423549823
 20
405.7314706953849
 10
153.6987657236261
 20
403.7047190579261
 10
153.4188213335676
 20
402.3747978719558
 10
153.0526960777445
 20
401.061871460327
 10
152.5961980732484
 20
399.7659323724593
 10
151.6153635965986
 20
397.6431054982032
 10
151.0380628096266
 20
396.7258496197547
  0
LWPOLYLINE
  5
BE
330
1903000000000016
100
AcDbEntity
  8
0
  6
Continuous
 62
     8
100
AcDbPolyline
 90
       19
 70
   128
 43
0.0
 10
123.7952886658116
 20
396.6493619593467
 10
122.9483886199398
 20
398.1562940391387
 10
122.2372456031246
 20
399.7586829575385
 10
121.5866273777886
 20
401.7061380657042
 10
121.134136854331
 20
403.692224434265
 10
120.8677357571526
 20
405.7169271620597
 10
120.7799194889469
 20
407.7802462490882
 10
120.8685925739212
 20
409.8478419693793
 10
121.1367780851526
 20
411.8768436821784
 10
121.4188514786167
 20
413.208053818592
 10
121.7873888599081
 20
414.5221276196326
 10
122.2466212274833
 20
415.8190352829779
 10
123.226893185298
 20
417.9320646437491
 10
124.4588466869993
 20
419.884638300785
 10
125.9644032033487
 20
421.676726451763
 10
128.4258189188643
 20
423.7773580464209
 10
131.2304228121741
 20
425.3270788105811
 10
134.2685148628755
 20
426.2812150629844
 10
137.4153038995667
 20
426.599354854473
  0
LWPOLYLINE
  5
BF
330
1903000000000016
100
AcDbEntity
  8
0
  6
Continuous
 62
     8
100
AcDbPolyline
 90
        5
 70
   128
 43
0.0
 10
139.7033785978658
 20
469.1154820832099
 10
139.7033192260517
 20
469.1154820832099
 10
136.6929634750215
 20
469.2605001839484
 10
135.1269770456804
 20
469.1154373797263
 10
135.1269176738663
 20
469.1154224785651
  0
LWPOLYLINE
  5
C0
330
1903000000000016
100
AcDbEntity
  8
0
  6
Continuous
 62
     8
100
AcDbPolyline
 90
       31
 70
   128
 43
0.0
 10
139.7044456607057
 20
469.1154820832099
 10
139.9815478870971
 20
468.9998490723456
 10
141.1158016926004
 20
468.3520657929267
 10
142.1031901190383
 20
467.4820912989463
 10
142.9054942490859
 20
466.4348376902427
 10
143.4960300611658
 20
465.24468194569
 10
143.8624756919546
 20
463.9448983582343
 10
143.9818530852301
 20
462.594644537815
 10
143.8539675945742
 20
461.2593961867179
 10
143.4763079086645
 20
459.9552465590323
 10
142.8780733185215
 20
458.7585641058768
 10
142.0787801543577
 20
457.7220989378775
 10
141.0903092982574
 20
456.8601263674582
 10
139.9567542175157
 20
456.2194360407676
 10
138.7039848413644
 20
455.8163894327964
 10
137.3987375390664
 20
455.6843055399741
 10
136.0947010616167
 20
455.8231545599784
 10
134.8435406616284
 20
456.232847085842
 10
133.7135828143312
 20
456.8791402491416
 10
132.728985095988
 20
457.7464623364295
 10
131.9354237566097
 20
458.7859375389899
 10
131.3426825726731
 20
459.9854810150946
 10
130.9708492407901
 20
461.2912995728339
 10
130.8487379500968
 20
462.6281721505011
 10
130.9741433287365
 20
463.9775915058936
 10
131.3469782980485
 20
465.276659837612
 10
131.9433665411873
 20
466.464148274311
 10
132.7513158830209
 20
467.5076020869101
 10
133.7402330754651
 20
468.3700663956488
 10
134.8743693014933
 20
469.011024943241
 10
135.1260250011785
 20
469.1154224785651
  0
LINE
  5
C1
330
1903000000000016
100
AcDbEntity
  8
0
  6
Continuous
 62
     8
100
AcDbLine
 10
137.4153038995667
 20
310.846929809698
 30
0.0
 11
161.4153041081829
 21
310.846929809698
 31
0.0
  0
LINE
  5
C2
330
1903000000000016
100
AcDbEntity
  8
0
  6
Continuous
 62
     8
100
AcDbLine
 10
113.4153036909504
 20
310.846929809698
 30
0.0
 11
137.4153038995667
 21
310.846929809698
 31
0.0
  0
LINE
  5
C3
330
1903000000000016
100
AcDbEntity
  8
0
  6
Continuous
 62
     7
100
AcDbLine
 10
123.7930454995306
 20
389.6612077946336
 30
0.0
 11
123.7900964889933
 21
405.2085876195714
 31
0.0
  0
LINE
  5
C4
330
1903000000000016
100
AcDbEntity
  8
0
  6
Continuous
 62
     7
100
AcDbLine
 10
151.0375622996027
 20
389.6612077946336
 30
0.0
 11
151.0387762008705
 21
405.2135397408481
 31
0.0
  0
ARC
  5
C5
330
1903000000000016
100
AcDbEntity
  8
0
  6
Continuous
 62
     7
100
AcDbCircle
 10
261.7553556622773
 20
469.1151179315252
 30
0.0
 40
1.5
100
AcDbArc
 50
90.0
 51
179.9999999999998
  0
LINE
  5
C6
330
1903000000000016
100
AcDbEntity
  8
0
  6
Continuous
 62
     7
100
AcDbLine
 10
308.2553558708936
 20
454.6117348584021
 30
0.0
 11
308.2553558708936
 21
455.685989371189
 31
0.0
  0
LINE
  5
C7
330
1903000000000016
100
AcDbEntity
  8
0
  6
Continuous
 62
     7
100
AcDbLine
 10
308.2553558708936
 20
444.1151184948768
 30
0.0
 11
308.2553558708936
 21
446.6285271557654
 31
0.0
  0
LINE
  5
C8
330
1903000000000016
100
AcDbEntity
  8
0
  6
Continuous
 62
     7
100
AcDbLine
 10
260.2553554536611
 20
469.1151244553412
 30
0.0
 11
260.2553554536611
 21
450.6511105212058
 31
0.0
  0
ARC
  5
C9
330
1903000000000016
100
AcDbEntity
  8
0
  6
Continuous
 62
     7
100
AcDbCircle
 10
260.5553556622773
 20
310.8469300789586
 30
0.0
 40
0.3000000000000114
100
AcDbArc
 50
179.9999999999998
 51
270.0000000000008
  0
ARC
  5
CA
330
1903000000000016
100
AcDbEntity
  8
0
  6
Continuous
 62
     7
100
AcDbCircle
 10
307.9553556622773
 20
310.8469300789586
 30
0.0
 40
0.2999999999999545
100
AcDbArc
 50
270.0000000000008
 51
0.0000000000002001
  0
ARC
  5
CB
330
1903000000000016
100
AcDbEntity
  8
0
  6
Continuous
 62
     7
100
AcDbCircle
 10
307.7553556622773
 20
440.1151179315252
 30
0.0
 40
0.5
100
AcDbArc
 50
0.0000000000002
 51
90.0
  0
ARC
  5
CC
330
1903000000000016
100
AcDbEntity
  8
0
  6
Continuous
 62
     7
100
AcDbCircle
 10
260.7553556622773
 20
440.1151179315252
 30
0.0
 40
0.5
100
AcDbArc
 50
90.0
 51
179.9999999999998
  0
LINE
  5
CD
330
1903000000000016
100
AcDbEntity
  8
0
  6
Continuous
 62
     7
100
AcDbLine
 10
308.2553558708936
 20
426.599354854473
 30
0.0
 11
308.2553558708936
 21
440.1151252898063
 31
0.0
  0
LINE
  5
CE
330
1903000000000016
100
AcDbEntity
  8
0
  6
Continuous
 62
     7
100
AcDbLine
 10
308.2553558708936
 20
310.846929809698
 30
0.0
 11
308.2553558708936
 21
388.9544619234885
 31
0.0
  0
LINE
  5
CF
330
1903000000000016
100
AcDbEntity
  8
0
  6
Continuous
 62
     7
100
AcDbLine
 10
260.2553554536611
 20
440.1151252898063
 30
0.0
 11
260.2553554536611
 21
310.846929809698
 31
0.0
  0
ARC
  5
D0
330
1903000000000016
100
AcDbEntity
  8
0
  6
Continuous
 62
     7
100
AcDbCircle
 10
307.8523214593201
 20
440.8151179315252
 30
0.0
 40
0.2000000000000233
100
AcDbArc
 50
270.0000000000008
 51
26.64216739275677
  0
ARC
  5
D1
330
1903000000000016
100
AcDbEntity
  8
0
  6
Continuous
 62
     7
100
AcDbCircle
 10
260.6583898652346
 20
440.8151179315252
 30
0.0
 40
0.2000000000000233
100
AcDbArc
 50
153.3578326072432
 51
270.0000000000008
  0
ARC
  5
D2
330
1903000000000016
100
AcDbEntity
  8
0
  6
Continuous
 62
     7
100
AcDbCircle
 10
284.2553556622773
 20
428.9769083889807
 30
0.0
 40
26.60000000000008
100
AcDbArc
 50
132.4746682197904
 51
153.3578326072986
  0
ARC
  5
D3
330
1903000000000016
100
AcDbEntity
  8
0
  6
Continuous
 62
     7
100
AcDbCircle
 10
284.2553556622773
 20
428.9769083889807
 30
0.0
 40
26.60000000000002
100
AcDbArc
 50
26.64216739270147
 51
33.38818881245406
  0
ARC
  5
D4
330
1903000000000016
100
AcDbEntity
  8
0
  6
Continuous
 62
     7
100
AcDbCircle
 10
260.7553556622773
 20
450.6511158239365
 30
0.0
 40
0.5000000000000286
100
AcDbArc
 50
180.276797060085
 51
254.5000000000026
  0
ARC
  5
D5
330
1903000000000016
100
AcDbEntity
  8
0
  6
Continuous
 62
     7
100
AcDbCircle
 10
307.7553556622773
 20
444.1151179315253
 30
0.0
 40
0.5000000000000568
100
AcDbArc
 50
270.0000000000008
 51
0.0000000000002
  0
LWPOLYLINE
  5
D6
330
1903000000000016
100
AcDbEntity
  8
0
  6
Continuous
 62
     7
100
AcDbPolyline
 90
       18
 70
   128
 43
0.0
 10
354.5088023604661
 20
394.057044199356
 10
357.8003943623811
 20
394.0564258011664
 10
360.5168387951165
 20
394.0326882513846
 10
362.7317324938089
 20
393.9922017964209
 10
364.5406142534524
 20
393.9411727699126
 10
366.3398773135453
 20
393.8706902774657
 10
368.2117537321359
 20
393.7720222386207
 10
372.824527388981
 20
393.3805389317359
 10
377.43560231345
 20
392.6785154255713
 10
380.8079735101968
 20
391.8698368581618
 10
384.073868459633
 20
390.7575620325889
 10
386.9623467983514
 20
389.4368944677199
 10
388.2592544616967
 20
388.7277631076659
 10
389.4720301689416
 20
387.9962129505957
 10
390.7783553661615
 20
387.1335847290839
 10
392.4482986988336
 20
385.9198031934584
 10
394.5046440424234
 20
384.2630175861205
 10
396.9946951331407
 20
382.0441974314536
  0
LWPOLYLINE
  5
D7
330
1903000000000016
100
AcDbEntity
  8
0
  6
Continuous
 62
     7
100
AcDbPolyline
 90
       25
 70
   128
 43
0.0
 10
415.5754149617463
 20
401.9695756944503
 10
413.2696241797715
 20
404.0761155995215
 10
411.3434553803712
 20
405.7599989684905
 10
409.7671509446412
 20
407.0785058649863
 10
408.3904773654252
 20
408.1815345200385
 10
407.4216858209878
 20
408.9287830504264
 10
406.7240581573755
 20
409.451396575817
 10
405.9463591040879
 20
410.0182814511145
 10
405.0688967766076
 20
410.6375588091697
 10
404.0901885093957
 20
411.3023443135108
 10
403.0078054131776
 20
412.005187383541
 10
401.8181786598474
 20
412.7381606015052
 10
397.2160295309335
 20
415.1880903157081
 10
392.4402669729501
 20
417.1289218577231
 10
387.3888180317193
 20
418.626116028675
 10
381.5640211762696
 20
419.81130968655
 10
375.7735789479524
 20
420.5759031685675
 10
370.1951206387788
 20
421.0393441828574
 10
368.4403747977525
 20
421.1431456717337
 10
366.7663634480745
 20
421.2266666802253
 10
365.1823029579431
 20
421.2931109579886
 10
363.4423614205629
 20
421.3533563526954
 10
361.1270860494882
 20
421.4150471600379
 10
358.1743166507989
 20
421.4670522126044
 10
354.5088023604661
 20
421.4967651280249
  0
ARC
  5
D8
330
1903000000000016
100
AcDbEntity
  8
0
  6
Continuous
 62
     7
100
AcDbCircle
 10
310.7324023783991
 20
455.684282847342
 30
0.0
 40
2.477046507517742
100
AcDbArc
 50
90.10022340351614
 51
179.9998197779512
  0
ARC
  5
D9
330
1903000000000016
100
AcDbEntity
  8
0
  6
Continuous
 62
     7
100
AcDbCircle
 10
310.6763546181015
 20
469.43966699306
 30
0.0
 40
2.371319028955732
100
AcDbArc
 50
184.7857211222717
 51
271.2495874040135
  0
LINE
  5
DA
330
1903000000000016
100
AcDbEntity
  8
0
  6
Continuous
 62
     7
100
AcDbLine
 10
310.7277639867574
 20
458.1613255652274
 30
0.0
 11
382.7579767169267
 21
458.2870317610587
 31
0.0
  0
LINE
  5
DB
330
1903000000000016
100
AcDbEntity
  8
0
  6
Continuous
 62
     7
100
AcDbLine
 10
382.7579767169267
 20
466.943205705532
 30
0.0
 11
310.7278105528861
 21
467.0689119013633
 31
0.0
  0
ARC
  5
DC
330
1903000000000016
100
AcDbEntity
  8
0
  6
Continuous
 62
     7
100
AcDbCircle
 10
382.7553556622773
 20
465.4432005410091
 30
0.0
 40
1.500000000000012
100
AcDbArc
 50
0.0000000000002
 51
89.90000000000047
  0
ARC
  5
DD
330
1903000000000016
100
AcDbEntity
  8
0
  6
Continuous
 62
     7
100
AcDbCircle
 10
382.7553556622773
 20
459.7870353220414
 30
0.0
 40
1.500000000000012
100
AcDbArc
 50
270.1000000000004
 51
0.0000000000002
  0
LINE
  5
DE
330
1903000000000016
100
AcDbEntity
  8
0
  6
Continuous
 62
     7
100
AcDbLine
 10
308.2531281472951
 20
446.615116110691
 30
0.0
 11
308.6053562076598
 21
446.615116110691
 31
0.0
  0
LINE
  5
DF
330
1903000000000016
100
AcDbEntity
  8
0
  6
Continuous
 62
     7
100
AcDbLine
 10
308.6053562076598
 20
454.6151174219931
 30
0.0
 11
308.2547970773488
 21
454.6151174219931
 31
0.0
  0
LINE
  5
E0
330
1903000000000016
100
AcDbEntity
  8
0
  6
Continuous
 62
     7
100
AcDbLine
 10
308.6053562076598
 20
446.615116110691
 30
0.0
 11
309.2059028060943
 21
446.8337012442435
 31
0.0
  0
LINE
  5
E1
330
1903000000000016
100
AcDbEntity
  8
0
  6
Continuous
 62
     7
100
AcDbLine
 10
309.2059028060943
 20
454.3965322884406
 30
0.0
 11
308.6053562076598
 21
454.6151174219931
 31
0.0
  0
ARC
  5
E2
330
1903000000000016
100
AcDbEntity
  8
0
  6
Continuous
 62
     7
100
AcDbCircle
 10
309.1374990035334
 20
454.2085980404499
 30
0.0
 40
0.2000000000000019
100
AcDbArc
 50
0.0
 51
69.99999999999322
  0
ARC
  5
E3
330
1903000000000016
100
AcDbEntity
  8
0
  6
Continuous
 62
     7
100
AcDbCircle
 10
309.1374990035334
 20
447.0216378226006
 30
0.0
 40
0.1999999999999886
100
AcDbArc
 50
290.0000000000131
 51
0.0
  0
LINE
  5
E4
330
1903000000000016
100
AcDbEntity
  8
0
  6
Continuous
 62
     7
100
AcDbLine
 10
309.3374986858875
 20
447.0216346892203
 30
0.0
 11
309.3374986858875
 21
454.2085988434638
 31
0.0
  0
ARC
  5
E5
330
1903000000000016
100
AcDbEntity
  8
0
  6
Continuous
 62
     7
100
AcDbCircle
 10
306.7782674888441
 20
469.1151364017245
 30
0.0
 40
1.499983909566209
100
AcDbArc
 50
4.323787397725649
 51
90.03416648482917
  0
ARC
  5
E6
330
1903000000000016
100
AcDbEntity
  8
0
  6
Continuous
 62
     7
100
AcDbCircle
 10
288.8014910004107
 20
477.019789889678
 30
0.0
 40
33.41746517160038
100
AcDbArc
 50
252.9142499485184
 51
271.5858910887026
  0
LINE
  5
E7
330
1903000000000016
100
AcDbEntity
  8
0
  6
Continuous
 62
     7
100
AcDbLine
 10
261.7553547682077
 20
470.6151200445975
 30
0.0
 11
306.6526931436568
 21
470.6151200445975
 31
0.0
  0
LWPOLYLINE
  5
E8
330
1903000000000016
100
AcDbEntity
  8
0
  6
Continuous
 62
     7
100
AcDbPolyline
 90
       11
 70
   128
 43
0.0
 10
307.9196755500346
 20
450.6151242169227
 10
307.9287876101047
 20
449.9583406361426
 10
307.9561033012181
 20
449.3015570553626
 10
307.9970312030822
 20
448.7001312884177
 10
308.0491536022931
 20
448.1362415465201
 10
308.1044555367738
 20
447.6520879181708
 10
308.1593104364187
 20
447.2388638171042
 10
308.2049787701875
 20
446.9294114025916
 10
308.2384672673255
 20
446.717740407833
 10
308.2541041733533
 20
446.6226262959327
 10
308.25312628465
 20
446.6285271557654
  0
ARC
  5
E9
330
1903000000000016
100
AcDbEntity
  8
0
  6
Continuous
 62
     7
100
AcDbCircle
 10
332.3194416009812
 20
450.5815468433634
 30
0.0
 40
24.39978915443617
100
AcDbArc
 50
170.4927115584316
 51
179.9211533186981
  0
LINE
  5
EA
330
1903000000000016
100
AcDbEntity
  8
0
  6
Continuous
 62
     7
100
AcDbLine
 10
307.9553563805133
 20
310.5469303193177
 30
0.0
 11
260.5553549440414
 21
310.5469303193177
 31
0.0
  0
LINE
  5
EB
330
1903000000000016
100
AcDbEntity
  8
0
  6
Continuous
 62
     7
100
AcDbLine
 10
307.8523223014384
 20
440.6151188525046
 30
0.0
 11
260.6583890231162
 21
440.6151188525046
 31
0.0
  0
LWPOLYLINE
  5
EC
330
1903000000000016
100
AcDbEntity
  8
0
  6
Continuous
 62
     7
100
AcDbPolyline
 90
       15
 70
   128
 43
0.0
 10
278.9833527715713
 20
445.0771672638739
 10
276.7191120149404
 20
445.7051021965827
 10
274.528875081411
 20
446.3125033291663
 10
272.4345373647124
 20
446.8933207901801
 10
270.4570377902895
 20
447.4417282255973
 10
268.6161436797887
 20
447.9522569092597
 10
266.9302598299295
 20
448.4197957428779
 10
265.4162385226995
 20
448.8396657618369
 10
264.0892156125814
 20
449.2076797398414
 10
262.9624587209731
 20
449.5201570900763
 10
262.0472312630922
 20
449.7739685686911
 10
261.3526825519115
 20
449.966595879444
 10
260.8857565285474
 20
450.0960869702186
 10
260.6511209817439
 20
450.1611454399909
 10
260.6217358918697
 20
450.1692963751639
  0
LINE
  5
ED
330
1903000000000016
100
AcDbEntity
  8
0
  6
Continuous
 62
     7
100
AcDbLine
 10
307.7553548576146
 20
443.6151249321784
 30
0.0
 11
289.72633562105
 21
443.6151249321784
 31
0.0
  0
ARC
  5
EE
330
1903000000000016
100
AcDbEntity
  8
0
  6
Continuous
 62
     7
100
AcDbCircle
 10
313.2137647346739
 20
426.5993566156188
 30
0.0
 40
4.958409072396648
100
AcDbArc
 50
180.0
 51
269.8000000000004
  0
ARC
  5
EF
330
1903000000000016
100
AcDbEntity
  8
0
  6
Continuous
 62
     7
100
AcDbCircle
 10
313.2137647346739
 20
388.9544601623427
 30
0.0
 40
4.958409072396648
100
AcDbArc
 50
90.20000000000037
 51
180.0
  0
LINE
  5
F0
330
1903000000000016
100
AcDbEntity
  8
0
  6
Continuous
 62
     7
100
AcDbLine
 10
354.5088023604661
 20
394.057044199356
 30
0.0
 11
313.1964561255485
 21
393.9128382119025
 31
0.0
  0
LINE
  5
F1
330
1903000000000016
100
AcDbEntity
  8
0
  6
Continuous
 62
     7
100
AcDbLine
 10
313.1964561255485
 20
421.640978566059
 30
0.0
 11
354.5088023604661
 21
421.4967651280249
 31
0.0
  0
LINE
  5
F2
330
1903000000000016
100
AcDbEntity
  8
0
  6
Continuous
 62
     7
100
AcDbLine
 10
415.5754149617463
 20
401.9695756944503
 30
0.0
 11
422.1695215167314
 21
395.8204625161971
 31
0.0
  0
LINE
  5
F3
330
1903000000000016
100
AcDbEntity
  8
0
  6
Continuous
 62
     7
100
AcDbLine
 10
400.4622996510774
 20
378.8106007489051
 30
0.0
 11
396.9946951331407
 21
382.0441974314536
 31
0.0
  0
ARC
  5
F4
330
1903000000000016
100
AcDbEntity
  8
0
  6
Continuous
 62
     7
100
AcDbCircle
 10
421.1465243740827
 20
394.7234316634177
 30
0.0
 40
1.50000000000012
100
AcDbArc
 50
307.0000000000007
 51
47.00000000001059
  0
LWPOLYLINE
  5
F5
330
1903000000000016
100
AcDbEntity
  8
0
  6
Continuous
 62
     7
100
AcDbPolyline
 90
       23
 70
   128
 43
0.0
 10
422.0492542447358
 20
393.5254750760878
 10
421.949178046158
 20
393.450075200447
 10
421.6510356129914
 20
393.2254029425467
 10
421.160876816681
 20
392.8560404094542
 10
420.4886705340654
 20
392.3494977864112
 10
419.6481109322816
 20
391.7160941275443
 10
418.6563194455415
 20
390.9687189372863
 10
417.5334573449403
 20
390.1225937517966
 10
416.3024128140718
 20
389.1949294122542
 10
414.9882347049028
 20
388.2046280416335
 10
413.6176706017762
 20
387.1718360098685
 10
412.2186303796083
 20
386.1175788554038
 10
410.8195901574403
 20
385.0633217009391
 10
409.4490260543138
 20
384.0305296691741
 10
408.1348479451448
 20
383.0402282985534
 10
406.9038034142762
 20
382.112563959011
 10
405.7809487642556
 20
381.2664387735213
 10
404.7891498269349
 20
380.5190635832633
 10
403.9485902251512
 20
379.8856599243964
 10
403.2763913931161
 20
379.3791173013533
 10
402.7862251462251
 20
379.0097473176803
 10
402.488075262478
 20
378.7850825103606
 10
402.3880139650613
 20
378.7096751841391
  0
ARC
  5
F6
330
1903000000000016
100
AcDbEntity
  8
0
  6
Continuous
 62
     7
100
AcDbCircle
 10
401.4852940666933
 20
379.9076319352807
 30
0.0
 40
1.500000000000267
100
AcDbArc
 50
226.9999999999959
 51
306.9999999999972
  0
LINE
  5
F7
330
1903000000000016
100
AcDbEntity
  8
0
  6
Continuous
 62
     7
100
AcDbLine
 10
384.2553571523935
 20
465.4431952151145
 30
0.0
 11
384.2553571523935
 21
459.7870422514762
 31
0.0
  0
LINE
  5
F8
330
1903000000000016
100
AcDbEntity
  8
0
  6
Continuous
 62
     7
100
AcDbLine
 10
308.6053562076598
 20
450.6151242169227
 30
0.0
 11
308.6053562076598
 21
454.6151174219931
 31
0.0
  0
LINE
  5
F9
330
1903000000000016
100
AcDbEntity
  8
0
  6
Continuous
 62
     7
100
AcDbLine
 10
308.6053562076598
 20
446.615116110691
 30
0.0
 11
308.6053562076598
 21
450.6151242169227
 31
0.0
  0
ARC
  5
FA
330
1903000000000016
100
AcDbEntity
  8
0
  6
Continuous
 62
     8
100
AcDbCircle
 10
306.6492632275292
 20
469.1185347814999
 30
0.0
 40
1.496589108568162
100
AcDbArc
 50
359.8808477555806
 51
89.87011434904727
  0
LWPOLYLINE
  5
FB
330
1903000000000016
100
AcDbEntity
  8
0
  6
Continuous
 62
     8
100
AcDbPolyline
 90
       17
 70
   128
 43
0.0
 10
308.2549106987029
 20
455.685989371189
 10
308.2553502829581
 20
455.6843055399741
 10
308.2189951749355
 20
455.8231545599784
 10
308.1171662272722
 20
456.232847085842
 10
307.9681639285594
 20
456.8791402491416
 10
307.7933770330459
 20
457.7464623364295
 10
307.6213766546756
 20
458.7859375389899
 10
307.4743841500789
 20
459.9854810150946
 10
307.3739410104066
 20
461.2912995728339
 10
307.3395547183067
 20
462.6281721505011
 10
307.3748592944652
 20
463.9775915058936
 10
307.4755073251039
 20
465.276659837612
 10
307.6232374371797
 20
466.464148274311
 10
307.7978119911462
 20
467.5076020869101
 10
307.9723083140165
 20
468.3700663956488
 10
308.1204686971217
 20
469.011024943241
 10
308.1459236057311
 20
469.1154224785651
  0
LINE
  5
FC
330
1903000000000016
100
AcDbEntity
  8
0
  6
Continuous
 62
     8
100
AcDbLine
 10
260.2553554536611
 20
310.846929809698
 30
0.0
 11
308.2553558708936
 21
310.846929809698
 31
0.0
  0
LWPOLYLINE
  5
FD
330
1903000000000016
100
AcDbEntity
  8
0
  6
Continuous
 62
     8
100
AcDbPolyline
 90
       26
 70
   128
 43
0.0
 10
308.2553558708936
 20
388.9544619234885
 10
308.0489133210689
 20
389.2714915784682
 10
307.4474987299949
 20
390.2222899707641
 10
306.506984001568
 20
391.7784703883017
 10
305.946059590748
 20
392.7652625354613
 10
305.3400871069938
 20
393.8911868246878
 10
304.66983846443
 20
395.2225459727134
 10
304.0182889165193
 20
396.6442508610572
 10
303.4049869241029
 20
398.1562940391387
 10
302.8463889570743
 20
399.7586829575385
 10
302.2956718416721
 20
401.7061380657042
 10
301.8883802654058
 20
403.692224434265
 10
301.6386219026357
 20
405.7169271620597
 10
301.5546035678893
 20
407.7802462490882
 10
301.6394396038562
 20
409.8478419693793
 10
301.8908203305513
 20
411.8768436821784
 10
302.1470718743116
 20
413.208053818592
 10
302.4698626907378
 20
414.5221276196326
 10
302.8540407033473
 20
415.8190352829779
 10
303.6122397245675
 20
417.9320646437491
 10
304.45758818703
 20
419.884638300785
 10
305.3474594564944
 20
421.676726451763
 10
306.5082021714956
 20
423.7773580464209
 10
307.4447327019483
 20
425.3270788105811
 10
308.0481645377189
 20
426.2812150629844
 10
308.2553558708936
 20
426.599354854473
  0
LWPOLYLINE
  5
FE
330
1903000000000016
100
AcDbEntity
  8
0
  6
Continuous
 62
     8
100
AcDbPolyline
 90
       53
 70
   128
 43
0.0
 10
313.1964561255485
 20
421.640978566059
 10
313.0177427740604
 20
421.3684363278235
 10
312.8787987591535
 20
421.1513711127128
 10
312.7001710893422
 20
420.8686513813819
 10
312.4818541766912
 20
420.519204250225
 10
312.3161867918283
 20
420.2533824356879
 10
312.1211361797363
 20
419.9378652485694
 10
311.8967079283506
 20
419.5670349510993
 10
311.6428983123809
 20
419.1352887066687
 10
311.3597073318273
 20
418.6371726902808
 10
311.04713871198
 20
418.0674863966788
 10
310.7051887275487
 20
417.4215359600867
 10
310.2801740826875
 20
416.5728105219687
 10
309.9705950083047
 20
415.9165037783469
 10
309.7764496417552
 20
415.4893023880805
 10
309.722663900426
 20
415.3686625870551
 10
309.7065948607236
 20
415.3323037537421
 10
309.700746154955
 20
415.3189672144736
 10
309.6988890977412
 20
415.3147203835334
 10
309.6982110949069
 20
415.313155761608
 10
309.6979410113603
 20
415.3125299128379
 10
309.697825527361
 20
415.3122616919364
 10
309.6977770985872
 20
415.3121424826468
 10
309.6977547468454
 20
415.3120977791633
 10
309.6977454336196
 20
415.3120679768409
 10
309.6977417083293
 20
415.3120679768409
 10
309.697737983039
 20
415.3120530756797
 10
309.352807766369
 20
414.4737733515586
 10
309.0577200712472
 20
413.6807037504996
 10
308.812478622964
 20
412.9437817248191
 10
308.1961535574704
 20
410.3156043204154
 10
307.9904579283506
 20
407.7789349469031
 10
308.1944585503846
 20
405.2485464128341
 10
308.3532956154853
 20
404.3789891513671
 10
308.5575514199048
 20
403.5034565242614
 10
308.807224100998
 20
402.6268957170333
 10
308.9237474562436
 20
402.2646037849273
 10
309.05276170986
 20
401.8871946247901
 10
309.1942649992019
 20
401.4958007248725
 10
309.3482573242694
 20
401.0917110356177
 10
309.5147386850625
 20
400.6763709696616
 10
309.6937090815812
 20
400.2513824018325
 10
309.7223919542342
 20
400.1860631617392
 10
309.974730080536
 20
399.6281860383834
 10
310.1669420214206
 20
399.2172567161406
 10
310.4084227891475
 20
398.7181870254363
 10
310.6991742463618
 20
398.1438515695418
 10
311.2815898569137
 20
397.0569012674178
 10
311.7732443572789
 20
396.1948392900313
 10
312.1741377474576
 20
395.5295173438872
 10
312.4842700274497
 20
395.030723324665
 10
313.0183481337339
 20
394.1845087322081
 10
313.1964561255485
 20
393.9128382119025
  0
LWPOLYLINE
  5
FF
330
1903000000000016
100
AcDbEntity
  8
0
  6
Continuous
 62
     8
100
AcDbPolyline
 90
        5
 70
   128
 43
0.0
 10
308.2297202857047
 20
469.2258996876563
 10
308.2559668185025
 20
469.2605001839484
 10
308.1459403695375
 20
469.1154373797263
 10
308.145934781602
 20
469.1154224785651
 10
308.145934781602
 20
469.1154224785651
  0
LWPOLYLINE
  5
100
330
1903000000000016
100
AcDbEntity
  8
0
  6
Continuous
 62
     8
100
AcDbPolyline
 90
       19
 70
   128
 43
0.0
 10
310.7278068275958
 20
467.0679135235633
 10
310.7046709121972
 20
466.980339399227
 10
310.6750269146472
 20
466.8630076559867
 10
310.6334172846585
 20
466.6931195172156
 10
310.5507679940969
 20
466.3429869326438
 10
310.4156256379396
 20
465.6725538882102
 10
310.291213980487
 20
464.8706180962409
 10
310.20225777345
 20
464.0584005030478
 10
310.1307098479778
 20
462.6230163487281
 10
310.2008943172008
 20
461.1856205376471
 10
310.2891036035329
 20
460.3743417176093
 10
310.3464861126453
 20
459.9679423483695
 10
310.4127236367971
 20
459.5734490069236
 10
310.5091527761728
 20
459.0796543272818
 10
310.5819523991853
 20
458.7509347113456
 10
310.6311243684798
 20
458.5465950878943
 10
310.7035142095596
 20
458.2543684157218
 10
310.7280638726264
 20
458.1613404663886
 10
310.7277546735316
 20
458.1625176581229
  0
LINE
  5
101
330
1903000000000016
100
AcDbEntity
  8
0
  6
Continuous
 62
     8
100
AcDbLine
 10
309.2059028060943
 20
446.8337012442435
 30
0.0
 11
309.2059028060943
 21
454.3965322884406
 31
0.0
  0
LWPOLYLINE
  5
102
330
1903000000000016
100
AcDbEntity
  8
0
  6
Continuous
 62
     7
100
AcDbPolyline
 90
        9
 70
   128
 43
0.0
 10
141.8701429428859
 20
210.317356419323
 10
141.9223463671608
 20
210.8623812911492
 10
142.068945853631
 20
211.3820872274619
 10
142.2809321010811
 20
211.8457349953633
 10
142.5085035661562
 20
212.2279982087594
 10
142.6852085205121
 20
212.5100380746108
 10
142.7320861766441
 20
212.6784621742945
 10
142.5610017540259
 20
212.7251232979279
 10
142.0787801543577
 20
212.6501518306714
  0
LWPOLYLINE
  5
103
330
1903000000000016
100
AcDbEntity
  8
0
  6
Continuous
 62
     7
100
AcDbPolyline
 90
        9
 70
   128
 43
0.0
 10
132.728985095988
 20
212.6546873716098
 10
132.2568334216578
 20
212.7480617729407
 10
132.0137298243446
 20
212.7756009814721
 10
131.9775130177243
 20
212.7102910546046
 10
132.1106534960074
 20
212.5242854473572
 10
132.3569980958803
 20
212.1921814051848
 10
132.6401178302569
 20
211.6997818467599
 10
132.8694392504497
 20
211.0584507701379
 10
132.9604653219087
 20
210.317356419323
  0
LINE
  5
104
330
1903000000000016
100
AcDbEntity
  8
0
  6
Continuous
 62
     7
100
AcDbLine
 10
132.9602897676034
 20
210.4176747617703
 30
0.0
 11
133.087223446588
 21
137.6900876877289
 31
0.0
  0
LINE
  5
105
330
1903000000000016
100
AcDbEntity
  8
0
  6
Continuous
 62
     7
100
AcDbLine
 10
141.7433843525453
 20
137.6900876877289
 30
0.0
 11
141.8703180315299
 21
210.4176747617703
 31
0.0
  0
ARC
  5
106
330
1903000000000016
100
AcDbEntity
  8
0
  6
Continuous
 62
     7
100
AcDbCircle
 10
140.2433865090504
 20
137.6927087423783
 30
0.0
 40
1.5
100
AcDbArc
 50
270.0000000000008
 51
359.9000000000024
  0
ARC
  5
107
330
1903000000000016
100
AcDbEntity
  8
0
  6
Continuous
 62
     7
100
AcDbCircle
 10
134.5872212900827
 20
137.6927087423783
 30
0.0
 40
1.5
100
AcDbArc
 50
180.0999999999993
 51
270.0000000000008
  0
ARC
  5
108
330
1903000000000016
100
AcDbEntity
  8
0
  6
Continuous
 62
     7
100
AcDbCircle
 10
160.2696674094833
 20
212.4262941509357
 30
0.0
 40
8.97217600594398
100
AcDbArc
 50
133.879294447755
 51
179.8000409564991
  0
ARC
  5
109
330
1903000000000016
100
AcDbEntity
  8
0
  6
Continuous
 62
     7
100
AcDbCircle
 10
114.5609301406384
 20
212.4262900539038
 30
0.0
 40
8.972186269192433
100
AcDbArc
 50
0.1999849782980198
 51
46.12074378491821
  0
LINE
  5
10A
330
1903000000000016
100
AcDbEntity
  8
0
  6
Continuous
 62
     7
100
AcDbLine
 10
123.532712510447
 20
212.5577962962371
 30
0.0
 11
123.6955794083281
 21
165.9001390454751
 31
0.0
  0
LINE
  5
10B
330
1903000000000016
100
AcDbEntity
  8
0
  6
Continuous
 62
     7
100
AcDbLine
 10
151.1350283908052
 20
165.9001390454751
 30
0.0
 11
151.2978943573637
 21
212.5576063064318
 31
0.0
  0
LWPOLYLINE
  5
10C
330
1903000000000016
100
AcDbEntity
  8
0
  6
Continuous
 62
     7
100
AcDbPolyline
 90
       12
 70
   128
 43
0.0
 10
123.6949628727837
 20
165.9392620441895
 10
123.717683418314
 20
159.227734338997
 10
123.7365734340949
 20
153.221851122139
 10
123.7519858913822
 20
147.8406543848496
 10
123.7642746927543
 20
143.0031935689431
 10
123.7737937407894
 20
138.6285032150727
 10
123.780896938066
 20
134.6356253144723
 10
123.787793381731
 20
129.1851381776314
 10
123.7912420692249
 20
124.1383532998543
 10
123.7922153013153
 20
120.8631898281556
 10
123.7925403328939
 20
117.5650636670571
 10
123.7925692038937
 20
114.1630168077927
  0
LWPOLYLINE
  5
10D
330
1903000000000016
100
AcDbEntity
  8
0
  6
Continuous
 62
     7
100
AcDbPolyline
 90
       12
 70
   128
 43
0.0
 10
151.0380385952396
 20
114.1630168077927
 10
151.0380674662395
 20
117.5650636670571
 10
151.038392497818
 20
120.8631898281556
 10
151.0393657299085
 20
124.1383532998543
 10
151.0428144174023
 20
129.1851381776314
 10
151.0497108610673
 20
134.6356327650529
 10
151.0568140583439
 20
138.6285032150727
 10
151.066333106379
 20
143.0031935689431
 10
151.0786219077511
 20
147.8406543848496
 10
151.0940343650384
 20
153.221851122139
 10
151.1129243808193
 20
159.227734338997
 10
151.1356449263496
 20
165.9392620441895
  0
LINE
  5
10E
330
1903000000000016
100
AcDbEntity
  8
0
  6
Continuous
 62
     7
100
AcDbLine
 10
151.037562689404
 20
109.1321612713319
 30
0.0
 11
151.037562689404
 21
114.1630168077927
 31
0.0
  0
LINE
  5
10F
330
1903000000000016
100
AcDbEntity
  8
0
  6
Continuous
 62
     7
100
AcDbLine
 10
123.7930451097293
 20
114.1630168077927
 30
0.0
 11
123.7930451097293
 21
109.1321612713319
 31
0.0
  0
LWPOLYLINE
  5
110
330
1903000000000016
100
AcDbEntity
  8
0
  6
Continuous
 62
     7
100
AcDbPolyline
 90
       14
 70
   128
 43
0.0
 10
137.4153038995667
 20
97.801541816948
 10
138.3302482353849
 20
97.82702280258948
 10
140.005928980778
 20
98.00746096348578
 10
141.6441835971875
 20
98.359083664177
 10
143.2196288878424
 20
98.87746525978858
 10
144.7082059966726
 20
99.55593003010566
 10
146.086562475781
 20
100.3854925749283
 10
147.3323191093607
 20
101.3545448896867
 10
148.4243860977097
 20
102.4486030457001
 10
149.3436173113389
 20
103.6498601553422
 10
150.0742529096408
 20
104.9380953428727
 10
150.6044297056599
 20
106.2910313723069
 10
150.9266198190255
 20
107.6854522345048
 10
151.0349819945498
 20
109.0662236330491
  0
LWPOLYLINE
  5
111
330
1903000000000016
100
AcDbEntity
  8
0
  6
Continuous
 62
     7
100
AcDbPolyline
 90
       15
 70
   128
 43
0.0
 10
123.7956258045836
 20
109.1980840084534
 10
123.7931056456967
 20
109.1659869072419
 10
123.8932861524029
 20
107.7567095873337
 10
124.2013518276019
 20
106.3723470089417
 10
124.7116188096209
 20
105.0330902454835
 10
125.416364571671
 20
103.7578190681916
 10
126.3055550443335
 20
102.5650109169465
 10
127.3663575338526
 20
101.4726216909867
 10
128.5828576000733
 20
100.4976834175568
 10
129.9361615019245
 20
99.65563369965369
 10
131.4045978287561
 20
98.95980907654578
 10
132.964893760751
 20
98.42077447151954
 10
134.5929008020414
 20
98.04638279652411
 10
136.2638499630941
 20
97.84192396378333
 10
137.4153038995669
 20
97.801541816948
  0
ARC
  5
112
330
1903000000000016
100
AcDbEntity
  8
0
  6
Continuous
 62
     7
100
AcDbCircle
 10
137.4153038995665
 20
236.1927087423783
 30
0.0
 40
24.00000000000002
100
AcDbArc
 50
275.4730792506111
 51
264.5265628846586
  0
ARC
  5
113
330
1903000000000016
100
AcDbEntity
  8
0
  6
Continuous
 62
     7
100
AcDbCircle
 10
137.4151861191538
 20
235.6330636734781
 30
0.0
 40
23.4428807134054
100
AcDbArc
 50
264.3984180669557
 51
275.6013953754284
  0
LINE
  5
114
330
1903000000000016
100
AcDbEntity
  8
0
  6
Continuous
 62
     7
100
AcDbLine
 10
140.2433864349825
 20
136.1927072522622
 30
0.0
 11
134.5872215969814
 21
136.1927072522622
 31
0.0
  0
ARC
  5
115
330
1903000000000016
100
AcDbEntity
  8
0
  6
Continuous
 62
     8
100
AcDbCircle
 10
137.4153038995665
 20
236.1927087423783
 30
0.0
 40
22.50000000000003
100
AcDbArc
 50
275.4754523714204
 51
264.5245739889593
  0
ARC
  5
116
330
1903000000000016
100
AcDbEntity
  8
0
  6
Continuous
 62
     8
100
AcDbCircle
 10
137.4152095812203
 20
232.7194072652948
 30
0.0
 40
19.04534679701401
100
AcDbArc
 50
263.5277716477184
 51
276.4728248626696
  0
ENDSEC
  0
SECTION
  2
OBJECTS
  0
DICTIONARY
  5
190300000000000A
330
0
100
AcDbDictionary
281
     1
  3
ACAD_DETAILVIEWSTYLE
350
1903000000000076
  3
ACAD_GROUP
350
190300000000000B
  3
ACAD_LAYOUT
350
1903000000000013
  3
ACAD_MATERIAL
350
1903000000000067
  3
ACAD_MLEADERSTYLE
350
190300000000006D
  3
ACAD_MLINESTYLE
350
1903000000000010
  3
ACAD_PLOTSETTINGS
350
1903000000000012
  3
ACAD_PLOTSTYLENAME
350
190300000000000C
  3
ACAD_SCALELIST
350
190300000000002C
  3
ACAD_SECTIONVIEWSTYLE
350
1903000000000077
  3
ACAD_TABLESTYLE
350
190300000000006B
  3
ACAD_VISUALSTYLE
350
190300000000004E
  3
ACDB_RECOMPOSE_DATA
350
190300000000007A
  3
AcDbVariableDictionary
350
1903000000000072
  3
APPDATA
350
190300000000006F
  0
DICTIONARY
  5
1903000000000070
330
1903000000000016
100
AcDbDictionary
280
     1
281
     1
  3
DIM_BOUNDING_BOXES_V1
360
1903000000000071
  0
DICTIONARY
  5
1903000000000076
102
{ACAD_REACTORS
330
190300000000000A
102
}
330
190300000000000A
100
AcDbDictionary
281
     1
  0
DICTIONARY
  5
190300000000000B
102
{ACAD_REACTORS
330
190300000000000A
102
}
330
190300000000000A
100
AcDbDictionary
281
     1
  0
DICTIONARY
  5
1903000000000013
102
{ACAD_REACTORS
330
190300000000000A
102
}
330
190300000000000A
100
AcDbDictionary
281
     1
  3
Blatt1
350
1903000000000015
  3
Model
350
1903000000000017
  0
DICTIONARY
  5
1903000000000067
102
{ACAD_REACTORS
330
190300000000000A
102
}
330
190300000000000A
100
AcDbDictionary
281
     1
  3
ByBlock
350
1903000000000069
  3
ByLayer
350
1903000000000068
  3
Global
350
190300000000006A
  0
DICTIONARY
  5
190300000000006D
102
{ACAD_REACTORS
330
190300000000000A
102
}
330
190300000000000A
100
AcDbDictionary
281
     1
  3
Standard
350
190300000000006E
  0
DICTIONARY
  5
1903000000000010
102
{ACAD_REACTORS
330
190300000000000A
102
}
330
190300000000000A
100
AcDbDictionary
281
     1
  3
Standard
350
1903000000000011
  0
DICTIONARY
  5
1903000000000012
102
{ACAD_REACTORS
330
190300000000000A
102
}
330
190300000000000A
100
AcDbDictionary
281
     1
  0
ACDBDICTIONARYWDFLT
  5
190300000000000C
102
{ACAD_REACTORS
330
190300000000000A
102
}
330
190300000000000A
100
AcDbDictionary
281
     1
  3
Normal
350
190300000000000D
100
AcDbDictionaryWithDefault
340
190300000000000D
  0
DICTIONARY
  5
190300000000002C
102
{ACAD_REACTORS
330
190300000000000A
102
}
330
190300000000000A
100
AcDbDictionary
281
     1
  3
A0
350
190300000000002D
  3
A1
350
190300000000002E
  3
A2
350
190300000000002F
  3
A3
350
1903000000000030
  3
A4
350
1903000000000031
  3
A5
350
1903000000000032
  3
A6
350
1903000000000033
  3
A7
350
1903000000000034
  3
A8
350
1903000000000035
  3
A9
350
1903000000000036
  3
B0
350
1903000000000037
  3
B1
350
1903000000000038
  3
B2
350
1903000000000039
  3
B3
350
190300000000003A
  3
B4
350
190300000000003B
  3
B5
350
190300000000003C
  3
B6
350
190300000000003D
  3
B7
350
190300000000003E
  3
B8
350
190300000000003F
  3
B9
350
1903000000000040
  3
C0
350
1903000000000041
  3
C1
350
1903000000000042
  3
C2
350
1903000000000043
  3
C3
350
1903000000000044
  3
C4
350
1903000000000045
  3
C5
350
1903000000000046
  3
C6
350
1903000000000047
  3
C7
350
1903000000000048
  3
C8
350
1903000000000049
  3
C9
350
190300000000004A
  3
D0
350
190300000000004B
  3
D1
350
190300000000004C
  3
D2
350
190300000000004D
  0
DICTIONARY
  5
1903000000000077
102
{ACAD_REACTORS
330
190300000000000A
102
}
330
190300000000000A
100
AcDbDictionary
281
     1
  0
DICTIONARY
  5
190300000000006B
102
{ACAD_REACTORS
330
190300000000000A
102
}
330
190300000000000A
100
AcDbDictionary
281
     1
  3
Standard
350
190300000000006C
  0
DICTIONARY
  5
190300000000004E
102
{ACAD_REACTORS
330
190300000000000A
102
}
330
190300000000000A
100
AcDbDictionary
281
     1
  3
2dWireframe
350
1903000000000053
  3
Basic
350
1903000000000056
  3
Brighten
350
190300000000005A
  3
ColorChange
350
190300000000005E
  3
Conceptual
350
1903000000000058
  3
Dim
350
1903000000000059
  3
EdgeColorOff
350
1903000000000061
  3
Facepattern
350
190300000000005D
  3
Flat
350
190300000000004F
  3
FlatWithEdges
350
1903000000000050
  3
Gouraud
350
1903000000000051
  3
GouraudWithEdges
350
1903000000000052
  3
Hidden
350
1903000000000055
  3
JitterOff
350
190300000000005F
  3
Linepattern
350
190300000000005C
  3
OverhangOff
350
1903000000000060
  3
Realistic
350
1903000000000057
  3
Shaded
350
1903000000000066
  3
Shaded with edges
350
1903000000000065
  3
Shades of Gray
350
1903000000000062
  3
Sketchy
350
1903000000000063
  3
Thicken
350
190300000000005B
  3
Wireframe
350
1903000000000054
  3
X-Ray
350
1903000000000064
  0
XRECORD
  5
190300000000007A
102
{ACAD_REACTORS
330
190300000000000A
102
}
330
190300000000000A
100
AcDbXrecord
280
     1
 90
        1
330
190300000000006C
  0
DICTIONARY
  5
1903000000000072
102
{ACAD_REACTORS
330
190300000000000A
102
}
330
190300000000000A
100
AcDbDictionary
281
     1
  3
CANNOSCALE
350
1903000000000073
  3
CMLEADERSTYLE
350
1903000000000075
  3
CTABLESTYLE
350
1903000000000074
  0
DICTIONARY
  5
190300000000006F
102
{ACAD_REACTORS
330
190300000000000A
102
}
330
190300000000000A
100
AcDbDictionary
281
     1
  0
DICTIONARY
  5
1903000000000071
102
{ACAD_REACTORS
330
1903000000000070
102
}
330
1903000000000070
100
AcDbDictionary
281
     1
  0
LAYOUT
  5
1903000000000015
102
{ACAD_REACTORS
330
1903000000000013
102
}
330
1903000000000013
100
AcDbPlotSettings
  1

  2
none_device
  4

  6

 40
0.0
 41
0.0
 42
0.0
 43
0.0
 44
0.0
 45
0.0
 46
0.0
 47
0.0
 48
0.0
 49
0.0
140
0.0
141
0.0
142
1.0
143
1.0
 70
   688
 72
     0
 73
     0
 74
     5
  7

 75
    16
 76
     0
 77
     2
 78
   300
147
1.0
148
0.0
149
0.0
100
AcDbLayout
  1
Blatt1
 70
     1
 71
     1
 10
0.0
 20
0.0
 11
0.0
 21
0.0
 12
0.0
 22
0.0
 32
0.0
 14
1.000000000000000E+20
 24
1.000000000000000E+20
 34
1.000000000000000E+20
 15
-1.000000000000000E+20
 25
-1.000000000000000E+20
 35
-1.000000000000000E+20
146
0.0
 13
0.0
 23
0.0
 33
0.0
 16
1.0
 26
0.0
 36
0.0
 17
0.0
 27
1.0
 37
0.0
 76
     0
330
1903000000000014
  0
LAYOUT
  5
1903000000000017
102
{ACAD_REACTORS
330
1903000000000013
102
}
330
1903000000000013
100
AcDbPlotSettings
  1

  2
none_device
  4
Letter_(8.50_x_11.00_Inches)
  6

 40
6.35
 41
6.35
 42
6.35
 43
6.35
 44
215.9
 45
279.4
 46
0.0
 47
0.0
 48
0.0
 49
0.0
140
0.0
141
0.0
142
1.0
143
1.0
 70
  1712
 72
     0
 73
     0
 74
     0
  7

 75
     0
 76
     0
 77
     2
 78
   300
147
1.0
148
0.0
149
0.0
100
AcDbLayout
  1
Model
 70
     1
 71
     0
 10
0.0
 20
0.0
 11
594.0
 21
841.0
 12
0.0
 22
0.0
 32
0.0
 14
33.76143973321012
 24
37.46023423127906
 34
-0.0000000000000272
 15
520.6771150097463
 25
470.6151203112907
 35
0.0000000000001046
146
0.0
 13
0.0
 23
0.0
 33
0.0
 16
1.0
 26
0.0
 36
0.0
 17
0.0
 27
1.0
 37
0.0
 76
     0
330
1903000000000016
331
1903000000000023
  0
MATERIAL
  5
1903000000000069
102
{ACAD_REACTORS
330
1903000000000067
102
}
330
1903000000000067
100
AcDbMaterial
  1
ByBlock
 72
     1
 94
      127
  0
MATERIAL
  5
1903000000000068
102
{ACAD_REACTORS
330
1903000000000067
102
}
330
1903000000000067
100
AcDbMaterial
  1
ByLayer
 72
     1
 94
      127
  0
MATERIAL
  5
190300000000006A
102
{ACAD_REACTORS
330
1903000000000067
102
}
330
1903000000000067
100
AcDbMaterial
  1
Global
 72
     1
 94
      127
  0
MLEADERSTYLE
  5
190300000000006E
102
{ACAD_REACTORS
330
190300000000006D
102
}
330
190300000000006D
100
AcDbMLeaderStyle
179
     2
170
     2
171
     1
172
     0
 90
        2
 40
0.0
 41
0.0
173
     1
 91
-1056964608
340
190300000000000E
 92
       -2
290
     1
 42
0.09
291
     1
 43
0.36
  3
Standard
341
0
 44
0.18
300

342
1903000000000025
174
     1
178
     1
175
     1
176
     0
 93
-1056964608
 45
0.18
292
     0
297
     0
 46
0.18
343
0
 94
-1056964608
 47
1.0
 49
1.0
140
1.0
293
     1
141
0.0
294
     1
177
     0
142
1.0
295
     0
296
     0
143
0.125
271
     0
272
     9
273
     9
298
     0
  0
MLINESTYLE
  5
1903000000000011
102
{ACAD_REACTORS
330
1903000000000010
102
}
330
1903000000000010
100
AcDbMlineStyle
  2
Standard
 70
     0
  3

 62
   256
 51
90.0
 52
90.0
 71
     2
 49
0.5
 62
   256
  6
BYLAYER
 49
-0.5
 62
   256
  6
BYLAYER
  0
ACDBPLACEHOLDER
  5
190300000000000D
102
{ACAD_REACTORS
330
190300000000000C
102
}
330
190300000000000C
  0
SCALE
  5
190300000000002D
102
{ACAD_REACTORS
330
190300000000002C
102
}
330
190300000000002C
100
AcDbScale
 70
     0
300
1:1
140
1.0
141
1.0
290
     1
  0
SCALE
  5
190300000000002E
102
{ACAD_REACTORS
330
190300000000002C
102
}
330
190300000000002C
100
AcDbScale
 70
     0
300
1:2
140
1.0
141
2.0
290
     0
  0
SCALE
  5
190300000000002F
102
{ACAD_REACTORS
330
190300000000002C
102
}
330
190300000000002C
100
AcDbScale
 70
     0
300
1:4
140
1.0
141
4.0
290
     0
  0
SCALE
  5
1903000000000030
102
{ACAD_REACTORS
330
190300000000002C
102
}
330
190300000000002C
100
AcDbScale
 70
     0
300
1:5
140
1.0
141
5.0
290
     0
  0
SCALE
  5
1903000000000031
102
{ACAD_REACTORS
330
190300000000002C
102
}
330
190300000000002C
100
AcDbScale
 70
     0
300
1:8
140
1.0
141
8.0
290
     0
  0
SCALE
  5
1903000000000032
102
{ACAD_REACTORS
330
190300000000002C
102
}
330
190300000000002C
100
AcDbScale
 70
     0
300
1:10
140
1.0
141
10.0
290
     0
  0
SCALE
  5
1903000000000033
102
{ACAD_REACTORS
330
190300000000002C
102
}
330
190300000000002C
100
AcDbScale
 70
     0
300
1:16
140
1.0
141
16.0
290
     0
  0
SCALE
  5
1903000000000034
102
{ACAD_REACTORS
330
190300000000002C
102
}
330
190300000000002C
100
AcDbScale
 70
     0
300
1:20
140
1.0
141
20.0
290
     0
  0
SCALE
  5
1903000000000035
102
{ACAD_REACTORS
330
190300000000002C
102
}
330
190300000000002C
100
AcDbScale
 70
     0
300
1:30
140
1.0
141
30.0
290
     0
  0
SCALE
  5
1903000000000036
102
{ACAD_REACTORS
330
190300000000002C
102
}
330
190300000000002C
100
AcDbScale
 70
     0
300
1:40
140
1.0
141
40.0
290
     0
  0
SCALE
  5
1903000000000037
102
{ACAD_REACTORS
330
190300000000002C
102
}
330
190300000000002C
100
AcDbScale
 70
     0
300
1:50
140
1.0
141
50.0
290
     0
  0
SCALE
  5
1903000000000038
102
{ACAD_REACTORS
330
190300000000002C
102
}
330
190300000000002C
100
AcDbScale
 70
     0
300
1:100
140
1.0
141
100.0
290
     0
  0
SCALE
  5
1903000000000039
102
{ACAD_REACTORS
330
190300000000002C
102
}
330
190300000000002C
100
AcDbScale
 70
     0
300
2:1
140
2.0
141
1.0
290
     0
  0
SCALE
  5
190300000000003A
102
{ACAD_REACTORS
330
190300000000002C
102
}
330
190300000000002C
100
AcDbScale
 70
     0
300
4:1
140
4.0
141
1.0
290
     0
  0
SCALE
  5
190300000000003B
102
{ACAD_REACTORS
330
190300000000002C
102
}
330
190300000000002C
100
AcDbScale
 70
     0
300
8:1
140
8.0
141
1.0
290
     0
  0
SCALE
  5
190300000000003C
102
{ACAD_REACTORS
330
190300000000002C
102
}
330
190300000000002C
100
AcDbScale
 70
     0
300
10:1
140
10.0
141
1.0
290
     0
  0
SCALE
  5
190300000000003D
102
{ACAD_REACTORS
330
190300000000002C
102
}
330
190300000000002C
100
AcDbScale
 70
     0
300
100:1
140
100.0
141
1.0
290
     0
  0
SCALE
  5
190300000000003E
102
{ACAD_REACTORS
330
190300000000002C
102
}
330
190300000000002C
100
AcDbScale
 70
     0
300
1/128" = 1'-0"
140
0.0078125
141
12.0
290
     0
  0
SCALE
  5
190300000000003F
102
{ACAD_REACTORS
330
190300000000002C
102
}
330
190300000000002C
100
AcDbScale
 70
     0
300
1/64" = 1'-0"
140
0.015625
141
12.0
290
     0
  0
SCALE
  5
1903000000000040
102
{ACAD_REACTORS
330
190300000000002C
102
}
330
190300000000002C
100
AcDbScale
 70
     0
300
1/32" = 1'-0"
140
0.03125
141
12.0
290
     0
  0
SCALE
  5
1903000000000041
102
{ACAD_REACTORS
330
190300000000002C
102
}
330
190300000000002C
100
AcDbScale
 70
     0
300
1/16" = 1'-0"
140
0.0625
141
12.0
290
     0
  0
SCALE
  5
1903000000000042
102
{ACAD_REACTORS
330
190300000000002C
102
}
330
190300000000002C
100
AcDbScale
 70
     0
300
3/32" = 1'-0"
140
0.09375
141
12.0
290
     0
  0
SCALE
  5
1903000000000043
102
{ACAD_REACTORS
330
190300000000002C
102
}
330
190300000000002C
100
AcDbScale
 70
     0
300
1/8" = 1'-0"
140
0.125
141
12.0
290
     0
  0
SCALE
  5
1903000000000044
102
{ACAD_REACTORS
330
190300000000002C
102
}
330
190300000000002C
100
AcDbScale
 70
     0
300
3/16" = 1'-0"
140
0.1875
141
12.0
290
     0
  0
SCALE
  5
1903000000000045
102
{ACAD_REACTORS
330
190300000000002C
102
}
330
190300000000002C
100
AcDbScale
 70
     0
300
1/4" = 1'-0"
140
0.25
141
12.0
290
     0
  0
SCALE
  5
1903000000000046
102
{ACAD_REACTORS
330
190300000000002C
102
}
330
190300000000002C
100
AcDbScale
 70
     0
300
3/8" = 1'-0"
140
0.375
141
12.0
290
     0
  0
SCALE
  5
1903000000000047
102
{ACAD_REACTORS
330
190300000000002C
102
}
330
190300000000002C
100
AcDbScale
 70
     0
300
1/2" = 1'-0"
140
0.5
141
12.0
290
     0
  0
SCALE
  5
1903000000000048
102
{ACAD_REACTORS
330
190300000000002C
102
}
330
190300000000002C
100
AcDbScale
 70
     0
300
3/4" = 1'-0"
140
0.75
141
12.0
290
     0
  0
SCALE
  5
1903000000000049
102
{ACAD_REACTORS
330
190300000000002C
102
}
330
190300000000002C
100
AcDbScale
 70
     0
300
1" = 1'-0"
140
1.0
141
12.0
290
     0
  0
SCALE
  5
190300000000004A
102
{ACAD_REACTORS
330
190300000000002C
102
}
330
190300000000002C
100
AcDbScale
 70
     0
300
1-1/2" = 1'-0"
140
1.5
141
12.0
290
     0
  0
SCALE
  5
190300000000004B
102
{ACAD_REACTORS
330
190300000000002C
102
}
330
190300000000002C
100
AcDbScale
 70
     0
300
3" = 1'-0"
140
3.0
141
12.0
290
     0
  0
SCALE
  5
190300000000004C
102
{ACAD_REACTORS
330
190300000000002C
102
}
330
190300000000002C
100
AcDbScale
 70
     0
300
6" = 1'-0"
140
6.0
141
12.0
290
     0
  0
SCALE
  5
190300000000004D
102
{ACAD_REACTORS
330
190300000000002C
102
}
330
190300000000002C
100
AcDbScale
 70
     0
300
1'-0" = 1'-0"
140
12.0
141
12.0
290
     0
  0
TABLESTYLE
  5
190300000000006C
102
{ACAD_REACTORS
330
190300000000006B
102
}
102
{ACAD_XDICTIONARY
360
1903000000000078
102
}
330
190300000000006B
100
AcDbTableStyle
  3
Standard
 70
     0
 71
     0
 40
0.06
 41
0.06
280
     0
281
     0
  7
STANDARD
140
0.18
170
     2
 62
     0
 63
   257
283
     0
 90
        4
 91
        0
  1

274
    -2
284
     1
 64
     0
275
    -2
285
     1
 65
     0
276
    -2
286
     1
 66
     0
277
    -2
287
     1
 67
     0
278
    -2
288
     1
 68
     0
279
    -2
289
     1
 69
     0
  7
STANDARD
140
0.25
170
     5
 62
     0
 63
   257
283
     0
 90
        4
 91
        0
  1

274
    -2
284
     1
 64
     0
275
    -2
285
     1
 65
     0
276
    -2
286
     1
 66
     0
277
    -2
287
     1
 67
     0
278
    -2
288
     1
 68
     0
279
    -2
289
     1
 69
     0
  7
STANDARD
140
0.18
170
     5
 62
     0
 63
   257
283
     0
 90
        4
 91
        0
  1

274
    -2
284
     1
 64
     0
275
    -2
285
     1
 65
     0
276
    -2
286
     1
 66
     0
277
    -2
287
     1
 67
     0
278
    -2
288
     1
 68
     0
279
    -2
289
     1
 69
     0
  0
VISUALSTYLE
  5
1903000000000053
102
{ACAD_REACTORS
330
190300000000004E
102
}
330
190300000000004E
100
AcDbVisualStyle
  2
2dWireframe
 70
     4
177
     3
291
     0
 70
    58
 90
        0
176
     1
 90
        2
176
     1
 90
        0
176
     1
 90
        0
176
     1
 40
0.6
176
     1
 40
30.0
176
     1
 62
     7
420
 16777215
176
     1
 90
        1
176
     1
 90
        4
176
     1
 62
     7
176
     1
 62
   257
176
     1
 90
        1
176
     1
 90
        1
176
     1
 40
1.0
176
     1
 90
        0
176
     1
 62
   257
176
     1
 40
1.0
176
     1
 90
        1
176
     1
 90
        6
176
     1
 90
        2
176
     1
 62
     7
176
     1
 90
        5
176
     1
 90
        0
176
     1
 90
        0
176
     1
290
     0
176
     1
 90
        1
176
     1
 40
0.0
176
     1
 90
        0
176
     1
290
     1
176
     1
290
     1
176
     1
290
     0
176
     1
290
     0
176
     1
290
     0
176
     1
290
     0
176
     1
290
     0
176
     1
290
     0
176
     1
290
     0
176
     1
 90
       50
176
     1
 40
0.0
176
     1
 40
1.0
176
     1
 90
        0
176
     1
 62
    18
420
        0
176
     1
 90
       50
176
     1
 90
        3
176
     1
 62
     5
420
      255
176
     1
290
     0
176
     1
 90
       50
176
     1
 90
       50
176
     1
 90
       50
176
     1
290
     0
176
     1
 90
       50
176
     1
 62
   256
176
     0
 40
1.0
176
     0
 90
        2
176
     1
  1
strokes_ogs.tif
176
     1
290
     0
176
     1
 40
1.0
176
     1
 40
1.0
176
     1
  0
VISUALSTYLE
  5
1903000000000056
102
{ACAD_REACTORS
330
190300000000004E
102
}
330
190300000000004E
100
AcDbVisualStyle
  2
Basic
 70
     7
177
     3
291
     1
 70
    58
 90
        1
176
     1
 90
        0
176
     1
 90
        1
176
     1
 90
        0
176
     1
 40
0.6
176
     1
 40
30.0
176
     1
 62
     7
420
 16777215
176
     1
 90
        0
176
     1
 90
        4
176
     1
 62
     7
176
     1
 62
   257
176
     1
 90
        1
176
     1
 90
        1
176
     1
 40
1.0
176
     1
 90
        8
176
     1
 62
     7
176
     1
 40
1.0
176
     1
 90
        1
176
     1
 90
        6
176
     1
 90
        2
176
     1
 62
     7
176
     1
 90
        5
176
     1
 90
        0
176
     1
 90
        0
176
     1
290
     0
176
     1
 90
        1
176
     1
 40
0.0
176
     1
 90
        0
176
     1
290
     0
176
     1
290
     1
176
     1
290
     1
176
     1
290
     0
176
     1
290
     0
176
     1
290
     0
176
     1
290
     0
176
     1
290
     0
176
     1
290
     0
176
     1
 90
       50
176
     1
 40
0.0
176
     1
 40
1.0
176
     1
 90
        0
176
     1
 62
    18
420
        0
176
     1
 90
       50
176
     1
 90
        3
176
     1
 62
     5
420
      255
176
     1
290
     0
176
     1
 90
       50
176
     1
 90
       50
176
     1
 90
       50
176
     1
290
     0
176
     1
 90
       50
176
     1
 62
   256
176
     0
 40
1.0
176
     0
 90
        2
176
     1
  1
strokes_ogs.tif
176
     1
290
     0
176
     1
 40
1.0
176
     1
 40
1.0
176
     1
  0
VISUALSTYLE
  5
190300000000005A
102
{ACAD_REACTORS
330
190300000000004E
102
}
330
190300000000004E
100
AcDbVisualStyle
  2
Brighten
 70
    12
177
     3
291
     1
 70
    58
 90
        2
176
     1
 90
        2
176
     1
 90
        0
176
     1
 90
        0
176
     1
 40
0.6
176
     1
 40
30.0
176
     1
 62
     7
420
 16777215
176
     1
 90
        1
176
     1
 90
        4
176
     1
 62
     7
176
     1
 62
   257
176
     1
 90
        1
176
     1
 90
        1
176
     1
 40
1.0
176
     1
 90
        8
176
     1
 62
     7
176
     1
 40
1.0
176
     1
 90
        1
176
     1
 90
        6
176
     1
 90
        2
176
     1
 62
     7
176
     1
 90
        5
176
     1
 90
        0
176
     1
 90
        0
176
     1
290
     0
176
     1
 90
        1
176
     1
 40
50.0
176
     1
 90
        0
176
     1
290
     0
176
     1
290
     1
176
     1
290
     1
176
     1
290
     0
176
     1
290
     0
176
     1
290
     0
176
     1
290
     0
176
     1
290
     0
176
     1
290
     0
176
     1
 90
       50
176
     1
 40
0.0
176
     1
 40
1.0
176
     1
 90
        0
176
     1
 62
    18
420
        0
176
     1
 90
       50
176
     1
 90
        3
176
     1
 62
     5
420
      255
176
     1
290
     0
176
     1
 90
       50
176
     1
 90
       50
176
     1
 90
       50
176
     1
290
     0
176
     1
 90
       50
176
     1
 62
   256
176
     0
 40
1.0
176
     0
 90
        2
176
     1
  1
strokes_ogs.tif
176
     1
290
     0
176
     1
 40
1.0
176
     1
 40
1.0
176
     1
  0
VISUALSTYLE
  5
190300000000005E
102
{ACAD_REACTORS
330
190300000000004E
102
}
330
190300000000004E
100
AcDbVisualStyle
  2
ColorChange
 70
    16
177
     3
291
     1
 70
    58
 90
        2
176
     1
 90
        2
176
     1
 90
        3
176
     1
 90
        0
176
     1
 40
0.6
176
     1
 40
30.0
176
     1
 62
     8
420
  8421504
176
     1
 90
        1
176
     1
 90
        4
176
     1
 62
     7
176
     1
 62
   257
176
     1
 90
        1
176
     1
 90
        1
176
     1
 40
1.0
176
     1
 90
        8
176
     1
 62
     8
420
  8421504
176
     1
 40
1.0
176
     1
 90
        1
176
     1
 90
        6
176
     1
 90
        2
176
     1
 62
     7
176
     1
 90
        5
176
     1
 90
        0
176
     1
 90
        0
176
     1
290
     0
176
     1
 90
        1
176
     1
 40
0.0
176
     1
 90
        0
176
     1
290
     0
176
     1
290
     1
176
     1
290
     1
176
     1
290
     0
176
     1
290
     0
176
     1
290
     0
176
     1
290
     0
176
     1
290
     0
176
     1
290
     0
176
     1
 90
       50
176
     1
 40
0.0
176
     1
 40
1.0
176
     1
 90
        0
176
     1
 62
    18
420
        0
176
     1
 90
       50
176
     1
 90
        3
176
     1
 62
     5
420
      255
176
     1
290
     0
176
     1
 90
       50
176
     1
 90
       50
176
     1
 90
       50
176
     1
290
     0
176
     1
 90
       50
176
     1
 62
   256
176
     0
 40
1.0
176
     0
 90
        2
176
     1
  1
strokes_ogs.tif
176
     1
290
     0
176
     1
 40
1.0
176
     1
 40
1.0
176
     1
  0
VISUALSTYLE
  5
1903000000000058
102
{ACAD_REACTORS
330
190300000000004E
102
}
330
190300000000004E
100
AcDbVisualStyle
  2
Conceptual
 70
     9
177
     3
291
     0
 70
    58
 90
        3
176
     1
 90
        2
176
     1
 90
        0
176
     1
 90
        0
176
     1
 40
0.6
176
     1
 40
30.0
176
     1
 62
     7
420
 16777215
176
     1
 90
        2
176
     1
 90
        2
176
     1
 62
     7
176
     1
 62
   257
176
     1
 90
        1
176
     1
 90
        1
176
     1
 40
179.0
176
     1
 90
        8
176
     1
 62
     7
176
     1
 40
1.0
176
     1
 90
        1
176
     1
 90
        6
176
     1
 90
        2
176
     1
 62
     7
176
     1
 90
        3
176
     1
 90
        0
176
     1
 90
        0
176
     1
290
     0
176
     1
 90
        1
176
     1
 40
0.0
176
     1
 90
        0
176
     1
290
     0
176
     1
290
     1
176
     1
290
     1
176
     1
290
     0
176
     1
290
     0
176
     1
290
     0
176
     1
290
     0
176
     1
290
     0
176
     1
290
     0
176
     1
 90
       50
176
     1
 40
0.0
176
     1
 40
1.0
176
     1
 90
        0
176
     1
 62
    18
420
        0
176
     1
 90
       50
176
     1
 90
        3
176
     1
 62
     5
420
      255
176
     1
290
     0
176
     1
 90
       50
176
     1
 90
       50
176
     1
 90
       50
176
     1
290
     0
176
     1
 90
       50
176
     1
 62
   256
176
     0
 40
1.0
176
     0
 90
        2
176
     1
  1
strokes_ogs.tif
176
     1
290
     0
176
     1
 40
1.0
176
     1
 40
1.0
176
     1
  0
VISUALSTYLE
  5
1903000000000059
102
{ACAD_REACTORS
330
190300000000004E
102
}
330
190300000000004E
100
AcDbVisualStyle
  2
Dim
 70
    11
177
     3
291
     1
 70
    58
 90
        2
176
     1
 90
        2
176
     1
 90
        0
176
     1
 90
        0
176
     1
 40
0.6
176
     1
 40
30.0
176
     1
 62
     7
420
 16777215
176
     1
 90
        1
176
     1
 90
        4
176
     1
 62
     7
176
     1
 62
   257
176
     1
 90
        1
176
     1
 90
        1
176
     1
 40
1.0
176
     1
 90
        8
176
     1
 62
     7
176
     1
 40
1.0
176
     1
 90
        1
176
     1
 90
        6
176
     1
 90
        2
176
     1
 62
     7
176
     1
 90
        5
176
     1
 90
        0
176
     1
 90
        0
176
     1
290
     0
176
     1
 90
        1
176
     1
 40
-50.0
176
     1
 90
        0
176
     1
290
     0
176
     1
290
     1
176
     1
290
     1
176
     1
290
     0
176
     1
290
     0
176
     1
290
     0
176
     1
290
     0
176
     1
290
     0
176
     1
290
     0
176
     1
 90
       50
176
     1
 40
0.0
176
     1
 40
1.0
176
     1
 90
        0
176
     1
 62
    18
420
        0
176
     1
 90
       50
176
     1
 90
        3
176
     1
 62
     5
420
      255
176
     1
290
     0
176
     1
 90
       50
176
     1
 90
       50
176
     1
 90
       50
176
     1
290
     0
176
     1
 90
       50
176
     1
 62
   256
176
     0
 40
1.0
176
     0
 90
        2
176
     1
  1
strokes_ogs.tif
176
     1
290
     0
176
     1
 40
1.0
176
     1
 40
1.0
176
     1
  0
VISUALSTYLE
  5
1903000000000061
102
{ACAD_REACTORS
330
190300000000004E
102
}
330
190300000000004E
100
AcDbVisualStyle
  2
EdgeColorOff
 70
    22
177
     3
291
     1
 70
    58
 90
        2
176
     0
 90
        2
176
     0
 90
        0
176
     0
 90
        0
176
     0
 40
0.6
176
     0
 40
30.0
176
     0
 62
     7
420
 16777215
176
     0
 90
        1
176
     0
 90
        4
176
     0
 62
     7
176
     0
 62
   257
176
     0
 90
        1
176
     0
 90
        1
176
     0
 40
1.0
176
     0
 90
        8
176
     2
 62
     7
176
     0
 40
1.0
176
     0
 90
        1
176
     0
 90
        6
176
     0
 90
        2
176
     0
 62
     7
176
     0
 90
        5
176
     0
 90
        0
176
     0
 90
        0
176
     0
290
     0
176
     0
 90
        1
176
     0
 40
0.0
176
     0
 90
        0
176
     0
290
     0
176
     0
290
     1
176
     0
290
     1
176
     0
290
     0
176
     0
290
     0
176
     0
290
     0
176
     0
290
     0
176
     0
290
     0
176
     0
290
     0
176
     0
 90
       50
176
     0
 40
0.0
176
     0
 40
1.0
176
     0
 90
        0
176
     0
 62
    18
420
        0
176
     0
 90
       50
176
     0
 90
        3
176
     0
 62
     5
420
      255
176
     0
290
     0
176
     0
 90
       50
176
     0
 90
       50
176
     0
 90
       50
176
     0
290
     0
176
     0
 90
       50
176
     0
 62
   256
176
     0
 40
1.0
176
     0
 90
        2
176
     0
  1
strokes_ogs.tif
176
     0
290
     0
176
     0
 40
1.0
176
     0
 40
1.0
176
     0
  0
VISUALSTYLE
  5
190300000000005D
102
{ACAD_REACTORS
330
190300000000004E
102
}
330
190300000000004E
100
AcDbVisualStyle
  2
Facepattern
 70
    15
177
     3
291
     1
 70
    58
 90
        2
176
     1
 90
        2
176
     1
 90
        0
176
     1
 90
        0
176
     1
 40
0.6
176
     1
 40
30.0
176
     1
 62
     7
420
 16777215
176
     1
 90
        1
176
     1
 90
        4
176
     1
 62
     7
176
     1
 62
   257
176
     1
 90
        1
176
     1
 90
        1
176
     1
 40
1.0
176
     1
 90
        8
176
     1
 62
     7
176
     1
 40
1.0
176
     1
 90
        1
176
     1
 90
        6
176
     1
 90
        2
176
     1
 62
     7
176
     1
 90
        5
176
     1
 90
        0
176
     1
 90
        0
176
     1
290
     0
176
     1
 90
        1
176
     1
 40
0.0
176
     1
 90
        0
176
     1
290
     0
176
     1
290
     1
176
     1
290
     1
176
     1
290
     0
176
     1
290
     0
176
     1
290
     0
176
     1
290
     0
176
     1
290
     0
176
     1
290
     0
176
     1
 90
       50
176
     1
 40
0.0
176
     1
 40
1.0
176
     1
 90
        0
176
     1
 62
    18
420
        0
176
     1
 90
       50
176
     1
 90
        3
176
     1
 62
     5
420
      255
176
     1
290
     0
176
     1
 90
       50
176
     1
 90
       50
176
     1
 90
       50
176
     1
290
     0
176
     1
 90
       50
176
     1
 62
   256
176
     0
 40
1.0
176
     0
 90
        2
176
     1
  1
strokes_ogs.tif
176
     1
290
     0
176
     1
 40
1.0
176
     1
 40
1.0
176
     1
  0
VISUALSTYLE
  5
190300000000004F
102
{ACAD_REACTORS
330
190300000000004E
102
}
330
190300000000004E
100
AcDbVisualStyle
  2
Flat
 70
     0
177
     3
291
     1
 70
    58
 90
        2
176
     1
 90
        1
176
     1
 90
        1
176
     1
 90
        2
176
     1
 40
0.6
176
     1
 40
30.0
176
     1
 62
     7
420
 16777215
176
     1
 90
        0
176
     1
 90
        0
176
     1
 62
     7
176
     1
 62
   257
176
     1
 90
        1
176
     1
 90
        1
176
     1
 40
1.0
176
     1
 90
        8
176
     1
 62
     7
176
     1
 40
1.0
176
     1
 90
        1
176
     1
 90
        6
176
     1
 90
        2
176
     1
 62
     7
176
     1
 90
        5
176
     1
 90
        0
176
     1
 90
        0
176
     1
290
     0
176
     1
 90
       13
176
     1
 40
0.0
176
     1
 90
        0
176
     1
290
     0
176
     1
290
     1
176
     1
290
     1
176
     1
290
     0
176
     1
290
     0
176
     1
290
     0
176
     1
290
     0
176
     1
290
     0
176
     1
290
     0
176
     1
 90
       50
176
     1
 40
0.0
176
     1
 40
1.0
176
     1
 90
        0
176
     1
 62
    18
420
        0
176
     1
 90
       50
176
     1
 90
        3
176
     1
 62
     5
420
      255
176
     1
290
     0
176
     1
 90
       50
176
     1
 90
       50
176
     1
 90
       50
176
     1
290
     0
176
     1
 90
       50
176
     1
 62
   256
176
     0
 40
1.0
176
     0
 90
        2
176
     1
  1
strokes_ogs.tif
176
     1
290
     0
176
     1
 40
1.0
176
     1
 40
1.0
176
     1
  0
VISUALSTYLE
  5
1903000000000050
102
{ACAD_REACTORS
330
190300000000004E
102
}
330
190300000000004E
100
AcDbVisualStyle
  2
FlatWithEdges
 70
     1
177
     3
291
     1
 70
    58
 90
        2
176
     1
 90
        1
176
     1
 90
        1
176
     1
 90
        2
176
     1
 40
0.6
176
     1
 40
30.0
176
     1
 62
     7
420
 16777215
176
     1
 90
        1
176
     1
 90
        0
176
     1
 62
     7
176
     1
 62
   257
176
     1
 90
        1
176
     1
 90
        1
176
     1
 40
1.0
176
     1
 90
        0
176
     1
 62
   257
176
     1
 40
1.0
176
     1
 90
        1
176
     1
 90
        6
176
     1
 90
        2
176
     1
 62
     7
176
     1
 90
        5
176
     1
 90
        0
176
     1
 90
        0
176
     1
290
     0
176
     1
 90
       13
176
     1
 40
0.0
176
     1
 90
        0
176
     1
290
     0
176
     1
290
     1
176
     1
290
     1
176
     1
290
     0
176
     1
290
     0
176
     1
290
     0
176
     1
290
     0
176
     1
290
     0
176
     1
290
     0
176
     1
 90
       50
176
     1
 40
0.0
176
     1
 40
1.0
176
     1
 90
        0
176
     1
 62
    18
420
        0
176
     1
 90
       50
176
     1
 90
        3
176
     1
 62
     5
420
      255
176
     1
290
     0
176
     1
 90
       50
176
     1
 90
       50
176
     1
 90
       50
176
     1
290
     0
176
     1
 90
       50
176
     1
 62
   256
176
     0
 40
1.0
176
     0
 90
        2
176
     1
  1
strokes_ogs.tif
176
     1
290
     0
176
     1
 40
1.0
176
     1
 40
1.0
176
     1
  0
VISUALSTYLE
  5
1903000000000051
102
{ACAD_REACTORS
330
190300000000004E
102
}
330
190300000000004E
100
AcDbVisualStyle
  2
Gouraud
 70
     2
177
     3
291
     1
 70
    58
 90
        2
176
     1
 90
        2
176
     1
 90
        1
176
     1
 90
        2
176
     1
 40
0.6
176
     1
 40
30.0
176
     1
 62
     7
420
 16777215
176
     1
 90
        0
176
     1
 90
        0
176
     1
 62
     7
176
     1
 62
   257
176
     1
 90
        1
176
     1
 90
        1
176
     1
 40
1.0
176
     1
 90
        0
176
     1
 62
     7
176
     1
 40
1.0
176
     1
 90
        1
176
     1
 90
        6
176
     1
 90
        2
176
     1
 62
     7
176
     1
 90
        5
176
     1
 90
        0
176
     1
 90
        0
176
     1
290
     0
176
     1
 90
       13
176
     1
 40
0.0
176
     1
 90
        0
176
     1
290
     0
176
     1
290
     1
176
     1
290
     1
176
     1
290
     0
176
     1
290
     0
176
     1
290
     0
176
     1
290
     0
176
     1
290
     0
176
     1
290
     0
176
     1
 90
       50
176
     1
 40
0.0
176
     1
 40
1.0
176
     1
 90
        0
176
     1
 62
    18
420
        0
176
     1
 90
       50
176
     1
 90
        3
176
     1
 62
     5
420
      255
176
     1
290
     0
176
     1
 90
       50
176
     1
 90
       50
176
     1
 90
       50
176
     1
290
     0
176
     1
 90
       50
176
     1
 62
   256
176
     0
 40
1.0
176
     0
 90
        2
176
     1
  1
strokes_ogs.tif
176
     1
290
     0
176
     1
 40
1.0
176
     1
 40
1.0
176
     1
  0
VISUALSTYLE
  5
1903000000000052
102
{ACAD_REACTORS
330
190300000000004E
102
}
330
190300000000004E
100
AcDbVisualStyle
  2
GouraudWithEdges
 70
     3
177
     3
291
     1
 70
    58
 90
        2
176
     1
 90
        2
176
     1
 90
        1
176
     1
 90
        2
176
     1
 40
0.6
176
     1
 40
30.0
176
     1
 62
     7
420
 16777215
176
     1
 90
        1
176
     1
 90
        0
176
     1
 62
     7
176
     1
 62
   257
176
     1
 90
        1
176
     1
 90
        1
176
     1
 40
1.0
176
     1
 90
        0
176
     1
 62
   257
176
     1
 40
1.0
176
     1
 90
        1
176
     1
 90
        6
176
     1
 90
        2
176
     1
 62
     7
176
     1
 90
        5
176
     1
 90
        0
176
     1
 90
        0
176
     1
290
     0
176
     1
 90
       13
176
     1
 40
0.0
176
     1
 90
        0
176
     1
290
     0
176
     1
290
     1
176
     1
290
     1
176
     1
290
     0
176
     1
290
     0
176
     1
290
     0
176
     1
290
     0
176
     1
290
     0
176
     1
290
     0
176
     1
 90
       50
176
     1
 40
0.0
176
     1
 40
1.0
176
     1
 90
        0
176
     1
 62
    18
420
        0
176
     1
 90
       50
176
     1
 90
        3
176
     1
 62
     5
420
      255
176
     1
290
     0
176
     1
 90
       50
176
     1
 90
       50
176
     1
 90
       50
176
     1
290
     0
176
     1
 90
       50
176
     1
 62
   256
176
     0
 40
1.0
176
     0
 90
        2
176
     1
  1
strokes_ogs.tif
176
     1
290
     0
176
     1
 40
1.0
176
     1
 40
1.0
176
     1
  0
VISUALSTYLE
  5
1903000000000055
102
{ACAD_REACTORS
330
190300000000004E
102
}
330
190300000000004E
100
AcDbVisualStyle
  2
Hidden
 70
     6
177
     3
291
     0
 70
    58
 90
        1
176
     1
 90
        2
176
     1
 90
        2
176
     1
 90
        0
176
     1
 40
0.6
176
     1
 40
30.0
176
     1
 62
     7
420
 16777215
176
     1
 90
        2
176
     1
 90
        2
176
     1
 62
     7
176
     1
 62
   257
176
     1
 90
        2
176
     1
 90
        1
176
     1
 40
40.0
176
     1
 90
        0
176
     1
 62
   257
176
     1
 40
1.0
176
     1
 90
        1
176
     1
 90
        6
176
     1
 90
        2
176
     1
 62
     7
176
     1
 90
        3
176
     1
 90
        0
176
     1
 90
        0
176
     1
290
     0
176
     1
 90
        1
176
     1
 40
0.0
176
     1
 90
        0
176
     1
290
     0
176
     1
290
     1
176
     1
290
     1
176
     1
290
     0
176
     1
290
     0
176
     1
290
     0
176
     1
290
     0
176
     1
290
     0
176
     1
290
     0
176
     1
 90
       50
176
     1
 40
0.0
176
     1
 40
1.0
176
     1
 90
        0
176
     1
 62
    18
420
        0
176
     1
 90
       50
176
     1
 90
        3
176
     1
 62
     5
420
      255
176
     1
290
     0
176
     1
 90
       50
176
     1
 90
       50
176
     1
 90
       50
176
     1
290
     0
176
     1
 90
       50
176
     1
 62
   256
176
     0
 40
1.0
176
     0
 90
        2
176
     1
  1
strokes_ogs.tif
176
     1
290
     0
176
     1
 40
1.0
176
     1
 40
1.0
176
     1
  0
VISUALSTYLE
  5
190300000000005F
102
{ACAD_REACTORS
330
190300000000004E
102
}
330
190300000000004E
100
AcDbVisualStyle
  2
JitterOff
 70
    20
177
     3
291
     1
 70
    58
 90
        2
176
     0
 90
        2
176
     0
 90
        0
176
     0
 90
        0
176
     0
 40
0.6
176
     0
 40
30.0
176
     0
 62
     7
420
 16777215
176
     0
 90
        1
176
     0
 90
        4
176
     0
 62
     7
176
     0
 62
   257
176
     0
 90
        1
176
     0
 90
        1
176
     0
 40
1.0
176
     0
 90
       10
176
     2
 62
     7
176
     0
 40
1.0
176
     0
 90
        1
176
     0
 90
        6
176
     0
 90
        2
176
     0
 62
     7
176
     0
 90
        5
176
     0
 90
        0
176
     0
 90
        0
176
     0
290
     0
176
     0
 90
        1
176
     0
 40
0.0
176
     0
 90
        0
176
     0
290
     0
176
     0
290
     1
176
     0
290
     1
176
     0
290
     0
176
     0
290
     0
176
     0
290
     0
176
     0
290
     0
176
     0
290
     0
176
     0
290
     0
176
     0
 90
       50
176
     0
 40
0.0
176
     0
 40
1.0
176
     0
 90
        0
176
     0
 62
    18
420
        0
176
     0
 90
       50
176
     0
 90
        3
176
     0
 62
     5
420
      255
176
     0
290
     0
176
     0
 90
       50
176
     0
 90
       50
176
     0
 90
       50
176
     0
290
     0
176
     0
 90
       50
176
     0
 62
   256
176
     0
 40
1.0
176
     0
 90
        2
176
     0
  1
strokes_ogs.tif
176
     0
290
     0
176
     0
 40
1.0
176
     0
 40
1.0
176
     0
  0
VISUALSTYLE
  5
190300000000005C
102
{ACAD_REACTORS
330
190300000000004E
102
}
330
190300000000004E
100
AcDbVisualStyle
  2
Linepattern
 70
    14
177
     3
291
     1
 70
    58
 90
        2
176
     1
 90
        2
176
     1
 90
        0
176
     1
 90
        0
176
     1
 40
0.6
176
     1
 40
30.0
176
     1
 62
     7
420
 16777215
176
     1
 90
        1
176
     1
 90
        4
176
     1
 62
     7
176
     1
 62
   257
176
     1
 90
        7
176
     1
 90
        7
176
     1
 40
1.0
176
     1
 90
        8
176
     1
 62
     7
176
     1
 40
1.0
176
     1
 90
        1
176
     1
 90
        6
176
     1
 90
        2
176
     1
 62
     7
176
     1
 90
        5
176
     1
 90
        0
176
     1
 90
        0
176
     1
290
     0
176
     1
 90
        1
176
     1
 40
0.0
176
     1
 90
        0
176
     1
290
     0
176
     1
290
     1
176
     1
290
     1
176
     1
290
     0
176
     1
290
     0
176
     1
290
     0
176
     1
290
     0
176
     1
290
     0
176
     1
290
     0
176
     1
 90
       50
176
     1
 40
0.0
176
     1
 40
1.0
176
     1
 90
        0
176
     1
 62
    18
420
        0
176
     1
 90
       50
176
     1
 90
        3
176
     1
 62
     5
420
      255
176
     1
290
     0
176
     1
 90
       50
176
     1
 90
       50
176
     1
 90
       50
176
     1
290
     0
176
     1
 90
       50
176
     1
 62
   256
176
     0
 40
1.0
176
     0
 90
        2
176
     1
  1
strokes_ogs.tif
176
     1
290
     0
176
     1
 40
1.0
176
     1
 40
1.0
176
     1
  0
VISUALSTYLE
  5
1903000000000060
102
{ACAD_REACTORS
330
190300000000004E
102
}
330
190300000000004E
100
AcDbVisualStyle
  2
OverhangOff
 70
    21
177
     3
291
     1
 70
    58
 90
        2
176
     0
 90
        2
176
     0
 90
        0
176
     0
 90
        0
176
     0
 40
0.6
176
     0
 40
30.0
176
     0
 62
     7
420
 16777215
176
     0
 90
        1
176
     0
 90
        4
176
     0
 62
     7
176
     0
 62
   257
176
     0
 90
        1
176
     0
 90
        1
176
     0
 40
1.0
176
     0
 90
        9
176
     2
 62
     7
176
     0
 40
1.0
176
     0
 90
        1
176
     0
 90
        6
176
     0
 90
        2
176
     0
 62
     7
176
     0
 90
        5
176
     0
 90
        0
176
     0
 90
        0
176
     0
290
     0
176
     0
 90
        1
176
     0
 40
0.0
176
     0
 90
        0
176
     0
290
     0
176
     0
290
     1
176
     0
290
     1
176
     0
290
     0
176
     0
290
     0
176
     0
290
     0
176
     0
290
     0
176
     0
290
     0
176
     0
290
     0
176
     0
 90
       50
176
     0
 40
0.0
176
     0
 40
1.0
176
     0
 90
        0
176
     0
 62
    18
420
        0
176
     0
 90
       50
176
     0
 90
        3
176
     0
 62
     5
420
      255
176
     0
290
     0
176
     0
 90
       50
176
     0
 90
       50
176
     0
 90
       50
176
     0
290
     0
176
     0
 90
       50
176
     0
 62
   256
176
     0
 40
1.0
176
     0
 90
        2
176
     0
  1
strokes_ogs.tif
176
     0
290
     0
176
     0
 40
1.0
176
     0
 40
1.0
176
     0
  0
VISUALSTYLE
  5
1903000000000057
102
{ACAD_REACTORS
330
190300000000004E
102
}
330
190300000000004E
100
AcDbVisualStyle
  2
Realistic
 70
     8
177
     3
291
     0
 70
    58
 90
        2
176
     1
 90
        3
176
     1
 90
        0
176
     1
 90
        2
176
     1
 40
0.6
176
     1
 40
30.0
176
     1
 62
     7
420
 16777215
176
     1
 90
        0
176
     1
 90
        0
176
     1
 62
     7
176
     1
 62
   257
176
     1
 90
        1
176
     1
 90
        1
176
     1
 40
1.0
176
     1
 90
        8
176
     1
 62
   257
176
     1
 40
1.0
176
     1
 90
        1
176
     1
 90
        6
176
     1
 90
        2
176
     1
 62
     7
176
     1
 90
        3
176
     1
 90
        0
176
     1
 90
        0
176
     1
290
     0
176
     1
 90
       13
176
     1
 40
0.0
176
     1
 90
        0
176
     1
290
     0
176
     1
290
     1
176
     1
290
     1
176
     1
290
     0
176
     1
290
     0
176
     1
290
     0
176
     1
290
     0
176
     1
290
     0
176
     1
290
     0
176
     1
 90
       50
176
     1
 40
0.0
176
     1
 40
1.0
176
     1
 90
        0
176
     1
 62
    18
420
        0
176
     1
 90
       50
176
     1
 90
        3
176
     1
 62
     5
420
      255
176
     1
290
     0
176
     1
 90
       50
176
     1
 90
       50
176
     1
 90
       50
176
     1
290
     0
176
     1
 90
       50
176
     1
 62
   256
176
     0
 40
1.0
176
     0
 90
        2
176
     1
  1
strokes_ogs.tif
176
     1
290
     0
176
     1
 40
1.0
176
     1
 40
1.0
176
     1
  0
VISUALSTYLE
  5
1903000000000066
102
{ACAD_REACTORS
330
190300000000004E
102
}
330
190300000000004E
100
AcDbVisualStyle
  2
Shaded
 70
    27
177
     3
291
     0
 70
    58
 90
        2
176
     1
 90
        2
176
     1
 90
        1
176
     1
 90
        2
176
     1
 40
0.6
176
     1
 40
30.0
176
     1
 62
     7
420
 16777215
176
     1
 90
        0
176
     1
 90
        4
176
     1
 62
     7
176
     1
 62
   257
176
     1
 90
        1
176
     1
 90
        1
176
     1
 40
1.0
176
     1
 90
        8
176
     1
 62
   257
176
     1
 40
1.0
176
     1
 90
        1
176
     1
 90
        6
176
     1
 90
        2
176
     1
 62
     8
420
  7895160
176
     1
 90
        3
176
     1
 90
        0
176
     1
 90
        0
176
     1
290
     0
176
     1
 90
        5
176
     1
 40
0.0
176
     1
 90
        0
176
     1
290
     0
176
     1
290
     1
176
     1
290
     1
176
     1
290
     0
176
     1
290
     0
176
     1
290
     0
176
     1
290
     0
176
     1
290
     0
176
     1
290
     0
176
     1
 90
       50
176
     1
 40
0.0
176
     1
 40
1.0
176
     1
 90
        0
176
     1
 62
    18
420
        0
176
     1
 90
       50
176
     1
 90
        3
176
     1
 62
     5
420
      255
176
     1
290
     0
176
     1
 90
       50
176
     1
 90
       50
176
     1
 90
       50
176
     1
290
     0
176
     1
 90
       50
176
     1
 62
   256
176
     0
 40
1.0
176
     0
 90
        2
176
     1
  1
strokes_ogs.tif
176
     1
290
     0
176
     1
 40
1.0
176
     1
 40
1.0
176
     1
  0
VISUALSTYLE
  5
1903000000000065
102
{ACAD_REACTORS
330
190300000000004E
102
}
330
190300000000004E
100
AcDbVisualStyle
  2
Shaded with edges
 70
    26
177
     3
291
     0
 70
    58
 90
        2
176
     1
 90
        2
176
     1
 90
        1
176
     1
 90
        2
176
     1
 40
0.6
176
     1
 40
30.0
176
     1
 62
     7
420
 16777215
176
     1
 90
        1
176
     1
 90
       10
176
     1
 62
     7
176
     1
 62
   257
176
     1
 90
        2
176
     1
 90
        1
176
     1
 40
1.0
176
     1
 90
        8
176
     1
 62
   257
176
     1
 40
1.0
176
     1
 90
        1
176
     1
 90
        6
176
     1
 90
        2
176
     1
 62
     7
176
     1
 90
        3
176
     1
 90
        0
176
     1
 90
        0
176
     1
290
     0
176
     1
 90
        5
176
     1
 40
0.0
176
     1
 90
        0
176
     1
290
     0
176
     1
290
     1
176
     1
290
     1
176
     1
290
     0
176
     1
290
     0
176
     1
290
     0
176
     1
290
     0
176
     1
290
     0
176
     1
290
     0
176
     1
 90
       50
176
     1
 40
0.0
176
     1
 40
1.0
176
     1
 90
        0
176
     1
 62
    18
420
        0
176
     1
 90
       50
176
     1
 90
        3
176
     1
 62
     5
420
      255
176
     1
290
     0
176
     1
 90
       50
176
     1
 90
       50
176
     1
 90
       50
176
     1
290
     0
176
     1
 90
       50
176
     1
 62
   256
176
     0
 40
1.0
176
     0
 90
        2
176
     1
  1
strokes_ogs.tif
176
     1
290
     0
176
     1
 40
1.0
176
     1
 40
1.0
176
     1
  0
VISUALSTYLE
  5
1903000000000062
102
{ACAD_REACTORS
330
190300000000004E
102
}
330
190300000000004E
100
AcDbVisualStyle
  2
Shades of Gray
 70
    23
177
     3
291
     0
 70
    58
 90
        2
176
     1
 90
        2
176
     1
 90
        3
176
     1
 90
        0
176
     1
 40
0.6
176
     1
 40
30.0
176
     1
 62
     7
420
 16777215
176
     1
 90
        2
176
     1
 90
        2
176
     1
 62
     7
176
     1
 62
     7
176
     1
 90
        1
176
     1
 90
        1
176
     1
 40
40.0
176
     1
 90
        8
176
     1
 62
     7
176
     1
 40
1.0
176
     1
 90
        1
176
     1
 90
        6
176
     1
 90
        2
176
     1
 62
     7
176
     1
 90
        3
176
     1
 90
        0
176
     1
 90
        0
176
     1
290
     0
176
     1
 90
        1
176
     1
 40
0.0
176
     1
 90
        0
176
     1
290
     0
176
     1
290
     1
176
     1
290
     1
176
     1
290
     0
176
     1
290
     0
176
     1
290
     0
176
     1
290
     0
176
     1
290
     0
176
     1
290
     0
176
     1
 90
       50
176
     1
 40
0.0
176
     1
 40
1.0
176
     1
 90
        0
176
     1
 62
    18
420
        0
176
     1
 90
       50
176
     1
 90
        3
176
     1
 62
     5
420
      255
176
     1
290
     0
176
     1
 90
       50
176
     1
 90
       50
176
     1
 90
       50
176
     1
290
     0
176
     1
 90
       50
176
     1
 62
   256
176
     0
 40
1.0
176
     0
 90
        2
176
     1
  1
strokes_ogs.tif
176
     1
290
     0
176
     1
 40
1.0
176
     1
 40
1.0
176
     1
  0
VISUALSTYLE
  5
1903000000000063
102
{ACAD_REACTORS
330
190300000000004E
102
}
330
190300000000004E
100
AcDbVisualStyle
  2
Sketchy
 70
    24
177
     3
291
     0
 70
    58
 90
        1
176
     1
 90
        2
176
     1
 90
        2
176
     1
 90
        0
176
     1
 40
0.6
176
     1
 40
30.0
176
     1
 62
     7
420
 16777215
176
     1
 90
        2
176
     1
 90
        2
176
     1
 62
     7
176
     1
 62
     7
176
     1
 90
        1
176
     1
 90
        1
176
     1
 40
40.0
176
     1
 90
       11
176
     1
 62
     7
176
     1
 40
1.0
176
     1
 90
        1
176
     1
 90
        6
176
     1
 90
        2
176
     1
 62
     7
176
     1
 90
        6
176
     1
 90
        0
176
     1
 90
        0
176
     1
290
     0
176
     1
 90
        1
176
     1
 40
0.0
176
     1
 90
        0
176
     1
290
     0
176
     1
290
     1
176
     1
290
     1
176
     1
290
     0
176
     1
290
     0
176
     1
290
     0
176
     1
290
     0
176
     1
290
     0
176
     1
290
     0
176
     1
 90
       50
176
     1
 40
0.0
176
     1
 40
1.0
176
     1
 90
        0
176
     1
 62
    18
420
        0
176
     1
 90
       50
176
     1
 90
        3
176
     1
 62
     5
420
      255
176
     1
290
     0
176
     1
 90
       50
176
     1
 90
       50
176
     1
 90
       50
176
     1
290
     0
176
     1
 90
       50
176
     1
 62
   256
176
     0
 40
1.0
176
     0
 90
        2
176
     1
  1
strokes_ogs.tif
176
     1
290
     0
176
     1
 40
1.0
176
     1
 40
1.0
176
     1
  0
VISUALSTYLE
  5
190300000000005B
102
{ACAD_REACTORS
330
190300000000004E
102
}
330
190300000000004E
100
AcDbVisualStyle
  2
Thicken
 70
    13
177
     3
291
     1
 70
    58
 90
        2
176
     1
 90
        2
176
     1
 90
        0
176
     1
 90
        0
176
     1
 40
0.6
176
     1
 40
30.0
176
     1
 62
     7
420
 16777215
176
     1
 90
        1
176
     1
 90
        4
176
     1
 62
     7
176
     1
 62
   257
176
     1
 90
        1
176
     1
 90
        1
176
     1
 40
1.0
176
     1
 90
       12
176
     1
 62
     7
176
     1
 40
1.0
176
     1
 90
        1
176
     1
 90
        6
176
     1
 90
        2
176
     1
 62
     7
176
     1
 90
        5
176
     1
 90
        0
176
     1
 90
        0
176
     1
290
     0
176
     1
 90
        1
176
     1
 40
0.0
176
     1
 90
        0
176
     1
290
     0
176
     1
290
     1
176
     1
290
     1
176
     1
290
     0
176
     1
290
     0
176
     1
290
     0
176
     1
290
     0
176
     1
290
     0
176
     1
290
     0
176
     1
 90
       50
176
     1
 40
0.0
176
     1
 40
1.0
176
     1
 90
        0
176
     1
 62
    18
420
        0
176
     1
 90
       50
176
     1
 90
        3
176
     1
 62
     5
420
      255
176
     1
290
     0
176
     1
 90
       50
176
     1
 90
       50
176
     1
 90
       50
176
     1
290
     0
176
     1
 90
       50
176
     1
 62
   256
176
     0
 40
1.0
176
     0
 90
        2
176
     1
  1
strokes_ogs.tif
176
     1
290
     0
176
     1
 40
1.0
176
     1
 40
1.0
176
     1
  0
VISUALSTYLE
  5
1903000000000054
102
{ACAD_REACTORS
330
190300000000004E
102
}
330
190300000000004E
100
AcDbVisualStyle
  2
Wireframe
 70
     5
177
     3
291
     0
 70
    58
 90
        0
176
     1
 90
        2
176
     1
 90
        0
176
     1
 90
        0
176
     1
 40
0.6
176
     1
 40
30.0
176
     1
 62
     7
420
 16777215
176
     1
 90
        1
176
     1
 90
        4
176
     1
 62
     7
176
     1
 62
   257
176
     1
 90
        1
176
     1
 90
        1
176
     1
 40
1.0
176
     1
 90
        0
176
     1
 62
   257
176
     1
 40
1.0
176
     1
 90
        1
176
     1
 90
        6
176
     1
 90
        2
176
     1
 62
     7
176
     1
 90
        3
176
     1
 90
        0
176
     1
 90
        0
176
     1
290
     0
176
     1
 90
        1
176
     1
 40
0.0
176
     1
 90
        0
176
     1
290
     0
176
     1
290
     1
176
     1
290
     1
176
     1
290
     0
176
     1
290
     0
176
     1
290
     0
176
     1
290
     0
176
     1
290
     0
176
     1
290
     0
176
     1
 90
       50
176
     1
 40
0.0
176
     1
 40
1.0
176
     1
 90
        0
176
     1
 62
    18
420
        0
176
     1
 90
       50
176
     1
 90
        3
176
     1
 62
     5
420
      255
176
     1
290
     0
176
     1
 90
       50
176
     1
 90
       50
176
     1
 90
       50
176
     1
290
     0
176
     1
 90
       50
176
     1
 62
   256
176
     0
 40
1.0
176
     0
 90
        2
176
     1
  1
strokes_ogs.tif
176
     1
290
     0
176
     1
 40
1.0
176
     1
 40
1.0
176
     1
  0
VISUALSTYLE
  5
1903000000000064
102
{ACAD_REACTORS
330
190300000000004E
102
}
330
190300000000004E
100
AcDbVisualStyle
  2
X-Ray
 70
    25
177
     3
291
     0
 70
    58
 90
        2
176
     1
 90
        2
176
     1
 90
        1
176
     1
 90
        1
176
     1
 40
0.5
176
     1
 40
30.0
176
     1
 62
     7
420
 16777215
176
     1
 90
        1
176
     1
 90
        0
176
     1
 62
     7
176
     1
 62
   257
176
     1
 90
        1
176
     1
 90
        1
176
     1
 40
1.0
176
     1
 90
        8
176
     1
 62
     7
176
     1
 40
1.0
176
     1
 90
        1
176
     1
 90
        6
176
     1
 90
        2
176
     1
 62
     7
176
     1
 90
        3
176
     1
 90
        0
176
     1
 90
        0
176
     1
290
     0
176
     1
 90
       13
176
     1
 40
0.0
176
     1
 90
        0
176
     1
290
     0
176
     1
290
     1
176
     1
290
     1
176
     1
290
     0
176
     1
290
     0
176
     1
290
     0
176
     1
290
     0
176
     1
290
     0
176
     1
290
     0
176
     1
 90
       50
176
     1
 40
0.0
176
     1
 40
1.0
176
     1
 90
        0
176
     1
 62
    18
420
        0
176
     1
 90
       50
176
     1
 90
        3
176
     1
 62
     5
420
      255
176
     1
290
     0
176
     1
 90
       50
176
     1
 90
       50
176
     1
 90
       50
176
     1
290
     0
176
     1
 90
       50
176
     1
 62
   256
176
     0
 40
1.0
176
     0
 90
        2
176
     1
  1
strokes_ogs.tif
176
     1
290
     0
176
     1
 40
1.0
176
     1
 40
1.0
176
     1
  0
DICTIONARYVAR
  5
1903000000000073
102
{ACAD_REACTORS
330
1903000000000072
102
}
330
1903000000000072
100
DictionaryVariables
280
     0
  1
1:1
  0
DICTIONARYVAR
  5
1903000000000075
102
{ACAD_REACTORS
330
1903000000000072
102
}
330
1903000000000072
100
DictionaryVariables
280
     0
  1
Standard
  0
DICTIONARYVAR
  5
1903000000000074
102
{ACAD_REACTORS
330
1903000000000072
102
}
330
1903000000000072
100
DictionaryVariables
280
     0
  1
Standard
  0
DICTIONARY
  5
1903000000000078
330
190300000000006C
100
AcDbDictionary
280
     1
281
     1
  3
ACAD_ROUNDTRIP_2008_TABLESTYLE_CELLSTYLEMAP
360
1903000000000079
  0
CELLSTYLEMAP
  5
1903000000000079
102
{ACAD_REACTORS
330
1903000000000078
102
}
330
1903000000000078
100
AcDbCellStyleMap
 90
        3
300
CELLSTYLE
  1
TABLEFORMAT_BEGIN
 90
        5
170
     1
 91
        0
 92
    32768
 62
   257
 93
        1
300
CONTENTFORMAT
  1
CONTENTFORMAT_BEGIN
 90
        0
 91
        0
 92
        4
 93
        0
300

 40
0.0
140
1.0
 94
        5
 62
     0
340
1903000000000025
144
0.25
309
CONTENTFORMAT_END
171
     1
301
MARGIN
  1
CELLMARGIN_BEGIN
 40
0.06
 40
0.06
 40
0.06
 40
0.06
 40
0.06
 40
0.06
309
CELLMARGIN_END
 94
        6
 95
        1
302
GRIDFORMAT
  1
GRIDFORMAT_BEGIN
 90
        0
 91
        1
 62
     0
 92
       -2
340
190300000000000E
 93
        0
 40
0.045
309
GRIDFORMAT_END
 95
        2
302
GRIDFORMAT
  1
GRIDFORMAT_BEGIN
 90
        0
 91
        1
 62
     0
 92
       -2
340
190300000000000E
 93
        0
 40
0.045
309
GRIDFORMAT_END
 95
        4
302
GRIDFORMAT
  1
GRIDFORMAT_BEGIN
 90
        0
 91
        1
 62
     0
 92
       -2
340
190300000000000E
 93
        0
 40
0.045
309
GRIDFORMAT_END
 95
        8
302
GRIDFORMAT
  1
GRIDFORMAT_BEGIN
 90
        0
 91
        1
 62
     0
 92
       -2
340
190300000000000E
 93
        0
 40
0.045
309
GRIDFORMAT_END
 95
       16
302
GRIDFORMAT
  1
GRIDFORMAT_BEGIN
 90
        0
 91
        1
 62
     0
 92
       -2
340
190300000000000E
 93
        0
 40
0.045
309
GRIDFORMAT_END
 95
       32
302
GRIDFORMAT
  1
GRIDFORMAT_BEGIN
 90
        0
 91
        1
 62
     0
 92
       -2
340
190300000000000E
 93
        0
 40
0.045
309
GRIDFORMAT_END
309
TABLEFORMAT_END
  1
CELLSTYLE_BEGIN
 90
        1
 91
        1
300
_TITLE
309
CELLSTYLE_END
300
CELLSTYLE
  1
TABLEFORMAT_BEGIN
 90
        5
170
     1
 91
        0
 92
        0
 62
   257
 93
        1
300
CONTENTFORMAT
  1
CONTENTFORMAT_BEGIN
 90
        0
 91
        0
 92
        4
 93
        0
300

 40
0.0
140
1.0
 94
        5
 62
     0
340
1903000000000025
144
0.18
309
CONTENTFORMAT_END
171
     1
301
MARGIN
  1
CELLMARGIN_BEGIN
 40
0.06
 40
0.06
 40
0.06
 40
0.06
 40
0.06
 40
0.06
309
CELLMARGIN_END
 94
        6
 95
        1
302
GRIDFORMAT
  1
GRIDFORMAT_BEGIN
 90
        0
 91
        1
 62
     0
 92
       -2
340
190300000000000E
 93
        0
 40
0.045
309
GRIDFORMAT_END
 95
        2
302
GRIDFORMAT
  1
GRIDFORMAT_BEGIN
 90
        0
 91
        1
 62
     0
 92
       -2
340
190300000000000E
 93
        0
 40
0.045
309
GRIDFORMAT_END
 95
        4
302
GRIDFORMAT
  1
GRIDFORMAT_BEGIN
 90
        0
 91
        1
 62
     0
 92
       -2
340
190300000000000E
 93
        0
 40
0.045
309
GRIDFORMAT_END
 95
        8
302
GRIDFORMAT
  1
GRIDFORMAT_BEGIN
 90
        0
 91
        1
 62
     0
 92
       -2
340
190300000000000E
 93
        0
 40
0.045
309
GRIDFORMAT_END
 95
       16
302
GRIDFORMAT
  1
GRIDFORMAT_BEGIN
 90
        0
 91
        1
 62
     0
 92
       -2
340
190300000000000E
 93
        0
 40
0.045
309
GRIDFORMAT_END
 95
       32
302
GRIDFORMAT
  1
GRIDFORMAT_BEGIN
 90
        0
 91
        1
 62
     0
 92
       -2
340
190300000000000E
 93
        0
 40
0.045
309
GRIDFORMAT_END
309
TABLEFORMAT_END
  1
CELLSTYLE_BEGIN
 90
        2
 91
        1
300
_HEADER
309
CELLSTYLE_END
300
CELLSTYLE
  1
TABLEFORMAT_BEGIN
 90
        5
170
     1
 91
        0
 92
        0
 62
   257
 93
        1
300
CONTENTFORMAT
  1
CONTENTFORMAT_BEGIN
 90
        0
 91
        0
 92
        4
 93
        0
300

 40
0.0
140
1.0
 94
        2
 62
     0
340
1903000000000025
144
0.18
309
CONTENTFORMAT_END
171
     1
301
MARGIN
  1
CELLMARGIN_BEGIN
 40
0.06
 40
0.06
 40
0.06
 40
0.06
 40
0.06
 40
0.06
309
CELLMARGIN_END
 94
        6
 95
        1
302
GRIDFORMAT
  1
GRIDFORMAT_BEGIN
 90
        0
 91
        1
 62
     0
 92
       -2
340
190300000000000E
 93
        0
 40
0.045
309
GRIDFORMAT_END
 95
        2
302
GRIDFORMAT
  1
GRIDFORMAT_BEGIN
 90
        0
 91
        1
 62
     0
 92
       -2
340
190300000000000E
 93
        0
 40
0.045
309
GRIDFORMAT_END
 95
        4
302
GRIDFORMAT
  1
GRIDFORMAT_BEGIN
 90
        0
 91
        1
 62
     0
 92
       -2
340
190300000000000E
 93
        0
 40
0.045
309
GRIDFORMAT_END
 95
        8
302
GRIDFORMAT
  1
GRIDFORMAT_BEGIN
 90
        0
 91
        1
 62
     0
 92
       -2
340
190300000000000E
 93
        0
 40
0.045
309
GRIDFORMAT_END
 95
       16
302
GRIDFORMAT
  1
GRIDFORMAT_BEGIN
 90
        0
 91
        1
 62
     0
 92
       -2
340
190300000000000E
 93
        0
 40
0.045
309
GRIDFORMAT_END
 95
       32
302
GRIDFORMAT
  1
GRIDFORMAT_BEGIN
 90
        0
 91
        1
 62
     0
 92
       -2
340
190300000000000E
 93
        0
 40
0.045
309
GRIDFORMAT_END
309
TABLEFORMAT_END
  1
CELLSTYLE_BEGIN
 90
        3
 91
        2
300
_DATA
309
CELLSTYLE_END
  0
ENDSEC
  0
EOF
