  0
SECTION
  2
HEADER
  9
$ACADVER
  1
AC1015
  9
$ACADMAINTVER
 70
     6
  9
$DWGCODEPAGE
  3
ANSI_1252
  9
$INSBASE
 10
0.0
 20
0.0
 30
0.0
  9
$EXTMIN
 10
0.0
 20
0.0
 30
0.0
  9
$EXTMAX
 10
594.0
 20
841.0
 30
0.0
  9
$LIMMIN
 10
0.0
 20
0.0
  9
$LIMMAX
 10
594.0
 20
841.0
  9
$ORTHOMODE
 70
     0
  9
$REGENMODE
 70
     1
  9
$FILLMODE
 70
     1
  9
$QTEXTMODE
 70
     0
  9
$MIRRTEXT
 70
     1
  9
$LTSCALE
 40
1.0
  9
$ATTMODE
 70
     1
  9
$TEXTSIZE
 40
10.0
  9
$TRACEWID
 40
1.0
  9
$TEXTSTYLE
  7
Standard
  9
$CLAYER
  8
0
  9
$CELTYPE
  6
ByLayer
  9
$CECOLOR
 62
   256
  9
$CELTSCALE
 40
1.0
  9
$DISPSILH
 70
     0
  9
$DIMSCALE
 40
1.0
  9
$DIMASZ
 40
2.5
  9
$DIMEXO
 40
0.0
  9
$DIMDLI
 40
3.75
  9
$DIMRND
 40
0.0
  9
$DIMDLE
 40
0.0
  9
$DIMEXE
 40
1.0
  9
$DIMTP
 40
0.0
  9
$DIMTM
 40
0.0
  9
$DIMTXT
 40
3.5
  9
$DIMCEN
 40
2.5
  9
$DIMTSZ
 40
0.0
  9
$DIMTOL
 70
     0
  9
$DIMLIM
 70
     0
  9
$DIMTIH
 70
     1
  9
$DIMTOH
 70
     1
  9
$DIMSE1
 70
     0
  9
$DIMSE2
 70
     0
  9
$DIMTAD
 70
     1
  9
$DIMZIN
 70
     0
  9
$DIMBLK
  1

  9
$DIMASO
 70
     1
  9
$DIMSHO
 70
     1
  9
$DIMPOST
  1

  9
$DIMAPOST
  1

  9
$DIMALT
 70
     0
  9
$DIMALTD
 70
     3
  9
$DIMALTF
 40
0.0393700787
  9
$DIMLFAC
 40
1.0
  9
$DIMTOFL
 70
     1
  9
$DIMTVP
 40
0.0
  9
$DIMTIX
 70
     0
  9
$DIMSOXD
 70
     0
  9
$DIMSAH
 70
     0
  9
$DIMBLK1
  1

  9
$DIMBLK2
  1

  9
$DIMSTYLE
  2
ISO-25
  9
$DIMCLRD
 70
     0
  9
$DIMCLRE
 70
     0
  9
$DIMCLRT
 70
     0
  9
$DIMTFAC
 40
1.0
  9
$DIMGAP
 40
1.5
  9
$DIMJUST
 70
     0
  9
$DIMSD1
 70
     0
  9
$DIMSD2
 70
     0
  9
$DIMTOLJ
 70
     0
  9
$DIMTZIN
 70
     0
  9
$DIMALTZ
 70
     0
  9
$DIMALTTZ
 70
     0
  9
$DIMUPT
 70
     0
  9
$DIMDEC
 70
     2
  9
$DIMTDEC
 70
     2
  9
$DIMALTU
 70
     2
  9
$DIMALTTD
 70
     3
  9
$DIMTXSTY
  7
Standard
  9
$DIMAUNIT
 70
     0
  9
$DIMADEC
 70
     2
  9
$DIMALTRND
 40
0.0
  9
$DIMAZIN
 70
     0
  9
$DIMDSEP
 70
    44
  9
$DIMATFIT
 70
     3
  9
$DIMFRAC
 70
     0
  9
$DIMLDRBLK
  1

  9
$DIMLUNIT
 70
     2
  9
$DIMLWD
 70
    -2
  9
$DIMLWE
 70
    -2
  9
$DIMTMOVE
 70
     0
  9
$LUNITS
 70
     2
  9
$LUPREC
 70
     2
  9
$SKETCHINC
 40
1.0
  9
$FILLETRAD
 40
0.0
  9
$AUNITS
 70
     0
  9
$AUPREC
 70
     2
  9
$MENU
  1
.
  9
$ELEVATION
 40
0.0
  9
$PELEVATION
 40
0.0
  9
$THICKNESS
 40
0.0
  9
$LIMCHECK
 70
     0
  9
$CHAMFERA
 40
0.0
  9
$CHAMFERB
 40
0.0
  9
$CHAMFERC
 40
0.0
  9
$CHAMFERD
 40
0.0
  9
$SKPOLY
 70
     0
  9
$TDCREATE
 40
2460300.441021806
  9
$TDUCREATE
 40
2460300.399355139
  9
$TDUPDATE
 40
2460300.441023252
  9
$TDUUPDATE
 40
2460300.399356585
  9
$TDINDWG
 40
0.0000000116
  9
$TDUSRTIMER
 40
0.0000000116
  9
$USRTIMER
 70
     1
  9
$ANGBASE
 50
0.0
  9
$ANGDIR
 70
     0
  9
$PDMODE
 70
     0
  9
$PDSIZE
 40
-1.0
  9
$PLINEWID
 40
0.0
  9
$SPLFRAME
 70
     0
  9
$SPLINETYPE
 70
     6
  9
$SPLINESEGS
 70
     8
  9
$HANDSEED
  5
32B
  9
$SURFTAB1
 70
     6
  9
$SURFTAB2
 70
     6
  9
$SURFTYPE
 70
     6
  9
$SURFU
 70
     6
  9
$SURFV
 70
     6
  9
$UCSBASE
  2

  9
$UCSNAME
  2

  9
$UCSORG
 10
0.0
 20
0.0
 30
0.0
  9
$UCSXDIR
 10
1.0
 20
0.0
 30
0.0
  9
$UCSYDIR
 10
0.0
 20
1.0
 30
0.0
  9
$UCSORTHOREF
  2

  9
$UCSORTHOVIEW
 70
     0
  9
$UCSORGTOP
 10
0.0
 20
0.0
 30
0.0
  9
$UCSORGBOTTOM
 10
0.0
 20
0.0
 30
0.0
  9
$UCSORGLEFT
 10
0.0
 20
0.0
 30
0.0
  9
$UCSORGRIGHT
 10
0.0
 20
0.0
 30
0.0
  9
$UCSORGFRONT
 10
0.0
 20
0.0
 30
0.0
  9
$UCSORGBACK
 10
0.0
 20
0.0
 30
0.0
  9
$PUCSBASE
  2

  9
$PUCSNAME
  2

  9
$PUCSORG
 10
0.0
 20
0.0
 30
0.0
  9
$PUCSXDIR
 10
1.0
 20
0.0
 30
0.0
  9
$PUCSYDIR
 10
0.0
 20
1.0
 30
0.0
  9
$PUCSORTHOREF
  2

  9
$PUCSORTHOVIEW
 70
     0
  9
$PUCSORGTOP
 10
0.0
 20
0.0
 30
0.0
  9
$PUCSORGBOTTOM
 10
0.0
 20
0.0
 30
0.0
  9
$PUCSORGLEFT
 10
0.0
 20
0.0
 30
0.0
  9
$PUCSORGRIGHT
 10
0.0
 20
0.0
 30
0.0
  9
$PUCSORGFRONT
 10
0.0
 20
0.0
 30
0.0
  9
$PUCSORGBACK
 10
0.0
 20
0.0
 30
0.0
  9
$USERI1
 70
     0
  9
$USERI2
 70
     0
  9
$USERI3
 70
     0
  9
$USERI4
 70
     0
  9
$USERI5
 70
     0
  9
$USERR1
 40
0.0
  9
$USERR2
 40
0.0
  9
$USERR3
 40
0.0
  9
$USERR4
 40
0.0
  9
$USERR5
 40
0.0
  9
$WORLDVIEW
 70
     1
  9
$SHADEDGE
 70
     3
  9
$SHADEDIF
 70
    70
  9
$TILEMODE
 70
     1
  9
$MAXACTVP
 70
    64
  9
$PINSBASE
 10
0.0
 20
0.0
 30
0.0
  9
$PLIMCHECK
 70
     0
  9
$PEXTMIN
 10
1.0000000000E+20
 20
1.0000000000E+20
 30
1.0000000000E+20
  9
$PEXTMAX
 10
-1.0000000000E+20
 20
-1.0000000000E+20
 30
-1.0000000000E+20
  9
$PLIMMIN
 10
0.0
 20
0.0
  9
$PLIMMAX
 10
420.0
 20
297.0
  9
$UNITMODE
 70
     0
  9
$VISRETAIN
 70
     1
  9
$PLINEGEN
 70
     0
  9
$PSLTSCALE
 70
     1
  9
$TREEDEPTH
 70
  3020
  9
$CMLSTYLE
  2
Standard
  9
$CMLJUST
 70
     0
  9
$CMLSCALE
 40
20.0
  9
$PROXYGRAPHICS
 70
     1
  9
$MEASUREMENT
 70
     1
  9
$CELWEIGHT
370
    -1
  9
$ENDCAPS
280
     0
  9
$JOINSTYLE
280
     0
  9
$LWDISPLAY
290
     1
  9
$INSUNITS
 70
     4
  9
$HYPERLINKBASE
  1

  9
$STYLESHEET
  1

  9
$XEDIT
290
     1
  9
$CEPSNTYPE
380
     0
  9
$PSTYLEMODE
290
     1
  9
$FINGERPRINTGUID
  2
{02bda25c-c35c-4b73-b19b-f04f13891daf}
  9
$VERSIONGUID
  2
{FAEB1C32-E019-11D5-929B-00C0DF256EC4}
  9
$EXTNAMES
290
     1
  9
$PSVPSCALE
 40
0.0
  9
$OLESTARTUP
290
     0
  0
ENDSEC
  0
SECTION
  2
CLASSES
  0
CLASS
  1
ACDBDICTIONARYWDFLT
  2
AcDbDictionaryWithDefault
  3
ObjectDBX Classes
 90
        0
280
     0
281
     0
  0
CLASS
  1
VISUALSTYLE
  2
AcDbVisualStyle
  3
ObjectDBX Classes
 90
     4095
280
     0
281
     0
  0
CLASS
  1
MATERIAL
  2
AcDbMaterial
  3
ObjectDBX Classes
 90
     1153
280
     0
281
     0
  0
CLASS
  1
SCALE
  2
AcDbScale
  3
ObjectDBX Classes
 90
     1153
280
     0
281
     0
  0
CLASS
  1
TABLESTYLE
  2
AcDbTableStyle
  3
ObjectDBX Classes
 90
     4095
280
     0
281
     0
  0
CLASS
  1
MLEADERSTYLE
  2
AcDbMLeaderStyle
  3
ACDB_MLEADERSTYLE_CLASS
 90
     4095
280
     0
281
     0
  0
CLASS
  1
SUN
  2
AcDbSun
  3
SCENEOE
 90
     1153
280
     0
281
     0
  0
CLASS
  1
ACDBPLACEHOLDER
  2
AcDbPlaceHolder
  3
ObjectDBX Classes
 90
        0
280
     0
281
     0
  0
CLASS
  1
LAYOUT
  2
AcDbLayout
  3
ObjectDBX Classes
 90
        0
280
     0
281
     0
  0
ENDSEC
  0
SECTION
  2
TABLES
  0
TABLE
  2
VPORT
  5
8
330
0
100
AcDbSymbolTable
 70
     1
  0
VPORT
  5
29
330
8
100
AcDbSymbolTableRecord
100
AcDbViewportTableRecord
  2
*Active
 70
     0
 10
0.0
 20
0.0
 11
1.0
 21
1.0
 12
297.0
 22
420.5
 13
0.0
 23
0.0
 14
10.0
 24
10.0
 15
10.0
 25
10.0
 16
0.0
 26
0.0
 36
1.0
 17
0.0
 27
0.0
 37
0.0
 40
841.0
 41
0.7063020214
 42
50.0
 43
0.0
 44
0.0
 50
0.0
 51
0.0
 71
     0
 72
  2000
 73
     1
 74
     3
 75
     0
 76
     0
 77
     0
 78
     0
281
     0
 65
     1
110
0.0
120
0.0
130
0.0
111
1.0
121
0.0
131
0.0
112
0.0
122
1.0
132
0.0
 79
     0
146
0.0
  0
ENDTAB
  0
TABLE
  2
LTYPE
  5
5
330
0
100
AcDbSymbolTable
 70
     6
  0
LTYPE
  5
14
330
5
100
AcDbSymbolTableRecord
100
AcDbLinetypeTableRecord
  2
ByBlock
 70
     0
  3

 72
    65
 73
     0
 40
0.0
  0
LTYPE
  5
15
330
5
100
AcDbSymbolTableRecord
100
AcDbLinetypeTableRecord
  2
ByLayer
 70
     0
  3

 72
    65
 73
     0
 40
0.0
  0
LTYPE
  5
16
330
5
100
AcDbSymbolTableRecord
100
AcDbLinetypeTableRecord
  2
Continuous
 70
     0
  3
Solid line
 72
    65
 73
     0
 40
0.0
  0
LTYPE
  5
5E
330
5
100
AcDbSymbolTableRecord
100
AcDbLinetypeTableRecord
  2
HIDDEN
 70
     0
  3
Hidden __ __ __ __ __ __ __ __ __ __ __ __ __ __
 72
    65
 73
     2
 40
1.905
 49
1.27
 74
     0
 49
-0.635
 74
     0
  0
LTYPE
  5
5F
330
5
100
AcDbSymbolTableRecord
100
AcDbLinetypeTableRecord
  2
PHANTOM
 70
     0
  3
Phantom ______  __  __  ______  __  __  ______
 72
    65
 73
     6
 40
12.7
 49
6.35
 74
     0
 49
-1.27
 74
     0
 49
1.27
 74
     0
 49
-1.27
 74
     0
 49
1.27
 74
     0
 49
-1.27
 74
     0
  0
LTYPE
  5
60
330
5
100
AcDbSymbolTableRecord
100
AcDbLinetypeTableRecord
  2
CENTER
 70
     0
  3
Center ____ _ ____ _ ____ _ ____ _ ____ _ ____
 72
    65
 73
     4
 40
10.16
 49
6.35
 74
     0
 49
-1.27
 74
     0
 49
1.27
 74
     0
 49
-1.27
 74
     0
  0
LTYPE
  5
61
330
5
100
AcDbSymbolTableRecord
100
AcDbLinetypeTableRecord
  2
CENTERX2
 70
     0
  3
Center (2x) ________  __  ________  __  _____
 72
    65
 73
     4
 40
20.32
 49
12.7
 74
     0
 49
-2.54
 74
     0
 49
2.54
 74
     0
 49
-2.54
 74
     0
  0
LTYPE
  5
62
330
5
100
AcDbSymbolTableRecord
100
AcDbLinetypeTableRecord
  2
DOT2
 70
     0
  3
Dot (.5x) ........................................
 72
    65
 73
     2
 40
0.635
 49
0.0
 74
     0
 49
-0.635
 74
     0
  0
ENDTAB
  0
TABLE
  2
LAYER
  5
2
330
0
100
AcDbSymbolTable
 70
     1
  0
LAYER
  5
10
330
2
100
AcDbSymbolTableRecord
100
AcDbLayerTableRecord
  2
0
 70
     0
 62
     7
  6
Continuous
370
    -3
390
F
  0
ENDTAB
  0
TABLE
  2
STYLE
  5
3
330
0
100
AcDbSymbolTable
 70
     3
  0
STYLE
  5
11
330
3
100
AcDbSymbolTableRecord
100
AcDbTextStyleTableRecord
  2
Standard
 70
     0
 40
0.0
 41
1.0
 50
0.0
 71
     0
 42
10.0
  3
txt
  4

  0
STYLE
  5
66
330
3
100
AcDbSymbolTableRecord
100
AcDbTextStyleTableRecord
  2
SLDTEXTSTYLE0
 70
     0
 40
0.0
 41
0.96
 50
0.0
 71
     0
 42
10.0
  3
ISOCP3
  4

  0
STYLE
  5
7D
330
3
100
AcDbSymbolTableRecord
100
AcDbTextStyleTableRecord
  2
SLDTEXTSTYLE1
 70
     0
 40
0.0
 41
0.605
 50
0.0
 71
     0
 42
10.0
  3
TXT
  4

  0
ENDTAB
  0
TABLE
  2
VIEW
  5
6
330
0
100
AcDbSymbolTable
 70
     0
  0
ENDTAB
  0
TABLE
  2
UCS
  5
7
330
0
100
AcDbSymbolTable
 70
     0
  0
ENDTAB
  0
TABLE
  2
APPID
  5
9
330
0
100
AcDbSymbolTable
 70
     1
  0
APPID
  5
12
330
9
100
AcDbSymbolTableRecord
100
AcDbRegAppTableRecord
  2
ACAD
 70
     0
  0
ENDTAB
  0
TABLE
  2
DIMSTYLE
  5
A
330
0
100
AcDbSymbolTable
 70
     2
100
AcDbDimStyleTable
  0
DIMSTYLE
105
27
330
A
100
AcDbSymbolTableRecord
100
AcDbDimStyleTableRecord
  2
ISO-25
 70
     0
 41
2.5
 42
0.625
 43
3.75
 44
1.25
 73
     0
 74
     0
 77
     1
 78
     8
140
2.5
141
2.5
143
0.0393700787
147
0.625
171
     3
172
     1
178
     0
271
     2
272
     2
274
     3
278
    44
283
     0
284
     8
340
11
  0
DIMSTYLE
105
67
102
{ACAD_REACTORS
330
65
330
72
102
}
330
A
100
AcDbSymbolTableRecord
100
AcDbDimStyleTableRecord
  2
SLDDIMSTYLE0
 70
     0
 41
2.5
 44
0.0
 45
0.000000001
 73
     0
 74
     0
 77
     1
 78
    12
 79
     3
140
6.0
147
1.5
173
     1
178
     0
271
     2
272
     2
276
     2
284
    12
340
66
  0
ENDTAB
  0
TABLE
  2
BLOCK_RECORD
  5
1
330
0
100
AcDbSymbolTable
 70
     3
  0
BLOCK_RECORD
  5
1F
330
1
100
AcDbSymbolTableRecord
100
AcDbBlockTableRecord
  2
*Model_Space
340
22
  0
BLOCK_RECORD
  5
1B
330
1
100
AcDbSymbolTableRecord
100
AcDbBlockTableRecord
  2
*Paper_Space
340
1E
  0
BLOCK_RECORD
  5
23
330
1
100
AcDbSymbolTableRecord
100
AcDbBlockTableRecord
  2
*Paper_Space0
340
26
  0
BLOCK_RECORD
  5
68
330
1
100
AcDbSymbolTableRecord
100
AcDbBlockTableRecord
  2
_D
340
0
  0
BLOCK_RECORD
  5
73
330
1
100
AcDbSymbolTableRecord
100
AcDbBlockTableRecord
  2
_D_1
340
0
  0
ENDTAB
  0
ENDSEC
  0
SECTION
  2
BLOCKS
  0
BLOCK
  5
20
330
1F
100
AcDbEntity
  8
0
100
AcDbBlockBegin
  2
*Model_Space
 70
     0
 10
0.0
 20
0.0
 30
0.0
  3
*Model_Space
  1

  0
ENDBLK
  5
21
330
1F
100
AcDbEntity
  8
0
100
AcDbBlockEnd
  0
BLOCK
  5
1C
330
1B
100
AcDbEntity
 67
     1
  8
0
100
AcDbBlockBegin
  2
*Paper_Space
 70
     0
 10
0.0
 20
0.0
 30
0.0
  3
*Paper_Space
  1

  0
ENDBLK
  5
1D
330
1B
100
AcDbEntity
 67
     1
  8
0
100
AcDbBlockEnd
  0
BLOCK
  5
24
330
23
100
AcDbEntity
  8
0
100
AcDbBlockBegin
  2
*Paper_Space0
 70
     0
 10
0.0
 20
0.0
 30
0.0
  3
*Paper_Space0
  1

  0
ENDBLK
  5
25
330
23
100
AcDbEntity
  8
0
100
AcDbBlockEnd
  0
BLOCK
  5
69
330
68
100
AcDbEntity
  8
0
100
AcDbBlockBegin
  2
_D
 70
     0
 10
0.0
 20
0.0
 30
0.0
  3
_D
  1

  0
SOLID
  5
6B
330
68
100
AcDbEntity
  8
0
  6
Continuous
 62
     7
370
    18
100
AcDbTrace
 10
42.7614395004
 20
152.0299240879
 30
0.0
 11
42.4614395004
 21
149.5299240879
 31
0.0
 12
43.0614395004
 22
149.5299240879
 32
0.0
 13
43.0614395004
 23
149.5299240879
 33
0.0
  0
SOLID
  5
6C
330
68
100
AcDbEntity
  8
0
  6
Continuous
 62
     7
370
    18
100
AcDbTrace
 10
42.7614395004
 20
52.0299240879
 30
0.0
 11
43.0614395004
 21
54.5299240879
 31
0.0
 12
42.4614395004
 22
54.5299240879
 32
0.0
 13
42.4614395004
 23
54.5299240879
 33
0.0
  0
LINE
  5
6D
330
68
100
AcDbEntity
  8
0
  6
Continuous
 62
     7
370
     0
100
AcDbLine
 10
56.6850079902
 20
152.0299240879
 30
0.0
 11
41.7614395004
 21
152.0299240879
 31
0.0
  0
LINE
  5
6E
330
68
100
AcDbEntity
  8
0
  6
Continuous
 62
     7
370
     0
100
AcDbLine
 10
56.6850079902
 20
52.0299240879
 30
0.0
 11
41.7614395004
 21
52.0299240879
 31
0.0
  0
LINE
  5
6F
330
68
100
AcDbEntity
  8
0
  6
Continuous
 62
     7
370
     0
100
AcDbLine
 10
42.7614395004
 20
152.0299240879
 30
0.0
 11
42.7614395004
 21
52.0299240879
 31
0.0
  0
MTEXT
  5
70
330
68
100
AcDbEntity
  8
0
  6
Continuous
 62
     7
370
    18
100
AcDbMText
 10
35.0270332946
 20
94.3680541463
 30
0.0
 40
6.0
 41
0.0
 71
     1
 72
     1
  1
100
  7
SLDTEXTSTYLE0
 11
-7.044195017643634E-15
 21
1.0
 31
0.0
 73
     1
 44
1.0
  0
MTEXT
  5
71
330
68
100
AcDbEntity
  8
0
  6
Continuous
 62
     7
370
    18
100
AcDbMText
 10
35.0270332946
 20
105.7430548466
 30
0.0
 40
6.0
 41
0.0
 71
     1
 72
     1
  1
mm
  7
SLDTEXTSTYLE0
 11
-7.044195017643634E-15
 21
1.0
 31
0.0
 73
     1
 44
1.0
  0
ENDBLK
  5
6A
330
68
100
AcDbEntity
  8
0
100
AcDbBlockEnd
  0
BLOCK
  5
74
330
73
100
AcDbEntity
  8
0
100
AcDbBlockBegin
  2
_D_1
 70
     0
 10
0.0
 20
0.0
 30
0.0
  3
_D_1
  1

  0
SOLID
  5
76
330
73
100
AcDbEntity
  8
0
  6
Continuous
 62
     7
370
    18
100
AcDbTrace
 10
56.6850079902
 20
38.4602342313
 30
0.0
 11
59.1850079902
 21
38.1602342313
 31
0.0
 12
59.1850079902
 22
38.7602342313
 32
0.0
 13
59.1850079902
 23
38.7602342313
 33
0.0
  0
SOLID
  5
77
330
73
100
AcDbEntity
  8
0
  6
Continuous
 62
     7
370
    18
100
AcDbTrace
 10
156.6850079902
 20
38.4602342313
 30
0.0
 11
154.1850079902
 21
38.7602342313
 31
0.0
 12
154.1850079902
 22
38.1602342313
 32
0.0
 13
154.1850079902
 23
38.1602342313
 33
0.0
  0
LINE
  5
78
330
73
100
AcDbEntity
  8
0
  6
Continuous
 62
     7
370
     0
100
AcDbLine
 10
56.6850079902
 20
52.0299240879
 30
0.0
 11
56.6850079902
 21
37.4602342313
 31
0.0
  0
LINE
  5
79
330
73
100
AcDbEntity
  8
0
  6
Continuous
 62
     7
370
     0
100
AcDbLine
 10
156.6850079902
 20
52.0299240879
 30
0.0
 11
156.6850079902
 21
37.4602342313
 31
0.0
  0
LINE
  5
7A
330
73
100
AcDbEntity
  8
0
  6
Continuous
 62
     7
370
     0
100
AcDbLine
 10
56.6850079902
 20
38.4602342313
 30
0.0
 11
156.6850079902
 21
38.4602342313
 31
0.0
  0
MTEXT
  5
7B
330
73
100
AcDbEntity
  8
0
  6
Continuous
 62
     7
370
    18
100
AcDbMText
 10
93.9626484861
 20
46.1946404371
 30
0.0
 40
6.0
 41
0.0
 71
     1
 72
     1
  1
100
  7
SLDTEXTSTYLE0
 73
     1
 44
1.0
  0
MTEXT
  5
7C
330
73
100
AcDbEntity
  8
0
  6
Continuous
 62
     7
370
    18
100
AcDbMText
 10
105.3376491864
 20
46.1946404371
 30
0.0
 40
6.0
 41
0.0
 71
     1
 72
     1
  1
mm
  7
SLDTEXTSTYLE0
 73
     1
 44
1.0
  0
ENDBLK
  5
75
330
73
100
AcDbEntity
  8
0
100
AcDbBlockEnd
  0
ENDSEC
  0
SECTION
  2
ENTITIES
  0
LINE
  5
63
330
1F
100
AcDbEntity
  8
0
  6
Continuous
 62
     7
370
    18
100
AcDbLine
 10
56.6850079902
 20
152.0299240879
 30
0.0
 11
56.6850079902
 21
52.0299240879
 31
0.0
  0
LINE
  5
64
330
1F
100
AcDbEntity
  8
0
  6
Continuous
 62
     7
370
    18
100
AcDbLine
 10
56.6850079902
 20
52.0299240879
 30
0.0
 11
156.6850079902
 21
52.0299240879
 31
0.0
  0
DIMENSION
  5
65
330
1F
100
AcDbEntity
  8
0
  6
Continuous
 62
     7
370
    18
100
AcDbDimension
  2
_D
 10
42.7614395004
 20
52.0299240879
 30
0.0
 11
42.7614395004
 21
105.4472211621
 31
0.0
 70
   160
  1
<>mm
 71
     2
 42
-1.0
  3
SLDDIMSTYLE0
100
AcDbAlignedDimension
 13
56.6850079902
 23
152.0299240879
 33
0.0
 14
56.6850079902
 24
52.0299240879
 34
0.0
 50
90.0
100
AcDbRotatedDimension
  0
DIMENSION
  5
72
330
1F
100
AcDbEntity
  8
0
  6
Continuous
 62
     7
370
    18
100
AcDbDimension
  2
_D_1
 10
156.6850079902
 20
38.4602342313
 30
0.0
 11
105.0418155019
 21
38.4602342313
 31
0.0
 70
   160
  1
<>mm
 71
     2
 42
-1.0
  3
SLDDIMSTYLE0
100
AcDbAlignedDimension
 13
56.6850079902
 23
52.0299240879
 33
0.0
 14
156.6850079902
 24
52.0299240879
 34
0.0
100
AcDbRotatedDimension
  0
MTEXT
  5
7E
330
1F
100
AcDbEntity
  8
0
  6
Continuous
 62
     7
370
     0
100
AcDbMText
 10
412.8252631579
 20
48.4342449499
 30
0.0
 40
10.0
 41
0.0
 71
     1
 72
     1
  1
KLUDI GmbH & Co KG
  7
SLDTEXTSTYLE1
 73
     1
 44
1.0
  0
MTEXT
  5
7F
330
1F
100
AcDbEntity
  8
0
  6
Continuous
 62
     7
370
     0
100
AcDbMText
 10
210.0873490389
 20
48.4342449499
 30
0.0
 40
10.0
 41
0.0
 71
     1
 72
     1
  1
42 691 .. 75
  7
SLDTEXTSTYLE1
 73
     1
 44
1.0
  0
ARC
  5
80
330
1F
100
AcDbEntity
  8
0
  6
Continuous
 62
     7
370
    25
100
AcDbCircle
 10
192.2326961546
 20
367.1791389558
 30
0.0
 40
0.2000000000000455
100
AcDbArc
 50
270.0
 51
0.0
  0
ARC
  5
81
330
1F
100
AcDbEntity
  8
0
  6
Continuous
 62
     7
370
    25
100
AcDbCircle
 10
174.1326961546
 20
367.1791389558
 30
0.0
 40
0.2000000000000455
100
AcDbArc
 50
180.0
 51
270.0
  0
SPLINE
  5
82
330
1F
100
AcDbEntity
  8
0
  6
Continuous
 62
     7
370
    25
100
AcDbSpline
210
0.0
220
0.0
230
1.0
 70
     8
 71
     3
 72
     9
 73
     5
 74
     0
 42
0.00000001
 43
0.00000001
 40
0.0
 40
0.0
 40
0.0
 40
0.0
 40
0.5017173371320595
 40
1.0
 40
1.0
 40
1.0
 40
1.0
 10
205.097881333677
 20
435.1466946711391
 30
0.0
 10
205.0653853573925
 20
435.1524336080579
 30
0.0
 10
205.0006158669255
 20
435.1638721940785
 30
0.0
 10
204.8868412383868
 20
435.1679636139039
 30
0.0
 10
204.8301493135116
 20
435.1700022974694
 30
0.0
  0
SPLINE
  5
83
330
1F
100
AcDbEntity
  8
0
  6
Continuous
 62
     7
370
    25
100
AcDbSpline
210
0.0
220
0.0
230
1.0
 70
     8
 71
     3
 72
     9
 73
     5
 74
     0
 42
0.00000001
 43
0.00000001
 40
0.0
 40
0.0
 40
0.0
 40
0.0
 40
0.4990675771055422
 40
0.9999999999999999
 40
0.9999999999999999
 40
0.9999999999999999
 40
0.9999999999999999
 10
192.3884378774802
 20
435.3879642000159
 30
0.0
 10
192.1410439982231
 20
435.389858410269
 30
0.0
 10
191.6453318129276
 20
435.3936539087945
 30
0.0
 10
191.1490807184068
 20
435.3882513146997
 30
0.0
 10
190.9004924552644
 20
435.3855449801498
 30
0.0
  0
SPLINE
  5
84
330
1F
100
AcDbEntity
  8
0
  6
Continuous
 62
     7
370
    25
100
AcDbSpline
210
0.0
220
0.0
230
1.0
 70
     8
 71
     3
 72
     9
 73
     5
 74
     0
 42
0.00000001
 43
0.00000001
 40
0.0
 40
0.0
 40
0.0
 40
0.0
 40
0.5009323250617248
 40
1.0
 40
1.0
 40
1.0
 40
1.0
 10
175.4648401688706
 20
435.3850802590875
 30
0.0
 10
175.216269612993
 20
435.3877717918896
 30
0.0
 10
174.7200537701702
 20
435.3931448386415
 30
0.0
 10
174.2243763902273
 20
435.3893198911503
 30
0.0
 10
173.9769998326998
 20
435.3874109834991
 30
0.0
  0
LINE
  5
85
330
1F
100
AcDbEntity
  8
0
  6
Continuous
 62
     7
370
    25
100
AcDbLine
 10
166.0725724464
 20
372.8577743588
 30
0.0
 11
165.8756418984
 21
372.9359581515
 31
0.0
  0
SPLINE
  5
86
330
1F
100
AcDbEntity
  8
0
  6
Continuous
 62
     7
370
    25
100
AcDbSpline
210
0.0
220
0.0
230
1.0
 70
     8
 71
     3
 72
    19
 73
    15
 74
     0
 42
0.00000001
 43
0.00000001
 40
0.0
 40
0.0
 40
0.0
 40
0.0
 40
0.0156724666272777
 40
0.1624875864664425
 40
0.194175946662734
 40
0.2118648379208856
 40
0.2373403478848363
 40
0.3164025682235582
 40
0.4050364711056296
 40
0.5213039392164471
 40
0.6982928799902007
 40
0.8429562765383299
 40
0.9937439266167142
 40
1.0
 40
1.0
 40
1.0
 40
1.0
 10
165.8182875559366
 20
372.9606893209969
 30
0.0
 10
165.816742546142
 20
372.9613542167464
 30
0.0
 10
165.8007243328921
 20
372.9682476629504
 30
0.0
 10
165.8227197128005
 20
372.9592525420815
 30
0.0
 10
165.9228967061457
 20
372.9103298628838
 30
0.0
 10
166.0217583962267
 20
372.8597177933743
 30
0.0
 10
166.2513260176651
 20
372.7350528416191
 30
0.0
 10
166.6322996549141
 20
372.4917279978641
 30
0.0
 10
167.1383758217223
 20
372.0770425392301
 30
0.0
 10
167.7371840023452
 20
371.4248687472078
 30
0.0
 10
168.2680438207204
 20
370.5476704752245
 30
0.0
 10
168.5885708791545
 20
369.5057666525172
 30
0.0
 10
168.7183175005549
 20
368.8048809312633
 30
0.0
 10
168.6798326259599
 20
368.4442645041407
 30
0.0
 10
168.6782995229851
 20
368.4298988053304
 30
0.0
  0
SPLINE
  5
87
330
1F
100
AcDbEntity
  8
0
  6
Continuous
 62
     7
370
    25
100
AcDbSpline
210
0.0
220
0.0
230
1.0
 70
     8
 71
     3
 72
    22
 73
    18
 74
     0
 42
0.00000001
 43
0.00000001
 40
0.0
 40
0.0
 40
0.0
 40
0.0
 40
0.0283621213979522
 40
0.1666201341365315
 40
0.2937699097062169
 40
0.4101203436985937
 40
0.5151871222321809
 40
0.6077994408729702
 40
0.6860400152438398
 40
0.746562503214091
 40
0.7811126175290974
 40
0.8002020033839045
 40
0.8153949540405786
 40
0.8360960864881453
 40
0.887814750320382
 40
0.9994365073409507
 40
0.9999999999999999
 40
0.9999999999999999
 40
0.9999999999999999
 40
0.9999999999999999
 10
197.6993002529173
 20
368.4301871725206
 30
0.0
 10
197.6938645192911
 20
368.4955627668077
 30
0.0
 10
197.6619309888887
 20
368.8796274894896
 30
0.0
 10
197.7900272602465
 20
369.5580485859536
 30
0.0
 10
198.0543797223843
 20
370.399877601357
 30
0.0
 10
198.4354541562691
 20
371.115017942906
 30
0.0
 10
198.8697280738895
 20
371.6989804100966
 30
0.0
 10
199.3179815160375
 20
372.1545506183069
 30
0.0
 10
199.7362544104093
 20
372.4892636428447
 30
0.0
 10
200.0694887310157
 20
372.7072895281541
 30
0.0
 10
200.2948096501561
 20
372.8340168343821
 30
0.0
 10
200.401034527501
 20
372.8892444479845
 30
0.0
 10
200.4520657516508
 20
372.9148980843229
 30
0.0
 10
200.497561919407
 20
372.9372388563787
 30
0.0
 10
200.5417280705918
 20
372.958314663214
 30
0.0
 10
200.5627633020675
 20
372.9674549812536
 30
0.0
 10
200.551727363539
 20
372.962691813497
 30
0.0
 10
200.5516719313823
 20
372.9626678886934
 30
0.0
  0
LINE
  5
88
330
1F
100
AcDbEntity
  8
0
  6
Continuous
 62
     7
370
    25
100
AcDbLine
 10
200.4912675047
 20
372.9365974145
 30
0.0
 11
200.3096132393
 21
372.8642206741
 31
0.0
  0
LINE
  5
89
330
1F
100
AcDbEntity
  8
0
  6
Continuous
 62
     7
370
    25
100
AcDbLine
 10
168.6826961546
 20
368.4267137159
 30
0.0
 11
168.6826961546
 21
363.6358822749
 31
0.0
  0
LINE
  5
8A
330
1F
100
AcDbEntity
  8
0
  6
Continuous
 62
     7
370
    25
100
AcDbLine
 10
197.6826961546
 20
363.6358822749
 30
0.0
 11
197.6826961546
 21
368.4271964045
 31
0.0
  0
ARC
  5
8B
330
1F
100
AcDbEntity
  8
0
  6
Continuous
 62
     7
370
    25
100
AcDbCircle
 10
169.6826961546
 20
363.6358822749
 30
0.0
 40
1.0
100
AcDbArc
 50
180.0
 51
270.0
  0
ARC
  5
8C
330
1F
100
AcDbEntity
  8
0
  6
Continuous
 62
     7
370
    25
100
AcDbCircle
 10
196.6826961546
 20
363.6358822749
 30
0.0
 40
1.0
100
AcDbArc
 50
270.0
 51
0.0
  0
ARC
  5
8D
330
1F
100
AcDbEntity
  8
0
  6
Continuous
 62
     7
370
    25
100
AcDbCircle
 10
194.6826961546
 20
416.8358822749
 30
0.0
 40
1.0
100
AcDbArc
 50
0.0
 51
90.0
  0
ARC
  5
8E
330
1F
100
AcDbEntity
  8
0
  6
Continuous
 62
     7
370
    25
100
AcDbCircle
 10
171.6826961546
 20
416.8358822749
 30
0.0
 40
1.0
100
AcDbArc
 50
90.0
 51
180.0
  0
ARC
  5
8F
330
1F
100
AcDbEntity
  8
0
  6
Continuous
 62
     7
370
    25
100
AcDbCircle
 10
194.6826961546
 20
411.8358822749
 30
0.0
 40
1.0
100
AcDbArc
 50
270.0
 51
0.0
  0
ARC
  5
90
330
1F
100
AcDbEntity
  8
0
  6
Continuous
 62
     7
370
    25
100
AcDbCircle
 10
171.6826961546
 20
411.8358822749
 30
0.0
 40
1.0
100
AcDbArc
 50
180.0
 51
270.0
  0
LINE
  5
91
330
1F
100
AcDbEntity
  8
0
  6
Continuous
 62
     7
370
    25
100
AcDbLine
 10
195.6826961546
 20
411.8358822749
 30
0.0
 11
195.6826961546
 21
416.8358822749
 31
0.0
  0
LINE
  5
92
330
1F
100
AcDbEntity
  8
0
  6
Continuous
 62
     7
370
    25
100
AcDbLine
 10
170.6826961546
 20
416.8358822749
 30
0.0
 11
170.6826961546
 21
411.8358822749
 31
0.0
  0
LWPOLYLINE
  5
93
330
1F
100
AcDbEntity
  8
0
  6
Continuous
 62
     7
370
    25
100
AcDbPolyline
 90
        3
 70
   128
 43
0.0
 10
205.3274675717
 20
435.1412187501
 10
205.2229891749
 20
435.1438290477
 10
205.096565549
 20
435.1469710029
  0
LWPOLYLINE
  5
94
330
1F
100
AcDbEntity
  8
0
  6
Continuous
 62
     7
370
    25
100
AcDbPolyline
 90
        3
 70
   128
 43
0.0
 10
161.2686080858
 20
435.1456176838
 10
161.1641296947
 20
435.1430161258
 10
161.037706066
 20
435.1398514979
  0
LINE
  5
95
330
1F
100
AcDbEntity
  8
0
  6
Continuous
 62
     7
370
    25
100
AcDbLine
 10
171.9998427387
 20
362.6358822749
 30
0.0
 11
172.1998427387
 21
362.4358822749
 31
0.0
  0
LINE
  5
96
330
1F
100
AcDbEntity
  8
0
  6
Continuous
 62
     7
370
    25
100
AcDbLine
 10
194.1655495705
 20
362.4358822749
 30
0.0
 11
194.3655495705
 21
362.6358822749
 31
0.0
  0
ARC
  5
97
330
1F
100
AcDbEntity
  8
0
  6
Continuous
 62
     7
370
    25
100
AcDbCircle
 10
194.1826961546
 20
408.3358822749
 30
0.0
 40
2.500000000000057
100
AcDbArc
 50
90.0
 51
180.0
  0
ARC
  5
98
330
1F
100
AcDbEntity
  8
0
  6
Continuous
 62
     7
370
    25
100
AcDbCircle
 10
172.1826961546
 20
408.3358822749
 30
0.0
 40
2.500000000000057
100
AcDbArc
 50
0.0
 51
90.0
  0
LINE
  5
99
330
1F
100
AcDbEntity
  8
0
  6
Continuous
 62
     7
370
    25
100
AcDbLine
 10
173.0426961546
 20
362.4358822749
 30
0.0
 11
173.0426961546
 21
353.2358822749
 31
0.0
  0
LINE
  5
9A
330
1F
100
AcDbEntity
  8
0
  6
Continuous
 62
     7
370
    25
100
AcDbLine
 10
193.3226961546
 20
353.2358822749
 30
0.0
 11
193.3226961546
 21
362.4358822749
 31
0.0
  0
LINE
  5
9B
330
1F
100
AcDbEntity
  8
0
  6
Continuous
 62
     7
370
    25
100
AcDbLine
 10
173.0426961546
 20
353.2358822749
 30
0.0
 11
173.5426961546
 21
352.7358822749
 31
0.0
  0
LINE
  5
9C
330
1F
100
AcDbEntity
  8
0
  6
Continuous
 62
     7
370
    25
100
AcDbLine
 10
192.8226961546
 20
352.7358822749
 30
0.0
 11
193.3226961546
 21
353.2358822749
 31
0.0
  0
ARC
  5
9D
330
1F
100
AcDbEntity
  8
0
  6
Continuous
 62
     7
370
    25
100
AcDbCircle
 10
191.1826961546
 20
401.3358822749
 30
0.0
 40
0.5
100
AcDbArc
 50
270.0
 51
0.0
  0
ARC
  5
9E
330
1F
100
AcDbEntity
  8
0
  6
Continuous
 62
     7
370
    25
100
AcDbCircle
 10
175.1826961546
 20
401.3358822749
 30
0.0
 40
0.5
100
AcDbArc
 50
180.0
 51
270.0
  0
LINE
  5
9F
330
1F
100
AcDbEntity
  8
0
  6
Continuous
 62
     7
370
    25
100
AcDbLine
 10
191.6826961546
 20
401.3358822749
 30
0.0
 11
191.6826961546
 21
408.3358822749
 31
0.0
  0
LINE
  5
A0
330
1F
100
AcDbEntity
  8
0
  6
Continuous
 62
     7
370
    25
100
AcDbLine
 10
174.6826961546
 20
408.3358822749
 30
0.0
 11
174.6826961546
 21
401.3358822749
 31
0.0
  0
LINE
  5
A1
330
1F
100
AcDbEntity
  8
0
  6
Continuous
 62
     7
370
    25
100
AcDbLine
 10
177.6076961546
 20
400.8358822749
 30
0.0
 11
177.6076961546
 21
398.6358822749
 31
0.0
  0
LINE
  5
A2
330
1F
100
AcDbEntity
  8
0
  6
Continuous
 62
     7
370
    25
100
AcDbLine
 10
188.7576961546
 20
398.6358822749
 30
0.0
 11
188.7576961546
 21
400.8358822749
 31
0.0
  0
LINE
  5
A3
330
1F
100
AcDbEntity
  8
0
  6
Continuous
 62
     7
370
    25
100
AcDbLine
 10
160.1826961546
 20
434.1635733665
 30
0.0
 11
160.1826961546
 21
402.0344178203
 31
0.0
  0
LINE
  5
A4
330
1F
100
AcDbEntity
  8
0
  6
Continuous
 62
     7
370
    25
100
AcDbLine
 10
206.1826961546
 20
402.0729887632
 30
0.0
 11
206.1826961546
 21
434.1660258773
 31
0.0
  0
SPLINE
  5
A5
330
1F
100
AcDbEntity
  8
0
  6
Continuous
 62
     7
370
    25
100
AcDbSpline
210
0.0
220
0.0
230
1.0
 70
     8
 71
     3
 72
    11
 73
     7
 74
     0
 42
0.00000001
 43
0.00000001
 40
0.0
 40
0.0
 40
0.0
 40
0.0
 40
0.2553449809161553
 40
0.5307243792928028
 40
0.806103549482885
 40
1.0
 40
1.0
 40
1.0
 40
1.0
 10
206.1826952843444
 20
434.1608777864378
 30
0.0
 10
206.1692720879696
 20
434.2848693234538
 30
0.0
 10
206.1413725085906
 20
434.5425807978847
 30
0.0
 10
205.9158350457409
 20
434.8751060436888
 30
0.0
 10
205.6143592459213
 20
435.0958637800284
 30
0.0
 10
205.3881071456948
 20
435.1285386431452
 30
0.0
 10
205.2946237486885
 20
435.1420393231293
 30
0.0
  0
SPLINE
  5
A6
330
1F
100
AcDbEntity
  8
0
  6
Continuous
 62
     7
370
    25
100
AcDbSpline
210
0.0
220
0.0
230
1.0
 70
     8
 71
     3
 72
    14
 73
    10
 74
     0
 42
0.00000001
 43
0.00000001
 40
0.0
 40
0.0
 40
0.0
 40
0.0
 40
0.164512897050122
 40
0.2989974515596689
 40
0.3994500447859832
 40
0.4710335959614837
 40
0.6843669871075062
 40
0.8330244305141964
 40
1.0
 40
1.0
 40
1.0
 40
1.0
 10
161.1576239842679
 20
435.1593072582177
 30
0.0
 10
161.0813103248459
 20
435.152524924146
 30
0.0
 10
160.9426124470776
 20
435.1401982273372
 30
0.0
 10
160.7573361013551
 20
435.0701688655435
 30
0.0
 10
160.6211584532501
 20
434.9909219462984
 30
0.0
 10
160.4573252398338
 20
434.8620543275915
 30
0.0
 10
160.3106145325864
 20
434.6760781914855
 30
0.0
 10
160.2004971202521
 20
434.4099913437025
 30
0.0
 10
160.1888554677098
 20
434.2398842859623
 30
0.0
 10
160.18269682307
 20
434.1498945774098
 30
0.0
  0
LINE
  5
A7
330
1F
100
AcDbEntity
  8
0
  6
Continuous
 62
     7
370
    25
100
AcDbLine
 10
203.5826961546
 20
398.6358822749
 30
0.0
 11
203.5743568482
 21
398.8746887664
 31
0.0
  0
LINE
  5
A8
330
1F
100
AcDbEntity
  8
0
  6
Continuous
 62
     7
370
    25
100
AcDbLine
 10
162.791035461
 20
398.8746887664
 30
0.0
 11
162.7826961546
 21
398.6358822749
 31
0.0
  0
LWPOLYLINE
  5
A9
330
1F
100
AcDbEntity
  8
0
  6
Continuous
 62
     7
370
    25
100
AcDbPolyline
 90
        3
 70
   128
 43
0.0
 10
203.5743568482
 20
398.8746887664
 10
203.2951032059
 20
400.1086956887
 10
203.0402687137
 20
401.1412858796
  0
LWPOLYLINE
  5
AA
330
1F
100
AcDbEntity
  8
0
  6
Continuous
 62
     7
370
    25
100
AcDbPolyline
 90
        3
 70
   128
 43
0.0
 10
163.3330363031
 20
401.1721348538
 10
163.0706873491
 20
400.1103730505
 10
162.791035461
 20
398.8746887664
  0
SPLINE
  5
AB
330
1F
100
AcDbEntity
  8
0
  6
Continuous
 62
     7
370
    25
100
AcDbSpline
210
0.0
220
0.0
230
1.0
 70
     8
 71
     3
 72
     9
 73
     5
 74
     0
 42
0.00000001
 43
0.00000001
 40
0.0
 40
0.0
 40
0.0
 40
0.0
 40
0.99536568956973
 40
1.0
 40
1.0
 40
1.0
 40
1.0
 10
160.1826961549827
 20
402.0224301385848
 30
0.0
 10
160.1821992731698
 20
401.8765116086383
 30
0.0
 10
160.1817000779311
 20
401.7299136984677
 30
0.0
 10
160.1838776364948
 20
401.6582306448919
 30
0.0
 10
160.1838877279772
 20
401.657898443369
 30
0.0
  0
SPLINE
  5
AC
330
1F
100
AcDbEntity
  8
0
  6
Continuous
 62
     7
370
    25
100
AcDbSpline
210
0.0
220
0.0
230
1.0
 70
     8
 71
     3
 72
     9
 73
     5
 74
     0
 42
0.00000001
 43
0.00000001
 40
0.0
 40
0.0
 40
0.0
 40
0.0
 40
0.1416013529453622
 40
0.9999999999999999
 40
0.9999999999999999
 40
0.9999999999999999
 40
0.9999999999999999
 10
206.1804412665298
 20
401.6358822748622
 30
0.0
 10
206.1808286140684
 20
401.6431925512402
 30
0.0
 10
206.1835640931483
 20
401.6948183035793
 30
0.0
 10
206.1828694479523
 20
401.799871112529
 30
0.0
 10
206.1822731654558
 20
401.8900483016008
 30
0.0
  0
ARC
  5
AD
330
1F
100
AcDbEntity
  8
0
  6
Continuous
 62
     7
370
    25
100
AcDbCircle
 10
108.1826961546
 20
373.6358822749
 30
0.0
 40
34.99647852141001
100
AcDbArc
 50
45.5905759152
 51
314.4094240848
  0
ARC
  5
AE
330
1F
100
AcDbEntity
  8
0
  6
Continuous
 62
     7
370
    25
100
AcDbCircle
 10
258.1826961546
 20
373.6358822749
 30
0.0
 40
34.99647852141004
100
AcDbArc
 50
0.0
 51
134.4094240848
  0
ARC
  5
AF
330
1F
100
AcDbEntity
  8
0
  6
Continuous
 62
     7
370
    25
100
AcDbCircle
 10
258.1826961546
 20
373.6358822749
 30
0.0
 40
34.99647852141004
100
AcDbArc
 50
225.5905759152
 51
0.0
  0
LINE
  5
B0
330
1F
100
AcDbEntity
  8
0
  6
Continuous
 62
     7
370
    25
100
AcDbLine
 10
170.6399155421
 20
398.6358822749
 30
0.0
 11
195.7254767671
 21
398.6358822749
 31
0.0
  0
LINE
  5
B1
330
1F
100
AcDbEntity
  8
0
  6
Continuous
 62
     7
370
    25
100
AcDbLine
 10
159.6399856945
 20
398.6358822749
 30
0.0
 11
170.6399155421
 21
398.6358822749
 31
0.0
  0
LINE
  5
B2
330
1F
100
AcDbEntity
  8
0
  6
Continuous
 62
     7
370
    25
100
AcDbLine
 10
195.7254767671
 20
398.6358822749
 30
0.0
 11
206.7254066147
 21
398.6358822749
 31
0.0
  0
LINE
  5
B3
330
1F
100
AcDbEntity
  8
0
  6
Continuous
 62
     7
370
    25
100
AcDbLine
 10
177.1304758484
 20
372.0558822749
 30
0.0
 11
170.6399155421
 21
372.0558822749
 31
0.0
  0
LINE
  5
B4
330
1F
100
AcDbEntity
  8
0
  6
Continuous
 62
     7
370
    25
100
AcDbLine
 10
195.7254767671
 20
372.0558822749
 30
0.0
 11
189.2349164608
 21
372.0558822749
 31
0.0
  0
SPLINE
  5
B5
330
1F
100
AcDbEntity
  8
0
  6
Continuous
 62
     7
370
    25
100
AcDbSpline
210
0.0
220
0.0
230
1.0
 70
     8
 71
     3
 72
    20
 73
    16
 74
     0
 42
0.00000001
 43
0.00000001
 40
0.0
 40
0.0
 40
0.0
 40
0.0
 40
0.2499999999999988
 40
0.2499999999999988
 40
0.3749999999999991
 40
0.3749999999999991
 40
0.4999999999999993
 40
0.4999999999999993
 40
0.6249999999999996
 40
0.6249999999999996
 40
0.7499999999999998
 40
0.7499999999999998
 40
0.8749999999999999
 40
0.8749999999999999
 40
1.0
 40
1.0
 40
1.0
 40
1.0
 10
189.2349164607623
 20
372.0558822748702
 30
0.0
 10
188.3142273157744
 20
372.0558822748702
 30
0.0
 10
187.3435919660461
 20
372.0901213792389
 30
0.0
 10
185.8138240690659
 20
372.1329153525846
 30
0.0
 10
185.2879285688835
 20
372.1461691793143
 30
0.0
 10
184.2390549524281
 20
372.164294322511
 30
0.0
 10
183.7136881476957
 20
372.1692728590231
 30
0.0
 10
182.6611179449597
 20
372.1693302681467
 30
0.0
 10
182.1339146973495
 20
372.164405594765
 30
0.0
 10
181.0776089130656
 20
372.1461912133143
 30
0.0
 10
180.5572008804667
 20
372.1330604992988
 30
0.0
 10
179.540774911108
 20
372.1046515012001
 30
0.0
 10
179.0431590054264
 20
372.0893334780341
 30
0.0
 10
178.0691228820755
 20
372.0649539029288
 30
0.0
 10
177.5907583994795
 20
372.0558822748702
 30
0.0
 10
177.1304758484357
 20
372.0558822748702
 30
0.0
  0
LINE
  5
B6
330
1F
100
AcDbEntity
  8
0
  6
Continuous
 62
     7
370
    25
100
AcDbLine
 10
194.1826961546
 20
371.1791389558
 30
0.0
 11
194.1826961546
 21
368.1791389558
 31
0.0
  0
LINE
  5
B7
330
1F
100
AcDbEntity
  8
0
  6
Continuous
 62
     7
370
    25
100
AcDbLine
 10
194.1826961546
 20
368.1791389558
 30
0.0
 11
172.1826961546
 21
368.1791389558
 31
0.0
  0
LINE
  5
B8
330
1F
100
AcDbEntity
  8
0
  6
Continuous
 62
     7
370
    25
100
AcDbLine
 10
172.1826961546
 20
371.1791389558
 30
0.0
 11
172.1826961546
 21
368.1791389558
 31
0.0
  0
LINE
  5
B9
330
1F
100
AcDbEntity
  8
0
  6
Continuous
 62
     7
370
    25
100
AcDbLine
 10
171.3059528355
 20
372.0558822749
 30
0.0
 11
172.1826961546
 21
371.1791389558
 31
0.0
  0
LINE
  5
BA
330
1F
100
AcDbEntity
  8
0
  6
Continuous
 62
     7
370
    25
100
AcDbLine
 10
194.1826961546
 20
371.1791389558
 30
0.0
 11
195.0594394737
 21
372.0558822749
 31
0.0
  0
SPLINE
  5
BB
330
1F
100
AcDbEntity
  8
0
  6
Continuous
 62
     7
370
    25
100
AcDbSpline
210
0.0
220
0.0
230
1.0
 70
    24
 71
     3
 72
    12
 73
     8
 74
     0
 42
0.00000001
 43
0.00000001
 40
0.0
 40
0.0
 40
0.0
 40
0.0
 40
0.5000000000000042
 40
0.5000000000000042
 40
0.7500000000000021
 40
0.7500000000000021
 40
1.0
 40
1.0
 40
1.0
 40
1.0
 10
194.182696154599
 20
367.179138955815
 30
0.0
 10
194.182696154599
 20
367.179138955815
 30
0.0
 10
194.182696154599
 20
367.2731396757882
 30
0.0
 10
194.182696154599
 20
367.5332247753354
 30
0.0
 10
194.182696154599
 20
367.639970773807
 30
0.0
 10
194.182696154599
 20
367.886590633618
 30
0.0
 10
194.182696154599
 20
368.0261255683908
 30
0.0
 10
194.182696154599
 20
368.1791389558154
 30
0.0
  0
LINE
  5
BC
330
1F
100
AcDbEntity
  8
0
  6
Continuous
 62
     7
370
    25
100
AcDbLine
 10
194.1826961546
 20
367.1791389558
 30
0.0
 11
172.1826961546
 21
367.1791389558
 31
0.0
  0
SPLINE
  5
BD
330
1F
100
AcDbEntity
  8
0
  6
Continuous
 62
     7
370
    25
100
AcDbSpline
210
0.0
220
0.0
230
1.0
 70
    24
 71
     3
 72
     8
 73
     4
 74
     0
 42
0.00000001
 43
0.00000001
 40
0.0
 40
0.0
 40
0.0
 40
0.0
 40
1.0
 40
1.0
 40
1.0
 40
1.0
 10
172.182696154599
 20
368.1791389558154
 30
0.0
 10
172.182696154599
 20
367.5638114242764
 30
0.0
 10
172.182696154599
 20
367.179138955815
 30
0.0
 10
172.182696154599
 20
367.179138955815
 30
0.0
  0
LINE
  5
BE
330
1F
100
AcDbEntity
  8
0
  6
Continuous
 62
     7
370
    25
100
AcDbLine
 10
208.0114971735
 20
383.3766261164
 30
0.0
 11
208.0114971735
 21
397.6358822749
 31
0.0
  0
LINE
  5
BF
330
1F
100
AcDbEntity
  8
0
  6
Continuous
 62
     7
370
    25
100
AcDbLine
 10
206.7254066147
 20
398.6358822749
 30
0.0
 11
207.011503551
 21
398.6358822749
 31
0.0
  0
SPLINE
  5
C0
330
1F
100
AcDbEntity
  8
0
  6
Continuous
 62
     7
370
    25
100
AcDbSpline
210
0.0
220
0.0
230
1.0
 70
     8
 71
     3
 72
    13
 73
     9
 74
     0
 42
0.00000001
 43
0.00000001
 40
0.0
 40
0.0
 40
0.0
 40
0.0
 40
0.1366288584727738
 40
0.2754264388062406
 40
0.4606096522171285
 40
0.648682895320187
 40
0.8444138042065531
 40
1.0
 40
1.0
 40
1.0
 40
1.0
 10
195.9102137844776
 20
372.0558822748702
 30
0.0
 10
196.3417619577896
 20
372.0704139176826
 30
0.0
 10
197.2117083064401
 20
372.0997078653489
 30
0.0
 10
198.3677677228415
 20
372.2921605096761
 30
0.0
 10
199.388188792613
 20
372.5498593271593
 30
0.0
 10
200.1647246433078
 20
372.8168127860594
 30
0.0
 10
200.62427445044
 20
373.0017597004795
 30
0.0
 10
200.659809807173
 20
373.0146592892362
 30
0.0
 10
200.6755471877235
 20
373.0203720709803
 30
0.0
  0
LINE
  5
C1
330
1F
100
AcDbEntity
  8
0
  6
Continuous
 62
     7
370
    25
100
AcDbLine
 10
195.9102137845
 20
372.0558822749
 30
0.0
 11
195.7254767671
 21
372.0558822749
 31
0.0
  0
LINE
  5
C2
330
1F
100
AcDbEntity
  8
0
  6
Continuous
 62
     7
370
    25
100
AcDbLine
 10
158.3538951357
 20
397.6358822749
 30
0.0
 11
158.3538951357
 21
383.3766261164
 31
0.0
  0
LINE
  5
C3
330
1F
100
AcDbEntity
  8
0
  6
Continuous
 62
     7
370
    25
100
AcDbLine
 10
170.6399155421
 20
372.0558822749
 30
0.0
 11
170.4551785247
 21
372.0558822749
 31
0.0
  0
SPLINE
  5
C4
330
1F
100
AcDbEntity
  8
0
  6
Continuous
 62
     7
370
    25
100
AcDbSpline
210
0.0
220
0.0
230
1.0
 70
     8
 71
     3
 72
    13
 73
     9
 74
     0
 42
0.00000001
 43
0.00000001
 40
0.0
 40
0.0
 40
0.0
 40
0.0
 40
0.1524028958268689
 40
0.3511105272995299
 40
0.5364399978705917
 40
0.7244861119685184
 40
0.8612859869128546
 40
1.0
 40
1.0
 40
1.0
 40
1.0
 10
165.6894847591711
 20
373.020526769653
 30
0.0
 10
165.7046114243713
 20
373.0150678396847
 30
0.0
 10
165.7394607057178
 20
373.0024913871882
 30
0.0
 10
166.1943768049848
 20
372.8191123738964
 30
0.0
 10
166.9725055007152
 20
372.5514469008356
 30
0.0
 10
167.9865570925826
 20
372.2943575834882
 30
0.0
 10
169.1480191168143
 20
372.1004771998308
 30
0.0
 10
170.0174452703317
 20
372.0708159405839
 30
0.0
 10
170.4551785247205
 20
372.0558822748702
 30
0.0
  0
LINE
  5
C5
330
1F
100
AcDbEntity
  8
0
  6
Continuous
 62
     7
370
    25
100
AcDbLine
 10
159.3538887582
 20
398.6358822749
 30
0.0
 11
159.6399856945
 21
398.6358822749
 31
0.0
  0
SPLINE
  5
C6
330
1F
100
AcDbEntity
  8
0
  6
Continuous
 62
     7
370
    25
100
AcDbSpline
210
0.0
220
0.0
230
1.0
 70
    24
 71
     3
 72
    14
 73
    10
 74
     0
 42
0.00000001
 43
0.00000001
 40
0.0
 40
0.0
 40
0.0
 40
0.0
 40
0.25
 40
0.25
 40
0.5
 40
0.5
 40
0.75
 40
0.75
 40
1.0
 40
1.0
 40
1.0
 40
1.0
 10
192.232696154599
 20
366.9791389558152
 30
0.0
 10
192.232696154599
 20
366.9791389558152
 30
0.0
 10
191.2791687170501
 20
366.9791389558152
 30
0.0
 10
187.8848563316244
 20
366.9791389558152
 30
0.0
 10
185.582837459799
 20
366.9791389558152
 30
0.0
 10
180.782554849399
 20
366.9791389558152
 30
0.0
 10
178.4805359775736
 20
366.9791389558152
 30
0.0
 10
175.0862235921479
 20
366.9791389558152
 30
0.0
 10
174.132696154599
 20
366.9791389558152
 30
0.0
 10
174.132696154599
 20
366.9791389558152
 30
0.0
  0
SPLINE
  5
C7
330
1F
100
AcDbEntity
  8
0
  6
Continuous
 62
     7
370
    25
100
AcDbSpline
210
0.0
220
0.0
230
1.0
 70
     8
 71
     3
 72
    20
 73
    16
 74
     0
 42
0.00000001
 43
0.00000001
 40
0.0
 40
0.0
 40
0.0
 40
0.0
 40
0.0428905943603963
 40
0.1217538689961828
 40
0.188735015339276
 40
0.2507077448825878
 40
0.3657225560300325
 40
0.4691396345852993
 40
0.5724655944921019
 40
0.6867621074920303
 40
0.7371778909428924
 40
0.7908189452290637
 40
0.8513728900672016
 40
0.9218506412502959
 40
0.9999999999999999
 40
0.9999999999999999
 40
0.9999999999999999
 40
0.9999999999999999
 10
192.0167265252146
 20
435.3911622580177
 30
0.0
 10
192.3341012494401
 20
435.3881199698092
 30
0.0
 10
193.2350353859865
 20
435.3794838022416
 30
0.0
 10
194.6302061174425
 20
435.362081021916
 30
0.0
 10
196.1562597737156
 20
435.3409525117848
 30
0.0
 10
197.9207610331306
 20
435.3134950611273
 30
0.0
 10
199.8816905376557
 20
435.2786969565312
 30
0.0
 10
201.8596672556652
 20
435.2385800689618
 30
0.0
 10
203.3189986662442
 20
435.2061407052521
 30
0.0
 10
204.0723598429065
 20
435.1883607850463
 30
0.0
 10
204.4719977607024
 20
435.1787510322989
 30
0.0
 10
204.6852733858856
 20
435.1735598164033
 30
0.0
 10
204.8334139440945
 20
435.1699242696675
 30
0.0
 10
204.9061609434396
 20
435.1681293095014
 30
0.0
 10
204.9128636714692
 20
435.1679637604476
 30
0.0
 10
204.9163880210823
 20
435.1678767133914
 30
0.0
  0
ARC
  5
C8
330
1F
100
AcDbEntity
  8
0
  6
Continuous
 62
     7
370
    25
100
AcDbCircle
 10
183.2091357364
 20
-443.7933138029
 30
0.0
 40
879.2291960778001
100
AcDbArc
 50
89.4987697213
 51
90.5046802546
  0
SPLINE
  5
C9
330
1F
100
AcDbEntity
  8
0
  6
Continuous
 62
     7
370
    25
100
AcDbSpline
210
0.0
220
0.0
230
1.0
 70
     8
 71
     3
 72
    24
 73
    20
 74
     0
 42
0.00000001
 43
0.00000001
 40
0.0
 40
0.0
 40
0.0
 40
0.0
 40
0.04589161451034
 40
0.0883201197377101
 40
0.1630610571369302
 40
0.2266838241811023
 40
0.2855527436805714
 40
0.3600023721855532
 40
0.4286401912605511
 40
0.4933936297349386
 40
0.5582762097046269
 40
0.6267527248789944
 40
0.7008786358011448
 40
0.7613831435622125
 40
0.8267825670715097
 40
0.8657955231319965
 40
0.9080147718341369
 40
0.9531064038599609
 40
1.0
 40
1.0
 40
1.0
 40
1.0
 10
161.4489440770014
 20
435.16656770166
 30
0.0
 10
161.4510406253988
 20
435.1666196182792
 30
0.0
 10
161.4550755108017
 20
435.1667195337449
 30
0.0
 10
161.4830803221994
 20
435.1674122869331
 30
0.0
 10
161.569429803296
 20
435.1695467759769
 30
0.0
 10
161.7792638062435
 20
435.1746952728681
 30
0.0
 10
162.1147528854772
 20
435.182828558936
 30
0.0
 10
162.6297189998037
 20
435.1950890094677
 30
0.0
 10
163.3909062826797
 20
435.2126344955995
 30
0.0
 10
164.3524252108598
 20
435.2338619097741
 30
0.0
 10
165.53797313808
 20
435.258596685942
 30
0.0
 10
166.9504317917255
 20
435.2859791073761
 30
0.0
 10
168.438208251155
 20
435.3122348214631
 30
0.0
 10
169.9531567381002
 20
435.3363437276082
 30
0.0
 10
171.2236692201062
 20
435.3544700258751
 30
0.0
 10
172.3598781373186
 20
435.36911535741
 30
0.0
 10
173.341245095632
 20
435.3806874818977
 30
0.0
 10
174.3847488415215
 20
435.3918747785978
 30
0.0
 10
175.1000409046473
 20
435.3984316061059
 30
0.0
 10
175.4646931189127
 20
435.4017742430407
 30
0.0
  0
LINE
  5
CA
330
1F
100
AcDbEntity
  8
0
  6
Continuous
 62
     7
370
    25
100
AcDbLine
 10
196.6826961546
 20
362.6358822749
 30
0.0
 11
169.6826961546
 21
362.6358822749
 31
0.0
  0
SPLINE
  5
CB
330
1F
100
AcDbEntity
  8
0
  6
Continuous
 62
     7
370
    25
100
AcDbSpline
210
0.0
220
0.0
230
1.0
 70
    24
 71
     3
 72
    14
 73
    10
 74
     0
 42
0.00000001
 43
0.00000001
 40
0.0
 40
0.0
 40
0.0
 40
0.0
 40
0.2499999999999999
 40
0.2499999999999999
 40
0.4999999999999999
 40
0.4999999999999999
 40
0.7499999999999999
 40
0.7499999999999999
 40
0.9999999999999999
 40
0.9999999999999999
 40
0.9999999999999999
 40
0.9999999999999999
 10
171.682696154599
 20
417.8358822748702
 30
0.0
 10
171.682696154599
 20
417.8358822748702
 30
0.0
 10
172.8943608542468
 20
417.8358822748702
 30
0.0
 10
177.2075754876606
 20
417.8358822748702
 30
0.0
 10
180.132792838599
 20
417.8358822748702
 30
0.0
 10
186.232599470599
 20
417.8358822748702
 30
0.0
 10
189.1578168215374
 20
417.8358822748702
 30
0.0
 10
193.4710314549512
 20
417.8358822748702
 30
0.0
 10
194.682696154599
 20
417.8358822748702
 30
0.0
 10
194.682696154599
 20
417.8358822748702
 30
0.0
  0
SPLINE
  5
CC
330
1F
100
AcDbEntity
  8
0
  6
Continuous
 62
     7
370
    25
100
AcDbSpline
210
0.0
220
0.0
230
1.0
 70
    24
 71
     3
 72
    14
 73
    10
 74
     0
 42
0.00000001
 43
0.00000001
 40
0.0
 40
0.0
 40
0.0
 40
0.0
 40
0.2499999999999998
 40
0.2499999999999998
 40
0.4999999999999998
 40
0.4999999999999998
 40
0.7499999999999998
 40
0.7499999999999998
 40
0.9999999999999999
 40
0.9999999999999999
 40
0.9999999999999999
 40
0.9999999999999999
 10
194.682696154599
 20
410.8358822748702
 30
0.0
 10
194.682696154599
 20
410.8358822748702
 30
0.0
 10
193.4710314549513
 20
410.8358822748702
 30
0.0
 10
189.1578168215374
 20
410.8358822748702
 30
0.0
 10
186.232599470599
 20
410.8358822748702
 30
0.0
 10
180.132792838599
 20
410.8358822748702
 30
0.0
 10
177.2075754876606
 20
410.8358822748702
 30
0.0
 10
172.8943608542468
 20
410.8358822748702
 30
0.0
 10
171.682696154599
 20
410.8358822748702
 30
0.0
 10
171.682696154599
 20
410.8358822748702
 30
0.0
  0
LINE
  5
CD
330
1F
100
AcDbEntity
  8
0
  6
Continuous
 62
     7
370
    25
100
AcDbLine
 10
204.9163880211
 20
435.1678767134
 30
0.0
 11
205.147447621
 21
435.1621399644
 31
0.0
  0
LINE
  5
CE
330
1F
100
AcDbEntity
  8
0
  6
Continuous
 62
     7
370
    25
100
AcDbLine
 10
161.217884477
 20
435.1608170274
 30
0.0
 11
161.448944077
 21
435.1665677017
 31
0.0
  0
LINE
  5
CF
330
1F
100
AcDbEntity
  8
0
  6
Continuous
 62
     7
370
    25
100
AcDbLine
 10
183.1826961546
 20
362.4358822749
 30
0.0
 11
194.1655495705
 21
362.4358822749
 31
0.0
  0
LINE
  5
D0
330
1F
100
AcDbEntity
  8
0
  6
Continuous
 62
     7
370
    25
100
AcDbLine
 10
172.1998427387
 20
362.4358822749
 30
0.0
 11
183.1826961546
 21
362.4358822749
 31
0.0
  0
LINE
  5
D1
330
1F
100
AcDbEntity
  8
0
  6
Continuous
 62
     7
370
    25
100
AcDbLine
 10
183.1826961546
 20
353.2358822749
 30
0.0
 11
193.3226961546
 21
353.2358822749
 31
0.0
  0
LINE
  5
D2
330
1F
100
AcDbEntity
  8
0
  6
Continuous
 62
     7
370
    25
100
AcDbLine
 10
173.0426961546
 20
353.2358822749
 30
0.0
 11
183.1826961546
 21
353.2358822749
 31
0.0
  0
LINE
  5
D3
330
1F
100
AcDbEntity
  8
0
  6
Continuous
 62
     7
370
    25
100
AcDbLine
 10
183.1826961546
 20
352.7358822749
 30
0.0
 11
192.8226961546
 21
352.7358822749
 31
0.0
  0
LINE
  5
D4
330
1F
100
AcDbEntity
  8
0
  6
Continuous
 62
     7
370
    25
100
AcDbLine
 10
173.5426961546
 20
352.7358822749
 30
0.0
 11
183.1826961546
 21
352.7358822749
 31
0.0
  0
SPLINE
  5
D5
330
1F
100
AcDbEntity
  8
0
  6
Continuous
 62
     7
370
    25
100
AcDbSpline
210
0.0
220
0.0
230
1.0
 70
    24
 71
     3
 72
    14
 73
    10
 74
     0
 42
0.00000001
 43
0.00000001
 40
0.0
 40
0.0
 40
0.0
 40
0.0
 40
0.25
 40
0.25
 40
0.5
 40
0.5
 40
0.75
 40
0.75
 40
1.0
 40
1.0
 40
1.0
 40
1.0
 10
175.182696154599
 20
400.8358822748702
 30
0.0
 10
175.182696154599
 20
400.8358822748702
 30
0.0
 10
176.0255933369627
 20
400.8358822748702
 30
0.0
 10
179.0260904732506
 20
400.8358822748702
 30
0.0
 10
181.061024282599
 20
400.8358822748702
 30
0.0
 10
185.304368026599
 20
400.8358822748702
 30
0.0
 10
187.3393018359474
 20
400.8358822748702
 30
0.0
 10
190.3397989722353
 20
400.8358822748702
 30
0.0
 10
191.182696154599
 20
400.8358822748702
 30
0.0
 10
191.182696154599
 20
400.8358822748702
 30
0.0
  0
LINE
  5
D6
330
1F
100
AcDbEntity
  8
0
  6
Continuous
 62
     7
370
    25
100
AcDbLine
 10
140.3540099305
 20
398.6358822749
 30
0.0
 11
159.3538887582
 21
398.6358822749
 31
0.0
  0
LINE
  5
D7
330
1F
100
AcDbEntity
  8
0
  6
Continuous
 62
     7
370
    25
100
AcDbLine
 10
207.011503551
 20
398.6358822749
 30
0.0
 11
226.0113823787
 21
398.6358822749
 31
0.0
  0
ARC
  5
D8
330
1F
100
AcDbEntity
  8
0
  6
Continuous
 62
     7
370
    25
100
AcDbCircle
 10
183.1826961546
 20
417.6358822749
 30
0.0
 40
3.90000000000001
100
AcDbArc
 50
0.0
 51
177.0231011483
  0
LINE
  5
D9
330
1F
100
AcDbEntity
  8
0
  6
Continuous
 62
     7
370
    25
100
AcDbLine
 10
172.0432173929
 20
401.1358822749
 30
0.0
 11
174.7264777417
 21
401.1358822749
 31
0.0
  0
LINE
  5
DA
330
1F
100
AcDbEntity
  8
0
  6
Continuous
 62
     7
370
    25
100
AcDbLine
 10
191.6364391183
 20
401.1358822749
 30
0.0
 11
194.3221749163
 21
401.1358822749
 31
0.0
  0
SPLINE
  5
DB
330
1F
100
AcDbEntity
  8
0
  6
Continuous
 62
     7
370
    25
100
AcDbSpline
210
0.0
220
0.0
230
1.0
 70
    24
 71
     3
 72
     8
 73
     4
 74
     0
 42
0.00000001
 43
0.00000001
 40
0.0
 40
0.0
 40
0.0
 40
0.0
 40
1.0
 40
1.0
 40
1.0
 40
1.0
 10
225.0295372618968
 20
348.6358822748702
 30
0.0
 10
224.4179169445324
 20
348.6358822748702
 30
0.0
 10
223.8059984816939
 20
348.6358822748702
 30
0.0
 10
223.1934652828554
 20
348.6358822748702
 30
0.0
  0
SPLINE
  5
DC
330
1F
100
AcDbEntity
  8
0
  6
Continuous
 62
     7
370
    25
100
AcDbSpline
210
0.0
220
0.0
230
1.0
 70
    24
 71
     3
 72
     8
 73
     4
 74
     0
 42
0.00000001
 43
0.00000001
 40
0.0
 40
0.0
 40
0.0
 40
0.0
 40
1.0
 40
1.0
 40
1.0
 40
1.0
 10
143.171927026324
 20
348.6358822748702
 30
0.0
 10
142.559487026959
 20
348.6358822748702
 30
0.0
 10
141.9475491590538
 20
348.6358822748702
 30
0.0
 10
141.3358550473013
 20
348.6358822748702
 30
0.0
  0
LINE
  5
DD
330
1F
100
AcDbEntity
  8
0
  6
Continuous
 62
     7
370
    25
100
AcDbLine
 10
223.1934652829
 20
348.6358822749
 30
0.0
 11
143.1719270263
 21
348.6358822749
 31
0.0
  0
LINE
  5
DE
330
1F
100
AcDbEntity
  8
0
  6
Continuous
 62
     7
370
    25
100
AcDbLine
 10
141.3358550473
 20
348.6358822749
 30
0.0
 11
140.3540099305
 21
348.6358822749
 31
0.0
  0
LINE
  5
DF
330
1F
100
AcDbEntity
  8
0
  6
Continuous
 62
     7
370
    25
100
AcDbLine
 10
226.0113823787
 20
348.6358822749
 30
0.0
 11
225.0295372619
 21
348.6358822749
 31
0.0
  0
SPLINE
  5
E0
330
1F
100
AcDbEntity
  8
0
  6
Continuous
 62
     7
370
    25
100
AcDbSpline
210
0.0
220
0.0
230
1.0
 70
     8
 71
     3
 72
     9
 73
     5
 74
     0
 42
0.00000001
 43
0.00000001
 40
0.0
 40
0.0
 40
0.0
 40
0.0
 40
0.8562424765654894
 40
0.9999999999999999
 40
0.9999999999999999
 40
0.9999999999999999
 40
0.9999999999999999
 10
206.1814371401024
 20
401.6358822748622
 30
0.0
 10
206.1821292115578
 20
401.6436794819113
 30
0.0
 10
206.1829374772937
 20
401.6527857891346
 30
0.0
 10
206.1825983302867
 20
402.0201739508883
 30
0.0
 10
206.1825495753529
 20
402.0729887631612
 30
0.0
  0
LINE
  5
E1
330
1F
100
AcDbEntity
  8
0
  6
Continuous
 62
     7
370
    25
100
AcDbLine
 10
205.147447621
 20
435.1621399644
 30
0.0
 11
205.1871431343
 21
435.1611479873
 31
0.0
  0
LINE
  5
E2
330
1F
100
AcDbEntity
  8
0
  6
Continuous
 62
     7
370
    25
100
AcDbLine
 10
161.1781889638
 20
435.1598226579
 30
0.0
 11
161.217884477
 21
435.1608170274
 31
0.0
  0
ARC
  5
E3
330
1F
100
AcDbEntity
  8
0
  6
Continuous
 62
     7
370
    25
100
AcDbCircle
 10
90.1826961546
 20
360.6358822749
 30
0.0
 40
12.0
100
AcDbArc
 50
180.0
 51
270.0
  0
ARC
  5
E4
330
1F
100
AcDbEntity
  8
0
  6
Continuous
 62
     7
370
    25
100
AcDbCircle
 10
90.1826961546
 20
386.6358822749
 30
0.0
 40
12.0
100
AcDbArc
 50
90.0
 51
180.0
  0
LINE
  5
E5
330
1F
100
AcDbEntity
  8
0
  6
Continuous
 62
     7
370
    25
100
AcDbLine
 10
90.1826961546
 20
398.6358822749
 30
0.0
 11
140.3540099305
 21
398.6358822749
 31
0.0
  0
LINE
  5
E6
330
1F
100
AcDbEntity
  8
0
  6
Continuous
 62
     7
370
    25
100
AcDbLine
 10
78.1826961546
 20
360.6358822749
 30
0.0
 11
78.1826961546
 21
386.6358822749
 31
0.0
  0
LINE
  5
E7
330
1F
100
AcDbEntity
  8
0
  6
Continuous
 62
     7
370
    25
100
AcDbLine
 10
140.3540099305
 20
348.6358822749
 30
0.0
 11
90.1826961546
 21
348.6358822749
 31
0.0
  0
LINE
  5
E8
330
1F
100
AcDbEntity
  8
0
  6
Continuous
 62
     7
370
    25
100
AcDbLine
 10
276.1826961546
 20
348.6358822749
 30
0.0
 11
226.0113823787
 21
348.6358822749
 31
0.0
  0
LINE
  5
E9
330
1F
100
AcDbEntity
  8
0
  6
Continuous
 62
     7
370
    25
100
AcDbLine
 10
226.0113823787
 20
398.6358822749
 30
0.0
 11
276.1826961546
 21
398.6358822749
 31
0.0
  0
ARC
  5
EA
330
1F
100
AcDbEntity
  8
0
  6
Continuous
 62
     7
370
    25
100
AcDbCircle
 10
276.1826961546
 20
360.6358822749
 30
0.0
 40
12.0
100
AcDbArc
 50
270.0
 51
0.0
  0
ARC
  5
EB
330
1F
100
AcDbEntity
  8
0
  6
Continuous
 62
     7
370
    25
100
AcDbCircle
 10
276.1826961546
 20
386.6358822749
 30
0.0
 40
12.0
100
AcDbArc
 50
0.0
 51
90.0
  0
LINE
  5
EC
330
1F
100
AcDbEntity
  8
0
  6
Continuous
 62
     7
370
    25
100
AcDbLine
 10
288.1826961546
 20
386.6358822749
 30
0.0
 11
288.1826961546
 21
360.6358822749
 31
0.0
  0
SPLINE
  5
ED
330
1F
100
AcDbEntity
  8
0
  6
Continuous
 62
     7
370
    25
100
AcDbSpline
210
0.0
220
0.0
230
1.0
 70
    24
 71
     3
 72
    24
 73
    20
 74
     0
 42
0.00000001
 43
0.00000001
 40
0.0
 40
0.0
 40
0.0
 40
0.0
 40
0.1250000000000002
 40
0.1250000000000002
 40
0.2500000000000003
 40
0.2500000000000003
 40
0.3750000000000005
 40
0.3750000000000005
 40
0.4375000000000006
 40
0.4375000000000006
 40
0.5000000000000007
 40
0.5000000000000007
 40
0.6250000000000004
 40
0.6250000000000004
 40
0.7500000000000003
 40
0.7500000000000003
 40
0.8750000000000001
 40
0.8750000000000001
 40
1.0
 40
1.0
 40
1.0
 40
1.0
 10
194.3221737833719
 20
401.1358822748622
 30
0.0
 10
195.200670595546
 20
401.1358822748622
 30
0.0
 10
196.0759106449758
 20
401.1358822748622
 30
0.0
 10
197.7966580565926
 20
401.1358822748622
 30
0.0
 10
198.6429709683864
 20
401.1358822748622
 30
0.0
 10
200.2601020788378
 20
401.1358822748622
 30
0.0
 10
201.0296956007119
 20
401.1358822748622
 30
0.0
 10
202.0626245847819
 20
401.1358822748622
 30
0.0
 10
202.3861133188284
 20
401.1358822748622
 30
0.0
 10
202.9820084526383
 20
401.1358822748622
 30
0.0
 10
203.2545813028407
 20
401.1358822748622
 30
0.0
 10
203.9944039721228
 20
401.1358822748622
 30
0.0
 10
204.3815741931769
 20
401.1358822748622
 30
0.0
 10
204.9814018636575
 20
401.1358822748622
 30
0.0
 10
205.1954964350103
 20
401.1358822748622
 30
0.0
 10
205.4945713736122
 20
401.1358822748622
 30
0.0
 10
205.5803399438304
 20
401.1358822748622
 30
0.0
 10
205.6695465856323
 20
401.1358822748622
 30
0.0
 10
205.6737561771783
 20
401.1358822748622
 30
0.0
 10
205.6753621563219
 20
401.1358822748622
 30
0.0
  0
SPLINE
  5
EE
330
1F
100
AcDbEntity
  8
0
  6
Continuous
 62
     7
370
    25
100
AcDbSpline
210
0.0
220
0.0
230
1.0
 70
    24
 71
     3
 72
    24
 73
    20
 74
     0
 42
0.00000001
 43
0.00000001
 40
0.0
 40
0.0
 40
0.0
 40
0.0
 40
0.1250000000000003
 40
0.1250000000000003
 40
0.2500000000000007
 40
0.2500000000000007
 40
0.375000000000001
 40
0.375000000000001
 40
0.5000000000000013
 40
0.5000000000000013
 40
0.5625000000000013
 40
0.5625000000000013
 40
0.6250000000000014
 40
0.6250000000000014
 40
0.7500000000000011
 40
0.7500000000000011
 40
0.8750000000000006
 40
0.8750000000000006
 40
1.0
 40
1.0
 40
1.0
 40
1.0
 10
160.6900301524918
 20
401.1358822748722
 30
0.0
 10
160.6916454179037
 20
401.1358822748722
 30
0.0
 10
160.6959564554848
 20
401.1358822748722
 30
0.0
 10
160.7849410156504
 20
401.1358822748722
 30
0.0
 10
160.8708248024495
 20
401.1358822748722
 30
0.0
 10
161.1699043834787
 20
401.1358822748722
 30
0.0
 10
161.3840252692973
 20
401.1358822748722
 30
0.0
 10
161.9838808406076
 20
401.1358822748722
 30
0.0
 10
162.3710451580796
 20
401.1358822748722
 30
0.0
 10
163.1109392724165
 20
401.1358822748722
 30
0.0
 10
163.3834966173717
 20
401.1358822748722
 30
0.0
 10
163.9793974371299
 20
401.1358822748722
 30
0.0
 10
164.3029137638842
 20
401.1358822748729
 30
0.0
 10
165.335936005063
 20
401.1358822748696
 30
0.0
 10
166.1056452110798
 20
401.1358822748622
 30
0.0
 10
167.7228863511237
 20
401.1358822748622
 30
0.0
 10
168.5691716705614
 20
401.1358822748622
 30
0.0
 10
170.2897476969281
 20
401.1358822748622
 30
0.0
 10
171.1647356792469
 20
401.1358822748622
 30
0.0
 10
172.0432173929119
 20
401.1358822748622
 30
0.0
  0
LINE
  5
EF
330
1F
100
AcDbEntity
  8
0
  6
Continuous
 62
     7
370
    25
100
AcDbLine
 10
162.791035461
 20
398.8746887664
 30
0.0
 11
177.6076961546
 21
398.8746887664
 31
0.0
  0
LINE
  5
F0
330
1F
100
AcDbEntity
  8
0
  6
Continuous
 62
     7
370
    25
100
AcDbLine
 10
188.7576961546
 20
398.8746887664
 30
0.0
 11
203.5743568482
 21
398.8746887664
 31
0.0
  0
ARC
  5
F1
330
1F
100
AcDbEntity
  8
0
  6
Continuous
 62
     7
370
    25
100
AcDbCircle
 10
160.6839550978
 20
401.6358822034
 30
0.0
 40
0.4999999286852546
100
AcDbArc
 50
179.9999918113
 51
269.8842873017
  0
ARC
  5
F2
330
1F
100
AcDbEntity
  8
0
  6
Continuous
 62
     7
370
    25
100
AcDbCircle
 10
205.6814372117
 20
401.6358822032
 30
0.0
 40
0.499999928346204
100
AcDbArc
 50
270.0000082117
 51
0.0000082109
  0
LINE
  5
F3
330
1F
100
AcDbEntity
  8
0
  6
Continuous
 62
     8
370
    18
100
AcDbLine
 10
195.7254767671
 20
397.6358822749
 30
0.0
 11
170.6399155421
 21
397.6358822749
 31
0.0
  0
LINE
  5
F4
330
1F
100
AcDbEntity
  8
0
  6
Continuous
 62
     8
370
    18
100
AcDbLine
 10
170.6399155421
 20
397.6358822749
 30
0.0
 11
158.639992072
 21
397.6358822749
 31
0.0
  0
ARC
  5
F5
330
1F
100
AcDbEntity
  8
0
  6
Continuous
 62
     8
370
    18
100
AcDbCircle
 10
159.6399888833
 20
397.6358854636
 30
0.0
 40
0.99999681127019
100
AcDbArc
 50
90.0001827028
 51
180.0001827016
  0
ARC
  5
F6
330
1F
100
AcDbEntity
  8
0
  6
Continuous
 62
     8
370
    18
100
AcDbCircle
 10
170.6399553793
 20
384.0558455822
 30
0.0
 40
11.99996330738144
100
AcDbArc
 50
179.9998248048
 51
269.9998097908
  0
LINE
  5
F7
330
1F
100
AcDbEntity
  8
0
  6
Continuous
 62
     8
370
    18
100
AcDbLine
 10
207.7254002372
 20
397.6358822749
 30
0.0
 11
195.7254767671
 21
397.6358822749
 31
0.0
  0
ARC
  5
F8
330
1F
100
AcDbEntity
  8
0
  6
Continuous
 62
     8
370
    18
100
AcDbCircle
 10
206.7254034259
 20
397.6358854636
 30
0.0
 40
0.9999968112702469
100
AcDbArc
 50
359.9998172984
 51
89.9998172972
  0
ARC
  5
F9
330
1F
100
AcDbEntity
  8
0
  6
Continuous
 62
     8
370
    18
100
AcDbCircle
 10
195.7254400742
 20
384.0558424379
 30
0.0
 40
11.99996016310458
100
AcDbArc
 50
270.0001751964
 51
0.0001902081
  0
LINE
  5
FA
330
1F
100
AcDbEntity
  8
0
  6
Continuous
 62
     8
370
    18
100
AcDbLine
 10
207.7254002372
 20
397.6358822749
 30
0.0
 11
207.7254002372
 21
384.0558822749
 31
0.0
  0
LINE
  5
FB
330
1F
100
AcDbEntity
  8
0
  6
Continuous
 62
     8
370
    18
100
AcDbLine
 10
158.639992072
 20
384.0558822749
 30
0.0
 11
158.639992072
 21
397.6358822749
 31
0.0
  0
ELLIPSE
  5
FC
330
1F
100
AcDbEntity
  8
0
  6
Continuous
 62
     8
370
    18
100
AcDbEllipse
 10
207.9862930156
 20
347.0558822749
 30
0.0
 11
0.0
 21
37.0
 31
0.0
210
0.0
220
0.0
230
1.0
 40
0.0035714286
 41
6.091275316744412
 42
6.283185307179586
  0
LINE
  5
FD
330
1F
100
AcDbEntity
  8
0
  6
Continuous
 62
     8
370
    18
100
AcDbLine
 10
207.7254002372
 20
384.0558822749
 30
0.0
 11
207.9862930156
 21
384.0558822749
 31
0.0
  0
LINE
  5
FE
330
1F
100
AcDbEntity
  8
0
  6
Continuous
 62
     8
370
    18
100
AcDbLine
 10
208.0114971735
 20
397.6358822749
 30
0.0
 11
207.7254002372
 21
397.6358822749
 31
0.0
  0
ARC
  5
FF
330
1F
100
AcDbEntity
  8
0
  6
Continuous
 62
     8
370
    18
100
AcDbCircle
 10
207.0115003623
 20
397.6358854636
 30
0.0
 40
0.9999968112703037
100
AcDbArc
 50
359.9998172984
 51
89.9998172972
  0
ARC
  5
100
330
1F
100
AcDbEntity
  8
0
  6
Continuous
 62
     8
370
    18
100
AcDbCircle
 10
195.9862950972
 20
384.0558614387
 30
0.0
 40
11.99999791841362
100
AcDbArc
 50
292.2149759066
 51
0.0000994853
  0
SPLINE
  5
101
330
1F
100
AcDbEntity
  8
0
  6
Continuous
 62
     8
370
    18
100
AcDbSpline
210
0.0
220
0.0
230
1.0
 70
     8
 71
     3
 72
    10
 73
     6
 74
     0
 42
0.00000001
 43
0.00000001
 40
0.0
 40
0.0
 40
0.0
 40
0.0
 40
0.1437570549683108
 40
0.7933359102996276
 40
1.0
 40
1.0
 40
1.0
 40
1.0
 10
200.6755471877235
 20
373.0203720709803
 30
0.0
 10
200.6863353723768
 20
373.0246695194764
 30
0.0
 10
200.7458709151318
 20
373.0483853657381
 30
0.0
 10
200.6296329424333
 20
372.9895337659523
 30
0.0
 10
200.3708435767878
 20
372.8914595905579
 30
0.0
 10
200.3083817848564
 20
372.867788259543
 30
0.0
  0
LINE
  5
102
330
1F
100
AcDbEntity
  8
0
  6
Continuous
 62
     8
370
    18
100
AcDbLine
 10
158.3790992936
 20
384.0558822749
 30
0.0
 11
158.639992072
 21
384.0558822749
 31
0.0
  0
ELLIPSE
  5
103
330
1F
100
AcDbEntity
  8
0
  6
Continuous
 62
     8
370
    18
100
AcDbEllipse
 10
158.3790992936
 20
347.0558822749
 30
0.0
 11
0.0
 21
37.0
 31
0.0
210
0.0
220
0.0
230
1.0
 40
0.0035714286
 41
0.0
 42
0.1919099904393322
  0
LINE
  5
104
330
1F
100
AcDbEntity
  8
0
  6
Continuous
 62
     8
370
    18
100
AcDbLine
 10
158.639992072
 20
397.6358822749
 30
0.0
 11
158.3538951357
 21
397.6358822749
 31
0.0
  0
SPLINE
  5
105
330
1F
100
AcDbEntity
  8
0
  6
Continuous
 62
     8
370
    18
100
AcDbSpline
210
0.0
220
0.0
230
1.0
 70
     8
 71
     3
 72
    10
 73
     6
 74
     0
 42
0.00000001
 43
0.00000001
 40
0.0
 40
0.0
 40
0.0
 40
0.0
 40
0.2137011585093152
 40
0.8583569157461699
 40
1.0
 40
1.0
 40
1.0
 40
1.0
 10
166.0737686522064
 20
372.8612409447438
 30
0.0
 10
166.0073525294911
 20
372.886379719847
 30
0.0
 10
165.740584026001
 20
372.987352693572
 30
0.0
 10
165.6195312494149
 20
373.0483655350083
 30
0.0
 10
165.6788069025064
 20
373.0247761396592
 30
0.0
 10
165.6894847591711
 20
373.020526769653
 30
0.0
  0
ARC
  5
106
330
1F
100
AcDbEntity
  8
0
  6
Continuous
 62
     8
370
    18
100
AcDbCircle
 10
170.37909638
 20
384.0558611718
 30
0.0
 40
11.99999708641982
100
AcDbArc
 50
179.9998992404
 51
248.4514466595
  0
ARC
  5
107
330
1F
100
AcDbEntity
  8
0
  6
Continuous
 62
     8
370
    18
100
AcDbCircle
 10
159.3538919469
 20
397.6358854636
 30
0.0
 40
0.9999968112702754
100
AcDbArc
 50
90.0001827028
 51
180.0001827016
  0
SPLINE
  5
108
330
1F
100
AcDbEntity
  8
0
  6
Continuous
 62
     8
370
    18
100
AcDbSpline
210
0.0
220
0.0
230
1.0
 70
     8
 71
     3
 72
    18
 73
    14
 74
     0
 42
0.00000001
 43
0.00000001
 40
0.0
 40
0.0
 40
0.0
 40
0.0
 40
0.0901481540545696
 40
0.1791861954163155
 40
0.2660960548473029
 40
0.3491500769116136
 40
0.427224843497226
 40
0.5011599178463403
 40
0.5874075382118727
 40
0.6810900977120334
 40
0.7826945700931194
 40
0.88981192066508
 40
1.0
 40
1.0
 40
1.0
 40
1.0
 10
190.8918909720863
 20
432.6176041280222
 30
0.0
 10
191.6393139190675
 20
432.6175406307232
 30
0.0
 10
193.1249558120267
 20
432.6174144180508
 30
0.0
 10
195.328539882513
 20
432.6163888809592
 30
0.0
 10
197.448170668858
 20
432.614758917528
 30
0.0
 10
199.4131893785518
 20
432.6124691795019
 30
0.0
 10
201.152548597089
 20
432.6094618311309
 30
0.0
 10
202.7028415563235
 20
432.6055924488124
 30
0.0
 10
204.0033758909999
 20
432.6000675059791
 30
0.0
 10
204.9843022196281
 20
432.5923788317967
 30
0.0
 10
205.5990591799443
 20
432.5828617370054
 30
0.0
 10
205.8732097445596
 20
432.5714913479103
 30
0.0
 10
205.8854690734652
 20
432.5623435376934
 30
0.0
 10
205.8916853558039
 20
432.5577049990322
 30
0.0
  0
SPLINE
  5
109
330
1F
100
AcDbEntity
  8
0
  6
Continuous
 62
     8
370
    18
100
AcDbSpline
210
0.0
220
0.0
230
1.0
 70
     8
 71
     3
 72
    19
 73
    15
 74
     0
 42
0.00000001
 43
0.00000001
 40
0.0
 40
0.0
 40
0.0
 40
0.0
 40
0.0795216183769212
 40
0.1603383728377685
 40
0.2420925570057977
 40
0.3248389240117332
 40
0.4087971597510628
 40
0.4939535365228332
 40
0.5573380565408022
 40
0.6295723500168212
 40
0.7101432941952712
 40
0.7989520693455167
 40
0.8958130360669858
 40
1.0
 40
1.0
 40
1.0
 40
1.0
 10
190.8918904927269
 20
434.4022772374622
 30
0.0
 10
191.5512740301384
 20
434.3961687716288
 30
0.0
 10
192.8807802150282
 20
434.3838523538766
 30
0.0
 10
194.8867186475095
 20
434.3605142734346
 30
0.0
 10
196.9026601770143
 20
434.3334955238806
 30
0.0
 10
198.8947600383179
 20
434.3030244011675
 30
0.0
 10
200.804253874203
 20
434.270405980349
 30
0.0
 10
202.364535467014
 20
434.2418719695282
 30
0.0
 10
203.5674763599521
 20
434.2184603477676
 30
0.0
 10
204.4783121637792
 20
434.1992838183562
 30
0.0
 10
205.1847715866856
 20
434.1838190056046
 30
0.0
 10
205.6527715184333
 20
434.1733239904286
 30
0.0
 10
205.8749132558642
 20
434.168455499734
 30
0.0
 10
205.8859604724332
 20
434.1682750465212
 30
0.0
 10
205.8916853558005
 20
434.1681815321422
 30
0.0
  0
LINE
  5
10A
330
1F
100
AcDbEntity
  8
0
  6
Continuous
 62
     8
370
    18
100
AcDbLine
 10
205.8916853558
 20
432.557704999
 30
0.0
 11
205.8916853558
 21
434.1681815321
 31
0.0
  0
SPLINE
  5
10B
330
1F
100
AcDbEntity
  8
0
  6
Continuous
 62
     8
370
    18
100
AcDbSpline
210
0.0
220
0.0
230
1.0
 70
     8
 71
     3
 72
     8
 73
     4
 74
     0
 42
0.00000001
 43
0.00000001
 40
0.0
 40
0.0
 40
0.0
 40
0.0
 40
1.0
 40
1.0
 40
1.0
 40
1.0
 10
175.4735013371248
 20
434.4018130361324
 30
0.0
 10
180.7044100708165
 20
434.4478898091676
 30
0.0
 10
185.6609794734374
 20
434.4480390352151
 30
0.0
 10
190.8918909720874
 20
434.402277233273
 30
0.0
  0
LINE
  5
10C
330
1F
100
AcDbEntity
  8
0
  6
Continuous
 62
     8
370
    18
100
AcDbLine
 10
190.8918909721
 20
432.617604128
 30
0.0
 11
175.4735013371
 21
432.617604128
 31
0.0
  0
LINE
  5
10D
330
1F
100
AcDbEntity
  8
0
  6
Continuous
 62
     8
370
    18
100
AcDbLine
 10
160.4737069534
 20
432.557704999
 30
0.0
 11
160.4737069534
 21
434.1668740092
 31
0.0
  0
SPLINE
  5
10E
330
1F
100
AcDbEntity
  8
0
  6
Continuous
 62
     8
370
    18
100
AcDbSpline
210
0.0
220
0.0
230
1.0
 70
     8
 71
     3
 72
    20
 73
    16
 74
     0
 42
0.00000001
 43
0.00000001
 40
0.0
 40
0.0
 40
0.0
 40
0.0
 40
0.1028971753991277
 40
0.1981392094664823
 40
0.2849954400787548
 40
0.3632545487822718
 40
0.4328298563055935
 40
0.49324631815117
 40
0.5711952226189165
 40
0.6472581378745884
 40
0.7212851193676332
 40
0.7935490430338438
 40
0.8641273091011389
 40
0.9330189496823472
 40
1.0
 40
1.0
 40
1.0
 40
1.0
 10
160.4737069534106
 20
434.1668740092323
 30
0.0
 10
160.479322332923
 20
434.1669687855161
 30
0.0
 10
160.4901353300061
 20
434.1671512871046
 30
0.0
 10
160.7036637423034
 20
434.1718715538003
 30
0.0
 10
161.1493788311734
 20
434.181933693655
 30
0.0
 10
161.8148912987771
 20
434.1966023576694
 30
0.0
 10
162.6609178255684
 20
434.2145599330995
 30
0.0
 10
163.7506560108362
 20
434.2360128776904
 30
0.0
 10
165.1361450313286
 20
434.2617822154958
 30
0.0
 10
166.8176913955216
 20
434.291385996948
 30
0.0
 10
168.5691154861456
 20
434.3194592759103
 30
0.0
 10
170.3330851393004
 20
434.3448821234178
 30
0.0
 10
172.0799589028453
 20
434.3671067239395
 30
0.0
 10
173.7913585700661
 20
434.3862865806273
 30
0.0
 10
174.9180682026599
 20
434.3966862965848
 30
0.0
 10
175.4735013371249
 20
434.4018130361322
 30
0.0
  0
SPLINE
  5
10F
330
1F
100
AcDbEntity
  8
0
  6
Continuous
 62
     8
370
    18
100
AcDbSpline
210
0.0
220
0.0
230
1.0
 70
     8
 71
     3
 72
    23
 73
    19
 74
     0
 42
0.00000001
 43
0.00000001
 40
0.0
 40
0.0
 40
0.0
 40
0.0
 40
0.002427267171391
 40
0.003640900757086
 40
0.004854534342781
 40
0.006068167928477
 40
0.007281801514172
 40
0.008495435099867
 40
0.009102251892715
 40
0.009709068685563
 40
0.01031588547841
 40
0.01092270227126
 40
0.01152951906411
 40
0.01213633585695
 40
0.01334996944265
 40
0.01456360302834
 40
0.01699087019973
 40
0.01941813737113
 40
0.01941813737113
 40
0.01941813737113
 40
0.01941813737113
 10
175.4735013371238
 20
432.6176041280222
 30
0.0
 10
174.6637463410879
 20
432.6176041280922
 30
0.0
 10
173.3611820193339
 20
432.6175991571722
 30
0.0
 10
171.4912788910919
 20
432.6170156437022
 30
0.0
 10
170.0234668383719
 20
432.6161644805122
 30
0.0
 10
168.5153042240119
 20
432.6147917215222
 30
0.0
 10
166.9570750921119
 20
432.6127631347722
 30
0.0
 10
165.6057813143119
 20
432.6103487777922
 30
0.0
 10
164.5453092879918
 20
432.6079159056422
 30
0.0
 10
163.7731677915818
 20
432.6057729905622
 30
0.0
 10
163.1013651877319
 20
432.6033972380222
 30
0.0
 10
162.5434543560219
 20
432.6008147603722
 30
0.0
 10
162.0842227530219
 20
432.5980318398822
 30
0.0
 10
161.5927286214419
 20
432.5941720269822
 30
0.0
 10
161.1583552387419
 20
432.5891906209022
 30
0.0
 10
160.7075748609519
 20
432.5808969700222
 30
0.0
 10
160.4861475536419
 20
432.5703657140222
 30
0.0
 10
160.4779269851219
 20
432.5619250307022
 30
0.0
 10
160.4737069534119
 20
432.5577049990322
 30
0.0
  0
LINE
  5
110
330
1F
100
AcDbEntity
  8
0
  6
Continuous
 62
     8
370
    18
100
AcDbLine
 10
175.4735013371
 20
429.2248502903
 30
0.0
 11
183.1826961546
 21
429.2248502903
 31
0.0
  0
LINE
  5
111
330
1F
100
AcDbEntity
  8
0
  6
Continuous
 62
     8
370
    18
100
AcDbLine
 10
183.1826961546
 20
429.2248502903
 30
0.0
 11
190.8918909721
 21
429.2248502903
 31
0.0
  0
SPLINE
  5
112
330
1F
100
AcDbEntity
  8
0
  6
Continuous
 62
     8
370
    18
100
AcDbSpline
210
0.0
220
0.0
230
1.0
 70
     8
 71
     3
 72
    26
 73
    22
 74
     0
 42
0.00000001
 43
0.00000001
 40
0.0
 40
0.0
 40
0.0
 40
0.0
 40
0.1249999999999984
 40
0.1249999999999984
 40
0.2499999999999968
 40
0.2499999999999968
 40
0.3749999999999952
 40
0.3749999999999952
 40
0.4374999999999952
 40
0.4374999999999952
 40
0.4999999999999951
 40
0.4999999999999951
 40
0.5624999999999951
 40
0.5624999999999951
 40
0.6249999999999951
 40
0.6249999999999951
 40
0.7499999999999967
 40
0.7499999999999967
 40
0.8749999999999983
 40
0.8749999999999983
 40
1.0
 40
1.0
 40
1.0
 40
1.0
 10
175.4735013370929
 20
429.2248502902522
 30
0.0
 10
174.5748672330712
 20
429.2248502902781
 30
0.0
 10
173.6757101650729
 20
429.2248422863304
 30
0.0
 10
171.8811523546726
 20
429.2243376694523
 30
0.0
 10
170.9850193079713
 20
429.2238443419083
 30
0.0
 10
169.2212301034184
 20
429.2220257768865
 30
0.0
 10
168.3526081469589
 20
429.2207078759445
 30
0.0
 10
167.1232651258626
 20
429.2178101909041
 30
0.0
 10
166.7261131628642
 20
429.2166887847035
 30
0.0
 10
165.9768345744628
 20
429.2140869421991
 30
0.0
 10
165.6254606878444
 20
429.2126038892179
 30
0.0
 10
164.9887304159368
 20
429.2092861300362
 30
0.0
 10
164.7034596929975
 20
429.2074534093399
 30
0.0
 10
164.2019190005087
 20
429.2035457941868
 30
0.0
 10
163.9853704091212
 20
429.2014739933504
 30
0.0
 10
163.4253803445057
 20
429.1950518067503
 30
0.0
 10
163.1691835309185
 20
429.1905064197664
 30
0.0
 10
162.8122014357936
 20
429.1812830724611
 30
0.0
 10
162.7131414367859
 20
429.1765954195009
 30
0.0
 10
162.607407042602
 20
429.1672012096335
 30
0.0
 10
162.6011825709838
 20
429.1624941000858
 30
0.0
 10
162.5964777894919
 20
429.1577893660522
 30
0.0
  0
SPLINE
  5
113
330
1F
100
AcDbEntity
  8
0
  6
Continuous
 62
     8
370
    18
100
AcDbSpline
210
0.0
220
0.0
230
1.0
 70
     8
 71
     3
 72
    16
 73
    12
 74
     0
 42
0.00000001
 43
0.00000001
 40
0.0
 40
0.0
 40
0.0
 40
0.0
 40
0.2499999999999989
 40
0.2499999999999989
 40
0.4999999999999978
 40
0.4999999999999978
 40
0.7499999999999967
 40
0.7499999999999967
 40
0.8749999999999983
 40
0.8749999999999983
 40
1.0
 40
1.0
 40
1.0
 40
1.0
 10
162.5964778132339
 20
429.157789361235
 30
0.0
 10
162.2212957636091
 20
429.2340952946925
 30
0.0
 10
161.8636008235696
 20
429.3657490134436
 30
0.0
 10
161.2699901429977
 20
429.7593955216549
 30
0.0
 10
161.0340405849282
 20
430.0239769540078
 30
0.0
 10
160.6934989431211
 20
430.6634222309538
 30
0.0
 10
160.5879700736836
 20
431.0364314273004
 30
0.0
 10
160.5051444067015
 20
431.6072603784472
 30
0.0
 10
160.4896343870153
 20
431.7994282689556
 30
0.0
 10
160.4741563066807
 20
432.1800931493956
 30
0.0
 10
160.4737121176651
 20
432.369333857691
 30
0.0
 10
160.4737069534139
 20
432.557704999035
 30
0.0
  0
SPLINE
  5
114
330
1F
100
AcDbEntity
  8
0
  6
Continuous
 62
     8
370
    18
100
AcDbSpline
210
0.0
220
0.0
230
1.0
 70
     8
 71
     3
 72
    14
 73
    10
 74
     0
 42
0.00000001
 43
0.00000001
 40
0.0000000026317893
 40
0.0000000026317893
 40
0.0000000026317893
 40
0.0000000026317893
 40
0.02341796644989
 40
0.1861816387082
 40
0.3489453109666
 40
0.5117089832249
 40
0.6744726554833
 40
0.8372363277416
 40
1.0
 40
1.0
 40
1.0
 40
1.0
 10
203.7689144960015
 20
429.1577893612334
 30
0.0
 10
203.8040584986014
 20
429.1649370803934
 30
0.0
 10
204.0822867653815
 20
429.2255036895034
 30
0.0
 10
204.5824041488115
 20
429.3975608205434
 30
0.0
 10
205.1506322331315
 20
429.7988060988234
 30
0.0
 10
205.5518775114115
 20
430.3670341831534
 30
0.0
 10
205.7926428944615
 20
431.0668654116735
 30
0.0
 10
205.8901764593615
 20
431.8189168278134
 30
0.0
 10
205.8916786313715
 20
432.3124251693334
 30
0.0
 10
205.8916853558015
 20
432.5577049990234
 30
0.0
  0
SPLINE
  5
115
330
1F
100
AcDbEntity
  8
0
  6
Continuous
 62
     8
370
    18
100
AcDbSpline
210
0.0
220
0.0
230
1.0
 70
     8
 71
     3
 72
    19
 73
    15
 74
     0
 42
0.00000001
 43
0.00000001
 40
0.0
 40
0.0
 40
0.0
 40
0.0
 40
0.1166747280496335
 40
0.2207808581141607
 40
0.3101168128803337
 40
0.3842015720049773
 40
0.4418565358583408
 40
0.4811099361242779
 40
0.5001173195893259
 40
0.5386171857869869
 40
0.6120503246213682
 40
0.7150538446375768
 40
0.8456055913791279
 40
0.9999999999999999
 40
0.9999999999999999
 40
0.9999999999999999
 40
0.9999999999999999
 10
190.8918909720859
 20
429.2248502902545
 30
0.0
 10
191.7302370340262
 20
429.2248459127584
 30
0.0
 10
193.3166196727163
 20
429.2248376293251
 30
0.0
 10
195.5402642918981
 20
429.2238013424159
 30
0.0
 10
197.4250623595356
 20
429.2216748683136
 30
0.0
 10
198.9191337499963
 20
429.2187653646233
 30
0.0
 10
199.9942374371743
 20
429.2155976393515
 30
0.0
 10
200.6553014676799
 20
429.2129507934235
 30
0.0
 10
201.1635695369959
 20
429.2103869842081
 30
0.0
 10
201.7881513710497
 20
429.2065493506083
 30
0.0
 10
202.5992279840985
 20
429.1996681220705
 30
0.0
 10
203.3300565578148
 20
429.1887176581876
 30
0.0
 10
203.7464605725097
 20
429.1743007179967
 30
0.0
 10
203.7610236846982
 20
429.1635918359992
 30
0.0
 10
203.7689145196919
 20
429.1577893660522
 30
0.0
  0
ARC
  5
116
330
1F
100
AcDbEntity
  8
0
  6
Continuous
 62
     8
370
    18
100
AcDbCircle
 10
204.8916904582
 20
434.1681880951
 30
0.0
 40
0.9999948976204549
100
AcDbArc
 50
359.999662216
 51
78.1077398933
  0
ARC
  5
117
330
1F
100
AcDbEntity
  8
0
  6
Continuous
 62
     8
370
    18
100
AcDbCircle
 10
161.4736996882
 20
434.1668814361
 30
0.0
 40
0.9999927348303149
100
AcDbArc
 50
91.4185474357
 51
180.000425534
  0
SPLINE
  5
118
330
1F
100
AcDbEntity
  8
0
  6
Continuous
 62
     8
370
    18
100
AcDbSpline
210
0.0
220
0.0
230
1.0
 70
     8
 71
     3
 72
     8
 73
     4
 74
     0
 42
0.00000001
 43
0.00000001
 40
0.0
 40
0.0
 40
0.0
 40
0.0
 40
1.0
 40
1.0
 40
1.0
 40
1.0
 10
162.7429526843781
 20
429.1326017764199
 30
0.0
 10
162.6877625273178
 20
429.1407927700348
 30
0.0
 10
162.6387885388658
 20
429.1491851590232
 30
0.0
 10
162.5964778131819
 20
429.1577893612322
 30
0.0
  0
SPLINE
  5
119
330
1F
100
AcDbEntity
  8
0
  6
Continuous
 62
     8
370
    18
100
AcDbSpline
210
0.0
220
0.0
230
1.0
 70
     8
 71
     3
 72
    30
 73
    26
 74
     0
 42
0.00000001
 43
0.00000001
 40
0.0
 40
0.0
 40
0.0
 40
0.0
 40
0.125
 40
0.125
 40
0.2500000000000001
 40
0.2500000000000001
 40
0.3750000000000001
 40
0.3750000000000001
 40
0.4375000000000001
 40
0.4375000000000001
 40
0.5000000000000001
 40
0.5000000000000001
 40
0.5625000000000001
 40
0.5625000000000001
 40
0.6250000000000001
 40
0.6250000000000001
 40
0.6875000000000001
 40
0.6875000000000001
 40
0.7500000000000002
 40
0.7500000000000002
 40
0.8125000000000002
 40
0.8125000000000002
 40
0.8750000000000002
 40
0.8750000000000002
 40
1.0
 40
1.0
 40
1.0
 40
1.0
 10
175.4735013370929
 20
429.2248502902522
 30
0.0
 10
175.4735013370929
 20
429.2206774805688
 30
0.0
 10
175.2381568511387
 20
429.2056144930332
 30
0.0
 10
174.4151113844959
 20
429.1606179738144
 30
0.0
 10
173.8264709656414
 20
429.1305956682716
 30
0.0
 10
172.4783805629522
 20
429.0656666495958
 30
0.0
 10
171.7200870480155
 20
429.0309113533245
 30
0.0
 10
170.6504650585398
 20
428.9857533303497
 30
0.0
 10
170.3056456684171
 20
428.9718705403847
 30
0.0
 10
169.6728533124272
 20
428.9478168415675
 30
0.0
 10
169.3849609497005
 20
428.9376542798669
 30
0.0
 10
168.8968504999417
 20
428.9218167454445
 30
0.0
 10
168.6971514164009
 20
428.9162210010952
 30
0.0
 10
168.4080312467568
 20
428.9089331273209
 30
0.0
 10
168.3190919788021
 20
428.9071540860497
 30
0.0
 10
168.2444236201287
 20
428.9033497557216
 30
0.0
 10
168.2580200319961
 20
428.9011872355148
 30
0.0
 10
168.3511047343159
 20
428.8950363241773
 30
0.0
 10
168.4299387592536
 20
428.8911333150687
 30
0.0
 10
168.6165045992855
 20
428.8829108976232
 30
0.0
 10
168.7242694339122
 20
428.8786482658321
 30
0.0
 10
168.9383919802101
 20
428.8708677884463
 30
0.0
 10
169.044769034693
 20
428.8673422028855
 30
0.0
 10
169.323207959445
 20
428.8586215666877
 30
0.0
 10
169.4531975050219
 20
428.8552895177489
 30
0.0
 10
169.4463604496219
 20
428.8550791900322
 30
0.0
  0
SPLINE
  5
11A
330
1F
100
AcDbEntity
  8
0
  6
Continuous
 62
     8
370
    18
100
AcDbSpline
210
0.0
220
0.0
230
1.0
 70
     8
 71
     3
 72
    12
 73
     8
 74
     0
 42
0.00000001
 43
0.00000001
 40
0.0
 40
0.0
 40
0.0
 40
0.0
 40
0.25
 40
0.25
 40
0.5
 40
0.5
 40
1.0
 40
1.0
 40
1.0
 40
1.0
 10
169.4463604496119
 20
428.8550791896022
 30
0.0
 10
168.9140097213532
 20
428.8645225142459
 30
0.0
 10
168.3830245864725
 20
428.8751132656438
 30
0.0
 10
167.3688502624187
 20
428.8982320050662
 30
0.0
 10
166.8869359882205
 20
428.9107470285601
 30
0.0
 10
165.5432104112326
 20
428.9507684286293
 30
0.0
 10
164.7839796427702
 20
428.980590225225
 30
0.0
 10
164.1732364956335
 20
429.0138078898221
 30
0.0
  0
SPLINE
  5
11B
330
1F
100
AcDbEntity
  8
0
  6
Continuous
 62
     8
370
    18
100
AcDbSpline
210
0.0
220
0.0
230
1.0
 70
     8
 71
     3
 72
     8
 73
     4
 74
     0
 42
0.00000001
 43
0.00000001
 40
0.0
 40
0.0
 40
0.0
 40
0.0
 40
1.0
 40
1.0
 40
1.0
 40
1.0
 10
164.1732364956335
 20
429.0138078898221
 30
0.0
 10
163.5305686100045
 20
429.0487619066985
 30
0.0
 10
163.0458621656506
 20
429.0876457596381
 30
0.0
 10
162.7429526843781
 20
429.1326017764199
 30
0.0
  0
SPLINE
  5
11C
330
1F
100
AcDbEntity
  8
0
  6
Continuous
 62
     8
370
    18
100
AcDbSpline
210
0.0
220
0.0
230
1.0
 70
     8
 71
     3
 72
    14
 73
    10
 74
     0
 42
0.00000001
 43
0.00000001
 40
0.0
 40
0.0
 40
0.0
 40
0.0
 40
0.25
 40
0.25
 40
0.5
 40
0.5
 40
0.75
 40
0.75
 40
1.0
 40
1.0
 40
1.0
 40
1.0
 10
183.1826961545919
 20
428.7577838780622
 30
0.0
 10
182.1028729940452
 20
428.7577838780622
 30
0.0
 10
180.9349076449696
 20
428.7592988117602
 30
0.0
 10
178.5268103989823
 20
428.7664241873216
 30
0.0
 10
177.2912873106673
 20
428.7720262997224
 30
0.0
 10
174.8914794287016
 20
428.787685717393
 30
0.0
 10
173.7300940877334
 20
428.7977045219396
 30
0.0
 10
171.5257371725282
 20
428.822328794163
 30
0.0
 10
170.4838513912428
 20
428.8366752253548
 30
0.0
 10
169.4463604496119
 20
428.8550791896022
 30
0.0
  0
SPLINE
  5
11D
330
1F
100
AcDbEntity
  8
0
  6
Continuous
 62
     8
370
    18
100
AcDbSpline
210
0.0
220
0.0
230
1.0
 70
     8
 71
     3
 72
     8
 73
     4
 74
     0
 42
0.00000001
 43
0.00000001
 40
0.0
 40
0.0
 40
0.0
 40
0.0
 40
1.0
 40
1.0
 40
1.0
 40
1.0
 10
203.6224396248057
 20
429.1326017764199
 30
0.0
 10
203.3195301435331
 20
429.0876457596381
 30
0.0
 10
202.8348236991792
 20
429.0487619066985
 30
0.0
 10
202.1921558135503
 20
429.0138078898221
 30
0.0
  0
SPLINE
  5
11E
330
1F
100
AcDbEntity
  8
0
  6
Continuous
 62
     8
370
    18
100
AcDbSpline
210
0.0
220
0.0
230
1.0
 70
     8
 71
     3
 72
    12
 73
     8
 74
     0
 42
0.00000001
 43
0.00000001
 40
0.0
 40
0.0
 40
0.0
 40
0.0
 40
0.5000000000000009
 40
0.5000000000000009
 40
0.7500000000000004
 40
0.7500000000000004
 40
1.0
 40
1.0
 40
1.0
 40
1.0
 10
202.1921558135503
 20
429.0138078898221
 30
0.0
 10
201.5814126664136
 20
428.980590225225
 30
0.0
 10
200.8221818979512
 20
428.9507684286293
 30
0.0
 10
199.4784563209633
 20
428.9107470285601
 30
0.0
 10
198.996542046765
 20
428.8982320050662
 30
0.0
 10
197.9823677227112
 20
428.8751132656439
 30
0.0
 10
197.4513825878306
 20
428.8645225142459
 30
0.0
 10
196.9190318595718
 20
428.8550791896022
 30
0.0
  0
SPLINE
  5
11F
330
1F
100
AcDbEntity
  8
0
  6
Continuous
 62
     8
370
    18
100
AcDbSpline
210
0.0
220
0.0
230
1.0
 70
     8
 71
     3
 72
    35
 73
    31
 74
     0
 42
0.00000001
 43
0.00000001
 40
0.0
 40
0.0
 40
0.0
 40
0.0
 40
0.0004046700432512
 40
0.001172254294532
 40
0.002332051149984
 40
0.0038908966173661
 40
0.0058509251933045
 40
0.0082126291138575
 40
0.0109757062296925
 40
0.0192902410295467
 40
0.0292410904846183
 40
0.0408100777109064
 40
0.0876738722917987
 40
0.1466226800046364
 40
0.2181849674809122
 40
0.2937773952567655
 40
0.3790479722499578
 40
0.4620799771064913
 40
0.5595254505656223
 40
0.6504838429304441
 40
0.7328552134249425
 40
0.8046396990861369
 40
0.8736646379267128
 40
0.9271108690869226
 40
0.9430873337751644
 40
0.9573145907123554
 40
0.9699337791454982
 40
0.9811112269148893
 40
0.9910493493812478
 40
1.0
 40
1.0
 40
1.0
 40
1.0
 10
190.8918909720909
 20
429.2248502902522
 30
0.0
 10
190.8932352947571
 20
429.2244725187521
 30
0.0
 10
190.897129548965
 20
429.2233781845636
 30
0.0
 10
190.9092327014947
 20
429.2221937882008
 30
0.0
 10
190.9265861057198
 20
429.220481634027
 30
0.0
 10
190.9510196549187
 20
429.2185479633223
 30
0.0
 10
190.9818148064005
 20
429.2162665776787
 30
0.0
 10
191.0192546958894
 20
429.213693135828
 30
0.0
 10
191.0905400524737
 20
429.2090270276696
 30
0.0
 10
191.2025904634556
 20
429.2021493975541
 30
0.0
 10
191.3619236323851
 20
429.1928936895472
 30
0.0
 10
191.727444027571
 20
429.1725897377097
 30
0.0
 10
192.3533287871711
 20
429.1401477021099
 30
0.0
 10
193.2840712276437
 20
429.0943036046137
 30
0.0
 10
194.3274949335404
 20
429.0454271333761
 30
0.0
 10
195.4243341682517
 20
428.9973710473482
 30
0.0
 10
196.4360898291327
 20
428.9567886886355
 30
0.0
 10
197.3151062980318
 20
428.9258885908318
 30
0.0
 10
197.9077932034143
 20
428.9097532160191
 30
0.0
 10
198.1380692678812
 20
428.9051923193582
 30
0.0
 10
198.0842517766534
 20
428.8985973616026
 30
0.0
 10
197.8658656849827
 20
428.8876320209326
 30
0.0
 10
197.5643395469386
 20
428.8755700003167
 30
0.0
 10
197.2995478824319
 20
428.8666145855009
 30
0.0
 10
197.1394109404529
 20
428.8617006956176
 30
0.0
 10
197.0609991789267
 20
428.8593812709094
 30
0.0
 10
196.9976436354751
 20
428.8575535696195
 30
0.0
 10
196.951826212713
 20
428.856229469317
 30
0.0
 10
196.9223787263928
 20
428.8553439571062
 30
0.0
 10
196.9201079104166
 20
428.8551643152704
 30
0.0
 10
196.9190318595619
 20
428.8550791900322
 30
0.0
  0
SPLINE
  5
120
330
1F
100
AcDbEntity
  8
0
  6
Continuous
 62
     8
370
    18
100
AcDbSpline
210
0.0
220
0.0
230
1.0
 70
     8
 71
     3
 72
     8
 73
     4
 74
     0
 42
0.00000001
 43
0.00000001
 40
0.0
 40
0.0
 40
0.0
 40
0.0
 40
1.0
 40
1.0
 40
1.0
 40
1.0
 10
203.7689145078513
 20
429.1577893636418
 30
0.0
 10
203.7266037782175
 20
429.1491851606297
 30
0.0
 10
203.677629787018
 20
429.1407927707995
 30
0.0
 10
203.6224396248057
 20
429.1326017764199
 30
0.0
  0
SPLINE
  5
121
330
1F
100
AcDbEntity
  8
0
  6
Continuous
 62
     8
370
    18
100
AcDbSpline
210
0.0
220
0.0
230
1.0
 70
     8
 71
     3
 72
    16
 73
    12
 74
     0
 42
0.00000001
 43
0.00000001
 40
0.0
 40
0.0
 40
0.0
 40
0.0
 40
0.2499999999999999
 40
0.2499999999999999
 40
0.4999999999999998
 40
0.4999999999999998
 40
0.6249999999999998
 40
0.6249999999999998
 40
0.7499999999999997
 40
0.7499999999999997
 40
1.0
 40
1.0
 40
1.0
 40
1.0
 10
183.1826961545919
 20
428.7577838780622
 30
0.0
 10
184.2625193151385
 20
428.7577838780622
 30
0.0
 10
185.4311809516795
 20
428.7592925090873
 30
0.0
 10
187.8387867818978
 20
428.7663921908809
 30
0.0
 10
189.0738413969892
 20
428.771997785816
 30
0.0
 10
190.8740927107524
 20
428.7837851199457
 30
0.0
 10
191.4656347177743
 20
428.7882678323036
 30
0.0
 10
192.6219784388894
 20
428.7983184866712
 30
0.0
 10
193.1866781147166
 20
428.8038809890544
 30
0.0
 10
194.8390738077229
 20
428.8222879963514
 30
0.0
 10
195.8815409179619
 20
428.8366752254322
 30
0.0
 10
196.9190318595619
 20
428.8550791900322
 30
0.0
  0
LINE
  5
122
330
1F
100
AcDbEntity
  8
0
  6
Continuous
 62
     8
370
    18
100
AcDbLine
 10
173.7186445837
 20
367.0558822749
 30
0.0
 11
173.7176528478
 21
367.1791389558
 31
0.0
  0
LWPOLYLINE
  5
123
330
1F
100
AcDbEntity
  8
0
  6
Continuous
 62
     8
370
    18
100
AcDbPolyline
 90
        3
 70
   128
 43
0.0
 10
171.6578888509
 20
371.7039462595
 10
171.091849169
 20
371.9598086769
 10
170.4551785247
 20
372.0558822749
  0
LINE
  5
124
330
1F
100
AcDbEntity
  8
0
  6
Continuous
 62
     8
370
    18
100
AcDbLine
 10
192.6467477255
 20
367.0558822749
 30
0.0
 11
192.6477394614
 21
367.1791389558
 31
0.0
  0
LWPOLYLINE
  5
125
330
1F
100
AcDbEntity
  8
0
  6
Continuous
 62
     8
370
    18
100
AcDbPolyline
 90
        3
 70
   128
 43
0.0
 10
194.7075034583
 20
371.7039462595
 10
195.2735431401
 20
371.9598086769
 10
195.9102137845
 20
372.0558822749
  0
LINE
  5
126
330
1F
100
AcDbEntity
  8
0
  6
Continuous
 62
     8
370
    18
100
AcDbLine
 10
192.6467477255
 20
367.0558822749
 30
0.0
 11
192.3902010453
 21
367.0558822749
 31
0.0
  0
LINE
  5
127
330
1F
100
AcDbEntity
  8
0
  6
Continuous
 62
     8
370
    18
100
AcDbLine
 10
173.9751912639
 20
367.0558822749
 30
0.0
 11
173.7186445837
 21
367.0558822749
 31
0.0
  0
SPLINE
  5
128
330
1F
100
AcDbEntity
  8
0
  6
Continuous
 62
     8
370
    18
100
AcDbSpline
210
0.0
220
0.0
230
1.0
 70
     8
 71
     3
 72
    13
 73
     9
 74
     0
 42
0.00000001
 43
0.00000001
 40
0.0
 40
0.0
 40
0.0
 40
0.0
 40
0.1437103871503378
 40
0.2906395124058265
 40
0.472061434898369
 40
0.6579178849779245
 40
0.8393476251321651
 40
0.9999999999999999
 40
0.9999999999999999
 40
0.9999999999999999
 40
0.9999999999999999
 10
173.7186445836637
 20
367.0558822748702
 30
0.0
 10
173.276785708394
 20
367.0750358463492
 30
0.0
 10
172.3831714707106
 20
367.1137719793866
 30
0.0
 10
171.1697137877693
 20
367.3802051239914
 30
0.0
 10
170.0862810495964
 20
367.745615364034
 30
0.0
 10
169.2629159219804
 20
368.1256326467521
 30
0.0
 10
168.7597310467043
 20
368.3991498477977
 30
0.0
 10
168.7230639739478
 20
368.4181422706649
 30
0.0
 10
168.7058439789259
 20
368.4270617017141
 30
0.0
  0
SPLINE
  5
129
330
1F
100
AcDbEntity
  8
0
  6
Continuous
 62
     8
370
    18
100
AcDbSpline
210
0.0
220
0.0
230
1.0
 70
     8
 71
     3
 72
    13
 73
     9
 74
     0
 42
0.00000001
 43
0.00000001
 40
0.0
 40
0.0
 40
0.0
 40
0.0
 40
0.1548456937362163
 40
0.3421172902576065
 40
0.5235170849839892
 40
0.7093769233020035
 40
0.853223056026047
 40
0.9999999999999999
 40
0.9999999999999999
 40
0.9999999999999999
 40
0.9999999999999999
 10
197.6604246709231
 20
368.4275482775259
 30
0.0
 10
197.6446368893823
 20
368.4194604414209
 30
0.0
 10
197.6097552410163
 20
368.4015911128943
 30
0.0
 10
197.11540872305
 20
368.131973718428
 30
0.0
 10
196.2873027471153
 20
367.7492608050648
 30
0.0
 10
195.213521564047
 20
367.3849001065789
 30
0.0
 10
193.9909122689913
 20
367.1152672563064
 30
0.0
 10
193.0978047775749
 20
367.0758099056
 30
0.0
 10
192.6467477255344
 20
367.0558822748702
 30
0.0
  0
LINE
  5
12A
330
1F
100
AcDbEntity
  8
0
  6
Continuous
 62
     8
370
    18
100
AcDbLine
 10
168.6826961546
 20
363.6358822749
 30
0.0
 11
197.6826961546
 21
363.6358822749
 31
0.0
  0
LINE
  5
12B
330
1F
100
AcDbEntity
  8
0
  6
Continuous
 62
     8
370
    18
100
AcDbLine
 10
160.4737069534
 20
432.557704999
 30
0.0
 11
160.2779673859
 21
432.3619579769
 31
0.0
  0
LINE
  5
12C
330
1F
100
AcDbEntity
  8
0
  6
Continuous
 62
     8
370
    18
100
AcDbLine
 10
162.5964778013
 20
429.1577893637
 30
0.0
 11
162.4066481565
 21
428.9679610818
 31
0.0
  0
SPLINE
  5
12D
330
1F
100
AcDbEntity
  8
0
  6
Continuous
 62
     8
370
    18
100
AcDbSpline
210
0.0
220
0.0
230
1.0
 70
     8
 71
     3
 72
    16
 73
    12
 74
     0
 42
0.00000001
 43
0.00000001
 40
0.0
 40
0.0
 40
0.0
 40
0.0
 40
0.2500000000000017
 40
0.2500000000000017
 40
0.3750000000000035
 40
0.3750000000000035
 40
0.5000000000000052
 40
0.5000000000000052
 40
0.7500000000000026
 40
0.7500000000000026
 40
1.0
 40
1.0
 40
1.0
 40
1.0
 10
162.4066621622289
 20
428.9680299094028
 30
0.0
 10
162.0521655363013
 20
429.0393615531012
 30
0.0
 10
161.7042952699782
 20
429.159651895803
 30
0.0
 10
161.2463719776368
 20
429.4526047218341
 30
0.0
 10
161.1057607067184
 20
429.5688007422689
 30
0.0
 10
160.8607239413392
 20
429.838173941607
 30
0.0
 10
160.7553972425538
 20
429.9901778306312
 30
0.0
 10
160.4940948238161
 20
430.4783365417093
 30
0.0
 10
160.3932314009049
 20
430.8447065221314
 30
0.0
 10
160.2827428110767
 20
431.592997374119
 30
0.0
 10
160.2779675051729
 20
431.9775543088376
 30
0.0
 10
160.2779673858576
 20
432.3619579769022
 30
0.0
  0
LINE
  5
12E
330
1F
100
AcDbEntity
  8
0
  6
Continuous
 62
     8
370
    18
100
AcDbLine
 10
206.0874249234
 20
432.3619654315
 30
0.0
 11
205.8916853558
 21
432.557704999
 31
0.0
  0
SPLINE
  5
12F
330
1F
100
AcDbEntity
  8
0
  6
Continuous
 62
     8
370
    18
100
AcDbSpline
210
0.0
220
0.0
230
1.0
 70
     8
 71
     3
 72
    25
 73
    21
 74
     0
 42
0.00000001
 43
0.00000001
 40
0.0
 40
0.0
 40
0.0
 40
0.0
 40
0.0455969297202344
 40
0.0898655346180236
 40
0.1327040099943682
 40
0.1740506544737118
 40
0.2138880068809759
 40
0.2522831594260696
 40
0.2893637817669139
 40
0.3252646102562946
 40
0.3601225835256829
 40
0.3940717041714061
 40
0.4272249892960051
 40
0.4596671615687397
 40
0.4914583541903643
 40
0.6152100416579617
 40
0.7333043795894936
 40
0.8620158931749333
 40
0.9287463981245282
 40
1.0
 40
1.0
 40
1.0
 40
1.0
 10
203.9587436064742
 20
428.9679601752171
 30
0.0
 10
204.0231424831524
 20
428.9818811171905
 30
0.0
 10
204.150064175402
 20
429.0093174577624
 30
0.0
 10
204.3345372395943
 20
429.0626520306383
 30
0.0
 10
204.5100073415865
 20
429.1239846538571
 30
0.0
 10
204.6754132825777
 20
429.1938285785068
 30
0.0
 10
204.8300565276254
 20
429.271690708035
 30
0.0
 10
204.9735559135775
 20
429.3571766853777
 30
0.0
 10
205.1059137205538
 20
429.4496711985952
 30
0.0
 10
205.227229237194
 20
429.5486449373911
 30
0.0
 10
205.3376338072172
 20
429.6535807133172
 30
0.0
 10
205.437372248533
 20
429.7638438643617
 30
0.0
 10
205.5271262282432
 20
429.8784441822502
 30
0.0
 10
205.6075233271643
 20
429.9965431162211
 30
0.0
 10
205.7486849297704
 20
430.2344614292076
 30
0.0
 10
205.9053740258785
 20
430.6127272153602
 30
0.0
 10
206.030074663844
 20
431.156752487916
 30
0.0
 10
206.0757156439599
 20
431.6322633837833
 30
0.0
 10
206.0870865927985
 20
432.0406316090184
 30
0.0
 10
206.087309708609
 20
432.2525387301528
 30
0.0
 10
206.0874249233645
 20
432.3619654314688
 30
0.0
  0
LINE
  5
130
330
1F
100
AcDbEntity
  8
0
  6
Continuous
 62
     8
370
    18
100
AcDbLine
 10
203.7689145079
 20
429.1577893636
 30
0.0
 11
203.9587436065
 21
428.9679601752
 31
0.0
  0
LINE
  5
131
330
1F
100
AcDbEntity
  8
0
  6
Continuous
 62
     8
370
    18
100
AcDbLine
 10
170.6826961546
 20
416.8358822749
 30
0.0
 11
195.6826961546
 21
416.8358822749
 31
0.0
  0
LINE
  5
132
330
1F
100
AcDbEntity
  8
0
  6
Continuous
 62
     8
370
    18
100
AcDbLine
 10
170.6826961546
 20
411.8358822749
 30
0.0
 11
195.6826961546
 21
411.8358822749
 31
0.0
  0
SPLINE
  5
133
330
1F
100
AcDbEntity
  8
0
  6
Continuous
 62
     8
370
    18
100
AcDbSpline
210
0.0
220
0.0
230
1.0
 70
     8
 71
     3
 72
    16
 73
    12
 74
     0
 42
0.00000001
 43
0.00000001
 40
0.0
 40
0.0
 40
0.0
 40
0.0
 40
0.2499999999999997
 40
0.2499999999999997
 40
0.4999999999999994
 40
0.4999999999999994
 40
0.7499999999999991
 40
0.7499999999999991
 40
0.8749999999999996
 40
0.8749999999999996
 40
1.0
 40
1.0
 40
1.0
 40
1.0
 10
162.4066481535951
 20
428.967961082608
 30
0.0
 10
162.566019978161
 20
428.9355234262558
 30
0.0
 10
162.8623002073877
 20
428.9058736949526
 30
0.0
 10
163.6751736678038
 20
428.8509056388722
 30
0.0
 10
164.1935721169201
 20
428.8255179271288
 30
0.0
 10
165.4364352413527
 20
428.7778036865587
 30
0.0
 10
166.1629195644251
 20
428.7554674736413
 30
0.0
 10
167.3814939714636
 20
428.724638578231
 30
0.0
 10
167.809142398875
 20
428.7148174421801
 30
0.0
 10
168.6924606847075
 20
428.696266088042
 30
0.0
 10
169.1467356107978
 20
428.6875482264293
 30
0.0
 10
169.6019866694218
 20
428.6794952514522
 30
0.0
  0
SPLINE
  5
134
330
1F
100
AcDbEntity
  8
0
  6
Continuous
 62
     8
370
    18
100
AcDbSpline
210
0.0
220
0.0
230
1.0
 70
     8
 71
     3
 72
    20
 73
    16
 74
     0
 42
0.00000001
 43
0.00000001
 40
0.0
 40
0.0
 40
0.0
 40
0.0
 40
0.1249999999999999
 40
0.1249999999999999
 40
0.2499999999999999
 40
0.2499999999999999
 40
0.3749999999999998
 40
0.3749999999999998
 40
0.4999999999999998
 40
0.4999999999999998
 40
0.7499999999999997
 40
0.7499999999999997
 40
0.8749999999999998
 40
0.8749999999999998
 40
1.0
 40
1.0
 40
1.0
 40
1.0
 10
169.6019866694218
 20
428.6794952514522
 30
0.0
 10
169.411743942249
 20
428.6883155410293
 30
0.0
 10
169.2349333832599
 20
428.6952280678667
 30
0.0
 10
168.9436368071809
 20
428.7087670784518
 30
0.0
 10
168.8289342374378
 20
428.7153779661909
 30
0.0
 10
168.6718979623312
 20
428.7298814554783
 30
0.0
 10
168.6293477043147
 20
428.737758461018
 30
0.0
 10
168.6081741769915
 20
428.7548992895973
 30
0.0
 10
168.6293343550317
 20
428.7641475166283
 30
0.0
 10
168.7580581308778
 20
428.7926379200939
 30
0.0
 10
168.929713542134
 20
428.8126085370805
 30
0.0
 10
169.1640690807766
 20
428.8354003637976
 30
0.0
 10
169.2382960253728
 20
428.8417845493516
 30
0.0
 10
169.3619790109702
 20
428.8510912259551
 30
0.0
 10
169.4112184993181
 20
428.8539981209959
 30
0.0
 10
169.4463604496119
 20
428.8550791896022
 30
0.0
  0
SPLINE
  5
135
330
1F
100
AcDbEntity
  8
0
  6
Continuous
 62
     8
370
    18
100
AcDbSpline
210
0.0
220
0.0
230
1.0
 70
     8
 71
     3
 72
    20
 73
    16
 74
     0
 42
0.00000001
 43
0.00000001
 40
0.0
 40
0.0
 40
0.0
 40
0.0
 40
0.1249999999999999
 40
0.1249999999999999
 40
0.2499999999999999
 40
0.2499999999999999
 40
0.3749999999999998
 40
0.3749999999999998
 40
0.4999999999999998
 40
0.4999999999999998
 40
0.7499999999999997
 40
0.7499999999999997
 40
0.8749999999999998
 40
0.8749999999999998
 40
1.0
 40
1.0
 40
1.0
 40
1.0
 10
196.7634056397619
 20
428.6794952514522
 30
0.0
 10
196.9536483669348
 20
428.6883155410293
 30
0.0
 10
197.1304589259238
 20
428.6952280678667
 30
0.0
 10
197.4217555020028
 20
428.7087670784518
 30
0.0
 10
197.536458071746
 20
428.7153779661909
 30
0.0
 10
197.6934943468525
 20
428.7298814554783
 30
0.0
 10
197.7360446048691
 20
428.737758461018
 30
0.0
 10
197.7572181321922
 20
428.7548992895973
 30
0.0
 10
197.736057954152
 20
428.7641475166283
 30
0.0
 10
197.607334178306
 20
428.7926379200939
 30
0.0
 10
197.4356787670497
 20
428.8126085370805
 30
0.0
 10
197.2013232284072
 20
428.8354003637976
 30
0.0
 10
197.1270962838109
 20
428.8417845493516
 30
0.0
 10
197.0034132982136
 20
428.8510912259551
 30
0.0
 10
196.9541738098656
 20
428.8539981209959
 30
0.0
 10
196.9190318595718
 20
428.8550791896022
 30
0.0
  0
SPLINE
  5
136
330
1F
100
AcDbEntity
  8
0
  6
Continuous
 62
     8
370
    18
100
AcDbSpline
210
0.0
220
0.0
230
1.0
 70
     8
 71
     3
 72
    16
 73
    12
 74
     0
 42
0.00000001
 43
0.00000001
 40
0.0
 40
0.0
 40
0.0
 40
0.0
 40
0.2500000000000003
 40
0.2500000000000003
 40
0.5000000000000006
 40
0.5000000000000006
 40
0.7500000000000009
 40
0.7500000000000009
 40
0.8750000000000004
 40
0.8750000000000004
 40
1.0
 40
1.0
 40
1.0
 40
1.0
 10
203.9587436693066
 20
428.9679601879866
 30
0.0
 10
203.7993705902261
 20
428.935522363151
 30
0.0
 10
203.5030884769931
 20
428.9058726312151
 30
0.0
 10
202.6902130633007
 20
428.8509047521588
 30
0.0
 10
202.1718139074713
 20
428.8255172233209
 30
0.0
 10
200.9289505504485
 20
428.7778032846969
 30
0.0
 10
200.2024667414983
 20
428.7554671870323
 30
0.0
 10
198.9838939876255
 20
428.7246384079745
 30
0.0
 10
198.5562462507118
 20
428.7148173032734
 30
0.0
 10
197.6729295237888
 20
428.6962660095217
 30
0.0
 10
197.2186554628738
 20
428.6875481775145
 30
0.0
 10
196.7634052760475
 20
428.6794952345891
 30
0.0
  0
SPLINE
  5
137
330
1F
100
AcDbEntity
  8
0
  6
Continuous
 62
     8
370
    18
100
AcDbSpline
210
0.0
220
0.0
230
1.0
 70
     8
 71
     3
 72
    14
 73
    10
 74
     0
 42
0.00000001
 43
0.00000001
 40
0.0
 40
0.0
 40
0.0
 40
0.0
 40
0.2499999999999999
 40
0.2499999999999999
 40
0.4999999999999998
 40
0.4999999999999998
 40
0.7499999999999999
 40
0.7499999999999999
 40
1.0
 40
1.0
 40
1.0
 40
1.0
 10
169.6019866694218
 20
428.6794952514522
 30
0.0
 10
170.6959840043577
 20
428.6601434801742
 30
0.0
 10
171.7944798812509
 20
428.6443992811638
 30
0.0
 10
174.0835281808264
 20
428.6168050654351
 30
0.0
 10
175.2730149844155
 20
428.6051658731416
 30
0.0
 10
177.6739461376753
 20
428.5864314204558
 30
0.0
 10
178.8822537241016
 20
428.5793799208208
 30
0.0
 10
181.1662034873161
 20
428.5701332260693
 30
0.0
 10
182.2376068464533
 20
428.5679553055939
 30
0.0
 10
183.1826961545919
 20
428.5679553056022
 30
0.0
  0
SPLINE
  5
138
330
1F
100
AcDbEntity
  8
0
  6
Continuous
 62
     8
370
    18
100
AcDbSpline
210
0.0
220
0.0
230
1.0
 70
     8
 71
     3
 72
    14
 73
    10
 74
     0
 42
0.00000001
 43
0.00000001
 40
0.0
 40
0.0
 40
0.0
 40
0.0
 40
0.2500000000000001
 40
0.2500000000000001
 40
0.5000000000000001
 40
0.5000000000000001
 40
0.7500000000000002
 40
0.7500000000000002
 40
1.0
 40
1.0
 40
1.0
 40
1.0
 10
196.7634056397619
 20
428.6794952514522
 30
0.0
 10
195.669408304826
 20
428.6601434801742
 30
0.0
 10
194.5709124279329
 20
428.6443992811638
 30
0.0
 10
192.2818641283573
 20
428.6168050654351
 30
0.0
 10
191.0923773247682
 20
428.6051658731416
 30
0.0
 10
188.6914461715084
 20
428.5864314204559
 30
0.0
 10
187.4831385850822
 20
428.5793799208208
 30
0.0
 10
185.1991888218676
 20
428.5701332260693
 30
0.0
 10
184.1277854627304
 20
428.5679553055939
 30
0.0
 10
183.1826961545919
 20
428.5679553056022
 30
0.0
  0
LINE
  5
139
330
1F
100
AcDbEntity
  8
0
  6
Continuous
 62
     8
370
    18
100
AcDbLine
 10
205.8916853558
 20
434.1681815321
 30
0.0
 11
206.1224821578
 21
434.1624513079
 31
0.0
  0
LINE
  5
13A
330
1F
100
AcDbEntity
  8
0
  6
Continuous
 62
     8
370
    18
100
AcDbLine
 10
206.1224821579
 20
434.1624513079
 30
0.0
 11
206.1224821579
 21
432.2635375824
 31
0.0
  0
SPLINE
  5
13B
330
1F
100
AcDbEntity
  8
0
  6
Continuous
 62
     8
370
    18
100
AcDbSpline
210
0.0
220
0.0
230
1.0
 70
     8
 71
     3
 72
    14
 73
    10
 74
     0
 42
0.00000001
 43
0.00000001
 40
0.0
 40
0.0
 40
0.0
 40
0.0
 40
0.25301928574246
 40
0.3787322634857451
 40
0.5039192624833088
 40
0.7528993948508357
 40
0.8767012907716554
 40
0.9386311244728609
 40
1.0
 40
1.0
 40
1.0
 40
1.0
 10
206.0874249233642
 20
432.3619654314695
 30
0.0
 10
206.0903821226866
 20
432.3591165272213
 30
0.0
 10
206.0948086105319
 20
432.3548521410059
 30
0.0
 10
206.1006978228182
 20
432.3428038037902
 30
0.0
 10
206.1065043239186
 20
432.3251340337962
 30
0.0
 10
206.112211809376
 20
432.3140276153506
 30
0.0
 10
206.1173839856231
 20
432.302965468968
 30
0.0
 10
206.1203175961073
 20
432.2853252549702
 30
0.0
 10
206.1217628290019
 20
432.2707780787363
 30
0.0
 10
206.122482157843
 20
432.2635375824395
 30
0.0
  0
LINE
  5
13C
330
1F
100
AcDbEntity
  8
0
  6
Continuous
 62
     8
370
    18
100
AcDbLine
 10
160.2429101615
 20
432.2635340294
 30
0.0
 11
160.2429101615
 21
434.1598578771
 31
0.0
  0
LINE
  5
13D
330
1F
100
AcDbEntity
  8
0
  6
Continuous
 62
     8
370
    18
100
AcDbLine
 10
160.2429101514
 20
434.1598578768
 30
0.0
 11
160.4737069534
 21
434.1668740092
 31
0.0
  0
SPLINE
  5
13E
330
1F
100
AcDbEntity
  8
0
  6
Continuous
 62
     8
370
    18
100
AcDbSpline
210
0.0
220
0.0
230
1.0
 70
     8
 71
     3
 72
    17
 73
    13
 74
     0
 42
0.00000001
 43
0.00000001
 40
0.0
 40
0.0
 40
0.0
 40
0.0
 40
0.3329523229369808
 40
0.5041519305802475
 40
0.6547579840371226
 40
0.7148321268087048
 40
0.7887784674238512
 40
0.8628721920664097
 40
0.8892514414561334
 40
0.9328797156918189
 40
0.9708992005232623
 40
1.0
 40
1.0
 40
1.0
 40
1.0
 10
160.2779673858576
 20
432.3619579769022
 30
0.0
 10
160.2740728171125
 20
432.3574392377328
 30
0.0
 10
160.2681757134844
 20
432.3505970236407
 30
0.0
 10
160.260550458725
 20
432.3340556867875
 30
0.0
 10
160.2561614113534
 20
432.3213413639593
 30
0.0
 10
160.252855016585
 20
432.3098074791727
 30
0.0
 10
160.2504075182219
 20
432.3008234009702
 30
0.0
 10
160.24833535031
 20
432.2900100611947
 30
0.0
 10
160.2466238909145
 20
432.2830209440999
 30
0.0
 10
160.2453431142837
 20
432.2791148166108
 30
0.0
 10
160.2440357021937
 20
432.2741791210659
 30
0.0
 10
160.2432505664252
 20
432.2667534971709
 30
0.0
 10
160.2429101614522
 20
432.2635340294022
 30
0.0
  0
ARC
  5
13F
330
1F
100
AcDbEntity
  8
0
  6
Continuous
 62
     8
370
    18
100
AcDbCircle
 10
205.1224872828
 20
434.1624578843
 30
0.0
 40
0.9999948750388478
100
AcDbArc
 50
359.999623196
 51
78.1787878524
  0
SPLINE
  5
140
330
1F
100
AcDbEntity
  8
0
  6
Continuous
 62
     8
370
    18
100
AcDbSpline
210
0.0
220
0.0
230
1.0
 70
     8
 71
     3
 72
    13
 73
     9
 74
     0
 42
0.00000001
 43
0.00000001
 40
0.0
 40
0.0
 40
0.0
 40
0.0
 40
0.1389719303609337
 40
0.2848678451214814
 40
0.4337450564381077
 40
0.5826088475188106
 40
0.7284660966686638
 40
1.0
 40
1.0
 40
1.0
 40
1.0
 10
161.0413122163344
 20
435.1230093690044
 30
0.0
 10
160.9784065589932
 20
435.11362279149
 30
0.0
 10
160.8494611021213
 20
435.0943819699611
 30
0.0
 10
160.6773790620167
 20
434.9919172624211
 30
0.0
 10
160.5212570485146
 20
434.8640945012869
 30
0.0
 10
160.3962887880068
 20
434.7047036676673
 30
0.0
 10
160.2754182028414
 20
434.4746067514967
 30
0.0
 10
160.2557229216301
 20
434.2839134468391
 30
0.0
 10
160.2429101522343
 20
434.1598578767941
 30
0.0
  0
LINE
  5
141
330
1F
100
AcDbEntity
  8
0
  6
Continuous
 62
     8
370
    18
100
AcDbLine
 10
191.6814102921
 20
408.3358822749
 30
0.0
 11
174.6826961546
 21
408.3358822749
 31
0.0
  0
LINE
  5
142
330
1F
100
AcDbEntity
  8
0
  6
Continuous
 62
     8
370
    18
100
AcDbLine
 10
174.6826961546
 20
401.3358822749
 30
0.0
 11
191.6826961546
 21
401.3358822749
 31
0.0
  0
ARC
  5
143
330
1F
100
AcDbEntity
  8
0
  6
Continuous
 62
     8
370
    18
100
AcDbCircle
 10
170.1819069391
 20
383.4611510056
 30
0.0
 40
11.82831381391581
100
AcDbArc
 50
180.4094379564
 51
254.2110857898
  0
ARC
  5
144
330
1F
100
AcDbEntity
  8
0
  6
Continuous
 62
     8
370
    18
100
AcDbCircle
 10
196.1803915724
 20
383.462255903
 30
0.0
 40
11.83141547766738
100
AcDbArc
 50
284.909615792
 51
359.5853185772
  0
SPLINE
  5
145
330
1F
100
AcDbEntity
  8
0
  6
Continuous
 62
     8
370
    18
100
AcDbSpline
210
0.0
220
0.0
230
1.0
 70
     8
 71
     3
 72
     8
 73
     4
 74
     0
 42
0.00000001
 43
0.00000001
 40
0.0
 40
0.0
 40
0.0
 40
0.0
 40
1.0
 40
1.0
 40
1.0
 40
1.0
 10
141.284178988521
 20
349.6358822748702
 30
0.0
 10
141.9128873625777
 20
349.6005122673811
 30
0.0
 10
142.5421072273163
 20
349.5686481268697
 30
0.0
 10
143.171927026324
 20
349.5366515056394
 30
0.0
  0
SPLINE
  5
146
330
1F
100
AcDbEntity
  8
0
  6
Continuous
 62
     8
370
    18
100
AcDbSpline
210
0.0
220
0.0
230
1.0
 70
     8
 71
     3
 72
     8
 73
     4
 74
     0
 42
0.00000001
 43
0.00000001
 40
0.0
 40
0.0
 40
0.0
 40
0.0
 40
1.0
 40
1.0
 40
1.0
 40
1.0
 10
223.1934652828554
 20
349.5366515056385
 30
0.0
 10
223.8232850818692
 20
349.568648126869
 30
0.0
 10
224.4525049466144
 20
349.6005122673808
 30
0.0
 10
225.0812133206772
 20
349.6358822748702
 30
0.0
  0
LINE
  5
147
330
1F
100
AcDbEntity
  8
0
  6
Continuous
 62
     8
370
    18
100
AcDbLine
 10
158.3538951357
 20
397.6358822749
 30
0.0
 11
140.3540099305
 21
397.6358822749
 31
0.0
  0
LINE
  5
148
330
1F
100
AcDbEntity
  8
0
  6
Continuous
 62
     8
370
    18
100
AcDbLine
 10
140.3540099305
 20
349.6358822749
 30
0.0
 11
141.2841789885
 21
349.6358822749
 31
0.0
  0
LINE
  5
149
330
1F
100
AcDbEntity
  8
0
  6
Continuous
 62
     8
370
    18
100
AcDbLine
 10
226.0113823787
 20
397.6358822749
 30
0.0
 11
208.0114971735
 21
397.6358822749
 31
0.0
  0
LINE
  5
14A
330
1F
100
AcDbEntity
  8
0
  6
Continuous
 62
     8
370
    18
100
AcDbLine
 10
225.0812133207
 20
349.6358822749
 30
0.0
 11
226.0113823787
 21
349.6358822749
 31
0.0
  0
LINE
  5
14B
330
1F
100
AcDbEntity
  8
0
  6
Continuous
 62
     8
370
    18
100
AcDbLine
 10
140.3540099305
 20
397.6358822749
 30
0.0
 11
140.3540099305
 21
398.6358822749
 31
0.0
  0
LINE
  5
14C
330
1F
100
AcDbEntity
  8
0
  6
Continuous
 62
     8
370
    18
100
AcDbLine
 10
226.0113823787
 20
397.6358822749
 30
0.0
 11
226.0113823787
 21
398.6358822749
 31
0.0
  0
LINE
  5
14D
330
1F
100
AcDbEntity
  8
0
  6
Continuous
 62
     8
370
    18
100
AcDbLine
 10
143.1719270263
 20
349.5366515056
 30
0.0
 11
223.1934652829
 21
349.5366515057
 31
0.0
  0
SPLINE
  5
14E
330
1F
100
AcDbEntity
  8
0
  6
Continuous
 62
     8
370
    18
100
AcDbSpline
210
0.0
220
0.0
230
1.0
 70
     8
 71
     3
 72
    24
 73
    20
 74
     0
 42
0.00000001
 43
0.00000001
 40
0.0
 40
0.0
 40
0.0
 40
0.0
 40
0.0415227772014505
 40
0.0806961633971379
 40
0.1175238374836837
 40
0.1806515383217514
 40
0.2369779521471079
 40
0.3017817497351645
 40
0.3584538136595452
 40
0.4245823873076907
 40
0.4819710079961004
 40
0.5444779515120319
 40
0.6075507480003649
 40
0.6712785611198683
 40
0.735684230905707
 40
0.7957452793566684
 40
0.8664891448282557
 40
0.9276074172482324
 40
1.0
 40
1.0
 40
1.0
 40
1.0
 10
206.1224821578526
 20
432.2635375824422
 30
0.0
 10
206.1242246753033
 20
432.2524518423207
 30
0.0
 10
206.127611117213
 20
432.2309076018697
 30
0.0
 10
206.1322689722429
 20
432.1888267688529
 30
0.0
 10
206.1375606538483
 20
432.1282052203968
 30
0.0
 10
206.1431432035536
 20
432.038529048407
 30
0.0
 10
206.1492196171829
 20
431.8903184961483
 30
0.0
 10
206.1545775953055
 20
431.6879896508266
 30
0.0
 10
206.1596768138877
 20
431.3838289872521
 30
0.0
 10
206.1640013192767
 20
430.9579063953774
 30
0.0
 10
206.1677858316046
 20
430.3113361896176
 30
0.0
 10
206.1707228401553
 20
429.397479577993
 30
0.0
 10
206.1727675340342
 20
428.1455420589374
 30
0.0
 10
206.1739822887669
 20
426.6999440014453
 30
0.0
 10
206.1746578320508
 20
425.2077829764178
 30
0.0
 10
206.1750509196447
 20
423.6348225144907
 30
0.0
 10
206.1752517350428
 20
422.0791390167893
 30
0.0
 10
206.1753476331407
 20
420.4208420794945
 30
0.0
 10
206.1753565088373
 20
419.3364689705049
 30
0.0
 10
206.1753613214392
 20
418.7484975285922
 30
0.0
  0
SPLINE
  5
14F
330
1F
100
AcDbEntity
  8
0
  6
Continuous
 62
     8
370
    18
100
AcDbSpline
210
0.0
220
0.0
230
1.0
 70
     8
 71
     3
 72
    25
 73
    21
 74
     0
 42
0.00000001
 43
0.00000001
 40
0.0
 40
0.0
 40
0.0
 40
0.0
 40
0.0375029120955475
 40
0.0722534065075162
 40
0.1042556970084578
 40
0.133515184733587
 40
0.2042350437767455
 40
0.2643200287958051
 40
0.3287256792286598
 40
0.3924534701095767
 40
0.4555262301034996
 40
0.5180331141984255
 40
0.5753698147444964
 40
0.6415499746535596
 40
0.6981389099682601
 40
0.7630258585900382
 40
0.8265465168576973
 40
0.8993836884927096
 40
0.9477443514495597
 40
1.0
 40
1.0
 40
1.0
 40
1.0
 10
160.1900309877855
 20
418.7485177580722
 30
0.0
 10
160.1900323278682
 20
419.0531044144188
 30
0.0
 10
160.1900349096823
 20
419.6399234710751
 30
0.0
 10
160.1900577456864
 20
420.4865787284173
 30
0.0
 10
160.1900948342451
 20
421.2661189030781
 30
0.0
 10
160.1901738914287
 20
422.3371704045485
 30
0.0
 10
160.1903420509169
 20
423.6346178291847
 30
0.0
 10
160.1907348845529
 20
425.2075520173864
 30
0.0
 10
160.1914105837515
 20
426.6998809359463
 30
0.0
 10
160.1926253467141
 20
428.1454566267456
 30
0.0
 10
160.1946700806909
 20
429.3973658269227
 30
0.0
 10
160.1976062517112
 20
430.3109726871438
 30
0.0
 10
160.2013905054447
 20
430.9575717084745
 30
0.0
 10
160.2057127408828
 20
431.3834338963077
 30
0.0
 10
160.2108127963573
 20
431.6877520911216
 30
0.0
 10
160.2163877787133
 20
431.8983446246899
 30
0.0
 10
160.2230559600921
 20
432.0560773254333
 30
0.0
 10
160.2297657687404
 20
432.1544908455785
 30
0.0
 10
160.2365163327374
 20
432.2219914581328
 30
0.0
 10
160.2407245829783
 20
432.2493336881276
 30
0.0
 10
160.2429101614626
 20
432.2635340294022
 30
0.0
  0
ARC
  5
150
330
1F
100
AcDbEntity
  8
0
  6
Continuous
 62
     8
370
    18
100
AcDbCircle
 10
183.1826961546
 20
417.6358822749
 30
0.0
 40
3.709749670619013
100
AcDbArc
 50
3.1274183524
 51
176.9322316651
  0
LINE
  5
151
330
1F
100
AcDbEntity
  8
0
  6
Continuous
 62
     8
370
    18
100
AcDbLine
 10
172.0096951239
 20
401.6358822749
 30
0.0
 11
174.6826961546
 21
401.6358822749
 31
0.0
  0
LINE
  5
152
330
1F
100
AcDbEntity
  8
0
  6
Continuous
 62
     8
370
    18
100
AcDbLine
 10
191.6826961546
 20
401.6358822749
 30
0.0
 11
194.3556967296
 21
401.6358822749
 31
0.0
  0
ARC
  5
153
330
1F
100
AcDbEntity
  8
0
  6
Continuous
 62
     8
370
    18
100
AcDbCircle
 10
173.8992945501
 20
401.5114441309
 30
0.0
 40
1.893691928780139
100
AcDbArc
 50
176.2322691015
 51
191.4388847901
  0
ARC
  5
154
330
1F
100
AcDbEntity
  8
0
  6
Continuous
 62
     8
370
    18
100
AcDbCircle
 10
192.4660953521
 20
401.5114441301
 30
0.0
 40
1.893693177405747
100
AcDbArc
 50
348.561122878
 51
3.7677284336
  0
LINE
  5
155
330
1F
100
AcDbEntity
  8
0
  6
Continuous
 62
     8
370
    18
100
AcDbLine
 10
160.1900309878
 20
401.6358822749
 30
0.0
 11
160.1900309878
 21
418.7485177581
 31
0.0
  0
LINE
  5
156
330
1F
100
AcDbEntity
  8
0
  6
Continuous
 62
     8
370
    18
100
AcDbLine
 10
160.1839551691
 20
401.6358822749
 30
0.0
 11
160.1900309878
 21
401.6358822749
 31
0.0
  0
LINE
  5
157
330
1F
100
AcDbEntity
  8
0
  6
Continuous
 62
     8
370
    18
100
AcDbLine
 10
160.1827343531
 20
402.0344178203
 30
0.0
 11
160.1839551691
 21
401.6358822749
 31
0.0
  0
LINE
  5
158
330
1F
100
AcDbEntity
  8
0
  6
Continuous
 62
     8
370
    18
100
AcDbLine
 10
160.2037118235
 20
434.159819094
 30
0.0
 11
160.2429101514
 21
434.1598578768
 31
0.0
  0
LINE
  5
159
330
1F
100
AcDbEntity
  8
0
  6
Continuous
 62
     8
370
    18
100
AcDbLine
 10
206.1753613214
 20
401.6358822749
 30
0.0
 11
206.1814371401
 21
401.6358822749
 31
0.0
  0
LINE
  5
15A
330
1F
100
AcDbEntity
  8
0
  6
Continuous
 62
     8
370
    18
100
AcDbLine
 10
206.1753613214
 20
418.7484975286
 30
0.0
 11
206.1753613214
 21
401.6358822749
 31
0.0
  0
SPLINE
  5
15B
330
1F
100
AcDbEntity
  8
0
  6
Continuous
 62
     8
370
    18
100
AcDbSpline
210
0.0
220
0.0
230
1.0
 70
     8
 71
     3
 72
     8
 73
     4
 74
     0
 42
0.00000001
 43
0.00000001
 40
0.0
 40
0.0
 40
0.0
 40
0.0
 40
1.0
 40
1.0
 40
1.0
 40
1.0
 10
206.1224821578419
 20
434.1624513078622
 30
0.0
 10
206.1766351401746
 20
434.1610755786236
 30
0.0
 10
206.1942616834065
 20
434.1606503942627
 30
0.0
 10
206.1753613200703
 20
434.161182371052
 30
0.0
  0
LINE
  5
15C
330
1F
100
AcDbEntity
  8
0
  6
Continuous
 62
     8
370
    18
100
AcDbLine
 10
78.1826961546
 20
360.6358822749
 30
0.0
 11
79.1826961546
 21
360.6358822749
 31
0.0
  0
ARC
  5
15D
330
1F
100
AcDbEntity
  8
0
  6
Continuous
 62
     8
370
    18
100
AcDbCircle
 10
90.1826961546
 20
360.6358822749
 30
0.0
 40
11.0
100
AcDbArc
 50
180.0
 51
270.0
  0
LINE
  5
15E
330
1F
100
AcDbEntity
  8
0
  6
Continuous
 62
     8
370
    18
100
AcDbLine
 10
90.1826961546
 20
348.6358822749
 30
0.0
 11
90.1826961546
 21
349.6358822749
 31
0.0
  0
SPLINE
  5
15F
330
1F
100
AcDbEntity
  8
0
  6
Continuous
 62
     8
370
    18
100
AcDbSpline
210
0.0
220
0.0
230
1.0
 70
     8
 71
     3
 72
    29
 73
    25
 74
     0
 42
0.00000001
 43
0.00000001
 40
0.0
 40
0.0
 40
0.0
 40
0.0
 40
0.1249999999999999
 40
0.1249999999999999
 40
0.1874999999999999
 40
0.1874999999999999
 40
0.2499999999999999
 40
0.3124999999999999
 40
0.3124999999999999
 40
0.3749999999999998
 40
0.3749999999999998
 40
0.5000000000000001
 40
0.5000000000000001
 40
0.5625000000000009
 40
0.5625000000000009
 40
0.6250000000000016
 40
0.6250000000000016
 40
0.7500000000000019
 40
0.7500000000000019
 40
0.8125000000000013
 40
0.8125000000000013
 40
0.8750000000000007
 40
0.8750000000000007
 40
1.0
 40
1.0
 40
1.0
 40
1.0
 10
90.182696154599
 20
397.6358822748702
 30
0.0
 10
89.45639773460114
 20
397.6358822748702
 30
0.0
 10
88.73801457672074
 20
397.5646467735438
 30
0.0
 10
87.67222805717483
 20
397.3517023328054
 30
0.0
 10
87.31999558701875
 20
397.2629350001806
 30
0.0
 10
86.63205452089443
 20
397.0532834937518
 30
0.0
 10
85.95754814291472
 20
396.8109489841925
 30
0.0
 10
85.3095555595899
 20
396.5041135033877
 30
0.0
 10
84.67502594045149
 20
396.164526231405
 30
0.0
 10
84.36282831941845
 20
395.9771748654981
 30
0.0
 10
83.4619388915684
 20
395.3739517036501
 30
0.0
 10
82.90870522435578
 20
394.9186021458618
 30
0.0
 10
82.14825942485359
 20
394.157612432511
 30
0.0
 10
81.90642751765611
 20
393.8908622042828
 30
0.0
 10
81.44681743416533
 20
393.3303411259572
 30
0.0
 10
81.23129331943083
 20
393.0391172719586
 30
0.0
 10
80.63326764519095
 20
392.1426544442339
 30
0.0
 10
80.2957624039064
 20
391.5111080910384
 30
0.0
 10
79.88211674052087
 20
390.5124639097096
 30
0.0
 10
79.75935280312946
 20
390.1691680839112
 30
0.0
 10
79.55020864391504
 20
389.4784875176263
 30
0.0
 10
79.46323335310161
 20
389.130150450584
 30
0.0
 10
79.25392304680888
 20
388.076348969627
 30
0.0
 10
79.18269615459899
 20
387.3621806948681
 30
0.0
 10
79.18269615459901
 20
386.6358822748702
 30
0.0
  0
LINE
  5
160
330
1F
100
AcDbEntity
  8
0
  6
Continuous
 62
     8
370
    18
100
AcDbLine
 10
78.1826961546
 20
386.6358822749
 30
0.0
 11
79.1826961546
 21
386.6358822749
 31
0.0
  0
LINE
  5
161
330
1F
100
AcDbEntity
  8
0
  6
Continuous
 62
     8
370
    18
100
AcDbLine
 10
90.1826961546
 20
397.6358822749
 30
0.0
 11
90.1826961546
 21
398.6358822749
 31
0.0
  0
LINE
  5
162
330
1F
100
AcDbEntity
  8
0
  6
Continuous
 62
     8
370
    18
100
AcDbLine
 10
79.1826961546
 20
386.6358822749
 30
0.0
 11
79.1826961546
 21
360.6358822749
 31
0.0
  0
LINE
  5
163
330
1F
100
AcDbEntity
  8
0
  6
Continuous
 62
     8
370
    18
100
AcDbLine
 10
140.3540099305
 20
397.6358822749
 30
0.0
 11
90.1826961546
 21
397.6358822749
 31
0.0
  0
LINE
  5
164
330
1F
100
AcDbEntity
  8
0
  6
Continuous
 62
     8
370
    18
100
AcDbLine
 10
90.1826961546
 20
349.6358822749
 30
0.0
 11
140.3540099305
 21
349.6358822749
 31
0.0
  0
LINE
  5
165
330
1F
100
AcDbEntity
  8
0
  6
Continuous
 62
     8
370
    18
100
AcDbLine
 10
226.0113823787
 20
349.6358822749
 30
0.0
 11
276.1826961546
 21
349.6358822749
 31
0.0
  0
LINE
  5
166
330
1F
100
AcDbEntity
  8
0
  6
Continuous
 62
     8
370
    18
100
AcDbLine
 10
276.1826961546
 20
348.6358822749
 30
0.0
 11
276.1826961546
 21
349.6358822749
 31
0.0
  0
LINE
  5
167
330
1F
100
AcDbEntity
  8
0
  6
Continuous
 62
     8
370
    18
100
AcDbLine
 10
276.1826961546
 20
397.6358822749
 30
0.0
 11
226.0113823787
 21
397.6358822749
 31
0.0
  0
SPLINE
  5
168
330
1F
100
AcDbEntity
  8
0
  6
Continuous
 62
     8
370
    18
100
AcDbSpline
210
0.0
220
0.0
230
1.0
 70
     8
 71
     3
 72
    29
 73
    25
 74
     0
 42
0.00000001
 43
0.00000001
 40
0.0
 40
0.0
 40
0.0
 40
0.0
 40
0.1250000000000017
 40
0.1250000000000017
 40
0.1875000000000024
 40
0.1875000000000024
 40
0.2500000000000032
 40
0.3125000000000038
 40
0.3125000000000038
 40
0.3750000000000046
 40
0.3750000000000046
 40
0.5000000000000056
 40
0.5000000000000056
 40
0.5625000000000054
 40
0.5625000000000054
 40
0.6250000000000052
 40
0.6250000000000052
 40
0.7500000000000029
 40
0.7500000000000029
 40
0.8125000000000017
 40
0.8125000000000017
 40
0.8750000000000003
 40
0.8750000000000003
 40
1.0
 40
1.0
 40
1.0
 40
1.0
 10
287.182696154599
 20
386.6358822748702
 30
0.0
 10
287.182696154599
 20
387.3621806948681
 30
0.0
 10
287.1114606532726
 20
388.0805638527484
 30
0.0
 10
286.8985162125343
 20
389.1463503722944
 30
0.0
 10
286.8097488799095
 20
389.4985828424505
 30
0.0
 10
286.6000973734807
 20
390.1865239085748
 30
0.0
 10
286.3577628639212
 20
390.8610302865545
 30
0.0
 10
286.0509273831166
 20
391.5090228698793
 30
0.0
 10
285.7113401111337
 20
392.1435524890177
 30
0.0
 10
285.5239887452269
 20
392.4557501100508
 30
0.0
 10
284.9207655833789
 20
393.3566395379008
 30
0.0
 10
284.4654160255907
 20
393.9098732051135
 30
0.0
 10
283.7044263122398
 20
394.6703190046156
 30
0.0
 10
283.4376760840116
 20
394.9121509118131
 30
0.0
 10
282.8771550056861
 20
395.3717609953039
 30
0.0
 10
282.5859311516875
 20
395.5872851100384
 30
0.0
 10
281.6894683239628
 20
396.1853107842783
 30
0.0
 10
281.0579219707672
 20
396.5228160255628
 30
0.0
 10
280.0592777894385
 20
396.9364616889484
 30
0.0
 10
279.7159819636399
 20
397.0592256263397
 30
0.0
 10
279.0253013973551
 20
397.2683697855541
 30
0.0
 10
278.6769643303127
 20
397.3553450763676
 30
0.0
 10
277.6231628493557
 20
397.5646553826604
 30
0.0
 10
276.9089945745968
 20
397.6358822748703
 30
0.0
 10
276.182696154599
 20
397.6358822748703
 30
0.0
  0
LINE
  5
169
330
1F
100
AcDbEntity
  8
0
  6
Continuous
 62
     8
370
    18
100
AcDbLine
 10
287.1826961546
 20
360.6358822749
 30
0.0
 11
287.1826961546
 21
386.6358822749
 31
0.0
  0
ARC
  5
16A
330
1F
100
AcDbEntity
  8
0
  6
Continuous
 62
     8
370
    18
100
AcDbCircle
 10
276.1826961546
 20
360.6358822749
 30
0.0
 40
11.0
100
AcDbArc
 50
270.0
 51
0.0
  0
LINE
  5
16B
330
1F
100
AcDbEntity
  8
0
  6
Continuous
 62
     8
370
    18
100
AcDbLine
 10
276.1826961546
 20
397.6358822749
 30
0.0
 11
276.1826961546
 21
398.6358822749
 31
0.0
  0
LINE
  5
16C
330
1F
100
AcDbEntity
  8
0
  6
Continuous
 62
     8
370
    18
100
AcDbLine
 10
288.1826961546
 20
360.6358822749
 30
0.0
 11
287.1826961546
 21
360.6358822749
 31
0.0
  0
LINE
  5
16D
330
1F
100
AcDbEntity
  8
0
  6
Continuous
 62
     8
370
    18
100
AcDbLine
 10
287.1826961546
 20
386.6358822749
 30
0.0
 11
288.1826961546
 21
386.6358822749
 31
0.0
  0
SPLINE
  5
16E
330
1F
100
AcDbEntity
  8
0
  6
Continuous
 62
     8
370
    18
100
AcDbSpline
210
0.0
220
0.0
230
1.0
 70
    24
 71
     3
 72
    22
 73
    18
 74
     0
 42
0.00000001
 43
0.00000001
 40
0.0
 40
0.0
 40
0.0
 40
0.0
 40
0.125
 40
0.125
 40
0.25
 40
0.25
 40
0.375
 40
0.375
 40
0.5
 40
0.5
 40
0.625
 40
0.625
 40
0.75
 40
0.75
 40
0.875
 40
0.875
 40
1.0
 40
1.0
 40
1.0
 40
1.0
 10
194.3556967296423
 20
401.6358822748622
 30
0.0
 10
195.2867277530133
 20
401.6358822748622
 30
0.0
 10
196.2241605005816
 20
401.6358822748622
 30
0.0
 10
198.0507251526373
 20
401.6358822748622
 30
0.0
 10
198.9406163961752
 20
401.6358822748622
 30
0.0
 10
200.5986047977266
 20
401.6358822748622
 30
0.0
 10
201.3635134762606
 20
401.6358822748622
 30
0.0
 10
202.7232835554611
 20
401.6358822748622
 30
0.0
 10
203.3165460349732
 20
401.6358822748622
 30
0.0
 10
204.3205793633009
 20
401.6358822748622
 30
0.0
 10
204.732907218325
 20
401.6358822748622
 30
0.0
 10
205.3885742674627
 20
401.6358822748622
 30
0.0
 10
205.6317666675506
 20
401.6358822748622
 30
0.0
 10
205.9711479804182
 20
401.6358822748622
 30
0.0
 10
206.0690981324861
 20
401.6358822748622
 30
0.0
 10
206.1692991428815
 20
401.6358822748622
 30
0.0
 10
206.1736811543218
 20
401.6358822748622
 30
0.0
 10
206.1753613214323
 20
401.6358822748622
 30
0.0
  0
SPLINE
  5
16F
330
1F
100
AcDbEntity
  8
0
  6
Continuous
 62
     8
370
    18
100
AcDbSpline
210
0.0
220
0.0
230
1.0
 70
    24
 71
     3
 72
    24
 73
    20
 74
     0
 42
0.00000001
 43
0.00000001
 40
0.0
 40
0.0
 40
0.0
 40
0.0
 40
0.1250000000000003
 40
0.1250000000000003
 40
0.2500000000000007
 40
0.2500000000000007
 40
0.3750000000000008
 40
0.3750000000000008
 40
0.4375000000000006
 40
0.4375000000000006
 40
0.5000000000000004
 40
0.5000000000000004
 40
0.6250000000000003
 40
0.6250000000000003
 40
0.7500000000000002
 40
0.7500000000000002
 40
0.8750000000000001
 40
0.8750000000000001
 40
1.0
 40
1.0
 40
1.0
 40
1.0
 10
172.0096955795719
 20
401.6358822748622
 30
0.0
 10
171.1135508685868
 20
401.6358822748622
 30
0.0
 10
170.2173984559495
 20
401.6358822748622
 30
0.0
 10
168.4444875872475
 20
401.6358822748622
 30
0.0
 10
167.5679373133167
 20
401.6358822748622
 30
0.0
 10
165.8811308239126
 20
401.6358822748622
 30
0.0
 10
165.0706448788887
 20
401.6358822748696
 30
0.0
 10
163.9776429504383
 20
401.6358822748729
 30
0.0
 10
163.6338888113002
 20
401.6358822748722
 30
0.0
 10
163.0013979550106
 20
401.6358822748722
 30
0.0
 10
162.7127683882096
 20
401.6358822748722
 30
0.0
 10
161.9316209083518
 20
401.6358822748722
 30
0.0
 10
161.5262202000645
 20
401.6358822748722
 30
0.0
 10
160.9023159550811
 20
401.6358822748722
 30
0.0
 10
160.6814006546893
 20
401.6358822748722
 30
0.0
 10
160.3739313140363
 20
401.6358822748722
 30
0.0
 10
160.2863550095041
 20
401.6358822748722
 30
0.0
 10
160.1958251662291
 20
401.6358822748722
 30
0.0
 10
160.1916472065412
 20
401.6358822748722
 30
0.0
 10
160.1900309873719
 20
401.6358822748722
 30
0.0
  0
ARC
  5
170
330
1F
100
AcDbEntity
  8
0
  6
Continuous
 62
     8
370
    18
100
AcDbCircle
 10
205.6753617389
 20
401.6358818574
 30
0.0
 40
0.4999995825554928
100
AcDbArc
 50
270.0000478357
 51
0.0000478357
  0
ARC
  5
171
330
1F
100
AcDbEntity
  8
0
  6
Continuous
 62
     8
370
    18
100
AcDbCircle
 10
160.6900305703
 20
401.6358818574
 30
0.0
 40
0.4999995825558054
100
AcDbArc
 50
179.9999521644
 51
269.9999521662
  0
SPLINE
  5
172
330
1F
100
AcDbEntity
  8
0
  6
Continuous
 62
     8
370
    18
100
AcDbSpline
210
0.0
220
0.0
230
1.0
 70
     8
 71
     3
 72
    14
 73
    10
 74
     0
 42
0.00000001
 43
0.00000001
 40
0.0
 40
0.0
 40
0.0
 40
0.0
 40
0.1641432139834016
 40
0.3333768275621419
 40
0.507376492359338
 40
0.6433869661230297
 40
0.7794183067279618
 40
0.918322834463872
 40
1.0
 40
1.0
 40
1.0
 40
1.0
 10
108.182696154599
 20
339.6489559294303
 30
0.0
 10
109.5642124630354
 20
339.6977067314775
 30
0.0
 10
112.3700885815477
 20
339.7967201925474
 30
0.0
 10
116.5764703253525
 20
340.6124069444567
 30
0.0
 10
120.4226072811876
 20
341.8484592612008
 30
0.0
 10
123.8452465126698
 20
343.4044295143268
 30
0.0
 10
126.8263476365838
 20
345.1603301442766
 30
0.0
 10
129.2817351775827
 20
346.9009086588285
 30
0.0
 10
130.6395938394452
 20
348.1670532460139
 30
0.0
 10
131.1423828291137
 20
348.6358822748702
 30
0.0
  0
SPLINE
  5
173
330
1F
100
AcDbEntity
  8
0
  6
Continuous
 62
     8
370
    18
100
AcDbSpline
210
0.0
220
0.0
230
1.0
 70
     8
 71
     3
 72
    14
 73
    10
 74
     0
 42
0.00000001
 43
0.00000001
 40
0.0
 40
0.0
 40
0.0
 40
0.0
 40
0.0816563174273246
 40
0.2205820760671991
 40
0.3565924726549612
 40
0.4926237360496508
 40
0.6666048134508585
 40
0.8358475055908965
 40
1.0
 40
1.0
 40
1.0
 40
1.0
 10
131.1424001432884
 20
398.6358822748702
 30
0.0
 10
130.6397409906453
 20
399.1045934953484
 30
0.0
 10
129.2818840245523
 20
400.3707453051097
 30
0.0
 10
126.8266448866153
 20
402.111241334464
 30
0.0
 10
123.8454044182215
 20
403.8672530592728
 30
0.0
 10
120.4229179079232
 20
405.4231946371784
 30
0.0
 10
116.5766884224548
 20
406.6592561793757
 30
0.0
 10
112.3703291493508
 20
407.4750800398862
 30
0.0
 10
109.5642931915593
 20
407.5740695428304
 30
0.0
 10
108.182696154599
 20
407.6228086203102
 30
0.0
  0
SPLINE
  5
174
330
1F
100
AcDbEntity
  8
0
  6
Continuous
 62
     8
370
    18
100
AcDbSpline
210
0.0
220
0.0
230
1.0
 70
     8
 71
     3
 72
    16
 73
    12
 74
     0
 42
0.00000001
 43
0.00000001
 40
0.0
 40
0.0
 40
0.0
 40
0.0
 40
0.1361926912541167
 40
0.2766089821565547
 40
0.4209797547937946
 40
0.5338301859031708
 40
0.6466979306084111
 40
0.7619496123711349
 40
0.8772189761355518
 40
0.9924706583986524
 40
0.9999999999999999
 40
0.9999999999999999
 40
0.9999999999999999
 40
0.9999999999999999
 10
108.182696154599
 20
407.6228086203102
 30
0.0
 10
106.8011688833845
 20
407.5740708612979
 30
0.0
 10
103.9952704993139
 20
407.4750838907868
 30
0.0
 10
99.78906134128754
 20
406.6591918039554
 30
0.0
 10
95.94229632084611
 20
405.4238867306194
 30
0.0
 10
92.52153196778475
 20
403.8656858300103
 30
0.0
 10
89.53378164816947
 20
402.1176961191417
 30
0.0
 10
86.70960026795439
 20
400.0674983079336
 30
0.0
 10
84.12800449086717
 20
397.6957159579367
 30
0.0
 10
82.44334891480418
 20
395.9499826919542
 30
0.0
 10
81.71236057095271
 20
394.942382011146
 30
0.0
 10
81.66753392939012
 20
394.8805925791574
 30
0.0
  0
SPLINE
  5
175
330
1F
100
AcDbEntity
  8
0
  6
Continuous
 62
     8
370
    18
100
AcDbSpline
210
0.0
220
0.0
230
1.0
 70
     8
 71
     3
 72
    18
 73
    14
 74
     0
 42
0.00000001
 43
0.00000001
 40
0.0
 40
0.0
 40
0.0
 40
0.0
 40
0.0003738250631075
 40
0.0876960647546085
 40
0.1750317014842115
 40
0.2867321135422203
 40
0.3953873341059253
 40
0.500780539704606
 40
0.6061617235277291
 40
0.7148170998002387
 40
0.8265293806675595
 40
0.913851619283026
 40
1.0
 40
1.0
 40
1.0
 40
1.0
 10
79.74445337899515
 20
392.2457279205221
 30
0.0
 10
79.74156524188673
 20
392.2417724475895
 30
0.0
 10
79.06403373350035
 20
391.3138533628105
 30
0.0
 10
77.9748961767708
 20
389.281356841436
 30
0.0
 10
76.38831758515731
 20
385.8821812749737
 30
0.0
 10
75.155153995328
 20
382.0281675380814
 30
0.0
 10
74.36626431154376
 20
377.8240125926724
 30
0.0
 10
74.11161629785515
 20
373.6358741403949
 30
0.0
 10
74.36710852975914
 20
369.4487383462301
 30
0.0
 10
75.15149385933377
 20
365.2414443463037
 30
0.0
 10
76.40062009520351
 20
361.3983900714535
 30
0.0
 10
77.9332169642711
 20
357.9807058339224
 30
0.0
 10
79.12192431552431
 20
356.041326746224
 30
0.0
 10
79.71225606075535
 20
355.0781989921148
 30
0.0
  0
SPLINE
  5
176
330
1F
100
AcDbEntity
  8
0
  6
Continuous
 62
     8
370
    18
100
AcDbSpline
210
0.0
220
0.0
230
1.0
 70
     8
 71
     3
 72
    16
 73
    12
 74
     0
 42
0.00000001
 43
0.00000001
 40
0.0
 40
0.0
 40
0.0
 40
0.0
 40
0.0083397915222757
 40
0.1235129678537046
 40
0.238668477437105
 40
0.3538416542763383
 40
0.4665979178394742
 40
0.5793714805539518
 40
0.7236064560509072
 40
0.8639131831867809
 40
1.0
 40
1.0
 40
1.0
 40
1.0
 10
81.65254027375993
 20
352.4116718448847
 30
0.0
 10
81.70221376773307
 20
352.3431590254855
 30
0.0
 10
82.4378821172235
 20
351.3284787858867
 30
0.0
 10
84.12749878704254
 20
349.5761054366678
 30
0.0
 10
86.7095257776155
 20
347.204431978874
 30
0.0
 10
89.53346737990634
 20
345.1542485212162
 30
0.0
 10
92.52137885159202
 20
343.4061644795365
 30
0.0
 10
95.94198408707506
 20
341.8479872333224
 30
0.0
 10
99.78884371399832
 20
340.6126745382466
 30
0.0
 10
103.995029817082
 20
339.7966448860162
 30
0.0
 10
106.8010881170785
 20
339.6976819340892
 30
0.0
 10
108.182696154599
 20
339.6489559294303
 30
0.0
  0
SPLINE
  5
177
330
1F
100
AcDbEntity
  8
0
  6
Continuous
 62
     8
370
    18
100
AcDbSpline
210
0.0
220
0.0
230
1.0
 70
     8
 71
     3
 72
    16
 73
    12
 74
     0
 42
0.00000001
 43
0.00000001
 40
0.0
 40
0.0
 40
0.0
 40
0.0
 40
0.1361926912533528
 40
0.2766089821525268
 40
0.4209797547895722
 40
0.5338301858917309
 40
0.6466979306019124
 40
0.7619496123530853
 40
0.8772189761267244
 40
0.9924706583915409
 40
1.0
 40
1.0
 40
1.0
 40
1.0
 10
258.182696154599
 20
339.6489559294303
 30
0.0
 10
259.5642234258199
 20
339.6976936884409
 30
0.0
 10
262.3701218098785
 20
339.7966806589477
 30
0.0
 10
266.5763309679003
 20
340.6125727457957
 30
0.0
 10
270.4230959882839
 20
341.8478778190913
 30
0.0
 10
273.8438603413529
 20
343.4060787197114
 30
0.0
 10
276.8316106608899
 20
345.1540684305051
 30
0.0
 10
279.6557920411572
 20
347.2042662417464
 30
0.0
 10
282.237387818263
 20
349.5760485917605
 30
0.0
 10
283.922043394529
 20
351.3217818578433
 30
0.0
 10
284.6530317384212
 20
352.3293825387481
 30
0.0
 10
284.6978583800255
 20
352.3911719707965
 30
0.0
  0
SPLINE
  5
178
330
1F
100
AcDbEntity
  8
0
  6
Continuous
 62
     8
370
    18
100
AcDbSpline
210
0.0
220
0.0
230
1.0
 70
     8
 71
     3
 72
    18
 73
    14
 74
     0
 42
0.00000001
 43
0.00000001
 40
0.0
 40
0.0
 40
0.0
 40
0.0
 40
0.0003738250631421
 40
0.0876960647562509
 40
0.1750317014841147
 40
0.2867321135373136
 40
0.3953873341007935
 40
0.5007805397045061
 40
0.6061617235225953
 40
0.7148170997953245
 40
0.8265293806674514
 40
0.913851619277522
 40
1.0
 40
1.0
 40
1.0
 40
1.0
 10
286.6209389302022
 20
355.0260366292171
 30
0.0
 10
286.6238270673109
 20
355.02999210215
 30
0.0
 10
287.3013585756991
 20
355.957911186956
 30
0.0
 10
288.3904961323629
 20
357.9904077083614
 30
0.0
 10
289.9770747240431
 20
361.3895832747202
 30
0.0
 10
291.2102383138521
 20
365.2435970115308
 30
0.0
 10
291.9991279976197
 20
369.4477519569407
 30
0.0
 10
292.2537760113426
 20
373.6358904092125
 30
0.0
 10
291.9982837794747
 20
377.8230262033836
 30
0.0
 10
291.2138984498777
 20
382.0303202033065
 30
0.0
 10
289.9647722140364
 20
385.8733744781582
 30
0.0
 10
288.4321753449888
 20
389.2910587157702
 30
0.0
 10
287.2434679937185
 20
391.2304378034611
 30
0.0
 10
286.6531362484417
 20
392.1935655576275
 30
0.0
  0
SPLINE
  5
179
330
1F
100
AcDbEntity
  8
0
  6
Continuous
 62
     8
370
    18
100
AcDbSpline
210
0.0
220
0.0
230
1.0
 70
     8
 71
     3
 72
    16
 73
    12
 74
     0
 42
0.00000001
 43
0.00000001
 40
0.0
 40
0.0
 40
0.0
 40
0.0
 40
0.0083397915205808
 40
0.1235129678533258
 40
0.2386684774415279
 40
0.3538416542761343
 40
0.4665979178438842
 40
0.579371480553764
 40
0.7236064560513416
 40
0.8639131831885133
 40
1.0
 40
1.0
 40
1.0
 40
1.0
 10
284.7128520354292
 20
394.8600927048648
 30
0.0
 10
284.663178541466
 20
394.9286055242501
 30
0.0
 10
283.9275101919769
 20
395.9432857638443
 30
0.0
 10
282.2378935221265
 20
397.6956591130926
 30
0.0
 10
279.6558665315682
 20
400.0673325709249
 30
0.0
 10
276.8319249292122
 20
402.1175160285763
 30
0.0
 10
273.8440134575479
 20
403.865600070194
 30
0.0
 10
270.4234082220772
 20
405.4237773164425
 30
0.0
 10
266.5765485951803
 20
406.6590900115163
 30
0.0
 10
262.3703624920908
 20
407.4751196637131
 30
0.0
 10
259.5643041921008
 20
407.5740826156479
 30
0.0
 10
258.182696154599
 20
407.6228086203102
 30
0.0
  0
SPLINE
  5
17A
330
1F
100
AcDbEntity
  8
0
  6
Continuous
 62
     8
370
    18
100
AcDbSpline
210
0.0
220
0.0
230
1.0
 70
     8
 71
     3
 72
    14
 73
    10
 74
     0
 42
0.00000001
 43
0.00000001
 40
0.0
 40
0.0
 40
0.0
 40
0.0
 40
0.1641432139825983
 40
0.3333768275634956
 40
0.5073764923591
 40
0.643386966130062
 40
0.7794183067276103
 40
0.9183228344759838
 40
1.0
 40
1.0
 40
1.0
 40
1.0
 10
258.182696154599
 20
407.6228086203102
 30
0.0
 10
256.801179846169
 20
407.5740578182612
 30
0.0
 10
253.9953037276446
 20
407.4750443571871
 30
0.0
 10
249.7889219838353
 20
406.6593576052945
 30
0.0
 10
245.9427850279425
 20
405.4233052885097
 30
0.0
 10
242.5201457964675
 20
403.8673350353953
 30
0.0
 10
239.5390446724768
 20
402.111434405369
 30
0.0
 10
237.0836571315199
 20
400.3708558908549
 30
0.0
 10
235.7257984696613
 20
399.1047113036599
 30
0.0
 10
235.2230094800696
 20
398.6358822748702
 30
0.0
  0
SPLINE
  5
17B
330
1F
100
AcDbEntity
  8
0
  6
Continuous
 62
     8
370
    18
100
AcDbSpline
210
0.0
220
0.0
230
1.0
 70
     8
 71
     3
 72
    14
 73
    10
 74
     0
 42
0.00000001
 43
0.00000001
 40
0.0
 40
0.0
 40
0.0
 40
0.0
 40
0.0816563174213345
 40
0.220582076066889
 40
0.3565924726491825
 40
0.4926237360495149
 40
0.6666048134500967
 40
0.8358475055886896
 40
1.0
 40
1.0
 40
1.0
 40
1.0
 10
235.2229921659191
 20
348.6358822748702
 30
0.0
 10
235.7256513185289
 20
348.1671710544308
 30
0.0
 10
237.0835082846295
 20
346.901019244683
 30
0.0
 10
239.5387474225029
 20
345.1605232153282
 30
0.0
 10
242.5199878909185
 20
343.4045114904577
 30
0.0
 10
245.9424744012291
 20
341.8485699125866
 30
0.0
 10
249.7887038867238
 20
340.6125083703872
 30
0.0
 10
253.995063159822
 20
339.7966845098432
 30
0.0
 10
256.8010991176201
 20
339.6976950069067
 30
0.0
 10
258.182696154599
 20
339.6489559294303
 30
0.0
  0
ARC
  5
17C
330
1F
100
AcDbEntity
  8
0
  6
Continuous
 62
     8
370
    18
100
AcDbCircle
 10
108.1826961546
 20
373.6358822749
 30
0.0
 40
34.78680450156509
100
AcDbArc
 50
270.0
 51
314.0557693334
  0
ARC
  5
17D
330
1F
100
AcDbEntity
  8
0
  6
Continuous
 62
     8
370
    18
100
AcDbCircle
 10
108.1826961546
 20
373.6358822749
 30
0.0
 40
34.78680450156509
100
AcDbArc
 50
45.9442306666
 51
270.0
  0
ARC
  5
17E
330
1F
100
AcDbEntity
  8
0
  6
Continuous
 62
     8
370
    18
100
AcDbCircle
 10
258.1826961546
 20
373.6358822749
 30
0.0
 40
34.78680450156509
100
AcDbArc
 50
270.0
 51
134.0557693334
  0
ARC
  5
17F
330
1F
100
AcDbEntity
  8
0
  6
Continuous
 62
     8
370
    18
100
AcDbCircle
 10
258.1826961546
 20
373.6358822749
 30
0.0
 40
34.78680450156509
100
AcDbArc
 50
225.9442306666
 51
270.0
  0
ARC
  5
180
330
1F
100
AcDbEntity
  8
0
  6
Continuous
 62
     8
370
    18
100
AcDbCircle
 10
108.1826961546
 20
373.6358822749
 30
0.0
 40
34.99644806043551
100
AcDbArc
 50
90.0
 51
314.4093731756
  0
ARC
  5
181
330
1F
100
AcDbEntity
  8
0
  6
Continuous
 62
     8
370
    18
100
AcDbCircle
 10
108.1826961546
 20
373.6358822749
 30
0.0
 40
34.99644806043551
100
AcDbArc
 50
45.5906268244
 51
90.0
  0
ARC
  5
182
330
1F
100
AcDbEntity
  8
0
  6
Continuous
 62
     8
370
    18
100
AcDbCircle
 10
258.1826961546
 20
373.6358822749
 30
0.0
 40
34.99644806043551
100
AcDbArc
 50
90.0
 51
134.4093731756
  0
ARC
  5
183
330
1F
100
AcDbEntity
  8
0
  6
Continuous
 62
     8
370
    18
100
AcDbCircle
 10
258.1826961546
 20
373.6358822749
 30
0.0
 40
34.99644806043551
100
AcDbArc
 50
225.5906268244
 51
90.0
  0
LINE
  5
184
330
1F
100
AcDbEntity
  8
0
  6
Continuous
 62
     7
370
    25
100
AcDbLine
 10
206.1753194652
 20
216.3023689319
 30
0.0
 11
206.146659212
 21
215.5394440075
 31
0.0
  0
ARC
  5
185
330
1F
100
AcDbEntity
  8
0
  6
Continuous
 62
     7
370
    25
100
AcDbCircle
 10
73.3862176332
 20
275.1533003368
 30
0.0
 40
0.2000000000000455
100
AcDbArc
 50
90.0
 51
181.0000000007
  0
ARC
  5
186
330
1F
100
AcDbEntity
  8
0
  6
Continuous
 62
     7
370
    25
100
AcDbCircle
 10
142.979174676
 20
275.1533003368
 30
0.0
 40
0.2000000000000455
100
AcDbArc
 50
358.9999999993
 51
90.0
  0
ARC
  5
187
330
1F
100
AcDbEntity
  8
0
  6
Continuous
 62
     7
370
    25
100
AcDbCircle
 10
223.3862176332
 20
275.1533003368
 30
0.0
 40
0.2000000000000455
100
AcDbArc
 50
90.0
 51
181.0000000007
  0
ARC
  5
188
330
1F
100
AcDbEntity
  8
0
  6
Continuous
 62
     7
370
    25
100
AcDbCircle
 10
292.979174676
 20
275.1533003368
 30
0.0
 40
0.2000000000000455
100
AcDbArc
 50
358.9999999993
 51
90.0
  0
LINE
  5
189
330
1F
100
AcDbEntity
  8
0
  6
Continuous
 62
     7
370
    25
100
AcDbLine
 10
73.1862480942
 20
275.1498098555
 30
0.0
 11
73.395891653
 21
263.1393384117
 31
0.0
  0
LINE
  5
18A
330
1F
100
AcDbEntity
  8
0
  6
Continuous
 62
     7
370
    25
100
AcDbLine
 10
142.9695006562
 20
263.1393384117
 30
0.0
 11
143.179144215
 21
275.1498098555
 31
0.0
  0
LINE
  5
18B
330
1F
100
AcDbEntity
  8
0
  6
Continuous
 62
     7
370
    25
100
AcDbLine
 10
223.1862480942
 20
275.1498098555
 30
0.0
 11
223.395891653
 21
263.1393384117
 31
0.0
  0
LINE
  5
18C
330
1F
100
AcDbEntity
  8
0
  6
Continuous
 62
     7
370
    25
100
AcDbLine
 10
292.9695006562
 20
263.1393384117
 30
0.0
 11
293.179144215
 21
275.1498098555
 31
0.0
  0
ARC
  5
18D
330
1F
100
AcDbEntity
  8
0
  6
Continuous
 62
     7
370
    25
100
AcDbCircle
 10
292.1696225
 20
263.1533003368
 30
0.0
 40
0.8000000000000342
100
AcDbArc
 50
270.0
 51
359.0
  0
ARC
  5
18E
330
1F
100
AcDbEntity
  8
0
  6
Continuous
 62
     7
370
    25
100
AcDbCircle
 10
224.1957698092
 20
263.1533003368
 30
0.0
 40
0.7999999999999775
100
AcDbArc
 50
181.0
 51
270.0
  0
ARC
  5
18F
330
1F
100
AcDbEntity
  8
0
  6
Continuous
 62
     7
370
    25
100
AcDbCircle
 10
142.1696225
 20
263.1533003368
 30
0.0
 40
0.8000000000000058
100
AcDbArc
 50
270.0
 51
359.0
  0
ARC
  5
190
330
1F
100
AcDbEntity
  8
0
  6
Continuous
 62
     7
370
    25
100
AcDbCircle
 10
74.1957698092
 20
263.1533003368
 30
0.0
 40
0.8000000000000058
100
AcDbArc
 50
181.0
 51
270.0
  0
ARC
  5
191
330
1F
100
AcDbEntity
  8
0
  6
Continuous
 62
     7
370
    25
100
AcDbCircle
 10
125.1957698092
 20
261.5533003368
 30
0.0
 40
0.800000000000021
100
AcDbArc
 50
90.0
 51
179.0
  0
ARC
  5
192
330
1F
100
AcDbEntity
  8
0
  6
Continuous
 62
     7
370
    25
100
AcDbCircle
 10
91.1696225
 20
261.5533003368
 30
0.0
 40
0.8000000000000114
100
AcDbArc
 50
1.0
 51
90.0
  0
ARC
  5
193
330
1F
100
AcDbEntity
  8
0
  6
Continuous
 62
     7
370
    25
100
AcDbCircle
 10
275.1957698092
 20
261.5533003368
 30
0.0
 40
0.8000000000000114
100
AcDbArc
 50
90.0
 51
179.0
  0
ARC
  5
194
330
1F
100
AcDbEntity
  8
0
  6
Continuous
 62
     7
370
    25
100
AcDbCircle
 10
241.1696225
 20
261.5533003368
 30
0.0
 40
0.8000000000000114
100
AcDbArc
 50
1.0
 51
90.0
  0
LINE
  5
195
330
1F
100
AcDbEntity
  8
0
  6
Continuous
 62
     7
370
    25
100
AcDbLine
 10
91.9695006562
 20
261.567262262
 30
0.0
 11
92.168975809
 21
250.1393384117
 31
0.0
  0
LINE
  5
196
330
1F
100
AcDbEntity
  8
0
  6
Continuous
 62
     7
370
    25
100
AcDbLine
 10
124.1964165002
 20
250.1393384117
 30
0.0
 11
124.395891653
 21
261.567262262
 31
0.0
  0
LINE
  5
197
330
1F
100
AcDbEntity
  8
0
  6
Continuous
 62
     7
370
    25
100
AcDbLine
 10
241.9695006562
 20
261.567262262
 30
0.0
 11
242.168975809
 21
250.1393384117
 31
0.0
  0
LINE
  5
198
330
1F
100
AcDbEntity
  8
0
  6
Continuous
 62
     7
370
    25
100
AcDbLine
 10
274.1964165002
 20
250.1393384117
 30
0.0
 11
274.395891653
 21
261.567262262
 31
0.0
  0
ARC
  5
199
330
1F
100
AcDbEntity
  8
0
  6
Continuous
 62
     7
370
    25
100
AcDbCircle
 10
273.3965383441
 20
250.1533003368
 30
0.0
 40
0.8000000000000114
100
AcDbArc
 50
270.0
 51
359.0
  0
ARC
  5
19A
330
1F
100
AcDbEntity
  8
0
  6
Continuous
 62
     7
370
    25
100
AcDbCircle
 10
242.9688539651
 20
250.1533003368
 30
0.0
 40
0.8000000000000114
100
AcDbArc
 50
181.0
 51
270.0
  0
ARC
  5
19B
330
1F
100
AcDbEntity
  8
0
  6
Continuous
 62
     7
370
    25
100
AcDbCircle
 10
123.3965383441
 20
250.1533003368
 30
0.0
 40
0.8000000000000114
100
AcDbArc
 50
270.0
 51
359.0
  0
ARC
  5
19C
330
1F
100
AcDbEntity
  8
0
  6
Continuous
 62
     7
370
    25
100
AcDbCircle
 10
92.9688539651
 20
250.1533003368
 30
0.0
 40
0.8000000000000114
100
AcDbArc
 50
181.0
 51
270.0
  0
ARC
  5
19D
330
1F
100
AcDbEntity
  8
0
  6
Continuous
 62
     7
370
    25
100
AcDbCircle
 10
242.4826961546
 20
249.0533003147
 30
0.0
 40
0.3000000000000114
100
AcDbArc
 50
90.0
 51
180.0
  0
ARC
  5
19E
330
1F
100
AcDbEntity
  8
0
  6
Continuous
 62
     7
370
    25
100
AcDbCircle
 10
92.4826961546
 20
249.0533003368
 30
0.0
 40
0.2999999999999829
100
AcDbArc
 50
90.0
 51
180.0
  0
ARC
  5
19F
330
1F
100
AcDbEntity
  8
0
  6
Continuous
 62
     7
370
    25
100
AcDbCircle
 10
273.8826961546
 20
249.0533003147
 30
0.0
 40
0.3000000000000114
100
AcDbArc
 50
0.0
 51
90.0
  0
ARC
  5
1A0
330
1F
100
AcDbEntity
  8
0
  6
Continuous
 62
     7
370
    25
100
AcDbCircle
 10
123.8826961546
 20
249.0533003368
 30
0.0
 40
0.2999999999999972
100
AcDbArc
 50
0.0
 51
90.0
  0
ARC
  5
1A1
330
1F
100
AcDbEntity
  8
0
  6
Continuous
 62
     7
370
    25
100
AcDbCircle
 10
123.8826961546
 20
232.6533003368
 30
0.0
 40
0.3000000000000114
100
AcDbArc
 50
270.0
 51
0.0
  0
ARC
  5
1A2
330
1F
100
AcDbEntity
  8
0
  6
Continuous
 62
     7
370
    25
100
AcDbCircle
 10
273.8826961546
 20
232.6533003147
 30
0.0
 40
0.3000000000000114
100
AcDbArc
 50
270.0
 51
0.0
  0
ARC
  5
1A3
330
1F
100
AcDbEntity
  8
0
  6
Continuous
 62
     7
370
    25
100
AcDbCircle
 10
92.4826961546
 20
232.6533003368
 30
0.0
 40
0.3000000000000114
100
AcDbArc
 50
180.0
 51
270.0
  0
ARC
  5
1A4
330
1F
100
AcDbEntity
  8
0
  6
Continuous
 62
     7
370
    25
100
AcDbCircle
 10
242.4826961546
 20
232.6533003147
 30
0.0
 40
0.3000000000000114
100
AcDbArc
 50
180.0
 51
270.0
  0
LINE
  5
1A5
330
1F
100
AcDbEntity
  8
0
  6
Continuous
 62
     7
370
    25
100
AcDbLine
 10
124.1826961546
 20
232.6533003368
 30
0.0
 11
124.1826961546
 21
249.0533003368
 31
0.0
  0
LINE
  5
1A6
330
1F
100
AcDbEntity
  8
0
  6
Continuous
 62
     7
370
    25
100
AcDbLine
 10
92.1826961546
 20
249.0533003368
 30
0.0
 11
92.1826961546
 21
232.6533003368
 31
0.0
  0
LINE
  5
1A7
330
1F
100
AcDbEntity
  8
0
  6
Continuous
 62
     7
370
    25
100
AcDbLine
 10
242.1826961546
 20
249.0533003147
 30
0.0
 11
242.1826961546
 21
232.6533003147
 31
0.0
  0
LINE
  5
1A8
330
1F
100
AcDbEntity
  8
0
  6
Continuous
 62
     7
370
    25
100
AcDbLine
 10
274.1826961546
 20
232.6533003147
 30
0.0
 11
274.1826961546
 21
249.0533003147
 31
0.0
  0
LINE
  5
1A9
330
1F
100
AcDbEntity
  8
0
  6
Continuous
 62
     7
370
    25
100
AcDbLine
 10
270.5260718276
 20
231.3533003368
 30
0.0
 11
270.5260718276
 21
232.3533003147
 31
0.0
  0
LINE
  5
1AA
330
1F
100
AcDbEntity
  8
0
  6
Continuous
 62
     7
370
    25
100
AcDbLine
 10
245.8393204816
 20
232.3533003147
 30
0.0
 11
245.8393204816
 21
231.3533003368
 31
0.0
  0
LINE
  5
1AB
330
1F
100
AcDbEntity
  8
0
  6
Continuous
 62
     7
370
    25
100
AcDbLine
 10
120.5260718276
 20
231.3533003368
 30
0.0
 11
120.5260718276
 21
232.3533003368
 31
0.0
  0
LINE
  5
1AC
330
1F
100
AcDbEntity
  8
0
  6
Continuous
 62
     7
370
    25
100
AcDbLine
 10
95.8393204816
 20
232.3533003368
 30
0.0
 11
95.8393204816
 21
231.3533003368
 31
0.0
  0
SPLINE
  5
1AD
330
1F
100
AcDbEntity
  8
0
  6
Continuous
 62
     7
370
    25
100
AcDbSpline
210
0.0
220
0.0
230
1.0
 70
     8
 71
     3
 72
     8
 73
     4
 74
     0
 42
0.00000001
 43
0.00000001
 40
0.0
 40
0.0
 40
0.0
 40
0.0
 40
1.0
 40
1.0
 40
1.0
 40
1.0
 10
194.3556967296376
 20
247.2783392742995
 30
0.0
 10
186.9191299797503
 20
247.778038919927
 30
0.0
 10
179.4462742674677
 20
247.7780375145441
 30
0.0
 10
172.0096956305129
 20
247.2783392777095
 30
0.0
  0
SPLINE
  5
1AE
330
1F
100
AcDbEntity
  8
0
  6
Continuous
 62
     7
370
    25
100
AcDbSpline
210
0.0
220
0.0
230
1.0
 70
    24
 71
     3
 72
     8
 73
     4
 74
     0
 42
0.00000001
 43
0.00000001
 40
0.0
 40
0.0
 40
0.0
 40
0.0
 40
1.0
 40
1.0
 40
1.0
 40
1.0
 10
175.4735013371248
 20
142.353300336793
 30
0.0
 10
180.7044100708165
 20
142.353300336793
 30
0.0
 10
185.6609794734374
 20
142.353300336793
 30
0.0
 10
190.8918909720874
 20
142.353300336793
 30
0.0
  0
SPLINE
  5
1AF
330
1F
100
AcDbEntity
  8
0
  6
Continuous
 62
     7
370
    25
100
AcDbSpline
210
0.0
220
0.0
230
1.0
 70
     8
 71
     3
 72
    19
 73
    15
 74
     0
 42
0.00000001
 43
0.00000001
 40
0.0
 40
0.0
 40
0.0
 40
0.0
 40
0.0795216183769212
 40
0.1603383728377685
 40
0.2420925570057977
 40
0.3248389240117332
 40
0.4087971597510628
 40
0.4939535365228332
 40
0.5573380565408022
 40
0.6295723500168212
 40
0.7101432941952712
 40
0.7989520693455167
 40
0.8958130360669858
 40
1.0
 40
1.0
 40
1.0
 40
1.0
 10
190.8918904927269
 20
142.353300336803
 30
0.0
 10
191.5512740301384
 20
142.3539055068558
 30
0.0
 10
192.8807802150282
 20
142.3551257031185
 30
0.0
 10
194.8867186475095
 20
142.4662354664954
 30
0.0
 10
196.9026601770143
 20
142.7634528862282
 30
0.0
 10
198.8947600383179
 20
143.3130069040603
 30
0.0
 10
200.804253874203
 20
144.1860503035764
 30
0.0
 10
202.364535467014
 20
145.3501350353787
 30
0.0
 10
203.5674763599521
 20
146.7426308946591
 30
0.0
 10
204.4783121637792
 20
148.2978780852501
 30
0.0
 10
205.1847715866856
 20
150.18153385822
 30
0.0
 10
205.6527715184333
 20
152.3455617294894
 30
0.0
 10
205.8749132558642
 20
154.7433165204162
 30
0.0
 10
205.8859604724332
 20
156.4106935436479
 30
0.0
 10
205.8916853558005
 20
157.2747608793159
 30
0.0
  0
SPLINE
  5
1B0
330
1F
100
AcDbEntity
  8
0
  6
Continuous
 62
     7
370
    25
100
AcDbSpline
210
0.0
220
0.0
230
1.0
 70
     8
 71
     3
 72
    20
 73
    16
 74
     0
 42
0.00000001
 43
0.00000001
 40
0.0
 40
0.0
 40
0.0
 40
0.0
 40
0.1028971753991277
 40
0.1981392094664823
 40
0.2849954400787548
 40
0.3632545487822718
 40
0.4328298563055935
 40
0.49324631815117
 40
0.5711952226189165
 40
0.6472581378745884
 40
0.7212851193676332
 40
0.7935490430338438
 40
0.8641273091011389
 40
0.9330189496823472
 40
1.0
 40
1.0
 40
1.0
 40
1.0
 10
160.4737069534106
 20
157.2747608793129
 30
0.0
 10
160.479322332923
 20
156.4213088610916
 30
0.0
 10
160.4901353300061
 20
154.7778982664661
 30
0.0
 10
160.7036637423034
 20
152.4198950389195
 30
0.0
 10
161.1493788311734
 20
150.3013149887938
 30
0.0
 10
161.8148912987771
 20
148.4645629517894
 30
0.0
 10
162.6609178255684
 20
146.9495747724634
 30
0.0
 10
163.7506560108362
 20
145.603025938994
 30
0.0
 10
165.1361450313286
 20
144.4644230595861
 30
0.0
 10
166.8176913955216
 20
143.5781487638999
 30
0.0
 10
168.5691154861456
 20
142.9838383073918
 30
0.0
 10
170.3330851393004
 20
142.6174658794495
 30
0.0
 10
172.0799589028453
 20
142.4232291205676
 30
0.0
 10
173.7913585700661
 20
142.3547537186894
 30
0.0
 10
174.9180682026599
 20
142.3537802345033
 30
0.0
 10
175.4735013371249
 20
142.353300336793
 30
0.0
  0
SPLINE
  5
1B1
330
1F
100
AcDbEntity
  8
0
  6
Continuous
 62
     7
370
    25
100
AcDbSpline
210
0.0
220
0.0
230
1.0
 70
     8
 71
     3
 72
    24
 73
    20
 74
     0
 42
0.00000001
 43
0.00000001
 40
0.0
 40
0.0
 40
0.0
 40
0.0
 40
0.1140811677267275
 40
0.2170210365476262
 40
0.3079271169162096
 40
0.3864715464920218
 40
0.4524692032688222
 40
0.5055248812172247
 40
0.5732484683011716
 40
0.6409532401186795
 40
0.7081094836104582
 40
0.7346636905201648
 40
0.7641010295181875
 40
0.7963968287923577
 40
0.8315396437616676
 40
0.8695151926562015
 40
0.9102693991320142
 40
0.9537661410204735
 40
0.9999999999999999
 40
0.9999999999999999
 40
0.9999999999999999
 40
0.9999999999999999
 10
206.1753613200737
 20
232.3807120132075
 30
0.0
 10
206.1727054002661
 20
233.2085586492308
 30
0.0
 10
206.1676529408537
 20
234.7834034604497
 30
0.0
 10
205.9859230358772
 20
237.0135037875329
 30
0.0
 10
205.6188368822455
 20
238.9597347834851
 30
0.0
 10
205.1012507270895
 20
240.5921997282469
 30
0.0
 10
204.4980653208718
 20
241.897157106783
 30
0.0
 10
203.7780801413371
 20
243.0484489442538
 30
0.0
 10
202.8927976307747
 20
244.0994249844909
 30
0.0
 10
201.7607085808341
 20
245.047316788855
 30
0.0
 10
200.752115348417
 20
245.6511009032067
 30
0.0
 10
199.9450815327925
 20
246.0347899472314
 30
0.0
 10
199.3526429429655
 20
246.2789997810584
 30
0.0
 10
198.6892929894282
 20
246.5120305831462
 30
0.0
 10
197.9550084040261
 20
246.7268724440112
 30
0.0
 10
197.1505900366566
 20
246.9165412265608
 30
0.0
 10
196.2778205857995
 20
247.0747825682853
 30
0.0
 10
195.3391834330664
 20
247.2009924889404
 30
0.0
 10
194.6901251942897
 20
247.2520379866586
 30
0.0
 10
194.3556967296319
 20
247.278339274293
 30
0.0
  0
SPLINE
  5
1B2
330
1F
100
AcDbEntity
  8
0
  6
Continuous
 62
     7
370
    25
100
AcDbSpline
210
0.0
220
0.0
230
1.0
 70
     8
 71
     3
 72
    28
 73
    24
 74
     0
 42
0.00000001
 43
0.00000001
 40
0.0
 40
0.0
 40
0.0
 40
0.0
 40
0.0226375162597436
 40
0.0450098234303892
 40
0.0671170170922659
 40
0.0889612065186703
 40
0.1105466815221082
 40
0.1318742867371685
 40
0.1529378040927308
 40
0.1737331704671617
 40
0.1942580275923813
 40
0.2145128417973003
 40
0.2345016569847758
 40
0.2542304160451823
 40
0.2737057704230222
 40
0.3751262392425995
 40
0.4774387663421423
 40
0.5302440193779735
 40
0.5973264638062188
 40
0.6781751725891064
 40
0.7725770190445489
 40
0.8801683896651611
 40
1.0
 40
1.0
 40
1.0
 40
1.0
 10
172.0097010770319
 20
247.278339643693
 30
0.0
 10
171.8459494246851
 20
247.2664177573225
 30
0.0
 10
171.520364547175
 20
247.2427136550554
 30
0.0
 10
171.0359135751804
 20
247.1947534449864
 30
0.0
 10
170.5582910513548
 20
247.1374893515603
 30
0.0
 10
170.0878017234181
 20
247.0696903002139
 30
0.0
 10
169.6247139100133
 20
246.991190275688
 30
0.0
 10
169.1694039563497
 20
246.9016181517922
 30
0.0
 10
168.7223555333259
 20
246.8006418392868
 30
0.0
 10
168.2840991115235
 20
246.688035759735
 30
0.0
 10
167.8550934837902
 20
246.5638166224506
 30
0.0
 10
167.4357550841842
 20
246.427997435091
 30
0.0
 10
167.0265222254953
 20
246.2804966264829
 30
0.0
 10
166.6277566105313
 20
246.121208350768
 30
0.0
 10
165.6948743444575
 20
245.7093769586015
 30
0.0
 10
164.2871520273159
 20
244.880154253672
 30
0.0
 10
162.9526129826007
 20
243.5522430400308
 30
0.0
 10
162.0452388207702
 20
242.2164377373934
 30
0.0
 10
161.3886862422205
 20
240.9117150509416
 30
0.0
 10
160.8167343707762
 20
239.2442405417104
 30
0.0
 10
160.4049128080356
 20
237.2293134131718
 30
0.0
 10
160.1985003620424
 20
234.8999936882011
 30
0.0
 10
160.1929536237386
 20
233.2500729592654
 30
0.0
 10
160.1900309877751
 20
232.3807120132319
 30
0.0
  0
LINE
  5
1B3
330
1F
100
AcDbEntity
  8
0
  6
Continuous
 62
     7
370
    25
100
AcDbLine
 10
205.8916853558
 20
157.2747608793
 30
0.0
 11
206.1224821578
 21
201.3533003368
 31
0.0
  0
LINE
  5
1B4
330
1F
100
AcDbEntity
  8
0
  6
Continuous
 62
     7
370
    25
100
AcDbLine
 10
160.2429101514
 20
201.3533003368
 30
0.0
 11
160.4737069534
 21
157.2747608793
 31
0.0
  0
SPLINE
  5
1B5
330
1F
100
AcDbEntity
  8
0
  6
Continuous
 62
     7
370
    25
100
AcDbSpline
210
0.0
220
0.0
230
1.0
 70
     8
 71
     3
 72
     8
 73
     4
 74
     0
 42
0.00000001
 43
0.00000001
 40
0.0
 40
0.0
 40
0.0
 40
0.0
 40
1.0
 40
1.0
 40
1.0
 40
1.0
 10
206.1224821578419
 20
201.353300336793
 30
0.0
 10
206.1766351401746
 20
211.6956636546977
 30
0.0
 10
206.1942616834065
 20
222.0382240206155
 30
0.0
 10
206.1753613200703
 20
232.3807120108214
 30
0.0
  0
SPLINE
  5
1B6
330
1F
100
AcDbEntity
  8
0
  6
Continuous
 62
     7
370
    25
100
AcDbSpline
210
0.0
220
0.0
230
1.0
 70
     8
 71
     3
 72
     8
 73
     4
 74
     0
 42
0.00000001
 43
0.00000001
 40
0.0
 40
0.0
 40
0.0
 40
0.0
 40
1.0
 40
1.0
 40
1.0
 40
1.0
 10
160.1900309877756
 20
232.3807120132317
 30
0.0
 10
160.1711306276692
 20
222.038224094075
 30
0.0
 10
160.1887572475087
 20
211.6956637270398
 30
0.0
 10
160.2429101513619
 20
201.353300336793
 30
0.0
  0
SPLINE
  5
1B7
330
1F
100
AcDbEntity
  8
0
  6
Continuous
 62
     7
370
    25
100
AcDbSpline
210
0.0
220
0.0
230
1.0
 70
     8
 71
     3
 72
     9
 73
     5
 74
     0
 42
0.00000001
 43
0.00000001
 40
0.0
 40
0.0
 40
0.0
 40
0.0
 40
0.4508663960985866
 40
1.0
 40
1.0
 40
1.0
 40
1.0
 10
206.1751229567107
 20
216.1965801670464
 30
0.0
 10
206.1751950114248
 20
216.235574137868
 30
0.0
 10
206.1753548253178
 20
216.3220608912809
 30
0.0
 10
206.1753590187078
 20
216.3245318008734
 30
0.0
 10
206.1753613214391
 20
216.3258886603629
 30
0.0
  0
SPLINE
  5
1B8
330
1F
100
AcDbEntity
  8
0
  6
Continuous
 62
     7
370
    25
100
AcDbSpline
210
0.0
220
0.0
230
1.0
 70
    24
 71
     3
 72
    10
 73
     6
 74
     0
 42
0.00000001
 43
0.00000001
 40
0.0
 40
0.0
 40
0.0
 40
0.0
 40
0.4999999999999999
 40
0.4999999999999999
 40
0.9999999999999999
 40
0.9999999999999999
 40
0.9999999999999999
 40
0.9999999999999999
 10
142.979174676009
 20
275.353300336813
 30
0.0
 10
142.9791746760088
 20
275.353300336813
 30
0.0
 10
139.3129429632745
 20
275.353300336813
 30
0.0
 10
126.262101193725
 20
275.353300336813
 30
0.0
 10
117.41103487004
 20
275.353300336813
 30
0.0
 10
108.182696154599
 20
275.353300336813
 30
0.0
  0
SPLINE
  5
1B9
330
1F
100
AcDbEntity
  8
0
  6
Continuous
 62
     7
370
    25
100
AcDbSpline
210
0.0
220
0.0
230
1.0
 70
    24
 71
     3
 72
    10
 73
     6
 74
     0
 42
0.00000001
 43
0.00000001
 40
0.0
 40
0.0
 40
0.0
 40
0.0
 40
0.5
 40
0.5
 40
1.0
 40
1.0
 40
1.0
 40
1.0
 10
108.182696154599
 20
275.353300336813
 30
0.0
 10
98.95435743915802
 20
275.353300336813
 30
0.0
 10
90.10329111547259
 20
275.353300336813
 30
0.0
 10
77.05244934592326
 20
275.353300336813
 30
0.0
 10
73.386217633189
 20
275.353300336813
 30
0.0
 10
73.386217633189
 20
275.353300336813
 30
0.0
  0
SPLINE
  5
1BA
330
1F
100
AcDbEntity
  8
0
  6
Continuous
 62
     7
370
    25
100
AcDbSpline
210
0.0
220
0.0
230
1.0
 70
    24
 71
     3
 72
    10
 73
     6
 74
     0
 42
0.00000001
 43
0.00000001
 40
0.0
 40
0.0
 40
0.0
 40
0.0
 40
0.5
 40
0.5
 40
1.0
 40
1.0
 40
1.0
 40
1.0
 10
292.9791746760091
 20
275.353300336813
 30
0.0
 10
292.9791746760088
 20
275.353300336813
 30
0.0
 10
289.3129429632745
 20
275.353300336813
 30
0.0
 10
276.262101193725
 20
275.353300336813
 30
0.0
 10
267.4110348700399
 20
275.353300336813
 30
0.0
 10
258.182696154599
 20
275.353300336813
 30
0.0
  0
SPLINE
  5
1BB
330
1F
100
AcDbEntity
  8
0
  6
Continuous
 62
     7
370
    25
100
AcDbSpline
210
0.0
220
0.0
230
1.0
 70
    24
 71
     3
 72
    10
 73
     6
 74
     0
 42
0.00000001
 43
0.00000001
 40
0.0
 40
0.0
 40
0.0
 40
0.0
 40
0.5000000000000002
 40
0.5000000000000002
 40
1.0
 40
1.0
 40
1.0
 40
1.0
 10
258.182696154599
 20
275.353300336813
 30
0.0
 10
248.954357439158
 20
275.353300336813
 30
0.0
 10
240.1032911154726
 20
275.353300336813
 30
0.0
 10
227.0524493459233
 20
275.353300336813
 30
0.0
 10
223.386217633189
 20
275.353300336813
 30
0.0
 10
223.386217633189
 20
275.353300336813
 30
0.0
  0
SPLINE
  5
1BC
330
1F
100
AcDbEntity
  8
0
  6
Continuous
 62
     7
370
    25
100
AcDbSpline
210
0.0
220
0.0
230
1.0
 70
    24
 71
     3
 72
    36
 73
    32
 74
     0
 42
0.00000001
 43
0.00000001
 40
0.0
 40
0.0
 40
0.0
 40
0.0
 40
0.0106137586324106
 40
0.0212146348913034
 40
0.0318055538125498
 40
0.042389448687606
 40
0.0529692586502571
 40
0.0635479262390961
 40
0.0741283949458331
 40
0.0847136067596372
 40
0.0953064997177343
 40
0.1059100054724397
 40
0.1165270468846317
 40
0.1782628504833776
 40
0.2400084806888935
 40
0.3043175779732838
 40
0.368636541608109
 40
0.4343140187935666
 40
0.5000015722717137
 40
0.5656790497472368
 40
0.6313666035116141
 40
0.6956757015927861
 40
0.7599946660192302
 40
0.8217304690042277
 40
0.8834760987085578
 40
0.9029255566067178
 40
0.9223393515195755
 40
0.9417355667191984
 40
0.9611323346455064
 40
0.9805477861898156
 40
1.0
 40
1.0
 40
1.0
 40
1.0
 10
292.1696225000391
 20
262.353300336813
 30
0.0
 10
292.1687241089143
 20
262.353300336813
 30
0.0
 10
292.1669284170807
 20
262.353300336813
 30
0.0
 10
292.1523406479067
 20
262.353300336813
 30
0.0
 10
292.129041441437
 20
262.353300336813
 30
0.0
 10
292.0961798908513
 20
262.353300336813
 30
0.0
 10
292.0539837031894
 20
262.353300336813
 30
0.0
 10
292.0023918975
 20
262.353300336813
 30
0.0
 10
291.9414209027794
 20
262.353300336813
 30
0.0
 10
291.8710660331359
 20
262.353300336813
 30
0.0
 10
291.7913297332325
 20
262.353300336813
 30
0.0
 10
291.7022070848363
 20
262.353300336813
 30
0.0
 10
291.4457090890483
 20
262.353300336813
 30
0.0
 10
290.8982569862477
 20
262.353300336813
 30
0.0
 10
289.8178453884279
 20
262.353300336813
 30
0.0
 10
288.4125667045091
 20
262.353300336813
 30
0.0
 10
286.6654697599238
 20
262.353300336813
 30
0.0
 10
284.6103078026933
 20
262.353300336813
 30
0.0
 10
282.2575546915255
 20
262.353300336813
 30
0.0
 10
279.6506009305411
 20
262.353300336813
 30
0.0
 10
276.8332775469132
 20
262.353300336813
 30
0.0
 10
273.8437467945822
 20
262.353300336813
 30
0.0
 10
270.7560739007865
 20
262.353300336813
 30
0.0
 10
267.5894007847156
 20
262.353300336813
 30
0.0
 10
265.1098958140604
 20
262.353300336813
 30
0.0
 10
263.3450800118404
 20
262.353300336813
 30
0.0
 10
262.3182423021372
 20
262.353300336813
 30
0.0
 10
261.2884997905234
 20
262.353300336813
 30
0.0
 10
260.2558270187688
 20
262.353300336813
 30
0.0
 10
259.2202340171459
 20
262.353300336813
 30
0.0
 10
258.5287601147357
 20
262.353300336813
 30
0.0
 10
258.182696154599
 20
262.353300336813
 30
0.0
  0
SPLINE
  5
1BD
330
1F
100
AcDbEntity
  8
0
  6
Continuous
 62
     7
370
    25
100
AcDbSpline
210
0.0
220
0.0
230
1.0
 70
    24
 71
     3
 72
    36
 73
    32
 74
     0
 42
0.00000001
 43
0.00000001
 40
0.0
 40
0.0
 40
0.0
 40
0.0
 40
0.0106145746969968
 40
0.0212161057437237
 40
0.0318075171334529
 40
0.0423917412464181
 40
0.0529717164390001
 40
0.0635503846081519
 40
0.0741306887410966
 40
0.0847155704604823
 40
0.0953079675752228
 40
0.1059108116471943
 40
0.1165270255838066
 40
0.1782628325686437
 40
0.2400084661618487
 40
0.3043175669748012
 40
0.3686365341371414
 40
0.4343140149272486
 40
0.500001572006992
 40
0.5656790530822445
 40
0.6313666104530463
 40
0.6956757120616349
 40
0.759994680016845
 40
0.8217304863904407
 40
0.8834761194798665
 40
0.9029241867219305
 40
0.9223371484400447
 40
0.9417330871351013
 40
0.9611301329161502
 40
0.9805464127909902
 40
1.0
 40
1.0
 40
1.0
 40
1.0
 10
258.182696154599
 20
262.353300336813
 30
0.0
 10
257.9938631215472
 20
262.353300336813
 30
0.0
 10
257.6164291016736
 20
262.353300336813
 30
0.0
 10
257.0507294152275
 20
262.353300336813
 30
0.0
 10
256.4858811692507
 20
262.353300336813
 30
0.0
 10
255.92188447047
 20
262.353300336813
 30
0.0
 10
255.3587394682708
 20
262.353300336813
 30
0.0
 10
254.7964462419064
 20
262.353300336813
 30
0.0
 10
254.2350051100932
 20
262.353300336813
 30
0.0
 10
253.6744155006415
 20
262.353300336813
 30
0.0
 10
253.1146801610669
 20
262.353300336813
 30
0.0
 10
252.5557894247168
 20
262.353300336813
 30
0.0
 10
251.102497842069
 20
262.353300336813
 30
0.0
 10
248.7761342815812
 20
262.353300336813
 30
0.0
 10
245.609651181653
 20
262.353300336813
 30
0.0
 10
242.5218016532319
 20
262.353300336813
 30
0.0
 10
239.5324117517617
 20
262.353300336813
 30
0.0
 10
236.7149322435997
 20
262.353300336813
 30
0.0
 10
234.1080909921745
 20
262.353300336813
 30
0.0
 10
231.7551982026888
 20
262.353300336813
 30
0.0
 10
229.7001173675592
 20
262.353300336813
 30
0.0
 10
227.9529044166937
 20
262.353300336813
 30
0.0
 10
226.5476818379716
 20
262.353300336813
 30
0.0
 10
225.4671646826671
 20
262.353300336813
 30
0.0
 10
224.8837141688738
 20
262.353300336813
 30
0.0
 10
224.5846941789924
 20
262.353300336813
 30
0.0
 10
224.4427938866546
 20
262.353300336813
 30
0.0
 10
224.3322851170321
 20
262.353300336813
 30
0.0
 10
224.2539231695326
 20
262.353300336813
 30
0.0
 10
224.2048567462215
 20
262.353300336813
 30
0.0
 10
224.1988007257045
 20
262.353300336813
 30
0.0
 10
224.195769809159
 20
262.353300336813
 30
0.0
  0
SPLINE
  5
1BE
330
1F
100
AcDbEntity
  8
0
  6
Continuous
 62
     7
370
    25
100
AcDbSpline
210
0.0
220
0.0
230
1.0
 70
    24
 71
     3
 72
    36
 73
    32
 74
     0
 42
0.00000001
 43
0.00000001
 40
0.0
 40
0.0
 40
0.0
 40
0.0
 40
0.0106137586324106
 40
0.0212146348913034
 40
0.0318055538125498
 40
0.042389448687606
 40
0.0529692586502571
 40
0.0635479262390961
 40
0.0741283949458331
 40
0.0847136067596372
 40
0.0953064997177343
 40
0.1059100054724397
 40
0.1165270468846317
 40
0.1782628504833776
 40
0.2400084806888935
 40
0.3043175779732837
 40
0.368636541608109
 40
0.4343140187935666
 40
0.5000015722717137
 40
0.5656790497472368
 40
0.6313666035116141
 40
0.6956757015927861
 40
0.7599946660192302
 40
0.8217304690042277
 40
0.8834760987085578
 40
0.9029255566067175
 40
0.9223393515195755
 40
0.9417355667191984
 40
0.9611323346455064
 40
0.9805477861898154
 40
1.0
 40
1.0
 40
1.0
 40
1.0
 10
142.169622500039
 20
262.353300336813
 30
0.0
 10
142.1687241089143
 20
262.353300336813
 30
0.0
 10
142.1669284170807
 20
262.353300336813
 30
0.0
 10
142.1523406479067
 20
262.353300336813
 30
0.0
 10
142.129041441437
 20
262.353300336813
 30
0.0
 10
142.0961798908512
 20
262.353300336813
 30
0.0
 10
142.0539837031894
 20
262.353300336813
 30
0.0
 10
142.0023918975
 20
262.353300336813
 30
0.0
 10
141.9414209027793
 20
262.353300336813
 30
0.0
 10
141.8710660331359
 20
262.353300336813
 30
0.0
 10
141.7913297332325
 20
262.353300336813
 30
0.0
 10
141.7022070848363
 20
262.353300336813
 30
0.0
 10
141.4457090890483
 20
262.353300336813
 30
0.0
 10
140.8982569862478
 20
262.353300336813
 30
0.0
 10
139.8178453884278
 20
262.353300336813
 30
0.0
 10
138.4125667045091
 20
262.353300336813
 30
0.0
 10
136.6654697599238
 20
262.353300336813
 30
0.0
 10
134.6103078026933
 20
262.353300336813
 30
0.0
 10
132.2575546915255
 20
262.353300336813
 30
0.0
 10
129.6506009305411
 20
262.353300336813
 30
0.0
 10
126.8332775469132
 20
262.353300336813
 30
0.0
 10
123.8437467945822
 20
262.353300336813
 30
0.0
 10
120.7560739007865
 20
262.353300336813
 30
0.0
 10
117.5894007847156
 20
262.353300336813
 30
0.0
 10
115.1098958140604
 20
262.353300336813
 30
0.0
 10
113.3450800118403
 20
262.353300336813
 30
0.0
 10
112.3182423021371
 20
262.353300336813
 30
0.0
 10
111.2884997905234
 20
262.353300336813
 30
0.0
 10
110.2558270187688
 20
262.353300336813
 30
0.0
 10
109.2202340171459
 20
262.353300336813
 30
0.0
 10
108.5287601147357
 20
262.353300336813
 30
0.0
 10
108.182696154599
 20
262.353300336813
 30
0.0
  0
SPLINE
  5
1BF
330
1F
100
AcDbEntity
  8
0
  6
Continuous
 62
     7
370
    25
100
AcDbSpline
210
0.0
220
0.0
230
1.0
 70
    24
 71
     3
 72
    36
 73
    32
 74
     0
 42
0.00000001
 43
0.00000001
 40
0.0
 40
0.0
 40
0.0
 40
0.0
 40
0.0106145746969968
 40
0.0212161057437235
 40
0.0318075171334529
 40
0.0423917412464181
 40
0.0529717164389998
 40
0.0635503846081519
 40
0.0741306887410966
 40
0.0847155704604823
 40
0.0953079675752228
 40
0.1059108116471946
 40
0.1165270255838066
 40
0.178262832568644
 40
0.2400084661618486
 40
0.3043175669748012
 40
0.3686365341371415
 40
0.4343140149272486
 40
0.5000015720069921
 40
0.5656790530822445
 40
0.6313666104530463
 40
0.6956757120616349
 40
0.759994680016845
 40
0.8217304863904407
 40
0.8834761194798665
 40
0.9029241867219305
 40
0.9223371484400447
 40
0.9417330871351013
 40
0.9611301329161502
 40
0.9805464127909902
 40
1.0
 40
1.0
 40
1.0
 40
1.0
 10
108.182696154599
 20
262.353300336813
 30
0.0
 10
107.9938631215472
 20
262.353300336813
 30
0.0
 10
107.6164291016736
 20
262.353300336813
 30
0.0
 10
107.0507294152275
 20
262.353300336813
 30
0.0
 10
106.4858811692507
 20
262.353300336813
 30
0.0
 10
105.92188447047
 20
262.353300336813
 30
0.0
 10
105.3587394682708
 20
262.353300336813
 30
0.0
 10
104.7964462419064
 20
262.353300336813
 30
0.0
 10
104.2350051100932
 20
262.353300336813
 30
0.0
 10
103.6744155006415
 20
262.353300336813
 30
0.0
 10
103.1146801610669
 20
262.353300336813
 30
0.0
 10
102.5557894247168
 20
262.353300336813
 30
0.0
 10
101.102497842069
 20
262.353300336813
 30
0.0
 10
98.77613428158122
 20
262.353300336813
 30
0.0
 10
95.60965118165299
 20
262.353300336813
 30
0.0
 10
92.52180165323185
 20
262.353300336813
 30
0.0
 10
89.53241175176163
 20
262.353300336813
 30
0.0
 10
86.71493224359969
 20
262.353300336813
 30
0.0
 10
84.10809099217443
 20
262.353300336813
 30
0.0
 10
81.75519820268877
 20
262.353300336813
 30
0.0
 10
79.70011736755926
 20
262.353300336813
 30
0.0
 10
77.95290441669371
 20
262.353300336813
 30
0.0
 10
76.54768183797157
 20
262.353300336813
 30
0.0
 10
75.46716468266709
 20
262.353300336813
 30
0.0
 10
74.88371416887384
 20
262.353300336813
 30
0.0
 10
74.58469417899241
 20
262.353300336813
 30
0.0
 10
74.44279388665458
 20
262.353300336813
 30
0.0
 10
74.3322851170321
 20
262.353300336813
 30
0.0
 10
74.25392316953261
 20
262.353300336813
 30
0.0
 10
74.20485674622147
 20
262.353300336813
 30
0.0
 10
74.19880072570452
 20
262.353300336813
 30
0.0
 10
74.19576980915902
 20
262.353300336813
 30
0.0
  0
LINE
  5
1C0
330
1F
100
AcDbEntity
  8
0
  6
Continuous
 62
     7
370
    25
100
AcDbLine
 10
170.4110087305
 20
247.3533003368
 30
0.0
 11
173.5221037061
 21
247.3533003368
 31
0.0
  0
LINE
  5
1C1
330
1F
100
AcDbEntity
  8
0
  6
Continuous
 62
     7
370
    25
100
AcDbLine
 10
192.8855191454
 20
247.3533003368
 30
0.0
 11
195.9543835787
 21
247.3533003368
 31
0.0
  0
LINE
  5
1C2
330
1F
100
AcDbEntity
  8
0
  6
Continuous
 62
     7
370
    25
100
AcDbLine
 10
90.1826961546
 20
231.3533003368
 30
0.0
 11
136.4698832335
 21
231.3533003368
 31
0.0
  0
LINE
  5
1C3
330
1F
100
AcDbEntity
  8
0
  6
Continuous
 62
     7
370
    25
100
AcDbLine
 10
229.8955090757
 20
231.3533003368
 30
0.0
 11
276.1826961546
 21
231.3533003368
 31
0.0
  0
SPLINE
  5
1C4
330
1F
100
AcDbEntity
  8
0
  6
Continuous
 62
     7
370
    25
100
AcDbSpline
210
0.0
220
0.0
230
1.0
 70
     8
 71
     3
 72
    14
 73
    10
 74
     0
 42
0.00000001
 43
0.00000001
 40
0.0
 40
0.0
 40
0.0
 40
0.0
 40
0.2499999999999998
 40
0.2499999999999998
 40
0.4999999999999999
 40
0.4999999999999999
 40
0.75
 40
0.75
 40
1.0
 40
1.0
 40
1.0
 40
1.0
 10
195.9543835787468
 20
247.353300336809
 30
0.0
 10
196.8354049047562
 20
247.353300336809
 30
0.0
 10
197.71639175313
 20
247.2558851724777
 30
0.0
 10
199.4358664441969
 20
246.8709162200749
 30
0.0
 10
200.2742869974611
 20
246.583377497268
 30
0.0
 10
201.8681145451017
 20
245.8320399859489
 30
0.0
 10
202.6234591670886
 20
245.3682706000632
 30
0.0
 10
204.0146312324478
 20
244.2868666089027
 30
0.0
 10
204.650404234092
 20
243.6692743229812
 30
0.0
 10
205.2110541688252
 20
242.9896639731726
 30
0.0
  0
SPLINE
  5
1C5
330
1F
100
AcDbEntity
  8
0
  6
Continuous
 62
     7
370
    25
100
AcDbSpline
210
0.0
220
0.0
230
1.0
 70
     8
 71
     3
 72
    35
 73
    31
 74
     0
 42
0.00000001
 43
0.00000001
 40
0.0
 40
0.0
 40
0.0
 40
0.0
 40
0.0110186288874051
 40
0.0221555216701892
 40
0.0334189733254329
 40
0.0448170025206747
 40
0.0563573473970093
 40
0.0680474634849647
 40
0.0798945235575373
 40
0.0919054192142532
 40
0.1040867639865504
 40
0.1164448977570571
 40
0.1746277009329941
 40
0.2386275794897963
 40
0.298710813698229
 40
0.3673397803520715
 40
0.4223841050202078
 40
0.500003200346807
 40
0.5776184302136382
 40
0.6326666205693999
 40
0.7012901861649019
 40
0.7613788201987703
 40
0.8253734542228892
 40
0.8835614989490773
 40
0.9040576225510215
 40
0.9240748653435672
 40
0.9436438570065419
 40
0.9627973778520842
 40
0.9815703847564098
 40
1.0
 40
1.0
 40
1.0
 40
1.0
 10
136.469883233497
 20
231.353300336809
 30
0.0
 10
136.5823296727964
 20
231.3536429078889
 30
0.0
 10
136.8084294487385
 20
231.3543317268937
 30
0.0
 10
137.1491704960597
 20
231.3599439749948
 30
0.0
 10
137.4931860950763
 20
231.3690312596038
 30
0.0
 10
137.8404331693685
 20
231.3820317488988
 30
0.0
 10
138.1908666651785
 20
231.3989627914363
 30
0.0
 10
138.544439000662
 20
231.4199570992285
 30
0.0
 10
138.901100585256
 20
231.4451165538507
 30
0.0
 10
139.2607979168978
 20
231.4745517561935
 30
0.0
 10
139.6234804558375
 20
231.5083722750033
 30
0.0
 10
140.4390780884958
 20
231.5938435974631
 30
0.0
 10
141.7403371986896
 20
231.7738442564429
 30
0.0
 10
143.4367512433743
 20
232.1047926999729
 30
0.0
 10
145.160334232605
 20
232.5391360680307
 30
0.0
 10
146.7448246865625
 20
233.0326089523574
 30
0.0
 10
148.4218114721388
 20
233.6515523859138
 30
0.0
 10
150.1240377401784
 20
234.3883839102679
 30
0.0
 10
151.7756897249642
 20
235.2325838112098
 30
0.0
 10
153.3202672535849
 20
236.1322922458111
 30
0.0
 10
154.7092712920492
 20
237.0405398531551
 30
0.0
 10
156.1411017309503
 20
238.0936555031587
 30
0.0
 10
157.4759840525572
 20
239.1916891638043
 30
0.0
 10
158.5013543749929
 20
240.1346678235276
 30
0.0
 10
159.1980424280125
 20
240.8243536142234
 30
0.0
 10
159.6175869057518
 20
241.2557437803299
 30
0.0
 10
160.0227106873701
 20
241.6880826584924
 30
0.0
 10
160.4134576466322
 20
242.1210428227351
 30
0.0
 10
160.7907973934548
 20
242.553537583736
 30
0.0
 10
161.0339058801364
 20
242.8451858444515
 30
0.0
 10
161.1543381403728
 20
242.9896639731726
 30
0.0
  0
SPLINE
  5
1C6
330
1F
100
AcDbEntity
  8
0
  6
Continuous
 62
     7
370
    25
100
AcDbSpline
210
0.0
220
0.0
230
1.0
 70
     8
 71
     3
 72
    14
 73
    10
 74
     0
 42
0.00000001
 43
0.00000001
 40
0.0
 40
0.0
 40
0.0
 40
0.0
 40
0.2500000000000001
 40
0.2500000000000001
 40
0.5000000000000001
 40
0.5000000000000001
 40
0.7500000000000002
 40
0.7500000000000002
 40
1.0
 40
1.0
 40
1.0
 40
1.0
 10
161.1543381403728
 20
242.9896639731726
 30
0.0
 10
161.7149880751061
 20
243.6692743229812
 30
0.0
 10
162.3507610767502
 20
244.2868666089027
 30
0.0
 10
163.7419331421094
 20
245.3682706000632
 30
0.0
 10
164.4972777640963
 20
245.8320399859489
 30
0.0
 10
166.0911053117369
 20
246.583377497268
 30
0.0
 10
166.9295258650012
 20
246.8709162200749
 30
0.0
 10
168.649000556068
 20
247.2558851724777
 30
0.0
 10
169.5299874044418
 20
247.353300336809
 30
0.0
 10
170.4110087304512
 20
247.353300336809
 30
0.0
  0
SPLINE
  5
1C7
330
1F
100
AcDbEntity
  8
0
  6
Continuous
 62
     7
370
    25
100
AcDbSpline
210
0.0
220
0.0
230
1.0
 70
     8
 71
     3
 72
    35
 73
    31
 74
     0
 42
0.00000001
 43
0.00000001
 40
0.0
 40
0.0
 40
0.0
 40
0.0
 40
0.0110186288863532
 40
0.0221555216683221
 40
0.0334189733229818
 40
0.0448170025178759
 40
0.0563573473940972
 40
0.0680474634821711
 40
0.0798945235550932
 40
0.0919054192123871
 40
0.1040867639854898
 40
0.116444897757025
 40
0.1746277009266137
 40
0.2386275794897468
 40
0.298710813677504
 40
0.3673397803520094
 40
0.4223841049432442
 40
0.5000032003467373
 40
0.5776184302750137
 40
0.6326666205693249
 40
0.7012901861753086
 40
0.7613788201986961
 40
0.8253734542210414
 40
0.8835614989490224
 40
0.904057622549353
 40
0.9240748653409209
 40
0.9436438570035676
 40
0.9627973778494389
 40
0.9815703847547553
 40
0.9999999999999999
 40
0.9999999999999999
 40
0.9999999999999999
 40
0.9999999999999999
 10
205.2110541688252
 20
242.9896639731726
 30
0.0
 10
205.2828752494637
 20
242.9031420023239
 30
0.0
 10
205.4272882726029
 20
242.7291694128396
 30
0.0
 10
205.6484527121798
 20
242.4698968741706
 30
0.0
 10
205.8743815630723
 20
242.2103097685001
 30
0.0
 10
206.1053854112204
 20
241.9507201588088
 30
0.0
 10
206.3414489685409
 20
241.6911738390705
 30
0.0
 10
206.5826443282934
 20
241.4317919665056
 30
0.0
 10
206.8290185231955
 20
241.1726776284694
 30
0.0
 10
207.0806228228146
 20
240.913942478261
 30
0.0
 10
207.3375095856411
 20
240.6556952272651
 30
0.0
 10
207.9224579173492
 20
240.0809428505611
 30
0.0
 10
208.889382463747
 20
239.1917114798327
 30
0.0
 10
210.2242087341925
 20
238.0937195352523
 30
0.0
 10
211.6560820629109
 20
237.0405665298423
 30
0.0
 10
213.0450538306897
 20
236.132335880527
 30
0.0
 10
214.5896735296747
 20
235.232599452971
 30
0.0
 10
216.2412923197659
 20
234.3884132548037
 30
0.0
 10
217.9435502830725
 20
233.6515648439668
 30
0.0
 10
219.6204886397722
 20
233.0326361264866
 30
0.0
 10
221.2050127097216
 20
232.5391491407511
 30
0.0
 10
222.9285395898986
 20
232.104815085834
 30
0.0
 10
224.6250214825575
 20
231.773849951685
 30
0.0
 10
226.004933438418
 20
231.5829676716329
 30
0.0
 10
226.9802965624967
 20
231.484440978445
 30
0.0
 10
227.5800491338911
 20
231.435329907548
 30
0.0
 10
228.1713567249319
 20
231.3979465319754
 30
0.0
 10
228.7539946824212
 20
231.3720486459944
 30
0.0
 10
229.3277417704276
 20
231.3561967734043
 30
0.0
 10
229.7074214942045
 20
231.3542598562268
 30
0.0
 10
229.895509075701
 20
231.353300336809
 30
0.0
  0
ARC
  5
1C8
330
1F
100
AcDbEntity
  8
0
  6
Continuous
 62
     7
370
    25
100
AcDbCircle
 10
276.1826961546
 20
219.3533003368
 30
0.0
 40
12.0
100
AcDbArc
 50
0.0
 51
90.0
  0
ARC
  5
1C9
330
1F
100
AcDbEntity
  8
0
  6
Continuous
 62
     7
370
    25
100
AcDbCircle
 10
90.1826961546
 20
219.3533003368
 30
0.0
 40
12.0
100
AcDbArc
 50
90.0
 51
180.0
  0
LINE
  5
1CA
330
1F
100
AcDbEntity
  8
0
  6
Continuous
 62
     7
370
    25
100
AcDbLine
 10
288.1826961546
 20
219.3533003368
 30
0.0
 11
288.1826961546
 21
202.3533003368
 31
0.0
  0
LINE
  5
1CB
330
1F
100
AcDbEntity
  8
0
  6
Continuous
 62
     7
370
    25
100
AcDbLine
 10
78.1826961546
 20
202.3533003368
 30
0.0
 11
78.1826961546
 21
219.3533003368
 31
0.0
  0
SPLINE
  5
1CC
330
1F
100
AcDbEntity
  8
0
  6
Continuous
 62
     7
370
    25
100
AcDbSpline
210
0.0
220
0.0
230
1.0
 70
    24
 71
     3
 72
    29
 73
    25
 74
     0
 42
0.00000001
 43
0.00000001
 40
0.0
 40
0.0
 40
0.0
 40
0.0
 40
0.1250000000000017
 40
0.1250000000000017
 40
0.1875000000000024
 40
0.1875000000000024
 40
0.2500000000000032
 40
0.3125000000000038
 40
0.3125000000000038
 40
0.3750000000000046
 40
0.3750000000000046
 40
0.5000000000000056
 40
0.5000000000000056
 40
0.5625000000000054
 40
0.5625000000000054
 40
0.6250000000000052
 40
0.6250000000000052
 40
0.7500000000000029
 40
0.7500000000000029
 40
0.8125000000000017
 40
0.8125000000000017
 40
0.8750000000000003
 40
0.8750000000000003
 40
1.0
 40
1.0
 40
1.0
 40
1.0
 10
287.182696154599
 20
201.353300336809
 30
0.0
 10
287.182696154599
 20
201.353300336809
 30
0.0
 10
287.1114606532726
 20
201.353300336809
 30
0.0
 10
286.8985162125343
 20
201.353300336809
 30
0.0
 10
286.8097488799095
 20
201.353300336809
 30
0.0
 10
286.6000973734807
 20
201.353300336809
 30
0.0
 10
286.3577628639212
 20
201.353300336809
 30
0.0
 10
286.0509273831166
 20
201.353300336809
 30
0.0
 10
285.7113401111337
 20
201.353300336809
 30
0.0
 10
285.5239887452269
 20
201.353300336809
 30
0.0
 10
284.9207655833789
 20
201.353300336809
 30
0.0
 10
284.4654160255907
 20
201.353300336809
 30
0.0
 10
283.7044263122398
 20
201.353300336809
 30
0.0
 10
283.4376760840116
 20
201.353300336809
 30
0.0
 10
282.8771550056861
 20
201.353300336809
 30
0.0
 10
282.5859311516875
 20
201.353300336809
 30
0.0
 10
281.6894683239628
 20
201.353300336809
 30
0.0
 10
281.0579219707672
 20
201.353300336809
 30
0.0
 10
280.0592777894385
 20
201.353300336809
 30
0.0
 10
279.7159819636399
 20
201.353300336809
 30
0.0
 10
279.0253013973551
 20
201.353300336809
 30
0.0
 10
278.6769643303127
 20
201.353300336809
 30
0.0
 10
277.6231628493557
 20
201.353300336809
 30
0.0
 10
276.9089945745968
 20
201.353300336809
 30
0.0
 10
276.182696154599
 20
201.353300336809
 30
0.0
  0
ARC
  5
1CD
330
1F
100
AcDbEntity
  8
0
  6
Continuous
 62
     7
370
    25
100
AcDbCircle
 10
287.1826961546
 20
202.3533003368
 30
0.0
 40
1.0
100
AcDbArc
 50
270.0
 51
0.0
  0
LINE
  5
1CE
330
1F
100
AcDbEntity
  8
0
  6
Continuous
 62
     7
370
    25
100
AcDbLine
 10
276.1826961546
 20
201.3533003368
 30
0.0
 11
226.0113823787
 21
201.3533003368
 31
0.0
  0
ARC
  5
1CF
330
1F
100
AcDbEntity
  8
0
  6
Continuous
 62
     7
370
    25
100
AcDbCircle
 10
226.0113823787
 20
183.3533003368
 30
0.0
 40
18.00000000000003
100
AcDbArc
 50
90.0
 51
179.795373086
  0
LINE
  5
1D0
330
1F
100
AcDbEntity
  8
0
  6
Continuous
 62
     7
370
    25
100
AcDbLine
 10
140.3540099305
 20
201.3533003368
 30
0.0
 11
90.1826961546
 21
201.3533003368
 31
0.0
  0
ARC
  5
1D1
330
1F
100
AcDbEntity
  8
0
  6
Continuous
 62
     7
370
    25
100
AcDbCircle
 10
140.3540099305
 20
183.3533003368
 30
0.0
 40
18.00000000000003
100
AcDbArc
 50
0.204626914
 51
90.0
  0
SPLINE
  5
1D2
330
1F
100
AcDbEntity
  8
0
  6
Continuous
 62
     7
370
    25
100
AcDbSpline
210
0.0
220
0.0
230
1.0
 70
    24
 71
     3
 72
    29
 73
    25
 74
     0
 42
0.00000001
 43
0.00000001
 40
0.0
 40
0.0
 40
0.0
 40
0.0
 40
0.1249999999999999
 40
0.1249999999999999
 40
0.1874999999999999
 40
0.1874999999999999
 40
0.2499999999999999
 40
0.3124999999999999
 40
0.3124999999999999
 40
0.3749999999999998
 40
0.3749999999999998
 40
0.5000000000000001
 40
0.5000000000000001
 40
0.5625000000000009
 40
0.5625000000000009
 40
0.6250000000000016
 40
0.6250000000000016
 40
0.7500000000000019
 40
0.7500000000000019
 40
0.8125000000000013
 40
0.8125000000000013
 40
0.8750000000000007
 40
0.8750000000000007
 40
1.0
 40
1.0
 40
1.0
 40
1.0
 10
90.182696154599
 20
201.353300336809
 30
0.0
 10
89.45639773460114
 20
201.353300336809
 30
0.0
 10
88.73801457672074
 20
201.353300336809
 30
0.0
 10
87.67222805717483
 20
201.353300336809
 30
0.0
 10
87.31999558701875
 20
201.353300336809
 30
0.0
 10
86.63205452089443
 20
201.353300336809
 30
0.0
 10
85.95754814291472
 20
201.353300336809
 30
0.0
 10
85.3095555595899
 20
201.353300336809
 30
0.0
 10
84.67502594045149
 20
201.353300336809
 30
0.0
 10
84.36282831941845
 20
201.353300336809
 30
0.0
 10
83.4619388915684
 20
201.353300336809
 30
0.0
 10
82.90870522435578
 20
201.353300336809
 30
0.0
 10
82.14825942485359
 20
201.353300336809
 30
0.0
 10
81.90642751765611
 20
201.353300336809
 30
0.0
 10
81.44681743416533
 20
201.353300336809
 30
0.0
 10
81.23129331943083
 20
201.353300336809
 30
0.0
 10
80.63326764519095
 20
201.353300336809
 30
0.0
 10
80.2957624039064
 20
201.353300336809
 30
0.0
 10
79.88211674052087
 20
201.353300336809
 30
0.0
 10
79.75935280312946
 20
201.353300336809
 30
0.0
 10
79.55020864391504
 20
201.353300336809
 30
0.0
 10
79.46323335310161
 20
201.353300336809
 30
0.0
 10
79.25392304680888
 20
201.353300336809
 30
0.0
 10
79.18269615459899
 20
201.353300336809
 30
0.0
 10
79.18269615459901
 20
201.353300336809
 30
0.0
  0
ARC
  5
1D3
330
1F
100
AcDbEntity
  8
0
  6
Continuous
 62
     7
370
    25
100
AcDbCircle
 10
79.1826961546
 20
202.3533003368
 30
0.0
 40
1.0
100
AcDbArc
 50
180.0
 51
270.0
  0
LINE
  5
1D4
330
1F
100
AcDbEntity
  8
0
  6
Continuous
 62
     7
370
    25
100
AcDbLine
 10
158.639992072
 20
103.3104434673
 30
0.0
 11
158.3538951357
 21
183.4175856411
 31
0.0
  0
LINE
  5
1D5
330
1F
100
AcDbEntity
  8
0
  6
Continuous
 62
     7
370
    25
100
AcDbLine
 10
208.0114971735
 20
183.4175856411
 30
0.0
 11
207.7254002372
 21
103.3104434673
 31
0.0
  0
ARC
  5
1D6
330
1F
100
AcDbEntity
  8
0
  6
Continuous
 62
     7
370
    25
100
AcDbCircle
 10
195.7254767671
 20
103.3533003368
 30
0.0
 40
12.00000000000001
100
AcDbArc
 50
270.0
 51
359.795373086
  0
ARC
  5
1D7
330
1F
100
AcDbEntity
  8
0
  6
Continuous
 62
     7
370
    25
100
AcDbCircle
 10
170.6399155421
 20
103.3533003368
 30
0.0
 40
12.00000000000004
100
AcDbArc
 50
180.204626914
 51
270.0
  0
LINE
  5
1D8
330
1F
100
AcDbEntity
  8
0
  6
Continuous
 62
     7
370
    25
100
AcDbLine
 10
195.7254767671
 20
91.3533003368
 30
0.0
 11
170.6399155421
 21
91.3533003368
 31
0.0
  0
SPLINE
  5
1D9
330
1F
100
AcDbEntity
  8
0
  6
Continuous
 62
     7
370
    25
100
AcDbSpline
210
0.0
220
0.0
230
1.0
 70
    24
 71
     3
 72
     8
 73
     4
 74
     0
 42
0.00000001
 43
0.00000001
 40
0.0
 40
0.0
 40
0.0
 40
0.0
 40
1.0
 40
1.0
 40
1.0
 40
1.0
 10
254.2618188747479
 20
249.353300336813
 30
0.0
 10
255.5408369690805
 20
249.353300336813
 30
0.0
 10
256.8589626645713
 20
249.353300336813
 30
0.0
 10
258.182696154599
 20
249.353300336813
 30
0.0
  0
SPLINE
  5
1DA
330
1F
100
AcDbEntity
  8
0
  6
Continuous
 62
     7
370
    25
100
AcDbSpline
210
0.0
220
0.0
230
1.0
 70
    24
 71
     3
 72
     8
 73
     4
 74
     0
 42
0.00000001
 43
0.00000001
 40
0.0
 40
0.0
 40
0.0
 40
0.0
 40
1.0
 40
1.0
 40
1.0
 40
1.0
 10
258.182696154599
 20
249.353300336813
 30
0.0
 10
259.5064231446239
 20
249.353300336813
 30
0.0
 10
260.824542418613
 20
249.353300336813
 30
0.0
 10
262.1035546680313
 20
249.353300336813
 30
0.0
  0
SPLINE
  5
1DB
330
1F
100
AcDbEntity
  8
0
  6
Continuous
 62
     7
370
    25
100
AcDbSpline
210
0.0
220
0.0
230
1.0
 70
    24
 71
     3
 72
     8
 73
     4
 74
     0
 42
0.00000001
 43
0.00000001
 40
0.0
 40
0.0
 40
0.0
 40
0.0
 40
1.0
 40
1.0
 40
1.0
 40
1.0
 10
104.2618188747478
 20
249.353300336813
 30
0.0
 10
105.5408369690805
 20
249.353300336813
 30
0.0
 10
106.8589626645713
 20
249.353300336813
 30
0.0
 10
108.182696154599
 20
249.353300336813
 30
0.0
  0
SPLINE
  5
1DC
330
1F
100
AcDbEntity
  8
0
  6
Continuous
 62
     7
370
    25
100
AcDbSpline
210
0.0
220
0.0
230
1.0
 70
    24
 71
     3
 72
     8
 73
     4
 74
     0
 42
0.00000001
 43
0.00000001
 40
0.0
 40
0.0
 40
0.0
 40
0.0
 40
1.0
 40
1.0
 40
1.0
 40
1.0
 10
108.182696154599
 20
249.353300336813
 30
0.0
 10
109.5064231446239
 20
249.353300336813
 30
0.0
 10
110.824542418613
 20
249.353300336813
 30
0.0
 10
112.1035546680313
 20
249.353300336813
 30
0.0
  0
LINE
  5
1DD
330
1F
100
AcDbEntity
  8
0
  6
Continuous
 62
     7
370
    25
100
AcDbLine
 10
112.1038466122
 20
249.3533003368
 30
0.0
 11
113.6963156554
 21
249.3533003368
 31
0.0
  0
LINE
  5
1DE
330
1F
100
AcDbEntity
  8
0
  6
Continuous
 62
     7
370
    25
100
AcDbLine
 10
102.6690766538
 20
249.3533003368
 30
0.0
 11
104.2615068255
 21
249.3533003368
 31
0.0
  0
LINE
  5
1DF
330
1F
100
AcDbEntity
  8
0
  6
Continuous
 62
     7
370
    25
100
AcDbLine
 10
262.1035740529
 20
249.3533003147
 30
0.0
 11
263.6963156554
 21
249.3533003147
 31
0.0
  0
LINE
  5
1E0
330
1F
100
AcDbEntity
  8
0
  6
Continuous
 62
     7
370
    25
100
AcDbLine
 10
252.6690766538
 20
249.3533003147
 30
0.0
 11
254.2617981527
 21
249.3533003147
 31
0.0
  0
LINE
  5
1E1
330
1F
100
AcDbEntity
  8
0
  6
Continuous
 62
     7
370
    25
100
AcDbLine
 10
263.6963156554
 20
232.3533003147
 30
0.0
 11
252.6690766538
 21
232.3533003147
 31
0.0
  0
LINE
  5
1E2
330
1F
100
AcDbEntity
  8
0
  6
Continuous
 62
     7
370
    25
100
AcDbLine
 10
113.6963156554
 20
232.3533003368
 30
0.0
 11
102.6690766538
 21
232.3533003368
 31
0.0
  0
SPLINE
  5
1E3
330
1F
100
AcDbEntity
  8
0
  6
Continuous
 62
     7
370
    25
100
AcDbSpline
210
0.0
220
0.0
230
1.0
 70
    24
 71
     3
 72
    10
 73
     6
 74
     0
 42
0.00000001
 43
0.00000001
 40
0.0
 40
0.0
 40
0.0
 40
0.0
 40
0.5
 40
0.5
 40
1.0
 40
1.0
 40
1.0
 40
1.0
 10
252.6690766537608
 20
249.353300314679
 30
0.0
 10
249.6769251378742
 20
249.353300314679
 30
0.0
 10
247.0983315391871
 20
249.353300314679
 30
0.0
 10
243.4579993317016
 20
249.353300314679
 30
0.0
 10
242.4826961545976
 20
249.353300314679
 30
0.0
 10
242.4826961545976
 20
249.353300314679
 30
0.0
  0
SPLINE
  5
1E4
330
1F
100
AcDbEntity
  8
0
  6
Continuous
 62
     7
370
    25
100
AcDbSpline
210
0.0
220
0.0
230
1.0
 70
    24
 71
     3
 72
    10
 73
     6
 74
     0
 42
0.00000001
 43
0.00000001
 40
0.0
 40
0.0
 40
0.0
 40
0.0
 40
0.5
 40
0.5
 40
1.0
 40
1.0
 40
1.0
 40
1.0
 10
102.6690766537608
 20
249.353300336813
 30
0.0
 10
99.67692513787414
 20
249.353300336813
 30
0.0
 10
97.09833153918711
 20
249.353300336813
 30
0.0
 10
93.45799933170164
 20
249.353300336813
 30
0.0
 10
92.48269615459765
 20
249.353300336813
 30
0.0
 10
92.48269615459765
 20
249.353300336813
 30
0.0
  0
SPLINE
  5
1E5
330
1F
100
AcDbEntity
  8
0
  6
Continuous
 62
     7
370
    25
100
AcDbSpline
210
0.0
220
0.0
230
1.0
 70
    24
 71
     3
 72
    26
 73
    22
 74
     0
 42
0.00000001
 43
0.00000001
 40
0.0
 40
0.0
 40
0.0
 40
0.0
 40
0.0200152538592876
 40
0.0400085007840341
 40
0.0599914867130321
 40
0.0799759756778682
 40
0.0999737290575656
 40
0.119996484856587
 40
0.1820811301945879
 40
0.2441932152758238
 40
0.3077698366636892
 40
0.371374557254664
 40
0.5000043577648007
 40
0.6286341582749435
 40
0.6922107804210063
 40
0.7558155017655095
 40
0.8179001482507635
 40
0.8800122344753439
 40
0.9200178476912476
 40
0.9599823809350884
 40
1.0
 40
1.0
 40
1.0
 40
1.0
 10
263.696315655439
 20
249.353300314679
 30
0.0
 10
263.8148236213182
 20
249.353300314679
 30
0.0
 10
264.0517092526035
 20
249.353300314679
 30
0.0
 10
264.4026047105904
 20
249.353300314679
 30
0.0
 10
264.7498981519498
 20
249.353300314679
 30
0.0
 10
265.0932948420494
 20
249.353300314679
 30
0.0
 10
265.4328772497102
 20
249.353300314679
 30
0.0
 10
266.0034474763066
 20
249.353300314679
 30
0.0
 10
266.7877528431618
 20
249.353300314679
 30
0.0
 10
267.759454386533
 20
249.353300314679
 30
0.0
 10
268.6836572376844
 20
249.353300314679
 30
0.0
 10
269.8485359525112
 20
249.353300314679
 30
0.0
 10
271.1397876526967
 20
249.353300314679
 30
0.0
 10
272.1687257330226
 20
249.353300314679
 30
0.0
 10
272.8180634805345
 20
249.353300314679
 30
0.0
 10
273.2121693407549
 20
249.353300314679
 30
0.0
 10
273.5166491379231
 20
249.353300314679
 30
0.0
 10
273.7063702057234
 20
249.353300314679
 30
0.0
 10
273.8147640856625
 20
249.353300314679
 30
0.0
 10
273.8720984427254
 20
249.353300314679
 30
0.0
 10
273.8791620212264
 20
249.353300314679
 30
0.0
 10
273.882696154599
 20
249.353300314679
 30
0.0
  0
SPLINE
  5
1E6
330
1F
100
AcDbEntity
  8
0
  6
Continuous
 62
     7
370
    25
100
AcDbSpline
210
0.0
220
0.0
230
1.0
 70
    24
 71
     3
 72
    26
 73
    22
 74
     0
 42
0.00000001
 43
0.00000001
 40
0.0
 40
0.0
 40
0.0
 40
0.0
 40
0.0200152538592876
 40
0.0400085007840341
 40
0.0599914867130321
 40
0.0799759756778682
 40
0.0999737290575656
 40
0.119996484856587
 40
0.1820811301945879
 40
0.2441932152758238
 40
0.3077698366636892
 40
0.371374557254664
 40
0.5000043577648007
 40
0.6286341582749435
 40
0.6922107804210063
 40
0.7558155017655095
 40
0.8179001482507634
 40
0.8800122344753439
 40
0.9200178476912476
 40
0.9599823809350884
 40
1.0
 40
1.0
 40
1.0
 40
1.0
 10
113.696315655439
 20
249.353300336813
 30
0.0
 10
113.8148236213182
 20
249.353300336813
 30
0.0
 10
114.0517092526035
 20
249.353300336813
 30
0.0
 10
114.4026047105904
 20
249.353300336813
 30
0.0
 10
114.7498981519499
 20
249.353300336813
 30
0.0
 10
115.0932948420494
 20
249.353300336813
 30
0.0
 10
115.4328772497102
 20
249.353300336813
 30
0.0
 10
116.0034474763066
 20
249.353300336813
 30
0.0
 10
116.7877528431618
 20
249.353300336813
 30
0.0
 10
117.7594543865331
 20
249.353300336813
 30
0.0
 10
118.6836572376844
 20
249.353300336813
 30
0.0
 10
119.8485359525112
 20
249.353300336813
 30
0.0
 10
121.1397876526968
 20
249.353300336813
 30
0.0
 10
122.1687257330226
 20
249.353300336813
 30
0.0
 10
122.8180634805346
 20
249.353300336813
 30
0.0
 10
123.2121693407549
 20
249.353300336813
 30
0.0
 10
123.516649137923
 20
249.353300336813
 30
0.0
 10
123.7063702057234
 20
249.353300336813
 30
0.0
 10
123.8147640856625
 20
249.353300336813
 30
0.0
 10
123.8720984427254
 20
249.353300336813
 30
0.0
 10
123.8791620212264
 20
249.353300336813
 30
0.0
 10
123.882696154599
 20
249.353300336813
 30
0.0
  0
SPLINE
  5
1E7
330
1F
100
AcDbEntity
  8
0
  6
Continuous
 62
     7
370
    25
100
AcDbSpline
210
0.0
220
0.0
230
1.0
 70
    24
 71
     3
 72
    26
 73
    22
 74
     0
 42
0.00000001
 43
0.00000001
 40
0.0
 40
0.0
 40
0.0
 40
0.0
 40
0.020015253855586
 40
0.0400085007781149
 40
0.0599914867063766
 40
0.079975975671954
 40
0.0999737290538646
 40
0.1199964848565609
 40
0.1820811301926394
 40
0.2441932152758768
 40
0.307769836667404
 40
0.3713745572546923
 40
0.5000043577648319
 40
0.6286341582749703
 40
0.6922107804142043
 40
0.7558155017655105
 40
0.8179001482472434
 40
0.8800122344753665
 40
0.9200178476924515
 40
0.9599823809362876
 40
1.0
 40
1.0
 40
1.0
 40
1.0
 10
123.882696154599
 20
232.353300336809
 30
0.0
 10
123.8818120329178
 20
232.353300336809
 30
0.0
 10
123.8800447616542
 20
232.353300336809
 30
0.0
 10
123.8657238440429
 20
232.353300336809
 30
0.0
 10
123.8428552424055
 20
232.353300336809
 30
0.0
 10
123.8106049366796
 20
232.353300336809
 30
0.0
 10
123.7691928738408
 20
232.353300336809
 30
0.0
 10
123.6831653432947
 20
232.353300336809
 30
0.0
 10
123.5167387483645
 20
232.353300336809
 30
0.0
 10
123.2122580115634
 20
232.353300336809
 30
0.0
 10
122.818131913983
 20
232.353300336809
 30
0.0
 10
122.1688139260456
 20
232.353300336809
 30
0.0
 10
121.1397880679077
 20
232.353300336809
 30
0.0
 10
119.8486497079197
 20
232.353300336809
 30
0.0
 10
118.6837888137221
 20
232.353300336809
 30
0.0
 10
117.7597417798017
 20
232.353300336809
 30
0.0
 10
116.7878689973337
 20
232.353300336809
 30
0.0
 10
115.8950272627815
 20
232.353300336809
 30
0.0
 10
115.0955612146358
 20
232.353300336809
 30
0.0
 10
114.4050113310632
 20
232.353300336809
 30
0.0
 10
113.93265205221
 20
232.353300336809
 30
0.0
 10
113.696315655439
 20
232.353300336809
 30
0.0
  0
SPLINE
  5
1E8
330
1F
100
AcDbEntity
  8
0
  6
Continuous
 62
     7
370
    25
100
AcDbSpline
210
0.0
220
0.0
230
1.0
 70
    24
 71
     3
 72
    26
 73
    22
 74
     0
 42
0.00000001
 43
0.00000001
 40
0.0
 40
0.0
 40
0.0
 40
0.0
 40
0.020015253855586
 40
0.0400085007781149
 40
0.0599914867063766
 40
0.079975975671954
 40
0.0999737290538646
 40
0.1199964848565609
 40
0.1820811301926394
 40
0.2441932152758768
 40
0.307769836667404
 40
0.3713745572546923
 40
0.5000043577648319
 40
0.6286341582749703
 40
0.6922107804142043
 40
0.7558155017655105
 40
0.8179001482472434
 40
0.8800122344753665
 40
0.9200178476924515
 40
0.9599823809362876
 40
1.0
 40
1.0
 40
1.0
 40
1.0
 10
273.882696154599
 20
232.353300314675
 30
0.0
 10
273.8818120329178
 20
232.353300314675
 30
0.0
 10
273.8800447616542
 20
232.353300314675
 30
0.0
 10
273.8657238440429
 20
232.353300314675
 30
0.0
 10
273.8428552424056
 20
232.353300314675
 30
0.0
 10
273.8106049366796
 20
232.353300314675
 30
0.0
 10
273.7691928738408
 20
232.353300314675
 30
0.0
 10
273.6831653432947
 20
232.353300314675
 30
0.0
 10
273.5167387483645
 20
232.353300314675
 30
0.0
 10
273.2122580115634
 20
232.353300314675
 30
0.0
 10
272.818131913983
 20
232.353300314675
 30
0.0
 10
272.1688139260456
 20
232.353300314675
 30
0.0
 10
271.1397880679077
 20
232.353300314675
 30
0.0
 10
269.8486497079197
 20
232.353300314675
 30
0.0
 10
268.683788813722
 20
232.353300314675
 30
0.0
 10
267.7597417798017
 20
232.353300314675
 30
0.0
 10
266.7878689973336
 20
232.353300314675
 30
0.0
 10
265.8950272627816
 20
232.353300314675
 30
0.0
 10
265.0955612146357
 20
232.353300314675
 30
0.0
 10
264.4050113310631
 20
232.353300314675
 30
0.0
 10
263.93265205221
 20
232.353300314675
 30
0.0
 10
263.696315655439
 20
232.353300314675
 30
0.0
  0
SPLINE
  5
1E9
330
1F
100
AcDbEntity
  8
0
  6
Continuous
 62
     7
370
    25
100
AcDbSpline
210
0.0
220
0.0
230
1.0
 70
    24
 71
     3
 72
    10
 73
     6
 74
     0
 42
0.00000001
 43
0.00000001
 40
0.0
 40
0.0
 40
0.0
 40
0.0
 40
0.5
 40
0.5
 40
1.0
 40
1.0
 40
1.0
 40
1.0
 10
92.48269615459901
 20
232.353300336809
 30
0.0
 10
92.48269615459901
 20
232.353300336809
 30
0.0
 10
93.45799933170275
 20
232.353300336809
 30
0.0
 10
97.09833153918723
 20
232.353300336809
 30
0.0
 10
99.67692513787357
 20
232.353300336809
 30
0.0
 10
102.6690766537595
 20
232.353300336809
 30
0.0
  0
SPLINE
  5
1EA
330
1F
100
AcDbEntity
  8
0
  6
Continuous
 62
     7
370
    25
100
AcDbSpline
210
0.0
220
0.0
230
1.0
 70
    24
 71
     3
 72
    10
 73
     6
 74
     0
 42
0.00000001
 43
0.00000001
 40
0.0
 40
0.0
 40
0.0
 40
0.0
 40
0.5
 40
0.5
 40
1.0
 40
1.0
 40
1.0
 40
1.0
 10
242.482696154599
 20
232.353300314675
 30
0.0
 10
242.482696154599
 20
232.353300314675
 30
0.0
 10
243.4579993317027
 20
232.353300314675
 30
0.0
 10
247.0983315391872
 20
232.353300314675
 30
0.0
 10
249.6769251378736
 20
232.353300314675
 30
0.0
 10
252.6690766537595
 20
232.353300314675
 30
0.0
  0
SPLINE
  5
1EB
330
1F
100
AcDbEntity
  8
0
  6
Continuous
 62
     8
370
    18
100
AcDbSpline
210
0.0
220
0.0
230
1.0
 70
     8
 71
     3
 72
    14
 73
    10
 74
     0
 42
0.00000001
 43
0.00000001
 40
0.0
 40
0.0
 40
0.0
 40
0.0
 40
0.2500000000000011
 40
0.2500000000000011
 40
0.5000000000000022
 40
0.5000000000000022
 40
0.7500000000000011
 40
0.7500000000000011
 40
1.0
 40
1.0
 40
1.0
 40
1.0
 10
194.3012688499815
 20
246.280589229383
 30
0.0
 10
194.3091639865387
 20
246.3981041548519
 30
0.0
 10
194.3174108132802
 20
246.5248819935962
 30
0.0
 10
194.3326766844287
 20
246.7703854490243
 30
0.0
 10
194.3396405787657
 20
246.8883521314565
 30
0.0
 10
194.3502675907359
 20
247.0831554650181
 30
0.0
 10
194.3538947857797
 20
247.1593339207756
 30
0.0
 10
194.3573334288723
 20
247.2567125317004
 30
0.0
 10
194.3571764700697
 20
247.278239843419
 30
0.0
 10
194.3556967296376
 20
247.2783392742995
 30
0.0
  0
SPLINE
  5
1EC
330
1F
100
AcDbEntity
  8
0
  6
Continuous
 62
     8
370
    18
100
AcDbSpline
210
0.0
220
0.0
230
1.0
 70
     8
 71
     3
 72
    19
 73
    15
 74
     0
 42
0.00000001
 43
0.00000001
 40
0.0
 40
0.0
 40
0.0
 40
0.0
 40
0.0476922137278492
 40
0.0956974063227929
 40
0.1440176150463225
 40
0.1926548375747416
 40
0.2416110327767725
 40
0.3618731538923398
 40
0.4791664935777173
 40
0.6016788739929236
 40
0.7271392865139619
 40
0.8188600981750797
 40
0.9098092135751855
 40
1.0
 40
1.0
 40
1.0
 40
1.0
 10
194.301268849982
 20
246.280589229383
 30
0.0
 10
193.948257811239
 20
246.3036001189754
 30
0.0
 10
193.2399191083263
 20
246.3497729065029
 30
0.0
 10
192.1733516423786
 20
246.4103640048772
 30
0.0
 10
191.0994335415683
 20
246.4649173579392
 30
0.0
 10
190.0181202362592
 20
246.5127876163561
 30
0.0
 10
188.4032446307313
 20
246.5741103421449
 30
0.0
 10
186.2785956020674
 20
246.6321722428572
 30
0.0
 10
183.6076296247765
 20
246.6624245139265
 30
0.0
 10
180.8979642957838
 20
246.6458944043671
 30
0.0
 10
178.3786289315534
 20
246.5887564382348
 30
0.0
 10
176.0944433045968
 20
246.5049387823776
 30
0.0
 10
174.0726566577823
 20
246.408123630844
 30
0.0
 10
172.7317231445814
 20
246.3229818832998
 30
0.0
 10
172.0640632481116
 20
246.280589229383
 30
0.0
  0
ARC
  5
1ED
330
1F
100
AcDbEntity
  8
0
  6
Continuous
 62
     8
370
    18
100
AcDbCircle
 10
191.756679798
 20
247.8539973749
 30
0.0
 40
19.75536763595629
100
AcDbArc
 50
181.6697956951
 51
184.5681359952
  0
SPLINE
  5
1EE
330
1F
100
AcDbEntity
  8
0
  6
Continuous
 62
     8
370
    18
100
AcDbSpline
210
0.0
220
0.0
230
1.0
 70
     8
 71
     3
 72
    12
 73
     8
 74
     0
 42
0.00000001
 43
0.00000001
 40
0.0
 40
0.0
 40
0.0
 40
0.0
 40
0.2000002768519188
 40
0.4000000149792223
 40
0.5999996146803916
 40
0.7999994762547372
 40
1.0
 40
1.0
 40
1.0
 40
1.0
 10
161.1649571540115
 20
232.378884568137
 30
0.0
 10
161.1620202797094
 20
230.3108530936986
 30
0.0
 10
161.156146539016
 20
226.1747957153115
 30
0.0
 10
161.1584193789652
 20
219.9707056943643
 30
0.0
 10
161.1690048447201
 20
213.7666307728202
 30
0.0
 10
161.1879029529764
 20
207.5625653065664
 30
0.0
 10
161.2078906246571
 20
203.4265482515271
 30
0.0
 10
161.2178844770415
 20
201.358536300573
 30
0.0
  0
SPLINE
  5
1EF
330
1F
100
AcDbEntity
  8
0
  6
Continuous
 62
     8
370
    18
100
AcDbSpline
210
0.0
220
0.0
230
1.0
 70
     8
 71
     3
 72
    26
 73
    22
 74
     0
 42
0.00000001
 43
0.00000001
 40
0.0
 40
0.0
 40
0.0
 40
0.0
 40
0.0243906972131864
 40
0.0481797030525172
 40
0.0713788073526911
 40
0.0940007222820349
 40
0.1160591579257614
 40
0.1375689018636587
 40
0.158545902096051
 40
0.2189161629455442
 40
0.2759280159571023
 40
0.328037542072635
 40
0.3781436949942167
 40
0.4248865813918428
 40
0.4717092259965425
 40
0.5759510431171978
 40
0.691792728197273
 40
0.7554525905390451
 40
0.8239669226046291
 40
0.907597033234596
 40
1.0
 40
1.0
 40
1.0
 40
1.0
 10
172.0640632481116
 20
246.280589229383
 30
0.0
 10
171.899699291919
 20
246.2685871143913
 30
0.0
 10
171.5750260555338
 20
246.2448789632365
 30
0.0
 10
171.095114609191
 20
246.1967029318742
 30
0.0
 10
170.6282306666141
 20
246.1397345017796
 30
0.0
 10
170.1744300430483
 20
246.0731036316026
 30
0.0
 10
169.7337016259648
 20
245.9970288158373
 30
0.0
 10
169.3060301340114
 20
245.9114684974554
 30
0.0
 10
168.6286551405545
 20
245.7560816215815
 30
0.0
 10
167.7294591623639
 20
245.4955429520031
 30
0.0
 10
166.6635273325269
 20
245.0717548937945
 30
0.0
 10
165.7102815571769
 20
244.5684958029937
 30
0.0
 10
164.8787399495133
 20
243.9972222099593
 30
0.0
 10
164.1506449869444
 20
243.3515372697778
 30
0.0
 10
163.2660066198313
 20
242.3456095386946
 30
0.0
 10
162.346352791719
 20
240.7726848451118
 30
0.0
 10
161.7484918736804
 20
238.9391123460066
 30
0.0
 10
161.4263673440701
 20
237.2934066208212
 30
0.0
 10
161.2529810066307
 20
235.8442150687733
 30
0.0
 10
161.1701027623993
 20
234.1928182707791
 30
0.0
 10
161.1667284119748
 20
233.0032897450346
 30
0.0
 10
161.1649571540115
 20
232.378884568137
 30
0.0
  0
SPLINE
  5
1F0
330
1F
100
AcDbEntity
  8
0
  6
Continuous
 62
     8
370
    18
100
AcDbSpline
210
0.0
220
0.0
230
1.0
 70
     8
 71
     3
 72
    22
 73
    18
 74
     0
 42
0.00000001
 43
0.00000001
 40
0.0
 40
0.0
 40
0.0
 40
0.0
 40
0.0886419962812289
 40
0.1657310070109539
 40
0.2907517632533916
 40
0.4232756494170238
 40
0.5120771845661989
 40
0.5589571254480822
 40
0.6052138462446195
 40
0.6548180764348134
 40
0.7062169188951839
 40
0.7656081178405195
 40
0.8288778109460191
 40
0.8686815893370848
 40
0.9104030540102285
 40
0.9541458712866202
 40
0.9999999999999999
 40
0.9999999999999999
 40
0.9999999999999999
 40
0.9999999999999999
 10
205.2003749440724
 20
232.378884568079
 30
0.0
 10
205.1986906408669
 20
232.9778500123819
 30
0.0
 10
205.1955415549021
 20
234.0977158819879
 30
0.0
 10
205.1059122106319
 20
236.0609288375339
 30
0.0
 10
204.8057390443552
 20
238.307752648166
 30
0.0
 10
204.1113138526807
 20
240.5618578933631
 30
0.0
 10
203.2172825134288
 20
242.1524445261802
 30
0.0
 10
202.4435994777208
 20
243.1111972367526
 30
0.0
 10
201.7490024856997
 20
243.7836746543273
 30
0.0
 10
200.9509361324245
 20
244.3819954156067
 30
0.0
 10
200.0107897000465
 20
244.9254111025577
 30
0.0
 10
198.9294650143876
 20
245.3938321720042
 30
0.0
 10
197.8801948195174
 20
245.7220970095907
 30
0.0
 10
196.9271881894529
 20
245.9445346101851
 30
0.0
 10
196.0936700685685
 20
246.0928755186914
 30
0.0
 10
195.213733035483
 20
246.2092349123814
 30
0.0
 10
194.6101645180304
 20
246.2564337175628
 30
0.0
 10
194.301268849982
 20
246.280589229383
 30
0.0
  0
SPLINE
  5
1F1
330
1F
100
AcDbEntity
  8
0
  6
Continuous
 62
     8
370
    18
100
AcDbSpline
210
0.0
220
0.0
230
1.0
 70
     8
 71
     3
 72
    12
 73
     8
 74
     0
 42
0.00000001
 43
0.00000001
 40
0.0
 40
0.0
 40
0.0
 40
0.0
 40
0.200000523455146
 40
0.40000038488564
 40
0.5999999845880146
 40
0.7999997228603767
 40
1.0
 40
1.0
 40
1.0
 40
1.0
 10
205.1474476210422
 20
201.358536300623
 30
0.0
 10
205.1574414734178
 20
203.4265482486203
 30
0.0
 10
205.1774291450883
 20
207.5625652992583
 30
0.0
 10
205.1963272533669
 20
213.7666307610279
 30
0.0
 10
205.2069127191408
 20
219.9707056825346
 30
0.0
 10
205.2091855590888
 20
226.174795707874
 30
0.0
 10
205.2033118183822
 20
230.3108530906891
 30
0.0
 10
205.2003749440724
 20
232.378884568079
 30
0.0
  0
LINE
  5
1F2
330
1F
100
AcDbEntity
  8
0
  6
Continuous
 62
     8
370
    18
100
AcDbLine
 10
204.9163880211
 20
157.2799968431
 30
0.0
 11
205.147447621
 21
201.3585363006
 31
0.0
  0
SPLINE
  5
1F3
330
1F
100
AcDbEntity
  8
0
  6
Continuous
 62
     8
370
    18
100
AcDbSpline
210
0.0
220
0.0
230
1.0
 70
     8
 71
     3
 72
    24
 73
    20
 74
     0
 42
0.00000001
 43
0.00000001
 40
0.0
 40
0.0
 40
0.0
 40
0.0
 40
0.0460638323185945
 40
0.0886605609533239
 40
0.1637019686016891
 40
0.2274370789011287
 40
0.2864064899764233
 40
0.3609862554381915
 40
0.4297238305444849
 40
0.4945535715180525
 40
0.5594176812407423
 40
0.6278649073292282
 40
0.7019481578970737
 40
0.762374476885716
 40
0.827697328819236
 40
0.8666088264518218
 40
0.9087510660011353
 40
0.9536143919573099
 40
1.0
 40
1.0
 40
1.0
 40
1.0
 10
190.9006389791791
 20
143.353300336793
 30
0.0
 10
191.258842902833
 20
143.3535271344232
 30
0.0
 10
191.9482896815374
 20
143.3539636592218
 30
0.0
 10
193.2210828684233
 20
143.3754575855259
 30
0.0
 10
194.6302746299592
 20
143.4549284539251
 30
0.0
 10
196.1561172970262
 20
143.6576960496144
 30
0.0
 10
197.6563129030829
 20
143.9862979310712
 30
0.0
 10
199.1505321709727
 20
144.4947156030765
 30
0.0
 10
200.590281868627
 20
145.2501180907148
 30
0.0
 10
201.8129555666558
 20
146.2069548400989
 30
0.0
 10
202.8175305381026
 20
147.3883484474105
 30
0.0
 10
203.6196269987916
 20
148.7966918724542
 30
0.0
 10
204.1730569909308
 20
150.2809941792445
 30
0.0
 10
204.5409216300663
 20
151.7929159134885
 30
0.0
 10
204.7318671223834
 20
153.060691559333
 30
0.0
 10
204.8347337919263
 20
154.1945390578553
 30
0.0
 10
204.8864502102307
 20
155.1725729402077
 30
0.0
 10
204.9101094620881
 20
156.2097030587917
 30
0.0
 10
204.9142720204603
 20
156.9192863177476
 30
0.0
 10
204.9163880210823
 20
157.2799968431329
 30
0.0
  0
LINE
  5
1F4
330
1F
100
AcDbEntity
  8
0
  6
Continuous
 62
     8
370
    18
100
AcDbLine
 10
175.4646931189
 20
143.3533003368
 30
0.0
 11
190.9006389792
 21
143.3533003368
 31
0.0
  0
SPLINE
  5
1F5
330
1F
100
AcDbEntity
  8
0
  6
Continuous
 62
     8
370
    18
100
AcDbSpline
210
0.0
220
0.0
230
1.0
 70
     8
 71
     3
 72
    24
 73
    20
 74
     0
 42
0.00000001
 43
0.00000001
 40
0.0
 40
0.0
 40
0.0
 40
0.0
 40
0.04589161451034
 40
0.0883201197377101
 40
0.1630610571369302
 40
0.2266838241811023
 40
0.2855527436805714
 40
0.3600023721855532
 40
0.4286401912605511
 40
0.4933936297349386
 40
0.5582762097046269
 40
0.6267527248789944
 40
0.7008786358011448
 40
0.7613831435622125
 40
0.8267825670715097
 40
0.8657955231319965
 40
0.9080147718341369
 40
0.9531064038599609
 40
1.0
 40
1.0
 40
1.0
 40
1.0
 10
161.4489440770014
 20
157.279996843143
 30
0.0
 10
161.4510406253988
 20
156.9231231322045
 30
0.0
 10
161.4550755108017
 20
156.2363063963448
 30
0.0
 10
161.4830803221994
 20
154.9685530815897
 30
0.0
 10
161.569429803296
 20
153.5642003997357
 30
0.0
 10
161.7792638062435
 20
152.0432052691284
 30
0.0
 10
162.1147528854772
 20
150.5471099851401
 30
0.0
 10
162.6297189998037
 20
149.0576917576687
 30
0.0
 10
163.3909062826797
 20
147.6235641074405
 30
0.0
 10
164.3524252108598
 20
146.4061030043003
 30
0.0
 10
165.53797313808
 20
145.4068255915251
 30
0.0
 10
166.9504317917255
 20
144.61079340186
 30
0.0
 10
168.438208251155
 20
144.0638423503894
 30
0.0
 10
169.9531567381002
 20
143.7026538543934
 30
0.0
 10
171.2236692201062
 20
143.5173685173927
 30
0.0
 10
172.3598781373186
 20
143.4197005000705
 30
0.0
 10
173.341245095632
 20
143.3725448085822
 30
0.0
 10
174.3847488415215
 20
143.3539820241721
 30
0.0
 10
175.1000409046473
 20
143.3535305142358
 30
0.0
 10
175.4646931189127
 20
143.353300336793
 30
0.0
  0
LINE
  5
1F6
330
1F
100
AcDbEntity
  8
0
  6
Continuous
 62
     8
370
    18
100
AcDbLine
 10
161.217884477
 20
201.3585363006
 30
0.0
 11
161.448944077
 21
157.2799968431
 31
0.0
  0
ARC
  5
1F7
330
1F
100
AcDbEntity
  8
0
  6
Continuous
 62
     8
370
    18
100
AcDbCircle
 10
203.8538840483
 20
143.103319733
 30
0.0
 40
28.39029150830456
100
AcDbArc
 50
179.4954958937
 51
181.5138254612
  0
ARC
  5
1F8
330
1F
100
AcDbEntity
  8
0
  6
Continuous
 62
     8
370
    18
100
AcDbCircle
 10
162.3161381971
 20
143.1033194946
 30
0.0
 40
28.58559336448212
100
AcDbArc
 50
358.4965201244
 51
0.5010576343
  0
LWPOLYLINE
  5
1F9
330
1F
100
AcDbEntity
  8
0
  6
Continuous
 62
     8
370
    18
100
AcDbPolyline
 90
        9
 70
   128
 43
0.0
 10
204.9163880211
 20
157.2799968432
 10
205.1079294317
 20
157.2789909056
 10
205.2914196124
 20
157.2780224237
 10
205.4600263975
 20
157.2771274583
 10
205.6074717975
 20
157.276339333
 10
205.7282657563
 20
157.2756873933
 10
205.8179105712
 20
157.2751959138
 10
205.8730683619
 20
157.2748831945
 10
205.8916853558
 20
157.2747608794
  0
LWPOLYLINE
  5
1FA
330
1F
100
AcDbEntity
  8
0
  6
Continuous
 62
     8
370
    18
100
AcDbPolyline
 90
        9
 70
   128
 43
0.0
 10
161.448944074
 20
157.2799974397
 10
161.2574113391
 20
157.2789915392
 10
161.0739311345
 20
157.27802309
 10
160.9053347297
 20
157.2771281491
 10
160.7578992455
 20
157.2763400366
 10
160.6371139471
 20
157.2756880952
 10
160.5474758696
 20
157.2751965978
 10
160.4923223858
 20
157.2748838436
 10
160.4737069534
 20
157.2747608793
  0
LWPOLYLINE
  5
1FB
330
1F
100
AcDbEntity
  8
0
  6
Continuous
 62
     8
370
    18
100
AcDbPolyline
 90
        9
 70
   128
 43
0.0
 10
205.2003749448
 20
232.3788841114
 10
205.3918653599
 20
232.3792351201
 10
205.5752983141
 20
232.3795730656
 10
205.7438470747
 20
232.3798853705
 10
205.8912388462
 20
232.3801604121
 10
206.0119882225
 20
232.3803879543
 10
206.1016013343
 20
232.3805595287
 10
206.1567430949
 20
232.3806687499
 10
206.1753613201
 20
232.3807120132
  0
SPLINE
  5
1FC
330
1F
100
AcDbEntity
  8
0
  6
Continuous
 62
     8
370
    18
100
AcDbSpline
210
0.0
220
0.0
230
1.0
 70
     8
 71
     3
 72
    14
 73
    10
 74
     0
 42
0.00000001
 43
0.00000001
 40
0.0
 40
0.0
 40
0.0
 40
0.0
 40
0.25
 40
0.25
 40
0.5
 40
0.5
 40
0.75
 40
0.75
 40
1.0
 40
1.0
 40
1.0
 40
1.0
 10
161.1649571540218
 20
232.378884568137
 30
0.0
 10
161.0486309974646
 20
232.3790972818707
 30
0.0
 10
160.9239500543045
 20
232.379326232503
 30
0.0
 10
160.6836848350746
 20
232.3797699154381
 30
0.0
 10
160.5688126209196
 20
232.3799833593839
 30
0.0
 10
160.3794228064866
 20
232.380338360011
 30
0.0
 10
160.3055035779027
 20
232.3804787950819
 30
0.0
 10
160.210957223991
 20
232.380662697873
 30
0.0
 10
160.1900309780295
 20
232.3807066799156
 30
0.0
 10
160.1900309877756
 20
232.3807120132317
 30
0.0
  0
LWPOLYLINE
  5
1FD
330
1F
100
AcDbEntity
  8
0
  6
Continuous
 62
     8
370
    18
100
AcDbPolyline
 90
        9
 70
   128
 43
0.0
 10
205.147447621
 20
201.3585363006
 10
205.3389508876
 20
201.357530525
 10
205.5223972842
 20
201.3565621863
 10
205.6909585851
 20
201.3556673279
 10
205.8383606161
 20
201.3548792582
 10
205.9591167919
 20
201.3542273106
 10
206.0487323365
 20
201.3537357518
 10
206.103871588
 20
201.3534228786
 10
206.1224821578
 20
201.3533003368
  0
SPLINE
  5
1FE
330
1F
100
AcDbEntity
  8
0
  6
Continuous
 62
     8
370
    18
100
AcDbSpline
210
0.0
220
0.0
230
1.0
 70
     8
 71
     3
 72
    14
 73
    10
 74
     0
 42
0.00000001
 43
0.00000001
 40
0.0
 40
0.0
 40
0.0
 40
0.0
 40
0.25
 40
0.25
 40
0.5
 40
0.5
 40
0.75
 40
0.75
 40
1.0
 40
1.0
 40
1.0
 40
1.0
 10
161.2178844770415
 20
201.3585363006248
 30
0.0
 10
161.1014423063825
 20
201.3579262236113
 30
0.0
 10
160.9766280601255
 20
201.357269534778
 30
0.0
 10
160.7361441235117
 20
201.3559971490821
 30
0.0
 10
160.6211903968629
 20
201.3553851641088
 30
0.0
 10
160.4317657544902
 20
201.3543678465712
 30
0.0
 10
160.3578944148267
 20
201.3539657343473
 30
0.0
 10
160.2635443343843
 20
201.3534398817741
 30
0.0
 10
160.242910072347
 20
201.3533154275449
 30
0.0
 10
160.2429101522343
 20
201.3533001701601
 30
0.0
  0
LINE
  5
1FF
330
1F
100
AcDbEntity
  8
0
  6
Continuous
 62
     8
370
    18
100
AcDbLine
 10
108.1826961546
 20
275.1498098555
 30
0.0
 11
73.1862480942
 21
275.1498098555
 31
0.0
  0
LINE
  5
200
330
1F
100
AcDbEntity
  8
0
  6
Continuous
 62
     8
370
    18
100
AcDbLine
 10
143.179144215
 20
275.1498098555
 30
0.0
 11
108.1826961546
 21
275.1498098555
 31
0.0
  0
LINE
  5
201
330
1F
100
AcDbEntity
  8
0
  6
Continuous
 62
     8
370
    18
100
AcDbLine
 10
258.1826961546
 20
275.1498098555
 30
0.0
 11
223.1862480942
 21
275.1498098555
 31
0.0
  0
LINE
  5
202
330
1F
100
AcDbEntity
  8
0
  6
Continuous
 62
     8
370
    18
100
AcDbLine
 10
293.179144215
 20
275.1498098555
 30
0.0
 11
258.1826961546
 21
275.1498098555
 31
0.0
  0
LINE
  5
203
330
1F
100
AcDbEntity
  8
0
  6
Continuous
 62
     8
370
    18
100
AcDbLine
 10
142.9695006562
 20
263.1393384117
 30
0.0
 11
73.395891653
 21
263.1393384117
 31
0.0
  0
LINE
  5
204
330
1F
100
AcDbEntity
  8
0
  6
Continuous
 62
     8
370
    18
100
AcDbLine
 10
292.9695006562
 20
263.1393384117
 30
0.0
 11
223.395891653
 21
263.1393384117
 31
0.0
  0
LINE
  5
205
330
1F
100
AcDbEntity
  8
0
  6
Continuous
 62
     8
370
    18
100
AcDbLine
 10
170.4110087305
 20
247.1241186342
 30
0.0
 11
170.4110087305
 21
247.3533003368
 31
0.0
  0
LINE
  5
206
330
1F
100
AcDbEntity
  8
0
  6
Continuous
 62
     8
370
    18
100
AcDbLine
 10
195.9543835787
 20
247.1151621634
 30
0.0
 11
195.9543835787
 21
247.3533003368
 31
0.0
  0
LINE
  5
207
330
1F
100
AcDbEntity
  8
0
  6
Continuous
 62
     8
370
    18
100
AcDbLine
 10
206.7254066147
 20
103.3140148731
 30
0.0
 11
207.011503551
 21
183.4211570469
 31
0.0
  0
ARC
  5
208
330
1F
100
AcDbEntity
  8
0
  6
Continuous
 62
     8
370
    18
100
AcDbCircle
 10
195.7254767671
 20
103.3533003368
 30
0.0
 40
11.00000000000001
100
AcDbArc
 50
270.0
 51
359.795373086
  0
LINE
  5
209
330
1F
100
AcDbEntity
  8
0
  6
Continuous
 62
     8
370
    18
100
AcDbLine
 10
170.6399155421
 20
92.3533003368
 30
0.0
 11
195.7254767671
 21
92.3533003368
 31
0.0
  0
ARC
  5
20A
330
1F
100
AcDbEntity
  8
0
  6
Continuous
 62
     8
370
    18
100
AcDbCircle
 10
170.6399155421
 20
103.3533003368
 30
0.0
 40
11.00000000000001
100
AcDbArc
 50
180.204626914
 51
270.0
  0
LINE
  5
20B
330
1F
100
AcDbEntity
  8
0
  6
Continuous
 62
     8
370
    18
100
AcDbLine
 10
159.3538887582
 20
183.4211570469
 30
0.0
 11
159.6399856945
 21
103.3140148731
 31
0.0
  0
ARC
  5
20C
330
1F
100
AcDbEntity
  8
0
  6
Continuous
 62
     8
370
    18
100
AcDbCircle
 10
140.3540099305
 20
183.3533003368
 30
0.0
 40
19.00000000000003
100
AcDbArc
 50
0.204626914
 51
90.0
  0
LINE
  5
20D
330
1F
100
AcDbEntity
  8
0
  6
Continuous
 62
     8
370
    18
100
AcDbLine
 10
90.1826961546
 20
202.3533003368
 30
0.0
 11
140.3540099305
 21
202.3533003368
 31
0.0
  0
LINE
  5
20E
330
1F
100
AcDbEntity
  8
0
  6
Continuous
 62
     8
370
    18
100
AcDbLine
 10
226.0113823787
 20
202.3533003368
 30
0.0
 11
276.1826961546
 21
202.3533003368
 31
0.0
  0
ARC
  5
20F
330
1F
100
AcDbEntity
  8
0
  6
Continuous
 62
     8
370
    18
100
AcDbCircle
 10
226.0113823787
 20
183.3533003368
 30
0.0
 40
19.00000000000003
100
AcDbArc
 50
90.0
 51
179.795373086
  0
LINE
  5
210
330
1F
100
AcDbEntity
  8
0
  6
Continuous
 62
     8
370
    18
100
AcDbLine
 10
276.1826961546
 20
202.3533003368
 30
0.0
 11
288.1826961546
 21
202.3533003368
 31
0.0
  0
LINE
  5
211
330
1F
100
AcDbEntity
  8
0
  6
Continuous
 62
     8
370
    18
100
AcDbLine
 10
78.1826961546
 20
202.3533003368
 30
0.0
 11
90.1826961546
 21
202.3533003368
 31
0.0
  0
LINE
  5
212
330
1F
100
AcDbEntity
  8
0
  6
Continuous
 62
     8
370
    18
100
AcDbLine
 10
226.0113823787
 20
201.3533003368
 30
0.0
 11
226.0113823787
 21
202.3533003368
 31
0.0
  0
LINE
  5
213
330
1F
100
AcDbEntity
  8
0
  6
Continuous
 62
     8
370
    18
100
AcDbLine
 10
208.0114971735
 20
183.4175856411
 30
0.0
 11
207.011503551
 21
183.4211570469
 31
0.0
  0
LINE
  5
214
330
1F
100
AcDbEntity
  8
0
  6
Continuous
 62
     8
370
    18
100
AcDbLine
 10
140.3540099305
 20
201.3533003368
 30
0.0
 11
140.3540099305
 21
202.3533003368
 31
0.0
  0
LINE
  5
215
330
1F
100
AcDbEntity
  8
0
  6
Continuous
 62
     8
370
    18
100
AcDbLine
 10
158.3538951357
 20
183.4175856411
 30
0.0
 11
159.3538887582
 21
183.4211570469
 31
0.0
  0
LINE
  5
216
330
1F
100
AcDbEntity
  8
0
  6
Continuous
 62
     8
370
    18
100
AcDbLine
 10
158.639992072
 20
103.3104434673
 30
0.0
 11
159.6399856945
 21
103.3140148731
 31
0.0
  0
LINE
  5
217
330
1F
100
AcDbEntity
  8
0
  6
Continuous
 62
     8
370
    18
100
AcDbLine
 10
207.7254002372
 20
103.3104434673
 30
0.0
 11
206.7254066147
 21
103.3140148731
 31
0.0
  0
LINE
  5
218
330
1F
100
AcDbEntity
  8
0
  6
Continuous
 62
     8
370
    18
100
AcDbLine
 10
195.7254767671
 20
91.3533003368
 30
0.0
 11
195.7254767671
 21
92.3533003368
 31
0.0
  0
LINE
  5
219
330
1F
100
AcDbEntity
  8
0
  6
Continuous
 62
     8
370
    18
100
AcDbLine
 10
170.6399155421
 20
91.3533003368
 30
0.0
 11
170.6399155421
 21
92.3533003368
 31
0.0
  0
LINE
  5
21A
330
1F
100
AcDbEntity
  8
0
  6
Continuous
 62
     8
370
    18
100
AcDbLine
 10
124.395891653
 20
261.567262262
 30
0.0
 11
91.9695006562
 21
261.567262262
 31
0.0
  0
LINE
  5
21B
330
1F
100
AcDbEntity
  8
0
  6
Continuous
 62
     8
370
    18
100
AcDbLine
 10
274.395891653
 20
261.567262262
 30
0.0
 11
241.9695006562
 21
261.567262262
 31
0.0
  0
LINE
  5
21C
330
1F
100
AcDbEntity
  8
0
  6
Continuous
 62
     8
370
    18
100
AcDbLine
 10
108.1826961546
 20
250.1393384117
 30
0.0
 11
124.1964165002
 21
250.1393384117
 31
0.0
  0
LINE
  5
21D
330
1F
100
AcDbEntity
  8
0
  6
Continuous
 62
     8
370
    18
100
AcDbLine
 10
92.168975809
 20
250.1393384117
 30
0.0
 11
108.1826961546
 21
250.1393384117
 31
0.0
  0
LINE
  5
21E
330
1F
100
AcDbEntity
  8
0
  6
Continuous
 62
     8
370
    18
100
AcDbLine
 10
258.1826961546
 20
250.1393384117
 30
0.0
 11
274.1964165002
 21
250.1393384117
 31
0.0
  0
LINE
  5
21F
330
1F
100
AcDbEntity
  8
0
  6
Continuous
 62
     8
370
    18
100
AcDbLine
 10
242.168975809
 20
250.1393384117
 30
0.0
 11
258.1826961546
 21
250.1393384117
 31
0.0
  0
LWPOLYLINE
  5
220
330
1F
100
AcDbEntity
  8
0
  6
Continuous
 62
     8
370
    18
100
AcDbPolyline
 90
        9
 70
   128
 43
0.0
 10
102.5637208671
 20
249.0533003368
 10
102.565745249
 20
249.1118274334
 10
102.5717405989
 20
249.1681053665
 10
102.5814765187
 20
249.2199714067
 10
102.5945788626
 20
249.2654323712
 10
102.6105441148
 20
249.3027412205
 10
102.6287587397
 20
249.3304641966
 10
102.6485227594
 20
249.3475359209
 10
102.6690766538
 20
249.3533003368
  0
LINE
  5
221
330
1F
100
AcDbEntity
  8
0
  6
Continuous
 62
     8
370
    18
100
AcDbLine
 10
102.6690766538
 20
249.0533003368
 30
0.0
 11
102.6690766538
 21
249.3533003368
 31
0.0
  0
LINE
  5
222
330
1F
100
AcDbEntity
  8
0
  6
Continuous
 62
     8
370
    18
100
AcDbLine
 10
102.6690766538
 20
249.0533003368
 30
0.0
 11
102.5637208671
 21
249.0533003368
 31
0.0
  0
LWPOLYLINE
  5
223
330
1F
100
AcDbEntity
  8
0
  6
Continuous
 62
     8
370
    18
100
AcDbPolyline
 90
        9
 70
   128
 43
0.0
 10
252.5637208671
 20
249.0533003147
 10
252.565745249
 20
249.1118274113
 10
252.5717405989
 20
249.1681053444
 10
252.5814765187
 20
249.2199713846
 10
252.5945788626
 20
249.265432349
 10
252.6105441148
 20
249.3027411984
 10
252.6287587397
 20
249.3304641744
 10
252.6485227594
 20
249.3475358988
 10
252.6690766538
 20
249.3533003147
  0
LINE
  5
224
330
1F
100
AcDbEntity
  8
0
  6
Continuous
 62
     8
370
    18
100
AcDbLine
 10
252.6690766538
 20
249.0533003147
 30
0.0
 11
252.6690766538
 21
249.3533003147
 31
0.0
  0
LINE
  5
225
330
1F
100
AcDbEntity
  8
0
  6
Continuous
 62
     8
370
    18
100
AcDbLine
 10
252.6690766538
 20
249.0533003147
 30
0.0
 11
252.5637208671
 21
249.0533003147
 31
0.0
  0
LINE
  5
226
330
1F
100
AcDbEntity
  8
0
  6
Continuous
 62
     8
370
    18
100
AcDbLine
 10
113.6963156554
 20
232.3533003368
 30
0.0
 11
113.6963156554
 21
232.6533003368
 31
0.0
  0
LINE
  5
227
330
1F
100
AcDbEntity
  8
0
  6
Continuous
 62
     8
370
    18
100
AcDbLine
 10
113.6963156554
 20
232.6533003368
 30
0.0
 11
113.8016714421
 21
232.6533003368
 31
0.0
  0
LWPOLYLINE
  5
228
330
1F
100
AcDbEntity
  8
0
  6
Continuous
 62
     8
370
    18
100
AcDbPolyline
 90
        9
 70
   128
 43
0.0
 10
113.8016714421
 20
232.6533003368
 10
113.7996470602
 20
232.5947732402
 10
113.7936517103
 20
232.5384953071
 10
113.7839157905
 20
232.4866292669
 10
113.7708134466
 20
232.4411683025
 10
113.7548481944
 20
232.4038594531
 10
113.7366335695
 20
232.3761364771
 10
113.7168695498
 20
232.3590647527
 10
113.6963156554
 20
232.3533003368
  0
LINE
  5
229
330
1F
100
AcDbEntity
  8
0
  6
Continuous
 62
     8
370
    18
100
AcDbLine
 10
263.6963156554
 20
232.3533003147
 30
0.0
 11
263.6963156554
 21
232.6533003147
 31
0.0
  0
LINE
  5
22A
330
1F
100
AcDbEntity
  8
0
  6
Continuous
 62
     8
370
    18
100
AcDbLine
 10
263.6963156554
 20
232.6533003147
 30
0.0
 11
263.8016714421
 21
232.6533003147
 31
0.0
  0
LWPOLYLINE
  5
22B
330
1F
100
AcDbEntity
  8
0
  6
Continuous
 62
     8
370
    18
100
AcDbPolyline
 90
        9
 70
   128
 43
0.0
 10
263.8016714421
 20
232.6533003147
 10
263.7996470602
 20
232.5947732181
 10
263.7936517103
 20
232.538495285
 10
263.7839157905
 20
232.4866292448
 10
263.7708134466
 20
232.4411682803
 10
263.7548481944
 20
232.403859431
 10
263.7366335695
 20
232.3761364549
 10
263.7168695498
 20
232.3590647306
 10
263.6963156554
 20
232.3533003147
  0
LWPOLYLINE
  5
22C
330
1F
100
AcDbEntity
  8
0
  6
Continuous
 62
     8
370
    18
100
AcDbPolyline
 90
        9
 70
   128
 43
0.0
 10
102.6690766538
 20
232.3533003368
 10
102.6485227594
 20
232.3590647527
 10
102.6287587397
 20
232.3761364771
 10
102.6105441148
 20
232.4038594531
 10
102.5945788626
 20
232.4411683025
 10
102.5814765187
 20
232.4866292669
 10
102.5717405989
 20
232.5384953071
 10
102.565745249
 20
232.5947732402
 10
102.5637208671
 20
232.6533003368
  0
LINE
  5
22D
330
1F
100
AcDbEntity
  8
0
  6
Continuous
 62
     8
370
    18
100
AcDbLine
 10
102.5637208671
 20
232.6533003368
 30
0.0
 11
102.6690766538
 21
232.6533003368
 31
0.0
  0
LINE
  5
22E
330
1F
100
AcDbEntity
  8
0
  6
Continuous
 62
     8
370
    18
100
AcDbLine
 10
102.6690766538
 20
232.3533003368
 30
0.0
 11
102.6690766538
 21
232.6533003368
 31
0.0
  0
LWPOLYLINE
  5
22F
330
1F
100
AcDbEntity
  8
0
  6
Continuous
 62
     8
370
    18
100
AcDbPolyline
 90
        9
 70
   128
 43
0.0
 10
252.6690766538
 20
232.3533003147
 10
252.6485227594
 20
232.3590647306
 10
252.6287587397
 20
232.3761364549
 10
252.6105441148
 20
232.403859431
 10
252.5945788626
 20
232.4411682803
 10
252.5814765187
 20
232.4866292448
 10
252.5717405989
 20
232.538495285
 10
252.565745249
 20
232.5947732181
 10
252.5637208671
 20
232.6533003147
  0
LINE
  5
230
330
1F
100
AcDbEntity
  8
0
  6
Continuous
 62
     8
370
    18
100
AcDbLine
 10
252.5637208671
 20
232.6533003147
 30
0.0
 11
252.6690766538
 21
232.6533003147
 31
0.0
  0
LINE
  5
231
330
1F
100
AcDbEntity
  8
0
  6
Continuous
 62
     8
370
    18
100
AcDbLine
 10
252.6690766538
 20
232.3533003147
 30
0.0
 11
252.6690766538
 21
232.6533003147
 31
0.0
  0
LINE
  5
232
330
1F
100
AcDbEntity
  8
0
  6
Continuous
 62
     8
370
    18
100
AcDbLine
 10
263.6963156554
 20
249.0533003147
 30
0.0
 11
263.6963156554
 21
249.3533003147
 31
0.0
  0
LWPOLYLINE
  5
233
330
1F
100
AcDbEntity
  8
0
  6
Continuous
 62
     8
370
    18
100
AcDbPolyline
 90
        9
 70
   128
 43
0.0
 10
263.6963156554
 20
249.3533003147
 10
263.7168695498
 20
249.3475358988
 10
263.7366335695
 20
249.3304641744
 10
263.7548481944
 20
249.3027411984
 10
263.7708134466
 20
249.265432349
 10
263.7839157905
 20
249.2199713846
 10
263.7936517103
 20
249.1681053444
 10
263.7996470602
 20
249.1118274113
 10
263.8016714421
 20
249.0533003147
  0
LINE
  5
234
330
1F
100
AcDbEntity
  8
0
  6
Continuous
 62
     8
370
    18
100
AcDbLine
 10
263.8016714421
 20
249.0533003147
 30
0.0
 11
263.6963156554
 21
249.0533003147
 31
0.0
  0
LINE
  5
235
330
1F
100
AcDbEntity
  8
0
  6
Continuous
 62
     8
370
    18
100
AcDbLine
 10
113.6963156554
 20
249.0533003368
 30
0.0
 11
113.6963156554
 21
249.3533003368
 31
0.0
  0
LWPOLYLINE
  5
236
330
1F
100
AcDbEntity
  8
0
  6
Continuous
 62
     8
370
    18
100
AcDbPolyline
 90
        9
 70
   128
 43
0.0
 10
113.6963156554
 20
249.3533003368
 10
113.7168695498
 20
249.3475359209
 10
113.7366335695
 20
249.3304641966
 10
113.7548481944
 20
249.3027412205
 10
113.7708134466
 20
249.2654323712
 10
113.7839157905
 20
249.2199714067
 10
113.7936517103
 20
249.1681053665
 10
113.7996470602
 20
249.1118274334
 10
113.8016714421
 20
249.0533003368
  0
LINE
  5
237
330
1F
100
AcDbEntity
  8
0
  6
Continuous
 62
     8
370
    18
100
AcDbLine
 10
113.8016714421
 20
249.0533003368
 30
0.0
 11
113.6963156554
 21
249.0533003368
 31
0.0
  0
LINE
  5
238
330
1F
100
AcDbEntity
  8
0
  6
Continuous
 62
     8
370
    18
100
AcDbLine
 10
102.6690766538
 20
232.6533003368
 30
0.0
 11
113.6963156554
 21
232.6533003368
 31
0.0
  0
LINE
  5
239
330
1F
100
AcDbEntity
  8
0
  6
Continuous
 62
     8
370
    18
100
AcDbLine
 10
102.6690766538
 20
232.6533003368
 30
0.0
 11
102.6690766538
 21
249.0533003368
 31
0.0
  0
LINE
  5
23A
330
1F
100
AcDbEntity
  8
0
  6
Continuous
 62
     8
370
    18
100
AcDbLine
 10
113.6963156554
 20
249.0533003368
 30
0.0
 11
102.6690766538
 21
249.0533003368
 31
0.0
  0
LINE
  5
23B
330
1F
100
AcDbEntity
  8
0
  6
Continuous
 62
     8
370
    18
100
AcDbLine
 10
113.6963156554
 20
232.6533003368
 30
0.0
 11
113.6963156554
 21
249.0533003368
 31
0.0
  0
LINE
  5
23C
330
1F
100
AcDbEntity
  8
0
  6
Continuous
 62
     8
370
    18
100
AcDbLine
 10
102.5637208671
 20
232.6533003368
 30
0.0
 11
102.5637208671
 21
249.0533003368
 31
0.0
  0
LINE
  5
23D
330
1F
100
AcDbEntity
  8
0
  6
Continuous
 62
     8
370
    18
100
AcDbLine
 10
263.6963156554
 20
249.0533003147
 30
0.0
 11
252.6690766538
 21
249.0533003147
 31
0.0
  0
LINE
  5
23E
330
1F
100
AcDbEntity
  8
0
  6
Continuous
 62
     8
370
    18
100
AcDbLine
 10
252.5637208671
 20
232.6533003147
 30
0.0
 11
252.5637208671
 21
249.0533003147
 31
0.0
  0
LINE
  5
23F
330
1F
100
AcDbEntity
  8
0
  6
Continuous
 62
     8
370
    18
100
AcDbLine
 10
252.6690766538
 20
232.6533003147
 30
0.0
 11
252.6690766538
 21
249.0533003147
 31
0.0
  0
LINE
  5
240
330
1F
100
AcDbEntity
  8
0
  6
Continuous
 62
     8
370
    18
100
AcDbLine
 10
252.6690766538
 20
232.6533003147
 30
0.0
 11
263.6963156554
 21
232.6533003147
 31
0.0
  0
LINE
  5
241
330
1F
100
AcDbEntity
  8
0
  6
Continuous
 62
     8
370
    18
100
AcDbLine
 10
263.6963156554
 20
232.6533003147
 30
0.0
 11
263.6963156554
 21
249.0533003147
 31
0.0
  0
LINE
  5
242
330
1F
100
AcDbEntity
  8
0
  6
Continuous
 62
     8
370
    18
100
AcDbLine
 10
113.8016714421
 20
232.6533003368
 30
0.0
 11
113.8016714421
 21
249.0533003368
 31
0.0
  0
LINE
  5
243
330
1F
100
AcDbEntity
  8
0
  6
Continuous
 62
     8
370
    18
100
AcDbLine
 10
263.8016714421
 20
232.6533003147
 30
0.0
 11
263.8016714421
 21
249.0533003147
 31
0.0
  0
LINE
  5
244
330
1F
100
AcDbEntity
  8
0
  6
Continuous
 62
     8
370
    18
100
AcDbLine
 10
252.5637208671
 20
249.0533003147
 30
0.0
 11
242.1826961546
 21
249.0533003147
 31
0.0
  0
LINE
  5
245
330
1F
100
AcDbEntity
  8
0
  6
Continuous
 62
     8
370
    18
100
AcDbLine
 10
102.5637208671
 20
249.0533003368
 30
0.0
 11
92.1826961546
 21
249.0533003368
 31
0.0
  0
LINE
  5
246
330
1F
100
AcDbEntity
  8
0
  6
Continuous
 62
     8
370
    18
100
AcDbLine
 10
263.8016714421
 20
249.0533003147
 30
0.0
 11
274.1826961546
 21
249.0533003147
 31
0.0
  0
LINE
  5
247
330
1F
100
AcDbEntity
  8
0
  6
Continuous
 62
     8
370
    18
100
AcDbLine
 10
113.8016714421
 20
249.0533003368
 30
0.0
 11
124.1826961546
 21
249.0533003368
 31
0.0
  0
LINE
  5
248
330
1F
100
AcDbEntity
  8
0
  6
Continuous
 62
     8
370
    18
100
AcDbLine
 10
124.1826961546
 20
232.6533003368
 30
0.0
 11
113.8016714421
 21
232.6533003368
 31
0.0
  0
LINE
  5
249
330
1F
100
AcDbEntity
  8
0
  6
Continuous
 62
     8
370
    18
100
AcDbLine
 10
274.1826961546
 20
232.6533003147
 30
0.0
 11
263.8016714421
 21
232.6533003147
 31
0.0
  0
LINE
  5
24A
330
1F
100
AcDbEntity
  8
0
  6
Continuous
 62
     8
370
    18
100
AcDbLine
 10
92.1826961546
 20
232.6533003368
 30
0.0
 11
102.5637208671
 21
232.6533003368
 31
0.0
  0
LINE
  5
24B
330
1F
100
AcDbEntity
  8
0
  6
Continuous
 62
     8
370
    18
100
AcDbLine
 10
242.1826961546
 20
232.6533003147
 30
0.0
 11
252.5637208671
 21
232.6533003147
 31
0.0
  0
ARC
  5
24C
330
1F
100
AcDbEntity
  8
0
  6
Continuous
 62
     7
370
    25
100
AcDbCircle
 10
361.022940987
 20
338.8394037535
 30
0.0
 40
0.1999999999999886
100
AcDbArc
 50
180.0
 51
271.0000000007
  0
ARC
  5
24D
330
1F
100
AcDbEntity
  8
0
  6
Continuous
 62
     7
370
    25
100
AcDbCircle
 10
361.022940987
 20
408.4323607963
 30
0.0
 40
0.1999999999999886
100
AcDbArc
 50
88.9999999993
 51
180.0
  0
LINE
  5
24E
330
1F
100
AcDbEntity
  8
0
  6
Continuous
 62
     7
370
    25
100
AcDbLine
 10
361.0264314683
 20
338.6394342144
 30
0.0
 11
373.0369029122
 21
338.8490777733
 31
0.0
  0
LINE
  5
24F
330
1F
100
AcDbEntity
  8
0
  6
Continuous
 62
     7
370
    25
100
AcDbLine
 10
373.0369029122
 20
408.4226867764
 30
0.0
 11
361.0264314683
 21
408.6323303353
 31
0.0
  0
ARC
  5
250
330
1F
100
AcDbEntity
  8
0
  6
Continuous
 62
     7
370
    25
100
AcDbCircle
 10
373.022940987
 20
407.6228086203
 30
0.0
 40
0.7999999999999775
100
AcDbArc
 50
0.0
 51
89.0
  0
ARC
  5
251
330
1F
100
AcDbEntity
  8
0
  6
Continuous
 62
     7
370
    25
100
AcDbCircle
 10
373.022940987
 20
339.6489559294
 30
0.0
 40
0.8000000000000342
100
AcDbArc
 50
271.0
 51
0.0
  0
ARC
  5
252
330
1F
100
AcDbEntity
  8
0
  6
Continuous
 62
     7
370
    25
100
AcDbCircle
 10
374.622940987
 20
390.6489559294
 30
0.0
 40
0.8000000000000352
100
AcDbArc
 50
180.0
 51
269.0
  0
ARC
  5
253
330
1F
100
AcDbEntity
  8
0
  6
Continuous
 62
     7
370
    25
100
AcDbCircle
 10
374.622940987
 20
356.6228086203
 30
0.0
 40
0.8000000000000114
100
AcDbArc
 50
91.0
 51
180.0
  0
LINE
  5
254
330
1F
100
AcDbEntity
  8
0
  6
Continuous
 62
     7
370
    25
100
AcDbLine
 10
374.6089790619
 20
357.4226867764
 30
0.0
 11
386.0369029122
 21
357.6221619292
 31
0.0
  0
LINE
  5
255
330
1F
100
AcDbEntity
  8
0
  6
Continuous
 62
     7
370
    25
100
AcDbLine
 10
386.0369029122
 20
389.6496026205
 30
0.0
 11
374.6089790619
 21
389.8490777733
 31
0.0
  0
ARC
  5
256
330
1F
100
AcDbEntity
  8
0
  6
Continuous
 62
     7
370
    25
100
AcDbCircle
 10
386.022940987
 20
388.8497244644
 30
0.0
 40
0.8000000000000114
100
AcDbArc
 50
0.0
 51
89.0
  0
ARC
  5
257
330
1F
100
AcDbEntity
  8
0
  6
Continuous
 62
     7
370
    25
100
AcDbCircle
 10
386.022940987
 20
358.4220400854
 30
0.0
 40
0.8000000000000114
100
AcDbArc
 50
271.0
 51
0.0
  0
LINE
  5
258
330
1F
100
AcDbEntity
  8
0
  6
Continuous
 62
     7
370
    25
100
AcDbLine
 10
404.822940987
 20
385.9792579478
 30
0.0
 11
403.822940987
 21
385.9792579478
 31
0.0
  0
LINE
  5
259
330
1F
100
AcDbEntity
  8
0
  6
Continuous
 62
     7
370
    25
100
AcDbLine
 10
403.822940987
 20
361.2925066019
 30
0.0
 11
404.822940987
 21
361.2925066019
 31
0.0
  0
SPLINE
  5
25A
330
1F
100
AcDbEntity
  8
0
  6
Continuous
 62
     7
370
    25
100
AcDbSpline
210
0.0
220
0.0
230
1.0
 70
     8
 71
     3
 72
     9
 73
     5
 74
     0
 42
0.00000001
 43
0.00000001
 40
0.0
 40
0.0
 40
0.0
 40
0.0
 40
0.5029770274821692
 40
1.0
 40
1.0
 40
1.0
 40
1.0
 10
493.7578954447519
 20
434.3699952999872
 30
0.0
 10
493.7798271048923
 20
434.4057599860247
 30
0.0
 10
493.8234308063382
 20
434.4768659890498
 30
0.0
 10
493.8118664326422
 20
434.5487363921362
 30
0.0
 10
493.8061186732525
 20
434.5844576335142
 30
0.0
  0
LINE
  5
25B
330
1F
100
AcDbEntity
  8
0
  6
Continuous
 62
     7
370
    25
100
AcDbLine
 10
492.822940987
 20
435.4358822749
 30
0.0
 11
389.5158405882
 21
435.4358822749
 31
0.0
  0
LINE
  5
25C
330
1F
100
AcDbEntity
  8
0
  6
Continuous
 62
     7
370
    25
100
AcDbLine
 10
432.222940987
 20
398.6358822749
 30
0.0
 11
432.2146016806
 21
398.8746887664
 31
0.0
  0
LINE
  5
25D
330
1F
100
AcDbEntity
  8
0
  6
Continuous
 62
     7
370
    25
100
AcDbLine
 10
391.4312802935
 20
398.8746887664
 30
0.0
 11
391.422940987
 21
398.6358822749
 31
0.0
  0
ARC
  5
25E
330
1F
100
AcDbEntity
  8
0
  6
Continuous
 62
     7
370
    25
100
AcDbCircle
 10
373.557957716
 20
386.2493919817
 30
0.0
 40
60.00000000073279
100
AcDbArc
 50
12.1470609849
 51
14.3709183949
  0
ARC
  5
25F
330
1F
100
AcDbEntity
  8
0
  6
Continuous
 62
     7
370
    25
100
AcDbCircle
 10
450.087924258
 20
386.2493919817
 30
0.0
 40
60.00000000073278
100
AcDbArc
 50
157.5680523832
 51
167.8529390151
  0
LINE
  5
260
330
1F
100
AcDbEntity
  8
0
  6
Continuous
 62
     7
370
    25
100
AcDbLine
 10
480.822940987
 20
363.6358822749
 30
0.0
 11
480.822940987
 21
367.0558822749
 31
0.0
  0
ARC
  5
261
330
1F
100
AcDbEntity
  8
0
  6
Continuous
 62
     7
370
    25
100
AcDbCircle
 10
479.822940987
 20
363.6358822749
 30
0.0
 40
1.0
100
AcDbArc
 50
270.0
 51
0.0
  0
SPLINE
  5
262
330
1F
100
AcDbEntity
  8
0
  6
Continuous
 62
     7
370
    25
100
AcDbSpline
210
0.0
220
0.0
230
1.0
 70
     8
 71
     3
 72
    19
 73
    15
 74
     0
 42
0.00000001
 43
0.00000001
 40
0.0
 40
0.0
 40
0.0
 40
0.0
 40
0.0084245019897419
 40
0.0412758395257829
 40
0.1228898780810106
 40
0.2295118730518201
 40
0.3303888458363284
 40
0.4251562842399913
 40
0.5294720343570624
 40
0.6386601938639169
 40
0.7500216123847824
 40
0.8692890573574386
 40
0.9768504362697921
 40
1.0
 40
1.0
 40
1.0
 40
1.0
 10
443.8456337131868
 20
366.3161577193041
 30
0.0
 10
443.8669766216303
 20
366.332147339647
 30
0.0
 10
443.9715461813502
 20
366.4104884693843
 30
0.0
 10
444.3148757586614
 20
366.6383331524128
 30
0.0
 10
444.9624005994255
 20
366.9737764627763
 30
0.0
 10
445.8868044835093
 20
367.2494684131876
 30
0.0
 10
446.8882685339687
 20
367.3333261128503
 30
0.0
 10
447.8791549758483
 20
367.2234242347368
 30
0.0
 10
448.8570511360871
 20
366.9123018694442
 30
0.0
 10
449.7948748295976
 20
366.3742875905968
 30
0.0
 10
450.6352340349472
 20
365.6124326192693
 30
0.0
 10
451.2594817467547
 20
364.6798203754346
 30
0.0
 10
451.6043278812901
 20
363.9134745779339
 30
0.0
 10
451.6718596954478
 20
363.4864293299144
 30
0.0
 10
451.6838199185482
 20
363.4107974739669
 30
0.0
  0
SPLINE
  5
263
330
1F
100
AcDbEntity
  8
0
  6
Continuous
 62
     7
370
    25
100
AcDbSpline
210
0.0
220
0.0
230
1.0
 70
     8
 71
     3
 72
    13
 73
     9
 74
     0
 42
0.00000001
 43
0.00000001
 40
0.0
 40
0.0
 40
0.0
 40
0.0
 40
0.2027139096237623
 40
0.4734123999745088
 40
0.5961966531813769
 40
0.7192097283078585
 40
0.8511867646869201
 40
1.0
 40
1.0
 40
1.0
 40
1.0
 10
435.3276042020183
 20
421.4902128832591
 30
0.0
 10
435.3918722802135
 20
422.1552568546549
 30
0.0
 10
435.5419621541477
 20
423.7083819617156
 30
0.0
 10
436.2882936772549
 20
425.6145956375877
 30
0.0
 10
437.3767434765164
 20
426.9729249187662
 30
0.0
 10
438.3953836284955
 20
427.7305452937148
 30
0.0
 10
439.6331553852828
 20
428.253092527051
 30
0.0
 10
440.5403810345642
 20
428.3983074152074
 30
0.0
 10
441.0211925071803
 20
428.4752684053157
 30
0.0
  0
LINE
  5
264
330
1F
100
AcDbEntity
  8
0
  6
Continuous
 62
     7
370
    25
100
AcDbLine
 10
435.2784763462
 20
421.1337146226
 30
0.0
 11
435.327604202
 21
421.4902128833
 31
0.0
  0
ARC
  5
265
330
1F
100
AcDbEntity
  8
0
  6
Continuous
 62
     7
370
    25
100
AcDbCircle
 10
485.822940987
 20
367.0558822749
 30
0.0
 40
5.000000000000057
100
AcDbArc
 50
90.0
 51
180.0
  0
ARC
  5
266
330
1F
100
AcDbEntity
  8
0
  6
Continuous
 62
     7
370
    25
100
AcDbCircle
 10
477.9113821375
 20
411.8358822749
 30
0.0
 40
1.0
100
AcDbArc
 50
270.0
 51
0.0
  0
ARC
  5
267
330
1F
100
AcDbEntity
  8
0
  6
Continuous
 62
     7
370
    25
100
AcDbCircle
 10
454.9113821375
 20
411.8358822749
 30
0.0
 40
1.0
100
AcDbArc
 50
180.0
 51
270.0
  0
ARC
  5
268
330
1F
100
AcDbEntity
  8
0
  6
Continuous
 62
     7
370
    25
100
AcDbCircle
 10
477.9113821375
 20
416.8358822749
 30
0.0
 40
1.0
100
AcDbArc
 50
0.0
 51
90.0
  0
ARC
  5
269
330
1F
100
AcDbEntity
  8
0
  6
Continuous
 62
     7
370
    25
100
AcDbCircle
 10
454.9113821375
 20
416.8358822749
 30
0.0
 40
1.0
100
AcDbArc
 50
90.0
 51
180.0
  0
LINE
  5
26A
330
1F
100
AcDbEntity
  8
0
  6
Continuous
 62
     7
370
    25
100
AcDbLine
 10
478.9113821375
 20
411.8358822749
 30
0.0
 11
478.9113821375
 21
416.8358822749
 31
0.0
  0
LINE
  5
26B
330
1F
100
AcDbEntity
  8
0
  6
Continuous
 62
     7
370
    25
100
AcDbLine
 10
453.9113821375
 20
416.8358822749
 30
0.0
 11
453.9113821375
 21
411.8358822749
 31
0.0
  0
LINE
  5
26C
330
1F
100
AcDbEntity
  8
0
  6
Continuous
 62
     7
370
    25
100
AcDbLine
 10
510.5689063711
 20
372.0558822749
 30
0.0
 11
510.5689063711
 21
368.1791389558
 31
0.0
  0
LINE
  5
26D
330
1F
100
AcDbEntity
  8
0
  6
Continuous
 62
     7
370
    25
100
AcDbLine
 10
534.4689063711
 20
368.1791389558
 30
0.0
 11
534.4689063711
 21
372.1651817562
 31
0.0
  0
ARC
  5
26E
330
1F
100
AcDbEntity
  8
0
  6
Continuous
 62
     7
370
    25
100
AcDbCircle
 10
434.622940987
 20
401.6358822749
 30
0.0
 40
0.5
100
AcDbArc
 50
270.0
 51
359.9999999994
  0
LINE
  5
26F
330
1F
100
AcDbEntity
  8
0
  6
Continuous
 62
     7
370
    25
100
AcDbLine
 10
455.2285287217
 20
362.6358822749
 30
0.0
 11
455.4285287217
 21
362.4358822749
 31
0.0
  0
LINE
  5
270
330
1F
100
AcDbEntity
  8
0
  6
Continuous
 62
     7
370
    25
100
AcDbLine
 10
477.3942355534
 20
362.4358822749
 30
0.0
 11
477.5942355534
 21
362.6358822749
 31
0.0
  0
SPLINE
  5
271
330
1F
100
AcDbEntity
  8
0
  6
Continuous
 62
     7
370
    25
100
AcDbSpline
210
0.0
220
0.0
230
1.0
 70
     8
 71
     3
 72
    13
 73
     9
 74
     0
 42
0.00000001
 43
0.00000001
 40
0.0
 40
0.0
 40
0.0
 40
0.0
 40
0.1485990725862476
 40
0.2761356567770809
 40
0.4498914106471736
 40
0.6719243390587094
 40
0.8265544564269709
 40
1.0
 40
1.0
 40
1.0
 40
1.0
 10
389.5324576274357
 20
435.4358820008698
 30
0.0
 10
389.4542748464279
 20
435.4313392639973
 30
0.0
 10
389.3089909411751
 20
435.4228976794838
 30
0.0
 10
389.0839561868756
 20
435.3442009151448
 30
0.0
 10
388.8483785698041
 20
435.1969518563408
 30
0.0
 10
388.660696814234
 20
434.9695624848189
 30
0.0
 10
388.544116836052
 20
434.7008802879741
 30
0.0
 10
388.5302633378657
 20
434.5280817502228
 30
0.0
 10
388.5229393336515
 20
434.4367274076822
 30
0.0
  0
LINE
  5
272
330
1F
100
AcDbEntity
  8
0
  6
Continuous
 62
     7
370
    25
100
AcDbLine
 10
388.5229409871
 20
434.4387891533
 30
0.0
 11
388.5229409871
 21
412.3139951361
 31
0.0
  0
LINE
  5
273
330
1F
100
AcDbEntity
  8
0
  6
Continuous
 62
     7
370
    25
100
AcDbLine
 10
435.122940987
 20
401.6358822749
 30
0.0
 11
435.122940987
 21
414.0858822749
 31
0.0
  0
SPLINE
  5
274
330
1F
100
AcDbEntity
  8
0
  6
Continuous
 62
     7
370
    25
100
AcDbSpline
210
0.0
220
0.0
230
1.0
 70
     8
 71
     3
 72
    13
 73
     9
 74
     0
 42
0.00000001
 43
0.00000001
 40
0.0
 40
0.0
 40
0.0
 40
0.0
 40
0.0548560233966285
 40
0.1139217471300883
 40
0.189953075616471
 40
0.3037611077935607
 40
0.7239992060595593
 40
1.0
 40
1.0
 40
1.0
 40
1.0
 10
388.5229415282467
 20
412.3199101735611
 30
0.0
 10
388.5235550933541
 20
412.3007493428485
 30
0.0
 10
388.5248293091043
 20
412.2609572621234
 30
0.0
 10
388.5368026875726
 20
412.1973983424092
 30
0.0
 10
388.5558558225134
 20
412.1376211247168
 30
0.0
 10
388.595540716292
 20
412.0522564548184
 30
0.0
 10
388.6319418942418
 20
412.0063993134775
 30
0.0
 10
388.6503440312561
 20
411.9893511110596
 30
0.0
 10
388.6576389475313
 20
411.9825929172051
 30
0.0
  0
ARC
  5
275
330
1F
100
AcDbEntity
  8
0
  6
Continuous
 62
     7
370
    25
100
AcDbCircle
 10
477.4113821375
 20
408.3358822749
 30
0.0
 40
2.500000000000057
100
AcDbArc
 50
90.0
 51
180.0
  0
ARC
  5
276
330
1F
100
AcDbEntity
  8
0
  6
Continuous
 62
     7
370
    25
100
AcDbCircle
 10
455.4113821375
 20
408.3358822749
 30
0.0
 40
2.500000000000057
100
AcDbArc
 50
0.0
 51
90.0
  0
LINE
  5
277
330
1F
100
AcDbEntity
  8
0
  6
Continuous
 62
     7
370
    25
100
AcDbLine
 10
510.5689063711
 20
368.1791389558
 30
0.0
 11
511.5189063711
 21
367.1791389558
 31
0.0
  0
LINE
  5
278
330
1F
100
AcDbEntity
  8
0
  6
Continuous
 62
     7
370
    25
100
AcDbLine
 10
533.5189063711
 20
367.1791389558
 30
0.0
 11
534.4689063711
 21
368.1791389558
 31
0.0
  0
LINE
  5
279
330
1F
100
AcDbEntity
  8
0
  6
Continuous
 62
     7
370
    25
100
AcDbLine
 10
456.2713821375
 20
353.2358822749
 30
0.0
 11
456.7713821375
 21
352.7358822749
 31
0.0
  0
LINE
  5
27A
330
1F
100
AcDbEntity
  8
0
  6
Continuous
 62
     7
370
    25
100
AcDbLine
 10
476.0513821375
 20
352.7358822749
 30
0.0
 11
476.5513821375
 21
353.2358822749
 31
0.0
  0
LINE
  5
27B
330
1F
100
AcDbEntity
  8
0
  6
Continuous
 62
     7
370
    25
100
AcDbLine
 10
456.2713821375
 20
362.4358822749
 30
0.0
 11
456.2713821375
 21
353.2358822749
 31
0.0
  0
LINE
  5
27C
330
1F
100
AcDbEntity
  8
0
  6
Continuous
 62
     7
370
    25
100
AcDbLine
 10
476.5513821375
 20
353.2358822749
 30
0.0
 11
476.5513821375
 21
362.4358822749
 31
0.0
  0
ARC
  5
27D
330
1F
100
AcDbEntity
  8
0
  6
Continuous
 62
     7
370
    25
100
AcDbCircle
 10
531.5689063711
 20
367.1791389558
 30
0.0
 40
0.2000000000000455
100
AcDbArc
 50
270.0
 51
0.0
  0
ARC
  5
27E
330
1F
100
AcDbEntity
  8
0
  6
Continuous
 62
     7
370
    25
100
AcDbCircle
 10
513.4689063711
 20
367.1791389558
 30
0.0
 40
0.2000000000000455
100
AcDbArc
 50
180.0
 51
270.0
  0
ARC
  5
27F
330
1F
100
AcDbEntity
  8
0
  6
Continuous
 62
     7
370
    25
100
AcDbCircle
 10
474.4113821375
 20
401.3358822749
 30
0.0
 40
0.5
100
AcDbArc
 50
270.0
 51
0.0
  0
ARC
  5
280
330
1F
100
AcDbEntity
  8
0
  6
Continuous
 62
     7
370
    25
100
AcDbCircle
 10
458.4113821375
 20
401.3358822749
 30
0.0
 40
0.5
100
AcDbArc
 50
180.0
 51
270.0
  0
LINE
  5
281
330
1F
100
AcDbEntity
  8
0
  6
Continuous
 62
     7
370
    25
100
AcDbLine
 10
474.9113821375
 20
401.3358822749
 30
0.0
 11
474.9113821375
 21
408.3358822749
 31
0.0
  0
LINE
  5
282
330
1F
100
AcDbEntity
  8
0
  6
Continuous
 62
     7
370
    25
100
AcDbLine
 10
457.9113821375
 20
408.3358822749
 30
0.0
 11
457.9113821375
 21
401.3358822749
 31
0.0
  0
ARC
  5
283
330
1F
100
AcDbEntity
  8
0
  6
Continuous
 62
     7
370
    25
100
AcDbCircle
 10
492.822940987
 20
434.4358822749
 30
0.0
 40
1.0
100
AcDbArc
 50
0.0
 51
90.0
  0
ARC
  5
284
330
1F
100
AcDbEntity
  8
0
  6
Continuous
 62
     7
370
    25
100
AcDbCircle
 10
452.6717453553
 20
363.635878222
 30
0.0
 40
0.9999959411045628
100
AcDbArc
 50
192.8909578801
 51
270.1894512395
  0
LINE
  5
285
330
1F
100
AcDbEntity
  8
0
  6
Continuous
 62
     7
370
    25
100
AcDbLine
 10
460.8363821375
 20
400.8358822749
 30
0.0
 11
460.8363821375
 21
398.6358822749
 31
0.0
  0
LINE
  5
286
330
1F
100
AcDbEntity
  8
0
  6
Continuous
 62
     7
370
    25
100
AcDbLine
 10
471.9863821375
 20
398.6358822749
 30
0.0
 11
471.9863821375
 21
400.8358822749
 31
0.0
  0
ARC
  5
287
330
1F
100
AcDbEntity
  8
0
  6
Continuous
 62
     7
370
    25
100
AcDbCircle
 10
435.6327028914
 20
413.9358822749
 30
0.0
 40
0.200000000000056
100
AcDbArc
 50
270.0
 51
357.20581768
  0
ARC
  5
288
330
1F
100
AcDbEntity
  8
0
  6
Continuous
 62
     7
370
    25
100
AcDbCircle
 10
435.6327028914
 20
421.3358822749
 30
0.0
 40
0.2000000000000532
100
AcDbArc
 50
2.79418232
 51
90.0
  0
LINE
  5
289
330
1F
100
AcDbEntity
  8
0
  6
Continuous
 62
     7
370
    25
100
AcDbLine
 10
435.422940987
 20
413.7358822749
 30
0.0
 11
435.6327028914
 21
413.7358822749
 31
0.0
  0
LINE
  5
28A
330
1F
100
AcDbEntity
  8
0
  6
Continuous
 62
     7
370
    25
100
AcDbLine
 10
435.6327028914
 20
421.5358822749
 30
0.0
 11
435.422940987
 21
421.5358822749
 31
0.0
  0
ARC
  5
28B
330
1F
100
AcDbEntity
  8
0
  6
Continuous
 62
     7
370
    25
100
AcDbCircle
 10
359.822940987
 20
417.6358822749
 30
0.0
 40
76.10000000000998
100
AcDbArc
 50
357.2058176799
 51
0.0
  0
ARC
  5
28C
330
1F
100
AcDbEntity
  8
0
  6
Continuous
 62
     7
370
    25
100
AcDbCircle
 10
359.822940987
 20
417.6358822749
 30
0.0
 40
76.10000000000998
100
AcDbArc
 50
0.0
 51
2.7941823201
  0
LINE
  5
28D
330
1F
100
AcDbEntity
  8
0
  6
Continuous
 62
     7
370
    25
100
AcDbLine
 10
435.0827486082
 20
414.2358822749
 30
0.0
 11
435.422940987
 21
414.2358822749
 31
0.0
  0
LINE
  5
28E
330
1F
100
AcDbEntity
  8
0
  6
Continuous
 62
     7
370
    25
100
AcDbLine
 10
435.422940987
 20
421.0358822749
 30
0.0
 11
435.1855868292
 21
421.0358822749
 31
0.0
  0
LINE
  5
28F
330
1F
100
AcDbEntity
  8
0
  6
Continuous
 62
     7
370
    25
100
AcDbLine
 10
435.327604202
 20
421.4902128834
 30
0.0
 11
435.4489392136
 21
422.3706852719
 31
0.0
  0
LINE
  5
290
330
1F
100
AcDbEntity
  8
0
  6
Continuous
 62
     7
370
    25
100
AcDbLine
 10
435.2772355245
 20
421.1247105508
 30
0.0
 11
435.327604202
 21
421.4902128834
 31
0.0
  0
SPLINE
  5
291
330
1F
100
AcDbEntity
  8
0
  6
Continuous
 62
     7
370
    25
100
AcDbSpline
210
0.0
220
0.0
230
1.0
 70
    24
 71
     3
 72
    10
 73
     6
 74
     0
 42
0.00000001
 43
0.00000001
 40
0.0
 40
0.0
 40
0.0
 40
0.0
 40
0.5
 40
0.5
 40
1.0
 40
1.0
 40
1.0
 40
1.0
 10
360.8229409870061
 20
373.6358822748702
 30
0.0
 10
360.8229409870061
 20
364.4075435594292
 30
0.0
 10
360.8229409870061
 20
355.5564772357438
 30
0.0
 10
360.8229409870061
 20
342.5056354661945
 30
0.0
 10
360.8229409870061
 20
338.8394037534602
 30
0.0
 10
360.8229409870061
 20
338.8394037534602
 30
0.0
  0
SPLINE
  5
292
330
1F
100
AcDbEntity
  8
0
  6
Continuous
 62
     7
370
    25
100
AcDbSpline
210
0.0
220
0.0
230
1.0
 70
    24
 71
     3
 72
    10
 73
     6
 74
     0
 42
0.00000001
 43
0.00000001
 40
0.0
 40
0.0
 40
0.0
 40
0.0
 40
0.5
 40
0.5
 40
1.0
 40
1.0
 40
1.0
 40
1.0
 10
360.8229409870061
 20
408.4323607962802
 30
0.0
 10
360.8229409870061
 20
408.4323607962802
 30
0.0
 10
360.8229409870061
 20
404.7661290835459
 30
0.0
 10
360.8229409870061
 20
391.7152873139966
 30
0.0
 10
360.8229409870061
 20
382.8642209903111
 30
0.0
 10
360.8229409870061
 20
373.6358822748701
 30
0.0
  0
SPLINE
  5
293
330
1F
100
AcDbEntity
  8
0
  6
Continuous
 62
     7
370
    25
100
AcDbSpline
210
0.0
220
0.0
230
1.0
 70
    24
 71
     3
 72
    52
 73
    48
 74
     0
 42
0.00000001
 43
0.00000001
 40
0.0
 40
0.0
 40
0.0
 40
0.0
 40
0.005307487518443
 40
0.0106084529657734
 40
0.0159043583937685
 40
0.0211966700478435
 40
0.0264868571616005
 40
0.0317763907389949
 40
0.0370667423291366
 40
0.0423593827988231
 40
0.0476557811079124
 40
0.0529574030926265
 40
0.0582657102617899
 40
0.0891347779697723
 40
0.1200087591672487
 40
0.1521645223165352
 40
0.1843252188265755
 40
0.2171651977693868
 40
0.2500102150470354
 40
0.2828501941324248
 40
0.3156952115556079
 40
0.3478509751027274
 40
0.3800116720092175
 40
0.4108807394115676
 40
0.4417547203571451
 40
0.4708752612048191
 40
0.5000007794753033
 40
0.5291213203661504
 40
0.5582468386517841
 40
0.5891159063620323
 40
0.6199898875572516
 40
0.6521456507081295
 40
0.6843063472165619
 40
0.7171463261588327
 40
0.7499913434370161
 40
0.7828313225226036
 40
0.8156763399456024
 40
0.8478321034915972
 40
0.8799928003991856
 40
0.9108618678003598
 40
0.9417358487471365
 40
0.9514609450078038
 40
0.9611682091024333
 40
0.9708666830085708
 40
0.9805654332886168
 40
0.9902735257306394
 40
1.0
 40
1.0
 40
1.0
 40
1.0
 10
373.8229409870061
 20
407.6228086203102
 30
0.0
 10
373.8229409870061
 20
407.6219074507827
 30
0.0
 10
373.8229409870061
 20
407.620106219124
 30
0.0
 10
373.8229409870061
 20
407.6055121969035
 30
0.0
 10
373.822940987006
 20
407.5822082053876
 30
0.0
 10
373.8229409870061
 20
407.5493435211694
 30
0.0
 10
373.8229409870061
 20
407.507145796365
 30
0.0
 10
373.8229409870061
 20
407.4555540662569
 30
0.0
 10
373.8229409870061
 20
407.3945847524606
 30
0.0
 10
373.8229409870061
 20
407.3242331788589
 30
0.0
 10
373.822940987006
 20
407.2445017564834
 30
0.0
 10
373.8229409870061
 20
407.1553856898297
 30
0.0
 10
373.822940987006
 20
406.8988926797372
 30
0.0
 10
373.822940987006
 20
406.3514427559882
 30
0.0
 10
373.8229409870061
 20
405.2710316078641
 30
0.0
 10
373.8229409870061
 20
403.8657527942763
 30
0.0
 10
373.8229409870061
 20
402.1186559015729
 30
0.0
 10
373.8229409870061
 20
400.0634938672402
 30
0.0
 10
373.8229409870061
 20
397.7107410127541
 30
0.0
 10
373.822940987006
 20
395.1037863028732
 30
0.0
 10
373.8229409870061
 20
392.2864664338327
 30
0.0
 10
373.8229409870061
 20
389.2969228302462
 30
0.0
 10
373.8229409870061
 20
386.2092970511316
 30
0.0
 10
373.8229409870061
 20
383.0424548560448
 30
0.0
 10
373.822940987006
 20
379.8906610530809
 30
0.0
 10
373.8229409870061
 20
376.7455413608408
 30
0.0
 10
373.822940987006
 20
373.6360592470504
 30
0.0
 10
373.8229409870061
 20
370.5264010525152
 30
0.0
 10
373.822940987006
 20
367.3814492186232
 30
0.0
 10
373.822940987006
 20
364.2294791047854
 30
0.0
 10
373.8229409870061
 20
361.0627928070909
 30
0.0
 10
373.822940987006
 20
357.9749998936613
 30
0.0
 10
373.8229409870061
 20
354.9855945478083
 30
0.0
 10
373.8229409870061
 20
352.1681192624061
 30
0.0
 10
373.8229409870061
 20
349.5612768725213
 30
0.0
 10
373.8229409870061
 20
347.2083843842688
 30
0.0
 10
373.8229409870061
 20
345.1533034829566
 30
0.0
 10
373.8229409870061
 20
343.4060904977246
 30
0.0
 10
373.8229409870061
 20
342.0008681179251
 30
0.0
 10
373.8229409870061
 20
340.9203502297947
 30
0.0
 10
373.8229409870061
 20
340.3368961310013
 30
0.0
 10
373.8229409870061
 20
340.0378683223531
 30
0.0
 10
373.8229409870061
 20
339.8959592484071
 30
0.0
 10
373.8229409870061
 20
339.7854473362454
 30
0.0
 10
373.822940987006
 20
339.7070877522751
 30
0.0
 10
373.8229409870061
 20
339.6580285767326
 30
0.0
 10
373.8229409870061
 20
339.6519820515292
 30
0.0
 10
373.8229409870061
 20
339.6489559294303
 30
0.0
  0
ARC
  5
294
330
1F
100
AcDbEntity
  8
0
  6
Continuous
 62
     7
370
    25
100
AcDbCircle
 10
416.822940987
 20
386.6358822749
 30
0.0
 40
12.00000000000006
100
AcDbArc
 50
90.0
 51
180.0
  0
LINE
  5
295
330
1F
100
AcDbEntity
  8
0
  6
Continuous
 62
     7
370
    25
100
AcDbLine
 10
404.822940987
 20
360.6358822749
 30
0.0
 11
404.822940987
 21
386.6358822749
 31
0.0
  0
ARC
  5
296
330
1F
100
AcDbEntity
  8
0
  6
Continuous
 62
     7
370
    25
100
AcDbCircle
 10
416.822940987
 20
360.6358822749
 30
0.0
 40
12.0
100
AcDbArc
 50
180.0
 51
270.0
  0
LINE
  5
297
330
1F
100
AcDbEntity
  8
0
  6
Continuous
 62
     7
370
    25
100
AcDbLine
 10
416.822940987
 20
398.6358822749
 30
0.0
 11
433.822940987
 21
398.6358822749
 31
0.0
  0
LINE
  5
298
330
1F
100
AcDbEntity
  8
0
  6
Continuous
 62
     7
370
    25
100
AcDbLine
 10
433.822940987
 20
348.6358822749
 30
0.0
 11
416.822940987
 21
348.6358822749
 31
0.0
  0
LINE
  5
299
330
1F
100
AcDbEntity
  8
0
  6
Continuous
 62
     7
370
    25
100
AcDbLine
 10
434.822940987
 20
360.6358822749
 30
0.0
 11
434.822940987
 21
349.6358822749
 31
0.0
  0
ARC
  5
29A
330
1F
100
AcDbEntity
  8
0
  6
Continuous
 62
     7
370
    25
100
AcDbCircle
 10
433.822940987
 20
349.6358822749
 30
0.0
 40
1.0
100
AcDbArc
 50
270.0
 51
0.0
  0
LINE
  5
29B
330
1F
100
AcDbEntity
  8
0
  6
Continuous
 62
     7
370
    25
100
AcDbLine
 10
434.822940987
 20
386.6358822749
 30
0.0
 11
434.822940987
 21
360.6358822749
 31
0.0
  0
SPLINE
  5
29C
330
1F
100
AcDbEntity
  8
0
  6
Continuous
 62
     7
370
    25
100
AcDbSpline
210
0.0
220
0.0
230
1.0
 70
    24
 71
     3
 72
    29
 73
    25
 74
     0
 42
0.00000001
 43
0.00000001
 40
0.0
 40
0.0
 40
0.0
 40
0.0
 40
0.1249999999999999
 40
0.1249999999999999
 40
0.1874999999999999
 40
0.1874999999999999
 40
0.2499999999999999
 40
0.3124999999999999
 40
0.3124999999999999
 40
0.3749999999999998
 40
0.3749999999999998
 40
0.5000000000000001
 40
0.5000000000000001
 40
0.5625000000000009
 40
0.5625000000000009
 40
0.6250000000000016
 40
0.6250000000000016
 40
0.7500000000000019
 40
0.7500000000000019
 40
0.8125000000000013
 40
0.8125000000000013
 40
0.8750000000000007
 40
0.8750000000000007
 40
1.0
 40
1.0
 40
1.0
 40
1.0
 10
434.8229409870101
 20
397.6358822748702
 30
0.0
 10
434.8229409870101
 20
397.6358822748702
 30
0.0
 10
434.8229409870101
 20
397.5646467735438
 30
0.0
 10
434.8229409870101
 20
397.3517023328054
 30
0.0
 10
434.8229409870101
 20
397.2629350001806
 30
0.0
 10
434.8229409870101
 20
397.0532834937518
 30
0.0
 10
434.8229409870101
 20
396.8109489841925
 30
0.0
 10
434.8229409870101
 20
396.5041135033877
 30
0.0
 10
434.8229409870101
 20
396.164526231405
 30
0.0
 10
434.8229409870101
 20
395.9771748654981
 30
0.0
 10
434.82294098701
 20
395.3739517036501
 30
0.0
 10
434.8229409870101
 20
394.9186021458618
 30
0.0
 10
434.8229409870101
 20
394.157612432511
 30
0.0
 10
434.8229409870101
 20
393.8908622042828
 30
0.0
 10
434.8229409870101
 20
393.3303411259572
 30
0.0
 10
434.8229409870101
 20
393.0391172719586
 30
0.0
 10
434.8229409870101
 20
392.1426544442339
 30
0.0
 10
434.8229409870101
 20
391.5111080910384
 30
0.0
 10
434.8229409870101
 20
390.5124639097096
 30
0.0
 10
434.8229409870101
 20
390.1691680839112
 30
0.0
 10
434.8229409870101
 20
389.4784875176263
 30
0.0
 10
434.8229409870101
 20
389.130150450584
 30
0.0
 10
434.8229409870101
 20
388.076348969627
 30
0.0
 10
434.8229409870101
 20
387.3621806948681
 30
0.0
 10
434.8229409870101
 20
386.6358822748702
 30
0.0
  0
ARC
  5
29D
330
1F
100
AcDbEntity
  8
0
  6
Continuous
 62
     7
370
    25
100
AcDbCircle
 10
433.822940987
 20
397.6358822749
 30
0.0
 40
1.0
100
AcDbArc
 50
0.0
 51
90.0
  0
SPLINE
  5
29E
330
1F
100
AcDbEntity
  8
0
  6
Continuous
 62
     7
370
    25
100
AcDbSpline
210
0.0
220
0.0
230
1.0
 70
    24
 71
     3
 72
     8
 73
     4
 74
     0
 42
0.00000001
 43
0.00000001
 40
0.0
 40
0.0
 40
0.0
 40
0.0
 40
1.0
 40
1.0
 40
1.0
 40
1.0
 10
386.8229409870061
 20
388.335804571388
 30
0.0
 10
386.8229409870061
 20
388.6769541969051
 30
0.0
 10
386.8229409870061
 20
388.8497244643802
 30
0.0
 10
386.8229409870061
 20
388.8497244643802
 30
0.0
  0
SPLINE
  5
29F
330
1F
100
AcDbEntity
  8
0
  6
Continuous
 62
     7
370
    25
100
AcDbSpline
210
0.0
220
0.0
230
1.0
 70
    24
 71
     3
 72
     8
 73
     4
 74
     0
 42
0.00000001
 43
0.00000001
 40
0.0
 40
0.0
 40
0.0
 40
0.0
 40
1.0
 40
1.0
 40
1.0
 40
1.0
 10
386.8229409870061
 20
358.4220400853602
 30
0.0
 10
386.8229409870061
 20
358.4220400853602
 30
0.0
 10
386.8229409870061
 20
358.5948086553191
 30
0.0
 10
386.8229409870061
 20
358.9359549728397
 30
0.0
  0
SPLINE
  5
2A0
330
1F
100
AcDbEntity
  8
0
  6
Continuous
 62
     7
370
    25
100
AcDbSpline
210
0.0
220
0.0
230
1.0
 70
    24
 71
     3
 72
    10
 73
     6
 74
     0
 42
0.00000001
 43
0.00000001
 40
0.0
 40
0.0
 40
0.0
 40
0.0
 40
0.5
 40
0.5
 40
1.0
 40
1.0
 40
1.0
 40
1.0
 10
386.8229409870061
 20
373.6358822748702
 30
0.0
 10
386.8229409870061
 20
370.4401830368149
 30
0.0
 10
386.8229409870061
 20
367.3203619404959
 30
0.0
 10
386.8229409870061
 20
362.0669862734051
 30
0.0
 10
386.8229409870061
 20
360.0581669651747
 30
0.0
 10
386.8229409870061
 20
358.9358822748715
 30
0.0
  0
SPLINE
  5
2A1
330
1F
100
AcDbEntity
  8
0
  6
Continuous
 62
     7
370
    25
100
AcDbSpline
210
0.0
220
0.0
230
1.0
 70
    24
 71
     3
 72
    10
 73
     6
 74
     0
 42
0.00000001
 43
0.00000001
 40
0.0
 40
0.0
 40
0.0
 40
0.0
 40
0.5
 40
0.5
 40
1.0
 40
1.0
 40
1.0
 40
1.0
 10
386.8229409870061
 20
388.3358822748709
 30
0.0
 10
386.8229409870061
 20
387.2135975845678
 30
0.0
 10
386.8229409870061
 20
385.2047782763372
 30
0.0
 10
386.8229409870061
 20
379.9514026092457
 30
0.0
 10
386.8229409870061
 20
376.8315815129261
 30
0.0
 10
386.8229409870061
 20
373.6358822748702
 30
0.0
  0
SPLINE
  5
2A2
330
1F
100
AcDbEntity
  8
0
  6
Continuous
 62
     7
370
    25
100
AcDbSpline
210
0.0
220
0.0
230
1.0
 70
    24
 71
     3
 72
    10
 73
     6
 74
     0
 42
0.00000001
 43
0.00000001
 40
0.0
 40
0.0
 40
0.0
 40
0.0
 40
0.5
 40
0.5
 40
1.0
 40
1.0
 40
1.0
 40
1.0
 10
403.82294098701
 20
358.9358822748695
 30
0.0
 10
403.82294098701
 20
360.0581669651726
 30
0.0
 10
403.82294098701
 20
362.0669862734032
 30
0.0
 10
403.82294098701
 20
367.3203619404946
 30
0.0
 10
403.82294098701
 20
370.4401830368142
 30
0.0
 10
403.82294098701
 20
373.6358822748702
 30
0.0
  0
SPLINE
  5
2A3
330
1F
100
AcDbEntity
  8
0
  6
Continuous
 62
     7
370
    25
100
AcDbSpline
210
0.0
220
0.0
230
1.0
 70
    24
 71
     3
 72
    10
 73
     6
 74
     0
 42
0.00000001
 43
0.00000001
 40
0.0
 40
0.0
 40
0.0
 40
0.0
 40
0.5
 40
0.5
 40
1.0
 40
1.0
 40
1.0
 40
1.0
 10
403.82294098701
 20
373.6358822748702
 30
0.0
 10
403.82294098701
 20
376.8315815129255
 30
0.0
 10
403.82294098701
 20
379.9514026092446
 30
0.0
 10
403.82294098701
 20
385.2047782763353
 30
0.0
 10
403.82294098701
 20
387.2135975845658
 30
0.0
 10
403.82294098701
 20
388.3358822748689
 30
0.0
  0
ARC
  5
2A4
330
1F
100
AcDbEntity
  8
0
  6
Continuous
 62
     7
370
    25
100
AcDbCircle
 10
387.122940987
 20
388.3358822749
 30
0.0
 40
0.3000000000000114
100
AcDbArc
 50
90.0
 51
180.0
  0
ARC
  5
2A5
330
1F
100
AcDbEntity
  8
0
  6
Continuous
 62
     7
370
    25
100
AcDbCircle
 10
403.522940987
 20
358.9358822749
 30
0.0
 40
0.3000000000000114
100
AcDbArc
 50
270.0
 51
0.0
  0
ARC
  5
2A6
330
1F
100
AcDbEntity
  8
0
  6
Continuous
 62
     7
370
    25
100
AcDbCircle
 10
387.122940987
 20
358.9358822749
 30
0.0
 40
0.3000000000000114
100
AcDbArc
 50
180.0
 51
270.0
  0
ARC
  5
2A7
330
1F
100
AcDbEntity
  8
0
  6
Continuous
 62
     7
370
    25
100
AcDbCircle
 10
403.522940987
 20
388.3358822749
 30
0.0
 40
0.3000000000000114
100
AcDbArc
 50
0.0
 51
90.0
  0
LINE
  5
2A8
330
1F
100
AcDbEntity
  8
0
  6
Continuous
 62
     7
370
    25
100
AcDbLine
 10
403.522940987
 20
388.6358822749
 30
0.0
 11
387.122940987
 21
388.6358822749
 31
0.0
  0
LINE
  5
2A9
330
1F
100
AcDbEntity
  8
0
  6
Continuous
 62
     7
370
    25
100
AcDbLine
 10
387.122940987
 20
358.6358822749
 30
0.0
 11
403.522940987
 21
358.6358822749
 31
0.0
  0
SPLINE
  5
2AA
330
1F
100
AcDbEntity
  8
0
  6
Continuous
 62
     7
370
    25
100
AcDbSpline
210
0.0
220
0.0
230
1.0
 70
    24
 71
     3
 72
    34
 73
    30
 74
     0
 42
0.00000001
 43
0.00000001
 40
0.0
 40
0.0
 40
0.0
 40
0.0
 40
0.0113265319829212
 40
0.0230763588828644
 40
0.0352537246748599
 40
0.0478624416246707
 40
0.0609059437864281
 40
0.0743873329656649
 40
0.0883094182906173
 40
0.1026747503586001
 40
0.127641210385239
 40
0.1564916069070728
 40
0.1764444913355377
 40
0.2125775416095629
 40
0.2793535055772943
 40
0.3320166162218467
 40
0.3982191477126333
 40
0.4597711359707027
 40
0.5996264645310434
 40
0.728893834979008
 40
0.7979304479334154
 40
0.8649539953872416
 40
0.8848906862563559
 40
0.9045563827681636
 40
0.9239836676057317
 40
0.9432063358234127
 40
0.9622592713199621
 40
0.9811782969039039
 40
1.0
 40
1.0
 40
1.0
 40
1.0
 10
393.82294098701
 20
398.6358822748702
 30
0.0
 10
393.9282232634712
 20
398.6358822748702
 30
0.0
 10
394.1427224234333
 20
398.6358822748702
 30
0.0
 10
394.4771201006639
 20
398.6358822748703
 30
0.0
 10
394.8280884249355
 20
398.6358822748702
 30
0.0
 10
395.1961769562012
 20
398.6358822748703
 30
0.0
 10
395.5812314595811
 20
398.6358822748702
 30
0.0
 10
395.9832986827672
 20
398.6358822748702
 30
0.0
 10
396.4023592654044
 20
398.6358822748702
 30
0.0
 10
396.941207468859
 20
398.6358822748703
 30
0.0
 10
397.6381060263869
 20
398.6358822748702
 30
0.0
 10
398.3980083811996
 20
398.6358822748703
 30
0.0
 10
399.2779301088817
 20
398.6358822748702
 30
0.0
 10
400.5524782977424
 20
398.6358822748703
 30
0.0
 10
402.1611609903662
 20
398.6358822748702
 30
0.0
 10
404.0556048707947
 20
398.6358822748702
 30
0.0
 10
405.8489524667825
 20
398.6358822748702
 30
0.0
 10
408.4112639978289
 20
398.6358822748702
 30
0.0
 10
411.3308880782004
 20
398.6358822748702
 30
0.0
 10
413.7852505606686
 20
398.6358822748702
 30
0.0
 10
415.2712534472802
 20
398.6358822748702
 30
0.0
 10
415.9345950371448
 20
398.6358822748703
 30
0.0
 10
416.284229742498
 20
398.6358822748702
 30
0.0
 10
416.4503262894805
 20
398.6358822748703
 30
0.0
 10
416.5861948547304
 20
398.6358822748702
 30
0.0
 10
416.6920449335767
 20
398.6358822748702
 30
0.0
 10
416.7671124351962
 20
398.6358822748702
 30
0.0
 10
416.8141828185674
 20
398.6358822748702
 30
0.0
 10
416.820026620691
 20
398.6358822748702
 30
0.0
 10
416.82294098701
 20
398.6358822748702
 30
0.0
  0
LINE
  5
2AB
330
1F
100
AcDbEntity
  8
0
  6
Continuous
 62
     7
370
    25
100
AcDbLine
 10
416.822940987
 20
348.6358822749
 30
0.0
 11
400.822940987
 21
348.6358822749
 31
0.0
  0
SPLINE
  5
2AC
330
1F
100
AcDbEntity
  8
0
  6
Continuous
 62
     7
370
    25
100
AcDbSpline
210
0.0
220
0.0
230
1.0
 70
     8
 71
     3
 72
    28
 73
    24
 74
     0
 42
0.00000001
 43
0.00000001
 40
0.0
 40
0.0
 40
0.0
 40
0.0
 40
0.0624999999999999
 40
0.0624999999999999
 40
0.1249999999999998
 40
0.1249999999999998
 40
0.1874999999999997
 40
0.1874999999999997
 40
0.2499999999999996
 40
0.2499999999999996
 40
0.3749999999999997
 40
0.3749999999999997
 40
0.4999999999999998
 40
0.4999999999999998
 40
0.6249999999999999
 40
0.6249999999999999
 40
0.7499999999999999
 40
0.7499999999999999
 40
0.875
 40
0.875
 40
0.9375
 40
0.9375
 40
1.0
 40
1.0
 40
1.0
 40
1.0
 10
450.497446241513
 20
370.2714974570338
 30
0.0
 10
449.785016577197
 20
369.9868548464071
 30
0.0
 10
449.0900577765295
 20
369.6703709169048
 30
0.0
 10
447.7807184352139
 20
369.0041311975363
 30
0.0
 10
447.1631927271472
 20
368.6538330727926
 30
0.0
 10
445.9890538490719
 20
367.9240789734246
 30
0.0
 10
445.4325292821988
 20
367.5445905245343
 30
0.0
 10
444.3719248938471
 20
366.759770980945
 30
0.0
 10
443.8662700575346
 20
366.3529946907792
 30
0.0
 10
442.4306805909794
 20
365.1072244841363
 30
0.0
 10
441.5906062061925
 20
364.252767172155
 30
0.0
 10
440.0840940527804
 20
362.5051343031503
 30
0.0
 10
439.4184848111123
 20
361.61183629079
 30
0.0
 10
438.2323652567433
 20
359.7910001952089
 30
0.0
 10
437.7119857061885
 20
358.8619925822319
 30
0.0
 10
436.8117074797138
 20
356.9983017301038
 30
0.0
 10
436.4296043829115
 20
356.0602858705809
 30
0.0
 10
435.7873521594948
 20
354.1750218442531
 30
0.0
 10
435.5277072011224
 20
353.2275432025317
 30
0.0
 10
435.2262599507471
 20
351.8192660618633
 30
0.0
 10
435.1403438079569
 20
351.3515179135765
 30
0.0
 10
434.9970053816292
 20
350.4278754368608
 30
0.0
 10
434.9395585009795
 20
349.9699183843052
 30
0.0
 10
434.896351846611
 20
349.5366515056394
 30
0.0
  0
LINE
  5
2AD
330
1F
100
AcDbEntity
  8
0
  6
Continuous
 62
     7
370
    25
100
AcDbLine
 10
433.822940987
 20
398.6358822749
 30
0.0
 11
452.7550842769
 21
398.6358822749
 31
0.0
  0
LINE
  5
2AE
330
1F
100
AcDbEntity
  8
0
  6
Continuous
 62
     7
370
    25
100
AcDbLine
 10
433.848326889
 20
348.6358822749
 30
0.0
 11
433.822940987
 21
348.6358822749
 31
0.0
  0
ARC
  5
2AF
330
1F
100
AcDbEntity
  8
0
  6
Continuous
 62
     7
370
    25
100
AcDbCircle
 10
433.9012873992
 20
349.6358822749
 30
0.0
 40
1.0
100
AcDbArc
 50
270.0
 51
354.305123518
  0
LINE
  5
2B0
330
1F
100
AcDbEntity
  8
0
  6
Continuous
 62
     7
370
    25
100
AcDbLine
 10
452.7550842769
 20
398.6358822749
 30
0.0
 11
532.8622264508
 21
398.6358822749
 31
0.0
  0
LINE
  5
2B1
330
1F
100
AcDbEntity
  8
0
  6
Continuous
 62
     7
370
    25
100
AcDbLine
 10
532.822940987
 20
372.0558822749
 30
0.0
 11
481.0965761179
 21
372.0558822749
 31
0.0
  0
ARC
  5
2B2
330
1F
100
AcDbEntity
  8
0
  6
Continuous
 62
     7
370
    25
100
AcDbCircle
 10
543.822940987
 20
397.6358822749
 30
0.0
 40
1.0
100
AcDbArc
 50
0.0
 51
90.0
  0
LINE
  5
2B3
330
1F
100
AcDbEntity
  8
0
  6
Continuous
 62
     7
370
    25
100
AcDbLine
 10
532.8622264508
 20
398.6358822749
 30
0.0
 11
543.822940987
 21
398.6358822749
 31
0.0
  0
ARC
  5
2B4
330
1F
100
AcDbEntity
  8
0
  6
Continuous
 62
     7
370
    25
100
AcDbCircle
 10
532.822940987
 20
384.0558822749
 30
0.0
 40
12.0
100
AcDbArc
 50
270.0
 51
0.0
  0
LINE
  5
2B5
330
1F
100
AcDbEntity
  8
0
  6
Continuous
 62
     7
370
    25
100
AcDbLine
 10
544.822940987
 20
397.6358822749
 30
0.0
 11
544.822940987
 21
384.0558822749
 31
0.0
  0
SPLINE
  5
2B6
330
1F
100
AcDbEntity
  8
0
  6
Continuous
 62
     7
370
    25
100
AcDbSpline
210
0.0
220
0.0
230
1.0
 70
     8
 71
     3
 72
    24
 73
    20
 74
     0
 42
0.00000001
 43
0.00000001
 40
0.0
 40
0.0
 40
0.0
 40
0.0
 40
0.061763210871334
 40
0.1231603230207033
 40
0.1841879917183055
 40
0.2448476117316322
 40
0.3051393791015181
 40
0.3650634570108202
 40
0.4246202153131494
 40
0.4838097664720196
 40
0.5426321854338522
 40
0.601087493564242
 40
0.6591757911350989
 40
0.716897212374754
 40
0.774251410063925
 40
0.8312384166178306
 40
0.8878597631512027
 40
0.9441152275601787
 40
1.0
 40
1.0
 40
1.0
 40
1.0
 10
408.8090870005116
 20
402.5412654693545
 30
0.0
 10
408.931651996044
 20
402.4852688718564
 30
0.0
 10
409.1760554884766
 20
402.3736075942346
 30
0.0
 10
409.5470880248603
 20
402.2191509675954
 30
0.0
 10
409.9195550825278
 20
402.0748199687134
 30
0.0
 10
410.293533066151
 20
401.9414255784852
 30
0.0
 10
410.6685893894063
 20
401.8186439729507
 30
0.0
 10
411.0444361997766
 20
401.7064419958733
 30
0.0
 10
411.4207561080275
 20
401.6046982946038
 30
0.0
 10
411.7972493484082
 20
401.5133048353986
 30
0.0
 10
412.1736207998034
 20
401.4321405296886
 30
0.0
 10
412.5495840462575
 20
401.3610776498467
 30
0.0
 10
412.9248608837472
 20
401.2999826957596
 30
0.0
 10
413.2991807839953
 20
401.2487112358305
 30
0.0
 10
413.6722810635057
 20
401.207130505491
 30
0.0
 10
414.0439109280453
 20
401.1750284406036
 30
0.0
 10
414.4138280844843
 20
401.152468470349
 30
0.0
 10
414.7817882731933
 20
401.1384657718084
 30
0.0
 10
415.0264396162201
 20
401.1367422210693
 30
0.0
 10
415.1483609266824
 20
401.1358832943937
 30
0.0
  0
LINE
  5
2B7
330
1F
100
AcDbEntity
  8
0
  6
Continuous
 62
     7
370
    25
100
AcDbLine
 10
403.5851339023
 20
404.9772348049
 30
0.0
 11
408.8090870031
 21
402.5412654681
 31
0.0
  0
SPLINE
  5
2B8
330
1F
100
AcDbEntity
  8
0
  6
Continuous
 62
     7
370
    25
100
AcDbSpline
210
0.0
220
0.0
230
1.0
 70
     8
 71
     3
 72
     8
 73
     4
 74
     0
 42
0.00000001
 43
0.00000001
 40
0.0
 40
0.0
 40
0.0
 40
0.0
 40
1.0
 40
1.0
 40
1.0
 40
1.0
 10
415.1483609266815
 20
401.1358832943849
 30
0.0
 10
416.7153882257762
 20
401.1358826147062
 30
0.0
 10
418.282414529698
 20
401.1358822748663
 30
0.0
 10
419.849438940856
 20
401.1358822748659
 30
0.0
  0
SPLINE
  5
2B9
330
1F
100
AcDbEntity
  8
0
  6
Continuous
 62
     7
370
    25
100
AcDbSpline
210
0.0
220
0.0
230
1.0
 70
    24
 71
     3
 72
    24
 73
    20
 74
     0
 42
0.00000001
 43
0.00000001
 40
0.0
 40
0.0
 40
0.0
 40
0.0
 40
0.1249999999999996
 40
0.1249999999999996
 40
0.2499999999999991
 40
0.2499999999999991
 40
0.3749999999999987
 40
0.3749999999999987
 40
0.4374999999999987
 40
0.4374999999999987
 40
0.4999999999999987
 40
0.4999999999999987
 40
0.624999999999999
 40
0.624999999999999
 40
0.7499999999999993
 40
0.7499999999999993
 40
0.8749999999999997
 40
0.8749999999999997
 40
1.0
 40
1.0
 40
1.0
 40
1.0
 10
389.185467917286
 20
411.6919093285722
 30
0.0
 10
389.2479181498052
 20
411.6627883068993
 30
0.0
 10
389.3618654126938
 20
411.6096538255899
 30
0.0
 10
389.7429630095899
 20
411.4319450976514
 30
0.0
 10
390.0110687173009
 20
411.3069253529467
 30
0.0
 10
390.7416840832348
 20
410.9662338126528
 30
0.0
 10
391.2083001161919
 20
410.7486471830667
 30
0.0
 10
392.0591616986715
 20
410.3518839111269
 30
0.0
 10
392.3675539158489
 20
410.2080782585435
 30
0.0
 10
393.0254316904549
 20
409.9013048141123
 30
0.0
 10
393.374516437384
 20
409.738523923269
 30
0.0
 10
394.4640790340253
 20
409.2304525404095
 30
0.0
 10
395.2460078638777
 20
408.8658331389252
 30
0.0
 10
396.8543921872913
 20
408.115831211666
 30
0.0
 10
397.6813561387717
 20
407.7302115880663
 30
0.0
 10
399.3517075547322
 20
406.9513139309905
 30
0.0
 10
400.1950646102234
 20
406.558050077461
 30
0.0
 10
401.8865090127548
 20
405.7693165992173
 30
0.0
 10
402.7350400507107
 20
405.3736400780336
 30
0.0
 10
403.585133902258
 20
404.9772348049122
 30
0.0
  0
SPLINE
  5
2BA
330
1F
100
AcDbEntity
  8
0
  6
Continuous
 62
     7
370
    25
100
AcDbSpline
210
0.0
220
0.0
230
1.0
 70
    24
 71
     3
 72
    24
 73
    20
 74
     0
 42
0.00000001
 43
0.00000001
 40
0.0
 40
0.0
 40
0.0
 40
0.0
 40
0.1250000000000003
 40
0.1250000000000003
 40
0.2500000000000007
 40
0.2500000000000007
 40
0.375000000000001
 40
0.375000000000001
 40
0.5000000000000013
 40
0.5000000000000013
 40
0.5625000000000013
 40
0.5625000000000013
 40
0.6250000000000014
 40
0.6250000000000014
 40
0.7500000000000011
 40
0.7500000000000011
 40
0.8750000000000006
 40
0.8750000000000006
 40
1.0
 40
1.0
 40
1.0
 40
1.0
 10
419.849438722306
 20
401.1358822748722
 30
0.0
 10
420.7355267638726
 20
401.1358822748722
 30
0.0
 10
421.619561292753
 20
401.1358822748722
 30
0.0
 10
423.3799781668455
 20
401.1358822748722
 30
0.0
 10
424.2570342074604
 20
401.1358822748722
 30
0.0
 10
425.9877395183608
 20
401.1358822748722
 30
0.0
 10
426.8413419639238
 20
401.1358822748722
 30
0.0
 10
428.4846543720612
 20
401.1358822748722
 30
0.0
 10
429.2739537745022
 20
401.1358822748722
 30
0.0
 10
430.3492855812916
 20
401.1358822748722
 30
0.0
 10
430.6894323903545
 20
401.1358822748722
 30
0.0
 10
431.3213146177661
 20
401.1358822748722
 30
0.0
 10
431.6128079179566
 20
401.1358822748729
 30
0.0
 10
432.4092303658522
 20
401.1358822748696
 30
0.0
 10
432.8340454668834
 20
401.1358822748622
 30
0.0
 10
433.4973665738428
 20
401.1358822748622
 30
0.0
 10
433.7392334570966
 20
401.1358822748622
 30
0.0
 10
434.0851062265818
 20
401.1358822748622
 30
0.0
 10
434.1900770317332
 20
401.1358822748622
 30
0.0
 10
434.249104902056
 20
401.1358822748622
 30
0.0
  0
LINE
  5
2BB
330
1F
100
AcDbEntity
  8
0
  6
Continuous
 62
     7
370
    25
100
AcDbLine
 10
493.7635987846
 20
434.3778691898
 30
0.0
 11
493.822940987
 21
434.4018130361
 31
0.0
  0
LINE
  5
2BC
330
1F
100
AcDbEntity
  8
0
  6
Continuous
 62
     7
370
    25
100
AcDbLine
 10
493.822940987
 20
434.4018130361
 30
0.0
 11
493.822940987
 21
432.617604128
 31
0.0
  0
SPLINE
  5
2BD
330
1F
100
AcDbEntity
  8
0
  6
Continuous
 62
     7
370
    25
100
AcDbSpline
210
0.0
220
0.0
230
1.0
 70
     8
 71
     3
 72
    16
 73
    12
 74
     0
 42
0.00000001
 43
0.00000001
 40
0.0
 40
0.0
 40
0.0
 40
0.0
 40
0.1250000000000012
 40
0.1250000000000012
 40
0.2500000000000023
 40
0.2500000000000023
 40
0.5000000000000016
 40
0.5000000000000016
 40
0.7500000000000008
 40
0.7500000000000008
 40
1.0
 40
1.0
 40
1.0
 40
1.0
 10
493.8229409870261
 20
432.6176041280239
 30
0.0
 10
493.8229409870261
 20
432.4302013975865
 30
0.0
 10
493.8225080455479
 20
432.2419354558122
 30
0.0
 10
493.8071944383784
 20
431.8632023230737
 30
0.0
 10
493.7918438740079
 20
431.6719968505239
 30
0.0
 10
493.7098076209346
 20
431.1038871591689
 30
0.0
 10
493.6052418603305
 20
430.7324649490944
 30
0.0
 10
493.2674736837899
 20
430.0948079774879
 30
0.0
 10
493.033353209439
 20
429.8304283754205
 30
0.0
 10
492.4439772625981
 20
429.4357383090275
 30
0.0
 10
492.0886846919811
 20
429.3028512676881
 30
0.0
 10
491.7157445868561
 20
429.2248502902539
 30
0.0
  0
LINE
  5
2BE
330
1F
100
AcDbEntity
  8
0
  6
Continuous
 62
     7
370
    25
100
AcDbLine
 10
388.822940987
 20
388.6358822749
 30
0.0
 11
388.822940987
 21
397.6358822749
 31
0.0
  0
ARC
  5
2BF
330
1F
100
AcDbEntity
  8
0
  6
Continuous
 62
     7
370
    25
100
AcDbCircle
 10
389.822940987
 20
397.6358822749
 30
0.0
 40
1.0
100
AcDbArc
 50
90.0
 51
180.0
  0
SPLINE
  5
2C0
330
1F
100
AcDbEntity
  8
0
  6
Continuous
 62
     7
370
    25
100
AcDbSpline
210
0.0
220
0.0
230
1.0
 70
    24
 71
     3
 72
    22
 73
    18
 74
     0
 42
0.00000001
 43
0.00000001
 40
0.0
 40
0.0
 40
0.0
 40
0.0
 40
0.0356891969594012
 40
0.0713313007128149
 40
0.1069619162567486
 40
0.1426166830042463
 40
0.1783311680671111
 40
0.2141407606157704
 40
0.2500805688707507
 40
0.3752617090962559
 40
0.5000104325787397
 40
0.6247049468381454
 40
0.7499402994556507
 40
0.8127223990414022
 40
0.8751995784111953
 40
0.9375617811088693
 40
1.0
 40
1.0
 40
1.0
 40
1.0
 10
389.82294098701
 20
398.6358822748702
 30
0.0
 10
389.8239869854247
 20
398.6358822748702
 30
0.0
 10
389.8260776020207
 20
398.6358822748703
 30
0.0
 10
389.8430299761156
 20
398.6358822748702
 30
0.0
 10
389.8701034332892
 20
398.6358822748703
 30
0.0
 10
389.9082862499894
 20
398.6358822748702
 30
0.0
 10
389.957311476438
 20
398.6358822748702
 30
0.0
 10
390.0172574004463
 20
398.6358822748702
 30
0.0
 10
390.1465647259128
 20
398.6358822748702
 30
0.0
 10
390.3971696541134
 20
398.6358822748702
 30
0.0
 10
390.8528984182863
 20
398.6358822748703
 30
0.0
 10
391.429419771512
 20
398.6358822748702
 30
0.0
 10
392.0065631340116
 20
398.6358822748702
 30
0.0
 10
392.5201782742639
 20
398.6358822748702
 30
0.0
 10
392.9304894378697
 20
398.6358822748703
 30
0.0
 10
393.3625641079117
 20
398.6358822748702
 30
0.0
 10
393.6694197251815
 20
398.6358822748702
 30
0.0
 10
393.82294098701
 20
398.6358822748702
 30
0.0
  0
ARC
  5
2C1
330
1F
100
AcDbEntity
  8
0
  6
Continuous
 62
     7
370
    25
100
AcDbCircle
 10
400.822940987
 20
360.6358822749
 30
0.0
 40
12.00000000000003
100
AcDbArc
 50
189.5940682269
 51
270.0
  0
LINE
  5
2C2
330
1F
100
AcDbEntity
  8
0
  6
Continuous
 62
     7
370
    25
100
AcDbLine
 10
411.822940987
 20
398.8746887664
 30
0.0
 11
432.2146016806
 21
398.8746887664
 31
0.0
  0
LINE
  5
2C3
330
1F
100
AcDbEntity
  8
0
  6
Continuous
 62
     7
370
    25
100
AcDbLine
 10
391.4312802935
 20
398.8746887664
 30
0.0
 11
411.822940987
 21
398.8746887664
 31
0.0
  0
LINE
  5
2C4
330
1F
100
AcDbEntity
  8
0
  6
Continuous
 62
     7
370
    25
100
AcDbLine
 10
478.9081676194
 20
428.7577838781
 30
0.0
 11
442.6539121564
 21
428.5679553056
 31
0.0
  0
SPLINE
  5
2C5
330
1F
100
AcDbEntity
  8
0
  6
Continuous
 62
     7
370
    25
100
AcDbSpline
210
0.0
220
0.0
230
1.0
 70
     8
 71
     3
 72
     8
 73
     4
 74
     0
 42
0.00000001
 43
0.00000001
 40
0.0
 40
0.0
 40
0.0
 40
0.0
 40
1.0
 40
1.0
 40
1.0
 40
1.0
 10
491.7157445868561
 20
429.2248502902522
 30
0.0
 10
489.8493391375227
 20
428.8344888158522
 30
0.0
 10
487.4763247884528
 20
428.8026470540623
 30
0.0
 10
478.9081676193861
 20
428.7577838780622
 30
0.0
  0
LINE
  5
2C6
330
1F
100
AcDbEntity
  8
0
  6
Continuous
 62
     7
370
    25
100
AcDbLine
 10
479.822940987
 20
362.6358822749
 30
0.0
 11
454.0448986678
 21
362.6358822749
 31
0.0
  0
SPLINE
  5
2C7
330
1F
100
AcDbEntity
  8
0
  6
Continuous
 62
     7
370
    25
100
AcDbSpline
210
0.0
220
0.0
230
1.0
 70
     8
 71
     3
 72
    14
 73
    10
 74
     0
 42
0.00000001
 43
0.00000001
 40
0.0
 40
0.0
 40
0.0
 40
0.0
 40
0.2500000000000003
 40
0.2500000000000003
 40
0.5000000000000002
 40
0.5000000000000002
 40
0.7500000000000001
 40
0.7500000000000001
 40
1.0
 40
1.0
 40
1.0
 40
1.0
 10
435.2244929871799
 20
421.1581318841136
 30
0.0
 10
435.3690327224509
 20
422.7140107970368
 30
0.0
 10
435.6606175404954
 20
423.933454161119
 30
0.0
 10
436.4797910165296
 20
425.8760457717893
 30
0.0
 10
437.0076171877827
 20
426.5993421611079
 30
0.0
 10
438.2732387749352
 20
427.6795353204408
 30
0.0
 10
439.0118649112154
 20
428.0353618962478
 30
0.0
 10
440.6887530031195
 20
428.4775462703912
 30
0.0
 10
441.6280546082
 20
428.5625838789592
 30
0.0
 10
442.653912156446
 20
428.5679553056022
 30
0.0
  0
SPLINE
  5
2C8
330
1F
100
AcDbEntity
  8
0
  6
Continuous
 62
     7
370
    25
100
AcDbSpline
210
0.0
220
0.0
230
1.0
 70
     8
 71
     3
 72
    12
 73
     8
 74
     0
 42
0.00000001
 43
0.00000001
 40
0.0
 40
0.0
 40
0.0
 40
0.0
 40
0.082422179515068
 40
0.3531116079614971
 40
0.574676796105734
 40
0.7563575371190394
 40
1.0
 40
1.0
 40
1.0
 40
1.0
 10
435.2169658083282
 20
421.0923080549153
 30
0.0
 10
435.2158216872804
 20
421.0824996348984
 30
0.0
 10
435.210920064619
 20
421.040478579594
 30
0.0
 10
435.1766779194008
 20
420.7247807412706
 30
0.0
 10
435.1364682343258
 20
420.2086986503172
 30
0.0
 10
435.1018848542063
 20
419.5759767287237
 30
0.0
 10
435.0936911148562
 20
419.0759207054409
 30
0.0
 10
435.0889974070661
 20
418.7894682382922
 30
0.0
  0
SPLINE
  5
2C9
330
1F
100
AcDbEntity
  8
0
  6
Continuous
 62
     7
370
    25
100
AcDbSpline
210
0.0
220
0.0
230
1.0
 70
    24
 71
     3
 72
    10
 73
     6
 74
     0
 42
0.00000001
 43
0.00000001
 40
0.0
 40
0.0
 40
0.0
 40
0.0
 40
0.5000000000000001
 40
0.5000000000000001
 40
1.0
 40
1.0
 40
1.0
 40
1.0
 10
454.91138213754
 20
410.8358822748702
 30
0.0
 10
454.9113821375401
 20
410.8358822748702
 30
0.0
 10
456.1230468371879
 20
410.8358822748702
 30
0.0
 10
460.4362614706018
 20
410.8358822748702
 30
0.0
 10
463.3614788215401
 20
410.8358822748702
 30
0.0
 10
466.4113821375401
 20
410.8358822748702
 30
0.0
  0
SPLINE
  5
2CA
330
1F
100
AcDbEntity
  8
0
  6
Continuous
 62
     7
370
    25
100
AcDbSpline
210
0.0
220
0.0
230
1.0
 70
    24
 71
     3
 72
    10
 73
     6
 74
     0
 42
0.00000001
 43
0.00000001
 40
0.0
 40
0.0
 40
0.0
 40
0.0
 40
0.5
 40
0.5
 40
1.0
 40
1.0
 40
1.0
 40
1.0
 10
477.91138213754
 20
410.8358822748702
 30
0.0
 10
477.9113821375402
 20
410.8358822748702
 30
0.0
 10
476.6997174378923
 20
410.8358822748702
 30
0.0
 10
472.3865028044785
 20
410.8358822748702
 30
0.0
 10
469.46128545354
 20
410.8358822748702
 30
0.0
 10
466.4113821375401
 20
410.8358822748702
 30
0.0
  0
SPLINE
  5
2CB
330
1F
100
AcDbEntity
  8
0
  6
Continuous
 62
     7
370
    25
100
AcDbSpline
210
0.0
220
0.0
230
1.0
 70
    24
 71
     3
 72
    10
 73
     6
 74
     0
 42
0.00000001
 43
0.00000001
 40
0.0
 40
0.0
 40
0.0
 40
0.0
 40
0.4999999999999999
 40
0.4999999999999999
 40
0.9999999999999999
 40
0.9999999999999999
 40
0.9999999999999999
 40
0.9999999999999999
 10
466.4113821375401
 20
417.8358822748702
 30
0.0
 10
469.46128545354
 20
417.8358822748702
 30
0.0
 10
472.3865028044783
 20
417.8358822748702
 30
0.0
 10
476.6997174378922
 20
417.8358822748702
 30
0.0
 10
477.91138213754
 20
417.8358822748702
 30
0.0
 10
477.91138213754
 20
417.8358822748702
 30
0.0
  0
SPLINE
  5
2CC
330
1F
100
AcDbEntity
  8
0
  6
Continuous
 62
     7
370
    25
100
AcDbSpline
210
0.0
220
0.0
230
1.0
 70
    24
 71
     3
 72
    10
 73
     6
 74
     0
 42
0.00000001
 43
0.00000001
 40
0.0
 40
0.0
 40
0.0
 40
0.0
 40
0.4999999999999999
 40
0.4999999999999999
 40
1.0
 40
1.0
 40
1.0
 40
1.0
 10
466.4113821375401
 20
417.8358822748702
 30
0.0
 10
463.3614788215401
 20
417.8358822748702
 30
0.0
 10
460.4362614706016
 20
417.8358822748702
 30
0.0
 10
456.1230468371878
 20
417.8358822748702
 30
0.0
 10
454.9113821375399
 20
417.8358822748702
 30
0.0
 10
454.91138213754
 20
417.8358822748702
 30
0.0
  0
LINE
  5
2CD
330
1F
100
AcDbEntity
  8
0
  6
Continuous
 62
     7
370
    25
100
AcDbLine
 10
517.8495916462
 20
368.1791389558
 30
0.0
 11
517.8495916462
 21
371.1791389558
 31
0.0
  0
LINE
  5
2CE
330
1F
100
AcDbEntity
  8
0
  6
Continuous
 62
     7
370
    25
100
AcDbLine
 10
517.8495916462
 20
368.1791389558
 30
0.0
 11
510.5689063711
 21
368.1791389558
 31
0.0
  0
ARC
  5
2CF
330
1F
100
AcDbEntity
  8
0
  6
Continuous
 62
     7
370
    25
100
AcDbCircle
 10
522.5189063711
 20
360.1791389558
 30
0.0
 40
11.95000000000005
100
AcDbArc
 50
96.3474517482
 51
113.0004049214
  0
ARC
  5
2D0
330
1F
100
AcDbEntity
  8
0
  6
Continuous
 62
     7
370
    25
100
AcDbCircle
 10
522.5189063711
 20
360.1791389558
 30
0.0
 40
11.94999999999997
100
AcDbArc
 50
66.9995950786
 51
83.6525482518
  0
LINE
  5
2D1
330
1F
100
AcDbEntity
  8
0
  6
Continuous
 62
     7
370
    25
100
AcDbLine
 10
517.8495916462
 20
371.1791389558
 30
0.0
 11
527.188221096
 21
371.1791389558
 31
0.0
  0
LINE
  5
2D2
330
1F
100
AcDbEntity
  8
0
  6
Continuous
 62
     7
370
    25
100
AcDbLine
 10
534.4689063711
 20
368.1791389558
 30
0.0
 11
527.188221096
 21
368.1791389558
 31
0.0
  0
LINE
  5
2D3
330
1F
100
AcDbEntity
  8
0
  6
Continuous
 62
     7
370
    25
100
AcDbLine
 10
527.188221096
 20
371.1791389558
 30
0.0
 11
527.188221096
 21
368.1791389558
 31
0.0
  0
SPLINE
  5
2D4
330
1F
100
AcDbEntity
  8
0
  6
Continuous
 62
     7
370
    25
100
AcDbSpline
210
0.0
220
0.0
230
1.0
 70
    24
 71
     3
 72
     8
 73
     4
 74
     0
 42
0.00000001
 43
0.00000001
 40
0.0
 40
0.0
 40
0.0
 40
0.0
 40
1.0
 40
1.0
 40
1.0
 40
1.0
 10
434.2491049020568
 20
401.1358822748674
 30
0.0
 10
434.4988282953729
 20
401.135882274867
 30
0.0
 10
434.6229406696607
 20
401.1358822748665
 30
0.0
 10
434.6229409870112
 20
401.1358822748661
 30
0.0
  0
LINE
  5
2D5
330
1F
100
AcDbEntity
  8
0
  6
Continuous
 62
     7
370
    25
100
AcDbLine
 10
455.4285287217
 20
362.4358822749
 30
0.0
 11
477.3942355534
 21
362.4358822749
 31
0.0
  0
SPLINE
  5
2D6
330
1F
100
AcDbEntity
  8
0
  6
Continuous
 62
     7
370
    25
100
AcDbSpline
210
0.0
220
0.0
230
1.0
 70
     8
 71
     3
 72
    25
 73
    21
 74
     0
 42
0.00000001
 43
0.00000001
 40
0.0
 40
0.0
 40
0.0
 40
0.0
 40
0.0259675992060151
 40
0.0518111300691814
 40
0.0775928972534998
 40
0.1033756531873923
 40
0.1292221430974372
 40
0.1551946503025551
 40
0.2322391001231876
 40
0.3091451208970175
 40
0.3847844510753796
 40
0.46050477007528
 40
0.5274247133466299
 40
0.5944411090332765
 40
0.6986310823648986
 40
0.8030021051259995
 40
0.8523718095631775
 40
0.9013668943761146
 40
0.950429510042726
 40
1.0
 40
1.0
 40
1.0
 40
1.0
 10
435.1229409869988
 20
414.0858822748722
 30
0.0
 10
435.122923227541
 20
414.0866990681522
 30
0.0
 10
435.1228877934769
 20
414.0883287522263
 30
0.0
 10
435.1226028753481
 20
414.1015666713116
 30
0.0
 10
435.1221528949483
 20
414.122724099559
 30
0.0
 10
435.1215251357393
 20
414.1525628849943
 30
0.0
 10
435.1207277859707
 20
414.1908841311409
 30
0.0
 10
435.119135368131
 20
414.268280437639
 30
0.0
 10
435.1161987700713
 20
414.4136659198758
 30
0.0
 10
435.1114222208231
 20
414.6687390080526
 30
0.0
 10
435.1060476660019
 20
414.9837628222637
 30
0.0
 10
435.1007494951341
 20
415.3384199561624
 30
0.0
 10
435.0958944627106
 20
415.7196005033205
 30
0.0
 10
435.0910144617429
 20
416.1899018946289
 30
0.0
 10
435.0867044045622
 20
416.7776253738296
 30
0.0
 10
435.0849490146502
 20
417.3564755896764
 30
0.0
 10
435.0849590030406
 20
417.8132911777191
 30
0.0
 10
435.085646879244
 20
418.1439341467932
 30
0.0
 10
435.0869519724815
 20
418.4711267666938
 30
0.0
 10
435.0883132483306
 20
418.6829907969557
 30
0.0
 10
435.0889973909455
 20
418.7894682693822
 30
0.0
  0
LINE
  5
2D7
330
1F
100
AcDbEntity
  8
0
  6
Continuous
 62
     7
370
    25
100
AcDbLine
 10
388.8410077812
 20
411.8525337279
 30
0.0
 11
389.1854679411
 21
411.6919093175
 31
0.0
  0
SPLINE
  5
2D8
330
1F
100
AcDbEntity
  8
0
  6
Continuous
 62
     7
370
    25
100
AcDbSpline
210
0.0
220
0.0
230
1.0
 70
     8
 71
     3
 72
    12
 73
     8
 74
     0
 42
0.00000001
 43
0.00000001
 40
0.0
 40
0.0
 40
0.0
 40
0.0
 40
0.4999999999999958
 40
0.4999999999999958
 40
0.7499999999999979
 40
0.7499999999999979
 40
1.0
 40
1.0
 40
1.0
 40
1.0
 10
522.5189063711101
 20
367.179138955815
 30
0.0
 10
521.7127747257505
 20
367.179138955815
 30
0.0
 10
520.920983540435
 20
367.2731396757882
 30
0.0
 10
519.7514638533657
 20
367.5332247753354
 30
0.0
 10
519.3636398392148
 20
367.639970773807
 30
0.0
 10
518.5984354832083
 20
367.886590633618
 30
0.0
 10
518.2216129348083
 20
368.0261255683908
 30
0.0
 10
517.8495916462281
 20
368.1791389558154
 30
0.0
  0
LINE
  5
2D9
330
1F
100
AcDbEntity
  8
0
  6
Continuous
 62
     7
370
    25
100
AcDbLine
 10
522.5189063711
 20
367.1791389558
 30
0.0
 11
511.5189063711
 21
367.1791389558
 31
0.0
  0
SPLINE
  5
2DA
330
1F
100
AcDbEntity
  8
0
  6
Continuous
 62
     7
370
    25
100
AcDbSpline
210
0.0
220
0.0
230
1.0
 70
     8
 71
     3
 72
     8
 73
     4
 74
     0
 42
0.00000001
 43
0.00000001
 40
0.0
 40
0.0
 40
0.0
 40
0.0
 40
1.0
 40
1.0
 40
1.0
 40
1.0
 10
527.1882210959919
 20
368.1791389558154
 30
0.0
 10
525.6921759130513
 20
367.5638114242764
 30
0.0
 10
524.1467326756488
 20
367.179138955815
 30
0.0
 10
522.5189063711101
 20
367.179138955815
 30
0.0
  0
LINE
  5
2DB
330
1F
100
AcDbEntity
  8
0
  6
Continuous
 62
     7
370
    25
100
AcDbLine
 10
533.5189063711
 20
367.1791389558
 30
0.0
 11
522.5189063711
 21
367.1791389558
 31
0.0
  0
LINE
  5
2DC
330
1F
100
AcDbEntity
  8
0
  6
Continuous
 62
     7
370
    25
100
AcDbLine
 10
456.2713821375
 20
353.2358822749
 30
0.0
 11
476.5513821375
 21
353.2358822749
 31
0.0
  0
LINE
  5
2DD
330
1F
100
AcDbEntity
  8
0
  6
Continuous
 62
     7
370
    25
100
AcDbLine
 10
456.7713821375
 20
352.7358822749
 30
0.0
 11
476.0513821375
 21
352.7358822749
 31
0.0
  0
SPLINE
  5
2DE
330
1F
100
AcDbEntity
  8
0
  6
Continuous
 62
     7
370
    25
100
AcDbSpline
210
0.0
220
0.0
230
1.0
 70
    24
 71
     3
 72
    10
 73
     6
 74
     0
 42
0.00000001
 43
0.00000001
 40
0.0
 40
0.0
 40
0.0
 40
0.0
 40
0.4999999999999999
 40
0.4999999999999999
 40
0.9999999999999999
 40
0.9999999999999999
 40
0.9999999999999999
 40
0.9999999999999999
 10
531.5689063711101
 20
366.9791389558152
 30
0.0
 10
531.5689063711101
 20
366.9791389558152
 30
0.0
 10
530.6153789335613
 20
366.9791389558152
 30
0.0
 10
527.2210665481356
 20
366.9791389558152
 30
0.0
 10
524.91904767631
 20
366.9791389558152
 30
0.0
 10
522.5189063711101
 20
366.9791389558152
 30
0.0
  0
SPLINE
  5
2DF
330
1F
100
AcDbEntity
  8
0
  6
Continuous
 62
     7
370
    25
100
AcDbSpline
210
0.0
220
0.0
230
1.0
 70
    24
 71
     3
 72
    10
 73
     6
 74
     0
 42
0.00000001
 43
0.00000001
 40
0.0
 40
0.0
 40
0.0
 40
0.0
 40
0.4999999999999999
 40
0.4999999999999999
 40
0.9999999999999999
 40
0.9999999999999999
 40
0.9999999999999999
 40
0.9999999999999999
 10
513.46890637111
 20
366.9791389558152
 30
0.0
 10
513.46890637111
 20
366.9791389558152
 30
0.0
 10
514.4224338086591
 20
366.9791389558152
 30
0.0
 10
517.8167461940848
 20
366.9791389558152
 30
0.0
 10
520.11876506591
 20
366.9791389558152
 30
0.0
 10
522.5189063711101
 20
366.9791389558152
 30
0.0
  0
SPLINE
  5
2E0
330
1F
100
AcDbEntity
  8
0
  6
Continuous
 62
     7
370
    25
100
AcDbSpline
210
0.0
220
0.0
230
1.0
 70
    24
 71
     3
 72
    10
 73
     6
 74
     0
 42
0.00000001
 43
0.00000001
 40
0.0
 40
0.0
 40
0.0
 40
0.0
 40
0.5
 40
0.5
 40
1.0
 40
1.0
 40
1.0
 40
1.0
 10
466.4113821375401
 20
400.8358822748702
 30
0.0
 10
468.53305400954
 20
400.8358822748702
 30
0.0
 10
470.5679878188885
 20
400.8358822748702
 30
0.0
 10
473.5684849551765
 20
400.8358822748702
 30
0.0
 10
474.4113821375401
 20
400.8358822748702
 30
0.0
 10
474.4113821375401
 20
400.8358822748702
 30
0.0
  0
SPLINE
  5
2E1
330
1F
100
AcDbEntity
  8
0
  6
Continuous
 62
     7
370
    25
100
AcDbSpline
210
0.0
220
0.0
230
1.0
 70
    24
 71
     3
 72
    10
 73
     6
 74
     0
 42
0.00000001
 43
0.00000001
 40
0.0
 40
0.0
 40
0.0
 40
0.0
 40
0.5
 40
0.5
 40
1.0
 40
1.0
 40
1.0
 40
1.0
 10
466.4113821375401
 20
400.8358822748702
 30
0.0
 10
464.2897102655401
 20
400.8358822748702
 30
0.0
 10
462.2547764561917
 20
400.8358822748702
 30
0.0
 10
459.2542793199037
 20
400.8358822748702
 30
0.0
 10
458.4113821375401
 20
400.8358822748702
 30
0.0
 10
458.41138213754
 20
400.8358822748702
 30
0.0
  0
SPLINE
  5
2E2
330
1F
100
AcDbEntity
  8
0
  6
Continuous
 62
     7
370
    25
100
AcDbSpline
210
0.0
220
0.0
230
1.0
 70
    24
 71
     3
 72
    10
 73
     6
 74
     0
 42
0.00000001
 43
0.00000001
 40
0.0
 40
0.0
 40
0.0
 40
0.0
 40
0.3958670658911251
 40
0.8006887014067985
 40
0.9999999999999999
 40
0.9999999999999999
 40
0.9999999999999999
 40
0.9999999999999999
 10
454.0448986677794
 20
362.6358822748702
 30
0.0
 10
453.7531928907029
 20
362.6358822748702
 30
0.0
 10
453.1631829101697
 20
362.6358822748702
 30
0.0
 10
452.7055342367739
 20
362.6358822748702
 30
0.0
 10
452.7113971679682
 20
362.6358822748702
 30
0.0
 10
452.7133314250893
 20
362.6358822748702
 30
0.0
  0
LINE
  5
2E3
330
1F
100
AcDbEntity
  8
0
  6
Continuous
 62
     7
370
    25
100
AcDbLine
 10
435.422940987
 20
413.7358822749
 30
0.0
 11
435.422940987
 21
421.5358822749
 31
0.0
  0
LINE
  5
2E4
330
1F
100
AcDbEntity
  8
0
  6
Continuous
 62
     8
370
    18
100
AcDbLine
 10
361.0264314683
 20
408.6323303353
 30
0.0
 11
361.0264314683
 21
338.6394342144
 31
0.0
  0
LINE
  5
2E5
330
1F
100
AcDbEntity
  8
0
  6
Continuous
 62
     8
370
    18
100
AcDbLine
 10
373.0369029122
 20
408.4226867764
 30
0.0
 11
373.0369029122
 21
338.8490777733
 31
0.0
  0
LINE
  5
2E6
330
1F
100
AcDbEntity
  8
0
  6
Continuous
 62
     8
370
    18
100
AcDbLine
 10
433.822940987
 20
386.6358822749
 30
0.0
 11
433.822940987
 21
398.6358822749
 31
0.0
  0
LINE
  5
2E7
330
1F
100
AcDbEntity
  8
0
  6
Continuous
 62
     8
370
    18
100
AcDbLine
 10
433.822940987
 20
360.6358822749
 30
0.0
 11
433.822940987
 21
386.6358822749
 31
0.0
  0
LINE
  5
2E8
330
1F
100
AcDbEntity
  8
0
  6
Continuous
 62
     8
370
    18
100
AcDbLine
 10
433.822940987
 20
348.6358822749
 30
0.0
 11
433.822940987
 21
360.6358822749
 31
0.0
  0
LINE
  5
2E9
330
1F
100
AcDbEntity
  8
0
  6
Continuous
 62
     8
370
    18
100
AcDbLine
 10
374.6089790619
 20
389.8490777733
 30
0.0
 11
374.6089790619
 21
357.4226867764
 31
0.0
  0
LINE
  5
2EA
330
1F
100
AcDbEntity
  8
0
  6
Continuous
 62
     8
370
    18
100
AcDbLine
 10
386.0369029122
 20
357.6221619292
 30
0.0
 11
386.0369029122
 21
389.6496026205
 31
0.0
  0
ARC
  5
2EB
330
1F
100
AcDbEntity
  8
0
  6
Continuous
 62
     8
370
    18
100
AcDbCircle
 10
387.1136911189
 20
388.326003164
 30
0.0
 40
0.2909179197003341
100
AcDbArc
 50
88.1779474284
 51
178.0539521094
  0
LINE
  5
2EC
330
1F
100
AcDbEntity
  8
0
  6
Continuous
 62
     8
370
    18
100
AcDbLine
 10
387.122940987
 20
388.6167739946
 30
0.0
 11
387.122940987
 21
358.6549905551
 31
0.0
  0
ARC
  5
2ED
330
1F
100
AcDbEntity
  8
0
  6
Continuous
 62
     8
370
    18
100
AcDbCircle
 10
387.1136911189
 20
358.9457613858
 30
0.0
 40
0.2909179197031699
100
AcDbArc
 50
181.9460478909
 51
271.822052571
  0
ARC
  5
2EE
330
1F
100
AcDbEntity
  8
0
  6
Continuous
 62
     8
370
    18
100
AcDbCircle
 10
403.5321908552
 20
358.9457613858
 30
0.0
 40
0.2909179197008197
100
AcDbArc
 50
268.1779474285
 51
358.0539521092
  0
LINE
  5
2EF
330
1F
100
AcDbEntity
  8
0
  6
Continuous
 62
     8
370
    18
100
AcDbLine
 10
403.522940987
 20
358.6549905551
 30
0.0
 11
403.522940987
 21
388.6167739946
 31
0.0
  0
ARC
  5
2F0
330
1F
100
AcDbEntity
  8
0
  6
Continuous
 62
     8
370
    18
100
AcDbCircle
 10
403.5321908552
 20
388.326003164
 30
0.0
 40
0.2909179197029976
100
AcDbArc
 50
1.9460478909
 51
91.8220525711
  0
LINE
  5
2F1
330
1F
100
AcDbEntity
  8
0
  6
Continuous
 62
     8
370
    18
100
AcDbLine
 10
403.522940987
 20
388.6167739946
 30
0.0
 11
387.122940987
 21
388.6167739946
 31
0.0
  0
LINE
  5
2F2
330
1F
100
AcDbEntity
  8
0
  6
Continuous
 62
     8
370
    18
100
AcDbLine
 10
387.122940987
 20
358.6549905551
 30
0.0
 11
403.522940987
 21
358.6549905551
 31
0.0
  0
LINE
  5
2F3
330
1F
100
AcDbEntity
  8
0
  6
Continuous
 62
     8
370
    18
100
AcDbLine
 10
387.122940987
 20
388.6358822749
 30
0.0
 11
387.122940987
 21
388.6167739946
 31
0.0
  0
LINE
  5
2F4
330
1F
100
AcDbEntity
  8
0
  6
Continuous
 62
     8
370
    18
100
AcDbLine
 10
403.522940987
 20
358.6358822749
 30
0.0
 11
403.522940987
 21
358.6549905551
 31
0.0
  0
LINE
  5
2F5
330
1F
100
AcDbEntity
  8
0
  6
Continuous
 62
     8
370
    18
100
AcDbLine
 10
387.122940987
 20
358.6549905551
 30
0.0
 11
387.122940987
 21
358.6358822749
 31
0.0
  0
LINE
  5
2F6
330
1F
100
AcDbEntity
  8
0
  6
Continuous
 62
     8
370
    18
100
AcDbLine
 10
403.522940987
 20
388.6167739946
 30
0.0
 11
403.522940987
 21
388.6358822749
 31
0.0
  0
LINE
  5
2F7
330
1F
100
AcDbEntity
  8
0
  6
Continuous
 62
     8
370
    18
100
AcDbLine
 10
403.9531155663
 20
360.6358822749
 30
0.0
 11
404.822940987
 21
360.6358822749
 31
0.0
  0
LINE
  5
2F8
330
1F
100
AcDbEntity
  8
0
  6
Continuous
 62
     8
370
    18
100
AcDbLine
 10
393.1865773506
 20
397.6358822749
 30
0.0
 11
393.1865773506
 21
388.6358822749
 31
0.0
  0
LWPOLYLINE
  5
2F9
330
1F
100
AcDbEntity
  8
0
  6
Continuous
 62
     8
370
    18
100
AcDbPolyline
 90
        9
 70
   128
 43
0.0
 10
393.822940987
 20
398.6358822749
 10
393.6987926003
 20
398.6166675553
 10
393.5794151664
 20
398.5597618074
 10
393.4693962933
 20
398.4673518872
 10
393.3729639444
 20
398.3429890561
 10
393.293823961
 20
398.1914525079
 10
393.2350176481
 20
398.0185657072
 10
393.1988048995
 20
397.8309725969
 10
393.1865773506
 20
397.6358822749
  0
LWPOLYLINE
  5
2FA
330
1F
100
AcDbEntity
  8
0
  6
Continuous
 62
     8
370
    18
100
AcDbPolyline
 90
       10
 70
   128
 43
0.0
 10
393.2933848994
 20
358.6358822749
 10
393.3025908731
 20
358.5521041429
 10
393.6471064283
 20
356.531640555
 10
394.2096560854
 20
354.6358822749
 10
394.9731470577
 20
352.9224309586
 10
395.9143810585
 20
351.4433489574
 10
397.0047591688
 20
350.2435774295
 10
398.2111508016
 20
349.3595708254
 10
399.4969003576
 20
348.8181892387
 10
400.822940987
 20
348.6358822749
  0
SPLINE
  5
2FB
330
1F
100
AcDbEntity
  8
0
  6
Continuous
 62
     8
370
    18
100
AcDbSpline
210
0.0
220
0.0
230
1.0
 70
     8
 71
     3
 72
     8
 73
     4
 74
     0
 42
0.00000001
 43
0.00000001
 40
0.0
 40
0.0
 40
0.0
 40
0.0
 40
1.0
 40
1.0
 40
1.0
 40
1.0
 10
434.8469907889411
 20
349.6358822748702
 30
0.0
 10
434.8795234266954
 20
349.6005122673811
 30
0.0
 10
434.8995426442984
 20
349.5686481268697
 30
0.0
 10
434.896351846611
 20
349.5366515056394
 30
0.0
  0
SPLINE
  5
2FC
330
1F
100
AcDbEntity
  8
0
  6
Continuous
 62
     8
370
    18
100
AcDbSpline
210
0.0
220
0.0
230
1.0
 70
     8
 71
     3
 72
    10
 73
     6
 74
     0
 42
0.00000001
 43
0.00000001
 40
0.0
 40
0.0
 40
0.0
 40
0.0
 40
0.5
 40
0.5
 40
1.0
 40
1.0
 40
1.0
 40
1.0
 10
450.497446241513
 20
370.2714974570338
 30
0.0
 10
451.1954636768855
 20
370.5503818368106
 30
0.0
 10
451.9181020848116
 20
370.8514883005118
 30
0.0
 10
453.4075880860061
 20
371.4079142245727
 30
0.0
 10
454.1757876284832
 20
371.6644344088066
 30
0.0
 10
454.9601299664815
 20
371.8731846464948
 30
0.0
  0
LINE
  5
2FD
330
1F
100
AcDbEntity
  8
0
  6
Continuous
 62
     8
370
    18
100
AcDbLine
 10
452.7586556827
 20
397.6358822749
 30
0.0
 11
434.822940987
 21
397.6358822749
 31
0.0
  0
LINE
  5
2FE
330
1F
100
AcDbEntity
  8
0
  6
Continuous
 62
     8
370
    18
100
AcDbLine
 10
434.822940987
 20
349.6358822749
 30
0.0
 11
434.8469907889
 21
349.6358822749
 31
0.0
  0
ARC
  5
2FF
330
1F
100
AcDbEntity
  8
0
  6
Continuous
 62
     8
370
    18
100
AcDbCircle
 10
433.8476583921
 20
349.6352146711
 30
0.0
 40
0.9993326198305346
100
AcDbArc
 50
270.0383276353
 51
0.0382764258
  0
LINE
  5
300
330
1F
100
AcDbEntity
  8
0
  6
Continuous
 62
     8
370
    18
100
AcDbLine
 10
532.8657978565
 20
397.6358822749
 30
0.0
 11
452.7586556827
 21
397.6358822749
 31
0.0
  0
SPLINE
  5
301
330
1F
100
AcDbEntity
  8
0
  6
Continuous
 62
     8
370
    18
100
AcDbSpline
210
0.0
220
0.0
230
1.0
 70
     8
 71
     3
 72
     8
 73
     4
 74
     0
 42
0.00000001
 43
0.00000001
 40
0.0
 40
0.0
 40
0.0
 40
0.0
 40
1.0
 40
1.0
 40
1.0
 40
1.0
 10
454.9601299664815
 20
371.8731846464948
 30
0.0
 10
456.5139143547137
 20
372.2998714479762
 30
0.0
 10
458.1206853458133
 20
372.5988497685118
 30
0.0
 10
459.7870061548189
 20
372.7183961434246
 30
0.0
  0
SPLINE
  5
302
330
1F
100
AcDbEntity
  8
0
  6
Continuous
 62
     8
370
    18
100
AcDbSpline
210
0.0
220
0.0
230
1.0
 70
     8
 71
     3
 72
    24
 73
    20
 74
     0
 42
0.00000001
 43
0.00000001
 40
0.0
 40
0.0
 40
0.0
 40
0.0
 40
0.1250000000000019
 40
0.1250000000000019
 40
0.2500000000000037
 40
0.2500000000000037
 40
0.3125000000000042
 40
0.3125000000000042
 40
0.3750000000000047
 40
0.3750000000000047
 40
0.5000000000000038
 40
0.5000000000000038
 40
0.6250000000000029
 40
0.6250000000000029
 40
0.7500000000000019
 40
0.7500000000000019
 40
0.875000000000001
 40
0.875000000000001
 40
1.0
 40
1.0
 40
1.0
 40
1.0
 10
459.7870061548189
 20
372.7183961434246
 30
0.0
 10
460.6963327845475
 20
372.7983383041185
 30
0.0
 10
461.6128665838737
 20
372.8678963224171
 30
0.0
 10
463.4600369608011
 20
372.9732697162177
 30
0.0
 10
464.3906795645914
 20
373.0090973619917
 30
0.0
 10
465.7974283452973
 20
373.0321728690998
 30
0.0
 10
466.2683790279875
 20
373.0347689715676
 30
0.0
 10
467.2054931140037
 20
373.0296407235631
 30
0.0
 10
467.6727017193595
 20
373.0219436541136
 30
0.0
 10
469.070325112686
 20
372.9841406162955
 30
0.0
 10
469.9967501884867
 20
372.9391393828448
 30
0.0
 10
471.8388993019947
 20
372.8176429151823
 30
0.0
 10
472.7557468226584
 20
372.7409189613377
 30
0.0
 10
474.5461374593928
 20
372.5736637308881
 30
0.0
 10
475.423767610889
 20
372.4828464433924
 30
0.0
 10
477.1421330148647
 20
372.3086512762487
 30
0.0
 10
477.9858389129716
 20
372.224930490119
 30
0.0
 10
479.5962538187773
 20
372.0990050809222
 30
0.0
 10
480.3669678370748
 20
372.0558822748702
 30
0.0
 10
481.0965761179157
 20
372.0558822748702
 30
0.0
  0
LINE
  5
303
330
1F
100
AcDbEntity
  8
0
  6
Continuous
 62
     8
370
    18
100
AcDbLine
 10
544.822940987
 20
397.6358822749
 30
0.0
 11
532.8657978565
 21
397.6358822749
 31
0.0
  0
SPLINE
  5
304
330
1F
100
AcDbEntity
  8
0
  6
Continuous
 62
     8
370
    18
100
AcDbSpline
210
0.0
220
0.0
230
1.0
 70
     8
 71
     3
 72
    28
 73
    24
 74
     0
 42
0.00000001
 43
0.00000001
 40
0.0
 40
0.0
 40
0.0
 40
0.0
 40
0.0226375162597436
 40
0.0450098234303892
 40
0.0671170170922659
 40
0.0889612065186703
 40
0.1105466815221082
 40
0.1318742867371685
 40
0.1529378040927308
 40
0.1737331704671617
 40
0.1942580275923813
 40
0.2145128417973003
 40
0.2345016569847758
 40
0.2542304160451823
 40
0.2737057704230222
 40
0.3751262392425995
 40
0.4774387663421423
 40
0.5302440193779735
 40
0.5973264638062188
 40
0.6781751725891064
 40
0.7725770190445489
 40
0.8801683896651611
 40
1.0
 40
1.0
 40
1.0
 40
1.0
 10
388.897901680126
 20
434.3653226142222
 30
0.0
 10
388.9098235664966
 20
434.3633062940603
 30
0.0
 10
388.9335276687636
 20
434.3592972758699
 30
0.0
 10
388.9814878788326
 20
434.3530467939384
 30
0.0
 10
389.0387519722588
 20
434.3466845675545
 30
0.0
 10
389.1065510236051
 20
434.3402058492588
 30
0.0
 10
389.185051048131
 20
434.3336317410356
 30
0.0
 10
389.2746231720268
 20
434.326978519967
 30
0.0
 10
389.3755994845322
 20
434.3202673064012
 30
0.0
 10
389.4882055640841
 20
434.3135189821725
 30
0.0
 10
389.6124247013684
 20
434.3067555594718
 30
0.0
 10
389.748243888728
 20
434.2999974916588
 30
0.0
 10
389.8957446973361
 20
434.293268162482
 30
0.0
 10
390.055032973051
 20
434.2865849429998
 30
0.0
 10
390.4668643652175
 20
434.2707085717697
 30
0.0
 10
391.296087070147
 20
434.245115875237
 30
0.0
 10
392.6239982837882
 20
434.2197807492325
 30
0.0
 10
393.9598035864256
 20
434.201636519406
 30
0.0
 10
395.2645262728774
 20
434.1872984687064
 30
0.0
 10
396.9320007821086
 20
434.1743305399684
 30
0.0
 10
398.9469279106473
 20
434.1647039613832
 30
0.0
 10
401.2762476356179
 20
434.1599218869442
 30
0.0
 10
402.9261683645536
 20
434.1598457012647
 30
0.0
 10
403.7955293105871
 20
434.1598055582122
 30
0.0
  0
ARC
  5
305
330
1F
100
AcDbEntity
  8
0
  6
Continuous
 62
     8
370
    18
100
AcDbCircle
 10
389.8977336281
 20
434.3654124835
 30
0.0
 40
0.9998319519657719
100
AcDbArc
 50
90.1193035552
 51
180.0051499954
  0
SPLINE
  5
306
330
1F
100
AcDbEntity
  8
0
  6
Continuous
 62
     8
370
    18
100
AcDbSpline
210
0.0
220
0.0
230
1.0
 70
     8
 71
     3
 72
    26
 73
    22
 74
     0
 42
0.00000001
 43
0.00000001
 40
0.0
 40
0.0
 40
0.0
 40
0.0
 40
0.0243906972131864
 40
0.0481797030525172
 40
0.0713788073526911
 40
0.0940007222820349
 40
0.1160591579257614
 40
0.1375689018636587
 40
0.158545902096051
 40
0.2189161629455442
 40
0.2759280159571023
 40
0.328037542072635
 40
0.3781436949942167
 40
0.4248865813918428
 40
0.4717092259965425
 40
0.5759510431171978
 40
0.691792728197273
 40
0.7554525905390451
 40
0.8239669226046291
 40
0.907597033234596
 40
1.0
 40
1.0
 40
1.0
 40
1.0
 10
389.8956520944361
 20
435.3652422009619
 30
0.0
 10
389.9076542094277
 20
435.3631319723385
 30
0.0
 10
389.9313623605825
 20
435.3589635720849
 30
0.0
 10
389.9795383919448
 20
435.352464189095
 30
0.0
 10
390.0365068220394
 20
435.3459084588598
 30
0.0
 10
390.1031376922164
 20
435.3392939398755
 30
0.0
 10
390.1792125079817
 20
435.3326469467638
 30
0.0
 10
390.2647728263637
 20
435.3259852288452
 30
0.0
 10
390.4201597022375
 20
435.3151097834183
 30
0.0
 10
390.6806983718159
 20
435.2998457360011
 30
0.0
 10
391.1044864300245
 20
435.2803802732877
 30
0.0
 10
391.6077455208253
 20
435.2618795325401
 30
0.0
 10
392.1790191138598
 20
435.2448966520554
 30
0.0
 10
392.8247040540412
 20
435.2293842014678
 30
0.0
 10
393.8306317851245
 20
435.2098562201963
 30
0.0
 10
395.4035564787072
 20
435.1884804020991
 30
0.0
 10
397.2371289778125
 20
435.1739611352866
 30
0.0
 10
398.8828347029978
 20
435.1660170333084
 30
0.0
 10
400.3320262550457
 20
435.1616973180647
 30
0.0
 10
401.9834230530399
 20
435.1596203398641
 30
0.0
 10
403.1729515787845
 20
435.1595356548335
 30
0.0
 10
403.7973567556821
 20
435.1594912021194
 30
0.0
  0
SPLINE
  5
307
330
1F
100
AcDbEntity
  8
0
  6
Continuous
 62
     8
370
    18
100
AcDbSpline
210
0.0
220
0.0
230
1.0
 70
     8
 71
     3
 72
     8
 73
     4
 74
     0
 42
0.00000001
 43
0.00000001
 40
0.0
 40
0.0
 40
0.0
 40
0.0
 40
1.0
 40
1.0
 40
1.0
 40
1.0
 10
403.7955293105874
 20
434.1598055582122
 30
0.0
 10
414.138017229744
 20
434.1588658307048
 30
0.0
 10
424.4805775967792
 20
434.1588854861441
 30
0.0
 10
434.8229409870261
 20
434.1598578767723
 30
0.0
  0
SPLINE
  5
308
330
1F
100
AcDbEntity
  8
0
  6
Continuous
 62
     8
370
    18
100
AcDbSpline
210
0.0
220
0.0
230
1.0
 70
     8
 71
     3
 72
    12
 73
     8
 74
     0
 42
0.00000001
 43
0.00000001
 40
0.0
 40
0.0
 40
0.0
 40
0.0
 40
0.2000002768519188
 40
0.4000000149792223
 40
0.5999996146803916
 40
0.7999994762547372
 40
1.0
 40
1.0
 40
1.0
 40
1.0
 10
403.7973567556821
 20
435.1594912021194
 30
0.0
 10
405.8653882301204
 20
435.159417532711
 30
0.0
 10
410.0014456085076
 20
435.1592701940928
 30
0.0
 10
416.2055356294547
 20
435.1593272183208
 30
0.0
 10
422.4096105509988
 20
435.1595927294571
 30
0.0
 10
428.6136760172527
 20
435.1600665548897
 30
0.0
 10
432.749693072292
 20
435.1605668696066
 30
0.0
 10
434.817705023246
 20
435.1608170273792
 30
0.0
  0
SPLINE
  5
309
330
1F
100
AcDbEntity
  8
0
  6
Continuous
 62
     8
370
    18
100
AcDbSpline
210
0.0
220
0.0
230
1.0
 70
     8
 71
     3
 72
    14
 73
    10
 74
     0
 42
0.00000001
 43
0.00000001
 40
0.0
 40
0.0
 40
0.0
 40
0.0
 40
0.25
 40
0.25
 40
0.5
 40
0.5
 40
0.75
 40
0.75
 40
1.0
 40
1.0
 40
1.0
 40
1.0
 10
434.8177050231943
 20
435.1608170273654
 30
0.0
 10
434.8183151002078
 20
435.1579036682461
 30
0.0
 10
434.818971789041
 20
435.1338052910011
 30
0.0
 10
434.8202441747369
 20
435.0330206710903
 30
0.0
 10
434.8208561597102
 20
434.956052589789
 30
0.0
 10
434.8218734772479
 20
434.7615298164216
 30
0.0
 10
434.8222755894717
 20
434.6445929571603
 30
0.0
 10
434.8228014420449
 20
434.4016075356011
 30
0.0
 10
434.8229258962741
 20
434.2763256255394
 30
0.0
 10
434.8229411536589
 20
434.1598578767941
 30
0.0
  0
SPLINE
  5
30A
330
1F
100
AcDbEntity
  8
0
  6
Continuous
 62
     8
370
    18
100
AcDbSpline
210
0.0
220
0.0
230
1.0
 70
     8
 71
     3
 72
    25
 73
    21
 74
     0
 42
0.00000001
 43
0.00000001
 40
0.0
 40
0.0
 40
0.0
 40
0.0
 40
0.0375029120955475
 40
0.0722534065075162
 40
0.1042556970084578
 40
0.133515184733587
 40
0.2042350437767455
 40
0.2643200287958051
 40
0.3287256792286598
 40
0.3924534701095767
 40
0.4555262301034996
 40
0.5180331141984255
 40
0.5753698147444964
 40
0.6415499746535596
 40
0.6981389099682601
 40
0.7630258585900382
 40
0.8265465168576973
 40
0.8993836884927096
 40
0.9477443514495597
 40
1.0
 40
1.0
 40
1.0
 40
1.0
 10
419.8503526634472
 20
418.7485177580722
 30
0.0
 10
419.8510862428797
 20
419.0531044144188
 30
0.0
 10
419.8524995628056
 20
419.6399234710751
 30
0.0
 10
419.8649863260452
 20
420.4865787284173
 30
0.0
 10
419.885228515393
 20
421.2661189030781
 30
0.0
 10
419.928228195595
 20
422.3371704045485
 30
0.0
 10
420.0192911935961
 20
423.6346178291847
 30
0.0
 10
420.2279593081896
 20
425.2075520173864
 30
0.0
 10
420.576590252957
 20
426.6998809359463
 30
0.0
 10
421.1725531477407
 20
428.1454566267456
 30
0.0
 10
422.0986004961412
 20
429.3973658269227
 30
0.0
 10
423.291632397338
 20
430.3109726871438
 30
0.0
 10
424.6643306783945
 20
430.9575717084745
 30
0.0
 10
426.0678933097803
 20
431.3834338963077
 30
0.0
 10
427.5622718599203
 20
431.6877520911216
 30
0.0
 10
429.050681312777
 20
431.8983446246899
 30
0.0
 10
430.6777833765594
 20
432.0560773254333
 30
0.0
 10
432.1749379169342
 20
432.1544908455785
 30
0.0
 10
433.5820685240911
 20
432.2219914581328
 30
0.0
 10
434.3987794766659
 20
432.2493336881276
 30
0.0
 10
434.8229429136445
 20
432.2635340294022
 30
0.0
  0
LINE
  5
30B
330
1F
100
AcDbEntity
  8
0
  6
Continuous
 62
     8
370
    18
100
AcDbLine
 10
419.8503526635
 20
401.6358822749
 30
0.0
 11
419.8503526634
 21
418.7485177581
 31
0.0
  0
LINE
  5
30C
330
1F
100
AcDbEntity
  8
0
  6
Continuous
 62
     8
370
    18
100
AcDbLine
 10
415.1487394867
 20
401.6358822749
 30
0.0
 11
419.8503526635
 21
401.6358822749
 31
0.0
  0
SPLINE
  5
30D
330
1F
100
AcDbEntity
  8
0
  6
Continuous
 62
     8
370
    18
100
AcDbSpline
210
0.0
220
0.0
230
1.0
 70
     8
 71
     3
 72
    20
 73
    16
 74
     0
 42
0.00000001
 43
0.00000001
 40
0.0
 40
0.0
 40
0.0
 40
0.0
 40
0.0567547792699092
 40
0.1134134067255482
 40
0.1700104703967991
 40
0.2265806712389644
 40
0.2831587596311103
 40
0.3397794714342471
 40
0.3964774641666159
 40
0.4532872539092186
 40
0.5628386689009992
 40
0.6720354481472562
 40
0.7811276074200527
 40
0.890365880829313
 40
1.0
 40
1.0
 40
1.0
 40
1.0
 10
409.0200770946214
 20
402.9944193628422
 30
0.0
 10
409.1289245816727
 20
402.9446047539607
 30
0.0
 10
409.346435150453
 20
402.8450599302361
 30
0.0
 10
409.677028783076
 20
402.7060864127326
 30
0.0
 10
410.0103421807022
 20
402.574900720111
 30
0.0
 10
410.3467131458582
 20
402.4522283095555
 30
0.0
 10
410.686050990022
 20
402.3378753102147
 30
0.0
 10
411.028378831644
 20
402.2318935686921
 30
0.0
 10
411.3736925022334
 20
402.134270133271
 30
0.0
 10
411.8294460478139
 20
402.0174632506262
 30
0.0
 10
412.3974617423709
 20
401.8934416836573
 30
0.0
 10
413.0795029037806
 20
401.7781686427728
 30
0.0
 10
413.7656337481016
 20
401.6964444687588
 30
0.0
 10
414.455835049172
 20
401.6453103789489
 30
0.0
 10
414.9174930274649
 20
401.6390287631424
 30
0.0
 10
415.1487394866993
 20
401.6358822748722
 30
0.0
  0
SPLINE
  5
30E
330
1F
100
AcDbEntity
  8
0
  6
Continuous
 62
     8
370
    18
100
AcDbSpline
210
0.0
220
0.0
230
1.0
 70
     8
 71
     3
 72
     8
 73
     4
 74
     0
 42
0.00000001
 43
0.00000001
 40
0.0
 40
0.0
 40
0.0
 40
0.0
 40
1.0
 40
1.0
 40
1.0
 40
1.0
 10
403.7955293105809
 20
405.4303886984322
 30
0.0
 10
405.5370437565825
 20
404.6183989199022
 30
0.0
 10
407.2785600951894
 20
403.8064091413722
 30
0.0
 10
409.0200770946214
 20
402.9944193628422
 30
0.0
  0
LINE
  5
30F
330
1F
100
AcDbEntity
  8
0
  6
Continuous
 62
     8
370
    18
100
AcDbLine
 10
388.8979020495
 20
412.145063211
 30
0.0
 11
388.8979020495
 21
434.3653225441
 31
0.0
  0
SPLINE
  5
310
330
1F
100
AcDbEntity
  8
0
  6
Continuous
 62
     8
370
    18
100
AcDbSpline
210
0.0
220
0.0
230
1.0
 70
     8
 71
     3
 72
    25
 73
    21
 74
     0
 42
0.00000001
 43
0.00000001
 40
0.0
 40
0.0
 40
0.0
 40
0.0
 40
0.085780637041161
 40
0.1799837592168794
 40
0.2825526182670351
 40
0.3841154963794063
 40
0.487619087047571
 40
0.5382019645135365
 40
0.5888165382283195
 40
0.6384374669577306
 40
0.6918250582747156
 40
0.7175713569348251
 40
0.7454713859794053
 40
0.7755031702791038
 40
0.8076556585698379
 40
0.8419313844495862
 40
0.8783181218589651
 40
0.9167985891123729
 40
0.9573619958371722
 40
1.0
 40
1.0
 40
1.0
 40
1.0
 10
403.7955293105811
 20
405.4303886984322
 30
0.0
 10
403.1993563611682
 20
405.7070917508811
 30
0.0
 10
401.9484744339651
 20
406.2876663104132
 30
0.0
 10
399.9810817438566
 20
407.1887599322799
 30
0.0
 10
397.9130181183627
 20
408.1285607042535
 30
0.0
 10
395.8212125031211
 20
409.0710138661418
 30
0.0
 10
394.1603055524127
 20
409.8110962711682
 30
0.0
 10
392.940367232425
 20
410.3502198628394
 30
0.0
 10
392.1123623287566
 20
410.7137597392692
 30
0.0
 10
391.3627533375343
 20
411.0428875030957
 30
0.0
 10
390.8234472710084
 20
411.2814311329361
 30
0.0
 10
390.4338866861047
 20
411.45440519031
 30
0.0
 10
390.1600059184691
 20
411.5766232251319
 30
0.0
 10
389.8993066881389
 20
411.6933251551241
 30
0.0
 10
389.6574911162953
 20
411.8018906308214
 30
0.0
 10
389.4396819366083
 20
411.899919199807
 30
0.0
 10
389.2507959223097
 20
411.9851145379354
 30
0.0
 10
389.0957631583606
 20
412.0551872253852
 30
0.0
 10
388.9731547060832
 20
412.1107491820686
 30
0.0
 10
388.9233998085668
 20
412.1334366335204
 30
0.0
 10
388.897902049517
 20
412.1450632109922
 30
0.0
  0
SPLINE
  5
311
330
1F
100
AcDbEntity
  8
0
  6
Continuous
 62
     8
370
    18
100
AcDbSpline
210
0.0
220
0.0
230
1.0
 70
    24
 71
     3
 72
    24
 73
    20
 74
     0
 42
0.00000001
 43
0.00000001
 40
0.0
 40
0.0
 40
0.0
 40
0.0
 40
0.1250000000000003
 40
0.1250000000000003
 40
0.2500000000000007
 40
0.2500000000000007
 40
0.3750000000000008
 40
0.3750000000000008
 40
0.4375000000000006
 40
0.4375000000000006
 40
0.5000000000000004
 40
0.5000000000000004
 40
0.6250000000000003
 40
0.6250000000000003
 40
0.7500000000000002
 40
0.7500000000000002
 40
0.8750000000000001
 40
0.8750000000000001
 40
1.0
 40
1.0
 40
1.0
 40
1.0
 10
434.747979924516
 20
401.6358822748622
 30
0.0
 10
434.6877653870732
 20
401.6358822748622
 30
0.0
 10
434.580568629198
 20
401.6358822748622
 30
0.0
 10
434.2241688840594
 20
401.6358822748622
 30
0.0
 10
433.9742443518116
 20
401.6358822748622
 30
0.0
 10
433.2823889756415
 20
401.6358822748622
 30
0.0
 10
432.8360343427562
 20
401.6358822748696
 30
0.0
 10
431.9933913892196
 20
401.6358822748729
 30
0.0
 10
431.6837020731801
 20
401.6358822748722
 30
0.0
 10
431.01304012884
 20
401.6358822748722
 30
0.0
 10
430.6526769346676
 20
401.6358822748722
 30
0.0
 10
429.5173925187072
 20
401.6358822748722
 30
0.0
 10
428.6890453411395
 20
401.6358822748722
 30
0.0
 10
426.9798540372569
 20
401.6358822748722
 30
0.0
 10
426.0971686487188
 20
401.6358822748722
 30
0.0
 10
424.3178872391796
 20
401.6358822748722
 30
0.0
 10
423.4204999437371
 20
401.6358822748722
 30
0.0
 10
421.629608497036
 20
401.6358822748722
 30
0.0
 10
420.7373666142361
 20
401.6358822748722
 30
0.0
 10
419.850352444626
 20
401.6358822748722
 30
0.0
  0
ARC
  5
312
330
1F
100
AcDbEntity
  8
0
  6
Continuous
 62
     8
370
    18
100
AcDbCircle
 10
389.396455629
 20
412.1436193486
 30
0.0
 40
0.4985556702564069
100
AcDbArc
 50
179.8340660035
 51
244.9633535995
  0
SPLINE
  5
313
330
1F
100
AcDbEntity
  8
0
  6
Continuous
 62
     8
370
    18
100
AcDbSpline
210
0.0
220
0.0
230
1.0
 70
     8
 71
     3
 72
    17
 73
    13
 74
     0
 42
0.00000001
 43
0.00000001
 40
0.0
 40
0.0
 40
0.0
 40
0.0
 40
0.3329523229369808
 40
0.5041519305802475
 40
0.6547579840371226
 40
0.7148321268087048
 40
0.7887784674238512
 40
0.8628721920664097
 40
0.8892514414561334
 40
0.9328797156918189
 40
0.9708992005232623
 40
1.0
 40
1.0
 40
1.0
 40
1.0
 10
441.5183183935161
 20
432.3619579769022
 30
0.0
 10
440.7751459794169
 20
432.3574392377328
 30
0.0
 10
439.6498443025369
 20
432.3505970236407
 30
0.0
 10
438.1884455945811
 20
432.3340556867875
 30
0.0
 10
437.3361413645428
 20
432.3213413639593
 30
0.0
 10
436.7009304022221
 20
432.3098074791727
 30
0.0
 10
436.2364812876096
 20
432.3008234009702
 30
0.0
 10
435.8473075014981
 20
432.2900100611947
 30
0.0
 10
435.5257318205253
 20
432.2830209440999
 30
0.0
 10
435.28464268797
 20
432.2791148166108
 30
0.0
 10
435.0374644000534
 20
432.2741791210659
 30
0.0
 10
434.8878221117784
 20
432.2667534971709
 30
0.0
 10
434.822942913646
 20
432.2635340294022
 30
0.0
  0
ARC
  5
314
330
1F
100
AcDbEntity
  8
0
  6
Continuous
 62
     8
370
    18
100
AcDbCircle
 10
434.2485417791
 20
401.6353204189
 30
0.0
 40
0.4994384614813684
100
AcDbArc
 50
270.0646017073
 51
0.0644563574
  0
LINE
  5
315
330
1F
100
AcDbEntity
  8
0
  6
Continuous
 62
     8
370
    18
100
AcDbLine
 10
434.822940987
 20
434.1598578768
 30
0.0
 11
478.9014804445
 21
434.1668740092
 31
0.0
  0
LINE
  5
316
330
1F
100
AcDbEntity
  8
0
  6
Continuous
 62
     8
370
    18
100
AcDbLine
 10
478.9014804445
 20
432.557704999
 30
0.0
 11
441.5183183935
 21
432.3619579769
 31
0.0
  0
LINE
  5
317
330
1F
100
AcDbEntity
  8
0
  6
Continuous
 62
     8
370
    18
100
AcDbLine
 10
434.8177050232
 20
435.1608170274
 30
0.0
 11
478.8962444807
 21
435.1665677017
 31
0.0
  0
SPLINE
  5
318
330
1F
100
AcDbEntity
  8
0
  6
Continuous
 62
     8
370
    18
100
AcDbSpline
210
0.0
220
0.0
230
1.0
 70
     8
 71
     3
 72
    20
 73
    16
 74
     0
 42
0.00000001
 43
0.00000001
 40
0.0
 40
0.0
 40
0.0
 40
0.0
 40
0.1713499062299305
 40
0.3061835128980311
 40
0.4235919304151705
 40
0.4531513560805924
 40
0.4827872240937382
 40
0.5125740434513562
 40
0.5426103547175981
 40
0.5807374296358622
 40
0.6321380053853357
 40
0.6978687599304442
 40
0.7793508450714078
 40
0.9511698199723543
 40
0.9999999999999999
 40
0.9999999999999999
 40
0.9999999999999999
 40
0.9999999999999999
 10
478.9014804444973
 20
434.1668740092322
 30
0.0
 10
480.1944827846851
 20
434.1675940674028
 30
0.0
 10
482.5049363321345
 20
434.1688807324792
 30
0.0
 10
485.6670718893298
 20
434.1801178527926
 30
0.0
 10
487.6731615840123
 20
434.1969676246599
 30
0.0
 10
488.8328030363099
 20
434.2104505894673
 30
0.0
 10
489.3936272229828
 20
434.217863249444
 30
0.0
 10
489.9295169606763
 20
434.2259306759044
 30
0.0
 10
490.4807250684732
 20
434.2352869793901
 30
0.0
 10
491.0971390248415
 20
434.2479601580014
 30
0.0
 10
491.7948413095534
 20
434.2654334846254
 30
0.0
 10
492.5148963744308
 20
434.2880377817062
 30
0.0
 10
493.3380460866139
 20
434.324095304719
 30
0.0
 10
493.7342296483842
 20
434.3570012188432
 30
0.0
 10
493.7582770399688
 20
434.3740878728472
 30
0.0
 10
493.763598784621
 20
434.3778691898041
 30
0.0
  0
SPLINE
  5
319
330
1F
100
AcDbEntity
  8
0
  6
Continuous
 62
     8
370
    18
100
AcDbSpline
210
0.0
220
0.0
230
1.0
 70
     8
 71
     3
 72
    24
 73
    20
 74
     0
 42
0.00000001
 43
0.00000001
 40
0.0
 40
0.0
 40
0.0
 40
0.0
 40
0.04589161451034
 40
0.0883201197377101
 40
0.1630610571369302
 40
0.2266838241811023
 40
0.2855527436805714
 40
0.3600023721855532
 40
0.4286401912605511
 40
0.4933936297349386
 40
0.5582762097046269
 40
0.6267527248789944
 40
0.7008786358011448
 40
0.7613831435622125
 40
0.8267825670715097
 40
0.8657955231319965
 40
0.9080147718341369
 40
0.9531064038599609
 40
1.0
 40
1.0
 40
1.0
 40
1.0
 10
478.896244480676
 20
435.16656770166
 30
0.0
 10
479.2531181916145
 20
435.1666196182792
 30
0.0
 10
479.9399349274743
 20
435.1667195337449
 30
0.0
 10
481.2076882422293
 20
435.1674122869331
 30
0.0
 10
482.6120409240834
 20
435.1695467759769
 30
0.0
 10
484.1330360546906
 20
435.1746952728681
 30
0.0
 10
485.6291313386789
 20
435.182828558936
 30
0.0
 10
487.1185495661503
 20
435.1950890094677
 30
0.0
 10
488.5526772163785
 20
435.2126344955995
 30
0.0
 10
489.7701383195188
 20
435.2338619097741
 30
0.0
 10
490.7694157322939
 20
435.258596685942
 30
0.0
 10
491.565447921959
 20
435.2859791073761
 30
0.0
 10
492.1123989734296
 20
435.3122348214631
 30
0.0
 10
492.4735874694256
 20
435.3363437276082
 30
0.0
 10
492.6588728064263
 20
435.3544700258751
 30
0.0
 10
492.7565408237485
 20
435.36911535741
 30
0.0
 10
492.8036965152368
 20
435.3806874818977
 30
0.0
 10
492.8222592996469
 20
435.3918747785978
 30
0.0
 10
492.8227108095832
 20
435.3984316061059
 30
0.0
 10
492.8229409870261
 20
435.4017742430407
 30
0.0
  0
ARC
  5
31A
330
1F
100
AcDbEntity
  8
0
  6
Continuous
 62
     8
370
    18
100
AcDbCircle
 10
492.8229603832
 20
434.4017936392
 30
0.0
 40
0.9999806040106762
100
AcDbArc
 50
0.0011113839
 51
90.0011113481
  0
SPLINE
  5
31B
330
1F
100
AcDbEntity
  8
0
  6
Continuous
 62
     8
370
    18
100
AcDbSpline
210
0.0
220
0.0
230
1.0
 70
     8
 71
     3
 72
    23
 73
    19
 74
     0
 42
0.00000001
 43
0.00000001
 40
0.0
 40
0.0
 40
0.0
 40
0.0
 40
0.002427267171391
 40
0.003640900757086
 40
0.004854534342781
 40
0.006068167928477
 40
0.007281801514172
 40
0.008495435099867
 40
0.009102251892715
 40
0.009709068685563
 40
0.01031588547841
 40
0.01092270227126
 40
0.01152951906411
 40
0.01213633585695
 40
0.01334996944265
 40
0.01456360302834
 40
0.01699087019973
 40
0.01941813737113
 40
0.01941813737113
 40
0.01941813737113
 40
0.01941813737113
 10
493.8229409870261
 20
432.6176041280222
 30
0.0
 10
493.8229409870261
 20
432.6176041280922
 30
0.0
 10
493.823852592866
 20
432.6175991571722
 30
0.0
 10
493.6961593611761
 20
432.6170156437022
 30
0.0
 10
493.500198392976
 20
432.6161644805122
 30
0.0
 10
493.168259314216
 20
432.6147917215222
 30
0.0
 10
492.647950681146
 20
432.6127631347722
 30
0.0
 10
491.9717468753061
 20
432.6103487777922
 30
0.0
 10
491.226953500956
 20
432.6079159056422
 30
0.0
 10
490.5420389444461
 20
432.6057729905622
 30
0.0
 10
489.7827040211461
 20
432.6033972380222
 30
0.0
 10
488.991283547626
 20
432.6008147603722
 30
0.0
 10
488.183311443546
 20
432.5980318398822
 30
0.0
 10
487.1193716358161
 20
432.5941720269822
 30
0.0
 10
485.832707635656
 20
432.5891906209022
 30
0.0
 10
483.818676816276
 20
432.5808969700222
 30
0.0
 10
481.434398222336
 20
432.5703657140222
 30
0.0
 10
479.707439767056
 20
432.5619250307022
 30
0.0
 10
478.901480444496
 20
432.5577049990322
 30
0.0
  0
SPLINE
  5
31C
330
1F
100
AcDbEntity
  8
0
  6
Continuous
 62
     8
370
    18
100
AcDbSpline
210
0.0
220
0.0
230
1.0
 70
     8
 71
     3
 72
     9
 73
     5
 74
     0
 42
0.00000001
 43
0.00000001
 40
0.0
 40
0.0
 40
0.0
 40
0.0
 40
0.4555733754170639
 40
0.9999999999999999
 40
0.9999999999999999
 40
0.9999999999999999
 40
0.9999999999999999
 10
389.5279321592758
 20
435.4346191668801
 30
0.0
 10
389.5389654410617
 20
435.432684370899
 30
0.0
 10
389.5631838927563
 20
435.4284374238966
 30
0.0
 10
389.77845355749
 20
435.3875191815348
 30
0.0
 10
389.8956520944361
 20
435.3652422009619
 30
0.0
  0
LINE
  5
31D
330
1F
100
AcDbEntity
  8
0
  6
Continuous
 62
     8
370
    18
100
AcDbLine
 10
492.822940987
 20
435.401774243
 30
0.0
 11
492.822940987
 21
435.4358822749
 31
0.0
  0
LINE
  5
31E
330
1F
100
AcDbEntity
  8
0
  6
Continuous
 62
     8
370
    18
100
AcDbLine
 10
453.1354140515
 20
363.6358822749
 30
0.0
 11
480.822940987
 21
363.6358822749
 31
0.0
  0
SPLINE
  5
31F
330
1F
100
AcDbEntity
  8
0
  6
Continuous
 62
     8
370
    18
100
AcDbSpline
210
0.0
220
0.0
230
1.0
 70
     8
 71
     3
 72
    10
 73
     6
 74
     0
 42
0.00000001
 43
0.00000001
 40
0.0
 40
0.0
 40
0.0
 40
0.0
 40
0.2083118374156301
 40
0.7426512016534106
 40
1.0
 40
1.0
 40
1.0
 40
1.0
 10
451.7436519254098
 20
363.4212289864353
 30
0.0
 10
451.7402095045844
 20
363.420527344881
 30
0.0
 10
451.7279369520768
 20
363.4180259270552
 30
0.0
 10
452.2845113274719
 20
363.5145582629104
 30
0.0
 10
452.926671364957
 20
363.6061191780075
 30
0.0
 10
453.1354140515389
 20
363.6358822748798
 30
0.0
  0
LINE
  5
320
330
1F
100
AcDbEntity
  8
0
  6
Continuous
 62
     8
370
    18
100
AcDbLine
 10
453.9113821375
 20
411.8358822749
 30
0.0
 11
478.9113821375
 21
411.8358822749
 31
0.0
  0
LINE
  5
321
330
1F
100
AcDbEntity
  8
0
  6
Continuous
 62
     8
370
    18
100
AcDbLine
 10
453.9113821375
 20
416.8358822749
 30
0.0
 11
478.9113821375
 21
416.8358822749
 31
0.0
  0
LINE
  5
322
330
1F
100
AcDbEntity
  8
0
  6
Continuous
 62
     8
370
    18
100
AcDbLine
 10
434.7479798939
 20
401.6358822749
 30
0.0
 11
435.122940987
 21
401.6358822749
 31
0.0
  0
SPLINE
  5
323
330
1F
100
AcDbEntity
  8
0
  6
Continuous
 62
     8
370
    18
100
AcDbSpline
210
0.0
220
0.0
230
1.0
 70
     8
 71
     3
 72
     9
 73
     5
 74
     0
 42
0.00000001
 43
0.00000001
 40
0.0
 40
0.0
 40
0.0
 40
0.0
 40
0.47626431260741
 40
1.0
 40
1.0
 40
1.0
 40
1.0
 10
388.5303363483972
 20
434.4348473616007
 30
0.0
 10
388.5414678766921
 20
434.432622706719
 30
0.0
 10
388.5648404620406
 20
434.427951655744
 30
0.0
 10
388.7834227203132
 20
434.3868493096285
 30
0.0
 10
388.8979020496014
 20
434.3653225441322
 30
0.0
  0
SPLINE
  5
324
330
1F
100
AcDbEntity
  8
0
  6
Continuous
 62
     8
370
    18
100
AcDbSpline
210
0.0
220
0.0
230
1.0
 70
     8
 71
     3
 72
    10
 73
     6
 74
     0
 42
0.00000001
 43
0.00000001
 40
0.0
 40
0.0
 40
0.0
 40
0.0
 40
0.2314167530843977
 40
0.615303464368187
 40
1.0
 40
1.0
 40
1.0
 40
1.0
 10
388.5343969491943
 20
412.313995136057
 30
0.0
 10
388.5339979055521
 20
412.3142317317522
 30
0.0
 10
388.5329369065872
 20
412.3148608052699
 30
0.0
 10
388.6442094670225
 20
412.2630533459873
 30
0.0
 10
388.813278475067
 20
412.184420873251
 30
0.0
 10
388.8979020495964
 20
412.1450632109922
 30
0.0
  0
LINE
  5
325
330
1F
100
AcDbEntity
  8
0
  6
Continuous
 62
     8
370
    18
100
AcDbLine
 10
474.9113821375
 20
408.3358822749
 30
0.0
 11
457.9113821375
 21
408.3358822749
 31
0.0
  0
LINE
  5
326
330
1F
100
AcDbEntity
  8
0
  6
Continuous
 62
     8
370
    18
100
AcDbLine
 10
457.9113821375
 20
401.3358822749
 30
0.0
 11
474.9113821375
 21
401.3358822749
 31
0.0
  0
LINE
  5
327
330
1F
100
AcDbEntity
  8
0
  6
Continuous
 62
     8
370
    18
100
AcDbLine
 10
435.8324651099
 20
413.9261326043
 30
0.0
 11
435.8324651099
 21
421.3456319455
 31
0.0
  0
LINE
  5
328
330
1F
100
AcDbEntity
  8
0
  6
Continuous
 62
     8
370
    18
100
AcDbLine
 10
435.6327028914
 20
413.7358822749
 30
0.0
 11
435.6327028914
 21
421.5358822749
 31
0.0
  0
LINE
  5
329
330
1F
100
AcDbEntity
  8
0
  6
Continuous
 62
     8
370
    18
100
AcDbLine
 10
435.2244929872
 20
421.1581318841
 30
0.0
 11
435.2134164288
 21
421.0575674202
 31
0.0
  0
ENDSEC
  0
SECTION
  2
OBJECTS
  0
DICTIONARY
  5
C
330
0
100
AcDbDictionary
281
     1
  3
ACAD_GROUP
350
D
  3
ACAD_LAYOUT
350
1A
  3
ACAD_MLINESTYLE
350
17
  3
ACAD_PLOTSETTINGS
350
19
  3
ACAD_PLOTSTYLENAME
350
E
  3
ACAD_SCALELIST
350
47
  3
DWGPROPS
350
32A
  0
DICTIONARY
  5
D
102
{ACAD_REACTORS
330
C
102
}
330
C
100
AcDbDictionary
281
     1
  0
DICTIONARY
  5
1A
102
{ACAD_REACTORS
330
C
102
}
330
C
100
AcDbDictionary
281
     1
  3
Layout1
350
1E
  3
Layout2
350
26
  3
Model
350
22
  0
DICTIONARY
  5
17
102
{ACAD_REACTORS
330
C
102
}
330
C
100
AcDbDictionary
281
     1
  3
Standard
350
18
  0
DICTIONARY
  5
19
102
{ACAD_REACTORS
330
C
102
}
330
C
100
AcDbDictionary
281
     1
  0
ACDBDICTIONARYWDFLT
  5
E
102
{ACAD_REACTORS
330
C
102
}
330
C
100
AcDbDictionary
281
     1
  3
Normal
350
F
100
AcDbDictionaryWithDefault
340
F
  0
DICTIONARY
  5
47
102
{ACAD_REACTORS
330
C
102
}
330
C
100
AcDbDictionary
281
     1
  3
A0
350
48
  3
A1
350
49
  3
A2
350
4A
  3
A3
350
4B
  3
A4
350
4C
  3
A5
350
4D
  3
A6
350
4E
  3
A7
350
4F
  3
A8
350
50
  3
A9
350
51
  3
B0
350
52
  3
B1
350
53
  3
B2
350
54
  3
B3
350
55
  3
B4
350
56
  3
B5
350
57
  3
B6
350
58
  0
XRECORD
  5
32A
102
{ACAD_REACTORS
330
C
102
}
330
C
100
AcDbXrecord
280
     1
  1
DWGPROPS COOKIE
  2

  3

  4

  6

  7

  8
fue-task
  9

300
=
301
=
302
=
303
=
304
=
305
=
306
=
307
=
308
=
309
=
 40
0.0
 41
2460300.399355139
 42
2460300.399356585
  1

 90
        0
  0
LAYOUT
  5
1E
102
{ACAD_REACTORS
330
1A
102
}
330
1A
100
AcDbPlotSettings
  1

  2
none_device
  4

  6

 40
0.0
 41
0.0
 42
0.0
 43
0.0
 44
0.0
 45
0.0
 46
0.0
 47
0.0
 48
0.0
 49
0.0
140
0.0
141
0.0
142
1.0
143
1.0
 70
   688
 72
     1
 73
     0
 74
     5
  7

 75
    16
147
1.0
148
0.0
149
0.0
100
AcDbLayout
  1
Layout1
 70
     1
 71
     1
 10
0.0
 20
0.0
 11
420.0
 21
297.0
 12
0.0
 22
0.0
 32
0.0
 14
1.0000000000E+20
 24
1.0000000000E+20
 34
1.0000000000E+20
 15
-1.0000000000E+20
 25
-1.0000000000E+20
 35
-1.0000000000E+20
146
0.0
 13
0.0
 23
0.0
 33
0.0
 16
1.0
 26
0.0
 36
0.0
 17
0.0
 27
1.0
 37
0.0
 76
     0
330
1B
  0
LAYOUT
  5
26
102
{ACAD_REACTORS
330
1A
102
}
330
1A
100
AcDbPlotSettings
  1

  2
none_device
  4

  6

 40
0.0
 41
0.0
 42
0.0
 43
0.0
 44
0.0
 45
0.0
 46
0.0
 47
0.0
 48
0.0
 49
0.0
140
0.0
141
0.0
142
1.0
143
1.0
 70
   688
 72
     1
 73
     0
 74
     5
  7

 75
    16
147
1.0
148
0.0
149
0.0
100
AcDbLayout
  1
Layout2
 70
     1
 71
     2
 10
0.0
 20
0.0
 11
0.0
 21
0.0
 12
0.0
 22
0.0
 32
0.0
 14
0.0
 24
0.0
 34
0.0
 15
0.0
 25
0.0
 35
0.0
146
0.0
 13
0.0
 23
0.0
 33
0.0
 16
1.0
 26
0.0
 36
0.0
 17
0.0
 27
1.0
 37
0.0
 76
     0
330
23
  0
LAYOUT
  5
22
102
{ACAD_REACTORS
330
1A
102
}
330
1A
100
AcDbPlotSettings
  1

  2
none_device
  4
Letter_(8.50_x_11.00_Inches)
  6

 40
6.35
 41
6.35
 42
6.35000508
 43
6.35000508
 44
215.9
 45
279.4
 46
0.0
 47
0.0
 48
0.0
 49
0.0
140
0.0
141
0.0
142
1.0
143
1.0
 70
  1712
 72
     1
 73
     0
 74
     0
  7

 75
     0
147
1.0
148
0.0
149
0.0
100
AcDbLayout
  1
Model
 70
     1
 71
     0
 10
0.0
 20
0.0
 11
594.0
 21
841.0
 12
0.0
 22
0.0
 32
0.0
 14
0.0
 24
0.0
 34
0.0
 15
594.0
 25
841.0
 35
0.0
146
0.0
 13
0.0
 23
0.0
 33
0.0
 16
1.0
 26
0.0
 36
0.0
 17
0.0
 27
1.0
 37
0.0
 76
     0
330
1F
331
29
  0
MLINESTYLE
  5
18
102
{ACAD_REACTORS
330
17
102
}
330
17
100
AcDbMlineStyle
  2
Standard
 70
     0
  3

 62
   256
 51
90.0
 52
90.0
 71
     2
 49
0.5
 62
   256
  6
BYLAYER
 49
-0.5
 62
   256
  6
BYLAYER
  0
ACDBPLACEHOLDER
  5
F
102
{ACAD_REACTORS
330
E
102
}
330
E
  0
SCALE
  5
48
102
{ACAD_REACTORS
330
47
102
}
330
47
100
AcDbScale
 70
     0
300
1:1
140
1.0
141
1.0
290
     1
  0
SCALE
  5
49
102
{ACAD_REACTORS
330
47
102
}
330
47
100
AcDbScale
 70
     0
300
1:2
140
1.0
141
2.0
290
     0
  0
SCALE
  5
4A
102
{ACAD_REACTORS
330
47
102
}
330
47
100
AcDbScale
 70
     0
300
1:4
140
1.0
141
4.0
290
     0
  0
SCALE
  5
4B
102
{ACAD_REACTORS
330
47
102
}
330
47
100
AcDbScale
 70
     0
300
1:5
140
1.0
141
5.0
290
     0
  0
SCALE
  5
4C
102
{ACAD_REACTORS
330
47
102
}
330
47
100
AcDbScale
 70
     0
300
1:8
140
1.0
141
8.0
290
     0
  0
SCALE
  5
4D
102
{ACAD_REACTORS
330
47
102
}
330
47
100
AcDbScale
 70
     0
300
1:10
140
1.0
141
10.0
290
     0
  0
SCALE
  5
4E
102
{ACAD_REACTORS
330
47
102
}
330
47
100
AcDbScale
 70
     0
300
1:16
140
1.0
141
16.0
290
     0
  0
SCALE
  5
4F
102
{ACAD_REACTORS
330
47
102
}
330
47
100
AcDbScale
 70
     0
300
1:20
140
1.0
141
20.0
290
     0
  0
SCALE
  5
50
102
{ACAD_REACTORS
330
47
102
}
330
47
100
AcDbScale
 70
     0
300
1:30
140
1.0
141
30.0
290
     0
  0
SCALE
  5
51
102
{ACAD_REACTORS
330
47
102
}
330
47
100
AcDbScale
 70
     0
300
1:40
140
1.0
141
40.0
290
     0
  0
SCALE
  5
52
102
{ACAD_REACTORS
330
47
102
}
330
47
100
AcDbScale
 70
     0
300
1:50
140
1.0
141
50.0
290
     0
  0
SCALE
  5
53
102
{ACAD_REACTORS
330
47
102
}
330
47
100
AcDbScale
 70
     0
300
1:100
140
1.0
141
100.0
290
     0
  0
SCALE
  5
54
102
{ACAD_REACTORS
330
47
102
}
330
47
100
AcDbScale
 70
     0
300
2:1
140
2.0
141
1.0
290
     0
  0
SCALE
  5
55
102
{ACAD_REACTORS
330
47
102
}
330
47
100
AcDbScale
 70
     0
300
4:1
140
4.0
141
1.0
290
     0
  0
SCALE
  5
56
102
{ACAD_REACTORS
330
47
102
}
330
47
100
AcDbScale
 70
     0
300
8:1
140
8.0
141
1.0
290
     0
  0
SCALE
  5
57
102
{ACAD_REACTORS
330
47
102
}
330
47
100
AcDbScale
 70
     0
300
10:1
140
10.0
141
1.0
290
     0
  0
SCALE
  5
58
102
{ACAD_REACTORS
330
47
102
}
330
47
100
AcDbScale
 70
     0
300
100:1
140
100.0
141
1.0
290
     0
  0
ENDSEC
  0
EOF
