  0
SECTION
  2
HEADER
  9
$ACADVER
  1
AC1015
  9
$ACADMAINTVER
 70
     6
  9
$DWGCODEPAGE
  3
ANSI_1252
  9
$INSBASE
 10
0.0
 20
0.0
 30
0.0
  9
$EXTMIN
 10
0.0
 20
0.0
 30
0.0
  9
$EXTMAX
 10
594.0
 20
841.0
 30
0.0
  9
$LIMMIN
 10
0.0
 20
0.0
  9
$LIMMAX
 10
594.0
 20
841.0
  9
$ORTHOMODE
 70
     0
  9
$REGENMODE
 70
     1
  9
$FILLMODE
 70
     1
  9
$QTEXTMODE
 70
     0
  9
$MIRRTEXT
 70
     1
  9
$LTSCALE
 40
1.0
  9
$ATTMODE
 70
     1
  9
$TEXTSIZE
 40
10.0
  9
$TRACEWID
 40
1.0
  9
$TEXTSTYLE
  7
Standard
  9
$CLAYER
  8
0
  9
$CELTYPE
  6
ByLayer
  9
$CECOLOR
 62
   256
  9
$CELTSCALE
 40
1.0
  9
$DISPSILH
 70
     0
  9
$DIMSCALE
 40
1.0
  9
$DIMASZ
 40
2.5
  9
$DIMEXO
 40
0.0
  9
$DIMDLI
 40
3.75
  9
$DIMRND
 40
0.0
  9
$DIMDLE
 40
0.0
  9
$DIMEXE
 40
1.0
  9
$DIMTP
 40
0.0
  9
$DIMTM
 40
0.0
  9
$DIMTXT
 40
3.5
  9
$DIMCEN
 40
2.5
  9
$DIMTSZ
 40
0.0
  9
$DIMTOL
 70
     0
  9
$DIMLIM
 70
     0
  9
$DIMTIH
 70
     1
  9
$DIMTOH
 70
     1
  9
$DIMSE1
 70
     0
  9
$DIMSE2
 70
     0
  9
$DIMTAD
 70
     1
  9
$DIMZIN
 70
     0
  9
$DIMBLK
  1

  9
$DIMASO
 70
     1
  9
$DIMSHO
 70
     1
  9
$DIMPOST
  1

  9
$DIMAPOST
  1

  9
$DIMALT
 70
     0
  9
$DIMALTD
 70
     3
  9
$DIMALTF
 40
0.0393700787
  9
$DIMLFAC
 40
1.0
  9
$DIMTOFL
 70
     1
  9
$DIMTVP
 40
0.0
  9
$DIMTIX
 70
     0
  9
$DIMSOXD
 70
     0
  9
$DIMSAH
 70
     0
  9
$DIMBLK1
  1

  9
$DIMBLK2
  1

  9
$DIMSTYLE
  2
ISO-25
  9
$DIMCLRD
 70
     0
  9
$DIMCLRE
 70
     0
  9
$DIMCLRT
 70
     0
  9
$DIMTFAC
 40
1.0
  9
$DIMGAP
 40
1.5
  9
$DIMJUST
 70
     0
  9
$DIMSD1
 70
     0
  9
$DIMSD2
 70
     0
  9
$DIMTOLJ
 70
     0
  9
$DIMTZIN
 70
     0
  9
$DIMALTZ
 70
     0
  9
$DIMALTTZ
 70
     0
  9
$DIMUPT
 70
     0
  9
$DIMDEC
 70
     2
  9
$DIMTDEC
 70
     2
  9
$DIMALTU
 70
     2
  9
$DIMALTTD
 70
     3
  9
$DIMTXSTY
  7
Standard
  9
$DIMAUNIT
 70
     0
  9
$DIMADEC
 70
     2
  9
$DIMALTRND
 40
0.0
  9
$DIMAZIN
 70
     0
  9
$DIMDSEP
 70
    44
  9
$DIMATFIT
 70
     3
  9
$DIMFRAC
 70
     0
  9
$DIMLDRBLK
  1

  9
$DIMLUNIT
 70
     2
  9
$DIMLWD
 70
    -2
  9
$DIMLWE
 70
    -2
  9
$DIMTMOVE
 70
     0
  9
$LUNITS
 70
     2
  9
$LUPREC
 70
     2
  9
$SKETCHINC
 40
1.0
  9
$FILLETRAD
 40
10.0
  9
$AUNITS
 70
     0
  9
$AUPREC
 70
     2
  9
$MENU
  1
.
  9
$ELEVATION
 40
0.0
  9
$PELEVATION
 40
0.0
  9
$THICKNESS
 40
0.0
  9
$LIMCHECK
 70
     0
  9
$CHAMFERA
 40
0.0
  9
$CHAMFERB
 40
0.0
  9
$CHAMFERC
 40
0.0
  9
$CHAMFERD
 40
0.0
  9
$SKPOLY
 70
     0
  9
$TDCREATE
 40
2457737.482600197
  9
$TDUCREATE
 40
2457737.44093353
  9
$TDUPDATE
 40
2457737.482603808
  9
$TDUUPDATE
 40
2457737.440937141
  9
$TDINDWG
 40
0.0000000116
  9
$TDUSRTIMER
 40
0.0000000116
  9
$USRTIMER
 70
     1
  9
$ANGBASE
 50
0.0
  9
$ANGDIR
 70
     0
  9
$PDMODE
 70
     0
  9
$PDSIZE
 40
-1.0
  9
$PLINEWID
 40
0.0
  9
$SPLFRAME
 70
     0
  9
$SPLINETYPE
 70
     6
  9
$SPLINESEGS
 70
     8
  9
$HANDSEED
  5
124
  9
$SURFTAB1
 70
     6
  9
$SURFTAB2
 70
     6
  9
$SURFTYPE
 70
     6
  9
$SURFU
 70
     6
  9
$SURFV
 70
     6
  9
$UCSBASE
  2

  9
$UCSNAME
  2

  9
$UCSORG
 10
0.0
 20
0.0
 30
0.0
  9
$UCSXDIR
 10
1.0
 20
0.0
 30
0.0
  9
$UCSYDIR
 10
0.0
 20
1.0
 30
0.0
  9
$UCSORTHOREF
  2

  9
$UCSORTHOVIEW
 70
     0
  9
$UCSORGTOP
 10
0.0
 20
0.0
 30
0.0
  9
$UCSORGBOTTOM
 10
0.0
 20
0.0
 30
0.0
  9
$UCSORGLEFT
 10
0.0
 20
0.0
 30
0.0
  9
$UCSORGRIGHT
 10
0.0
 20
0.0
 30
0.0
  9
$UCSORGFRONT
 10
0.0
 20
0.0
 30
0.0
  9
$UCSORGBACK
 10
0.0
 20
0.0
 30
0.0
  9
$PUCSBASE
  2

  9
$PUCSNAME
  2

  9
$PUCSORG
 10
0.0
 20
0.0
 30
0.0
  9
$PUCSXDIR
 10
1.0
 20
0.0
 30
0.0
  9
$PUCSYDIR
 10
0.0
 20
1.0
 30
0.0
  9
$PUCSORTHOREF
  2

  9
$PUCSORTHOVIEW
 70
     0
  9
$PUCSORGTOP
 10
0.0
 20
0.0
 30
0.0
  9
$PUCSORGBOTTOM
 10
0.0
 20
0.0
 30
0.0
  9
$PUCSORGLEFT
 10
0.0
 20
0.0
 30
0.0
  9
$PUCSORGRIGHT
 10
0.0
 20
0.0
 30
0.0
  9
$PUCSORGFRONT
 10
0.0
 20
0.0
 30
0.0
  9
$PUCSORGBACK
 10
0.0
 20
0.0
 30
0.0
  9
$USERI1
 70
     0
  9
$USERI2
 70
     0
  9
$USERI3
 70
     0
  9
$USERI4
 70
     0
  9
$USERI5
 70
     0
  9
$USERR1
 40
0.0
  9
$USERR2
 40
0.0
  9
$USERR3
 40
0.0
  9
$USERR4
 40
0.0
  9
$USERR5
 40
0.0
  9
$WORLDVIEW
 70
     1
  9
$SHADEDGE
 70
     3
  9
$SHADEDIF
 70
    70
  9
$TILEMODE
 70
     1
  9
$MAXACTVP
 70
    64
  9
$PINSBASE
 10
0.0
 20
0.0
 30
0.0
  9
$PLIMCHECK
 70
     0
  9
$PEXTMIN
 10
1.0000000000E+20
 20
1.0000000000E+20
 30
1.0000000000E+20
  9
$PEXTMAX
 10
-1.0000000000E+20
 20
-1.0000000000E+20
 30
-1.0000000000E+20
  9
$PLIMMIN
 10
0.0
 20
0.0
  9
$PLIMMAX
 10
420.0
 20
297.0
  9
$UNITMODE
 70
     0
  9
$VISRETAIN
 70
     1
  9
$PLINEGEN
 70
     0
  9
$PSLTSCALE
 70
     1
  9
$TREEDEPTH
 70
  3020
  9
$CMLSTYLE
  2
Standard
  9
$CMLJUST
 70
     0
  9
$CMLSCALE
 40
20.0
  9
$PROXYGRAPHICS
 70
     1
  9
$MEASUREMENT
 70
     1
  9
$CELWEIGHT
370
    -1
  9
$ENDCAPS
280
     0
  9
$JOINSTYLE
280
     0
  9
$LWDISPLAY
290
     1
  9
$INSUNITS
 70
     4
  9
$HYPERLINKBASE
  1

  9
$STYLESHEET
  1

  9
$XEDIT
290
     1
  9
$CEPSNTYPE
380
     0
  9
$PSTYLEMODE
290
     1
  9
$FINGERPRINTGUID
  2
{82DC7C9E-3740-44DC-9430-E042F9F469D0}
  9
$VERSIONGUID
  2
{FAEB1C32-E019-11D5-929B-00C0DF256EC4}
  9
$EXTNAMES
290
     1
  9
$PSVPSCALE
 40
0.0
  9
$OLESTARTUP
290
     0
  0
ENDSEC
  0
SECTION
  2
CLASSES
  0
CLASS
  1
ACDBDICTIONARYWDFLT
  2
AcDbDictionaryWithDefault
  3
ObjectDBX Classes
 90
        0
280
     0
281
     0
  0
CLASS
  1
VISUALSTYLE
  2
AcDbVisualStyle
  3
ObjectDBX Classes
 90
     4095
280
     0
281
     0
  0
CLASS
  1
MATERIAL
  2
AcDbMaterial
  3
ObjectDBX Classes
 90
     1153
280
     0
281
     0
  0
CLASS
  1
SCALE
  2
AcDbScale
  3
ObjectDBX Classes
 90
     1153
280
     0
281
     0
  0
CLASS
  1
TABLESTYLE
  2
AcDbTableStyle
  3
ObjectDBX Classes
 90
     4095
280
     0
281
     0
  0
CLASS
  1
MLEADERSTYLE
  2
AcDbMLeaderStyle
  3
ACDB_MLEADERSTYLE_CLASS
 90
     4095
280
     0
281
     0
  0
CLASS
  1
SUN
  2
AcDbSun
  3
SCENEOE
 90
     1153
280
     0
281
     0
  0
CLASS
  1
ACDBPLACEHOLDER
  2
AcDbPlaceHolder
  3
ObjectDBX Classes
 90
        0
280
     0
281
     0
  0
CLASS
  1
LAYOUT
  2
AcDbLayout
  3
ObjectDBX Classes
 90
        0
280
     0
281
     0
  0
ENDSEC
  0
SECTION
  2
TABLES
  0
TABLE
  2
VPORT
  5
8
330
0
100
AcDbSymbolTable
 70
     1
  0
VPORT
  5
29
330
8
100
AcDbSymbolTableRecord
100
AcDbViewportTableRecord
  2
*Active
 70
     0
 10
0.0
 20
0.0
 11
1.0
 21
1.0
 12
297.0
 22
420.5
 13
0.0
 23
0.0
 14
10.0
 24
10.0
 15
10.0
 25
10.0
 16
0.0
 26
0.0
 36
1.0
 17
0.0
 27
0.0
 37
0.0
 40
841.0
 41
0.7063020214
 42
50.0
 43
0.0
 44
0.0
 50
0.0
 51
0.0
 71
     0
 72
  2000
 73
     1
 74
     3
 75
     0
 76
     0
 77
     0
 78
     0
281
     0
 65
     1
110
0.0
120
0.0
130
0.0
111
1.0
121
0.0
131
0.0
112
0.0
122
1.0
132
0.0
 79
     0
146
0.0
  0
ENDTAB
  0
TABLE
  2
LTYPE
  5
5
330
0
100
AcDbSymbolTable
 70
     6
  0
LTYPE
  5
14
330
5
100
AcDbSymbolTableRecord
100
AcDbLinetypeTableRecord
  2
ByBlock
 70
     0
  3

 72
    65
 73
     0
 40
0.0
  0
LTYPE
  5
15
330
5
100
AcDbSymbolTableRecord
100
AcDbLinetypeTableRecord
  2
ByLayer
 70
     0
  3

 72
    65
 73
     0
 40
0.0
  0
LTYPE
  5
16
330
5
100
AcDbSymbolTableRecord
100
AcDbLinetypeTableRecord
  2
Continuous
 70
     0
  3
Solid line
 72
    65
 73
     0
 40
0.0
  0
LTYPE
  5
6E
330
5
100
AcDbSymbolTableRecord
100
AcDbLinetypeTableRecord
  2
HIDDEN
 70
     0
  3
Hidden __ __ __ __ __ __ __ __ __ __ __ __ __ __
 72
    65
 73
     2
 40
1.905
 49
1.27
 74
     0
 49
-0.635
 74
     0
  0
LTYPE
  5
6F
330
5
100
AcDbSymbolTableRecord
100
AcDbLinetypeTableRecord
  2
PHANTOM
 70
     0
  3
Phantom ______  __  __  ______  __  __  ______
 72
    65
 73
     6
 40
12.7
 49
6.35
 74
     0
 49
-1.27
 74
     0
 49
1.27
 74
     0
 49
-1.27
 74
     0
 49
1.27
 74
     0
 49
-1.27
 74
     0
  0
LTYPE
  5
70
330
5
100
AcDbSymbolTableRecord
100
AcDbLinetypeTableRecord
  2
CENTER
 70
     0
  3
Center ____ _ ____ _ ____ _ ____ _ ____ _ ____
 72
    65
 73
     4
 40
10.16
 49
6.35
 74
     0
 49
-1.27
 74
     0
 49
1.27
 74
     0
 49
-1.27
 74
     0
  0
LTYPE
  5
71
330
5
100
AcDbSymbolTableRecord
100
AcDbLinetypeTableRecord
  2
CENTERX2
 70
     0
  3
Center (2x) ________  __  ________  __  _____
 72
    65
 73
     4
 40
20.32
 49
12.7
 74
     0
 49
-2.54
 74
     0
 49
2.54
 74
     0
 49
-2.54
 74
     0
  0
LTYPE
  5
72
330
5
100
AcDbSymbolTableRecord
100
AcDbLinetypeTableRecord
  2
DOT2
 70
     0
  3
Dot (.5x) ........................................
 72
    65
 73
     2
 40
0.635
 49
0.0
 74
     0
 49
-0.635
 74
     0
  0
ENDTAB
  0
TABLE
  2
LAYER
  5
2
330
0
100
AcDbSymbolTable
 70
     1
  0
LAYER
  5
10
330
2
100
AcDbSymbolTableRecord
100
AcDbLayerTableRecord
  2
0
 70
     0
 62
     7
  6
Continuous
370
    -3
390
F
  0
ENDTAB
  0
TABLE
  2
STYLE
  5
3
330
0
100
AcDbSymbolTable
 70
     3
  0
STYLE
  5
11
330
3
100
AcDbSymbolTableRecord
100
AcDbTextStyleTableRecord
  2
Standard
 70
     0
 40
0.0
 41
1.0
 50
0.0
 71
     0
 42
10.0
  3
txt
  4

  0
STYLE
  5
76
330
3
100
AcDbSymbolTableRecord
100
AcDbTextStyleTableRecord
  2
SLDTEXTSTYLE0
 70
     0
 40
0.0
 41
0.96
 50
0.0
 71
     0
 42
10.0
  3
ISOCP3
  4

  0
STYLE
  5
8D
330
3
100
AcDbSymbolTableRecord
100
AcDbTextStyleTableRecord
  2
SLDTEXTSTYLE1
 70
     0
 40
0.0
 41
0.605
 50
0.0
 71
     0
 42
10.0
  3
TXT
  4

  0
ENDTAB
  0
TABLE
  2
VIEW
  5
6
330
0
100
AcDbSymbolTable
 70
     0
  0
ENDTAB
  0
TABLE
  2
UCS
  5
7
330
0
100
AcDbSymbolTable
 70
     0
  0
ENDTAB
  0
TABLE
  2
APPID
  5
9
330
0
100
AcDbSymbolTable
 70
     1
  0
APPID
  5
12
330
9
100
AcDbSymbolTableRecord
100
AcDbRegAppTableRecord
  2
ACAD
 70
     0
  0
ENDTAB
  0
TABLE
  2
DIMSTYLE
  5
A
330
0
100
AcDbSymbolTable
 70
     2
100
AcDbDimStyleTable
  0
DIMSTYLE
105
27
330
A
100
AcDbSymbolTableRecord
100
AcDbDimStyleTableRecord
  2
ISO-25
 70
     0
 41
2.5
 42
0.625
 43
3.75
 44
1.25
 73
     0
 74
     0
 77
     1
 78
     8
140
2.5
141
2.5
143
0.0393700787
147
0.625
171
     3
172
     1
178
     0
271
     2
272
     2
274
     3
278
    44
283
     0
284
     8
340
11
  0
DIMSTYLE
105
77
102
{ACAD_REACTORS
330
75
330
82
102
}
330
A
100
AcDbSymbolTableRecord
100
AcDbDimStyleTableRecord
  2
SLDDIMSTYLE0
 70
     0
 41
2.5
 44
0.0
 45
0.000000001
 73
     0
 74
     0
 77
     1
 78
    12
 79
     3
140
6.0
147
1.5
173
     1
178
     0
271
     2
272
     2
276
     2
284
    12
340
76
  0
ENDTAB
  0
TABLE
  2
BLOCK_RECORD
  5
1
330
0
100
AcDbSymbolTable
 70
     3
  0
BLOCK_RECORD
  5
1F
330
1
100
AcDbSymbolTableRecord
100
AcDbBlockTableRecord
  2
*Model_Space
340
22
  0
BLOCK_RECORD
  5
1B
330
1
100
AcDbSymbolTableRecord
100
AcDbBlockTableRecord
  2
*Paper_Space
340
1E
  0
BLOCK_RECORD
  5
23
330
1
100
AcDbSymbolTableRecord
100
AcDbBlockTableRecord
  2
*Paper_Space0
340
26
  0
BLOCK_RECORD
  5
78
330
1
100
AcDbSymbolTableRecord
100
AcDbBlockTableRecord
  2
_D
340
0
  0
BLOCK_RECORD
  5
83
330
1
100
AcDbSymbolTableRecord
100
AcDbBlockTableRecord
  2
_D_1
340
0
  0
ENDTAB
  0
ENDSEC
  0
SECTION
  2
BLOCKS
  0
BLOCK
  5
20
330
1F
100
AcDbEntity
  8
0
100
AcDbBlockBegin
  2
*Model_Space
 70
     0
 10
0.0
 20
0.0
 30
0.0
  3
*Model_Space
  1

  0
ENDBLK
  5
21
330
1F
100
AcDbEntity
  8
0
100
AcDbBlockEnd
  0
BLOCK
  5
1C
330
1B
100
AcDbEntity
 67
     1
  8
0
100
AcDbBlockBegin
  2
*Paper_Space
 70
     0
 10
0.0
 20
0.0
 30
0.0
  3
*Paper_Space
  1

  0
ENDBLK
  5
1D
330
1B
100
AcDbEntity
 67
     1
  8
0
100
AcDbBlockEnd
  0
BLOCK
  5
24
330
23
100
AcDbEntity
  8
0
100
AcDbBlockBegin
  2
*Paper_Space0
 70
     0
 10
0.0
 20
0.0
 30
0.0
  3
*Paper_Space0
  1

  0
ENDBLK
  5
25
330
23
100
AcDbEntity
  8
0
100
AcDbBlockEnd
  0
BLOCK
  5
79
330
78
100
AcDbEntity
  8
0
100
AcDbBlockBegin
  2
_D
 70
     0
 10
0.0
 20
0.0
 30
0.0
  3
_D
  1

  0
SOLID
  5
7B
330
78
100
AcDbEntity
  8
0
  6
Continuous
 62
     7
370
    18
100
AcDbTrace
 10
42.7614395004
 20
152.0299240879
 30
0.0
 11
42.4614395004
 21
149.5299240879
 31
0.0
 12
43.0614395004
 22
149.5299240879
 32
0.0
 13
43.0614395004
 23
149.5299240879
 33
0.0
  0
SOLID
  5
7C
330
78
100
AcDbEntity
  8
0
  6
Continuous
 62
     7
370
    18
100
AcDbTrace
 10
42.7614395004
 20
52.0299240879
 30
0.0
 11
43.0614395004
 21
54.5299240879
 31
0.0
 12
42.4614395004
 22
54.5299240879
 32
0.0
 13
42.4614395004
 23
54.5299240879
 33
0.0
  0
LINE
  5
7D
330
78
100
AcDbEntity
  8
0
  6
Continuous
 62
     7
370
    18
100
AcDbLine
 10
56.6850079902
 20
152.0299240879
 30
0.0
 11
41.7614395004
 21
152.0299240879
 31
0.0
  0
LINE
  5
7E
330
78
100
AcDbEntity
  8
0
  6
Continuous
 62
     7
370
    18
100
AcDbLine
 10
56.6850079902
 20
52.0299240879
 30
0.0
 11
41.7614395004
 21
52.0299240879
 31
0.0
  0
LINE
  5
7F
330
78
100
AcDbEntity
  8
0
  6
Continuous
 62
     7
370
    18
100
AcDbLine
 10
42.7614395004
 20
152.0299240879
 30
0.0
 11
42.7614395004
 21
52.0299240879
 31
0.0
  0
MTEXT
  5
80
330
78
100
AcDbEntity
  8
0
  6
Continuous
 62
     7
370
    18
100
AcDbMText
 10
35.0270332946
 20
94.3680541463
 30
0.0
 40
6.0
 41
0.0
 71
     1
 72
     1
  1
100
  7
SLDTEXTSTYLE0
 11
-7.044195017643634E-15
 21
1.0
 31
0.0
 73
     1
 44
1.0
  0
MTEXT
  5
81
330
78
100
AcDbEntity
  8
0
  6
Continuous
 62
     7
370
    18
100
AcDbMText
 10
35.0270332946
 20
105.7430548466
 30
0.0
 40
6.0
 41
0.0
 71
     1
 72
     1
  1
mm
  7
SLDTEXTSTYLE0
 11
-7.044195017643634E-15
 21
1.0
 31
0.0
 73
     1
 44
1.0
  0
ENDBLK
  5
7A
330
78
100
AcDbEntity
  8
0
100
AcDbBlockEnd
  0
BLOCK
  5
84
330
83
100
AcDbEntity
  8
0
100
AcDbBlockBegin
  2
_D_1
 70
     0
 10
0.0
 20
0.0
 30
0.0
  3
_D_1
  1

  0
SOLID
  5
86
330
83
100
AcDbEntity
  8
0
  6
Continuous
 62
     7
370
    18
100
AcDbTrace
 10
56.6850079902
 20
38.4602342313
 30
0.0
 11
59.1850079902
 21
38.1602342313
 31
0.0
 12
59.1850079902
 22
38.7602342313
 32
0.0
 13
59.1850079902
 23
38.7602342313
 33
0.0
  0
SOLID
  5
87
330
83
100
AcDbEntity
  8
0
  6
Continuous
 62
     7
370
    18
100
AcDbTrace
 10
156.6850079902
 20
38.4602342313
 30
0.0
 11
154.1850079902
 21
38.7602342313
 31
0.0
 12
154.1850079902
 22
38.1602342313
 32
0.0
 13
154.1850079902
 23
38.1602342313
 33
0.0
  0
LINE
  5
88
330
83
100
AcDbEntity
  8
0
  6
Continuous
 62
     7
370
    18
100
AcDbLine
 10
56.6850079902
 20
52.0299240879
 30
0.0
 11
56.6850079902
 21
37.4602342313
 31
0.0
  0
LINE
  5
89
330
83
100
AcDbEntity
  8
0
  6
Continuous
 62
     7
370
    18
100
AcDbLine
 10
156.6850079902
 20
52.0299240879
 30
0.0
 11
156.6850079902
 21
37.4602342313
 31
0.0
  0
LINE
  5
8A
330
83
100
AcDbEntity
  8
0
  6
Continuous
 62
     7
370
    18
100
AcDbLine
 10
56.6850079902
 20
38.4602342313
 30
0.0
 11
156.6850079902
 21
38.4602342313
 31
0.0
  0
MTEXT
  5
8B
330
83
100
AcDbEntity
  8
0
  6
Continuous
 62
     7
370
    18
100
AcDbMText
 10
93.9626484861
 20
46.1946404371
 30
0.0
 40
6.0
 41
0.0
 71
     1
 72
     1
  1
100
  7
SLDTEXTSTYLE0
 73
     1
 44
1.0
  0
MTEXT
  5
8C
330
83
100
AcDbEntity
  8
0
  6
Continuous
 62
     7
370
    18
100
AcDbMText
 10
105.3376491864
 20
46.1946404371
 30
0.0
 40
6.0
 41
0.0
 71
     1
 72
     1
  1
mm
  7
SLDTEXTSTYLE0
 73
     1
 44
1.0
  0
ENDBLK
  5
85
330
83
100
AcDbEntity
  8
0
100
AcDbBlockEnd
  0
ENDSEC
  0
SECTION
  2
ENTITIES
  0
LINE
  5
73
330
1F
100
AcDbEntity
  8
0
  6
Continuous
 62
     7
370
    18
100
AcDbLine
 10
56.6850079902
 20
152.0299240879
 30
0.0
 11
56.6850079902
 21
52.0299240879
 31
0.0
  0
LINE
  5
74
330
1F
100
AcDbEntity
  8
0
  6
Continuous
 62
     7
370
    18
100
AcDbLine
 10
56.6850079902
 20
52.0299240879
 30
0.0
 11
156.6850079902
 21
52.0299240879
 31
0.0
  0
DIMENSION
  5
75
330
1F
100
AcDbEntity
  8
0
  6
Continuous
 62
     7
370
    18
100
AcDbDimension
  2
_D
 10
42.7614395004
 20
52.0299240879
 30
0.0
 11
42.7614395004
 21
105.4472211621
 31
0.0
 70
   160
  1
<>mm
 71
     2
 42
-1.0
  3
SLDDIMSTYLE0
100
AcDbAlignedDimension
 13
56.6850079902
 23
152.0299240879
 33
0.0
 14
56.6850079902
 24
52.0299240879
 34
0.0
 50
90.0
100
AcDbRotatedDimension
  0
DIMENSION
  5
82
330
1F
100
AcDbEntity
  8
0
  6
Continuous
 62
     7
370
    18
100
AcDbDimension
  2
_D_1
 10
156.6850079902
 20
38.4602342313
 30
0.0
 11
105.0418155019
 21
38.4602342313
 31
0.0
 70
   160
  1
<>mm
 71
     2
 42
-1.0
  3
SLDDIMSTYLE0
100
AcDbAlignedDimension
 13
56.6850079902
 23
52.0299240879
 33
0.0
 14
156.6850079902
 24
52.0299240879
 34
0.0
100
AcDbRotatedDimension
  0
MTEXT
  5
8E
330
1F
100
AcDbEntity
  8
0
  6
Continuous
 62
     7
370
     0
100
AcDbMText
 10
258.3816995391
 20
48.3174557666
 30
0.0
 40
10.0
 41
0.0
 71
     1
 72
     1
  1
53 655 05 75
  7
SLDTEXTSTYLE1
 73
     1
 44
1.0
  0
MTEXT
  5
8F
330
1F
100
AcDbEntity
  8
0
  6
Continuous
 62
     7
370
     0
100
AcDbMText
 10
412.8252631579
 20
48.4342449499
 30
0.0
 40
10.0
 41
0.0
 71
     1
 72
     1
  1
KLUDI GmbH & Co KG
  7
SLDTEXTSTYLE1
 73
     1
 44
1.0
  0
SPLINE
  5
90
330
1F
100
AcDbEntity
  8
0
  6
Continuous
 62
     7
370
    25
100
AcDbSpline
210
0.0
220
0.0
230
1.0
 70
     8
 71
     3
 72
    28
 73
    24
 74
     0
 42
0.000000001
 43
0.00000001
 40
0.0
 40
0.0
 40
0.0
 40
0.0
 40
0.0510963637966588
 40
0.109865257276328
 40
0.1532850731974633
 40
0.1879171936398753
 40
0.218962783089649
 40
0.2463383667418334
 40
0.2714899893899917
 40
0.2979906918055833
 40
0.3246328698358046
 40
0.3515290147472747
 40
0.3776672416353378
 40
0.4034812067246292
 40
0.4366333759559296
 40
0.4721331224786304
 40
0.5118309430546844
 40
0.5585439917521915
 40
0.6223310052128325
 40
0.7339893373672057
 40
0.8503827684128195
 40
0.9984567081690957
 40
1.0
 40
1.0
 40
1.0
 40
1.0
 10
183.5291337749113
 20
284.5940397175111
 30
0.0
 10
184.6413334282801
 20
284.5811243983445
 30
0.0
 10
187.0327384516644
 20
284.5533544210384
 30
0.0
 10
190.368153509159
 20
284.6845633504549
 30
0.0
 10
193.3366123784278
 20
284.9274127987493
 30
0.0
 10
195.6872757079459
 20
285.2695933795607
 30
0.0
 10
197.6569834169183
 20
285.7414584521685
 30
0.0
 10
199.371222725582
 20
286.3440606026328
 30
0.0
 10
200.9071862177061
 20
287.1106590621365
 30
0.0
 10
202.2996054967343
 20
288.0793581230637
 30
0.0
 10
203.5635038763255
 20
289.2559608677233
 30
0.0
 10
204.6396363809793
 20
290.5913001669278
 30
0.0
 10
205.4846049564334
 20
292.0520835829943
 30
0.0
 10
206.2415595056316
 20
293.6957171451724
 30
0.0
 10
206.904533116627
 20
295.5891364836061
 30
0.0
 10
207.4621526650106
 20
297.8133537010352
 30
0.0
 10
207.9009887140753
 20
300.3492501582954
 30
0.0
 10
208.2713327743966
 20
303.488914370049
 30
0.0
 10
208.7580078449163
 20
308.1335362945664
 30
0.0
 10
209.2173396694032
 20
314.2536777278261
 30
0.0
 10
209.5913471074682
 20
322.1493768513331
 30
0.0
 10
209.8450007603461
 20
327.7310710103912
 30
0.0
 10
209.9254447768803
 20
330.874367143316
 30
0.0
 10
209.926274551581
 20
330.9067900346674
 30
0.0
  0
SPLINE
  5
91
330
1F
100
AcDbEntity
  8
0
  6
Continuous
 62
     7
370
    25
100
AcDbSpline
210
0.0
220
0.0
230
1.0
 70
     8
 71
     3
 72
    28
 73
    24
 74
     0
 42
0.000000001
 43
0.00000001
 40
0.0
 40
0.0
 40
0.0
 40
0.0
 40
0.0110726395714816
 40
0.1539650228757747
 40
0.2816120962262401
 40
0.3892295019247414
 40
0.4528181575095377
 40
0.5048459299100094
 40
0.5441152265713797
 40
0.5794070198716466
 40
0.6118926351990515
 40
0.6381239984118576
 40
0.6633873772932896
 40
0.6898857494687379
 40
0.7166494318508901
 40
0.7434591603462827
 40
0.7692272404156845
 40
0.7963522409601352
 40
0.8277056298758578
 40
0.862998082148427
 40
0.9062241830498512
 40
0.9656912529389211
 40
1.0
 40
1.0
 40
1.0
 40
1.0
 10
157.1354669914948
 20
330.9068189056673
 30
0.0
 10
157.1424877621784
 20
330.674238226104
 30
0.0
 10
157.2401115592812
 20
327.440204514607
 30
0.0
 10
157.4873483023735
 20
321.5301523053127
 30
0.0
 10
157.8779690975169
 20
313.5921244432434
 30
0.0
 10
158.3780655615207
 20
307.3265878421753
 30
0.0
 10
158.8732649866623
 20
302.6609554591174
 30
0.0
 10
159.2896163592566
 20
299.4240582062966
 30
0.0
 10
159.8231770618401
 20
296.802461677006
 30
0.0
 10
160.4612845444458
 20
294.6247890374653
 30
0.0
 10
161.2161705959368
 20
292.7744259174002
 30
0.0
 10
162.0425039513446
 20
291.1855715525461
 30
0.0
 10
163.0076764808485
 20
289.8155407380293
 30
0.0
 10
164.169583676672
 20
288.5858740408336
 30
0.0
 10
165.5251451178897
 20
287.508658190682
 30
0.0
 10
167.0142604802453
 20
286.6427619216739
 30
0.0
 10
168.6209623229902
 20
285.9947860122654
 30
0.0
 10
170.3805035948249
 20
285.4843169667271
 30
0.0
 10
172.3858690927701
 20
285.1013378098691
 30
0.0
 10
174.7623651133818
 20
284.8308216409364
 30
0.0
 10
177.7592073532105
 20
284.6299993560414
 30
0.0
 10
180.7415677645134
 20
284.5513139681274
 30
0.0
 10
182.7825389202638
 20
284.5794750090122
 30
0.0
 10
183.5292470313627
 20
284.5897779854097
 30
0.0
  0
SPLINE
  5
92
330
1F
100
AcDbEntity
  8
0
  6
Continuous
 62
     7
370
    25
100
AcDbSpline
210
0.0
220
0.0
230
1.0
 70
     8
 71
     3
 72
    30
 73
    26
 74
     0
 42
0.000000001
 43
0.00000001
 40
0.0
 40
0.0
 40
0.0
 40
0.0
 40
0.0479044961356767
 40
0.1183056442414403
 40
0.190186272446167
 40
0.2566471600511184
 40
0.3184373254237173
 40
0.3764299816073867
 40
0.4314162634985715
 40
0.4797918825517142
 40
0.5187898947010979
 40
0.5534281069333329
 40
0.5851459292378118
 40
0.6135601743871444
 40
0.6388343800942292
 40
0.6649010018744985
 40
0.6913449356154029
 40
0.719005982112799
 40
0.7482297824838507
 40
0.7792034020463766
 40
0.8116194256073771
 40
0.8452732734664908
 40
0.8918018458766267
 40
0.9445365136574725
 40
1.0
 40
1.0
 40
1.0
 40
1.0
 10
210.236654563378
 20
341.2610677125015
 30
0.0
 10
210.2630042537287
 20
342.2681189569707
 30
0.0
 10
210.3280778343731
 20
344.7551474380479
 30
0.0
 10
210.3057614534193
 20
348.7817890643483
 30
0.0
 10
210.3101354456664
 20
353.2228532407835
 30
0.0
 10
210.2382465282646
 20
357.49676072017
 30
0.0
 10
210.0769165349797
 20
361.4772994048643
 30
0.0
 10
209.8089021046405
 20
365.2034854095767
 30
0.0
 10
209.4275926249404
 20
368.6209396252731
 30
0.0
 10
208.9860518661015
 20
371.6056241446464
 30
0.0
 10
208.4560547873542
 20
374.123254062857
 30
0.0
 10
207.8164601814011
 20
376.2422566341421
 30
0.0
 10
207.0502509227321
 20
378.0745929454911
 30
0.0
 10
206.1901312727747
 20
379.6378930777582
 30
0.0
 10
205.2064235394608
 20
380.9930631174659
 30
0.0
 10
204.053160571276
 20
382.154860166555
 30
0.0
 10
202.710901097161
 20
383.1818863749023
 30
0.0
 10
201.1860986207398
 20
384.0651802669807
 30
0.0
 10
199.4745142402278
 20
384.8026433802317
 30
0.0
 10
197.5906292680822
 20
385.3848240129483
 30
0.0
 10
195.556860849811
 20
385.7811311130954
 30
0.0
 10
193.1710654883843
 20
386.085564079926
 30
0.0
 10
190.3357635410804
 20
386.2872013913424
 30
0.0
 10
187.0278212500055
 20
386.36004964773
 30
0.0
 10
184.7145009292989
 20
386.3613665657945
 30
0.0
 10
183.528669146373
 20
386.3620416315355
 30
0.0
  0
SPLINE
  5
93
330
1F
100
AcDbEntity
  8
0
  6
Continuous
 62
     7
370
    25
100
AcDbSpline
210
0.0
220
0.0
230
1.0
 70
     8
 71
     3
 72
    31
 73
    27
 74
     0
 42
0.000000001
 43
0.00000001
 40
0.0
 40
0.0
 40
0.0
 40
0.0
 40
0.0116316820169927
 40
0.0797836988810286
 40
0.129696177290126
 40
0.1750937690261692
 40
0.2086412871906477
 40
0.240357436286653
 40
0.2705013719220278
 40
0.2988947113241333
 40
0.3257688420368799
 40
0.3514929694083112
 40
0.3765087420623358
 40
0.4021796308488818
 40
0.4296734502828345
 40
0.4618213893080808
 40
0.4965283689566434
 40
0.535367849407831
 40
0.5807538172485898
 40
0.6363730060520563
 40
0.6950716730735752
 40
0.7572702800857729
 40
0.8237587640722868
 40
0.8952923186691838
 40
0.9730705035718057
 40
1.0
 40
1.0
 40
1.0
 40
1.0
 10
183.5286531964223
 20
386.3595680387773
 30
0.0
 10
183.2799713397264
 20
386.3605127845434
 30
0.0
 10
181.5742198978613
 20
386.366992957541
 30
0.0
 10
178.8010784715177
 20
386.351084143867
 30
0.0
 10
175.3080746226083
 20
386.2103285720178
 30
0.0
 10
172.5673298017953
 20
385.9366341591472
 30
0.0
 10
170.2335679817748
 20
385.5615346421661
 30
0.0
 10
168.2679116575142
 20
385.0392209565496
 30
0.0
 10
166.4777115162185
 20
384.3535256087179
 30
0.0
 10
164.8749101330001
 20
383.5165723177693
 30
0.0
 10
163.4699571191823
 20
382.5428948662596
 30
0.0
 10
162.2626520505519
 20
381.442492605688
 30
0.0
 10
161.2401418486452
 20
380.2030966333163
 30
0.0
 10
160.3911954056576
 20
378.8060019249291
 30
0.0
 10
159.6154341391815
 20
377.198904862328
 30
0.0
 10
158.9446821716641
 20
375.3368190419056
 30
0.0
 10
158.3839529245709
 20
373.1851528238878
 30
0.0
 10
157.9318569032974
 20
370.7144217839377
 30
0.0
 10
157.5244171123628
 20
367.7740947960023
 30
0.0
 10
157.1792846898912
 20
364.385126676096
 30
0.0
 10
156.936690683991
 20
360.6185291873018
 30
0.0
 10
156.7987718090232
 20
356.6134280809108
 30
0.0
 10
156.7427317831782
 20
352.3398999906989
 30
0.0
 10
156.7582953621142
 20
347.7539777906638
 30
0.0
 10
156.7210932372811
 20
344.0254770894281
 30
0.0
 10
156.8080336714266
 20
341.8284049904949
 30
0.0
 10
156.830393655728
 20
341.263345727519
 30
0.0
  0
SPLINE
  5
94
330
1F
100
AcDbEntity
  8
0
  6
Continuous
 62
     7
370
    25
100
AcDbSpline
210
0.0
220
0.0
230
1.0
 70
     8
 71
     3
 72
    10
 73
     6
 74
     0
 42
0.000000001
 43
0.00000001
 40
0.0
 40
0.0
 40
0.0
 40
0.0
 40
0.3824067237558991
 40
0.8729521909628393
 40
1.0
 40
1.0
 40
1.0
 40
1.0
 10
209.9312757538067
 20
330.9154355021276
 30
0.0
 10
209.9828364828722
 20
332.2260398184888
 30
0.0
 10
210.1005385226357
 20
335.2178672063962
 30
0.0
 10
210.2096481417609
 20
338.669114458335
 30
0.0
 10
210.2293788790919
 20
340.8239937358009
 30
0.0
 10
210.2334377752052
 20
341.2672833593645
 30
0.0
  0
SPLINE
  5
95
330
1F
100
AcDbEntity
  8
0
  6
Continuous
 62
     7
370
    25
100
AcDbSpline
210
0.0
220
0.0
230
1.0
 70
     8
 71
     3
 72
    10
 73
     6
 74
     0
 42
0.000000001
 43
0.00000001
 40
0.0
 40
0.0
 40
0.0
 40
0.0
 40
0.3351351726634382
 40
0.8338395393893021
 40
0.9999999999999999
 40
0.9999999999999999
 40
0.9999999999999999
 40
0.9999999999999999
 10
156.8229896412598
 20
341.2674584480085
 30
0.0
 10
156.842289337851
 20
340.1021062287799
 30
0.0
 10
156.8903083207234
 20
337.2026291312691
 30
0.0
 10
157.0080450877294
 20
333.7579918568652
 30
0.0
 10
157.100997485023
 20
331.4820760081273
 30
0.0
 10
157.1242277906643
 20
330.9132878722705
 30
0.0
  0
SPLINE
  5
96
330
1F
100
AcDbEntity
  8
0
  6
Continuous
 62
     7
370
    25
100
AcDbSpline
210
0.0
220
0.0
230
1.0
 70
     8
 71
     3
 72
    54
 73
    50
 74
     0
 42
0.000000001
 43
0.00000001
 40
0.0
 40
0.0
 40
0.0
 40
0.0
 40
0.0624999999999989
 40
0.0624999999999989
 40
0.1249999999999978
 40
0.1249999999999978
 40
0.1874999999999967
 40
0.1874999999999967
 40
0.2499999999999955
 40
0.2499999999999955
 40
0.3124999999999944
 40
0.3124999999999944
 40
0.3437499999999939
 40
0.3437499999999939
 40
0.3749999999999934
 40
0.3749999999999934
 40
0.4062499999999932
 40
0.4062499999999932
 40
0.4218749999999933
 40
0.4218749999999933
 40
0.4374999999999933
 40
0.4374999999999933
 40
0.4687499999999934
 40
0.4687499999999934
 40
0.4843749999999935
 40
0.4843749999999935
 40
0.4999999999999936
 40
0.4999999999999936
 40
0.5624999999999942
 40
0.5624999999999942
 40
0.5781249999999944
 40
0.5781249999999944
 40
0.5937499999999946
 40
0.5937499999999946
 40
0.6249999999999949
 40
0.6249999999999949
 40
0.6562499999999952
 40
0.6562499999999952
 40
0.6874999999999956
 40
0.6874999999999956
 40
0.7499999999999964
 40
0.7499999999999964
 40
0.8124999999999974
 40
0.8124999999999974
 40
0.8749999999999983
 40
0.8749999999999983
 40
0.9374999999999991
 40
0.9374999999999991
 40
1.0
 40
1.0
 40
1.0
 40
1.0
 10
268.7875482282167
 20
332.0822723733685
 30
0.0
 10
268.7875482284118
 20
335.2077302820838
 30
0.0
 10
268.77816765032
 20
338.3330570200794
 30
0.0
 10
268.7245385014589
 20
344.5832229291477
 30
0.0
 10
268.6804439236259
 20
347.708064253538
 30
0.0
 10
268.5327298374179
 20
353.9569145519309
 30
0.0
 10
268.4293353651313
 20
357.0820192478598
 30
0.0
 10
268.1237002962238
 20
363.3225670218951
 30
0.0
 10
267.9220382847136
 20
366.4384381991686
 30
0.0
 10
267.3539006723285
 20
372.6553247002065
 30
0.0
 10
266.9886974412723
 20
375.7564547119631
 30
0.0
 10
266.2285836399996
 20
380.3890127716465
 30
0.0
 10
265.939345232514
 20
381.9284588109222
 30
0.0
 10
265.2706712525761
 20
384.9762035771626
 30
0.0
 10
264.8909620337892
 20
386.4867160706063
 30
0.0
 10
264.0131156146087
 20
389.4728698419931
 30
0.0
 10
263.5150704329897
 20
390.9485382149391
 30
0.0
 10
262.6516843775942
 20
393.1277907613375
 30
0.0
 10
262.3444228595541
 20
393.8484764483222
 30
0.0
 10
261.6852476258576
 20
395.276699946388
 30
0.0
 10
261.3353630987343
 20
395.9796120149513
 30
0.0
 10
260.2237583391282
 20
398.0431947088495
 30
0.0
 10
259.398410336617
 20
399.3622012763911
 30
0.0
 10
258.0150980187703
 20
401.2429375992501
 30
0.0
 10
257.529790281254
 20
401.8535618044398
 30
0.0
 10
256.5078492855979
 20
403.0402705603155
 30
0.0
 10
255.9685140880088
 20
403.6188896165922
 30
0.0
 10
253.1766629161001
 20
406.3830586858916
 30
0.0
 10
250.6423933152218
 20
408.1824527078592
 30
0.0
 10
247.1720766137447
 20
410.0174380639009
 30
0.0
 10
246.4637896660399
 20
410.363235918647
 30
0.0
 10
245.03858336697
 20
411.0089381280571
 30
0.0
 10
244.3192729271739
 20
411.3101502399069
 30
0.0
 10
242.1437441113817
 20
412.1570137083079
 30
0.0
 10
240.6700197245057
 20
412.6461873473913
 30
0.0
 10
237.686755523699
 20
413.5089872524856
 30
0.0
 10
236.1771906059208
 20
413.882532528714
 30
0.0
 10
233.1304763404547
 20
414.5406304688841
 30
0.0
 10
231.5902773969748
 20
414.8255600055128
 30
0.0
 10
226.9657532533412
 20
415.5728973365462
 30
0.0
 10
223.8753785502916
 20
415.9314873747236
 30
0.0
 10
217.6862376032674
 20
416.4894319456812
 30
0.0
 10
214.5874022271138
 20
416.6874746458029
 30
0.0
 10
208.3846836684523
 20
416.9877743014292
 30
0.0
 10
205.2807702131729
 20
417.0894568093934
 30
0.0
 10
199.0698930825746
 20
417.2349417132054
 30
0.0
 10
195.9629147506787
 20
417.278465989997
 30
0.0
 10
189.7471615888737
 20
417.3314247057755
 30
0.0
 10
186.638379085288
 20
417.3407135312436
 30
0.0
 10
183.529107070522
 20
417.3407135311141
 30
0.0
  0
SPLINE
  5
97
330
1F
100
AcDbEntity
  8
0
  6
Continuous
 62
     7
370
    25
100
AcDbSpline
210
0.0
220
0.0
230
1.0
 70
     8
 71
     3
 72
    54
 73
    50
 74
     0
 42
0.000000001
 43
0.00000001
 40
0.0
 40
0.0
 40
0.0
 40
0.0
 40
0.0625000000000001
 40
0.0625000000000001
 40
0.1250000000000002
 40
0.1250000000000002
 40
0.1875000000000003
 40
0.1875000000000003
 40
0.2500000000000004
 40
0.2500000000000004
 40
0.3125000000000005
 40
0.3125000000000005
 40
0.3437500000000006
 40
0.3437500000000006
 40
0.3750000000000007
 40
0.3750000000000007
 40
0.4062500000000008
 40
0.4062500000000008
 40
0.4218750000000008
 40
0.4218750000000008
 40
0.437500000000001
 40
0.437500000000001
 40
0.4687500000000009
 40
0.4687500000000009
 40
0.4843750000000009
 40
0.4843750000000009
 40
0.5000000000000009
 40
0.5000000000000009
 40
0.5625000000000009
 40
0.5625000000000009
 40
0.5781250000000009
 40
0.5781250000000009
 40
0.5937500000000009
 40
0.5937500000000009
 40
0.6250000000000009
 40
0.6250000000000009
 40
0.6562500000000008
 40
0.6562500000000008
 40
0.6875000000000008
 40
0.6875000000000008
 40
0.7500000000000006
 40
0.7500000000000006
 40
0.8125000000000004
 40
0.8125000000000004
 40
0.8750000000000003
 40
0.8750000000000003
 40
0.9375000000000002
 40
0.9375000000000002
 40
1.0
 40
1.0
 40
1.0
 40
1.0
 10
183.5291070704711
 20
246.8238312159345
 30
0.0
 10
186.6545649791863
 20
246.8238312157394
 30
0.0
 10
189.7798917171819
 20
246.8332117938334
 30
0.0
 10
196.0300576262501
 20
246.8868409427015
 30
0.0
 10
199.1548989506402
 20
246.9309355205395
 30
0.0
 10
205.4037492490328
 20
247.0786496067578
 30
0.0
 10
208.5288539449613
 20
247.1820440790495
 30
0.0
 10
214.7694017189968
 20
247.4876791479633
 30
0.0
 10
217.8852728962705
 20
247.6893411594747
 30
0.0
 10
224.1021593973105
 20
248.2574787718505
 30
0.0
 10
227.2032894090693
 20
248.6226820028898
 30
0.0
 10
231.8358474687565
 20
249.3827958041386
 30
0.0
 10
233.3752935080321
 20
249.6720342116214
 30
0.0
 10
236.4230382742703
 20
250.3407081915601
 30
0.0
 10
237.9335507677121
 20
250.7204174103507
 30
0.0
 10
240.9197045390951
 20
251.5982638295387
 30
0.0
 10
242.3953729120394
 20
252.0963090111618
 30
0.0
 10
244.5746254584375
 20
252.9596950665563
 30
0.0
 10
245.2953111454224
 20
253.2669565845949
 30
0.0
 10
246.7235346434889
 20
253.926131818288
 30
0.0
 10
247.4264467120513
 20
254.2760163454089
 30
0.0
 10
249.4900294059489
 20
255.3876211050089
 30
0.0
 10
250.8090359734905
 20
256.2129691075167
 30
0.0
 10
252.6897722963474
 20
257.5962814253624
 30
0.0
 10
253.3003965015361
 20
258.081589162879
 30
0.0
 10
254.4871052574094
 20
259.1035301585374
 30
0.0
 10
255.0657243136843
 20
259.6428653561287
 30
0.0
 10
257.8298933829695
 20
262.4347165280435
 30
0.0
 10
259.6292874049431
 20
264.9689861289175
 30
0.0
 10
261.4642727609922
 20
268.4393028303929
 30
0.0
 10
261.8100706157391
 20
269.1475897780962
 30
0.0
 10
262.4557728251511
 20
270.5727960771634
 30
0.0
 10
262.7569849370018
 20
271.2921065169584
 30
0.0
 10
263.6038484054083
 20
273.4676353327466
 30
0.0
 10
264.0930220444982
 20
274.9413597196196
 30
0.0
 10
264.9558219496026
 20
277.9246239204217
 30
0.0
 10
265.3293672258347
 20
279.4341888381986
 30
0.0
 10
265.9874651660036
 20
282.4809031036649
 30
0.0
 10
266.2723947026275
 20
284.0211020471471
 30
0.0
 10
267.0197320336295
 20
288.6456261907849
 30
0.0
 10
267.3783220717917
 20
291.736000893837
 30
0.0
 10
267.9362666427427
 20
297.9251418408653
 30
0.0
 10
268.1343093428672
 20
301.0239772170205
 30
0.0
 10
268.4346089985019
 20
307.2266957756854
 30
0.0
 10
268.5362915064718
 20
310.3306092309663
 30
0.0
 10
268.6817764102943
 20
316.5414863615679
 30
0.0
 10
268.7253006870907
 20
319.6484646934655
 30
0.0
 10
268.7782594028761
 20
325.864217855274
 30
0.0
 10
268.7875482283462
 20
328.9730003588613
 30
0.0
 10
268.7875482282167
 20
332.0822723736292
 30
0.0
  0
SPLINE
  5
98
330
1F
100
AcDbEntity
  8
0
  6
Continuous
 62
     7
370
    25
100
AcDbSpline
210
0.0
220
0.0
230
1.0
 70
     8
 71
     3
 72
    54
 73
    50
 74
     0
 42
0.000000001
 43
0.00000001
 40
0.0
 40
0.0
 40
0.0
 40
0.0
 40
0.0625
 40
0.0625
 40
0.1249999999999999
 40
0.1249999999999999
 40
0.1874999999999999
 40
0.1874999999999999
 40
0.2499999999999999
 40
0.2499999999999999
 40
0.3124999999999999
 40
0.3124999999999999
 40
0.34375
 40
0.34375
 40
0.3750000000000001
 40
0.3750000000000001
 40
0.4062500000000001
 40
0.4062500000000001
 40
0.4218750000000002
 40
0.4218750000000002
 40
0.4375000000000002
 40
0.4375000000000002
 40
0.4687500000000004
 40
0.4687500000000004
 40
0.4843750000000005
 40
0.4843750000000005
 40
0.5000000000000006
 40
0.5000000000000006
 40
0.5625000000000006
 40
0.5625000000000006
 40
0.5781250000000006
 40
0.5781250000000006
 40
0.5937500000000006
 40
0.5937500000000006
 40
0.6250000000000004
 40
0.6250000000000004
 40
0.6562500000000004
 40
0.6562500000000004
 40
0.6875000000000004
 40
0.6875000000000004
 40
0.7500000000000003
 40
0.7500000000000003
 40
0.8125000000000002
 40
0.8125000000000002
 40
0.875
 40
0.875
 40
0.9375
 40
0.9375
 40
1.0
 40
1.0
 40
1.0
 40
1.0
 10
98.27066591303716
 20
332.0822723736802
 30
0.0
 10
98.27066591284203
 20
328.9568144649656
 30
0.0
 10
98.28004649093599
 20
325.8314877269709
 30
0.0
 10
98.33367563980389
 20
319.5813218179042
 30
0.0
 10
98.37777021764175
 20
316.4564804935148
 30
0.0
 10
98.52548430386003
 20
310.2076301951237
 30
0.0
 10
98.6288787761519
 20
307.082525499196
 30
0.0
 10
98.93451384506649
 20
300.8419777251621
 30
0.0
 10
99.13617585657857
 20
297.7261065478891
 30
0.0
 10
99.70431346895467
 20
291.5092200468506
 30
0.0
 10
100.0695166999932
 20
288.4080900350924
 30
0.0
 10
100.8296305012364
 20
283.7755319754058
 30
0.0
 10
101.1188689087174
 20
282.2360859361303
 30
0.0
 10
101.7875428886532
 20
279.1883411698927
 30
0.0
 10
102.1672521074427
 20
277.6778286764512
 30
0.0
 10
103.0450985266302
 20
274.6916749050695
 30
0.0
 10
103.5431437082541
 20
273.2160065321262
 30
0.0
 10
104.4065297636522
 20
271.0367539857304
 30
0.0
 10
104.7137912816922
 20
270.3160682987463
 30
0.0
 10
105.3729665153871
 20
268.8878448006812
 30
0.0
 10
105.7228510425084
 20
268.1849327321191
 30
0.0
 10
106.8344558021086
 20
266.1213500382216
 30
0.0
 10
107.6598038046147
 20
264.8023434706792
 30
0.0
 10
109.0431161224568
 20
262.9216071478202
 30
0.0
 10
109.5284238599721
 20
262.3109829426306
 30
0.0
 10
110.550364855628
 20
261.1242741867561
 30
0.0
 10
111.0897000532183
 20
260.5456551304807
 30
0.0
 10
113.8815512251323
 20
257.7814860611923
 30
0.0
 10
116.4158208260004
 20
255.982092039211
 30
0.0
 10
119.8861375274748
 20
254.1471066831633
 30
0.0
 10
120.594424475179
 20
253.8013088284164
 30
0.0
 10
122.0196307742482
 20
253.1556066190061
 30
0.0
 10
122.7389412140443
 20
252.854394507157
 30
0.0
 10
124.914470029835
 20
252.0075310387536
 30
0.0
 10
126.3881944167087
 20
251.5183573996643
 30
0.0
 10
129.3714586175115
 20
250.6555574945594
 30
0.0
 10
130.8810235352881
 20
250.2820122183263
 30
0.0
 10
133.9277378007534
 20
249.6239142781547
 30
0.0
 10
135.4679367442346
 20
249.3389847415289
 30
0.0
 10
140.092460887874
 20
248.5916474105213
 30
0.0
 10
143.1828355909272
 20
248.2330573723582
 30
0.0
 10
149.3719765379576
 20
247.6751128014076
 30
0.0
 10
152.4708119141139
 20
247.4770701012835
 30
0.0
 10
158.6735304727807
 20
247.1767704456495
 30
0.0
 10
161.7774439280626
 20
247.0750879376798
 30
0.0
 10
167.988321058666
 20
246.9296030338573
 30
0.0
 10
171.0952993905644
 20
246.8860787570609
 30
0.0
 10
177.3110525523747
 20
246.8331200412753
 30
0.0
 10
180.4198350559631
 20
246.8238312158051
 30
0.0
 10
183.5291070707318
 20
246.8238312159345
 30
0.0
  0
SPLINE
  5
99
330
1F
100
AcDbEntity
  8
0
  6
Continuous
 62
     7
370
    25
100
AcDbSpline
210
0.0
220
0.0
230
1.0
 70
     8
 71
     3
 72
    54
 73
    50
 74
     0
 42
0.000000001
 43
0.00000001
 40
0.0
 40
0.0
 40
0.0
 40
0.0
 40
0.0625000000000011
 40
0.0625000000000011
 40
0.1250000000000021
 40
0.1250000000000021
 40
0.1875000000000032
 40
0.1875000000000032
 40
0.2500000000000042
 40
0.2500000000000042
 40
0.3125000000000053
 40
0.3125000000000053
 40
0.3437500000000057
 40
0.3437500000000057
 40
0.3750000000000062
 40
0.3750000000000062
 40
0.4062500000000067
 40
0.4062500000000067
 40
0.4218750000000068
 40
0.4218750000000068
 40
0.4375000000000069
 40
0.4375000000000069
 40
0.4687500000000064
 40
0.4687500000000064
 40
0.4843750000000063
 40
0.4843750000000063
 40
0.5000000000000061
 40
0.5000000000000061
 40
0.5625000000000054
 40
0.5625000000000054
 40
0.5781250000000054
 40
0.5781250000000054
 40
0.5937500000000053
 40
0.5937500000000053
 40
0.625000000000005
 40
0.625000000000005
 40
0.6562500000000047
 40
0.6562500000000047
 40
0.6875000000000042
 40
0.6875000000000042
 40
0.7500000000000034
 40
0.7500000000000034
 40
0.8125000000000026
 40
0.8125000000000026
 40
0.8750000000000018
 40
0.8750000000000018
 40
0.9375000000000009
 40
0.9375000000000009
 40
1.0
 40
1.0
 40
1.0
 40
1.0
 10
183.5291070707828
 20
417.3407135311141
 30
0.0
 10
180.4036491620692
 20
417.3407135313092
 30
0.0
 10
177.2783224240752
 20
417.3313329532152
 30
0.0
 10
171.0281565150102
 20
417.2777038043473
 30
0.0
 10
167.9033151906217
 20
417.2336092265094
 30
0.0
 10
161.6544648922323
 20
417.0858951402913
 30
0.0
 10
158.5293601963054
 20
416.9825006679996
 30
0.0
 10
152.2888124222732
 20
416.6768655990857
 30
0.0
 10
149.1729412450009
 20
416.4752035875742
 30
0.0
 10
142.9560547439641
 20
415.907065975199
 30
0.0
 10
139.8549247322069
 20
415.5418627441592
 30
0.0
 10
135.2223666725215
 20
414.7817489429169
 30
0.0
 10
133.6829206332461
 20
414.4925105354382
 30
0.0
 10
130.6351758670083
 20
413.8238365555076
 30
0.0
 10
129.1246633735667
 20
413.4441273367212
 30
0.0
 10
126.1385096021857
 20
412.5662809175361
 30
0.0
 10
124.6628412292435
 20
412.0682357359118
 30
0.0
 10
122.483588682851
 20
411.2048496805064
 30
0.0
 10
121.7629029958684
 20
410.897588162463
 30
0.0
 10
120.3346794978048
 20
410.2384129287655
 30
0.0
 10
119.6317674292426
 20
409.8885284016438
 30
0.0
 10
117.568184735344
 20
408.7769236420443
 30
0.0
 10
116.2491781677993
 20
407.9515756395409
 30
0.0
 10
114.3684418449374
 20
406.5682633217024
 30
0.0
 10
113.7578176397469
 20
406.0829555841881
 30
0.0
 10
112.5711088838709
 20
405.0610145885341
 30
0.0
 10
111.992489827595
 20
404.5216793909443
 30
0.0
 10
109.2283207583035
 20
401.7298282190299
 30
0.0
 10
107.4289267363244
 20
399.1955586181597
 30
0.0
 10
105.5939413802745
 20
395.7252419166874
 30
0.0
 10
105.2481435255267
 20
395.016954968983
 30
0.0
 10
104.6024413161143
 20
393.5917486699141
 30
0.0
 10
104.3012292042638
 20
392.8724382301182
 30
0.0
 10
103.4543657358577
 20
390.6969094143278
 30
0.0
 10
102.9651920967681
 20
389.2231850274538
 30
0.0
 10
102.1023921916631
 20
386.2399208266508
 30
0.0
 10
101.7288469154303
 20
384.7303559088741
 30
0.0
 10
101.070748975259
 20
381.6836416434086
 30
0.0
 10
100.7858194386333
 20
380.1434426999274
 30
0.0
 10
100.0384821076252
 20
375.5189185562869
 30
0.0
 10
99.67989206946167
 20
372.428543853233
 30
0.0
 10
99.12194749851056
 20
366.2394029062012
 30
0.0
 10
98.92390479838643
 20
363.1405675300442
 30
0.0
 10
98.62360514275231
 20
356.937848971376
 30
0.0
 10
98.5219226347825
 20
353.8339355160934
 30
0.0
 10
98.37643773095996
 20
347.6230583854887
 30
0.0
 10
98.3329134541635
 20
344.5160800535896
 30
0.0
 10
98.27995473837788
 20
338.3003268917781
 30
0.0
 10
98.27066591290772
 20
335.1915443881889
 30
0.0
 10
98.27066591303716
 20
332.0822723734195
 30
0.0
  0
SPLINE
  5
9A
330
1F
100
AcDbEntity
  8
0
  6
Continuous
 62
     8
370
    18
100
AcDbSpline
210
0.0
220
0.0
230
1.0
 70
     8
 71
     3
 72
   190
 73
   186
 74
     0
 42
0.000000001
 43
0.00000001
 40
0.0
 40
0.0
 40
0.0
 40
0.0
 40
0.0064173024215837
 40
0.0128347891771163
 40
0.0160434948823944
 40
0.0256696639510268
 40
0.0320868551667523
 40
0.0352952304789394
 40
0.0417127747713514
 40
0.0481305772141816
 40
0.0513394204470733
 40
0.0614045075529503
 40
0.0714693608949233
 40
0.0748244940728585
 40
0.0815350562889051
 40
0.0882457012093459
 40
0.0916007936916382
 40
0.0983103178817701
 40
0.1050206587357722
 40
0.1103003230863339
 40
0.1208596857921445
 40
0.126139352576154
 40
0.1287791846600871
 40
0.1340592502162311
 40
0.1393391953671526
 40
0.1419792070464909
 40
0.1472592902130493
 40
0.1538288919710566
 40
0.1560187811627317
 40
0.1603985476302109
 40
0.1691585227091193
 40
0.1713486586686353
 40
0.1779190538854865
 40
0.1822994295580482
 40
0.1841781528817545
 40
0.1879357121878145
 40
0.1935721674471314
 40
0.1954510650621526
 40
0.1992088705679096
 40
0.2029670896875909
 40
0.204845738149224
 40
0.2086037564722694
 40
0.2157138131771967
 40
0.2173897064300858
 40
0.220741565867324
 40
0.2240934658710997
 40
0.2257694349026066
 40
0.2291215988771545
 40
0.2324740626434115
 40
0.234150402580465
 40
0.2391799227739082
 40
0.2484352004855883
 40
0.2499778912631873
 40
0.2530637849754075
 40
0.2576933285488818
 40
0.2607801556880737
 40
0.2653573224239105
 40
0.268337737794196
 40
0.2698280668416079
 40
0.2728088873965404
 40
0.2757898364864289
 40
0.2787714496175378
 40
0.2817535704835695
 40
0.2847360315599468
 40
0.2877187844458557
 40
0.2897050301696754
 40
0.2916915614458451
 40
0.2936782692529247
 40
0.2966586378836448
 40
0.2986457118069047
 40
0.2996393012778738
 40
0.303614191314345
 40
0.3098111059019498
 40
0.31187732377873
 40
0.3139437216194383
 40
0.3160102092289324
 40
0.3180769146887394
 40
0.3223608556569647
 40
0.3267956893030761
 40
0.327904576002562
 40
0.3301223826573146
 40
0.3334493820598228
 40
0.3378861916171146
 40
0.3428175514586375
 40
0.3452834688661927
 40
0.3465164168043248
 40
0.3502159923532666
 40
0.3526827333564361
 40
0.3539161379497307
 40
0.357616507036215
 40
0.360451411362719
 40
0.3618689946400725
 40
0.3661220167065461
 40
0.3717932865302087
 40
0.3732112348429958
 40
0.3760473018828471
 40
0.380301165353555
 40
0.3819724462023196
 40
0.3853151345306989
 40
0.390329184136336
 40
0.3920005036111798
 40
0.3970145790733355
 40
0.4037010521380519
 40
0.4053728232651682
 40
0.4089283426120968
 40
0.4145796083508923
 40
0.4183471832747018
 40
0.4221143569229369
 40
0.4258804148424791
 40
0.4296485426071016
 40
0.4371850710784063
 40
0.4409509323637429
 40
0.4428338558583522
 40
0.4484827134694678
 40
0.4522487259619065
 40
0.4541317514953748
 40
0.4578976840022199
 40
0.4635469219239545
 40
0.465430072964429
 40
0.4685682295627905
 40
0.4710780564309575
 40
0.4723329632618193
 40
0.4798626346304455
 40
0.4848826448559564
 40
0.4861376367630703
 40
0.4907388668028391
 40
0.4957582876343243
 40
0.497431442350543
 40
0.4999411960984564
 40
0.5016139620428708
 40
0.5024502774392104
 40
0.5041230672324594
 40
0.510814919059435
 40
0.5141610223643942
 40
0.5191806463512267
 40
0.5292195001101754
 40
0.5304742539244761
 40
0.5329836275551727
 40
0.5417677282969308
 40
0.5455325892174133
 40
0.5530624400121686
 40
0.5605920096960653
 40
0.5624742548487374
 40
0.5671798379489019
 40
0.5756510359937145
 40
0.5869467389085905
 40
0.5982428001666853
 40
0.6095387555819911
 40
0.6180102030366049
 40
0.6264804729376856
 40
0.6434227689955081
 40
0.647658651470694
 40
0.6561305730112218
 40
0.6646021853238245
 40
0.6688379559108639
 40
0.6773094506363712
 40
0.6895173501455656
 40
0.6956213974201526
 40
0.7078314741945282
 40
0.7200419817600943
 40
0.7261469282087432
 40
0.7383565092091514
 40
0.7505656542930549
 40
0.7566701128884855
 40
0.7688796251547468
 40
0.7822247997852236
 40
0.7894652270091599
 40
0.8039454906215054
 40
0.8184247581330251
 40
0.8256651629070005
 40
0.8473856604940369
 40
0.8691047012152642
 40
0.8763433852645063
 40
0.8908246832985135
 40
0.9009584407967135
 40
0.9110918825723424
 40
0.9262912072409151
 40
0.9364230731112054
 40
0.9414898416001644
 40
0.9516235123645539
 40
0.966823227854457
 40
0.9718894546483727
 40
0.9824313955223006
 40
0.992973163779317
 40
1.0
 40
1.0
 40
1.0
 40
1.0
 10
183.529107064404
 20
286.6439335563566
 30
0.0
 10
183.6638287504584
 20
286.6439513987248
 30
0.0
 10
183.9332759923834
 20
286.6439870839739
 30
0.0
 10
184.2700849531246
 20
286.6444529548376
 30
0.0
 10
184.6742583824446
 20
286.6453583599712
 30
0.0
 10
185.0784242009041
 20
286.6468378418225
 30
0.0
 10
185.4825785835863
 20
286.6491608997068
 30
0.0
 10
185.8193701125952
 20
286.6516086237556
 30
0.0
 10
186.156170352232
 20
286.6545606776941
 30
0.0
 10
186.4929723463061
 20
286.6582824949874
 30
0.0
 10
186.9063336447249
 20
286.6636299461886
 30
0.0
 10
187.3962337777108
 20
286.6712867761344
 30
0.0
 10
187.8891607869764
 20
286.6813280698307
 30
0.0
 10
188.3116362008521
 20
286.6916590586689
 30
0.0
 10
188.6636873381887
 20
286.7013951214274
 30
0.0
 10
189.0156836053117
 20
286.7128254609113
 30
0.0
 10
189.3676059014594
 20
286.7256329180912
 30
0.0
 10
189.7194634821543
 20
286.7399036465424
 30
0.0
 10
190.1115797399199
 20
286.7581745452922
 30
0.0
 10
190.5842755260774
 20
286.7829721492853
 30
0.0
 10
191.0267739584267
 20
286.809794120239
 30
0.0
 10
191.4136985950868
 20
286.8368689876629
 30
0.0
 10
191.6899834454411
 20
286.8574447957166
 30
0.0
 10
191.9661657001612
 20
286.8793536829928
 30
0.0
 10
192.2421772082211
 20
286.9032244130224
 30
0.0
 10
192.518036432914
 20
286.9286570983128
 30
0.0
 10
192.8206630586529
 20
286.9584043066668
 30
0.0
 10
193.1135785240743
 20
286.990060040978
 30
0.0
 10
193.3874484646288
 20
287.0218062716111
 30
0.0
 10
193.7067302563585
 20
287.0607656679683
 30
0.0
 10
194.0254830838484
 20
287.1037443352326
 30
0.0
 10
194.3891263721308
 20
287.1570528579381
 30
0.0
 10
194.6614644107054
 20
287.1996073805924
 30
0.0
 10
194.926753419674
 20
287.2445143938998
 30
0.0
 10
195.1335915849268
 20
287.2810995583246
 30
0.0
 10
195.3660613848989
 20
287.3238621376578
 30
0.0
 10
195.5979671129023
 20
287.3694471729657
 30
0.0
 10
195.8293421247775
 20
287.4174546782082
 30
0.0
 10
196.0218175466396
 20
287.4590248112919
 30
0.0
 10
196.213769837561
 20
287.5027756915107
 30
0.0
 10
196.4052994179463
 20
287.5482272784603
 30
0.0
 10
196.6645542483739
 20
287.6122527864998
 30
0.0
 10
196.9184508511258
 20
287.6798614339997
 30
0.0
 10
197.1629570809649
 20
287.7491263534978
 30
0.0
 10
197.3312833859101
 20
287.7984968483378
 30
0.0
 10
197.4989244004272
 20
287.849998411611
 30
0.0
 10
197.6660140706762
 20
287.9031466625199
 30
0.0
 10
197.8325412637245
 20
287.9579638378851
 30
0.0
 10
197.9982450131373
 20
288.0150797160904
 30
0.0
 10
198.1963037266162
 20
288.0857548186705
 30
0.0
 10
198.5088278257671
 20
288.2024631024404
 30
0.0
 10
198.8146423016821
 20
288.3282147810916
 30
0.0
 10
199.0795570094959
 20
288.445518450519
 30
0.0
 10
199.2552445669617
 20
288.5257541278525
 30
0.0
 10
199.4582306182169
 20
288.6233886643706
 30
0.0
 10
199.6867387037072
 20
288.7391747579895
 30
0.0
 10
199.8823363278739
 20
288.8435123381373
 30
0.0
 10
200.0465265875407
 20
288.9356969391893
 30
0.0
 10
200.1806928059988
 20
289.0133307993611
 30
0.0
 10
200.3137897865765
 20
289.0926958070145
 30
0.0
 10
200.4717190569492
 20
289.1907015342739
 30
0.0
 10
200.6277786867163
 20
289.2915082687431
 30
0.0
 10
200.7818710731752
 20
289.3951524115085
 30
0.0
 10
200.9339069416445
 20
289.5016296095479
 30
0.0
 10
201.0671070065483
 20
289.5987530060917
 30
0.0
 10
201.1821801670862
 20
289.6855161129923
 30
0.0
 10
201.2797699990338
 20
289.7610802585613
 30
0.0
 10
201.3924396326185
 20
289.8506725181233
 30
0.0
 10
201.5035916989986
 20
289.9420405934969
 30
0.0
 10
201.5975240534222
 20
290.0218524734397
 30
0.0
 10
201.7061740889918
 20
290.1160097988214
 30
0.0
 10
201.8780060197953
 20
290.2699161116861
 30
0.0
 10
202.0603720237074
 20
290.4446941581429
 30
0.0
 10
202.2100210156368
 20
290.5961691737117
 30
0.0
 10
202.2985427425606
 20
290.6882466941325
 30
0.0
 10
202.3857787895105
 20
290.7814727321366
 30
0.0
 10
202.5024538657528
 20
290.9095611436456
 30
0.0
 10
202.6484722613391
 20
291.0766174268268
 30
0.0
 10
202.7771412234808
 20
291.2323098566665
 30
0.0
 10
202.8765567300759
 20
291.3569081256755
 30
0.0
 10
202.9606535416659
 20
291.4645569065758
 30
0.0
 10
203.084024496342
 20
291.6280478906265
 30
0.0
 10
203.2359841141715
 20
291.8393942807497
 30
0.0
 10
203.3721457678044
 20
292.0399860929461
 30
0.0
 10
203.4683407157933
 20
292.1881670384633
 30
0.0
 10
203.5495058100376
 20
292.3159711978149
 30
0.0
 10
203.6289425277513
 20
292.4448145168336
 30
0.0
 10
203.7062619783366
 20
292.5748538908189
 30
0.0
 10
203.7823349046761
 20
292.7055912943801
 30
0.0
 10
203.8604500799256
 20
292.8437744113289
 30
0.0
 10
203.9381122827126
 20
292.9864190233959
 30
0.0
 10
204.0196042127458
 20
293.1397570698977
 30
0.0
 10
204.1255252445461
 20
293.3455819937317
 30
0.0
 10
204.2268013481888
 20
293.553595238205
 30
0.0
 10
204.3126692539596
 20
293.7368240143563
 30
0.0
 10
204.3848706055057
 20
293.8944962622045
 30
0.0
 10
204.4569464980004
 20
294.0578185102818
 30
0.0
 10
204.5312057307827
 20
294.2313793149856
 30
0.0
 10
204.6097832742652
 20
294.4198775361392
 30
0.0
 10
204.6854906848514
 20
294.6094752580426
 30
0.0
 10
204.7712669512009
 20
294.8315923354541
 30
0.0
 10
204.8664242426744
 20
295.0864935499068
 30
0.0
 10
204.9568413565907
 20
295.3430160904978
 30
0.0
 10
205.0345956144362
 20
295.5724420015675
 30
0.0
 10
205.10402919585
 20
295.7824236519548
 30
0.0
 10
205.1836798653094
 20
296.0338175857339
 30
0.0
 10
205.261528453552
 20
296.2902008462323
 30
0.0
 10
205.3262262717917
 20
296.5104901322857
 30
0.0
 10
205.3888827377722
 20
296.73134399589
 30
0.0
 10
205.469950175114
 20
297.0265026574783
 30
0.0
 10
205.5474056971453
 20
297.3225690910162
 30
0.0
 10
205.6122742108583
 20
297.5822765254562
 30
0.0
 10
205.6666738196467
 20
297.8050720709037
 30
0.0
 10
205.7195228929226
 20
298.028220319903
 30
0.0
 10
205.7705390344884
 20
298.2517625501367
 30
0.0
 10
205.812181641071
 20
298.4382297415482
 30
0.0
 10
205.8610740374467
 20
298.662219393559
 30
0.0
 10
205.9082266017757
 20
298.886563557567
 30
0.0
 10
205.9515336962616
 20
299.098676833584
 30
0.0
 10
205.9815338845486
 20
299.2484912318349
 30
0.0
 10
206.0084685754228
 20
299.385912298801
 30
0.0
 10
206.0519339747302
 20
299.6108686214198
 30
0.0
 10
206.1033618820569
 20
299.8861299706805
 30
0.0
 10
206.1525490472361
 20
300.1617733469237
 30
0.0
 10
206.1904697017073
 20
300.3790798737874
 30
0.0
 10
206.2276277768449
 20
300.5964985001292
 30
0.0
 10
206.2649800011332
 20
300.8224708116337
 30
0.0
 10
206.2947499108327
 20
301.0066964936017
 30
0.0
 10
206.3134340065754
 20
301.1239629250361
 30
0.0
 10
206.32923251491
 20
301.2245023982956
 30
0.0
 10
206.3423037254924
 20
301.3082882389273
 30
0.0
 10
206.3708452008138
 20
301.4926647820652
 30
0.0
 10
206.4062398684731
 20
301.7274674551832
 30
0.0
 10
206.4503707860076
 20
302.0295630485527
 30
0.0
 10
206.5029514097545
 20
302.3989913320077
 30
0.0
 10
206.547472651978
 20
302.7267148224087
 30
0.0
 10
206.5839415186298
 20
303.0041549656688
 30
0.0
 10
206.616728429767
 20
303.256419772634
 30
0.0
 10
206.654799881457
 20
303.5593014756843
 30
0.0
 10
206.7038473774989
 20
303.9633587610854
 30
0.0
 10
206.7484306238971
 20
304.3423272026081
 30
0.0
 10
206.7870190521003
 20
304.6835575774415
 30
0.0
 10
206.8184418740171
 20
304.9679765140356
 30
0.0
 10
206.8514420515983
 20
305.2714169243136
 30
0.0
 10
206.9034023222485
 20
305.7647017597417
 30
0.0
 10
206.9663264544408
 20
306.3911171962154
 30
0.0
 10
207.0315397784387
 20
307.0748088255813
 30
0.0
 10
207.0884518125171
 20
307.7017755510319
 30
0.0
 10
207.1381065906613
 20
308.2718875522137
 30
0.0
 10
207.1957025495796
 20
308.9561631527193
 30
0.0
 10
207.2439206716177
 20
309.5550674263783
 30
0.0
 10
207.2903911122844
 20
310.1541352918043
 30
0.0
 10
207.3228770551941
 20
310.5821079054303
 30
0.0
 10
207.3544691352898
 20
311.0101408185732
 30
0.0
 10
207.3854103667092
 20
311.4382099020437
 30
0.0
 10
207.4210630471891
 20
311.9418479934586
 30
0.0
 10
207.4581508965642
 20
312.4833331746267
 30
0.0
 10
207.4992402728703
 20
313.1004760383703
 30
0.0
 10
207.5392537063554
 20
313.7177358357741
 30
0.0
 10
207.5779077948671
 20
314.3350922674629
 30
0.0
 10
207.6156336140984
 20
314.9524890401857
 30
0.0
 10
207.6524851762636
 20
315.5699039850396
 30
0.0
 10
207.6882871167646
 20
316.1873609552844
 30
0.0
 10
207.7233815384374
 20
316.8048499890827
 30
0.0
 10
207.7590228847881
 20
317.4453603793997
 30
0.0
 10
207.7949075980351
 20
318.1089079352457
 30
0.0
 10
207.8324384748782
 20
318.8184458374731
 30
0.0
 10
207.8703081761783
 20
319.5509801426265
 30
0.0
 10
207.9070951247648
 20
320.2835754150655
 30
0.0
 10
207.950344624997
 20
321.1627441495678
 30
0.0
 10
207.9994185720711
 20
322.1885124397211
 30
0.0
 10
208.0468350480273
 20
323.2143062583968
 30
0.0
 10
208.0866284757463
 20
324.0935637918921
 30
0.0
 10
208.1153578812482
 20
324.7383175790482
 30
0.0
 10
208.1461237906764
 20
325.4417057518833
 30
0.0
 10
208.17701656952
 20
326.1596710846144
 30
0.0
 10
208.2072403779605
 20
326.8776514832275
 30
0.0
 10
208.232581014925
 20
327.4930820360412
 30
0.0
 10
208.2534181706625
 20
328.0059579906595
 30
0.0
 10
208.2780403661313
 20
328.6214415478898
 30
0.0
 10
208.3021370453893
 20
329.2368993304437
 30
0.0
 10
208.3260025736582
 20
329.8606320505152
 30
0.0
 10
208.3459411495167
 20
330.3900744664758
 30
0.0
 10
208.366917380297
 20
330.9592603075698
 30
0.0
 10
208.3796987712606
 20
331.3150888085498
 30
0.0
 10
208.3848108870856
 20
331.4574079439262
 30
0.0
  0
SPLINE
  5
9B
330
1F
100
AcDbEntity
  8
0
  6
Continuous
 62
     8
370
    18
100
AcDbSpline
210
0.0
220
0.0
230
1.0
 70
     8
 71
     3
 72
    29
 73
    25
 74
     0
 42
0.000000001
 43
0.00000001
 40
0.0
 40
0.0
 40
0.0
 40
0.0
 40
0.0272151476710405
 40
0.0778311941315696
 40
0.1518556588291697
 40
0.249304839136966
 40
0.3145830823527288
 40
0.3781727541445234
 40
0.4401084480332409
 40
0.5004802142974795
 40
0.5286109674291956
 40
0.5589170999716329
 40
0.5914959831379145
 40
0.6261669466235521
 40
0.6567675065434883
 40
0.6845856429116641
 40
0.7095974288625609
 40
0.731810374793115
 40
0.750861385995707
 40
0.7811733820080886
 40
0.8212589822365707
 40
0.871151367552976
 40
0.9307041632013558
 40
1.0
 40
1.0
 40
1.0
 40
1.0
 10
158.6734255206488
 20
331.4573801032912
 30
0.0
 10
158.6937962427469
 20
330.9064449355646
 30
0.0
 10
158.7520534179559
 20
329.3308539260451
 30
0.0
 10
158.8749257547033
 20
326.2570853537212
 30
0.0
 10
159.0743657318868
 20
321.76242071055
 30
0.0
 10
159.3163872745268
 20
316.9722222968531
 30
0.0
 10
159.59833212643
 20
312.3958209118302
 30
0.0
 10
159.884400136076
 20
308.5404847923168
 30
0.0
 10
160.2390675796341
 20
304.7902297839583
 30
0.0
 10
160.6256987595898
 20
301.7646167225612
 30
0.0
 10
161.0368005007805
 20
299.390469550259
 30
0.0
 10
161.4261540399398
 20
297.584825377253
 30
0.0
 10
161.9573497106089
 20
295.6748097206686
 30
0.0
 10
162.6641101594771
 20
293.8093119886624
 30
0.0
 10
163.5683571507011
 20
292.130314923922
 30
0.0
 10
164.6185696473349
 20
290.7674763139817
 30
0.0
 10
165.7689085829267
 20
289.7184124833759
 30
0.0
 10
166.920845545911
 20
288.9579604912632
 30
0.0
 10
168.2568544931246
 20
288.289586035952
 30
0.0
 10
170.0250028123189
 20
287.6624534312787
 30
0.0
 10
172.4968962057243
 20
287.1366419296842
 30
0.0
 10
175.6199928860062
 20
286.8009959817296
 30
0.0
 10
179.3701280640338
 20
286.6520586849048
 30
0.0
 10
182.07461312924
 20
286.6467686602605
 30
0.0
 10
183.5291070741405
 20
286.6439236422153
 30
0.0
  0
SPLINE
  5
9C
330
1F
100
AcDbEntity
  8
0
  6
Continuous
 62
     8
370
    18
100
AcDbSpline
210
0.0
220
0.0
230
1.0
 70
     8
 71
     3
 72
   164
 73
   160
 74
     0
 42
0.000000001
 43
0.00000001
 40
0.0
 40
0.0
 40
0.0
 40
0.0
 40
0.0113388839522665
 40
0.0170082446412605
 40
0.0198426243331817
 40
0.0283466029439637
 40
0.0340164274766509
 40
0.0368492129833414
 40
0.0453528400669581
 40
0.0602509209887011
 40
0.067701209839262
 40
0.0826029085213913
 40
0.0975086913176512
 40
0.1049637293266749
 40
0.1198788044337241
 40
0.1348000805519081
 40
0.1422645234102706
 40
0.1572014908712292
 40
0.1760554717867873
 40
0.1817487553154386
 40
0.1931407416752635
 40
0.2045425257955301
 40
0.2102472075852145
 40
0.2216648262943308
 40
0.2330937889030879
 40
0.2388125935925166
 40
0.2502558317258187
 40
0.2605790551496058
 40
0.2651762699453911
 40
0.2743777654724784
 40
0.2835892518580908
 40
0.2881988128608839
 40
0.302044863770444
 40
0.3112907323216341
 40
0.3159183209808502
 40
0.3298205273598919
 40
0.3412634716219951
 40
0.3450827527322822
 40
0.3527291658195307
 40
0.3680541789547282
 40
0.371892524465424
 40
0.3795780229590743
 40
0.3872754303382998
 40
0.3911292348018052
 40
0.3966962964374514
 40
0.4050596827250461
 40
0.4078509042621051
 40
0.413439032466488
 40
0.4190348830907198
 40
0.4218357195739151
 40
0.4274433376746895
 40
0.4330584451698127
 40
0.4358685666427166
 40
0.4396177415634495
 40
0.4433709378826828
 40
0.4471276417020174
 40
0.4508876564484431
 40
0.454651205178164
 40
0.4565346811563288
 40
0.4621906984579275
 40
0.4659660702413346
 40
0.4672250616622102
 40
0.4697441834217084
 40
0.4760498283150375
 40
0.4785752621903215
 40
0.4836314341759171
 40
0.4861620069965147
 40
0.4895377491064075
 40
0.4962982916084019
 40
0.4988366304348728
 40
0.4996830862022584
 40
0.5013761912362648
 40
0.5047652684013014
 40
0.506461012811399
 40
0.5081575155614471
 40
0.5132511983549618
 40
0.5145262239816443
 40
0.5170772368327651
 40
0.5196302984574817
 40
0.5209073904985866
 40
0.526019407891211
 40
0.5298571806974424
 40
0.531137106222107
 40
0.5336977353600985
 40
0.5414034323738658
 40
0.5452605786327015
 40
0.5568445185068492
 40
0.5607092972706595
 40
0.5626421020695129
 40
0.5675044220077677
 40
0.5762934836397668
 40
0.5821532684203357
 40
0.5932986996808276
 40
0.5985830649067316
 40
0.6012236379185589
 40
0.6091360612444312
 40
0.6190169188024134
 40
0.6214823201369671
 40
0.6264060722647294
 40
0.6335804002014419
 40
0.6359347155334537
 40
0.6394609956432382
 40
0.6418082528189424
 40
0.6429808206163928
 40
0.651134794064678
 40
0.6545995711089645
 40
0.6563294165329091
 40
0.6597832070120184
 40
0.6683886651883396
 40
0.6752445421185271
 40
0.6857663216884162
 40
0.6910074593791031
 40
0.6927516732107014
 40
0.7031881250447428
 40
0.7144927556708601
 40
0.7163724136499664
 40
0.7201280375998849
 40
0.7257529560481524
 40
0.7332379027521742
 40
0.7459816159110769
 40
0.754457439463764
 40
0.758690263484128
 40
0.7650338986861055
 40
0.7721298557931832
 40
0.7746201308862841
 40
0.77959859871437
 40
0.7845743346947509
 40
0.7870613332053311
 40
0.7945190807932944
 40
0.7994884822013054
 40
0.8019724804754915
 40
0.8099311985499265
 40
0.8159131688878523
 40
0.8189036814859773
 40
0.8248837499569668
 40
0.830862372959028
 40
0.833851033507412
 40
0.8398272506744174
 40
0.8458021173697383
 40
0.8487892303737893
 40
0.858587911118171
 40
0.8700611582548718
 40
0.8777088064770006
 40
0.885355183491897
 40
0.8930019190162829
 40
0.8968249569692983
 40
0.9044703281235444
 40
0.9121149323194878
 40
0.9159374276896161
 40
0.9256603930117947
 40
0.9353825917947147
 40
0.9402431492702941
 40
0.9499649884014394
 40
0.9596867507549135
 40
0.9645476101031205
 40
0.9742687276946428
 40
0.9839907940801335
 40
0.9888518068365106
 40
1.0
 40
1.0
 40
1.0
 40
1.0
 10
208.7560713462083
 20
345.6757775797396
 30
0.0
 10
208.7577433414772
 20
345.8875822429443
 30
0.0
 10
208.7602513223941
 20
346.2052877193483
 30
0.0
 10
208.762389440519
 20
346.5762724200287
 30
0.0
 10
208.7640316766133
 20
346.8943449479524
 30
0.0
 10
208.7652724681428
 20
347.2125695395974
 30
0.0
 10
208.7661546042552
 20
347.5309304780748
 30
0.0
 10
208.7668143445358
 20
347.8493843197892
 30
0.0
 10
208.7674034360682
 20
348.3408459598539
 30
0.0
 10
208.7671462195803
 20
348.9192888209018
 30
0.0
 10
208.7657726828152
 20
349.6182099108285
 30
0.0
 10
208.7633104742637
 20
350.3177909353284
 30
0.0
 10
208.7592299834435
 20
351.0181094721852
 30
0.0
 10
208.7538573925628
 20
351.7191312659945
 30
0.0
 10
208.7471370384959
 20
352.4208863949865
 30
0.0
 10
208.7385126078597
 20
353.1233558540974
 30
0.0
 10
208.7283409460791
 20
353.8265977446872
 30
0.0
 10
208.7153141963804
 20
354.6043220085592
 30
0.0
 10
208.7000392555759
 20
355.3491372349731
 30
0.0
 10
208.6841376074225
 20
356.0273196593037
 30
0.0
 10
208.6703767986475
 20
356.5650032678378
 30
0.0
 10
208.6550009815314
 20
357.1030333115179
 30
0.0
 10
208.6383603400832
 20
357.6416170328705
 30
0.0
 10
208.6204020485073
 20
358.1807732753444
 30
0.0
 10
208.6006534991464
 20
358.7202340558595
 30
0.0
 10
208.5794845378639
 20
359.2601730295545
 30
0.0
 10
208.5577087022483
 20
359.7792115822824
 30
0.0
 10
208.5351982499327
 20
360.2770115856067
 30
0.0
 10
208.5134313693812
 20
360.7324167758911
 30
0.0
 10
208.491541061619
 20
361.1667637670834
 30
0.0
 10
208.4679994317353
 20
361.6012167087765
 30
0.0
 10
208.4381222203045
 20
362.1231673569495
 30
0.0
 10
208.4060059460382
 20
362.6455554784606
 30
0.0
 10
208.3708101160029
 20
363.1679167517009
 30
0.0
 10
208.333561718544
 20
363.6910750911235
 30
0.0
 10
208.2904446955261
 20
364.2552211822684
 30
0.0
 10
208.2442743192993
 20
364.803491083222
 30
0.0
 10
208.2058849249777
 20
365.2337891349935
 30
0.0
 10
208.1591096608732
 20
365.7366703286485
 30
0.0
 10
208.1083647402589
 20
366.2391831576045
 30
0.0
 10
208.0539706186953
 20
366.7416745445354
 30
0.0
 10
208.0134740225789
 20
367.1010813656507
 30
0.0
 10
207.9708382001899
 20
367.4603025870942
 30
0.0
 10
207.9312891242995
 20
367.7795982352891
 30
0.0
 10
207.8888528715401
 20
368.1109993316525
 30
0.0
 10
207.8469870547459
 20
368.4221293296286
 30
0.0
 10
207.8034014768283
 20
368.7332309456377
 30
0.0
 10
207.7659556993465
 20
368.9926389818297
 30
0.0
 10
207.7270255082086
 20
369.2518443839631
 30
0.0
 10
207.6869015752783
 20
369.5111051994584
 30
0.0
 10
207.645571900656
 20
369.770410579027
 30
0.0
 10
207.6026253112609
 20
370.0294449568177
 30
0.0
 10
207.5642936516917
 20
370.253867476962
 30
0.0
 10
207.5311140931152
 20
370.4437622691853
 30
0.0
 10
207.4939428907429
 20
370.6508127448544
 30
0.0
 10
207.455757564018
 20
370.8577747492224
 30
0.0
 10
207.4165247281695
 20
371.0646249899071
 30
0.0
 10
207.3829174297091
 20
371.236857953249
 30
0.0
 10
207.3417057708786
 20
371.4435508402164
 30
0.0
 10
207.2993285653647
 20
371.6501165677971
 30
0.0
 10
207.2579002298625
 20
371.8448437449644
 30
0.0
 10
207.2280856302255
 20
371.9822586326089
 30
0.0
 10
207.1877297382569
 20
372.1655275737575
 30
0.0
 10
207.140826465321
 20
372.3713379514395
 30
0.0
 10
207.0815570072462
 20
372.6225218263264
 30
0.0
 10
207.0371960266968
 20
372.8050216547813
 30
0.0
 10
206.9877511700228
 20
373.0024002594606
 30
0.0
 10
206.9293821969359
 20
373.2300354594398
 30
0.0
 10
206.8687955072375
 20
373.4570438126062
 30
0.0
 10
206.8186179129482
 20
373.6381362532133
 30
0.0
 10
206.7931846707547
 20
373.7286588851229
 30
0.0
 10
206.7632257296171
 20
373.8342489514899
 30
0.0
 10
206.7283445479785
 20
373.9547302403175
 30
0.0
 10
206.6927778214307
 20
374.0750192656404
 30
0.0
 10
206.6477046672879
 20
374.2253294098368
 30
0.0
 10
206.6037642056472
 20
374.3677676250925
 30
0.0
 10
206.553972321438
 20
374.5248245984376
 30
0.0
 10
206.5178367842155
 20
374.6369394047641
 30
0.0
 10
206.4809711333773
 20
374.7488029744534
 30
0.0
 10
206.4285374782345
 20
374.9052474988193
 30
0.0
 10
206.3670773799461
 20
375.0835612525234
 30
0.0
 10
206.3034147767333
 20
375.261003847184
 30
0.0
 10
206.2546589048068
 20
375.3937724726475
 30
0.0
 10
206.1802297995789
 20
375.5929399787943
 30
0.0
 10
206.0854932145684
 20
375.8349550330336
 30
0.0
 10
205.9230495362342
 20
376.2282458954227
 30
0.0
 10
205.7793039829397
 20
376.5524342848374
 30
0.0
 10
205.6419685571396
 20
376.840211878863
 30
0.0
 10
205.555891839215
 20
377.0157321827458
 30
0.0
 10
205.4268256147586
 20
377.2706150841806
 30
0.0
 10
205.2568139641693
 20
377.5851191988396
 30
0.0
 10
205.0195162085642
 20
377.9934684047053
 30
0.0
 10
204.8014143991336
 20
378.3383925528198
 30
0.0
 10
204.6036753265435
 20
378.6259256477902
 30
0.0
 10
204.4349126489208
 20
378.861507428934
 30
0.0
 10
204.2093090858409
 20
379.1598301638425
 30
0.0
 10
203.9722563802289
 20
379.445352274611
 30
0.0
 10
203.7622213820542
 20
379.6819984654639
 30
0.0
 10
203.58106861317
 20
379.8781034846011
 30
0.0
 10
203.3947000257085
 20
380.0668105993357
 30
0.0
 10
203.2217704011935
 20
380.2328218999145
 30
0.0
 10
203.1110020884193
 20
380.3357044601655
 30
0.0
 10
203.0146516842618
 20
380.4222869477937
 30
0.0
 10
202.8535612261499
 20
380.5642068834733
 30
0.0
 10
202.6727603136709
 20
380.7152543264799
 30
0.0
 10
202.4787944260724
 20
380.8667426579084
 30
0.0
 10
202.3516185786505
 20
380.9630983997666
 30
0.0
 10
202.1465165935888
 20
381.1138994872368
 30
0.0
 10
201.8578604092233
 20
381.3116490359382
 30
0.0
 10
201.4496537675342
 20
381.5669654672375
 30
0.0
 10
201.0836779115972
 20
381.7734422095889
 30
0.0
 10
200.7940652171783
 20
381.9224238230293
 30
0.0
 10
200.5032537281375
 20
382.0660071027569
 30
0.0
 10
200.105200008999
 20
382.2486912676075
 30
0.0
 10
199.6958165493519
 20
382.4139376558007
 30
0.0
 10
199.3990304909206
 20
382.5249536957324
 30
0.0
 10
199.2008584312464
 20
382.5966542626979
 30
0.0
 10
198.9019588212316
 20
382.6989590574842
 30
0.0
 10
198.4397611553462
 20
382.8453398068128
 30
0.0
 10
197.9206183760244
 20
382.9910688728061
 30
0.0
 10
197.4560519436858
 20
383.1062388931979
 30
0.0
 10
197.1067137239641
 20
383.1867108380118
 30
0.0
 10
196.7815467598163
 20
383.2570898345947
 30
0.0
 10
196.4873094138521
 20
383.3158971261964
 30
0.0
 10
196.2176521453791
 20
383.3667858989633
 30
0.0
 10
195.9868474060732
 20
383.4084117196379
 30
0.0
 10
195.7556247695615
 20
383.4476728827432
 30
0.0
 10
195.4779375838946
 20
383.4927366059275
 30
0.0
 10
195.1998750905541
 20
383.5351654666953
 30
0.0
 10
194.9213534521016
 20
383.5745551866578
 30
0.0
 10
194.6331898096945
 20
383.6135087946665
 30
0.0
 10
194.3256857444921
 20
383.652453153981
 30
0.0
 10
194.008240301867
 20
383.689382590377
 30
0.0
 10
193.7276751829652
 20
383.7203813329637
 30
0.0
 10
193.4469585108855
 20
383.7497342492259
 30
0.0
 10
193.1660289205854
 20
383.7770420477283
 30
0.0
 10
192.8850062401668
 20
383.8028684317459
 30
0.0
 10
192.6038979508442
 20
383.8272602719525
 30
0.0
 10
192.3226352123907
 20
383.8498259730127
 30
0.0
 10
191.9692505141238
 20
383.8765336317276
 30
0.0
 10
191.5120329817618
 20
383.9081632663355
 30
0.0
 10
190.9665702115252
 20
383.9406634409418
 30
0.0
 10
190.4614460267492
 20
383.9668176020582
 30
0.0
 10
190.0283924023297
 20
383.9868996045171
 30
0.0
 10
189.6674254335035
 20
384.001497181547
 30
0.0
 10
189.3064149718786
 20
384.0146892602805
 30
0.0
 10
188.9453843790734
 20
384.0264511810647
 30
0.0
 10
188.5843032056471
 20
384.0365084378815
 30
0.0
 10
188.1839314331963
 20
384.0463327796575
 30
0.0
 10
187.7442585275286
 20
384.055477917256
 30
0.0
 10
187.2849233093591
 20
384.0628573506478
 30
0.0
 10
186.8255862739911
 20
384.0688112717744
 30
0.0
 10
186.3662381219377
 20
384.0734318432399
 30
0.0
 10
185.9068696861607
 20
384.0765758146644
 30
0.0
 10
185.4475089593728
 20
384.0788082816505
 30
0.0
 10
184.9881379662421
 20
384.0802055130972
 30
0.0
 10
184.528762004649
 20
384.0808108455564
 30
0.0
 10
184.0424122826006
 20
384.081007624431
 30
0.0
 10
183.7398203704613
 20
384.0808716252989
 30
0.0
 10
183.5291070406982
 20
384.0807769207519
 30
0.0
  0
SPLINE
  5
9D
330
1F
100
AcDbEntity
  8
0
  6
Continuous
 62
     8
370
    18
100
AcDbSpline
210
0.0
220
0.0
230
1.0
 70
     8
 71
     3
 72
    32
 73
    28
 74
     0
 42
0.000000001
 43
0.00000001
 40
0.0
 40
0.0
 40
0.0
 40
0.0
 40
0.1878372206702676
 40
0.3773077177484475
 40
0.6162016569912904
 40
0.6675357795501395
 40
0.7297325872678009
 40
0.7632139163542296
 40
0.7856876584577025
 40
0.8204309859456312
 40
0.8388865443271157
 40
0.8449774111856458
 40
0.8574265512622895
 40
0.8823844498725701
 40
0.907133705255153
 40
0.929056740367733
 40
0.9513609283662213
 40
0.958874590066413
 40
0.9784084425068791
 40
0.9828531991647167
 40
0.9843445477848543
 40
0.9942025414269138
 40
0.9961521959988036
 40
0.9971487876579395
 40
0.9987460212034479
 40
0.9996953703558129
 40
1.0
 40
1.0
 40
1.0
 40
1.0
 10
208.6832201827229
 20
341.6594064579706
 30
0.0
 10
208.6898247997366
 20
341.9101318258861
 30
0.0
 10
208.7030914620261
 20
342.4137626612035
 30
0.0
 10
208.7213875802857
 20
343.2376919723615
 30
0.0
 10
208.7331920322149
 20
343.8799397712475
 30
0.0
 10
208.7405247825345
 20
344.3522148108822
 30
0.0
 10
208.7433753593359
 20
344.5492889101132
 30
0.0
 10
208.7455257709955
 20
344.7077199545195
 30
0.0
 10
208.7471047546055
 20
344.8293588897846
 30
0.0
 10
208.7483609929163
 20
344.9308637161063
 30
0.0
 10
208.7492999244689
 20
345.0104058081848
 30
0.0
 10
208.7498720624506
 20
345.0600421022493
 30
0.0
 10
208.7505332094865
 20
345.1184057213352
 30
0.0
 10
208.7514583922525
 20
345.2018131397361
 30
0.0
 10
208.7525011225332
 20
345.2979467353553
 30
0.0
 10
208.7535008739777
 20
345.3905300577763
 30
0.0
 10
208.7542864140921
 20
345.4599853655749
 30
0.0
 10
208.7550227801012
 20
345.5262391355849
 30
0.0
 10
208.7554928702463
 20
345.5685199558869
 30
0.0
 10
208.755779279148
 20
345.6027212951357
 30
0.0
 10
208.7559336451445
 20
345.6239310018103
 30
0.0
 10
208.7560293603788
 20
345.6417920001809
 30
0.0
 10
208.7560490610179
 20
345.6589914212593
 30
0.0
 10
208.7560525690712
 20
345.6650946521481
 30
0.0
 10
208.7560583958072
 20
345.6698541074294
 30
0.0
 10
208.7560615296038
 20
345.6736841532288
 30
0.0
 10
208.7560693258193
 20
345.6753684148835
 30
0.0
 10
208.7560712197575
 20
345.6757775733396
 30
0.0
  0
SPLINE
  5
9E
330
1F
100
AcDbEntity
  8
0
  6
Continuous
 62
     8
370
    18
100
AcDbSpline
210
0.0
220
0.0
230
1.0
 70
     8
 71
     3
 72
    34
 73
    30
 74
     0
 42
0.000000001
 43
0.00000001
 40
0.0
 40
0.0
 40
0.0
 40
0.0
 40
0.0463410832316868
 40
0.1659610323906873
 40
0.2058741308699035
 40
0.2331315195857579
 40
0.2739637533486555
 40
0.2875568646623925
 40
0.3389345122729281
 40
0.4114464503587248
 40
0.4558154510997439
 40
0.500141151393561
 40
0.5888498184729816
 40
0.6149005065171514
 40
0.6539642109080085
 40
0.6734844562553389
 40
0.6799908337759066
 40
0.6930172277536506
 40
0.7126150897929399
 40
0.732184668616625
 40
0.7515899741563195
 40
0.7711070143695373
 40
0.8101980768520985
 40
0.8297543104141392
 40
0.861678007554822
 40
0.874039207843124
 40
0.8863485816281177
 40
0.948248521363731
 40
1.0
 40
1.0
 40
1.0
 40
1.0
 10
208.3848138187529
 20
331.4574822074715
 30
0.0
 10
208.3904409322504
 20
331.6136617627484
 30
0.0
 10
208.4105932787279
 20
332.1729866301123
 30
0.0
 10
208.4351511673781
 20
332.8677781059496
 30
0.0
 10
208.4569248036756
 20
333.4992637672268
 30
0.0
 10
208.4693817598412
 20
333.8646333147906
 30
0.0
 10
208.478697887636
 20
334.1411428603467
 30
0.0
 10
208.4906451193649
 20
334.4994735574554
 30
0.0
 10
208.5059807208636
 20
334.9653553863795
 30
0.0
 10
208.5242730892341
 20
335.5360829789506
 30
0.0
 10
208.541316660653
 20
336.0834930450878
 30
0.0
 10
208.5596669174404
 20
336.6864334861623
 30
0.0
 10
208.5754205546457
 20
337.2277975720272
 30
0.0
 10
208.590028442648
 20
337.7517901909611
 30
0.0
 10
208.597876472874
 20
338.0402604894243
 30
0.0
 10
208.6037833334822
 20
338.262227791075
 30
0.0
 10
208.6072941649521
 20
338.3954338671052
 30
0.0
 10
208.6107854021418
 20
338.5289271134676
 30
0.0
 10
208.6154062233123
 20
338.7070334048765
 30
0.0
 10
208.6205271924591
 20
338.9069730420719
 30
0.0
 10
208.6254756746152
 20
339.1067089620861
 30
0.0
 10
208.6320934091845
 20
339.3731863145585
 30
0.0
 10
208.6385180257166
 20
339.6403161515956
 30
0.0
 10
208.6458348171478
 20
339.9499982979602
 30
0.0
 10
208.6508800940021
 20
340.1683824504974
 30
0.0
 10
208.6552927393863
 20
340.3620497764156
 30
0.0
 10
208.6619316056633
 20
340.6583651187761
 30
0.0
 10
208.6714186114195
 20
341.0897494494052
 30
0.0
 10
208.679480069819
 20
341.4794870436983
 30
0.0
 10
208.6831508765551
 20
341.6569551041392
 30
0.0
  0
SPLINE
  5
9F
330
1F
100
AcDbEntity
  8
0
  6
Continuous
 62
     8
370
    18
100
AcDbSpline
210
0.0
220
0.0
230
1.0
 70
     8
 71
     3
 72
    19
 73
    15
 74
     0
 42
0.000000001
 43
0.00000001
 40
0.0
 40
0.0
 40
0.0
 40
0.0
 40
0.25
 40
0.25
 40
0.5000000000000004
 40
0.5000000000000004
 40
0.7500000000000009
 40
0.7500000000000009
 40
0.8750000000000004
 40
0.8750000000000004
 40
0.9375000000000004
 40
0.9687500000000002
 40
0.9687500000000002
 40
1.0
 40
1.0
 40
1.0
 40
1.0
 10
158.375071031799
 20
341.6569480891265
 30
0.0
 10
158.3933602265798
 20
340.800348842076
 30
0.0
 10
158.4117025070525
 20
339.9464268244909
 30
0.0
 10
158.4543561890679
 20
338.2385369688985
 30
0.0
 10
158.4785904232483
 20
337.3874365793234
 30
0.0
 10
158.5295542776482
 20
335.6876893160675
 30
0.0
 10
158.5567283788813
 20
334.8394883462789
 30
0.0
 10
158.5993133465569
 20
333.5694830969059
 30
0.0
 10
158.6138199085422
 20
333.1465301954721
 30
0.0
 10
158.635948807167
 20
332.5126798092727
 30
0.0
 10
158.6471046713218
 20
332.1958999837838
 30
0.0
 10
158.6583610964548
 20
331.8793458110404
 30
0.0
 10
158.6658814883642
 20
331.6683611930102
 30
0.0
 10
158.6696421360443
 20
331.5642557645388
 30
0.0
 10
158.6734226059989
 20
331.4574543455757
 30
0.0
  0
SPLINE
  5
A0
330
1F
100
AcDbEntity
  8
0
  6
Continuous
 62
     8
370
    18
100
AcDbSpline
210
0.0
220
0.0
230
1.0
 70
     8
 71
     3
 72
     8
 73
     4
 74
     0
 42
0.000000001
 43
0.00000001
 40
0.0
 40
0.0
 40
0.0
 40
0.0
 40
1.0
 40
1.0
 40
1.0
 40
1.0
 10
158.3750263984743
 20
341.6593774253728
 30
0.0
 10
158.3395415696158
 20
342.9935578843086
 30
0.0
 10
158.3143208606292
 20
344.3309904005335
 30
0.0
 10
158.3021631437565
 20
345.6757624790692
 30
0.0
  0
SPLINE
  5
A1
330
1F
100
AcDbEntity
  8
0
  6
Continuous
 62
     8
370
    18
100
AcDbSpline
210
0.0
220
0.0
230
1.0
 70
     8
 71
     3
 72
    38
 73
    34
 74
     0
 42
0.000000001
 43
0.00000001
 40
0.0
 40
0.0
 40
0.0
 40
0.0
 40
0.0559163241114808
 40
0.1058661331276771
 40
0.1498107602905629
 40
0.1877322787133374
 40
0.2195275468666001
 40
0.2452566105512705
 40
0.2702469852936221
 40
0.307628456458948
 40
0.3459391383209307
 40
0.3724205500688861
 40
0.3923524222093118
 40
0.4211458541816869
 40
0.4581363799998315
 40
0.5035821414901004
 40
0.5262682748620204
 40
0.5497018484069959
 40
0.5739326463506406
 40
0.5990021864554228
 40
0.6248989649915901
 40
0.6516207379808735
 40
0.6791556108651892
 40
0.7075084474213249
 40
0.7366968647915737
 40
0.7667205279702402
 40
0.7975377587763864
 40
0.8291627057682469
 40
0.8616150004321677
 40
0.8949075145567476
 40
0.9290554496472675
 40
0.9640775448051915
 40
1.0
 40
1.0
 40
1.0
 40
1.0
 10
183.5291069732781
 20
384.0809332112341
 30
0.0
 10
182.4724674943713
 20
384.0806046297316
 30
0.0
 10
180.4719365667858
 20
384.0799825278025
 30
0.0
 10
177.6411883104374
 20
384.025585116438
 30
0.0
 10
175.1538790573704
 20
383.8940458834896
 30
0.0
 10
173.0157071521577
 20
383.7011961924983
 30
0.0
 10
171.2319134264018
 20
383.4510740571464
 30
0.0
 10
169.7072465134288
 20
383.1466591611092
 30
0.0
 10
168.1086677984534
 20
382.7142434353192
 30
0.0
 10
166.3461852881373
 20
382.0331350555181
 30
0.0
 10
164.7175380207869
 20
381.0410170756282
 30
0.0
 10
163.5561064032484
 20
379.9956260835709
 30
0.0
 10
162.6553076446202
 20
378.9510539911312
 30
0.0
 10
161.7840670254081
 20
377.6418963818752
 30
0.0
 10
160.9039713984479
 20
375.7956307016305
 30
0.0
 10
160.3037746245927
 20
373.9463936282216
 30
0.0
 10
159.8924422092384
 20
372.2974850162323
 30
0.0
 10
159.6251252476937
 20
371.0143377741767
 30
0.0
 10
159.3912706946102
 20
369.6750675979913
 30
0.0
 10
159.1869444727986
 20
368.2801660669671
 30
0.0
 10
159.0092976908713
 20
366.8308194478622
 30
0.0
 10
158.8566998316576
 20
365.3288908425814
 30
0.0
 10
158.727449520152
 20
363.7758767206343
 30
0.0
 10
158.6203150026132
 20
362.1727993005462
 30
0.0
 10
158.5315837736563
 20
360.5205524863849
 30
0.0
 10
158.4583795337305
 20
358.8207311288305
 30
0.0
 10
158.3998544292989
 20
357.0748631804364
 30
0.0
 10
158.3543859895374
 20
355.2840998212814
 30
0.0
 10
158.3215078950008
 20
353.4485138280227
 30
0.0
 10
158.3006838996219
 20
351.5681158391671
 30
0.0
 10
158.2907310845665
 20
349.6430880239179
 30
0.0
 10
158.2893988188072
 20
347.6726995576211
 30
0.0
 10
158.2978724323376
 20
346.3470169196393
 30
0.0
 10
158.3021630085816
 20
345.6757634557909
 30
0.0
  0
SPLINE
  5
A2
330
1F
100
AcDbEntity
  8
0
  6
Continuous
 62
     8
370
    18
100
AcDbSpline
210
0.0
220
0.0
230
1.0
 70
     8
 71
     3
 72
    13
 73
     9
 74
     0
 42
0.000000001
 43
0.00000001
 40
0.0
 40
0.0
 40
0.0
 40
0.0
 40
0.1725941211306671
 40
0.3442309890218808
 40
0.5149139786930462
 40
0.6846424045508824
 40
0.8534121723777531
 40
1.0
 40
1.0
 40
1.0
 40
1.0
 10
183.5291070706272
 20
384.5701807232656
 30
0.0
 10
183.5290232195382
 20
384.7352546027391
 30
0.0
 10
183.5288559824207
 20
385.0644868177218
 30
0.0
 10
183.5287013878529
 20
385.5124763058166
 30
0.0
 10
183.5286018820209
 20
385.8888749164535
 30
0.0
 10
183.5285603248209
 20
386.1656950175644
 30
0.0
 10
183.5285646689815
 20
386.3346386726539
 30
0.0
 10
183.5286130963778
 20
386.3481680659067
 30
0.0
 10
183.5286356069085
 20
386.3544569404878
 30
0.0
  0
LWPOLYLINE
  5
A3
330
1F
100
AcDbEntity
  8
0
  6
Continuous
 62
     8
370
    18
100
AcDbPolyline
 90
        9
 70
   128
 43
0.0
 10
183.5289629013
 20
384.0803758295
 10
183.5290003679
 20
384.1410012039
 10
183.5290375062
 20
384.2019208761
 10
183.5290742783
 20
384.2630752416
 10
183.5291106469
 20
384.3244046958
 10
183.5291465751
 20
384.3858384581
 10
183.5291820263
 20
384.4473243745
 10
183.5292169646
 20
384.5087916644
 10
183.5292513544
 20
384.5701807233
  0
SPLINE
  5
A4
330
1F
100
AcDbEntity
  8
0
  6
Continuous
 62
     8
370
    18
100
AcDbSpline
210
0.0
220
0.0
230
1.0
 70
     8
 71
     3
 72
    52
 73
    48
 74
     0
 42
0.000000001
 43
0.00000001
 40
0.0
 40
0.0
 40
0.0
 40
0.0
 40
0.1249999999999998
 40
0.1249999999999998
 40
0.1874999999999996
 40
0.1874999999999996
 40
0.2499999999999995
 40
0.2499999999999995
 40
0.3124999999999993
 40
0.3124999999999993
 40
0.3437499999999992
 40
0.3437499999999992
 40
0.3749999999999991
 40
0.3749999999999991
 40
0.406249999999999
 40
0.406249999999999
 40
0.4374999999999989
 40
0.4374999999999989
 40
0.4531249999999988
 40
0.4531249999999988
 40
0.4687499999999987
 40
0.4687499999999987
 40
0.4999999999999986
 40
0.4999999999999986
 40
0.5156249999999986
 40
0.5156249999999986
 40
0.5312499999999986
 40
0.5312499999999986
 40
0.5624999999999983
 40
0.5624999999999983
 40
0.5781249999999983
 40
0.5781249999999983
 40
0.5937499999999983
 40
0.5937499999999983
 40
0.6249999999999984
 40
0.6249999999999984
 40
0.6562499999999987
 40
0.6562499999999987
 40
0.6874999999999988
 40
0.6874999999999988
 40
0.749999999999999
 40
0.749999999999999
 40
0.8124999999999992
 40
0.8124999999999992
 40
0.8749999999999994
 40
0.8749999999999994
 40
1.0
 40
1.0
 40
1.0
 40
1.0
 10
264.3512160746405
 20
332.0822723734599
 30
0.0
 10
264.3512160989955
 20
326.184107017119
 30
0.0
 10
264.3208274869815
 20
320.286628534169
 30
0.0
 10
264.1287485043691
 20
311.4448913197164
 30
0.0
 10
264.0396267525457
 20
308.4984142033138
 30
0.0
 10
263.7784764791934
 20
302.6080060893494
 30
0.0
 10
263.6069501847297
 20
299.6640653856887
 30
0.0
 10
263.1265314968232
 20
293.7802563905556
 30
0.0
 10
262.8188843700426
 20
290.8403620979113
 30
0.0
 10
262.1790901244427
 20
286.4354661704713
 30
0.0
 10
261.9356459916712
 20
284.9680085878444
 30
0.0
 10
261.3667241266108
 20
282.0353138518274
 30
0.0
 10
261.0429355365792
 20
280.5790137273466
 30
0.0
 10
260.2916779433539
 20
277.6983617358636
 30
0.0
 10
259.8642224953627
 20
276.2732405402634
 30
0.0
 10
258.8688218090517
 20
273.4642613627377
 30
0.0
 10
258.301033111843
 20
272.0803478293682
 30
0.0
 10
257.3048502374206
 20
270.0475303731141
 30
0.0
 10
256.9476932587874
 20
269.3761993930942
 30
0.0
 10
256.1896542946579
 20
268.0719138529052
 30
0.0
 10
255.787631204438
 20
267.4364448845873
 30
0.0
 10
254.5069865472989
 20
265.5847423583779
 30
0.0
 10
253.5532757813787
 20
264.4235135002319
 30
0.0
 10
251.9571618195145
 20
262.8072159808079
 30
0.0
 10
251.3946355471608
 20
262.2870090720305
 30
0.0
 10
250.235616787762
 20
261.3076782336684
 30
0.0
 10
249.6379940410348
 20
260.8468579012026
 30
0.0
 10
247.7957930110852
 20
259.5443632834039
 30
0.0
 10
246.5019896627736
 20
258.7826572604198
 30
0.0
 10
244.4826950914004
 20
257.7707405064243
 30
0.0
 10
243.7943640017547
 20
257.4543312553603
 30
0.0
 10
242.4059894546514
 20
256.8650497604299
 30
0.0
 10
241.7066011882075
 20
256.5922580205384
 30
0.0
 10
239.5954472165462
 20
255.8294377064313
 30
0.0
 10
238.1707786051642
 20
255.3944128180848
 30
0.0
 10
235.2965130642528
 20
254.6310855091723
 30
0.0
 10
233.8468579784501
 20
254.3029788233837
 30
0.0
 10
230.928862153601
 20
253.7263295685075
 30
0.0
 10
229.4598989307313
 20
253.4778160970523
 30
0.0
 10
225.035306618516
 20
252.8234239156543
 30
0.0
 10
222.0792528150541
 20
252.5089653198546
 30
0.0
 10
216.1596662507444
 20
252.0181983104107
 30
0.0
 10
213.1960769911885
 20
251.8431578702712
 30
0.0
 10
207.2642697295147
 20
251.5768449292947
 30
0.0
 10
204.2959602236356
 20
251.4860996163174
 30
0.0
 10
195.394610929449
 20
251.290791961165
 30
0.0
 10
189.4615544547732
 20
251.2601628146607
 30
0.0
 10
183.5291070707247
 20
251.260162790925
 30
0.0
  0
SPLINE
  5
A5
330
1F
100
AcDbEntity
  8
0
  6
Continuous
 62
     8
370
    18
100
AcDbSpline
210
0.0
220
0.0
230
1.0
 70
     8
 71
     3
 72
    52
 73
    48
 74
     0
 42
0.000000001
 43
0.00000001
 40
0.0
 40
0.0
 40
0.0
 40
0.0
 40
0.1249999999999994
 40
0.1249999999999994
 40
0.1874999999999992
 40
0.1874999999999992
 40
0.2499999999999989
 40
0.2499999999999989
 40
0.3124999999999986
 40
0.3124999999999986
 40
0.3437499999999984
 40
0.3437499999999984
 40
0.3749999999999982
 40
0.3749999999999982
 40
0.4062499999999981
 40
0.4062499999999981
 40
0.4374999999999978
 40
0.4374999999999978
 40
0.4531249999999978
 40
0.4531249999999978
 40
0.4687499999999978
 40
0.4687499999999978
 40
0.4999999999999976
 40
0.4999999999999976
 40
0.5156249999999973
 40
0.5156249999999973
 40
0.5312499999999972
 40
0.5312499999999972
 40
0.5624999999999971
 40
0.5624999999999971
 40
0.5781249999999971
 40
0.5781249999999971
 40
0.5937499999999971
 40
0.5937499999999971
 40
0.6249999999999973
 40
0.6249999999999973
 40
0.6562499999999976
 40
0.6562499999999976
 40
0.6874999999999977
 40
0.6874999999999977
 40
0.7499999999999982
 40
0.7499999999999982
 40
0.8124999999999987
 40
0.8124999999999987
 40
0.8749999999999991
 40
0.8749999999999991
 40
1.0
 40
1.0
 40
1.0
 40
1.0
 10
183.5291054063639
 20
251.2601627909249
 30
0.0
 10
177.6309401168861
 20
251.2601627729867
 30
0.0
 10
171.7334617003555
 20
251.2905513945606
 30
0.0
 10
162.8917245805149
 20
251.482630400397
 30
0.0
 10
159.9452474948847
 20
251.57175216147
 30
0.0
 10
154.0548394399178
 20
251.8329024579166
 30
0.0
 10
151.1108987645048
 20
252.0044287661781
 30
0.0
 10
145.2270898214409
 20
252.4848474893642
 30
0.0
 10
142.2871955526686
 20
252.7924946374769
 30
0.0
 10
137.8822996548815
 20
253.4322889262262
 30
0.0
 10
136.4148420811126
 20
253.675733075258
 30
0.0
 10
133.4821473599274
 20
254.2446549784856
 30
0.0
 10
132.0258472517544
 20
254.5684435880333
 30
0.0
 10
129.145195281185
 20
255.3197012287704
 30
0.0
 10
127.7200740948057
 20
255.7471567038617
 30
0.0
 10
124.9110949328522
 20
256.7425574544673
 30
0.0
 10
123.5271814058289
 20
257.3103461887997
 30
0.0
 10
121.4943639573545
 20
258.3065291301162
 30
0.0
 10
120.8230329849919
 20
258.6636861303011
 30
0.0
 10
119.5187474625314
 20
259.4217251378716
 30
0.0
 10
118.8832785029591
 20
259.8237482509338
 30
0.0
 10
117.0315760030853
 20
261.1043929796232
 30
0.0
 10
115.8703471626714
 20
262.0581037974458
 30
0.0
 10
114.2540496720146
 20
263.6542178391663
 30
0.0
 10
113.7338427751556
 20
264.2167441368658
 30
0.0
 10
112.754511968131
 20
265.3757629352407
 30
0.0
 10
112.2936916507933
 20
265.9733857005935
 30
0.0
 10
110.9911970768211
 20
267.8155867829772
 30
0.0
 10
110.2294910809811
 20
269.1093901615353
 30
0.0
 10
109.2175743643556
 20
271.1286847699935
 30
0.0
 10
108.9011651250539
 20
271.8170158712622
 30
0.0
 10
108.3118836559413
 20
273.2053904295376
 30
0.0
 10
108.0390919279321
 20
273.904778700563
 30
0.0
 10
107.2762716468135
 20
276.0159326829798
 30
0.0
 10
106.8412467769569
 20
277.4406012977387
 30
0.0
 10
106.077919500039
 20
280.3148668398389
 30
0.0
 10
105.7498128277437
 20
281.7645219234558
 30
0.0
 10
105.1731635962212
 20
284.6825177399207
 30
0.0
 10
104.9246501344677
 20
286.1514809576691
 30
0.0
 10
104.2702579791909
 20
290.5760732429869
 30
0.0
 10
103.9557993950792
 20
293.5321270238147
 30
0.0
 10
103.4650324032684
 20
299.4517135379093
 30
0.0
 10
103.2899919689905
 20
302.4153027698238
 30
0.0
 10
103.0236790366208
 20
308.347109973341
 30
0.0
 10
102.9329337263606
 20
311.3154194485533
 30
0.0
 10
102.7376260768175
 20
320.2167686483119
 30
0.0
 10
102.7069969308015
 20
326.1498250568345
 30
0.0
 10
102.7069969069624
 20
332.0822723734265
 30
0.0
  0
SPLINE
  5
A6
330
1F
100
AcDbEntity
  8
0
  6
Continuous
 62
     8
370
    18
100
AcDbSpline
210
0.0
220
0.0
230
1.0
 70
     8
 71
     3
 72
    52
 73
    48
 74
     0
 42
0.000000001
 43
0.00000001
 40
0.0
 40
0.0
 40
0.0
 40
0.0
 40
0.1250000000000008
 40
0.1250000000000008
 40
0.1875000000000013
 40
0.1875000000000013
 40
0.2500000000000018
 40
0.2500000000000018
 40
0.3125000000000023
 40
0.3125000000000023
 40
0.3437500000000024
 40
0.3437500000000024
 40
0.3750000000000026
 40
0.3750000000000026
 40
0.4062500000000028
 40
0.4062500000000028
 40
0.4375000000000032
 40
0.4375000000000032
 40
0.4531250000000032
 40
0.4531250000000032
 40
0.4687500000000033
 40
0.4687500000000033
 40
0.5000000000000037
 40
0.5000000000000037
 40
0.5156250000000037
 40
0.5156250000000037
 40
0.5312500000000037
 40
0.5312500000000037
 40
0.5625000000000036
 40
0.5625000000000036
 40
0.5781250000000034
 40
0.5781250000000034
 40
0.5937500000000033
 40
0.5937500000000033
 40
0.625000000000003
 40
0.625000000000003
 40
0.6562500000000028
 40
0.6562500000000028
 40
0.6875000000000026
 40
0.6875000000000026
 40
0.7500000000000021
 40
0.7500000000000021
 40
0.8125000000000017
 40
0.8125000000000017
 40
0.8750000000000011
 40
0.8750000000000011
 40
1.0
 40
1.0
 40
1.0
 40
1.0
 10
102.7069969069624
 20
332.0822723735888
 30
0.0
 10
102.7069969308321
 20
337.9804377344769
 30
0.0
 10
102.7373855910851
 20
343.8779162241674
 30
0.0
 10
102.9294646464203
 20
352.7196534547751
 30
0.0
 10
103.0185864225482
 20
355.666130577589
 30
0.0
 10
103.2797367448729
 20
361.5565387073891
 30
0.0
 10
103.45126306399
 20
364.5004794204561
 30
0.0
 10
103.9316818021838
 20
370.3842884391087
 30
0.0
 10
104.2393289545493
 20
373.3241827458279
 30
0.0
 10
104.87912324063
 20
377.7290787003403
 30
0.0
 10
105.1225673872573
 20
379.1965362929871
 30
0.0
 10
105.6914892812876
 20
382.1292310516829
 30
0.0
 10
106.0152778864135
 20
383.5855311887469
 30
0.0
 10
106.7665355119197
 20
386.4661832084524
 30
0.0
 10
107.1939909770912
 20
387.8913044197104
 30
0.0
 10
108.189391701315
 20
390.7002836320503
 30
0.0
 10
108.757180419255
 20
392.0841971845798
 30
0.0
 10
109.7533633289785
 20
394.1170146717888
 30
0.0
 10
110.1105203201083
 20
394.7883456625131
 30
0.0
 10
110.8685593105987
 20
396.0926312240672
 30
0.0
 10
111.2705824147063
 20
396.728100203091
 30
0.0
 10
112.5512271155367
 20
398.5798027606651
 30
0.0
 10
113.5049379134163
 20
399.7410316386834
 30
0.0
 10
115.1010519249718
 20
401.3573291826806
 30
0.0
 10
115.6635782142325
 20
401.8775360988486
 30
0.0
 10
116.8225970068738
 20
402.8568669495131
 30
0.0
 10
117.4202197699582
 20
403.3176872869318
 30
0.0
 10
119.2624208473015
 20
404.6201819160817
 30
0.0
 10
120.5562242248556
 20
405.3818879419209
 30
0.0
 10
122.5755188349476
 20
406.393804695085
 30
0.0
 10
123.263849936697
 20
406.7102139450434
 30
0.0
 10
124.6522245062111
 20
407.2994954363969
 30
0.0
 10
125.3516127830067
 20
407.5722871738349
 30
0.0
 10
127.4627667832939
 20
408.3351074790604
 30
0.0
 10
128.887435410585
 20
408.770132359527
 30
0.0
 10
131.761700978642
 20
409.5334596506933
 30
0.0
 10
133.2113560756889
 20
409.8615663265973
 30
0.0
 10
136.1293519197266
 20
410.4382155606808
 30
0.0
 10
137.5983151505412
 20
410.6867290212181
 30
0.0
 10
142.0229074830903
 20
411.3411211690562
 30
0.0
 10
144.9789612954654
 20
411.6555797414429
 30
0.0
 10
150.898547873129
 20
412.146346703599
 30
0.0
 10
153.862137137055
 20
412.3213871198115
 30
0.0
 10
159.793944405135
 20
412.5877000128046
 30
0.0
 10
162.7622539130212
 20
412.6784453017123
 30
0.0
 10
171.6636032113838
 20
412.8737528846069
 30
0.0
 10
177.5966596864777
 20
412.9043819828734
 30
0.0
 10
183.5291070705291
 20
412.9043819583845
 30
0.0
  0
SPLINE
  5
A7
330
1F
100
AcDbEntity
  8
0
  6
Continuous
 62
     8
370
    18
100
AcDbSpline
210
0.0
220
0.0
230
1.0
 70
     8
 71
     3
 72
    52
 73
    48
 74
     0
 42
0.000000001
 43
0.00000001
 40
0.0
 40
0.0
 40
0.0
 40
0.0
 40
0.1249999999999997
 40
0.1249999999999997
 40
0.1874999999999995
 40
0.1874999999999995
 40
0.2499999999999993
 40
0.2499999999999993
 40
0.3124999999999992
 40
0.3124999999999992
 40
0.3437499999999993
 40
0.3437499999999993
 40
0.3749999999999994
 40
0.3749999999999994
 40
0.4062499999999994
 40
0.4062499999999994
 40
0.4374999999999996
 40
0.4374999999999996
 40
0.4531249999999996
 40
0.4531249999999996
 40
0.4687499999999996
 40
0.4687499999999996
 40
0.4999999999999998
 40
0.4999999999999998
 40
0.5156249999999999
 40
0.5156249999999999
 40
0.5312499999999999
 40
0.5312499999999999
 40
0.5625000000000001
 40
0.5625000000000001
 40
0.5781250000000001
 40
0.5781250000000001
 40
0.5937500000000001
 40
0.5937500000000001
 40
0.6250000000000001
 40
0.6250000000000001
 40
0.6562500000000001
 40
0.6562500000000001
 40
0.6875000000000001
 40
0.6875000000000001
 40
0.7500000000000001
 40
0.7500000000000001
 40
0.8125
 40
0.8125
 40
0.875
 40
0.875
 40
1.0
 40
1.0
 40
1.0
 40
1.0
 10
183.5291070706913
 20
412.9043819583845
 30
0.0
 10
189.4272724293052
 20
412.9043819344297
 30
0.0
 10
195.3247509154208
 20
412.8739932741004
 30
0.0
 10
204.1664881359075
 20
412.6819142188835
 30
0.0
 10
207.1129652545338
 20
412.5927924428353
 30
0.0
 10
213.0033733732848
 20
412.3316421209237
 30
0.0
 10
215.9473140795131
 20
412.1601158021267
 30
0.0
 10
221.8311230798879
 20
411.6796970653252
 30
0.0
 10
224.7710173752214
 20
411.3720499139828
 30
0.0
 10
229.1759133062889
 20
410.7322556312134
 30
0.0
 10
230.6433708900465
 20
410.488811486
 30
0.0
 10
233.576065627985
 20
409.9198895959527
 30
0.0
 10
235.0323657532399
 20
409.5961009933753
 30
0.0
 10
237.9130177455353
 20
408.8448433749837
 30
0.0
 10
239.338138941178
 20
408.4173879143674
 30
0.0
 10
242.1471181174696
 20
407.4219872028784
 30
0.0
 10
243.5310316495556
 20
406.8541984931065
 30
0.0
 10
245.5638491022238
 20
405.8580156002709
 30
0.0
 10
246.2351800807692
 20
405.5008586155743
 30
0.0
 10
247.5394656172854
 20
404.7428196396131
 30
0.0
 10
248.1749345834098
 20
404.3407965436226
 30
0.0
 10
250.0266371018377
 20
403.0601518698405
 30
0.0
 10
251.1878659531527
 20
402.1064410937317
 30
0.0
 10
252.8041634599161
 20
400.5103271188944
 30
0.0
 10
253.3243703640781
 20
399.9478008426057
 30
0.0
 10
254.3037011925624
 20
398.7887820761786
 30
0.0
 10
254.7645215197693
 20
398.1911593263551
 30
0.0
 10
256.067016121093
 20
396.348958288327
 30
0.0
 10
256.8287221321835
 20
395.0551549362551
 30
0.0
 10
257.840638867837
 20
393.035860361058
 30
0.0
 10
258.1570481126969
 20
392.347529270441
 30
0.0
 10
258.7463295951409
 20
390.9591547218471
 30
0.0
 10
259.0191213287472
 20
390.2597664548878
 30
0.0
 10
259.7819416239631
 20
388.148612482186
 30
0.0
 10
260.2169664996702
 20
386.723943870784
 30
0.0
 10
260.9802937833954
 20
383.8496783305773
 30
0.0
 10
261.3084004566313
 20
382.4000232455027
 30
0.0
 10
261.8850496865239
 20
379.4820274225028
 30
0.0
 10
262.133563145548
 20
378.0130642007593
 30
0.0
 10
262.7879552898115
 20
373.5884718921867
 30
0.0
 10
263.1024138610515
 20
370.6324180914397
 30
0.0
 10
263.5931808215931
 20
364.7128315324233
 30
0.0
 10
263.7682212373895
 20
361.7492422754619
 30
0.0
 10
264.0345341297851
 20
355.8174350186226
 30
0.0
 10
264.1252794185253
 20
352.8491255149882
 30
0.0
 10
264.3205870010412
 20
343.9477762268829
 30
0.0
 10
264.3512160992146
 20
338.014719755389
 30
0.0
 10
264.3512160746406
 20
332.0822723736222
 30
0.0
  0
LINE
  5
A8
330
1F
100
AcDbEntity
  8
0
  6
Continuous
 62
     8
370
    18
100
AcDbLine
 10
268.4072153108
 20
332.0822727921
 30
0.0
 11
268.7875450985
 21
332.0822727921
 31
0.0
  0
SPLINE
  5
A9
330
1F
100
AcDbEntity
  8
0
  6
Continuous
 62
     8
370
    18
100
AcDbSpline
210
0.0
220
0.0
230
1.0
 70
     8
 71
     3
 72
    54
 73
    50
 74
     0
 42
0.000000001
 43
0.00000001
 40
0.0
 40
0.0
 40
0.0
 40
0.0
 40
0.0624999999999992
 40
0.0624999999999992
 40
0.1249999999999984
 40
0.1249999999999984
 40
0.1874999999999977
 40
0.1874999999999977
 40
0.2499999999999969
 40
0.2499999999999969
 40
0.3124999999999961
 40
0.3124999999999961
 40
0.3281249999999959
 40
0.3281249999999959
 40
0.3437499999999956
 40
0.3437499999999956
 40
0.374999999999995
 40
0.374999999999995
 40
0.4062499999999944
 40
0.4062499999999944
 40
0.4374999999999938
 40
0.4374999999999938
 40
0.4999999999999926
 40
0.4999999999999926
 40
0.5156249999999926
 40
0.5156249999999926
 40
0.5312499999999927
 40
0.5312499999999927
 40
0.5624999999999928
 40
0.5624999999999928
 40
0.5781249999999928
 40
0.5781249999999928
 40
0.5937499999999928
 40
0.5937499999999928
 40
0.6249999999999931
 40
0.6249999999999931
 40
0.6874999999999941
 40
0.6874999999999941
 40
0.7187499999999946
 40
0.7187499999999946
 40
0.7499999999999951
 40
0.7499999999999951
 40
0.8124999999999963
 40
0.8124999999999963
 40
0.8749999999999976
 40
0.8749999999999976
 40
0.9374999999999988
 40
0.9374999999999988
 40
1.0
 40
1.0
 40
1.0
 40
1.0
 10
183.5291070705214
 20
416.960378834221
 30
0.0
 10
186.624894638524
 20
416.9603788343508
 30
0.0
 10
189.7201569486479
 20
416.951111010563
 30
0.0
 10
195.9087508743384
 20
416.8985095478248
 30
0.0
 10
199.0020906007378
 20
416.8553190190981
 30
0.0
 10
205.185500452948
 20
416.7112480435078
 30
0.0
 10
208.2755861260861
 20
416.6106419188361
 30
0.0
 10
214.4503448223974
 20
416.3139270763949
 30
0.0
 10
217.5350501506013
 20
416.1183883592589
 30
0.0
 10
223.6954291141594
 20
415.5679527384783
 30
0.0
 10
226.7711765377284
 20
415.2143577784968
 30
0.0
 10
230.606113010431
 20
414.6003705430726
 30
0.0
 10
231.3726022303663
 20
414.46878490243
 30
0.0
 10
232.9044283837703
 20
414.185282296371
 30
0.0
 10
233.6701287516603
 20
414.0332593420472
 30
0.0
 10
235.9537243754128
 20
413.5444078272337
 30
0.0
 10
237.4616215873214
 20
413.1744409904401
 30
0.0
 10
240.4397620682464
 20
412.3200751146044
 30
0.0
 10
241.9100319497615
 20
411.8357569523556
 30
0.0
 10
244.8015336876235
 20
410.7180916318197
 30
0.0
 10
246.2233077891553
 20
410.0846374329191
 30
0.0
 10
250.3897899782211
 20
407.8944906779672
 30
0.0
 10
252.9160668447021
 20
406.1041807594123
 30
0.0
 10
255.6890717299113
 20
403.3607628357697
 30
0.0
 10
256.2269060365305
 20
402.7841440117294
 30
0.0
 10
257.2482023148376
 20
401.5974857741791
 30
0.0
 10
257.7324219750627
 20
400.9872171923144
 30
0.0
 10
259.1107270268963
 20
399.1087539316867
 30
0.0
 10
259.9304262210438
 20
397.7928810551724
 30
0.0
 10
261.0322113255198
 20
395.7371809793134
 30
0.0
 10
261.3781911617911
 20
395.0383069048918
 30
0.0
 10
262.0311331331188
 20
393.6155501692202
 30
0.0
 10
262.33711164377
 20
392.8936237691435
 30
0.0
 10
263.1936048995003
 20
390.7175641524603
 30
0.0
 10
263.6864762265027
 20
389.2459159602067
 30
0.0
 10
264.9883398208914
 20
384.7835920948507
 30
0.0
 10
265.6238251672686
 20
381.7464065688291
 30
0.0
 10
266.3750490239395
 20
377.1364795240879
 30
0.0
 10
266.5906069745997
 20
375.5914924668037
 30
0.0
 10
266.9670292244966
 20
372.5012126242577
 30
0.0
 10
267.1281912745944
 20
370.9538901040062
 30
0.0
 10
267.5497555416358
 20
366.306926045107
 30
0.0
 10
267.7492592176932
 20
363.2023705821165
 30
0.0
 10
268.0517842878907
 20
356.9854744667334
 30
0.0
 10
268.1542247410138
 20
353.8726123339994
 30
0.0
 10
268.3007081420018
 20
347.6478050733465
 30
0.0
 10
268.344516841041
 20
344.5350031280078
 30
0.0
 10
268.3978456237645
 20
338.3089352110911
 30
0.0
 10
268.4072135315188
 20
335.1956671801225
 30
0.0
 10
268.4072135313236
 20
332.0822723733679
 30
0.0
  0
LINE
  5
AA
330
1F
100
AcDbEntity
  8
0
  6
Continuous
 62
     8
370
    18
100
AcDbLine
 10
183.5291070708
 20
416.9603765996
 30
0.0
 11
183.5291070708
 21
417.3407138379
 31
0.0
  0
SPLINE
  5
AB
330
1F
100
AcDbEntity
  8
0
  6
Continuous
 62
     8
370
    18
100
AcDbSpline
210
0.0
220
0.0
230
1.0
 70
     8
 71
     3
 72
    54
 73
    50
 74
     0
 42
0.000000001
 43
0.00000001
 40
0.0
 40
0.0
 40
0.0
 40
0.0
 40
0.0625
 40
0.0625
 40
0.1249999999999999
 40
0.1249999999999999
 40
0.1874999999999999
 40
0.1874999999999999
 40
0.2499999999999999
 40
0.2499999999999999
 40
0.3124999999999999
 40
0.3124999999999999
 40
0.3281249999999998
 40
0.3281249999999998
 40
0.3437499999999997
 40
0.3437499999999997
 40
0.3749999999999997
 40
0.3749999999999997
 40
0.4062499999999997
 40
0.4062499999999997
 40
0.4374999999999997
 40
0.4374999999999997
 40
0.4999999999999997
 40
0.4999999999999997
 40
0.5156249999999999
 40
0.5156249999999999
 40
0.5312500000000001
 40
0.5312500000000001
 40
0.5625000000000004
 40
0.5625000000000004
 40
0.5781250000000006
 40
0.5781250000000006
 40
0.5937500000000004
 40
0.5937500000000004
 40
0.6250000000000002
 40
0.6250000000000002
 40
0.6875000000000001
 40
0.6875000000000001
 40
0.71875
 40
0.71875
 40
0.7499999999999999
 40
0.7499999999999999
 40
0.8125
 40
0.8125
 40
0.875
 40
0.875
 40
0.9375
 40
0.9375
 40
1.0
 40
1.0
 40
1.0
 40
1.0
 10
268.4072135313236
 20
332.0822723736297
 30
0.0
 10
268.4072135314534
 20
328.9864848056263
 30
0.0
 10
268.3979457076636
 20
325.8912224955017
 30
0.0
 10
268.3453442449186
 20
319.7026285698099
 30
0.0
 10
268.3021537161871
 20
316.6092888434098
 30
0.0
 10
268.1580827405865
 20
310.4258789911985
 30
0.0
 10
268.0574766159094
 20
307.3357933180598
 30
0.0
 10
267.7607617734603
 20
301.1610346217472
 30
0.0
 10
267.5652230563218
 20
298.0763292935425
 30
0.0
 10
267.0147874355485
 20
291.9159503299823
 30
0.0
 10
266.6611924755811
 20
288.8402029064115
 30
0.0
 10
266.0472052401831
 20
285.0052664337064
 30
0.0
 10
265.9156195995445
 20
284.2387772137706
 30
0.0
 10
265.6321169934908
 20
282.7069510603658
 30
0.0
 10
265.4800940391685
 20
281.9412506924753
 30
0.0
 10
264.9912425243561
 20
279.6576550687226
 30
0.0
 10
264.6212756875592
 20
278.1497578568154
 30
0.0
 10
263.7669098117144
 20
275.1716173758945
 30
0.0
 10
263.2825916494597
 20
273.7013474943822
 30
0.0
 10
262.1649263289191
 20
270.8098457565241
 30
0.0
 10
261.5314721300204
 20
269.3880716549956
 30
0.0
 10
259.3413253750626
 20
265.2215894659301
 30
0.0
 10
257.5510154565008
 20
262.695312599454
 30
0.0
 10
254.8075975328728
 20
259.9223077142368
 30
0.0
 10
254.2309787088353
 20
259.3844734076161
 30
0.0
 10
253.0443204712871
 20
258.3631771293062
 30
0.0
 10
252.4340518894231
 20
257.8789574690806
 30
0.0
 10
250.555588628797
 20
256.5006524172475
 30
0.0
 10
249.2397157522826
 20
255.680953223103
 30
0.0
 10
247.1840156764246
 20
254.5791681186316
 30
0.0
 10
246.4851416020035
 20
254.2331882823621
 30
0.0
 10
245.0623848663336
 20
253.5802463110369
 30
0.0
 10
244.3404584662565
 20
253.2742678003861
 30
0.0
 10
242.1643988495744
 20
252.4177745446542
 30
0.0
 10
240.6927506573228
 20
251.9249032176466
 30
0.0
 10
236.2304267919724
 20
250.6230396232449
 30
0.0
 10
233.1932412659544
 20
249.9875542768631
 30
0.0
 10
228.5833142212102
 20
249.2363304202179
 30
0.0
 10
227.038327163924
 20
249.0207724695684
 30
0.0
 10
223.9480473213753
 20
248.6443502196835
 30
0.0
 10
222.4007248011228
 20
248.4831881695893
 30
0.0
 10
217.7537607422209
 20
248.0616239025541
 30
0.0
 10
214.649205279229
 20
247.862120226495
 30
0.0
 10
208.4323091638438
 20
247.5595951562904
 30
0.0
 10
205.319447031109
 20
247.4571547031618
 30
0.0
 10
199.0946397704542
 20
247.3106713021635
 30
0.0
 10
195.9818378251146
 20
247.2668626031194
 30
0.0
 10
189.7557699081959
 20
247.2135338203888
 30
0.0
 10
186.6425018772262
 20
247.2041659126324
 30
0.0
 10
183.5291070704704
 20
247.2041659128276
 30
0.0
  0
LINE
  5
AC
330
1F
100
AcDbEntity
  8
0
  6
Continuous
 62
     8
370
    18
100
AcDbLine
 10
183.5291070705
 20
247.2041652592
 30
0.0
 11
183.5291070705
 21
246.8238280209
 31
0.0
  0
LINE
  5
AD
330
1F
100
AcDbEntity
  8
0
  6
Continuous
 62
     8
370
    18
100
AcDbLine
 10
98.6510039703
 20
332.0822727921
 30
0.0
 11
98.270666732
 21
332.0822727921
 31
0.0
  0
SPLINE
  5
AE
330
1F
100
AcDbEntity
  8
0
  6
Continuous
 62
     8
370
    18
100
AcDbSpline
210
0.0
220
0.0
230
1.0
 70
     8
 71
     3
 72
    54
 73
    50
 74
     0
 42
0.000000001
 43
0.00000001
 40
0.0
 40
0.0
 40
0.0
 40
0.0
 40
0.0625
 40
0.0625
 40
0.1249999999999999
 40
0.1249999999999999
 40
0.1874999999999999
 40
0.1874999999999999
 40
0.2499999999999999
 40
0.2499999999999999
 40
0.3124999999999999
 40
0.3124999999999999
 40
0.3281249999999997
 40
0.3281249999999997
 40
0.3437499999999996
 40
0.3437499999999996
 40
0.3749999999999993
 40
0.3749999999999993
 40
0.4062499999999991
 40
0.4062499999999991
 40
0.4374999999999988
 40
0.4374999999999988
 40
0.4999999999999986
 40
0.4999999999999986
 40
0.5156249999999987
 40
0.5156249999999987
 40
0.5312499999999988
 40
0.5312499999999988
 40
0.5624999999999988
 40
0.5624999999999988
 40
0.5781249999999988
 40
0.5781249999999988
 40
0.5937499999999988
 40
0.5937499999999988
 40
0.6249999999999988
 40
0.6249999999999988
 40
0.6874999999999988
 40
0.6874999999999988
 40
0.7187499999999988
 40
0.7187499999999988
 40
0.7499999999999989
 40
0.7499999999999989
 40
0.8124999999999992
 40
0.8124999999999992
 40
0.8749999999999996
 40
0.8749999999999996
 40
0.9374999999999998
 40
0.9374999999999998
 40
1.0
 40
1.0
 40
1.0
 40
1.0
 10
183.5291070707324
 20
247.2041659128276
 30
0.0
 10
180.4333195027285
 20
247.2041659126979
 30
0.0
 10
177.3380571926035
 20
247.2134337364877
 30
0.0
 10
171.1494632669108
 20
247.2660351992328
 30
0.0
 10
168.0561235405103
 20
247.3092257279644
 30
0.0
 10
161.8727136882981
 20
247.453296703565
 30
0.0
 10
158.782628015159
 20
247.5539028282421
 30
0.0
 10
152.6078693188454
 20
247.8506176706906
 30
0.0
 10
149.5231639906403
 20
248.0461563878287
 30
0.0
 10
143.362785027079
 20
248.5965920086017
 30
0.0
 10
140.2870376035077
 20
248.9501869685694
 30
0.0
 10
136.452101130802
 20
249.5641742039703
 30
0.0
 10
135.6856119108661
 20
249.6957598446096
 30
0.0
 10
134.1537857574611
 20
249.9792624506645
 30
0.0
 10
133.3880853895707
 20
250.1312854049873
 30
0.0
 10
131.1044897658185
 20
250.6201369198011
 30
0.0
 10
129.5965925539115
 20
250.9901037565986
 30
0.0
 10
126.6184520729904
 20
251.8444696324436
 30
0.0
 10
125.1481821914776
 20
252.328787794698
 30
0.0
 10
122.2566804536174
 20
253.4464531152356
 30
0.0
 10
120.8349063520866
 20
254.0799073141329
 30
0.0
 10
116.6684241630214
 20
256.2700540690895
 30
0.0
 10
114.1421472965493
 20
258.0603639876564
 30
0.0
 10
111.3691424113325
 20
260.8037819112857
 30
0.0
 10
110.831308104712
 20
261.3804007353237
 30
0.0
 10
109.8100118264035
 20
262.5670589728729
 30
0.0
 10
109.3257921661786
 20
263.1773275547375
 30
0.0
 10
107.9474871143477
 20
265.0557908153651
 30
0.0
 10
107.1277879202041
 20
266.3716636918803
 30
0.0
 10
106.0260028157325
 20
268.4273637677385
 30
0.0
 10
105.6800229794625
 20
269.1262378421594
 30
0.0
 10
105.0270810081361
 20
270.5489945778288
 30
0.0
 10
104.7211024974842
 20
271.2709209779053
 30
0.0
 10
103.8646092417498
 20
273.4469805945861
 30
0.0
 10
103.371737914742
 20
274.918628786837
 30
0.0
 10
102.0698743203408
 20
279.3809526521862
 30
0.0
 10
101.4343889739615
 20
282.418138178204
 30
0.0
 10
100.68316511732
 20
287.0280652229479
 30
0.0
 10
100.4676071666713
 20
288.573052280234
 30
0.0
 10
100.0911849167871
 20
291.6633321227822
 30
0.0
 10
99.93002286669288
 20
293.2106546430344
 30
0.0
 10
99.50845859965747
 20
297.8576187019356
 30
0.0
 10
99.3089549235979
 20
300.9621741649269
 30
0.0
 10
99.00642985339286
 20
307.1790702803112
 30
0.0
 10
98.90398940026421
 20
310.2919324130455
 30
0.0
 10
98.75750599926587
 20
316.5167396736992
 30
0.0
 10
98.71369730022191
 20
319.6295416190384
 30
0.0
 10
98.66036851749145
 20
325.8556095359561
 30
0.0
 10
98.65100060973505
 20
328.9688775669255
 30
0.0
 10
98.65100060993025
 20
332.0822723736808
 30
0.0
  0
SPLINE
  5
AF
330
1F
100
AcDbEntity
  8
0
  6
Continuous
 62
     8
370
    18
100
AcDbSpline
210
0.0
220
0.0
230
1.0
 70
     8
 71
     3
 72
    54
 73
    50
 74
     0
 42
0.000000001
 43
0.00000001
 40
0.0
 40
0.0
 40
0.0
 40
0.0
 40
0.0625000000000001
 40
0.0625000000000001
 40
0.1250000000000001
 40
0.1250000000000001
 40
0.1875000000000002
 40
0.1875000000000002
 40
0.2500000000000002
 40
0.2500000000000002
 40
0.3125000000000003
 40
0.3125000000000003
 40
0.3281250000000003
 40
0.3281250000000003
 40
0.3437500000000004
 40
0.3437500000000004
 40
0.3750000000000007
 40
0.3750000000000007
 40
0.4062500000000009
 40
0.4062500000000009
 40
0.4375000000000012
 40
0.4375000000000012
 40
0.5000000000000016
 40
0.5000000000000016
 40
0.5156250000000017
 40
0.5156250000000017
 40
0.5312500000000018
 40
0.5312500000000018
 40
0.5625000000000019
 40
0.5625000000000019
 40
0.5781250000000019
 40
0.5781250000000019
 40
0.5937500000000019
 40
0.5937500000000019
 40
0.6250000000000019
 40
0.6250000000000019
 40
0.6875000000000019
 40
0.6875000000000019
 40
0.7187500000000018
 40
0.7187500000000018
 40
0.7500000000000017
 40
0.7500000000000017
 40
0.8125000000000013
 40
0.8125000000000013
 40
0.8750000000000009
 40
0.8750000000000009
 40
0.9375000000000004
 40
0.9375000000000004
 40
1.0
 40
1.0
 40
1.0
 40
1.0
 10
98.65100060993025
 20
332.0822723734189
 30
0.0
 10
98.65100060980052
 20
335.1780599414247
 30
0.0
 10
98.66026843359033
 20
338.2733222515517
 30
0.0
 10
98.71286989633555
 20
344.4619161772485
 30
0.0
 10
98.75606042506719
 20
347.555255903651
 30
0.0
 10
98.90013140066802
 20
353.7386657558672
 30
0.0
 10
99.00073752534517
 20
356.8287514290084
 30
0.0
 10
99.29745236779398
 20
363.0035101253263
 30
0.0
 10
99.49299108493217
 20
366.0882154535336
 30
0.0
 10
100.0434267057062
 20
372.2485944170995
 30
0.0
 10
100.3970216656749
 20
375.324341840673
 30
0.0
 10
101.0110089010788
 20
379.1592783133818
 30
0.0
 10
101.1425945417187
 20
379.9257675333183
 30
0.0
 10
101.4260971477746
 20
381.4575936867245
 30
0.0
 10
101.5781201020978
 20
382.2232940546147
 30
0.0
 10
102.0669716169125
 20
384.5068896783658
 30
0.0
 10
102.4369384537104
 20
386.0147868902725
 30
0.0
 10
103.2913043295566
 20
388.9929273711937
 30
0.0
 10
103.7756224918116
 20
390.4631972527068
 30
0.0
 10
104.8932878123527
 20
393.354698990568
 30
0.0
 10
105.5267420112545
 20
394.7764730921031
 30
0.0
 10
107.7168887662139
 20
398.9429552811611
 30
0.0
 10
109.5071986847822
 20
401.4692321476322
 30
0.0
 10
112.2506166084195
 20
404.2422370328486
 30
0.0
 10
112.8272354324597
 20
404.7800713394686
 30
0.0
 10
114.0138936700111
 20
405.8013676177732
 30
0.0
 10
114.624162251877
 20
406.2855872779959
 30
0.0
 10
116.5026255125091
 20
407.6638923298206
 30
0.0
 10
117.8184983890276
 20
408.4835915239603
 30
0.0
 10
119.8741984648885
 20
409.5853766284308
 30
0.0
 10
120.57307253931
 20
409.9313564647013
 30
0.0
 10
121.9958292749791
 20
410.584298436031
 30
0.0
 10
122.7177556750534
 20
410.8902769466861
 30
0.0
 10
124.8938152917297
 20
411.7467702024273
 30
0.0
 10
126.3654634839792
 20
412.239641529435
 30
0.0
 10
130.8277873493255
 20
413.5415051238298
 30
0.0
 10
133.8649728753436
 20
414.1769904701979
 30
0.0
 10
138.4748999200847
 20
414.9282143268359
 30
0.0
 10
140.0198869773696
 20
415.1437722774846
 30
0.0
 10
143.1101668199155
 20
415.5201945273679
 30
0.0
 10
144.6574893401665
 20
415.6813565774617
 30
0.0
 10
149.3044533990643
 20
416.1029208444958
 30
0.0
 10
152.4090088620534
 20
416.3024245205548
 30
0.0
 10
158.625904977433
 20
416.6049495907591
 30
0.0
 10
161.7387671101649
 20
416.7073900438875
 30
0.0
 10
167.9635743708139
 20
416.8538734448855
 30
0.0
 10
171.0763763161507
 20
416.8976821439294
 30
0.0
 10
177.3024442330637
 20
416.9510109266598
 30
0.0
 10
180.4157122640305
 20
416.9603788344162
 30
0.0
 10
183.5291070707834
 20
416.960378834221
 30
0.0
  0
SPLINE
  5
B0
330
1F
100
AcDbEntity
  8
0
  6
Continuous
 62
     7
370
    25
100
AcDbSpline
210
0.0
220
0.0
230
1.0
 70
     8
 71
     3
 72
    14
 73
    10
 74
     0
 42
0.000000001
 43
0.00000001
 40
0.0
 40
0.0
 40
0.0
 40
0.0
 40
0.0880449709082666
 40
0.1977107968507987
 40
0.3094648305450374
 40
0.4233158565154119
 40
0.6064858262038727
 40
0.802281795806717
 40
1.0
 40
1.0
 40
1.0
 40
1.0
 10
365.1036402359165
 20
371.4233369620599
 30
0.0
 10
365.0712376584821
 20
372.6426359538204
 30
0.0
 10
364.9984755309184
 20
375.3806523649055
 30
0.0
 10
364.8529918016346
 20
379.6653863078907
 30
0.0
 10
364.6666305805715
 20
384.3063376146359
 30
0.0
 10
364.3963746359457
 20
389.9629143008871
 30
0.0
 10
363.9947042396179
 20
396.7784374772049
 30
0.0
 10
363.4180507865281
 20
404.7473332667311
 30
0.0
 10
362.8993297158398
 20
410.1742066803793
 30
0.0
 10
362.6387022584237
 20
412.9008979590692
 30
0.0
  0
SPLINE
  5
B1
330
1F
100
AcDbEntity
  8
0
  6
Continuous
 62
     7
370
    25
100
AcDbSpline
210
0.0
220
0.0
230
1.0
 70
     8
 71
     3
 72
    13
 73
     9
 74
     0
 42
0.000000001
 43
0.00000001
 40
0.0
 40
0.0
 40
0.0
 40
0.0
 40
0.1871476151163726
 40
0.3761045161416784
 40
0.5532899023337963
 40
0.7188151445503737
 40
0.8727926585699752
 40
1.0
 40
1.0
 40
1.0
 40
1.0
 10
362.6336172371663
 20
251.2643517049112
 30
0.0
 10
363.0420791847898
 20
255.6859001835378
 30
0.0
 10
363.8629519652296
 20
264.5717433192719
 30
0.0
 10
364.6029978548467
 20
277.6799968999461
 30
0.0
 10
365.0709978329594
 20
290.2854237161251
 30
0.0
 10
365.3176702537694
 20
302.0671101893242
 30
0.0
 10
365.4457486089732
 20
312.6645856561473
 30
0.0
 10
365.4781871671473
 20
319.3356111343705
 30
0.0
 10
365.4928622915901
 20
322.3535667576909
 30
0.0
  0
LINE
  5
B2
330
1F
100
AcDbEntity
  8
0
  6
Continuous
 62
     7
370
    25
100
AcDbLine
 10
412.2443353906
 20
372.1271188052
 30
0.0
 11
411.4798685684
 21
371.9560758265
 31
0.0
  0
SPLINE
  5
B3
330
1F
100
AcDbEntity
  8
0
  6
Continuous
 62
     7
370
    25
100
AcDbSpline
210
0.0
220
0.0
230
1.0
 70
     8
 71
     3
 72
    12
 73
     8
 74
     0
 42
0.000000001
 43
0.00000001
 40
0.0
 40
0.0
 40
0.0
 40
0.0
 40
0.1219591790166348
 40
0.3967915230287152
 40
0.598687964111304
 40
0.81671302355349
 40
1.0
 40
1.0
 40
1.0
 40
1.0
 10
434.4383707418598
 20
297.2600118311204
 30
0.0
 10
434.7270075080444
 20
296.6647311915822
 30
0.0
 10
435.6660809175236
 20
294.7279986430652
 30
0.0
 10
437.4799969868817
 20
292.0227558576003
 30
0.0
 10
439.9245224157737
 20
289.1255552883068
 30
0.0
 10
442.3346849482425
 20
286.8447757425612
 30
0.0
 10
444.1244098324039
 20
285.5583814572801
 30
0.0
 10
444.941811837212
 20
284.9708602817811
 30
0.0
  0
LINE
  5
B4
330
1F
100
AcDbEntity
  8
0
  6
Continuous
 62
     7
370
    25
100
AcDbLine
 10
404.1399961486
 20
321.7667175278
 30
0.0
 11
405.1429933086
 21
321.7698685413
 31
0.0
  0
SPLINE
  5
B5
330
1F
100
AcDbEntity
  8
0
  6
Continuous
 62
     7
370
    25
100
AcDbSpline
210
0.0
220
0.0
230
1.0
 70
     8
 71
     3
 72
    10
 73
     6
 74
     0
 42
0.000000001
 43
0.00000001
 40
0.0
 40
0.0
 40
0.0
 40
0.0
 40
0.0773499108333794
 40
0.5516026088109407
 40
0.9999999999999999
 40
0.9999999999999999
 40
0.9999999999999999
 40
0.9999999999999999
 10
434.0788578763165
 20
366.2421957643785
 30
0.0
 10
434.0864882772302
 20
366.7061455042611
 30
0.0
 10
434.1409026780353
 20
370.0146934278352
 30
0.0
 10
434.8966404197604
 20
375.9833307379819
 30
0.0
 10
435.8556572794202
 20
381.4310155640488
 30
0.0
 10
436.3217285051502
 20
384.0785280855455
 30
0.0
  0
LINE
  5
B6
330
1F
100
AcDbEntity
  8
0
  6
Continuous
 62
     7
370
    25
100
AcDbLine
 10
393.8071398213
 20
371.5001710745
 30
0.0
 11
365.1053147539
 21
371.5001710745
 31
0.0
  0
LINE
  5
B7
330
1F
100
AcDbEntity
  8
0
  6
Continuous
 62
     7
370
    25
100
AcDbLine
 10
365.4952204003
 20
322.3531724008
 30
0.0
 11
393.8071398213
 21
322.3531724008
 31
0.0
  0
ARC
  5
B8
330
1F
100
AcDbEntity
  8
0
  6
Continuous
 62
     7
370
    25
100
AcDbCircle
 10
393.8071415946
 20
346.9266723735
 30
0.0
 40
24.5735
100
AcDbArc
 50
51.8795249192
 51
90.0
  0
ARC
  5
B9
330
1F
100
AcDbEntity
  8
0
  6
Continuous
 62
     7
370
    25
100
AcDbCircle
 10
393.8071415946
 20
346.9266723735
 30
0.0
 40
24.57350000000006
100
AcDbArc
 50
270.0
 51
294.8422931203
  0
LINE
  5
BA
330
1F
100
AcDbEntity
  8
0
  6
Continuous
 62
     7
370
    25
100
AcDbLine
 10
413.0170947089
 20
321.0423520587
 30
0.0
 11
413.2382204905
 21
320.4406947417
 31
0.0
  0
LINE
  5
BB
330
1F
100
AcDbEntity
  8
0
  6
Continuous
 62
     7
370
    25
100
AcDbLine
 10
413.0158579126
 20
321.4354435269
 30
0.0
 11
413.0170947089
 21
321.0423520587
 31
0.0
  0
ARC
  5
BC
330
1F
100
AcDbEntity
  8
0
  6
Continuous
 62
     7
370
    25
100
AcDbCircle
 10
413.4265071905
 20
320.5098959085
 30
0.0
 40
0.2006000000000064
100
AcDbArc
 50
200.18
 51
270.18
  0
LWPOLYLINE
  5
BD
330
1F
100
AcDbEntity
  8
0
  6
Continuous
 62
     7
370
    25
100
AcDbPolyline
 90
        9
 70
   128
 43
0.0
 10
413.4271374121
 20
320.3092970008
 10
413.5672381296
 20
320.3097370507
 10
413.9766475334
 20
320.3110232072
 10
414.6235441938
 20
320.3130555859
 10
415.4576217904
 20
320.315675862
 10
416.4140528217
 20
320.3186805414
 10
417.4184730425
 20
320.3218360951
 10
418.3928003683
 20
320.3248971196
 10
419.2612921968
 20
320.3276254291
  0
SPLINE
  5
BE
330
1F
100
AcDbEntity
  8
0
  6
Continuous
 62
     7
370
    25
100
AcDbSpline
210
0.0
220
0.0
230
1.0
 70
     8
 71
     3
 72
    14
 73
    10
 74
     0
 42
0.000000001
 43
0.00000001
 40
0.0
 40
0.0
 40
0.0
 40
0.0
 40
0.25
 40
0.25
 40
0.5
 40
0.5
 40
0.75
 40
0.75
 40
1.0
 40
1.0
 40
1.0
 40
1.0
 10
358.3920201278387
 20
247.2041659128276
 30
0.0
 10
358.9247354962191
 20
247.2320843422744
 30
0.0
 10
359.4523106921359
 20
247.3554142007476
 30
0.0
 10
360.4320825512011
 20
247.7776789445155
 30
0.0
 10
360.8840226671285
 20
248.0765032623904
 30
0.0
 10
361.6562457945715
 20
248.8126634698776
 30
0.0
 10
361.9763266042219
 20
249.2498066004782
 30
0.0
 10
362.4449315290407
 20
250.2082792574074
 30
0.0
 10
362.5933329428985
 20
250.7293578135799
 30
0.0
 10
362.6466775867169
 20
251.2601303179424
 30
0.0
  0
SPLINE
  5
BF
330
1F
100
AcDbEntity
  8
0
  6
Continuous
 62
     7
370
    25
100
AcDbSpline
210
0.0
220
0.0
230
1.0
 70
    24
 71
     3
 72
    54
 73
    50
 74
     0
 42
0.000000001
 43
0.00000001
 40
0.0
 40
0.0
 40
0.0
 40
0.0
 40
0.0625
 40
0.0625
 40
0.1249999999999999
 40
0.1249999999999999
 40
0.1874999999999999
 40
0.1874999999999999
 40
0.2499999999999999
 40
0.2499999999999999
 40
0.3124999999999999
 40
0.3124999999999999
 40
0.34375
 40
0.34375
 40
0.3750000000000001
 40
0.3750000000000001
 40
0.4062500000000001
 40
0.4062500000000001
 40
0.4218750000000002
 40
0.4218750000000002
 40
0.4375000000000002
 40
0.4375000000000002
 40
0.4687500000000004
 40
0.4687500000000004
 40
0.4843750000000005
 40
0.4843750000000005
 40
0.5000000000000006
 40
0.5000000000000006
 40
0.5625000000000006
 40
0.5625000000000006
 40
0.5781250000000006
 40
0.5781250000000006
 40
0.5937500000000006
 40
0.5937500000000006
 40
0.6250000000000004
 40
0.6250000000000004
 40
0.6562500000000004
 40
0.6562500000000004
 40
0.6875000000000004
 40
0.6875000000000004
 40
0.7500000000000003
 40
0.7500000000000003
 40
0.8125000000000002
 40
0.8125000000000002
 40
0.875
 40
0.875
 40
0.9375
 40
0.9375
 40
1.0
 40
1.0
 40
1.0
 40
1.0
 10
351.1348017893361
 20
332.0822723736802
 30
0.0
 10
351.1348017893361
 20
328.9568144649656
 30
0.0
 10
351.1348017893361
 20
325.8314877269709
 30
0.0
 10
351.1348017893361
 20
319.5813218179042
 30
0.0
 10
351.1348017893359
 20
316.4564804935148
 30
0.0
 10
351.1348017893359
 20
310.2076301951237
 30
0.0
 10
351.1348017893352
 20
307.082525499196
 30
0.0
 10
351.1348017893352
 20
300.8419777251621
 30
0.0
 10
351.1348017893357
 20
297.7261065478891
 30
0.0
 10
351.1348017893357
 20
291.5092200468506
 30
0.0
 10
351.1348017893363
 20
288.4080900350924
 30
0.0
 10
351.1348017893363
 20
283.7755319754058
 30
0.0
 10
351.1348017893363
 20
282.2360859361303
 30
0.0
 10
351.1348017893363
 20
279.1883411698927
 30
0.0
 10
351.1348017893364
 20
277.6778286764512
 30
0.0
 10
351.1348017893364
 20
274.6916749050695
 30
0.0
 10
351.1348017893361
 20
273.2160065321262
 30
0.0
 10
351.1348017893361
 20
271.0367539857304
 30
0.0
 10
351.1348017893361
 20
270.3160682987463
 30
0.0
 10
351.1348017893361
 20
268.8878448006812
 30
0.0
 10
351.1348017893362
 20
268.1849327321191
 30
0.0
 10
351.1348017893362
 20
266.1213500382216
 30
0.0
 10
351.1348017893363
 20
264.8023434706792
 30
0.0
 10
351.1348017893363
 20
262.9216071478202
 30
0.0
 10
351.1348017893363
 20
262.3109829426306
 30
0.0
 10
351.1348017893363
 20
261.1242741867561
 30
0.0
 10
351.1348017893363
 20
260.5456551304807
 30
0.0
 10
351.1348017893363
 20
257.7814860611923
 30
0.0
 10
351.1348017893359
 20
255.982092039211
 30
0.0
 10
351.1348017893359
 20
254.1471066831633
 30
0.0
 10
351.1348017893363
 20
253.8013088284164
 30
0.0
 10
351.1348017893363
 20
253.1556066190061
 30
0.0
 10
351.1348017893357
 20
252.854394507157
 30
0.0
 10
351.1348017893357
 20
252.0075310387536
 30
0.0
 10
351.1348017893367
 20
251.5183573996643
 30
0.0
 10
351.1348017893367
 20
250.6555574945594
 30
0.0
 10
351.1348017893367
 20
250.2820122183263
 30
0.0
 10
351.1348017893367
 20
249.6239142781547
 30
0.0
 10
351.1348017893357
 20
249.3389847415289
 30
0.0
 10
351.1348017893357
 20
248.5916474105213
 30
0.0
 10
351.1348017893369
 20
248.2330573723582
 30
0.0
 10
351.1348017893369
 20
247.6751128014076
 30
0.0
 10
351.134801789336
 20
247.4770701012835
 30
0.0
 10
351.134801789336
 20
247.1767704456495
 30
0.0
 10
351.1348017893363
 20
247.0750879376798
 30
0.0
 10
351.1348017893363
 20
246.9296030338573
 30
0.0
 10
351.1348017893359
 20
246.8860787570609
 30
0.0
 10
351.1348017893359
 20
246.8331200412753
 30
0.0
 10
351.134801789336
 20
246.8238312158051
 30
0.0
 10
351.134801789336
 20
246.8238312159345
 30
0.0
  0
LINE
  5
C0
330
1F
100
AcDbEntity
  8
0
  6
Continuous
 62
     7
370
    25
100
AcDbLine
 10
358.3920203298
 20
247.2041652592
 30
0.0
 11
351.1348018571
 21
246.8238280209
 31
0.0
  0
SPLINE
  5
C1
330
1F
100
AcDbEntity
  8
0
  6
Continuous
 62
     7
370
    25
100
AcDbSpline
210
0.0
220
0.0
230
1.0
 70
    24
 71
     3
 72
    54
 73
    50
 74
     0
 42
0.000000001
 43
0.00000001
 40
0.0
 40
0.0
 40
0.0
 40
0.0
 40
0.0625000000000011
 40
0.0625000000000011
 40
0.1250000000000021
 40
0.1250000000000021
 40
0.1875000000000032
 40
0.1875000000000032
 40
0.2500000000000042
 40
0.2500000000000042
 40
0.3125000000000053
 40
0.3125000000000053
 40
0.3437500000000057
 40
0.3437500000000057
 40
0.3750000000000062
 40
0.3750000000000062
 40
0.4062500000000067
 40
0.4062500000000067
 40
0.4218750000000068
 40
0.4218750000000068
 40
0.4375000000000069
 40
0.4375000000000069
 40
0.4687500000000064
 40
0.4687500000000064
 40
0.4843750000000063
 40
0.4843750000000063
 40
0.5000000000000061
 40
0.5000000000000061
 40
0.5625000000000054
 40
0.5625000000000054
 40
0.5781250000000054
 40
0.5781250000000054
 40
0.5937500000000053
 40
0.5937500000000053
 40
0.625000000000005
 40
0.625000000000005
 40
0.6562500000000047
 40
0.6562500000000047
 40
0.6875000000000042
 40
0.6875000000000042
 40
0.7500000000000034
 40
0.7500000000000034
 40
0.8125000000000026
 40
0.8125000000000026
 40
0.8750000000000018
 40
0.8750000000000018
 40
0.9375000000000009
 40
0.9375000000000009
 40
1.0
 40
1.0
 40
1.0
 40
1.0
 10
351.134801789336
 20
417.3407135311141
 30
0.0
 10
351.134801789336
 20
417.3407135313092
 30
0.0
 10
351.1348017893366
 20
417.3313329532152
 30
0.0
 10
351.1348017893366
 20
417.2777038043473
 30
0.0
 10
351.1348017893359
 20
417.2336092265094
 30
0.0
 10
351.1348017893359
 20
417.0858951402913
 30
0.0
 10
351.134801789337
 20
416.9825006679996
 30
0.0
 10
351.134801789337
 20
416.6768655990857
 30
0.0
 10
351.1348017893361
 20
416.4752035875742
 30
0.0
 10
351.1348017893361
 20
415.907065975199
 30
0.0
 10
351.1348017893365
 20
415.5418627441592
 30
0.0
 10
351.1348017893365
 20
414.7817489429169
 30
0.0
 10
351.1348017893366
 20
414.4925105354382
 30
0.0
 10
351.1348017893366
 20
413.8238365555076
 30
0.0
 10
351.1348017893366
 20
413.4441273367212
 30
0.0
 10
351.1348017893366
 20
412.5662809175361
 30
0.0
 10
351.1348017893358
 20
412.0682357359118
 30
0.0
 10
351.1348017893358
 20
411.2048496805064
 30
0.0
 10
351.1348017893361
 20
410.897588162463
 30
0.0
 10
351.1348017893361
 20
410.2384129287655
 30
0.0
 10
351.1348017893363
 20
409.8885284016438
 30
0.0
 10
351.1348017893363
 20
408.7769236420443
 30
0.0
 10
351.1348017893357
 20
407.9515756395409
 30
0.0
 10
351.1348017893357
 20
406.5682633217024
 30
0.0
 10
351.1348017893361
 20
406.0829555841881
 30
0.0
 10
351.1348017893361
 20
405.0610145885341
 30
0.0
 10
351.1348017893366
 20
404.5216793909443
 30
0.0
 10
351.1348017893366
 20
401.7298282190299
 30
0.0
 10
351.1348017893366
 20
399.1955586181597
 30
0.0
 10
351.1348017893366
 20
395.7252419166874
 30
0.0
 10
351.1348017893364
 20
395.016954968983
 30
0.0
 10
351.1348017893364
 20
393.5917486699141
 30
0.0
 10
351.1348017893357
 20
392.8724382301182
 30
0.0
 10
351.1348017893357
 20
390.6969094143278
 30
0.0
 10
351.1348017893368
 20
389.2231850274538
 30
0.0
 10
351.1348017893368
 20
386.2399208266508
 30
0.0
 10
351.1348017893368
 20
384.7303559088741
 30
0.0
 10
351.1348017893368
 20
381.6836416434086
 30
0.0
 10
351.1348017893367
 20
380.1434426999274
 30
0.0
 10
351.1348017893367
 20
375.5189185562869
 30
0.0
 10
351.1348017893353
 20
372.428543853233
 30
0.0
 10
351.1348017893353
 20
366.2394029062012
 30
0.0
 10
351.1348017893358
 20
363.1405675300442
 30
0.0
 10
351.1348017893358
 20
356.937848971376
 30
0.0
 10
351.1348017893358
 20
353.8339355160934
 30
0.0
 10
351.1348017893358
 20
347.6230583854887
 30
0.0
 10
351.1348017893362
 20
344.5160800535896
 30
0.0
 10
351.1348017893362
 20
338.3003268917781
 30
0.0
 10
351.134801789336
 20
335.1915443881889
 30
0.0
 10
351.134801789336
 20
332.0822723734195
 30
0.0
  0
LINE
  5
C2
330
1F
100
AcDbEntity
  8
0
  6
Continuous
 62
     7
370
    25
100
AcDbLine
 10
358.3920203298
 20
416.9603765996
 30
0.0
 11
351.1348018571
 21
417.3407138379
 31
0.0
  0
SPLINE
  5
C3
330
1F
100
AcDbEntity
  8
0
  6
Continuous
 62
     7
370
    25
100
AcDbSpline
210
0.0
220
0.0
230
1.0
 70
     8
 71
     3
 72
    14
 73
    10
 74
     0
 42
0.000000001
 43
0.00000001
 40
0.0
 40
0.0
 40
0.0
 40
0.0
 40
0.25
 40
0.25
 40
0.5
 40
0.5
 40
0.75
 40
0.75
 40
1.0
 40
1.0
 40
1.0
 40
1.0
 10
362.6466775867169
 20
412.9044144291062
 30
0.0
 10
362.5933329428985
 20
413.4351869334687
 30
0.0
 10
362.4449315290407
 20
413.9562654896413
 30
0.0
 10
361.9763266042219
 20
414.9147381465704
 30
0.0
 10
361.6562457945714
 20
415.3518812771711
 30
0.0
 10
360.8840226671285
 20
416.0880414846583
 30
0.0
 10
360.4320825512011
 20
416.3868658025331
 30
0.0
 10
359.4523106921359
 20
416.809130546301
 30
0.0
 10
358.9247354962191
 20
416.9324604047742
 30
0.0
 10
358.3920201278387
 20
416.960378834221
 30
0.0
  0
SPLINE
  5
C4
330
1F
100
AcDbEntity
  8
0
  6
Continuous
 62
     7
370
    25
100
AcDbSpline
210
0.0
220
0.0
230
1.0
 70
     8
 71
     3
 72
    26
 73
    22
 74
     0
 42
0.000000001
 43
0.00000001
 40
0.0
 40
0.0
 40
0.0
 40
0.0
 40
0.0528622604423843
 40
0.1072575355896814
 40
0.1601197912134499
 40
0.2145150738751343
 40
0.2673774065627678
 40
0.3217726486438266
 40
0.3746366379025227
 40
0.4290336273546975
 40
0.4818982065184005
 40
0.5362958774002163
 40
0.5891600012470254
 40
0.6435571788333194
 40
0.6964209491988117
 40
0.7508177309146471
 40
0.8036820230231161
 40
0.8580792113475212
 40
0.9109463515200766
 40
0.9653472150495043
 40
1.0
 40
1.0
 40
1.0
 40
1.0
 10
365.4952204003491
 20
322.3531724007883
 30
0.0
 10
365.4948796380893
 20
322.4188017871098
 30
0.0
 10
365.4941882314053
 20
322.5519638233185
 30
0.0
 10
365.4883805687422
 20
323.6233811433089
 30
0.0
 10
365.4781290706725
 20
325.3187410985338
 30
0.0
 10
365.4628307632084
 20
327.6225703421005
 30
0.0
 10
365.4427437301659
 20
330.4941938727026
 30
0.0
 10
365.4198011614352
 20
333.8052095918043
 30
0.0
 10
365.3959639828832
 20
337.5202979227753
 30
0.0
 10
365.3738237912083
 20
341.4678100337569
 30
0.0
 10
365.3540045053541
 20
345.6069373433254
 30
0.0
 10
365.3361452004956
 20
349.7460359245824
 30
0.0
 10
365.317467434434
 20
353.8423932420077
 30
0.0
 10
365.2952155836076
 20
357.7063625399732
 30
0.0
 10
365.266454771982
 20
361.297936155618
 30
0.0
 10
365.2313635588591
 20
364.4514982593302
 30
0.0
 10
365.1919017633778
 20
367.1320770108307
 30
0.0
 10
365.1535581701115
 20
369.2249452826052
 30
0.0
 10
365.1227518571607
 20
370.6736626139838
 30
0.0
 10
365.1047945052969
 20
371.4421985605776
 30
0.0
 10
365.1051354993091
 20
371.428652675296
 30
0.0
 10
365.105268187777
 20
371.4233816655435
 30
0.0
  0
SPLINE
  5
C5
330
1F
100
AcDbEntity
  8
0
  6
Continuous
 62
     7
370
    25
100
AcDbSpline
210
0.0
220
0.0
230
1.0
 70
     8
 71
     3
 72
    36
 73
    32
 74
     0
 42
0.000000001
 43
0.00000001
 40
0.0
 40
0.0
 40
0.0
 40
0.0
 40
0.0352384641323982
 40
0.0704229475682446
 40
0.1055534504944198
 40
0.1406299730986271
 40
0.1756525155694755
 40
0.2106210780964383
 40
0.2455356608699252
 40
0.2803962640811814
 40
0.3152028879223102
 40
0.3499555325863363
 40
0.3846541982671
 40
0.4192988851593085
 40
0.4538895934584791
 40
0.4884263233609283
 40
0.5229090750637498
 40
0.5573378487648284
 40
0.5917126446627452
 40
0.6260334629568459
 40
0.6603003038471309
 40
0.6945131675342842
 40
0.7286720542196169
 40
0.7627769641051413
 40
0.7968278973933861
 40
0.8308248542875889
 40
0.8647678349914873
 40
0.8986568397094904
 40
0.9324918686464362
 40
0.9662729220079385
 40
1.0
 40
1.0
 40
1.0
 40
1.0
 10
436.3386862670782
 20
384.5701818983987
 30
0.0
 10
436.3344517860577
 20
384.6159875531409
 30
0.0
 10
436.3259893106852
 20
384.7075286943813
 30
0.0
 10
436.3009201617947
 20
384.8431417627605
 30
0.0
 10
436.2669981364898
 20
384.9765068872487
 30
0.0
 10
436.2235464924853
 20
385.1068933379709
 30
0.0
 10
436.1710670145946
 20
385.2336717330136
 30
0.0
 10
436.1098026821244
 20
385.3562142534743
 30
0.0
 10
436.0401193926298
 20
385.4739250662692
 30
0.0
 10
435.9624011531674
 20
385.5862357210107
 30
0.0
 10
435.8770751140672
 20
385.6926096784934
 30
0.0
 10
435.784601688376
 20
385.7925441529765
 30
0.0
 10
435.6854738211425
 20
385.8855724158953
 30
0.0
 10
435.5802136492679
 20
385.9712657094943
 30
0.0
 10
435.4693697162996
 20
386.0492349895334
 30
0.0
 10
435.3535139173602
 20
386.119132431606
 30
0.0
 10
435.2332384160756
 20
386.180652713204
 30
0.0
 10
435.1091524901433
 20
386.2335340648085
 30
0.0
 10
434.9818793390718
 20
386.2775590887438
 30
0.0
 10
434.8520528644543
 20
386.312555348868
 30
0.0
 10
434.7203144483697
 20
386.338395718713
 30
0.0
 10
434.5873097165676
 20
386.3549985401331
 30
0.0
 10
434.4536854116134
 20
386.3623274096497
 30
0.0
 10
434.3200859849927
 20
386.360391289479
 30
0.0
 10
434.1871514365248
 20
386.3492423695592
 30
0.0
 10
434.0555107809574
 20
386.3289812890774
 30
0.0
 10
433.9257921339541
 20
386.2997339740032
 30
0.0
 10
433.7985713243135
 20
386.2617332047834
 30
0.0
 10
433.6745498465677
 20
386.2150093484811
 30
0.0
 10
433.5538794691952
 20
386.1605353597153
 30
0.0
 10
433.4770080455923
 20
386.1174483617897
 30
0.0
 10
433.4386030646332
 20
386.0959220876899
 30
0.0
  0
ARC
  5
C6
330
1F
100
AcDbEntity
  8
0
  6
Continuous
 62
     7
370
    25
100
AcDbCircle
 10
434.4143073457
 20
384.4323485292
 30
0.0
 40
1.929308430798777
100
AcDbArc
 50
349.4883967501
 51
4.0967716929
  0
SPLINE
  5
C7
330
1F
100
AcDbEntity
  8
0
  6
Continuous
 62
     7
370
    25
100
AcDbSpline
210
0.0
220
0.0
230
1.0
 70
     8
 71
     3
 72
     9
 73
     5
 74
     0
 42
0.000000001
 43
0.00000001
 40
0.0
 40
0.0
 40
0.0
 40
0.0
 40
0.5355092782299296
 40
1.0
 40
1.0
 40
1.0
 40
1.0
 10
411.2174442186512
 20
371.3672527166166
 30
0.0
 10
411.2993141912891
 20
371.5348453630502
 30
0.0
 10
411.4521966453682
 20
371.8478047332177
 30
0.0
 10
411.4765456869413
 20
371.8965576333409
 30
0.0
 10
411.487855590836
 20
371.9192029031076
 30
0.0
  0
SPLINE
  5
C8
330
1F
100
AcDbEntity
  8
0
  6
Continuous
 62
     7
370
    25
100
AcDbSpline
210
0.0
220
0.0
230
1.0
 70
     8
 71
     3
 72
    14
 73
    10
 74
     0
 42
0.000000001
 43
0.00000001
 40
0.0
 40
0.0
 40
0.0
 40
0.0
 40
0.1023054479630844
 40
0.2313301476627609
 40
0.3592020950182794
 40
0.4873390204694983
 40
0.6587199428496089
 40
0.8294279508954159
 40
1.0
 40
1.0
 40
1.0
 40
1.0
 10
412.2430091872372
 20
372.1322857828893
 30
0.0
 10
413.0981370495442
 20
372.326199910634
 30
0.0
 10
415.0317276705384
 20
372.7646729802329
 30
0.0
 10
417.8571678123798
 20
374.0307834023597
 30
0.0
 10
420.6339645948456
 20
375.8202597004295
 30
0.0
 10
423.4317239758201
 20
378.185138415861
 30
0.0
 10
426.3555339552044
 20
380.9444402120116
 30
0.0
 10
429.6947864679864
 20
383.8098676917454
 30
0.0
 10
432.1907251674737
 20
385.3344986175227
 30
0.0
 10
433.4381973519482
 20
386.0965103896417
 30
0.0
  0
SPLINE
  5
C9
330
1F
100
AcDbEntity
  8
0
  6
Continuous
 62
     7
370
    25
100
AcDbSpline
210
0.0
220
0.0
230
1.0
 70
     8
 71
     3
 72
    31
 73
    27
 74
     0
 42
0.000000001
 43
0.00000001
 40
0.0
 40
0.0
 40
0.0
 40
0.0
 40
0.041705873572259
 40
0.0834083377760617
 40
0.1251073926211883
 40
0.1668030381175767
 40
0.2084952742749212
 40
0.2501841011031269
 40
0.2918695186120382
 40
0.3335515268116299
 40
0.3752301257116799
 40
0.4169053153220922
 40
0.4585770956527375
 40
0.5002454667135686
 40
0.541910428514528
 40
0.5835719810654094
 40
0.6252301243761762
 40
0.666884858456748
 40
0.7085361833170051
 40
0.7501840989668341
 40
0.7918286054161434
 40
0.8334697026747216
 40
0.8751073907526546
 40
0.9167416696595195
 40
0.9583725394053916
 40
1.0
 40
1.0
 40
1.0
 40
1.0
 10
447.8326031746161
 20
285.7471362239339
 30
0.0
 10
447.8125160492898
 20
285.7038476332081
 30
0.0
 10
447.772343440718
 20
285.6172739905089
 30
0.0
 10
447.7000907370069
 20
285.4935361113533
 30
0.0
 10
447.6195500687051
 20
285.3751580589657
 30
0.0
 10
447.5302816904147
 20
285.2631775849483
 30
0.0
 10
447.4330158634228
 20
285.1581052002521
 30
0.0
 10
447.3282259824355
 20
285.0605449273757
 30
0.0
 10
447.2165071465629
 20
284.9710239441685
 30
0.0
 10
447.0984707342471
 20
284.8900344662497
 30
0.0
 10
446.974768382808
 20
284.8180190753848
 30
0.0
 10
446.8460810562937
 20
284.7553715265176
 30
0.0
 10
446.7131172494596
 20
284.7024337513411
 30
0.0
 10
446.5766085535969
 20
284.6594942403306
 30
0.0
 10
446.4373057633385
 20
284.6267864243049
 30
0.0
 10
446.2959747103521
 20
284.6044874492868
 30
0.0
 10
446.1533920349777
 20
284.5927171979585
 30
0.0
 10
446.0103410022442
 20
284.5915377902942
 30
0.0
 10
445.8676068647189
 20
284.6009528091394
 30
0.0
 10
445.7259737965699
 20
284.6209090536418
 30
0.0
 10
445.5862159415217
 20
284.6512903727335
 30
0.0
 10
445.4491105183702
 20
284.6919425604066
 30
0.0
 10
445.3153688199098
 20
284.7425838375734
 30
0.0
 10
445.1858739137996
 20
284.803143754699
 30
0.0
 10
445.0607742785496
 20
284.8725048512707
 30
0.0
 10
444.9821529742219
 20
284.926307812447
 30
0.0
 10
444.9428439316983
 20
284.9532081915092
 30
0.0
  0
LINE
  5
CA
330
1F
100
AcDbEntity
  8
0
  6
Continuous
 62
     7
370
    25
100
AcDbLine
 10
444.9394500032
 20
284.9677161368
 30
0.0
 11
444.9425941482
 21
284.9529043825
 31
0.0
  0
SPLINE
  5
CB
330
1F
100
AcDbEntity
  8
0
  6
Continuous
 62
     7
370
    18
100
AcDbSpline
210
0.0
220
0.0
230
1.0
 70
     8
 71
     3
 72
    29
 73
    25
 74
     0
 42
0.000000001
 43
0.00000001
 40
0.0
 40
0.0
 40
0.0
 40
0.0
 40
0.0272151476710405
 40
0.0778311941315696
 40
0.1518556588291697
 40
0.249304839136966
 40
0.3145830823527288
 40
0.3781727541445234
 40
0.4401084480332409
 40
0.5004802142974795
 40
0.5286109674291956
 40
0.5589170999716329
 40
0.5914959831379145
 40
0.6261669466235521
 40
0.6567675065434883
 40
0.6845856429116641
 40
0.7095974288625609
 40
0.731810374793115
 40
0.750861385995707
 40
0.7811733820080886
 40
0.8212589822365707
 40
0.871151367552976
 40
0.9307041632013558
 40
1.0
 40
1.0
 40
1.0
 40
1.0
 10
435.8321546433618
 20
331.4573801032912
 30
0.0
 10
435.9816322688788
 20
330.9064449355646
 30
0.0
 10
436.409115603916
 20
329.3308539260451
 30
0.0
 10
437.2431965019439
 20
326.2570853537212
 30
0.0
 10
438.4626746123093
 20
321.76242071055
 30
0.0
 10
439.7622560244145
 20
316.9722222968531
 30
0.0
 10
441.0038651653774
 20
312.3958209118302
 30
0.0
 10
442.0498674410383
 20
308.5404847923168
 30
0.0
 10
443.0674953431304
 20
304.7902297839583
 30
0.0
 10
443.8883828053596
 20
301.7646167225612
 30
0.0
 10
444.5324684555066
 20
299.390469550259
 30
0.0
 10
445.0224374319224
 20
297.584825377253
 30
0.0
 10
445.5406927684645
 20
295.6748097206686
 30
0.0
 10
446.0468297922226
 20
293.8093119886624
 30
0.0
 10
446.5021675471902
 20
292.130314923922
 30
0.0
 10
446.8717193907096
 20
290.7674763139817
 30
0.0
 10
447.1564082543047
 20
289.7184124833759
 30
0.0
 10
447.3629709759417
 20
288.9579604912632
 30
0.0
 10
447.544425156103
 20
288.289586035952
 30
0.0
 10
447.7146660753451
 20
287.6624534312787
 30
0.0
 10
447.8575368596804
 20
287.1366419296842
 30
0.0
 10
447.9485319952363
 20
286.8009959817296
 30
0.0
 10
447.9886808027376
 20
286.6520586849048
 30
0.0
 10
447.9901262972836
 20
286.6467686602605
 30
0.0
 10
447.9909036959431
 20
286.6439236422153
 30
0.0
  0
ARC
  5
CC
330
1F
100
AcDbEntity
  8
0
  6
Continuous
 62
     7
370
    25
100
AcDbCircle
 10
446.0659561636
 20
286.5213492542
 30
0.0
 40
1.92884615477204
100
AcDbArc
 50
336.3350972079
 51
3.6430409016
  0
LINE
  5
CD
330
1F
100
AcDbEntity
  8
0
  6
Continuous
 62
     7
370
    25
100
AcDbLine
 10
444.9425866976
 20
284.9529118331
 30
0.0
 11
443.9260741844
 21
285.7329727205
 31
0.0
  0
SPLINE
  5
CE
330
1F
100
AcDbEntity
  8
0
  6
Continuous
 62
     7
370
    25
100
AcDbSpline
210
0.0
220
0.0
230
1.0
 70
     8
 71
     3
 72
    15
 73
    11
 74
     0
 42
0.000000001
 43
0.00000001
 40
0.0
 40
0.0
 40
0.0
 40
0.0
 40
0.0514521372867566
 40
0.2461709799676248
 40
0.4427056637803905
 40
0.5715171978146655
 40
0.6960578701896022
 40
0.8172624644063012
 40
0.9409259513840293
 40
1.0
 40
1.0
 40
1.0
 40
1.0
 10
434.4647532477535
 20
297.2743243964471
 30
0.0
 10
434.2223742906969
 20
297.7089127193398
 30
0.0
 10
433.0627205128645
 20
299.7881855925482
 30
0.0
 10
431.6249156291218
 20
303.8403691595491
 30
0.0
 10
429.9449024482208
 20
308.5712598448509
 30
0.0
 10
428.2478888369555
 20
312.5806771214284
 30
0.0
 10
426.370594525758
 20
315.7029815094319
 30
0.0
 10
423.7919401181643
 20
318.244443807162
 30
0.0
 10
421.1453355146156
 20
319.6098081036164
 30
0.0
 10
419.4649366421806
 20
320.1525349922666
 30
0.0
 10
418.9217096343197
 20
320.3279837554403
 30
0.0
  0
SPLINE
  5
CF
330
1F
100
AcDbEntity
  8
0
  6
Continuous
 62
     7
370
    25
100
AcDbSpline
210
0.0
220
0.0
230
1.0
 70
     8
 71
     3
 72
    14
 73
    10
 74
     0
 42
0.000000001
 43
0.00000001
 40
0.0
 40
0.0
 40
0.0
 40
0.0
 40
0.500000000000021
 40
0.500000000000021
 40
0.7500000000000098
 40
0.7500000000000098
 40
0.875000000000005
 40
0.875000000000005
 40
1.0
 40
1.0
 40
1.0
 40
1.0
 10
418.9407226886817
 20
320.4586098050351
 30
0.0
 10
419.0171554906384
 20
320.4302806005185
 30
0.0
 10
419.0869650594509
 20
320.4031230604904
 30
0.0
 10
419.1765777856364
 20
320.3658809784189
 30
0.0
 10
419.2041750973782
 20
320.3539511335863
 30
0.0
 10
419.2351916044428
 20
320.3390879167962
 30
0.0
 10
419.2439727216374
 20
320.3345713575237
 30
0.0
 10
419.2531036784882
 20
320.328114373042
 30
0.0
 10
419.2536446019214
 20
320.32602389894
 30
0.0
 10
419.2398348848747
 20
320.3289832511936
 30
0.0
  0
SPLINE
  5
D0
330
1F
100
AcDbEntity
  8
0
  6
Continuous
 62
     7
370
    25
100
AcDbSpline
210
0.0
220
0.0
230
1.0
 70
     8
 71
     3
 72
    10
 73
     6
 74
     0
 42
0.000000001
 43
0.00000001
 40
0.0
 40
0.0
 40
0.0
 40
0.0
 40
0.4999999999999998
 40
0.4999999999999998
 40
1.0
 40
1.0
 40
1.0
 40
1.0
 10
416.9677803104781
 20
321.0547635878788
 30
0.0
 10
417.3301730164062
 20
320.9699573729326
 30
0.0
 10
417.6756312529
 20
320.8756650119068
 30
0.0
 10
418.3370276840516
 20
320.6734803326826
 30
0.0
 10
418.6536056893683
 20
320.5650274161326
 30
0.0
 10
418.9407226886817
 20
320.4586098050351
 30
0.0
  0
SPLINE
  5
D1
330
1F
100
AcDbEntity
  8
0
  6
Continuous
 62
     7
370
    25
100
AcDbSpline
210
0.0
220
0.0
230
1.0
 70
     8
 71
     3
 72
    22
 73
    18
 74
     0
 42
0.000000001
 43
0.00000001
 40
0.0
 40
0.0
 40
0.0
 40
0.0
 40
0.125
 40
0.125
 40
0.25
 40
0.25
 40
0.375
 40
0.375
 40
0.5
 40
0.5
 40
0.625
 40
0.625
 40
0.75
 40
0.75
 40
0.875
 40
0.875
 40
1.0
 40
1.0
 40
1.0
 40
1.0
 10
413.0158580245774
 20
321.4354435476133
 30
0.0
 10
413.0158551783176
 20
321.4356686343461
 30
0.0
 10
413.0412454851254
 20
321.43632122275
 30
0.0
 10
413.143214178409
 20
321.4382205205908
 30
0.0
 10
413.2185262310901
 20
321.4394418519387
 30
0.0
 10
413.4165346736687
 20
321.4407275787282
 30
0.0
 10
413.5410365666646
 20
321.4407672379122
 30
0.0
 10
413.8296501163409
 20
321.4366635446834
 30
0.0
 10
413.9936935228705
 20
321.4325450690645
 30
0.0
 10
414.3613418806549
 20
321.4164586824844
 30
0.0
 10
414.5653653630337
 20
321.4043528139006
 30
0.0
 10
414.9951632951839
 20
321.3694574458578
 30
0.0
 10
415.2229584299516
 20
321.3466191349987
 30
0.0
 10
415.7047515611301
 20
321.286464960934
 30
0.0
 10
415.9518923210856
 20
321.2499438743893
 30
0.0
 10
416.4536889444754
 20
321.1630966820776
 30
0.0
 10
416.7105641545299
 20
321.112335627951
 30
0.0
 10
416.9677803104781
 20
321.0547635878788
 30
0.0
  0
SPLINE
  5
D2
330
1F
100
AcDbEntity
  8
0
  6
Continuous
 62
     7
370
    25
100
AcDbSpline
210
0.0
220
0.0
230
1.0
 70
     8
 71
     3
 72
    18
 73
    14
 74
     0
 42
0.000000001
 43
0.00000001
 40
0.0
 40
0.0
 40
0.0
 40
0.0
 40
0.089111072277098
 40
0.1786469559596973
 40
0.2685889322752136
 40
0.3589163621377784
 40
0.4496030565439903
 40
0.5406197421750778
 40
0.6319409776275896
 40
0.723550899571597
 40
0.8154412617769341
 40
0.9075998477017417
 40
1.0
 40
1.0
 40
1.0
 40
1.0
 10
413.0158580269882
 20
321.4354436331922
 30
0.0
 10
412.7828497549397
 20
321.4588420199748
 30
0.0
 10
412.3157224109275
 20
321.5057503386187
 30
0.0
 10
411.6122787536204
 20
321.5641170769052
 30
0.0
 10
410.9050411805264
 20
321.6146120289801
 30
0.0
 10
410.1942268016289
 20
321.6568249144311
 30
0.0
 10
409.4801858898674
 20
321.6915767434947
 30
0.0
 10
408.7632287939634
 20
321.7193945671527
 30
0.0
 10
408.0436272195738
 20
321.7408275355484
 30
0.0
 10
407.3215772038848
 20
321.756319034107
 30
0.0
 10
406.5972288658075
 20
321.7660936004003
 30
0.0
 10
405.8707514430129
 20
321.7708826797015
 30
0.0
 10
405.3857455626571
 20
321.7701553814302
 30
0.0
 10
405.1429252137432
 20
321.7697912563193
 30
0.0
  0
SPLINE
  5
D3
330
1F
100
AcDbEntity
  8
0
  6
Continuous
 62
     7
370
    25
100
AcDbSpline
210
0.0
220
0.0
230
1.0
 70
     8
 71
     3
 72
    36
 73
    32
 74
     0
 42
0.000000001
 43
0.00000001
 40
0.0
 40
0.0
 40
0.0
 40
0.0
 40
0.1249999999999996
 40
0.1249999999999996
 40
0.1874999999999994
 40
0.1874999999999994
 40
0.2499999999999993
 40
0.2499999999999993
 40
0.3124999999999991
 40
0.3124999999999991
 40
0.3437499999999991
 40
0.3437499999999991
 40
0.3749999999999991
 40
0.3749999999999991
 40
0.4999999999999994
 40
0.4999999999999994
 40
0.5624999999999994
 40
0.5624999999999994
 40
0.6249999999999996
 40
0.6249999999999996
 40
0.7499999999999997
 40
0.7499999999999997
 40
0.7812499999999998
 40
0.7812499999999998
 40
0.8124999999999998
 40
0.8124999999999998
 40
0.8749999999999999
 40
0.8749999999999999
 40
0.9375
 40
0.9375
 40
1.0
 40
1.0
 40
1.0
 40
1.0
 10
411.2173997611913
 20
371.3671617617368
 30
0.0
 10
411.0202780975627
 20
370.9610745721384
 30
0.0
 10
410.7296168510098
 20
370.3557989343118
 30
0.0
 10
410.1896490380223
 20
369.1710652272623
 30
0.0
 10
409.9918718102699
 20
368.7286739098832
 30
0.0
 10
409.5683875051824
 20
367.7515693355259
 30
0.0
 10
409.345980320977
 20
367.2244201693626
 30
0.0
 10
408.887435739501
 20
366.0956445709505
 30
0.0
 10
408.6512799075583
 20
365.4940072733183
 30
0.0
 10
408.2920695384526
 20
364.5351292923748
 30
0.0
 10
408.1715014004264
 20
364.2060739152519
 30
0.0
 10
407.9295888274168
 20
363.5286947891873
 30
0.0
 10
407.8079298733836
 20
363.1794351277256
 30
0.0
 10
407.2038601368674
 20
361.395036603421
 30
0.0
 10
406.7389540963932
 20
359.8609341431501
 30
0.0
 10
406.1060580085151
 20
357.3940598523294
 30
0.0
 10
405.9057724712495
 20
356.5438964838943
 30
0.0
 10
405.5318696674746
 20
354.7836574978398
 30
0.0
 10
405.3617678769832
 20
353.8897115841496
 30
0.0
 10
404.9047163250411
 20
351.1749531169443
 30
0.0
 10
404.6710954245093
 20
349.3179517899326
 30
0.0
 10
404.4594606173724
 20
346.9358907431756
 30
0.0
 10
404.4212023882584
 20
346.4573455456495
 30
0.0
 10
404.3529055199434
 20
345.5072609203952
 30
0.0
 10
404.3227212488142
 20
345.0341494761437
 30
0.0
 10
404.2426307585585
 20
343.6205849812913
 30
0.0
 10
404.2031732661972
 20
342.6858834986513
 30
0.0
 10
404.1447179636679
 20
340.8321654008809
 30
0.0
 10
404.1257101318574
 20
339.9131471386136
 30
0.0
 10
404.1012778266332
 20
338.0917365736067
 30
0.0
 10
404.0959622925276
 20
337.2005977096447
 30
0.0
 10
404.0942449754286
 20
336.3298841997763
 30
0.0
  0
LWPOLYLINE
  5
D4
330
1F
100
AcDbEntity
  8
0
  6
Continuous
 62
     7
370
    25
100
AcDbPolyline
 90
       12
 70
   128
 43
0.0
 10
404.0942458584
 20
336.3298841806
 10
404.1017895713
 20
333.9286300408
 10
404.108856447
 20
331.6789672764
 10
404.1153645291
 20
329.6073049361
 10
404.1212355867
 20
327.7379635776
 10
404.1264062896
 20
326.0928877218
 10
404.1308095827
 20
324.6913899722
 10
404.134393312
 20
323.5499230733
 10
404.1371202245
 20
322.6818872437
 10
404.1389567926
 20
322.0974727239
 10
404.1398806646
 20
321.8035401598
 10
404.1399961486
 20
321.7667175278
  0
SPLINE
  5
D5
330
1F
100
AcDbEntity
  8
0
  6
Continuous
 62
     7
370
    25
100
AcDbSpline
210
0.0
220
0.0
230
1.0
 70
     8
 71
     3
 72
    19
 73
    15
 74
     0
 42
0.000000001
 43
0.00000001
 40
0.0
 40
0.0
 40
0.0
 40
0.0
 40
0.0253191150067736
 40
0.0888648909039829
 40
0.1524112089917881
 40
0.2167089982186239
 40
0.2810144755749742
 40
0.370761785865657
 40
0.4606523881513223
 40
0.6406522782922817
 40
0.7301261868042366
 40
0.819645722601667
 40
0.909613069387369
 40
1.0
 40
1.0
 40
1.0
 40
1.0
 10
434.1052776351132
 20
366.2401058765211
 30
0.0
 10
434.0442408256839
 20
365.5580210175164
 30
0.0
 10
433.8300141669085
 20
363.1640433225418
 30
0.0
 10
433.9084943386497
 20
359.0356702220725
 30
0.0
 10
434.1644332490105
 20
353.8677262771789
 30
0.0
 10
434.7482723131558
 20
348.7015215150626
 30
0.0
 10
435.6841280959692
 20
342.8710081772515
 30
0.0
 10
437.0512948578996
 20
336.41554306482
 30
0.0
 10
439.4168815154508
 20
326.9830953761984
 30
0.0
 10
441.9811666474692
 20
317.6109779945194
 30
0.0
 10
444.4090623260851
 20
308.2124696971769
 30
0.0
 10
446.0563187073572
 20
301.1290824119509
 30
0.0
 10
447.3607117161771
 20
293.9408111483199
 30
0.0
 10
447.7806075528347
 20
289.0801712848408
 30
0.0
 10
447.9910439028897
 20
286.6441973539152
 30
0.0
  0
LWPOLYLINE
  5
D6
330
1F
100
AcDbEntity
  8
0
  6
Continuous
 62
     7
370
    25
100
AcDbPolyline
 90
        7
 70
   128
 43
0.0
 10
413.0170947089
 20
321.0423520587
 10
413.0571415796
 20
321.0424779037
 10
413.3727332726
 20
321.043469413
 10
413.9788454547
 20
321.045373502
 10
414.8273250237
 20
321.0480390636
 10
415.8507367745
 20
321.0512543384
 10
416.9677799716
 20
321.0547635619
  0
LINE
  5
D7
330
1F
100
AcDbEntity
  8
0
  6
Continuous
 62
     7
370
    25
100
AcDbLine
 10
436.3116106167
 20
384.0802268179
 30
0.0
 11
436.3121843114
 21
384.0807781609
 31
0.0
  0
SPLINE
  5
D8
330
1F
100
AcDbEntity
  8
0
  6
Continuous
 62
     8
370
    18
100
AcDbSpline
210
0.0
220
0.0
230
1.0
 70
     8
 71
     3
 72
    54
 73
    50
 74
     0
 42
0.000000001
 43
0.00000001
 40
0.0
 40
0.0
 40
0.0
 40
0.0
 40
0.0625
 40
0.0625
 40
0.1249999999999999
 40
0.1249999999999999
 40
0.1874999999999999
 40
0.1874999999999999
 40
0.2499999999999999
 40
0.2499999999999999
 40
0.3124999999999999
 40
0.3124999999999999
 40
0.3281249999999997
 40
0.3281249999999997
 40
0.3437499999999996
 40
0.3437499999999996
 40
0.3749999999999993
 40
0.3749999999999993
 40
0.4062499999999991
 40
0.4062499999999991
 40
0.4374999999999988
 40
0.4374999999999988
 40
0.4999999999999986
 40
0.4999999999999986
 40
0.5156249999999987
 40
0.5156249999999987
 40
0.5312499999999988
 40
0.5312499999999988
 40
0.5624999999999988
 40
0.5624999999999988
 40
0.5781249999999988
 40
0.5781249999999988
 40
0.5937499999999988
 40
0.5937499999999988
 40
0.6249999999999988
 40
0.6249999999999988
 40
0.6874999999999988
 40
0.6874999999999988
 40
0.7187499999999988
 40
0.7187499999999988
 40
0.7499999999999989
 40
0.7499999999999989
 40
0.8124999999999992
 40
0.8124999999999992
 40
0.8749999999999996
 40
0.8749999999999996
 40
0.9374999999999998
 40
0.9374999999999998
 40
1.0
 40
1.0
 40
1.0
 40
1.0
 10
358.3920201278387
 20
247.2041659128276
 30
0.0
 10
358.3920201278383
 20
247.2041659126979
 30
0.0
 10
358.3920531682703
 20
247.2134337364877
 30
0.0
 10
358.3921448668901
 20
247.2660351992328
 30
0.0
 10
358.3922033424741
 20
247.3092257279644
 30
0.0
 10
358.3922941465218
 20
247.453296703565
 30
0.0
 10
358.3923254439031
 20
247.5539028282421
 30
0.0
 10
358.3923136742545
 20
247.8506176706906
 30
0.0
 10
358.3922665772179
 20
248.0461563878287
 30
0.0
 10
358.3921179035805
 20
248.5965920086017
 30
0.0
 10
358.3920091510606
 20
248.9501869685694
 30
0.0
 10
358.3920244525833
 20
249.5641742039703
 30
0.0
 10
358.3920327080714
 20
249.6957598446096
 30
0.0
 10
358.3920521416007
 20
249.9792624506645
 30
0.0
 10
358.3920632902348
 20
250.1312854049873
 30
0.0
 10
358.3920909582289
 20
250.6201369198011
 30
0.0
 10
358.3920997024081
 20
250.9901037565986
 30
0.0
 10
358.3920769930598
 20
251.8444696324436
 30
0.0
 10
358.3920423525664
 20
252.328787794698
 30
0.0
 10
358.3920098790056
 20
253.4464531152356
 30
0.0
 10
358.3919781275249
 20
254.0799073141329
 30
0.0
 10
358.3918090106857
 20
256.2700540690895
 30
0.0
 10
358.3920043056098
 20
258.0603639876564
 30
0.0
 10
358.3920235926616
 20
260.8037819112857
 30
0.0
 10
358.3919965922476
 20
261.3804007353237
 30
0.0
 10
358.3919357057465
 20
262.5670589728729
 30
0.0
 10
358.3919024092284
 20
263.1773275547375
 30
0.0
 10
358.3918397335893
 20
265.0557908153651
 30
0.0
 10
358.3918579294613
 20
266.3716636918803
 30
0.0
 10
358.3919382836643
 20
268.4273637677385
 30
0.0
 10
358.3919710760131
 20
269.1262378421594
 30
0.0
 10
358.3920168166952
 20
270.5489945778288
 30
0.0
 10
358.3920170348057
 20
271.2709209779053
 30
0.0
 10
358.3920364144132
 20
273.4469805945861
 30
0.0
 10
358.3920729413643
 20
274.918628786837
 30
0.0
 10
358.3921128315986
 20
279.3809526521862
 30
0.0
 10
358.392039873376
 20
282.418138178204
 30
0.0
 10
358.3920141715759
 20
287.0280652229479
 30
0.0
 10
358.3920356119285
 20
288.573052280234
 30
0.0
 10
358.3921050176205
 20
291.6633321227822
 30
0.0
 10
358.3921486126252
 20
293.2106546430344
 30
0.0
 10
358.3922622573691
 20
297.8576187019356
 30
0.0
 10
358.3923118628071
 20
300.9621741649269
 30
0.0
 10
358.3923264980178
 20
307.1790702803112
 30
0.0
 10
358.3922957769584
 20
310.2919324130455
 30
0.0
 10
358.3922050261718
 20
316.5167396736992
 30
0.0
 10
358.3921460951244
 20
319.6295416190384
 30
0.0
 10
358.3920535532008
 20
325.8556095359561
 30
0.0
 10
358.3920201278383
 20
328.9688775669255
 30
0.0
 10
358.3920201278387
 20
332.0822723736808
 30
0.0
  0
SPLINE
  5
D9
330
1F
100
AcDbEntity
  8
0
  6
Continuous
 62
     8
370
    18
100
AcDbSpline
210
0.0
220
0.0
230
1.0
 70
     8
 71
     3
 72
    52
 73
    48
 74
     0
 42
0.000000001
 43
0.00000001
 40
0.0
 40
0.0
 40
0.0
 40
0.0
 40
0.1249999999999994
 40
0.1249999999999994
 40
0.1874999999999992
 40
0.1874999999999992
 40
0.2499999999999989
 40
0.2499999999999989
 40
0.3124999999999986
 40
0.3124999999999986
 40
0.3437499999999984
 40
0.3437499999999984
 40
0.3749999999999982
 40
0.3749999999999982
 40
0.4062499999999981
 40
0.4062499999999981
 40
0.4374999999999978
 40
0.4374999999999978
 40
0.4531249999999978
 40
0.4531249999999978
 40
0.4687499999999978
 40
0.4687499999999978
 40
0.4999999999999976
 40
0.4999999999999976
 40
0.5156249999999973
 40
0.5156249999999973
 40
0.5312499999999972
 40
0.5312499999999972
 40
0.5624999999999971
 40
0.5624999999999971
 40
0.5781249999999971
 40
0.5781249999999971
 40
0.5937499999999971
 40
0.5937499999999971
 40
0.6249999999999973
 40
0.6249999999999973
 40
0.6562499999999976
 40
0.6562499999999976
 40
0.6874999999999977
 40
0.6874999999999977
 40
0.7499999999999982
 40
0.7499999999999982
 40
0.8124999999999987
 40
0.8124999999999987
 40
0.8749999999999991
 40
0.8749999999999991
 40
1.0
 40
1.0
 40
1.0
 40
1.0
 10
362.6466808502558
 20
251.2601627909249
 30
0.0
 10
362.6466808478229
 20
251.2601627729867
 30
0.0
 10
362.6466816748378
 20
251.2905513945606
 30
0.0
 10
362.6466825748534
 20
251.482630400397
 30
0.0
 10
362.6466828053186
 20
251.57175216147
 30
0.0
 10
362.6466828362955
 20
251.8329024579166
 30
0.0
 10
362.6466826171826
 20
252.0044287661781
 30
0.0
 10
362.646681751765
 20
252.4848474893642
 30
0.0
 10
362.6466810258345
 20
252.7924946374769
 30
0.0
 10
362.646680774869
 20
253.4322889262262
 30
0.0
 10
362.646680905845
 20
253.675733075258
 30
0.0
 10
362.6466811782685
 20
254.2446549784856
 30
0.0
 10
362.6466813141166
 20
254.5684435880333
 30
0.0
 10
362.6466813156638
 20
255.3197012287704
 30
0.0
 10
362.6466811589124
 20
255.7471567038617
 30
0.0
 10
362.6466808179921
 20
256.7425574544673
 30
0.0
 10
362.6466808393365
 20
257.3103461887997
 30
0.0
 10
362.646680228207
 20
258.3065291301162
 30
0.0
 10
362.6466800026788
 20
258.6636861303011
 30
0.0
 10
362.64667973869
 20
259.4217251378716
 30
0.0
 10
362.6466797024095
 20
259.8237482509338
 30
0.0
 10
362.6466799544024
 20
261.1043929796232
 30
0.0
 10
362.6466807512875
 20
262.0581037974458
 30
0.0
 10
362.6466808506287
 20
263.6542178391663
 30
0.0
 10
362.6466806246471
 20
264.2167441368658
 30
0.0
 10
362.6466801626271
 20
265.3757629352407
 30
0.0
 10
362.6466799318358
 20
265.9733857005935
 30
0.0
 10
362.6466795954493
 20
267.8155867829772
 30
0.0
 10
362.6466799287484
 20
269.1093901615353
 30
0.0
 10
362.6466805494066
 20
271.1286847699935
 30
0.0
 10
362.6466807520474
 20
271.8170158712622
 30
0.0
 10
362.6466808554694
 20
273.2053904295376
 30
0.0
 10
362.6466808643118
 20
273.904778700563
 30
0.0
 10
362.6466811107665
 20
276.0159326829798
 30
0.0
 10
362.6466812862943
 20
277.4406012977387
 30
0.0
 10
362.6466813120965
 20
280.3148668398389
 30
0.0
 10
362.646681187148
 20
281.7645219234558
 30
0.0
 10
362.6466809125278
 20
284.6825177399207
 30
0.0
 10
362.6466807637531
 20
286.1514809576691
 30
0.0
 10
362.6466809418244
 20
290.5760732429869
 30
0.0
 10
362.6466816789872
 20
293.5321270238147
 30
0.0
 10
362.6466825633048
 20
299.4517135379093
 30
0.0
 10
362.6466827948223
 20
302.4153027698238
 30
0.0
 10
362.6466827752769
 20
308.347109973341
 30
0.0
 10
362.6466825450083
 20
311.3154194485533
 30
0.0
 10
362.6466816366592
 20
320.2167686483119
 30
0.0
 10
362.646680794294
 20
326.1498250568345
 30
0.0
 10
362.6466807918608
 20
332.0822723734265
 30
0.0
  0
SPLINE
  5
DA
330
1F
100
AcDbEntity
  8
0
  6
Continuous
 62
     8
370
    18
100
AcDbSpline
210
0.0
220
0.0
230
1.0
 70
     8
 71
     3
 72
    54
 73
    50
 74
     0
 42
0.000000001
 43
0.00000001
 40
0.0
 40
0.0
 40
0.0
 40
0.0
 40
0.0625000000000001
 40
0.0625000000000001
 40
0.1250000000000001
 40
0.1250000000000001
 40
0.1875000000000002
 40
0.1875000000000002
 40
0.2500000000000002
 40
0.2500000000000002
 40
0.3125000000000003
 40
0.3125000000000003
 40
0.3281250000000003
 40
0.3281250000000003
 40
0.3437500000000004
 40
0.3437500000000004
 40
0.3750000000000007
 40
0.3750000000000007
 40
0.4062500000000009
 40
0.4062500000000009
 40
0.4375000000000012
 40
0.4375000000000012
 40
0.5000000000000016
 40
0.5000000000000016
 40
0.5156250000000017
 40
0.5156250000000017
 40
0.5312500000000018
 40
0.5312500000000018
 40
0.5625000000000019
 40
0.5625000000000019
 40
0.5781250000000019
 40
0.5781250000000019
 40
0.5937500000000019
 40
0.5937500000000019
 40
0.6250000000000019
 40
0.6250000000000019
 40
0.6875000000000019
 40
0.6875000000000019
 40
0.7187500000000018
 40
0.7187500000000018
 40
0.7500000000000017
 40
0.7500000000000017
 40
0.8125000000000013
 40
0.8125000000000013
 40
0.8750000000000009
 40
0.8750000000000009
 40
0.9375000000000004
 40
0.9375000000000004
 40
1.0
 40
1.0
 40
1.0
 40
1.0
 10
358.3920201278387
 20
332.0822723734189
 30
0.0
 10
358.3920201278383
 20
335.1780599414247
 30
0.0
 10
358.3920531682703
 20
338.2733222515517
 30
0.0
 10
358.3921448668901
 20
344.4619161772485
 30
0.0
 10
358.3922033424741
 20
347.555255903651
 30
0.0
 10
358.3922941465217
 20
353.7386657558672
 30
0.0
 10
358.3923254439031
 20
356.8287514290084
 30
0.0
 10
358.3923136742543
 20
363.0035101253263
 30
0.0
 10
358.3922665772175
 20
366.0882154535336
 30
0.0
 10
358.3921179035798
 20
372.2485944170995
 30
0.0
 10
358.39200915106
 20
375.324341840673
 30
0.0
 10
358.3920244525835
 20
379.1592783133818
 30
0.0
 10
358.3920327080718
 20
379.9257675333183
 30
0.0
 10
358.3920521416014
 20
381.4575936867245
 30
0.0
 10
358.3920632902356
 20
382.2232940546147
 30
0.0
 10
358.3920909582301
 20
384.5068896783658
 30
0.0
 10
358.3920997024096
 20
386.0147868902725
 30
0.0
 10
358.3920769930612
 20
388.9929273711937
 30
0.0
 10
358.3920423525675
 20
390.4631972527068
 30
0.0
 10
358.3920098790055
 20
393.354698990568
 30
0.0
 10
358.3919781275238
 20
394.7764730921031
 30
0.0
 10
358.3918090106838
 20
398.9429552811611
 30
0.0
 10
358.3920043056094
 20
401.4692321476322
 30
0.0
 10
358.3920235926616
 20
404.2422370328486
 30
0.0
 10
358.3919965922478
 20
404.7800713394686
 30
0.0
 10
358.3919357057471
 20
405.8013676177732
 30
0.0
 10
358.3919024092293
 20
406.2855872779959
 30
0.0
 10
358.3918397335908
 20
407.6638923298206
 30
0.0
 10
358.3918579294629
 20
408.4835915239603
 30
0.0
 10
358.3919382836655
 20
409.5853766284308
 30
0.0
 10
358.391971076014
 20
409.9313564647013
 30
0.0
 10
358.3920168166956
 20
410.584298436031
 30
0.0
 10
358.3920170348057
 20
410.8902769466861
 30
0.0
 10
358.3920364144121
 20
411.7467702024273
 30
0.0
 10
358.392072941363
 20
412.239641529435
 30
0.0
 10
358.392112831597
 20
413.5415051238298
 30
0.0
 10
358.3920398733752
 20
414.1769904701979
 30
0.0
 10
358.392014171576
 20
414.9282143268359
 30
0.0
 10
358.3920356119289
 20
415.1437722774846
 30
0.0
 10
358.392105017621
 20
415.5201945273679
 30
0.0
 10
358.3921486126258
 20
415.6813565774617
 30
0.0
 10
358.3922622573694
 20
416.1029208444958
 30
0.0
 10
358.3923118628073
 20
416.3024245205548
 30
0.0
 10
358.3923264980178
 20
416.6049495907591
 30
0.0
 10
358.3922957769584
 20
416.7073900438875
 30
0.0
 10
358.3922050261718
 20
416.8538734448855
 30
0.0
 10
358.3921460951244
 20
416.8976821439294
 30
0.0
 10
358.3920535532008
 20
416.9510109266598
 30
0.0
 10
358.3920201278382
 20
416.9603788344162
 30
0.0
 10
358.3920201278387
 20
416.960378834221
 30
0.0
  0
SPLINE
  5
DB
330
1F
100
AcDbEntity
  8
0
  6
Continuous
 62
     8
370
    18
100
AcDbSpline
210
0.0
220
0.0
230
1.0
 70
     8
 71
     3
 72
    52
 73
    48
 74
     0
 42
0.000000001
 43
0.00000001
 40
0.0
 40
0.0
 40
0.0
 40
0.0
 40
0.1250000000000008
 40
0.1250000000000008
 40
0.1875000000000013
 40
0.1875000000000013
 40
0.2500000000000018
 40
0.2500000000000018
 40
0.3125000000000023
 40
0.3125000000000023
 40
0.3437500000000024
 40
0.3437500000000024
 40
0.3750000000000026
 40
0.3750000000000026
 40
0.4062500000000028
 40
0.4062500000000028
 40
0.4375000000000032
 40
0.4375000000000032
 40
0.4531250000000032
 40
0.4531250000000032
 40
0.4687500000000033
 40
0.4687500000000033
 40
0.5000000000000037
 40
0.5000000000000037
 40
0.5156250000000037
 40
0.5156250000000037
 40
0.5312500000000037
 40
0.5312500000000037
 40
0.5625000000000036
 40
0.5625000000000036
 40
0.5781250000000034
 40
0.5781250000000034
 40
0.5937500000000033
 40
0.5937500000000033
 40
0.625000000000003
 40
0.625000000000003
 40
0.6562500000000028
 40
0.6562500000000028
 40
0.6875000000000026
 40
0.6875000000000026
 40
0.7500000000000021
 40
0.7500000000000021
 40
0.8125000000000017
 40
0.8125000000000017
 40
0.8750000000000011
 40
0.8750000000000011
 40
1.0
 40
1.0
 40
1.0
 40
1.0
 10
362.6466807918608
 20
332.0822723735888
 30
0.0
 10
362.6466807942845
 20
337.9804377344769
 30
0.0
 10
362.646681626158
 20
343.8779162241674
 30
0.0
 10
362.6466825334601
 20
352.7196534547751
 30
0.0
 10
362.646682766354
 20
355.666130577589
 30
0.0
 10
362.6466828021874
 20
361.5565387073891
 30
0.0
 10
362.6466825855024
 20
364.5004794204561
 30
0.0
 10
362.6466817249404
 20
370.3842884391087
 30
0.0
 10
362.6466810014374
 20
373.3241827458279
 30
0.0
 10
362.646680754114
 20
377.7290787003403
 30
0.0
 10
362.6466808863041
 20
379.1965362929871
 30
0.0
 10
362.6466811611563
 20
382.1292310516829
 30
0.0
 10
362.6466812982187
 20
383.5855311887469
 30
0.0
 10
362.6466813021944
 20
386.4661832084524
 30
0.0
 10
362.6466811466572
 20
387.8913044197104
 30
0.0
 10
362.646680808165
 20
390.7002836320503
 30
0.0
 10
362.6466808307237
 20
392.0841971845798
 30
0.0
 10
362.6466802214154
 20
394.1170146717888
 30
0.0
 10
362.6466799964942
 20
394.7883456625131
 30
0.0
 10
362.6466797337195
 20
396.0926312240672
 30
0.0
 10
362.6466796980459
 20
396.728100203091
 30
0.0
 10
362.64667995186
 20
398.5798027606651
 30
0.0
 10
362.6466807499593
 20
399.7410316386834
 30
0.0
 10
362.6466808511223
 20
401.3573291826806
 30
0.0
 10
362.6466806257479
 20
401.8775360988486
 30
0.0
 10
362.6466801649422
 20
402.8568669495131
 30
0.0
 10
362.646679934758
 20
403.3176872869318
 30
0.0
 10
362.6466796001927
 20
404.6201819160817
 30
0.0
 10
362.6466799347058
 20
405.3818879419209
 30
0.0
 10
362.6466805571851
 20
406.393804695085
 30
0.0
 10
362.646680760433
 20
406.7102139450434
 30
0.0
 10
362.6466808650694
 20
407.2994954363969
 30
0.0
 10
362.6466808745187
 20
407.5722871738349
 30
0.0
 10
362.6466811227946
 20
408.3351074790604
 30
0.0
 10
362.6466812995366
 20
408.770132359527
 30
0.0
 10
362.6466813277672
 20
409.5334596506933
 30
0.0
 10
362.6466812040329
 20
409.8615663265973
 30
0.0
 10
362.6466809318413
 20
410.4382155606808
 30
0.0
 10
362.6466807842809
 20
410.6867290212181
 30
0.0
 10
362.6466809659945
 20
411.3411211690562
 30
0.0
 10
362.6466817055849
 20
411.6555797414429
 30
0.0
 10
362.6466825947579
 20
412.146346703599
 30
0.0
 10
362.6466828287031
 20
412.3213871198115
 30
0.0
 10
362.6466828140142
 20
412.5877000128046
 30
0.0
 10
362.6466825861742
 20
412.6784453017123
 30
0.0
 10
362.6466816851116
 20
412.8737528846069
 30
0.0
 10
362.646680847605
 20
412.9043819828734
 30
0.0
 10
362.6466808500286
 20
412.9043819583845
 30
0.0
  0
SPLINE
  5
DC
330
1F
100
AcDbEntity
  8
0
  6
Continuous
 62
     8
370
    18
100
AcDbSpline
210
0.0
220
0.0
230
1.0
 70
     8
 71
     3
 72
    37
 73
    33
 74
     0
 42
0.000000001
 43
0.00000001
 40
0.0
 40
0.0
 40
0.0
 40
0.0
 40
0.0183836091696112
 40
0.0366471539812349
 40
0.0547460287405173
 40
0.0726612962340127
 40
0.0904429546814992
 40
0.1081535217743007
 40
0.1258100392922786
 40
0.1759606382880033
 40
0.2255277128038533
 40
0.2514868538754572
 40
0.2770979531269857
 40
0.3497203987364444
 40
0.4201299416589763
 40
0.4563145310577782
 40
0.4915922546087221
 40
0.5373970333194908
 40
0.5681070734339843
 40
0.6137111403740491
 40
0.6298703129523786
 40
0.6462626530351546
 40
0.6814242527368033
 40
0.7183671880645608
 40
0.729752351641572
 40
0.8020778218499545
 40
0.829796230392758
 40
0.8579520352312571
 40
0.8916074494366252
 40
0.9274898485471006
 40
0.9636854550027664
 40
1.0
 40
1.0
 40
1.0
 40
1.0
 10
429.9109647469189
 20
349.6013423610073
 30
0.0
 10
429.8704152657878
 20
349.9375889765249
 30
0.0
 10
429.7895811344067
 20
350.6078861625047
 30
0.0
 10
429.681019024083
 20
351.61060467195
 30
0.0
 10
429.5823727878848
 20
352.6056329242222
 30
0.0
 10
429.4945117818062
 20
353.5927194760729
 30
0.0
 10
429.4170275644136
 20
354.5734389306638
 30
0.0
 10
429.3497292504359
 20
355.5500585997081
 30
0.0
 10
429.2572041000678
 20
357.1222946487754
 30
0.0
 10
429.1731782296038
 20
359.2821238056566
 30
0.0
 10
429.1535160075694
 20
361.5949702296204
 30
0.0
 10
429.1827303097937
 20
363.4540029699113
 30
0.0
 10
429.2573841815157
 20
365.733642851205
 30
0.0
 10
429.461087464396
 20
368.8179698538013
 30
0.0
 10
429.8391081708575
 20
372.05526619545
 30
0.0
 10
430.2254276535275
 20
374.5623775195327
 30
0.0
 10
430.584514997125
 20
376.5860390082884
 30
0.0
 10
430.9647032361743
 20
378.4351913988252
 30
0.0
 10
431.4058518753355
 20
380.3041676682964
 30
0.0
 10
431.7495530547293
 20
381.5677220106531
 30
0.0
 10
432.0297469400819
 20
382.4838743038916
 30
0.0
 10
432.2647326063048
 20
383.2063685943326
 30
0.0
 10
432.5481659378669
 20
383.9973166199071
 30
0.0
 10
432.7663838474181
 20
384.5494830897025
 30
0.0
 10
433.0305566630622
 20
385.1918106981774
 30
0.0
 10
433.1958478482882
 20
385.5597153205197
 30
0.0
 10
433.3107198525938
 20
385.8132574393089
 30
0.0
 10
433.3684404777763
 20
385.9395901826155
 30
0.0
 10
433.4087973910484
 20
386.029316714075
 30
0.0
 10
433.4286222904639
 20
386.0773302721342
 30
0.0
 10
433.4392727478988
 20
386.0945066481181
 30
0.0
 10
433.4385595842415
 20
386.0958427398347
 30
0.0
 10
433.438202417511
 20
386.0965118814898
 30
0.0
  0
SPLINE
  5
DD
330
1F
100
AcDbEntity
  8
0
  6
Continuous
 62
     8
370
    18
100
AcDbSpline
210
0.0
220
0.0
230
1.0
 70
     8
 71
     3
 72
    38
 73
    34
 74
     0
 42
0.000000001
 43
0.00000001
 40
0.0
 40
0.0
 40
0.0
 40
0.0
 40
0.0559163241114808
 40
0.1058661331276771
 40
0.1498107602905629
 40
0.1877322787133374
 40
0.2195275468666001
 40
0.2452566105512705
 40
0.2702469852936221
 40
0.307628456458948
 40
0.3459391383209307
 40
0.3724205500688861
 40
0.3923524222093118
 40
0.4211458541816869
 40
0.4581363799998315
 40
0.5035821414901004
 40
0.5262682748620204
 40
0.5497018484069959
 40
0.5739326463506406
 40
0.5990021864554228
 40
0.6248989649915901
 40
0.6516207379808735
 40
0.6791556108651892
 40
0.7075084474213249
 40
0.7366968647915737
 40
0.7667205279702402
 40
0.7975377587763864
 40
0.8291627057682469
 40
0.8616150004321677
 40
0.8949075145567476
 40
0.9290554496472675
 40
0.9640775448051915
 40
1.0
 40
1.0
 40
1.0
 40
1.0
 10
436.3113399870444
 20
384.0809332112341
 30
0.0
 10
436.3111847433602
 20
384.0806046297316
 30
0.0
 10
436.3108908211684
 20
384.0799825278025
 30
0.0
 10
436.2861339957043
 20
384.025585116438
 30
0.0
 10
436.2264396759139
 20
383.8940458834896
 30
0.0
 10
436.1397058689953
 20
383.7011961924983
 30
0.0
 10
436.0288826599707
 20
383.4510740571464
 30
0.0
 10
435.896513289123
 20
383.1466591611092
 30
0.0
 10
435.7128928364122
 20
382.7142434353192
 30
0.0
 10
435.4327190989833
 20
382.0331350555181
 30
0.0
 10
435.0485680780258
 20
381.0410170756282
 30
0.0
 10
434.6741391913899
 20
379.9956260835709
 30
0.0
 10
434.3227062844357
 20
378.9510539911312
 30
0.0
 10
433.9139725456085
 20
377.6418963818752
 30
0.0
 10
433.4018537181922
 20
375.7956307016305
 30
0.0
 10
432.9701358218343
 20
373.9463936282216
 30
0.0
 10
432.643377921278
 20
372.2974850162323
 30
0.0
 10
432.4186102244216
 20
371.0143377741767
 30
0.0
 10
432.2148721793343
 20
369.6750675979913
 30
0.0
 10
432.0347584634612
 20
368.2801660669671
 30
0.0
 10
431.8808192204613
 20
366.8308194478622
 30
0.0
 10
431.7554697137672
 20
365.3288908425814
 30
0.0
 10
431.6608437040672
 20
363.7758767206343
 30
0.0
 10
431.598873610896
 20
362.1727993005462
 30
0.0
 10
431.5713251939583
 20
360.5205524863849
 30
0.0
 10
431.5798138049548
 20
358.8207311288305
 30
0.0
 10
431.6257858522504
 20
357.0748631804364
 30
0.0
 10
431.7104753437264
 20
355.2840998212814
 30
0.0
 10
431.8351439166182
 20
353.4485138280227
 30
0.0
 10
432.000764528649
 20
351.5681158391671
 30
0.0
 10
432.2092481154742
 20
349.6430880239179
 30
0.0
 10
432.4585245234365
 20
347.6726995576211
 30
0.0
 10
432.6581942016757
 20
346.3470169196393
 30
0.0
 10
432.7592960486062
 20
345.6757634557909
 30
0.0
  0
SPLINE
  5
DE
330
1F
100
AcDbEntity
  8
0
  6
Continuous
 62
     8
370
    18
100
AcDbSpline
210
0.0
220
0.0
230
1.0
 70
     8
 71
     3
 72
     8
 73
     4
 74
     0
 42
0.000000001
 43
0.00000001
 40
0.0
 40
0.0
 40
0.0
 40
0.0
 40
1.0
 40
1.0
 40
1.0
 40
1.0
 10
433.4581419331656
 20
341.6593774253728
 30
0.0
 10
433.2027187729147
 20
342.9935578843086
 30
0.0
 10
432.9691216488197
 20
344.3309904005335
 30
0.0
 10
432.7592962270994
 20
345.6757624790692
 30
0.0
  0
SPLINE
  5
DF
330
1F
100
AcDbEntity
  8
0
  6
Continuous
 62
     8
370
    18
100
AcDbSpline
210
0.0
220
0.0
230
1.0
 70
     8
 71
     3
 72
    11
 73
     7
 74
     0
 42
0.000000001
 43
0.00000001
 40
0.0
 40
0.0
 40
0.0
 40
0.0
 40
0.1875
 40
0.5
 40
0.8125
 40
1.0
 40
1.0
 40
1.0
 40
1.0
 10
431.2343300032389
 20
341.1906291034385
 30
0.0
 10
431.1379053939734
 20
341.7141944046017
 30
0.0
 10
430.8855924653929
 20
343.1115483120291
 30
0.0
 10
430.5014285598216
 20
345.3870588981792
 30
0.0
 10
430.1599051958198
 20
347.6679537292509
 30
0.0
 10
429.9758171337505
 20
349.0739224285529
 30
0.0
 10
429.9108809244133
 20
349.6014637875043
 30
0.0
  0
LINE
  5
E0
330
1F
100
AcDbEntity
  8
0
  6
Continuous
 62
     8
370
    18
100
AcDbLine
 10
411.4985248223
 20
371.9404035302
 30
0.0
 11
412.2430091872
 21
372.1322857829
 31
0.0
  0
SPLINE
  5
E1
330
1F
100
AcDbEntity
  8
0
  6
Continuous
 62
     8
370
    18
100
AcDbSpline
210
0.0
220
0.0
230
1.0
 70
     8
 71
     3
 72
    22
 73
    18
 74
     0
 42
0.000000001
 43
0.00000001
 40
0.0
 40
0.0
 40
0.0
 40
0.0
 40
0.131131281729521
 40
0.259393133608959
 40
0.3862673941599035
 40
0.5106782621671176
 40
0.5714035669337916
 40
0.630929914952736
 40
0.6600277012295275
 40
0.6889509916722819
 40
0.7180841638609681
 40
0.7479856891452472
 40
0.7790124501760419
 40
0.8112882369018675
 40
0.8799755271596721
 40
0.9521169040290227
 40
1.0
 40
1.0
 40
1.0
 40
1.0
 10
433.5046565308728
 20
330.7721375541844
 30
0.0
 10
434.1712823616328
 20
328.1137269215331
 30
0.0
 10
435.4899468397412
 20
322.8550773046923
 30
0.0
 10
437.4069259266495
 20
315.0186290171224
 30
0.0
 10
439.3014726990846
 20
307.334402495239
 30
0.0
 10
440.9094959601133
 20
301.0406429024782
 30
0.0
 10
442.1349811567983
 20
296.1748943832893
 30
0.0
 10
442.8405050486642
 20
293.2801907819273
 30
0.0
 10
443.343699581994
 20
291.157728121045
 30
0.0
 10
443.6874960454313
 20
289.7110962111906
 30
0.0
 10
444.000195507029
 20
288.4374198035817
 30
0.0
 10
444.2770250132289
 20
287.3725473362655
 30
0.0
 10
444.5079305739352
 20
286.5343718407628
 30
0.0
 10
444.7492336483558
 20
285.6919389691076
 30
0.0
 10
444.8991932035755
 20
285.1598923997569
 30
0.0
 10
444.9367158838455
 20
284.9802438022634
 30
0.0
 10
444.9386702997903
 20
284.9712887178827
 30
0.0
 10
444.9394500031628
 20
284.9677161367692
 30
0.0
  0
SPLINE
  5
E2
330
1F
100
AcDbEntity
  8
0
  6
Continuous
 62
     8
370
    18
100
AcDbSpline
210
0.0
220
0.0
230
1.0
 70
     8
 71
     3
 72
     8
 73
     4
 74
     0
 42
0.000000001
 43
0.00000001
 40
0.0
 40
0.0
 40
0.0
 40
0.0
 40
1.0
 40
1.0
 40
1.0
 40
1.0
 10
405.0979811988923
 20
336.6315159180488
 30
0.0
 10
405.0977350639068
 20
336.5317286447741
 30
0.0
 10
405.0974880151197
 20
336.4322322426225
 30
0.0
 10
405.0972400258261
 20
336.3330352120238
 30
0.0
  0
SPLINE
  5
E3
330
1F
100
AcDbEntity
  8
0
  6
Continuous
 62
     8
370
    18
100
AcDbSpline
210
0.0
220
0.0
230
1.0
 70
     8
 71
     3
 72
    17
 73
    13
 74
     0
 42
0.000000001
 43
0.00000001
 40
0.0
 40
0.0
 40
0.0
 40
0.0
 40
0.1204612293684994
 40
0.2442335945649122
 40
0.3627097018794611
 40
0.4810854912760752
 40
0.5998868968142976
 40
0.7501433798470226
 40
0.8003086628352191
 40
0.8766041287847749
 40
0.950310692282071
 40
1.0
 40
1.0
 40
1.0
 40
1.0
 10
433.5043119848514
 20
330.7734955724297
 30
0.0
 10
433.4002292845984
 20
331.1887308602189
 30
0.0
 10
433.1892029473437
 20
332.0306150702557
 30
0.0
 10
432.8871408594964
 20
333.2837899383879
 30
0.0
 10
432.5961138892086
 20
334.532050335838
 30
0.0
 10
432.3192584781023
 20
335.7655127553289
 30
0.0
 10
432.0288408753221
 20
337.1117450577182
 30
0.0
 10
431.7995645404158
 20
338.2231832341662
 30
0.0
 10
431.6047720276638
 20
339.1875239973099
 30
0.0
 10
431.4730570054009
 20
339.8868935363853
 30
0.0
 10
431.344044951879
 20
340.5850596686701
 30
0.0
 10
431.2629145067664
 20
341.0162331230918
 30
0.0
 10
431.2302447293031
 20
341.1898589522672
 30
0.0
  0
SPLINE
  5
E4
330
1F
100
AcDbEntity
  8
0
  6
Continuous
 62
     8
370
    18
100
AcDbSpline
210
0.0
220
0.0
230
1.0
 70
     8
 71
     3
 72
    19
 73
    15
 74
     0
 42
0.000000001
 43
0.00000001
 40
0.0
 40
0.0
 40
0.0
 40
0.0
 40
0.25
 40
0.25
 40
0.5000000000000004
 40
0.5000000000000004
 40
0.7500000000000009
 40
0.7500000000000009
 40
0.8750000000000004
 40
0.8750000000000004
 40
0.9375000000000004
 40
0.9687500000000002
 40
0.9687500000000002
 40
1.0
 40
1.0
 40
1.0
 40
1.0
 10
433.4587330368965
 20
341.6569480891265
 30
0.0
 10
433.6230550665272
 20
340.800348842076
 30
0.0
 10
433.7959655078632
 20
339.9464268244909
 30
0.0
 10
434.1600161206685
 20
338.2385369688985
 30
0.0
 10
434.3502484933388
 20
337.3874365793234
 30
0.0
 10
434.7470154107536
 20
335.6876893160675
 30
0.0
 10
434.9534483748013
 20
334.8394883462789
 30
0.0
 10
435.274540895344
 20
333.5694830969059
 30
0.0
 10
435.3834790732653
 20
333.1465301954721
 30
0.0
 10
435.5496641237605
 20
332.5126798092727
 30
0.0
 10
435.633451003514
 20
332.1958999837838
 30
0.0
 10
435.7182627455259
 20
331.8793458110404
 30
0.0
 10
435.7750297097683
 20
331.6683611930102
 30
0.0
 10
435.8031654477051
 20
331.5642557645388
 30
0.0
 10
435.8321344452812
 20
331.4574543455757
 30
0.0
  0
LINE
  5
E5
330
1F
100
AcDbEntity
  8
0
  6
Continuous
 62
     8
370
    18
100
AcDbLine
 10
436.3121470585
 20
384.0805956217
 30
0.0
 11
436.1206596866
 21
382.8814023228
 31
0.0
  0
LINE
  5
E6
330
1F
100
AcDbEntity
  8
0
  6
Continuous
 62
     8
370
    18
100
AcDbLine
 10
434.5654552951
 20
372.0556081327
 30
0.0
 11
434.1052776351
 21
366.2401058765
 31
0.0
  0
SPLINE
  5
E7
330
1F
100
AcDbEntity
  8
0
  6
Continuous
 62
     7
370
    25
100
AcDbSpline
210
0.0
220
0.0
230
1.0
 70
     8
 71
     3
 72
    20
 73
    16
 74
     0
 42
0.000000001
 43
0.00000001
 40
0.0
 40
0.0
 40
0.0
 40
0.0
 40
0.0097435966624176
 40
0.0768186021298522
 40
0.1317909130004773
 40
0.1746521747357012
 40
0.2053943851772623
 40
0.2332971071463747
 40
0.2720046788154797
 40
0.3215453806152468
 40
0.3819307381160552
 40
0.4531762781641544
 40
0.5327680796281612
 40
0.7749131350893196
 40
0.9999999999999999
 40
0.9999999999999999
 40
0.9999999999999999
 40
0.9999999999999999
 10
208.1026071147429
 20
176.5557908339801
 30
0.0
 10
208.2850821229258
 20
176.5578070908658
 30
0.0
 10
209.7237166988326
 20
176.5737032779575
 30
0.0
 10
212.1917417395412
 20
176.6104279317971
 30
0.0
 10
215.2798591699949
 20
176.6617499970938
 30
0.0
 10
217.6874823618782
 20
176.7084331177358
 30
0.0
 10
219.5881389747733
 20
176.7490865982563
 30
0.0
 10
221.41094791012
 20
176.7912674747299
 30
0.0
 10
223.5856276723127
 20
176.8461248281867
 30
0.0
 10
226.3682585273159
 20
176.9245905835273
 30
0.0
 10
229.7596299972204
 20
177.0339690015281
 30
0.0
 10
233.7128561570744
 20
177.1819005326897
 30
0.0
 10
241.0656568743342
 20
177.5076612751068
 30
0.0
 10
251.2924948978943
 20
178.0906638858476
 30
0.0
 10
260.0063991975507
 20
178.898429342668
 30
0.0
 10
264.2042831913935
 20
179.2875666989389
 30
0.0
  0
SPLINE
  5
E8
330
1F
100
AcDbEntity
  8
0
  6
Continuous
 62
     7
370
    25
100
AcDbSpline
210
0.0
220
0.0
230
1.0
 70
     8
 71
     3
 72
    16
 73
    12
 74
     0
 42
0.000000001
 43
0.00000001
 40
0.0
 40
0.0
 40
0.0
 40
0.0
 40
0.1117349289937758
 40
0.2466825251002761
 40
0.3852816443914761
 40
0.5123930003227594
 40
0.6251722793029227
 40
0.7249872458842828
 40
0.8194896939825431
 40
0.9206959380174736
 40
1.0
 40
1.0
 40
1.0
 40
1.0
 10
102.7105869190203
 20
179.2934498636427
 30
0.0
 10
104.7988754608385
 20
179.091528582886
 30
0.0
 10
109.4092895477567
 20
178.6457373530788
 30
0.0
 10
116.6228349863227
 20
178.090842276966
 30
0.0
 10
124.1310719162788
 20
177.6154997827698
 30
0.0
 10
131.229440302278
 20
177.2647743362454
 30
0.0
 10
137.6033407279457
 20
177.0184784881823
 30
0.0
 10
143.3670235365918
 20
176.8443633617017
 30
0.0
 10
148.9144882864436
 20
176.7142772420595
 30
0.0
 10
154.0774892492697
 20
176.6187689528107
 30
0.0
 10
157.4666415069081
 20
176.5768398486236
 30
0.0
 10
158.9556065784203
 20
176.5584190262857
 30
0.0
  0
SPLINE
  5
E9
330
1F
100
AcDbEntity
  8
0
  6
Continuous
 62
     7
370
    25
100
AcDbSpline
210
0.0
220
0.0
230
1.0
 70
     8
 71
     3
 72
    13
 73
     9
 74
     0
 42
0.000000001
 43
0.00000001
 40
0.0
 40
0.0
 40
0.0
 40
0.0
 40
0.0446972102523401
 40
0.1848280550117067
 40
0.3879676815317682
 40
0.6178956558898949
 40
0.8341119986491333
 40
1.0
 40
1.0
 40
1.0
 40
1.0
 10
156.8200615630852
 20
112.448730401546
 30
0.0
 10
156.8088063719936
 20
112.3995588026873
 30
0.0
 10
156.762264874963
 20
112.1962286411948
 30
0.0
 10
156.7544072911845
 20
111.9245538303505
 30
0.0
 10
156.743969401057
 20
111.5525732728312
 30
0.0
 10
156.7514223513575
 20
111.2239126463518
 30
0.0
 10
156.744035247953
 20
110.6709729480064
 30
0.0
 10
156.8180924393053
 20
110.2033973338916
 30
0.0
 10
156.8502438650833
 20
110.0004025621715
 30
0.0
  0
SPLINE
  5
EA
330
1F
100
AcDbEntity
  8
0
  6
Continuous
 62
     7
370
    25
100
AcDbSpline
210
0.0
220
0.0
230
1.0
 70
     8
 71
     3
 72
    14
 73
    10
 74
     0
 42
0.000000001
 43
0.00000001
 40
0.0
 40
0.0
 40
0.0
 40
0.0
 40
0.0807858705139239
 40
0.1986360114740219
 40
0.3216624810840516
 40
0.456116735265127
 40
0.6373434247854186
 40
0.8471492965861417
 40
1.0
 40
1.0
 40
1.0
 40
1.0
 10
166.8920302228437
 20
106.4379074497524
 30
0.0
 10
167.3057938534617
 20
106.3635095213688
 30
0.0
 10
168.3231543987663
 20
106.1805801593154
 30
0.0
 10
170.0701990731041
 20
105.9689331710964
 30
0.0
 10
172.1491969263714
 20
105.8089105786545
 30
0.0
 10
174.6039244421542
 20
105.6869021920654
 30
0.0
 10
177.5604200090149
 20
105.6109965108826
 30
0.0
 10
180.6248599765489
 20
105.5909576567348
 30
0.0
 10
182.6680494071738
 20
105.5908930661642
 30
0.0
 10
183.5292028041417
 20
105.5908658428493
 30
0.0
  0
SPLINE
  5
EB
330
1F
100
AcDbEntity
  8
0
  6
Continuous
 62
     7
370
    25
100
AcDbSpline
210
0.0
220
0.0
230
1.0
 70
     8
 71
     3
 72
    20
 73
    16
 74
     0
 42
0.000000001
 43
0.00000001
 40
0.0
 40
0.0
 40
0.0
 40
0.0
 40
0.0026270605169197
 40
0.0915480425243592
 40
0.2018447121566798
 40
0.2923722657727745
 40
0.3858946424102467
 40
0.4877518823465229
 40
0.5834838190493883
 40
0.6733608290825441
 40
0.7420747379026683
 40
0.812260480110673
 40
0.8933518228707218
 40
0.9761113011741863
 40
1.0
 40
1.0
 40
1.0
 40
1.0
 10
158.0593259469973
 20
110.5290287061038
 30
0.0
 10
158.0586193645829
 20
110.5294480165909
 30
0.0
 10
158.0339963166944
 20
110.5440601863742
 30
0.0
 10
158.1294761879555
 20
110.4797907005955
 30
0.0
 10
158.3215787954172
 20
110.31247856769
 30
0.0
 10
158.5759532863876
 20
110.0709744636931
 30
0.0
 10
159.0368100966541
 20
109.6426054228763
 30
0.0
 10
159.6690563148667
 20
109.1355370336572
 30
0.0
 10
160.4941806090139
 20
108.5897161563802
 30
0.0
 10
161.3818877878638
 20
108.1012308151009
 30
0.0
 10
162.3810954204596
 20
107.6356194805151
 30
0.0
 10
163.5080998627997
 20
107.2318520430446
 30
0.0
 10
164.8545481460237
 20
106.8558579235173
 30
0.0
 10
166.0183275272148
 20
106.5836221442486
 30
0.0
 10
166.732139614106
 20
106.4645737417549
 30
0.0
 10
166.8920302228437
 20
106.4379074497524
 30
0.0
  0
SPLINE
  5
EC
330
1F
100
AcDbEntity
  8
0
  6
Continuous
 62
     7
370
    25
100
AcDbSpline
210
0.0
220
0.0
230
1.0
 70
     8
 71
     3
 72
    20
 73
    16
 74
     0
 42
0.000000001
 43
0.00000001
 40
0.0
 40
0.0
 40
0.0
 40
0.0
 40
0.0151570307209591
 40
0.0970375793951362
 40
0.1839369866054401
 40
0.2684422232865903
 40
0.3370623289965217
 40
0.4064550808011799
 40
0.5012900928775906
 40
0.6015639458138176
 40
0.7070249021678873
 40
0.7964685896117816
 40
0.8827902751689185
 40
0.9857033075638013
 40
1.0
 40
1.0
 40
1.0
 40
1.0
 10
200.1500082598434
 20
106.4326324386898
 30
0.0
 10
200.2519396089321
 20
106.4492361733715
 30
0.0
 10
200.9045193629845
 20
106.5555357680674
 30
0.0
 10
202.0541023957045
 20
106.8192291928317
 30
0.0
 10
203.5276036900306
 20
107.2196133511928
 30
0.0
 10
204.7580803824638
 20
107.6654941869578
 30
0.0
 10
205.6990416446841
 20
108.11733545543
 30
0.0
 10
206.5196657553062
 20
108.5657736140096
 30
0.0
 10
207.2992326324199
 20
109.0709493141396
 30
0.0
 10
207.9764122530453
 20
109.6015469272288
 30
0.0
 10
208.4668527967436
 20
110.0560957476418
 30
0.0
 10
208.7113081884705
 20
110.2890246737061
 30
0.0
 10
208.9094501289385
 20
110.4627184222817
 30
0.0
 10
209.0210974807731
 20
110.5423975720474
 30
0.0
 10
208.9937369780075
 20
110.5257872007928
 30
0.0
 10
208.9903996722208
 20
110.5237611456218
 30
0.0
  0
SPLINE
  5
ED
330
1F
100
AcDbEntity
  8
0
  6
Continuous
 62
     7
370
    25
100
AcDbSpline
210
0.0
220
0.0
230
1.0
 70
     8
 71
     3
 72
    14
 73
    10
 74
     0
 42
0.000000001
 43
0.00000001
 40
0.0
 40
0.0
 40
0.0
 40
0.0
 40
0.0456495447751487
 40
0.3039821771442719
 40
0.493200853850299
 40
0.6641597011405348
 40
0.7898073531645994
 40
0.9077700755794686
 40
1.0
 40
1.0
 40
1.0
 40
1.0
 10
183.5292222777164
 20
105.5912905259433
 30
0.0
 10
183.7860870305171
 20
105.5908519801912
 30
0.0
 10
185.4965598769073
 20
105.5879316861735
 30
0.0
 10
188.2721270853818
 20
105.5958341846562
 30
0.0
 10
191.7502946959642
 20
105.6606471210971
 30
0.0
 10
194.4704531303744
 20
105.7806064826113
 30
0.0
 10
196.7681366740459
 20
105.9469110307927
 30
0.0
 10
198.5945765268425
 20
106.1603864045013
 30
0.0
 10
199.6756476637404
 20
106.3496054640406
 30
0.0
 10
200.1500082598434
 20
106.4326324386898
 30
0.0
  0
SPLINE
  5
EE
330
1F
100
AcDbEntity
  8
0
  6
Continuous
 62
     7
370
    25
100
AcDbSpline
210
0.0
220
0.0
230
1.0
 70
     8
 71
     3
 72
    12
 73
     8
 74
     0
 42
0.000000001
 43
0.00000001
 40
0.0
 40
0.0
 40
0.0
 40
0.0
 40
0.1516082271068176
 40
0.3647237034282866
 40
0.5913545019804571
 40
0.846421519953072
 40
1.0
 40
1.0
 40
1.0
 40
1.0
 10
210.2027898119198
 20
109.9953063650432
 30
0.0
 10
210.2352235582919
 20
110.1833648971549
 30
0.0
 10
210.3132493773296
 20
110.6357770491994
 30
0.0
 10
210.3080568667885
 20
111.1821254457483
 30
0.0
 10
210.3088034590963
 20
111.5557933788832
 30
0.0
 10
210.3219793362423
 20
111.923302441498
 30
0.0
 10
210.2645949294592
 20
112.2988239158539
 30
0.0
 10
210.2430285350786
 20
112.4399536176029
 30
0.0
  0
SPLINE
  5
EF
330
1F
100
AcDbEntity
  8
0
  6
Continuous
 62
     7
370
    25
100
AcDbSpline
210
0.0
220
0.0
230
1.0
 70
     8
 71
     3
 72
    17
 73
    13
 74
     0
 42
0.000000001
 43
0.00000001
 40
0.0
 40
0.0
 40
0.0
 40
0.0
 40
0.0557623342431863
 40
0.2288717451921109
 40
0.3765101460966264
 40
0.4996240575618093
 40
0.569765537621077
 40
0.6464325829909975
 40
0.738453406360882
 40
0.848165674002707
 40
0.9768109091070346
 40
1.0
 40
1.0
 40
1.0
 40
1.0
 10
210.1711918996082
 20
112.5779756231609
 30
0.0
 10
210.0657461655487
 20
113.0164131828629
 30
0.0
 10
209.6329531430753
 20
114.815942754368
 30
0.0
 10
208.9671904368167
 20
117.7283347351414
 30
0.0
 10
208.4865885076942
 20
121.1837365139049
 30
0.0
 10
208.3495653637497
 20
123.8361752761244
 30
0.0
 10
208.3988654979602
 20
125.7031486636745
 30
0.0
 10
208.4139247286335
 20
127.5586421042859
 30
0.0
 10
208.4121677641761
 20
129.8329547740302
 30
0.0
 10
208.3984123433565
 20
132.5580292722048
 30
0.0
 10
208.3684848620803
 20
134.7194575595307
 30
0.0
 10
208.3560911637138
 20
135.9630828146547
 30
0.0
 10
208.3541983203398
 20
136.1530170662704
 30
0.0
  0
SPLINE
  5
F0
330
1F
100
AcDbEntity
  8
0
  6
Continuous
 62
     7
370
    25
100
AcDbSpline
210
0.0
220
0.0
230
1.0
 70
     8
 71
     3
 72
    17
 73
    13
 74
     0
 42
0.000000001
 43
0.00000001
 40
0.0
 40
0.0
 40
0.0
 40
0.0
 40
0.0231890907583823
 40
0.1518343251160889
 40
0.2615465916977039
 40
0.3535674145250577
 40
0.4302344594500242
 40
0.5003759391022103
 40
0.6234898463754077
 40
0.7711282561361967
 40
0.9442376660804427
 40
1.0
 40
1.0
 40
1.0
 40
1.0
 10
158.7040153728233
 20
136.1530170662704
 30
0.0
 10
158.7021225352154
 20
135.9630828146298
 30
0.0
 10
158.6897288746036
 20
134.7194575593426
 30
0.0
 10
158.6598001809224
 20
132.5580292807586
 30
0.0
 10
158.6460492083138
 20
129.8329547669045
 30
0.0
 10
158.6442882706855
 20
127.5586421066806
 30
0.0
 10
158.6593484365541
 20
125.7031486579932
 30
0.0
 10
158.7086478276796
 20
123.836175325096
 30
0.0
 10
158.5716285060783
 20
121.1837363050393
 30
0.0
 10
158.0910221061627
 20
117.7283349279357
 30
0.0
 10
157.4252606336796
 20
114.8159427459426
 30
0.0
 10
156.9924675439908
 20
113.0164131812122
 30
0.0
 10
156.8870217935549
 20
112.5779756231609
 30
0.0
  0
LINE
  5
F1
330
1F
100
AcDbEntity
  8
0
  6
Continuous
 62
     7
370
    25
100
AcDbLine
 10
158.4541061358
 20
137.4764376207
 30
0.0
 11
158.4541061358
 21
136.4743233545
 31
0.0
  0
LINE
  5
F2
330
1F
100
AcDbEntity
  8
0
  6
Continuous
 62
     7
370
    25
100
AcDbLine
 10
208.6041075574
 20
136.4743233545
 30
0.0
 11
208.6041075574
 21
137.4764376207
 31
0.0
  0
LINE
  5
F3
330
1F
100
AcDbEntity
  8
0
  6
Continuous
 62
     7
370
    25
100
AcDbLine
 10
208.1026071147
 20
148.1269867046
 30
0.0
 11
208.1026071147
 21
176.5854627712
 31
0.0
  0
LINE
  5
F4
330
1F
100
AcDbEntity
  8
0
  6
Continuous
 62
     7
370
    25
100
AcDbLine
 10
158.9556065784
 20
176.5856341346
 30
0.0
 11
158.9556065784
 21
148.1269867046
 31
0.0
  0
ARC
  5
F5
330
1F
100
AcDbEntity
  8
0
  6
Continuous
 62
     7
370
    25
100
AcDbCircle
 10
183.5291070706
 20
148.1269849314
 30
0.0
 40
24.5735
100
AcDbArc
 50
180.0
 51
205.7785050664
  0
ARC
  5
F6
330
1F
100
AcDbEntity
  8
0
  6
Continuous
 62
     7
370
    25
100
AcDbCircle
 10
183.5291070706
 20
148.1269849314
 30
0.0
 40
24.57350000000002
100
AcDbArc
 50
334.2057459006
 51
0.0
  0
SPLINE
  5
F7
330
1F
100
AcDbEntity
  8
0
  6
Continuous
 62
     7
370
    25
100
AcDbSpline
210
0.0
220
0.0
230
1.0
 70
     8
 71
     3
 72
    12
 73
     8
 74
     0
 42
0.000000001
 43
0.00000001
 40
0.0
 40
0.0
 40
0.0
 40
0.0
 40
0.1396731735537237
 40
0.2833232692915317
 40
0.4404632270894143
 40
0.7040357718590232
 40
1.0
 40
1.0
 40
1.0
 40
1.0
 10
209.3731676624523
 20
116.8275856299701
 30
0.0
 10
209.2872860902592
 20
117.445277443838
 30
0.0
 10
209.1130776350021
 20
118.6982486455868
 30
0.0
 10
208.9110804348377
 20
120.7988328172885
 30
0.0
 10
208.7316789305618
 20
123.5796563819157
 30
0.0
 10
208.6303520619346
 20
127.119137745694
 30
0.0
 10
208.6159828513538
 20
129.8832379920352
 30
0.0
 10
208.6083823279844
 20
131.3452952428165
 30
0.0
  0
SPLINE
  5
F8
330
1F
100
AcDbEntity
  8
0
  6
Continuous
 62
     7
370
    25
100
AcDbSpline
210
0.0
220
0.0
230
1.0
 70
     8
 71
     3
 72
    12
 73
     8
 74
     0
 42
0.000000001
 43
0.00000001
 40
0.0
 40
0.0
 40
0.0
 40
0.0
 40
0.2959642325754677
 40
0.5595367812942363
 40
0.7166767414465781
 40
0.860326839336724
 40
1.0
 40
1.0
 40
1.0
 40
1.0
 10
158.4498313651787
 20
131.3452952428165
 30
0.0
 10
158.4422308504606
 20
129.8832379911095
 30
0.0
 10
158.4278616562356
 20
127.1191377430182
 30
0.0
 10
158.326534689741
 20
123.5796563897119
 30
0.0
 10
158.1471334070918
 20
120.7988328013702
 30
0.0
 10
157.9451355601598
 20
118.6982487710643
 30
0.0
 10
157.7709286829364
 20
117.445277462768
 30
0.0
 10
157.6850478933559
 20
116.8275856299701
 30
0.0
  0
SPLINE
  5
F9
330
1F
100
AcDbEntity
  8
0
  6
Continuous
 62
     7
370
    25
100
AcDbSpline
210
0.0
220
0.0
230
1.0
 70
     8
 71
     3
 72
    10
 73
     6
 74
     0
 42
0.000000001
 43
0.00000001
 40
0.0
 40
0.0
 40
0.0
 40
0.0
 40
0.3722410098728053
 40
0.9973671635061551
 40
1.0
 40
1.0
 40
1.0
 40
1.0
 10
209.9104197160707
 20
107.6109566612544
 30
0.0
 10
209.9617177104154
 20
107.9508045845959
 30
0.0
 10
210.0991634344387
 20
108.8613790520419
 30
0.0
 10
210.2153703309283
 20
109.6974619080469
 30
0.0
 10
210.2366157509878
 20
110.1675591424711
 30
0.0
 10
210.236704854797
 20
110.1695307417217
 30
0.0
  0
SPLINE
  5
FA
330
1F
100
AcDbEntity
  8
0
  6
Continuous
 62
     7
370
    25
100
AcDbSpline
210
0.0
220
0.0
230
1.0
 70
     8
 71
     3
 72
     9
 73
     5
 74
     0
 42
0.000000001
 43
0.00000001
 40
0.0
 40
0.0
 40
0.0
 40
0.0
 40
0.5241379352150185
 40
1.0
 40
1.0
 40
1.0
 40
1.0
 10
156.8320588604914
 20
110.1548381967845
 30
0.0
 10
156.8684186348601
 20
109.7443361016424
 30
0.0
 10
156.9377892564578
 20
108.9611413211049
 30
0.0
 10
157.0788970888281
 20
108.049421464238
 30
0.0
 10
157.1460449532972
 20
107.6155685706439
 30
0.0
  0
SPLINE
  5
FB
330
1F
100
AcDbEntity
  8
0
  6
Continuous
 62
     7
370
    25
100
AcDbSpline
210
0.0
220
0.0
230
1.0
 70
     8
 71
     3
 72
    19
 73
    15
 74
     0
 42
0.000000001
 43
0.00000001
 40
0.0
 40
0.0
 40
0.0
 40
0.0
 40
0.1169667327371941
 40
0.3375576074039111
 40
0.4927033389818797
 40
0.6052391182468599
 40
0.6809680368110714
 40
0.7394054497651804
 40
0.7945034808262109
 40
0.8471665227138496
 40
0.9029613148689304
 40
0.9411420543281569
 40
0.9785558028801479
 40
1.0
 40
1.0
 40
1.0
 40
1.0
 10
157.1586997644411
 20
107.6167606635395
 30
0.0
 10
157.2195136479773
 20
107.1655168946227
 30
0.0
 10
157.3950181571913
 20
105.863259719211
 30
0.0
 10
157.6943535006453
 20
103.9228648036323
 30
0.0
 10
158.1587392741705
 20
101.9293454986909
 30
0.0
 10
158.6597222525081
 20
100.4520516854762
 30
0.0
 10
159.0403421570964
 20
99.49536713759518
 30
0.0
 10
159.4817339860078
 20
98.56753621689118
 30
0.0
 10
160.0713926394585
 20
97.70558450571973
 30
0.0
 10
160.868029007886
 20
96.89079746114362
 30
0.0
 10
161.789681212723
 20
96.2328959671502
 30
0.0
 10
162.7511440087539
 20
95.71809320474827
 30
0.0
 10
163.624818615357
 20
95.34775884179258
 30
0.0
 10
164.2492738130473
 20
95.17781712371806
 30
0.0
 10
164.4767866866098
 20
95.11590086653854
 30
0.0
  0
SPLINE
  5
FC
330
1F
100
AcDbEntity
  8
0
  6
Continuous
 62
     7
370
    25
100
AcDbSpline
210
0.0
220
0.0
230
1.0
 70
     8
 71
     3
 72
    20
 73
    16
 74
     0
 42
0.000000001
 43
0.00000001
 40
0.0
 40
0.0
 40
0.0
 40
0.0
 40
0.0303420569610727
 40
0.0645988205248656
 40
0.0999483402353744
 40
0.1353608518244877
 40
0.1883729977465893
 40
0.2426355227557505
 40
0.2985590322042279
 40
0.3577534609858712
 40
0.4218376596048998
 40
0.5640552919782611
 40
0.7182496069082873
 40
0.8999052274710044
 40
1.0
 40
1.0
 40
1.0
 40
1.0
 10
202.362933142613
 20
95.04915111497073
 30
0.0
 10
202.6854153846649
 20
95.13824209959657
 30
0.0
 10
203.3719862557001
 20
95.32791851255743
 30
0.0
 10
204.2857473985972
 20
95.70840006330711
 30
0.0
 10
205.0665295063875
 20
96.1234728198728
 30
0.0
 10
205.8921151619008
 20
96.66381980180918
 30
0.0
 10
206.6771163798169
 20
97.35301012068447
 30
0.0
 10
207.3519352868834
 20
98.20076760813868
 30
0.0
 10
207.8340416233011
 20
99.07489045745491
 30
0.0
 10
208.1564428733044
 20
99.85481994080048
 30
0.0
 10
208.5810134783009
 20
100.932542268415
 30
0.0
 10
209.0441114270799
 20
102.4773608141593
 30
0.0
 10
209.4473261489337
 20
104.4344473294119
 30
0.0
 10
209.703159024435
 20
106.1398835581178
 30
0.0
 10
209.8473608505374
 20
107.2496367904767
 30
0.0
 10
209.898590056728
 20
107.6438882274928
 30
0.0
  0
SPLINE
  5
FD
330
1F
100
AcDbEntity
  8
0
  6
Continuous
 62
     7
370
    25
100
AcDbSpline
210
0.0
220
0.0
230
1.0
 70
     8
 71
     3
 72
    14
 73
    10
 74
     0
 42
0.000000001
 43
0.00000001
 40
0.0
 40
0.0
 40
0.0
 40
0.0
 40
0.25
 40
0.25
 40
0.5
 40
0.5
 40
0.75
 40
0.75
 40
1.0
 40
1.0
 40
1.0
 40
1.0
 10
268.4072135313236
 20
183.5421063980859
 30
0.0
 10
268.3792951018769
 20
183.0093910297055
 30
0.0
 10
268.2559652434037
 20
182.4818158337886
 30
0.0
 10
267.8337004996357
 20
181.5020439747235
 30
0.0
 10
267.5348761817609
 20
181.0501038587961
 30
0.0
 10
266.7987159742736
 20
180.2778807313532
 30
0.0
 10
266.3615728436731
 20
179.9577999217027
 30
0.0
 10
265.4031001867439
 20
179.4891949968839
 30
0.0
 10
264.8820216305714
 20
179.3407935830261
 30
0.0
 10
264.3512491262089
 20
179.2874489392077
 30
0.0
  0
SPLINE
  5
FE
330
1F
100
AcDbEntity
  8
0
  6
Continuous
 62
     7
370
    25
100
AcDbSpline
210
0.0
220
0.0
230
1.0
 70
    24
 71
     3
 72
    54
 73
    50
 74
     0
 42
0.000000001
 43
0.00000001
 40
0.0
 40
0.0
 40
0.0
 40
0.0
 40
0.0624999999999989
 40
0.0624999999999989
 40
0.1249999999999978
 40
0.1249999999999978
 40
0.1874999999999967
 40
0.1874999999999967
 40
0.2499999999999955
 40
0.2499999999999955
 40
0.3124999999999944
 40
0.3124999999999944
 40
0.3437499999999939
 40
0.3437499999999939
 40
0.3749999999999934
 40
0.3749999999999934
 40
0.4062499999999932
 40
0.4062499999999932
 40
0.4218749999999933
 40
0.4218749999999933
 40
0.4374999999999933
 40
0.4374999999999933
 40
0.4687499999999934
 40
0.4687499999999934
 40
0.4843749999999935
 40
0.4843749999999935
 40
0.4999999999999936
 40
0.4999999999999936
 40
0.5624999999999942
 40
0.5624999999999942
 40
0.5781249999999944
 40
0.5781249999999944
 40
0.5937499999999946
 40
0.5937499999999946
 40
0.6249999999999949
 40
0.6249999999999949
 40
0.6562499999999952
 40
0.6562499999999952
 40
0.6874999999999956
 40
0.6874999999999956
 40
0.7499999999999964
 40
0.7499999999999964
 40
0.8124999999999974
 40
0.8124999999999974
 40
0.8749999999999983
 40
0.8749999999999983
 40
0.9374999999999991
 40
0.9374999999999991
 40
1.0
 40
1.0
 40
1.0
 40
1.0
 10
268.7875482282167
 20
190.7993247365886
 30
0.0
 10
268.7875482284118
 20
190.7993247365886
 30
0.0
 10
268.77816765032
 20
190.7993247365884
 30
0.0
 10
268.7245385014589
 20
190.7993247365884
 30
0.0
 10
268.6804439236259
 20
190.7993247365885
 30
0.0
 10
268.5327298374179
 20
190.7993247365885
 30
0.0
 10
268.4293353651313
 20
190.7993247365871
 30
0.0
 10
268.1237002962238
 20
190.7993247365871
 30
0.0
 10
267.9220382847136
 20
190.7993247365891
 30
0.0
 10
267.3539006723285
 20
190.7993247365891
 30
0.0
 10
266.9886974412723
 20
190.7993247365877
 30
0.0
 10
266.2285836399996
 20
190.7993247365877
 30
0.0
 10
265.939345232514
 20
190.7993247365889
 30
0.0
 10
265.2706712525761
 20
190.7993247365889
 30
0.0
 10
264.8909620337892
 20
190.7993247365879
 30
0.0
 10
264.0131156146087
 20
190.7993247365879
 30
0.0
 10
263.5150704329897
 20
190.7993247365877
 30
0.0
 10
262.6516843775942
 20
190.7993247365877
 30
0.0
 10
262.3444228595541
 20
190.7993247365886
 30
0.0
 10
261.6852476258576
 20
190.7993247365886
 30
0.0
 10
261.3353630987343
 20
190.7993247365875
 30
0.0
 10
260.2237583391282
 20
190.7993247365875
 30
0.0
 10
259.398410336617
 20
190.7993247365884
 30
0.0
 10
258.0150980187703
 20
190.7993247365884
 30
0.0
 10
257.529790281254
 20
190.7993247365886
 30
0.0
 10
256.5078492855979
 20
190.7993247365886
 30
0.0
 10
255.9685140880088
 20
190.7993247365881
 30
0.0
 10
253.1766629161001
 20
190.7993247365881
 30
0.0
 10
250.6423933152218
 20
190.7993247365885
 30
0.0
 10
247.1720766137447
 20
190.7993247365885
 30
0.0
 10
246.4637896660399
 20
190.7993247365887
 30
0.0
 10
245.03858336697
 20
190.7993247365887
 30
0.0
 10
244.3192729271739
 20
190.7993247365878
 30
0.0
 10
242.1437441113817
 20
190.7993247365878
 30
0.0
 10
240.6700197245057
 20
190.7993247365883
 30
0.0
 10
237.686755523699
 20
190.7993247365883
 30
0.0
 10
236.1771906059208
 20
190.7993247365882
 30
0.0
 10
233.1304763404547
 20
190.7993247365882
 30
0.0
 10
231.5902773969748
 20
190.7993247365883
 30
0.0
 10
226.9657532533412
 20
190.7993247365883
 30
0.0
 10
223.8753785502916
 20
190.799324736589
 30
0.0
 10
217.6862376032674
 20
190.799324736589
 30
0.0
 10
214.5874022271138
 20
190.7993247365877
 30
0.0
 10
208.3846836684523
 20
190.7993247365877
 30
0.0
 10
205.2807702131729
 20
190.799324736588
 30
0.0
 10
199.0698930825746
 20
190.799324736588
 30
0.0
 10
195.9629147506787
 20
190.7993247365889
 30
0.0
 10
189.7471615888737
 20
190.7993247365889
 30
0.0
 10
186.638379085288
 20
190.7993247365886
 30
0.0
 10
183.529107070522
 20
190.7993247365886
 30
0.0
  0
LWPOLYLINE
  5
FF
330
1F
100
AcDbEntity
  8
0
  6
Continuous
 62
     7
370
    25
100
AcDbPolyline
 90
        3
 70
   128
 43
0.0
 10
268.4072153108
 20
183.5421061961
 10
268.5973839299
 20
187.1707154325
 10
268.7875450985
 20
190.7993246688
  0
SPLINE
  5
100
330
1F
100
AcDbEntity
  8
0
  6
Continuous
 62
     7
370
    25
100
AcDbSpline
210
0.0
220
0.0
230
1.0
 70
    24
 71
     3
 72
    54
 73
    50
 74
     0
 42
0.000000001
 43
0.00000001
 40
0.0
 40
0.0
 40
0.0
 40
0.0
 40
0.0625000000000011
 40
0.0625000000000011
 40
0.1250000000000021
 40
0.1250000000000021
 40
0.1875000000000032
 40
0.1875000000000032
 40
0.2500000000000042
 40
0.2500000000000042
 40
0.3125000000000053
 40
0.3125000000000053
 40
0.3437500000000057
 40
0.3437500000000057
 40
0.3750000000000062
 40
0.3750000000000062
 40
0.4062500000000067
 40
0.4062500000000067
 40
0.4218750000000068
 40
0.4218750000000068
 40
0.4375000000000069
 40
0.4375000000000069
 40
0.4687500000000064
 40
0.4687500000000064
 40
0.4843750000000063
 40
0.4843750000000063
 40
0.5000000000000061
 40
0.5000000000000061
 40
0.5625000000000054
 40
0.5625000000000054
 40
0.5781250000000054
 40
0.5781250000000054
 40
0.5937500000000053
 40
0.5937500000000053
 40
0.625000000000005
 40
0.625000000000005
 40
0.6562500000000047
 40
0.6562500000000047
 40
0.6875000000000042
 40
0.6875000000000042
 40
0.7500000000000034
 40
0.7500000000000034
 40
0.8125000000000026
 40
0.8125000000000026
 40
0.8750000000000018
 40
0.8750000000000018
 40
0.9375000000000009
 40
0.9375000000000009
 40
1.0
 40
1.0
 40
1.0
 40
1.0
 10
183.5291070707828
 20
190.7993247365886
 30
0.0
 10
180.4036491620692
 20
190.7993247365886
 30
0.0
 10
177.2783224240752
 20
190.799324736588
 30
0.0
 10
171.0281565150102
 20
190.799324736588
 30
0.0
 10
167.9033151906217
 20
190.7993247365887
 30
0.0
 10
161.6544648922323
 20
190.7993247365887
 30
0.0
 10
158.5293601963054
 20
190.7993247365876
 30
0.0
 10
152.2888124222732
 20
190.7993247365876
 30
0.0
 10
149.1729412450009
 20
190.7993247365886
 30
0.0
 10
142.9560547439641
 20
190.7993247365886
 30
0.0
 10
139.8549247322069
 20
190.7993247365881
 30
0.0
 10
135.2223666725215
 20
190.7993247365881
 30
0.0
 10
133.6829206332461
 20
190.7993247365881
 30
0.0
 10
130.6351758670083
 20
190.7993247365881
 30
0.0
 10
129.1246633735667
 20
190.7993247365881
 30
0.0
 10
126.1385096021857
 20
190.7993247365881
 30
0.0
 10
124.6628412292435
 20
190.7993247365888
 30
0.0
 10
122.483588682851
 20
190.7993247365888
 30
0.0
 10
121.7629029958684
 20
190.7993247365885
 30
0.0
 10
120.3346794978048
 20
190.7993247365885
 30
0.0
 10
119.6317674292426
 20
190.7993247365883
 30
0.0
 10
117.568184735344
 20
190.7993247365883
 30
0.0
 10
116.2491781677993
 20
190.7993247365889
 30
0.0
 10
114.3684418449374
 20
190.7993247365889
 30
0.0
 10
113.7578176397469
 20
190.7993247365885
 30
0.0
 10
112.5711088838709
 20
190.7993247365885
 30
0.0
 10
111.992489827595
 20
190.7993247365879
 30
0.0
 10
109.2283207583035
 20
190.7993247365879
 30
0.0
 10
107.4289267363244
 20
190.799324736588
 30
0.0
 10
105.5939413802745
 20
190.799324736588
 30
0.0
 10
105.2481435255267
 20
190.7993247365882
 30
0.0
 10
104.6024413161143
 20
190.7993247365882
 30
0.0
 10
104.3012292042638
 20
190.7993247365889
 30
0.0
 10
103.4543657358577
 20
190.7993247365889
 30
0.0
 10
102.9651920967681
 20
190.7993247365877
 30
0.0
 10
102.1023921916631
 20
190.7993247365877
 30
0.0
 10
101.7288469154303
 20
190.7993247365877
 30
0.0
 10
101.070748975259
 20
190.7993247365877
 30
0.0
 10
100.7858194386333
 20
190.7993247365878
 30
0.0
 10
100.0384821076252
 20
190.7993247365878
 30
0.0
 10
99.67989206946167
 20
190.7993247365893
 30
0.0
 10
99.12194749851056
 20
190.7993247365893
 30
0.0
 10
98.92390479838643
 20
190.7993247365888
 30
0.0
 10
98.62360514275231
 20
190.7993247365888
 30
0.0
 10
98.5219226347825
 20
190.7993247365888
 30
0.0
 10
98.37643773095996
 20
190.7993247365888
 30
0.0
 10
98.3329134541635
 20
190.7993247365884
 30
0.0
 10
98.27995473837788
 20
190.7993247365884
 30
0.0
 10
98.27066591290772
 20
190.7993247365886
 30
0.0
 10
98.27066591303716
 20
190.7993247365886
 30
0.0
  0
LINE
  5
101
330
1F
100
AcDbEntity
  8
0
  6
Continuous
 62
     7
370
    25
100
AcDbLine
 10
98.6510039703
 20
183.5421061961
 30
0.0
 11
98.270666732
 21
190.7993246688
 31
0.0
  0
SPLINE
  5
102
330
1F
100
AcDbEntity
  8
0
  6
Continuous
 62
     7
370
    25
100
AcDbSpline
210
0.0
220
0.0
230
1.0
 70
     8
 71
     3
 72
    14
 73
    10
 74
     0
 42
0.000000001
 43
0.00000001
 40
0.0
 40
0.0
 40
0.0
 40
0.0
 40
0.25
 40
0.25
 40
0.5
 40
0.5
 40
0.75
 40
0.75
 40
1.0
 40
1.0
 40
1.0
 40
1.0
 10
102.706965015045
 20
179.2874489392077
 30
0.0
 10
102.1761925106825
 20
179.3407935830261
 30
0.0
 10
101.65511395451
 20
179.4891949968839
 30
0.0
 10
100.6966412975808
 20
179.9577999217027
 30
0.0
 10
100.2594981669802
 20
180.2778807313532
 30
0.0
 10
99.523337959493
 20
181.0501038587961
 30
0.0
 10
99.22451364161816
 20
181.5020439747235
 30
0.0
 10
98.80224889785023
 20
182.4818158337886
 30
0.0
 10
98.67891903937699
 20
183.0093910297056
 30
0.0
 10
98.65100060993025
 20
183.5421063980859
 30
0.0
  0
SPLINE
  5
103
330
1F
100
AcDbEntity
  8
0
  6
Continuous
 62
     7
370
    25
100
AcDbSpline
210
0.0
220
0.0
230
1.0
 70
     8
 71
     3
 72
    26
 73
    22
 74
     0
 42
0.000000001
 43
0.00000001
 40
0.0
 40
0.0
 40
0.0
 40
0.0
 40
0.0369425572568992
 40
0.0898680506697749
 40
0.1443283775327578
 40
0.197253517053963
 40
0.2517134475869243
 40
0.3046391094567936
 40
0.3590994470703535
 40
0.4120279603106055
 40
0.4664919773957059
 40
0.519410144228315
 40
0.573863409410112
 40
0.6267745386196807
 40
0.6812194101222944
 40
0.7341428149362926
 40
0.7886006535108108
 40
0.8415289406027292
 40
0.8959923552162746
 40
0.9489171848397908
 40
1.0
 40
1.0
 40
1.0
 40
1.0
 10
159.0340295271383
 20
176.5856341345611
 30
0.0
 10
159.0347438855101
 20
176.5898385703133
 30
0.0
 10
159.0364816643515
 20
176.600066461214
 30
0.0
 10
159.8440158968048
 20
176.6166391025178
 30
0.0
 10
161.3118187263905
 20
176.6389156625518
 30
0.0
 10
163.4535672545201
 20
176.6676723735247
 30
0.0
 10
166.1361521646842
 20
176.7027554780231
 30
0.0
 10
169.3410302397006
 20
176.7422534273723
 30
0.0
 10
172.9174770273428
 20
176.7804587672464
 30
0.0
 10
176.829374586454
 20
176.811775462275
 30
0.0
 10
180.8951804282909
 20
176.8301083828795
 30
0.0
 10
185.0728946677851
 20
176.832290623064
 30
0.0
 10
189.1688012434727
 20
176.8178813177216
 30
0.0
 10
193.1409838053756
 20
176.7893734117171
 30
0.0
 10
196.805810774032
 20
176.7523912613128
 30
0.0
 10
200.1261063500948
 20
176.7125566206636
 30
0.0
 10
202.9467555881706
 20
176.6760399799625
 30
0.0
 10
205.2436968574088
 20
176.6454797194014
 30
0.0
 10
206.8905867815018
 20
176.621768552614
 30
0.0
 10
207.9226718528889
 20
176.6028896681615
 30
0.0
 10
208.0293394756975
 20
176.5912027435838
 30
0.0
 10
208.0817287252651
 20
176.5854627712074
 30
0.0
  0
LINE
  5
104
330
1F
100
AcDbEntity
  8
0
  6
Continuous
 62
     7
370
    25
100
AcDbLine
 10
156.87671019
 20
112.4358930512
 30
0.0
 11
156.9046275155
 21
112.5737734957
 31
0.0
  0
LINE
  5
105
330
1F
100
AcDbEntity
  8
0
  6
Continuous
 62
     7
370
    25
100
AcDbLine
 10
210.1817847626
 20
112.4345072432
 30
0.0
 11
210.1535880403
 21
112.5737734957
 31
0.0
  0
SPLINE
  5
106
330
1F
100
AcDbEntity
  8
0
  6
Continuous
 62
     7
370
    25
100
AcDbSpline
210
0.0
220
0.0
230
1.0
 70
     8
 71
     3
 72
    12
 73
     8
 74
     0
 42
0.000000001
 43
0.00000001
 40
0.0
 40
0.0
 40
0.0
 40
0.0
 40
0.0569509068509682
 40
0.2624685912473678
 40
0.4784267018763825
 40
0.7194552704397644
 40
1.0
 40
1.0
 40
1.0
 40
1.0
 10
209.3093832419621
 20
117.3721783681217
 30
0.0
 10
209.2677534744249
 20
117.6393405006977
 30
0.0
 10
209.075895134609
 20
118.8706056806424
 30
0.0
 10
208.8754844686987
 20
121.1418688212657
 30
0.0
 10
208.6982441185903
 20
124.3002712011231
 30
0.0
 10
208.6239775727842
 20
127.8328764551971
 30
0.0
 10
208.6131585831704
 20
130.3372919272022
 30
0.0
 10
208.6073392467009
 20
131.6843711657825
 30
0.0
  0
SPLINE
  5
107
330
1F
100
AcDbEntity
  8
0
  6
Continuous
 62
     7
370
    25
100
AcDbSpline
210
0.0
220
0.0
230
1.0
 70
     8
 71
     3
 72
    10
 73
     6
 74
     0
 42
0.000000001
 43
0.00000001
 40
0.0
 40
0.0
 40
0.0
 40
0.0
 40
0.5
 40
0.5
 40
1.0
 40
1.0
 40
1.0
 40
1.0
 10
188.8536857344898
 20
130.7166818952747
 30
0.0
 10
187.9789565192367
 20
130.623959586351
 30
0.0
 10
187.0979069028868
 20
130.5535924295021
 30
0.0
 10
185.322872080382
 20
130.4602681073115
 30
0.0
 10
184.4293056253589
 20
130.4357628107603
 30
0.0
 10
183.5291070886969
 20
130.435832392671
 30
0.0
  0
SPLINE
  5
108
330
1F
100
AcDbEntity
  8
0
  6
Continuous
 62
     7
370
    25
100
AcDbSpline
210
0.0
220
0.0
230
1.0
 70
     8
 71
     3
 72
    10
 73
     6
 74
     0
 42
0.000000001
 43
0.00000001
 40
0.0
 40
0.0
 40
0.0
 40
0.0
 40
0.4140484814971542
 40
0.8798543529149013
 40
0.9999999999999999
 40
0.9999999999999999
 40
0.9999999999999999
 40
0.9999999999999999
 10
208.5925982729898
 20
136.4743233545127
 30
0.0
 10
208.5876086973864
 20
136.4351525393132
 30
0.0
 10
208.5770058332048
 20
136.3519144312155
 30
0.0
 10
208.4771148272617
 20
136.249461736616
 30
0.0
 10
208.3633456516024
 20
136.169523399845
 30
0.0
 10
208.3400180028187
 20
136.1531325502696
 30
0.0
  0
SPLINE
  5
109
330
1F
100
AcDbEntity
  8
0
  6
Continuous
 62
     7
370
    25
100
AcDbSpline
210
0.0
220
0.0
230
1.0
 70
     8
 71
     3
 72
    10
 73
     6
 74
     0
 42
0.000000001
 43
0.00000001
 40
0.0
 40
0.0
 40
0.0
 40
0.0
 40
0.5
 40
0.5
 40
1.0
 40
1.0
 40
1.0
 40
1.0
 10
178.2045284067645
 20
130.7166818952747
 30
0.0
 10
179.0792576220175
 20
130.623959586351
 30
0.0
 10
179.9603072383675
 20
130.5535924295022
 30
0.0
 10
181.7353420608723
 20
130.4602681073115
 30
0.0
 10
182.6289085158953
 20
130.4357628107604
 30
0.0
 10
183.5291070525574
 20
130.4358323926711
 30
0.0
  0
SPLINE
  5
10A
330
1F
100
AcDbEntity
  8
0
  6
Continuous
 62
     7
370
    25
100
AcDbSpline
210
0.0
220
0.0
230
1.0
 70
     8
 71
     3
 72
    12
 73
     8
 74
     0
 42
0.000000001
 43
0.00000001
 40
0.0
 40
0.0
 40
0.0
 40
0.0
 40
0.0569509068509682
 40
0.2624685912473678
 40
0.4784267018763825
 40
0.7194552704397644
 40
1.0
 40
1.0
 40
1.0
 40
1.0
 10
157.7488304512011
 20
117.3721783681217
 30
0.0
 10
157.7904602187382
 20
117.6393405006977
 30
0.0
 10
157.9823185585541
 20
118.8706056806424
 30
0.0
 10
158.1827292244644
 20
121.1418688212657
 30
0.0
 10
158.3599695745728
 20
124.3002712011231
 30
0.0
 10
158.4342361203788
 20
127.8328764551971
 30
0.0
 10
158.4450551099927
 20
130.3372919272022
 30
0.0
 10
158.4508744464623
 20
131.6843711657825
 30
0.0
  0
SPLINE
  5
10B
330
1F
100
AcDbEntity
  8
0
  6
Continuous
 62
     7
370
    25
100
AcDbSpline
210
0.0
220
0.0
230
1.0
 70
     8
 71
     3
 72
    10
 73
     6
 74
     0
 42
0.000000001
 43
0.00000001
 40
0.0
 40
0.0
 40
0.0
 40
0.0
 40
0.414048474911024
 40
0.8798543515644571
 40
1.0
 40
1.0
 40
1.0
 40
1.0
 10
158.4656172828184
 20
136.4743233545127
 30
0.0
 10
158.470606074577
 20
136.4351525390095
 30
0.0
 10
158.481207273238
 20
136.3519144290703
 30
0.0
 10
158.5810988980156
 20
136.2494617366703
 30
0.0
 10
158.6948680470251
 20
136.1695233998543
 30
0.0
 10
158.7181956903444
 20
136.1531325502696
 30
0.0
  0
SPLINE
  5
10C
330
1F
100
AcDbEntity
  8
0
  6
Continuous
 62
     7
370
    25
100
AcDbSpline
210
0.0
220
0.0
230
1.0
 70
     8
 71
     3
 72
    79
 73
    75
 74
     0
 42
0.000000001
 43
0.00000001
 40
0.0
 40
0.0
 40
0.0
 40
0.0
 40
0.0205902192388888
 40
0.0411810299219973
 40
0.0514763143895859
 40
0.0823623344853693
 40
0.102952196914987
 40
0.1132464213006701
 40
0.1338374165935854
 40
0.1544292401743634
 40
0.1647249659058241
 40
0.1970192753451754
 40
0.2293128347419516
 40
0.2400779387016785
 40
0.2616090959025423
 40
0.2831405184643784
 40
0.2939054918502048
 40
0.3154333184956803
 40
0.3369637654459238
 40
0.3539038189675067
 40
0.3877840351163246
 40
0.4047240964457402
 40
0.4131941229134381
 40
0.4301354637221639
 40
0.4470764182050217
 40
0.4555470209130966
 40
0.4724884182256724
 40
0.4935672971101396
 40
0.5005936604639702
 40
0.5146463489389939
 40
0.542753144528879
 40
0.549780299649033
 40
0.5708617243838403
 40
0.5849163675222704
 40
0.5909443404278669
 40
0.6030006477096748
 40
0.6210854817871817
 40
0.6271140139147302
 40
0.6391711111399448
 40
0.6512295354650565
 40
0.6572572681721401
 40
0.6693150482317202
 40
0.6921280024510814
 40
0.6975051854527587
 40
0.708259785460162
 40
0.7190145156272252
 40
0.7243919417681923
 40
0.7351475188980001
 40
0.7459040579237279
 40
0.7512826741327362
 40
0.7674201282600512
 40
0.7971161258429835
 40
0.8020659223839319
 40
0.8119671587459302
 40
0.8268212689142802
 40
0.8367255002209962
 40
0.8514115568211731
 40
0.8609743609194701
 40
0.8657561523652164
 40
0.8753202565176744
 40
0.884884773080636
 40
0.8944514202513535
 40
0.9040196965136564
 40
0.9135890643569915
 40
0.9231593684850519
 40
0.9295323321119804
 40
0.9359062119471698
 40
0.9422806581901577
 40
0.9518433123223421
 40
0.9582189332664621
 40
0.9614069122172275
 40
0.9741605354571339
 40
0.9940436298761068
 40
1.0
 40
1.0
 40
1.0
 40
1.0
 10
183.529107064404
 20
93.94306713506411
 30
0.0
 10
183.6638287504584
 20
93.94307935032234
 30
0.0
 10
183.9332759923834
 20
93.94310378118963
 30
0.0
 10
184.2700849531246
 20
93.94328410021346
 30
0.0
 10
184.6742583824446
 20
93.94360523125391
 30
0.0
 10
185.0784242009041
 20
93.94408849274319
 30
0.0
 10
185.4825785835863
 20
93.94479829518701
 30
0.0
 10
185.8193701125952
 20
93.9455179867368
 30
0.0
 10
186.156170352232
 20
93.94637016872883
 30
0.0
 10
186.4929723463061
 20
93.94742018928679
 30
0.0
 10
186.9063336447249
 20
93.9489118230605
 30
0.0
 10
187.3962337777108
 20
93.95102833936234
 30
0.0
 10
187.8891607869764
 20
93.9537892539632
 30
0.0
 10
188.3116362008521
 20
93.95659453385666
 30
0.0
 10
188.6636873381887
 20
93.95922206892199
 30
0.0
 10
189.0156836053117
 20
93.96228237515264
 30
0.0
 10
189.3676059014594
 20
93.96570196694343
 30
0.0
 10
189.7194634821543
 20
93.96950118041677
 30
0.0
 10
190.1115797399199
 20
93.9743586787275
 30
0.0
 10
190.5842755260774
 20
93.9809541579564
 30
0.0
 10
191.0267739584267
 20
93.98810965210453
 30
0.0
 10
191.4136985950868
 20
93.99535800122266
 30
0.0
 10
191.6899834454411
 20
94.00090465007696
 30
0.0
 10
191.9661657001612
 20
94.00683659768738
 30
0.0
 10
192.2421772082211
 20
94.01332123335129
 30
0.0
 10
192.518036432914
 20
94.02024739404874
 30
0.0
 10
192.8206630586529
 20
94.02835415751942
 30
0.0
 10
193.1135785240742
 20
94.03698650370787
 30
0.0
 10
193.3874484646288
 20
94.04564495869289
 30
0.0
 10
193.7067302563585
 20
94.05626778280777
 30
0.0
 10
194.0254830838484
 20
94.06798266283911
 30
0.0
 10
194.3891263721308
 20
94.0825103851427
 30
0.0
 10
194.6614644107054
 20
94.09410595597045
 30
0.0
 10
194.926753419674
 20
94.10633831687612
 30
0.0
 10
195.1335915849268
 20
94.11631093824762
 30
0.0
 10
195.3660613848989
 20
94.1279708449701
 30
0.0
 10
195.5979671129023
 20
94.14038990528343
 30
0.0
 10
195.8293421247775
 20
94.15345134081133
 30
0.0
 10
196.0218175466396
 20
94.16474635551636
 30
0.0
 10
196.213769837561
 20
94.17660797206578
 30
0.0
 10
196.4052994179463
 20
94.18890954536657
 30
0.0
 10
196.6645542483739
 20
94.20621285144648
 30
0.0
 10
196.9184508511258
 20
94.22446723141348
 30
0.0
 10
197.1629570809649
 20
94.2431778509257
 30
0.0
 10
197.3312833859101
 20
94.25651771134122
 30
0.0
 10
197.4989244004272
 20
94.270441565549
 30
0.0
 10
197.6660140706763
 20
94.28481856535217
 30
0.0
 10
197.8325412637244
 20
94.29965651655469
 30
0.0
 10
197.9982450131373
 20
94.31512763831485
 30
0.0
 10
198.1963037266162
 20
94.33428047000302
 30
0.0
 10
198.5088278257671
 20
94.36592802648127
 30
0.0
 10
198.8146423016821
 20
94.40006630715523
 30
0.0
 10
199.0795570094959
 20
94.4319323001547
 30
0.0
 10
199.2552445669617
 20
94.45373562397604
 30
0.0
 10
199.4582306182169
 20
94.48027118733803
 30
0.0
 10
199.6867387037072
 20
94.5117400534121
 30
0.0
 10
199.8823363278739
 20
94.54009467976385
 30
0.0
 10
200.0465265875406
 20
94.5651373910224
 30
0.0
 10
200.1806928059991
 20
94.58622368554906
 30
0.0
 10
200.3137897865743
 20
94.60777587633379
 30
0.0
 10
200.4717190569571
 20
94.63438744581195
 30
0.0
 10
200.6277786866866
 20
94.66175376287542
 30
0.0
 10
200.7818710732862
 20
94.68987885491359
 30
0.0
 10
200.9339069412302
 20
94.71876290389363
 30
0.0
 10
201.0671070078764
 20
94.7451027167219
 30
0.0
 10
201.1821801639308
 20
94.76862979896356
 30
0.0
 10
201.2797700109719
 20
94.7891198952251
 30
0.0
 10
201.3924395785916
 20
94.81341352176852
 30
0.0
 10
201.5035919693188
 20
94.83818862658644
 30
0.0
 10
201.5975235461889
 20
94.85983159159764
 30
0.0
 10
201.7061760182408
 20
94.88536606439921
 30
0.0
 10
201.8779621337349
 20
94.92711828493483
 30
0.0
 10
202.057421502938
 20
94.9736517313971
 30
0.0
 10
202.1738945939736
 20
95.00572614127026
 30
0.0
 10
202.200743325244
 20
95.01311975642793
 30
0.0
  0
SPLINE
  5
10D
330
1F
100
AcDbEntity
  8
0
  6
Continuous
 62
     7
370
    25
100
AcDbSpline
210
0.0
220
0.0
230
1.0
 70
     8
 71
     3
 72
    24
 73
    20
 74
     0
 42
0.000000001
 43
0.00000001
 40
0.0
 40
0.0
 40
0.0
 40
0.0
 40
0.10090634100923
 40
0.2004590341384773
 40
0.3013093096879974
 40
0.39983942168806
 40
0.4497372781895648
 40
0.4994741552397458
 40
0.5489475713693934
 40
0.5991842558046265
 40
0.6491589157707005
 40
0.6995031513760063
 40
0.7494934398291617
 40
0.7989193236951702
 40
0.8489412846707929
 40
0.8989278003707576
 40
0.9488395152257597
 40
0.9992700560697014
 40
1.0
 40
1.0
 40
1.0
 40
1.0
 10
183.5291070768498
 20
93.9430677218738
 30
0.0
 10
182.86846753657
 20
93.9433616352092
 30
0.0
 10
181.5560508654902
 20
93.94394551906366
 30
0.0
 10
179.5834565627346
 20
93.95028830907634
 30
0.0
 10
177.6269218910095
 20
93.96417127827839
 30
0.0
 10
175.9970138048674
 20
93.98700083131828
 30
0.0
 10
174.7039984235062
 20
94.01509528807031
 30
0.0
 10
173.7332030132503
 20
94.0424392400517
 30
0.0
 10
172.7636091093662
 20
94.0772624598343
 30
0.0
 10
171.7975666626109
 20
94.12093484082135
 30
0.0
 10
170.8334155278374
 20
94.17523131487323
 30
0.0
 10
169.8823552962383
 20
94.24155849444837
 30
0.0
 10
168.9513955757125
 20
94.32245335509073
 30
0.0
 10
168.0457625833988
 20
94.42008543645115
 30
0.0
 10
167.1728624091402
 20
94.53652605115
 30
0.0
 10
166.338002016176
 20
94.67292907674569
 30
0.0
 10
165.5655875850743
 20
94.83247595249935
 30
0.0
 10
165.0683833205031
 20
94.94831627396341
 30
0.0
 10
164.8512697696321
 20
95.01502194119237
 30
0.0
 10
164.8481720523344
 20
95.01597367957262
 30
0.0
  0
SPLINE
  5
10E
330
1F
100
AcDbEntity
  8
0
  6
Continuous
 62
     7
370
    25
100
AcDbSpline
210
0.0
220
0.0
230
1.0
 70
     8
 71
     3
 72
    36
 73
    32
 74
     0
 42
0.000000001
 43
0.00000001
 40
0.0
 40
0.0
 40
0.0
 40
0.0
 40
0.1249999999999996
 40
0.1249999999999996
 40
0.1874999999999994
 40
0.1874999999999994
 40
0.2499999999999993
 40
0.2499999999999993
 40
0.3124999999999991
 40
0.3124999999999991
 40
0.3437499999999991
 40
0.3437499999999991
 40
0.3749999999999991
 40
0.3749999999999991
 40
0.4999999999999994
 40
0.4999999999999994
 40
0.5624999999999994
 40
0.5624999999999994
 40
0.6249999999999996
 40
0.6249999999999996
 40
0.7499999999999997
 40
0.7499999999999997
 40
0.7812499999999998
 40
0.7812499999999998
 40
0.8124999999999998
 40
0.8124999999999998
 40
0.8749999999999999
 40
0.8749999999999999
 40
0.9375
 40
0.9375
 40
1.0
 40
1.0
 40
1.0
 40
1.0
 10
178.2036661280954
 20
130.7167267647333
 30
0.0
 10
176.3380709195409
 20
130.9138484283619
 30
0.0
 10
174.5691376445825
 20
131.2045096749148
 30
0.0
 10
172.0452943434618
 20
131.7444774879024
 30
0.0
 10
171.2245016630578
 20
131.9422547156548
 30
0.0
 10
169.6320533993811
 20
132.3657390207422
 30
0.0
 10
168.8723371035204
 20
132.5881462049475
 30
0.0
 10
167.4210750336839
 20
133.0466907864236
 30
0.0
 10
166.7295446644764
 20
133.2828466183663
 30
0.0
 10
165.7420908304918
 20
133.642056987472
 30
0.0
 10
165.4212690998674
 20
133.7626251254982
 30
0.0
 10
164.7963400533611
 20
134.0045376985078
 30
0.0
 10
164.4914736402324
 20
134.126196652541
 30
0.0
 10
163.0190284390697
 20
134.7302663890572
 30
0.0
 10
162.0146505199015
 20
135.1951724295314
 30
0.0
 10
160.7609842057283
 20
135.8280685174095
 30
0.0
 10
160.385706414869
 20
136.028354054675
 30
0.0
 10
159.7249909821513
 20
136.4022568584501
 30
0.0
 10
159.4457538864996
 20
136.5723586489414
 30
0.0
 10
158.7605492526612
 20
137.0294102008835
 30
0.0
 10
158.5038372566109
 20
137.2630311014153
 30
0.0
 10
158.4497545107567
 20
137.4746659085523
 30
0.0
 10
158.4525655051566
 20
137.5129241376662
 30
0.0
 10
158.4851740791195
 20
137.5812210059813
 30
0.0
 10
158.5149187193325
 20
137.6114052771104
 30
0.0
 10
158.6439246579497
 20
137.6914957673661
 30
0.0
 10
158.7828375522155
 20
137.7309532597274
 30
0.0
 10
159.1665272895156
 20
137.7894085622567
 30
0.0
 10
159.4112907926064
 20
137.8084163940672
 30
0.0
 10
160.0107457143016
 20
137.8328486992914
 30
0.0
 10
160.3617723598831
 20
137.838164233397
 30
0.0
 10
160.7638155671718
 20
137.839881550496
 30
0.0
  0
SPLINE
  5
10F
330
1F
100
AcDbEntity
  8
0
  6
Continuous
 62
     7
370
    25
100
AcDbSpline
210
0.0
220
0.0
230
1.0
 70
     8
 71
     3
 72
    36
 73
    32
 74
     0
 42
0.000000001
 43
0.00000001
 40
0.0
 40
0.0
 40
0.0
 40
0.0
 40
0.1250000000000004
 40
0.1250000000000004
 40
0.1875000000000007
 40
0.1875000000000007
 40
0.2500000000000011
 40
0.2500000000000011
 40
0.3125000000000013
 40
0.3125000000000013
 40
0.3437500000000016
 40
0.3437500000000016
 40
0.3750000000000018
 40
0.3750000000000018
 40
0.5000000000000014
 40
0.5000000000000014
 40
0.5625000000000013
 40
0.5625000000000013
 40
0.6250000000000012
 40
0.6250000000000012
 40
0.7500000000000009
 40
0.7500000000000009
 40
0.7812500000000008
 40
0.7812500000000008
 40
0.8125000000000007
 40
0.8125000000000007
 40
0.8750000000000004
 40
0.8750000000000004
 40
0.9375000000000002
 40
0.9375000000000002
 40
1.0
 40
1.0
 40
1.0
 40
1.0
 10
188.8545480131588
 20
130.7167267647333
 30
0.0
 10
190.7201432217134
 20
130.9138484283619
 30
0.0
 10
192.4890764966719
 20
131.2045096749148
 30
0.0
 10
195.0129197977925
 20
131.7444774879023
 30
0.0
 10
195.8337124781965
 20
131.9422547156546
 30
0.0
 10
197.4261607418732
 20
132.3657390207421
 30
0.0
 10
198.1858770377339
 20
132.5881462049474
 30
0.0
 10
199.6371391075704
 20
133.0466907864234
 30
0.0
 10
200.3286694767779
 20
133.2828466183662
 30
0.0
 10
201.3161233107625
 20
133.642056987472
 30
0.0
 10
201.6369450413869
 20
133.7626251254981
 30
0.0
 10
202.2618740878932
 20
134.0045376985077
 30
0.0
 10
202.5667405010219
 20
134.1261966525409
 30
0.0
 10
204.0391857021846
 20
134.730266389057
 30
0.0
 10
205.0435636213528
 20
135.1951724295312
 30
0.0
 10
206.297229935526
 20
135.8280685174093
 30
0.0
 10
206.6725077263853
 20
136.0283540546749
 30
0.0
 10
207.3332231591031
 20
136.4022568584499
 30
0.0
 10
207.6124602547548
 20
136.5723586489413
 30
0.0
 10
208.2976648885931
 20
137.0294102008833
 30
0.0
 10
208.5543768846435
 20
137.2630311014151
 30
0.0
 10
208.6084596304977
 20
137.4746659085521
 30
0.0
 10
208.6056486360977
 20
137.512924137666
 30
0.0
 10
208.5730400621349
 20
137.5812210059811
 30
0.0
 10
208.5432954219219
 20
137.6114052771102
 30
0.0
 10
208.4142894833047
 20
137.691495767366
 30
0.0
 10
208.2753765890388
 20
137.7309532597273
 30
0.0
 10
207.8916868517387
 20
137.7894085622565
 30
0.0
 10
207.646923348648
 20
137.8084163940671
 30
0.0
 10
207.0474684269528
 20
137.8328486992913
 30
0.0
 10
206.6964417813713
 20
137.8381642333968
 30
0.0
 10
206.2943985740825
 20
137.8398815504958
 30
0.0
  0
LINE
  5
110
330
1F
100
AcDbEntity
  8
0
  6
Continuous
 62
     7
370
    25
100
AcDbLine
 10
205.8457461582
 20
137.8398806675
 30
0.0
 11
206.29439777
 21
137.8398806675
 31
0.0
  0
LINE
  5
111
330
1F
100
AcDbEntity
  8
0
  6
Continuous
 62
     7
370
    25
100
AcDbLine
 10
160.7638159232
 20
137.8398806675
 30
0.0
 11
161.212467535
 21
137.8398806675
 31
0.0
  0
SPLINE
  5
112
330
1F
100
AcDbEntity
  8
0
  6
Continuous
 62
     7
370
    25
100
AcDbSpline
210
0.0
220
0.0
230
1.0
 70
     8
 71
     3
 72
    26
 73
    22
 74
     0
 42
0.000000001
 43
0.00000001
 40
0.0
 40
0.0
 40
0.0
 40
0.0
 40
0.0400064494769044
 40
0.0896885958254594
 40
0.1393794378598127
 40
0.188102160918737
 40
0.2368424021548443
 40
0.2889669678105725
 40
0.3411059304878087
 40
0.3977552288038758
 40
0.4544116337724063
 40
0.5140028625161097
 40
0.5735930561079567
 40
0.6340102234634465
 40
0.6944142380381944
 40
0.7536012711432656
 40
0.8127572735663722
 40
0.8679720266212886
 40
0.923162320472371
 40
0.9732190705651359
 40
1.0
 40
1.0
 40
1.0
 40
1.0
 10
161.4398052380787
 20
137.4602922125164
 30
0.0
 10
161.4864992255084
 20
137.385393968398
 30
0.0
 10
161.5911803012055
 20
137.2174830832133
 30
0.0
 10
162.4307968897324
 20
136.792441757877
 30
0.0
 10
163.7566200091189
 20
136.248924189878
 30
0.0
 10
165.5566189208827
 20
135.6283470327832
 30
0.0
 10
167.7717971300052
 20
134.9761424008036
 30
0.0
 10
170.399607649333
 20
134.337791504501
 30
0.0
 10
173.4630618743915
 20
133.7503555287543
 30
0.0
 10
176.8634583095325
 20
133.2925015462205
 30
0.0
 10
180.5848076049759
 20
133.0025587511659
 30
0.0
 10
184.4511155315339
 20
132.9427156922723
 30
0.0
 10
188.3749597205029
 20
133.1174524028062
 30
0.0
 10
192.178149076911
 20
133.5321785444412
 30
0.0
 10
195.7284832007054
 20
134.1324436021881
 30
0.0
 10
198.8881169090388
 20
134.8646989919256
 30
0.0
 10
201.5116429673685
 20
135.6246905647676
 30
0.0
 10
203.5373476786646
 20
136.3337537232267
 30
0.0
 10
204.8723829558609
 20
136.9064081925424
 30
0.0
 10
205.5539318146214
 20
137.2781398578025
 30
0.0
 10
205.590748044434
 20
137.4109374357753
 30
0.0
 10
205.6035799370514
 20
137.4572225733104
 30
0.0
  0
SPLINE
  5
113
330
1F
100
AcDbEntity
  8
0
  6
Continuous
 62
     8
370
    18
100
AcDbSpline
210
0.0
220
0.0
230
1.0
 70
     8
 71
     3
 72
    54
 73
    50
 74
     0
 42
0.000000001
 43
0.00000001
 40
0.0
 40
0.0
 40
0.0
 40
0.0
 40
0.0624999999999992
 40
0.0624999999999992
 40
0.1249999999999984
 40
0.1249999999999984
 40
0.1874999999999977
 40
0.1874999999999977
 40
0.2499999999999969
 40
0.2499999999999969
 40
0.3124999999999961
 40
0.3124999999999961
 40
0.3281249999999959
 40
0.3281249999999959
 40
0.3437499999999956
 40
0.3437499999999956
 40
0.374999999999995
 40
0.374999999999995
 40
0.4062499999999944
 40
0.4062499999999944
 40
0.4374999999999938
 40
0.4374999999999938
 40
0.4999999999999926
 40
0.4999999999999926
 40
0.5156249999999926
 40
0.5156249999999926
 40
0.5312499999999927
 40
0.5312499999999927
 40
0.5624999999999928
 40
0.5624999999999928
 40
0.5781249999999928
 40
0.5781249999999928
 40
0.5937499999999928
 40
0.5937499999999928
 40
0.6249999999999931
 40
0.6249999999999931
 40
0.6874999999999941
 40
0.6874999999999941
 40
0.7187499999999946
 40
0.7187499999999946
 40
0.7499999999999951
 40
0.7499999999999951
 40
0.8124999999999963
 40
0.8124999999999963
 40
0.8749999999999976
 40
0.8749999999999976
 40
0.9374999999999988
 40
0.9374999999999988
 40
1.0
 40
1.0
 40
1.0
 40
1.0
 10
183.5291070705214
 20
183.5421063980859
 30
0.0
 10
186.624894638524
 20
183.5421063980864
 30
0.0
 10
189.7201569486479
 20
183.5420733576543
 30
0.0
 10
195.9087508743384
 20
183.5419816590345
 30
0.0
 10
199.0020906007378
 20
183.5419231834505
 30
0.0
 10
205.185500452948
 20
183.5418323794028
 30
0.0
 10
208.2755861260861
 20
183.5418010820215
 30
0.0
 10
214.4503448223974
 20
183.5418128516701
 30
0.0
 10
217.5350501506013
 20
183.5418599487067
 30
0.0
 10
223.6954291141594
 20
183.5420086223442
 30
0.0
 10
226.7711765377284
 20
183.542117374864
 30
0.0
 10
230.606113010431
 20
183.5421020733414
 30
0.0
 10
231.3726022303663
 20
183.5420938178532
 30
0.0
 10
232.9044283837703
 20
183.5420743843239
 30
0.0
 10
233.6701287516603
 20
183.5420632356899
 30
0.0
 10
235.9537243754128
 20
183.5420355676957
 30
0.0
 10
237.4616215873214
 20
183.5420268235165
 30
0.0
 10
240.4397620682464
 20
183.5420495328647
 30
0.0
 10
241.9100319497615
 20
183.5420841733582
 30
0.0
 10
244.8015336876235
 20
183.542116646919
 30
0.0
 10
246.2233077891553
 20
183.5421483983998
 30
0.0
 10
250.3897899782211
 20
183.5423175152389
 30
0.0
 10
252.9160668447021
 20
183.5421222203149
 30
0.0
 10
255.6890717299113
 20
183.542102933263
 30
0.0
 10
256.2269060365305
 20
183.542129933677
 30
0.0
 10
257.2482023148376
 20
183.5421908201781
 30
0.0
 10
257.7324219750627
 20
183.5422241166962
 30
0.0
 10
259.1107270268963
 20
183.5422867923353
 30
0.0
 10
259.9304262210438
 20
183.5422685964633
 30
0.0
 10
261.0322113255198
 20
183.5421882422603
 30
0.0
 10
261.3781911617911
 20
183.5421554499116
 30
0.0
 10
262.0311331331188
 20
183.5421097092294
 30
0.0
 10
262.33711164377
 20
183.5421094911189
 30
0.0
 10
263.1936048995003
 20
183.5420901115115
 30
0.0
 10
263.6864762265027
 20
183.5420535845603
 30
0.0
 10
264.9883398208914
 20
183.542013694326
 30
0.0
 10
265.6238251672686
 20
183.5420866525486
 30
0.0
 10
266.3750490239395
 20
183.5421123543487
 30
0.0
 10
266.5906069745997
 20
183.5420909139961
 30
0.0
 10
266.9670292244966
 20
183.5420215083041
 30
0.0
 10
267.1281912745944
 20
183.5419779132993
 30
0.0
 10
267.5497555416358
 20
183.5418642685555
 30
0.0
 10
267.7492592176932
 20
183.5418146631175
 30
0.0
 10
268.0517842878907
 20
183.5418000279068
 30
0.0
 10
268.1542247410138
 20
183.5418307489662
 30
0.0
 10
268.3007081420018
 20
183.5419214997527
 30
0.0
 10
268.344516841041
 20
183.5419804308002
 30
0.0
 10
268.3978456237645
 20
183.5420729727238
 30
0.0
 10
268.4072135315188
 20
183.5421063980863
 30
0.0
 10
268.4072135313236
 20
183.5421063980858
 30
0.0
  0
SPLINE
  5
114
330
1F
100
AcDbEntity
  8
0
  6
Continuous
 62
     8
370
    18
100
AcDbSpline
210
0.0
220
0.0
230
1.0
 70
     8
 71
     3
 72
    52
 73
    48
 74
     0
 42
0.000000001
 43
0.00000001
 40
0.0
 40
0.0
 40
0.0
 40
0.0
 40
0.1249999999999997
 40
0.1249999999999997
 40
0.1874999999999995
 40
0.1874999999999995
 40
0.2499999999999993
 40
0.2499999999999993
 40
0.3124999999999992
 40
0.3124999999999992
 40
0.3437499999999993
 40
0.3437499999999993
 40
0.3749999999999994
 40
0.3749999999999994
 40
0.4062499999999994
 40
0.4062499999999994
 40
0.4374999999999996
 40
0.4374999999999996
 40
0.4531249999999996
 40
0.4531249999999996
 40
0.4687499999999996
 40
0.4687499999999996
 40
0.4999999999999998
 40
0.4999999999999998
 40
0.5156249999999999
 40
0.5156249999999999
 40
0.5312499999999999
 40
0.5312499999999999
 40
0.5625000000000001
 40
0.5625000000000001
 40
0.5781250000000001
 40
0.5781250000000001
 40
0.5937500000000001
 40
0.5937500000000001
 40
0.6250000000000001
 40
0.6250000000000001
 40
0.6562500000000001
 40
0.6562500000000001
 40
0.6875000000000001
 40
0.6875000000000001
 40
0.7500000000000001
 40
0.7500000000000001
 40
0.8125
 40
0.8125
 40
0.875
 40
0.875
 40
1.0
 40
1.0
 40
1.0
 40
1.0
 10
183.5291070706913
 20
179.287445675896
 30
0.0
 10
189.4272724293052
 20
179.2874456734637
 30
0.0
 10
195.3247509154208
 20
179.2874448415838
 30
0.0
 10
204.1664881359075
 20
179.2874439342711
 30
0.0
 10
207.1129652545338
 20
179.2874437013736
 30
0.0
 10
213.0033733732848
 20
179.2874436655317
 30
0.0
 10
215.9473140795131
 20
179.2874438822119
 30
0.0
 10
221.8311230798879
 20
179.2874447427632
 30
0.0
 10
224.7710173752214
 20
179.28744546626
 30
0.0
 10
229.1759133062889
 20
179.2874457135764
 30
0.0
 10
230.6433708900465
 20
179.2874455813844
 30
0.0
 10
233.576065627985
 20
179.2874453065287
 30
0.0
 10
235.0323657532399
 20
179.2874451694646
 30
0.0
 10
237.9130177455353
 20
179.2874451654846
 30
0.0
 10
239.338138941178
 20
179.2874453210192
 30
0.0
 10
242.1471181174696
 20
179.2874456595062
 30
0.0
 10
243.5310316495556
 20
179.2874456369455
 30
0.0
 10
245.5638491022238
 20
179.287446246249
 30
0.0
 10
246.2351800807692
 20
179.2874464711685
 30
0.0
 10
247.5394656172854
 20
179.2874467339405
 30
0.0
 10
248.1749345834098
 20
179.2874467696128
 30
0.0
 10
250.0266371018377
 20
179.2874465157962
 30
0.0
 10
251.1878659531527
 20
179.2874457176969
 30
0.0
 10
252.8041634599161
 20
179.2874456165308
 30
0.0
 10
253.3243703640781
 20
179.2874458419036
 30
0.0
 10
254.3037011925624
 20
179.287446302706
 30
0.0
 10
254.7645215197693
 20
179.2874465328886
 30
0.0
 10
256.067016121093
 20
179.2874468674499
 30
0.0
 10
256.8287221321835
 20
179.2874465329354
 30
0.0
 10
257.840638867837
 20
179.2874459104545
 30
0.0
 10
258.1570481126969
 20
179.287445707206
 30
0.0
 10
258.7463295951409
 20
179.2874456025678
 30
0.0
 10
259.0191213287472
 20
179.2874455931174
 30
0.0
 10
259.7819416239631
 20
179.2874453448389
 30
0.0
 10
260.2169664996702
 20
179.2874451680953
 30
0.0
 10
260.9802937833954
 20
179.2874451398605
 30
0.0
 10
261.3084004566313
 20
179.2874452635923
 30
0.0
 10
261.8850496865239
 20
179.2874455357789
 30
0.0
 10
262.133563145548
 20
179.2874456833368
 30
0.0
 10
262.7879552898115
 20
179.2874455016173
 30
0.0
 10
263.1024138610515
 20
179.2874447620245
 30
0.0
 10
263.5931808215931
 20
179.2874438728453
 30
0.0
 10
263.7682212373895
 20
179.2874436388963
 30
0.0
 10
264.0345341297851
 20
179.2874436535766
 30
0.0
 10
264.1252794185253
 20
179.2874438814118
 30
0.0
 10
264.3205870010412
 20
179.2874447824593
 30
0.0
 10
264.3512160992146
 20
179.2874456199551
 30
0.0
 10
264.3512160746406
 20
179.2874456175229
 30
0.0
  0
SPLINE
  5
115
330
1F
100
AcDbEntity
  8
0
  6
Continuous
 62
     8
370
    18
100
AcDbSpline
210
0.0
220
0.0
230
1.0
 70
     8
 71
     3
 72
    54
 73
    50
 74
     0
 42
0.000000001
 43
0.00000001
 40
0.0
 40
0.0
 40
0.0
 40
0.0
 40
0.0625000000000001
 40
0.0625000000000001
 40
0.1250000000000001
 40
0.1250000000000001
 40
0.1875000000000002
 40
0.1875000000000002
 40
0.2500000000000002
 40
0.2500000000000002
 40
0.3125000000000003
 40
0.3125000000000003
 40
0.3281250000000003
 40
0.3281250000000003
 40
0.3437500000000004
 40
0.3437500000000004
 40
0.3750000000000007
 40
0.3750000000000007
 40
0.4062500000000009
 40
0.4062500000000009
 40
0.4375000000000012
 40
0.4375000000000012
 40
0.5000000000000016
 40
0.5000000000000016
 40
0.5156250000000017
 40
0.5156250000000017
 40
0.5312500000000018
 40
0.5312500000000018
 40
0.5625000000000019
 40
0.5625000000000019
 40
0.5781250000000019
 40
0.5781250000000019
 40
0.5937500000000019
 40
0.5937500000000019
 40
0.6250000000000019
 40
0.6250000000000019
 40
0.6875000000000019
 40
0.6875000000000019
 40
0.7187500000000018
 40
0.7187500000000018
 40
0.7500000000000017
 40
0.7500000000000017
 40
0.8125000000000013
 40
0.8125000000000013
 40
0.8750000000000009
 40
0.8750000000000009
 40
0.9375000000000004
 40
0.9375000000000004
 40
1.0
 40
1.0
 40
1.0
 40
1.0
 10
98.65100060993025
 20
183.5421063980859
 30
0.0
 10
98.65100060980052
 20
183.5421063980863
 30
0.0
 10
98.66026843359033
 20
183.5420733576543
 30
0.0
 10
98.71286989633555
 20
183.5419816590345
 30
0.0
 10
98.75606042506719
 20
183.5419231834505
 30
0.0
 10
98.90013140066802
 20
183.5418323794028
 30
0.0
 10
99.00073752534517
 20
183.5418010820215
 30
0.0
 10
99.29745236779398
 20
183.5418128516704
 30
0.0
 10
99.49299108493217
 20
183.5418599487071
 30
0.0
 10
100.0434267057062
 20
183.5420086223447
 30
0.0
 10
100.3970216656749
 20
183.5421173748646
 30
0.0
 10
101.0110089010788
 20
183.5421020733411
 30
0.0
 10
101.1425945417187
 20
183.5420938178528
 30
0.0
 10
101.4260971477746
 20
183.5420743843231
 30
0.0
 10
101.5781201020978
 20
183.5420632356889
 30
0.0
 10
102.0669716169125
 20
183.5420355676944
 30
0.0
 10
102.4369384537104
 20
183.5420268235151
 30
0.0
 10
103.2913043295566
 20
183.5420495328634
 30
0.0
 10
103.7756224918116
 20
183.5420841733571
 30
0.0
 10
104.8932878123527
 20
183.5421166469192
 30
0.0
 10
105.5267420112545
 20
183.5421483984008
 30
0.0
 10
107.7168887662139
 20
183.5423175152408
 30
0.0
 10
109.5071986847822
 20
183.5421222203152
 30
0.0
 10
112.2506166084195
 20
183.542102933263
 30
0.0
 10
112.8272354324597
 20
183.5421299336768
 30
0.0
 10
114.0138936700111
 20
183.5421908201775
 30
0.0
 10
114.624162251877
 20
183.5422241166954
 30
0.0
 10
116.5026255125091
 20
183.5422867923338
 30
0.0
 10
117.8184983890276
 20
183.5422685964618
 30
0.0
 10
119.8741984648885
 20
183.5421882422591
 30
0.0
 10
120.57307253931
 20
183.5421554499105
 30
0.0
 10
121.9958292749791
 20
183.542109709229
 30
0.0
 10
122.7177556750534
 20
183.5421094911189
 30
0.0
 10
124.8938152917297
 20
183.5420901115125
 30
0.0
 10
126.3654634839792
 20
183.5420535845616
 30
0.0
 10
130.8277873493255
 20
183.5420136943276
 30
0.0
 10
133.8649728753436
 20
183.5420866525494
 30
0.0
 10
138.4748999200847
 20
183.5421123543486
 30
0.0
 10
140.0198869773696
 20
183.5420909139958
 30
0.0
 10
143.1101668199155
 20
183.5420215083036
 30
0.0
 10
144.6574893401665
 20
183.5419779132988
 30
0.0
 10
149.3044533990643
 20
183.5418642685551
 30
0.0
 10
152.4090088620534
 20
183.5418146631173
 30
0.0
 10
158.625904977433
 20
183.5418000279068
 30
0.0
 10
161.7387671101649
 20
183.5418307489662
 30
0.0
 10
167.9635743708139
 20
183.5419214997528
 30
0.0
 10
171.0763763161507
 20
183.5419804308002
 30
0.0
 10
177.3024442330637
 20
183.5420729727238
 30
0.0
 10
180.4157122640305
 20
183.5421063980864
 30
0.0
 10
183.5291070707834
 20
183.5421063980859
 30
0.0
  0
SPLINE
  5
116
330
1F
100
AcDbEntity
  8
0
  6
Continuous
 62
     8
370
    18
100
AcDbSpline
210
0.0
220
0.0
230
1.0
 70
     8
 71
     3
 72
    52
 73
    48
 74
     0
 42
0.000000001
 43
0.00000001
 40
0.0
 40
0.0
 40
0.0
 40
0.0
 40
0.1250000000000008
 40
0.1250000000000008
 40
0.1875000000000013
 40
0.1875000000000013
 40
0.2500000000000018
 40
0.2500000000000018
 40
0.3125000000000023
 40
0.3125000000000023
 40
0.3437500000000024
 40
0.3437500000000024
 40
0.3750000000000026
 40
0.3750000000000026
 40
0.4062500000000028
 40
0.4062500000000028
 40
0.4375000000000032
 40
0.4375000000000032
 40
0.4531250000000032
 40
0.4531250000000032
 40
0.4687500000000033
 40
0.4687500000000033
 40
0.5000000000000037
 40
0.5000000000000037
 40
0.5156250000000037
 40
0.5156250000000037
 40
0.5312500000000037
 40
0.5312500000000037
 40
0.5625000000000036
 40
0.5625000000000036
 40
0.5781250000000034
 40
0.5781250000000034
 40
0.5937500000000033
 40
0.5937500000000033
 40
0.625000000000003
 40
0.625000000000003
 40
0.6562500000000028
 40
0.6562500000000028
 40
0.6875000000000026
 40
0.6875000000000026
 40
0.7500000000000021
 40
0.7500000000000021
 40
0.8125000000000017
 40
0.8125000000000017
 40
0.8750000000000011
 40
0.8750000000000011
 40
1.0
 40
1.0
 40
1.0
 40
1.0
 10
102.7069969069624
 20
179.2874457340638
 30
0.0
 10
102.7069969308321
 20
179.2874457316401
 30
0.0
 10
102.7373855910851
 20
179.2874448997666
 30
0.0
 10
102.9294646464203
 20
179.2874439924644
 30
0.0
 10
103.0185864225482
 20
179.2874437595706
 30
0.0
 10
103.2797367448729
 20
179.2874437237372
 30
0.0
 10
103.45126306399
 20
179.2874439404222
 30
0.0
 10
103.9316818021838
 20
179.2874448009843
 30
0.0
 10
104.2393289545493
 20
179.2874455244873
 30
0.0
 10
104.87912324063
 20
179.2874457718107
 30
0.0
 10
105.1225673872573
 20
179.2874456396204
 30
0.0
 10
105.6914892812876
 20
179.2874453647683
 30
0.0
 10
106.0152778864135
 20
179.287445227706
 30
0.0
 10
106.7665355119197
 20
179.2874452237302
 30
0.0
 10
107.1939909770912
 20
179.2874453792674
 30
0.0
 10
108.189391701315
 20
179.2874457177596
 30
0.0
 10
108.757180419255
 20
179.287445695201
 30
0.0
 10
109.7533633289785
 20
179.2874463045092
 30
0.0
 10
110.1105203201083
 20
179.2874465294304
 30
0.0
 10
110.8685593105987
 20
179.2874467922052
 30
0.0
 10
111.2705824147063
 20
179.2874468278787
 30
0.0
 10
112.5512271155367
 20
179.2874465740646
 30
0.0
 10
113.5049379134163
 20
179.2874457759653
 30
0.0
 10
115.1010519249718
 20
179.2874456748023
 30
0.0
 10
115.6635782142325
 20
179.2874459001766
 30
0.0
 10
116.8225970068738
 20
179.2874463609824
 30
0.0
 10
117.4202197699582
 20
179.2874465911666
 30
0.0
 10
119.2624208473015
 20
179.287446925732
 30
0.0
 10
120.5562242248556
 20
179.2874465912188
 30
0.0
 10
122.5755188349476
 20
179.2874459687395
 30
0.0
 10
123.263849936697
 20
179.2874457654916
 30
0.0
 10
124.6522245062111
 20
179.2874456608552
 30
0.0
 10
125.3516127830067
 20
179.2874456514059
 30
0.0
 10
127.4627667832939
 20
179.28744540313
 30
0.0
 10
128.887435410585
 20
179.287445226388
 30
0.0
 10
131.761700978642
 20
179.2874451981574
 30
0.0
 10
133.2113560756889
 20
179.2874453218917
 30
0.0
 10
136.1293519197266
 20
179.2874455940833
 30
0.0
 10
137.5983151505412
 20
179.2874457416437
 30
0.0
 10
142.0229074830903
 20
179.2874455599301
 30
0.0
 10
144.9789612954654
 20
179.2874448203397
 30
0.0
 10
150.898547873129
 20
179.2874439311667
 30
0.0
 10
153.862137137055
 20
179.2874436972214
 30
0.0
 10
159.793944405135
 20
179.2874437119104
 30
0.0
 10
162.7622539130212
 20
179.2874439397504
 30
0.0
 10
171.6636032113838
 20
179.287444840813
 30
0.0
 10
177.5966596864777
 20
179.2874456783196
 30
0.0
 10
183.5291070705291
 20
179.287445675896
 30
0.0
  0
SPLINE
  5
117
330
1F
100
AcDbEntity
  8
0
  6
Continuous
 62
     8
370
    18
100
AcDbSpline
210
0.0
220
0.0
230
1.0
 70
     8
 71
     3
 72
    20
 73
    16
 74
     0
 42
0.000000001
 43
0.00000001
 40
0.0
 40
0.0
 40
0.0
 40
0.0
 40
0.0241304097108031
 40
0.1731243614525743
 40
0.2668729867781366
 40
0.3570239564195352
 40
0.4417484934823789
 40
0.5026221949131628
 40
0.5629370870323871
 40
0.6252724660812309
 40
0.6922938665356392
 40
0.764734393483958
 40
0.841142236374449
 40
0.9199443848384966
 40
1.0
 40
1.0
 40
1.0
 40
1.0
 10
156.9046275155054
 20
112.5737734957042
 30
0.0
 10
156.9106621330823
 20
112.6091655920852
 30
0.0
 10
156.953957681195
 20
112.8630872685036
 30
0.0
 10
157.1971031487421
 20
112.795903995156
 30
0.0
 10
157.7631991961413
 20
112.4744887364946
 30
0.0
 10
158.5340494600771
 20
111.9460184980396
 30
0.0
 10
159.6604355031613
 20
111.311608009952
 30
0.0
 10
161.2127138173554
 20
110.6685073010026
 30
0.0
 10
163.1212728985357
 20
110.0643751157663
 30
0.0
 10
165.6293322312611
 20
109.4751696322108
 30
0.0
 10
168.6851556942308
 20
109.0032978435971
 30
0.0
 10
172.129899874353
 20
108.7054705987579
 30
0.0
 10
175.8176874212585
 20
108.5505479264259
 30
0.0
 10
179.6429362187241
 20
108.4975547357362
 30
0.0
 10
182.2265026775001
 20
108.4964689167265
 30
0.0
 10
183.528478718504
 20
108.4959217233959
 30
0.0
  0
SPLINE
  5
118
330
1F
100
AcDbEntity
  8
0
  6
Continuous
 62
     8
370
    18
100
AcDbSpline
210
0.0
220
0.0
230
1.0
 70
     8
 71
     3
 72
    12
 73
     8
 74
     0
 42
0.000000001
 43
0.00000001
 40
0.0
 40
0.0
 40
0.0
 40
0.0
 40
0.1250215377125106
 40
0.2497556482369899
 40
0.4988573978918795
 40
0.7469150573851784
 40
1.0
 40
1.0
 40
1.0
 40
1.0
 10
158.3021422312962
 20
109.1747292204204
 30
0.0
 10
158.2982880806062
 20
109.2611333755492
 30
0.0
 10
158.2905886400011
 20
109.433743040807
 30
0.0
 10
158.2902436272972
 20
109.7329638964172
 30
0.0
 10
158.3070096261111
 20
110.0356536706273
 30
0.0
 10
158.3614599602136
 20
110.2850658793313
 30
0.0
 10
158.4452237008305
 20
110.3319279857994
 30
0.0
 10
158.4875257150637
 20
110.3555940909687
 30
0.0
  0
SPLINE
  5
119
330
1F
100
AcDbEntity
  8
0
  6
Continuous
 62
     8
370
    18
100
AcDbSpline
210
0.0
220
0.0
230
1.0
 70
     8
 71
     3
 72
     9
 73
     5
 74
     0
 42
0.000000001
 43
0.00000001
 40
0.0
 40
0.0
 40
0.0
 40
0.0
 40
0.4635459531015914
 40
1.0
 40
1.0
 40
1.0
 40
1.0
 10
165.2803038643108
 20
106.771998934299
 30
0.0
 10
165.6433679239897
 20
106.6831600580071
 30
0.0
 10
166.4266000010893
 20
106.4915094229459
 30
0.0
 10
167.3119592944971
 20
106.3567677889456
 30
0.0
 10
167.7869138704048
 20
106.2844850941005
 30
0.0
  0
SPLINE
  5
11A
330
1F
100
AcDbEntity
  8
0
  6
Continuous
 62
     8
370
    18
100
AcDbSpline
210
0.0
220
0.0
230
1.0
 70
     8
 71
     3
 72
     8
 73
     4
 74
     0
 42
0.000000001
 43
0.00000001
 40
0.0
 40
0.0
 40
0.0
 40
0.0
 40
1.0
 40
1.0
 40
1.0
 40
1.0
 10
158.3750263984743
 20
108.475984592759
 30
0.0
 10
158.3395415696158
 20
108.7314077530099
 30
0.0
 10
158.3143208606292
 20
108.9650048771049
 30
0.0
 10
158.3021631437565
 20
109.1748302988252
 30
0.0
  0
SPLINE
  5
11B
330
1F
100
AcDbEntity
  8
0
  6
Continuous
 62
     8
370
    18
100
AcDbSpline
210
0.0
220
0.0
230
1.0
 70
     8
 71
     3
 72
    20
 73
    16
 74
     0
 42
0.000000001
 43
0.00000001
 40
0.0
 40
0.0
 40
0.0
 40
0.0
 40
0.0241304104004994
 40
0.173124360257807
 40
0.2668729899216565
 40
0.3570239526192581
 40
0.4417485015388931
 40
0.502622203046624
 40
0.5629370952420888
 40
0.6252724743697272
 40
0.6922938749088534
 40
0.7647343833381005
 40
0.8411422358136427
 40
0.9199443843772995
 40
1.0
 40
1.0
 40
1.0
 40
1.0
 10
210.1535880403029
 20
112.5737734957042
 30
0.0
 10
210.1475527337282
 20
112.6091655922358
 30
0.0
 10
210.1042522439163
 20
112.8630872607245
 30
0.0
 10
209.8611153811868
 20
112.7959039706015
 30
0.0
 10
209.2950127362526
 20
112.4744887836475
 30
0.0
 10
208.5241675552788
 20
111.9460184021756
 30
0.0
 10
207.3977776895127
 20
111.3116080714983
 30
0.0
 10
205.8455000098242
 20
110.6685072950256
 30
0.0
 10
203.9369407569599
 20
110.06437511869
 30
0.0
 10
201.4288814755858
 20
109.4751696262635
 30
0.0
 10
198.3730582656683
 20
109.003297910211
 30
0.0
 10
194.9283143197293
 20
108.7054705318429
 30
0.0
 10
191.2405268834963
 20
108.5505479480725
 30
0.0
 10
187.415277936399
 20
108.4975547306315
 30
0.0
 10
184.8317114703362
 20
108.4964689150168
 30
0.0
 10
183.5297354227558
 20
108.4959217233959
 30
0.0
  0
SPLINE
  5
11C
330
1F
100
AcDbEntity
  8
0
  6
Continuous
 62
     8
370
    18
100
AcDbSpline
210
0.0
220
0.0
230
1.0
 70
     8
 71
     3
 72
    32
 73
    28
 74
     0
 42
0.000000001
 43
0.00000001
 40
0.0
 40
0.0
 40
0.0
 40
0.0
 40
0.1878372206702676
 40
0.3773077177484475
 40
0.6162016569912904
 40
0.6675357795501395
 40
0.7297325872678009
 40
0.7632139163542296
 40
0.7856876584577025
 40
0.8204309859456312
 40
0.8388865443271157
 40
0.8449774111856458
 40
0.8574265512622895
 40
0.8823844498725701
 40
0.907133705255153
 40
0.929056740367733
 40
0.9513609283662213
 40
0.958874590066413
 40
0.9784084425068791
 40
0.9828531991647167
 40
0.9843445477848543
 40
0.9942025414269138
 40
0.9961521959988036
 40
0.9971487876579395
 40
0.9987460212034479
 40
0.9996953703558129
 40
1.0
 40
1.0
 40
1.0
 40
1.0
 10
208.6832201827229
 20
108.4758284367897
 30
0.0
 10
208.6898247997366
 20
108.5235505426461
 30
0.0
 10
208.7030914620261
 20
108.6194097061418
 30
0.0
 10
208.7213875802857
 20
108.7687860151686
 30
0.0
 10
208.7331920322149
 20
108.8806378385044
 30
0.0
 10
208.7405247825345
 20
108.9604078056588
 30
0.0
 10
208.7433753593359
 20
108.9933042053519
 30
0.0
 10
208.7455257709955
 20
109.019482050369
 30
0.0
 10
208.7471047546055
 20
109.0394582755494
 30
0.0
 10
208.7483609929163
 20
109.056023092808
 30
0.0
 10
208.7492999244689
 20
109.0689266794486
 30
0.0
 10
208.7498720624506
 20
109.076956417206
 30
0.0
 10
208.7505332094865
 20
109.0863781742103
 30
0.0
 10
208.7514583922525
 20
109.0997883296537
 30
0.0
 10
208.7525011225332
 20
109.1151618980795
 30
0.0
 10
208.7535008739777
 20
109.1298958173962
 30
0.0
 10
208.7542864140921
 20
109.1409055411685
 30
0.0
 10
208.7550227801012
 20
109.1513720962269
 30
0.0
 10
208.7554928702463
 20
109.1580323511036
 30
0.0
 10
208.755779279148
 20
109.1633867134348
 30
0.0
 10
208.7559336451445
 20
109.1667002644465
 30
0.0
 10
208.7560293603788
 20
109.1694801637613
 30
0.0
 10
208.7560490610179
 20
109.1721387235346
 30
0.0
 10
208.7560525690712
 20
109.1730810934257
 30
0.0
 10
208.7560583958072
 20
109.1738164013861
 30
0.0
 10
208.7560615296038
 20
109.174407639188
 30
0.0
 10
208.7560693258193
 20
109.1746689158061
 30
0.0
 10
208.7560712197575
 20
109.1747323878547
 30
0.0
  0
SPLINE
  5
11D
330
1F
100
AcDbEntity
  8
0
  6
Continuous
 62
     8
370
    18
100
AcDbSpline
210
0.0
220
0.0
230
1.0
 70
     8
 71
     3
 72
    32
 73
    28
 74
     0
 42
0.000000001
 43
0.00000001
 40
0.0
 40
0.0
 40
0.0
 40
0.0
 40
0.046397932259332
 40
0.0695965657676222
 40
0.0811946522721321
 40
0.1159923471051411
 40
0.1391928786298807
 40
0.1507844418382131
 40
0.1855806982462702
 40
0.2465426193939779
 40
0.277028688292468
 40
0.3380054130665327
 40
0.3989988497543598
 40
0.4295043518822199
 40
0.4905358120658647
 40
0.5515926463600287
 40
0.582136632483701
 40
0.6432576746718849
 40
0.7204068661638702
 40
0.7437033902845471
 40
0.7903186139386119
 40
0.8369739293536633
 40
0.8603170943735251
 40
0.9070372038356714
 40
0.9538037317539285
 40
0.9772046867069444
 40
1.0
 40
1.0
 40
1.0
 40
1.0
 10
208.7560713462083
 20
109.1747324148628
 30
0.0
 10
208.7577433414772
 20
109.2074177355799
 30
0.0
 10
208.7602513223941
 20
109.2564454823384
 30
0.0
 10
208.762389440519
 20
109.3114689286957
 30
0.0
 10
208.7640316766133
 20
109.3580183118216
 30
0.0
 10
208.7652724681428
 20
109.4036020121806
 30
0.0
 10
208.7661546042552
 20
109.4480068098746
 30
0.0
 10
208.7668143445358
 20
109.4916929803553
 30
0.0
 10
208.7674034360681
 20
109.5576103129866
 30
0.0
 10
208.7671462195804
 20
109.6315166029303
 30
0.0
 10
208.7657726828152
 20
109.7164930458956
 30
0.0
 10
208.7633104742643
 20
109.7971786163857
 30
0.0
 10
208.7592299834419
 20
109.8719749549035
 30
0.0
 10
208.7538573925667
 20
109.9422693653779
 30
0.0
 10
208.7471370384639
 20
110.0080081044568
 30
0.0
 10
208.7385126079518
 20
110.0675133794392
 30
0.0
 10
208.7283409458565
 20
110.1222549841215
 30
0.0
 10
208.715314198457
 20
110.1773953202586
 30
0.0
 10
208.7000392487405
 20
110.2222339069431
 30
0.0
 10
208.6841376168115
 20
110.2576537957326
 30
0.0
 10
208.6703767185446
 20
110.2827225329414
 30
0.0
 10
208.6550012126934
 20
110.3037222621454
 30
0.0
 10
208.6383597815885
 20
110.3216282633143
 30
0.0
 10
208.6204067134459
 20
110.336422568335
 30
0.0
 10
208.6006400467656
 20
110.3469172997362
 30
0.0
 10
208.5838555923353
 20
110.3528136350795
 30
0.0
 10
208.5750388540622
 20
110.354674640006
 30
0.0
 10
208.5706882794641
 20
110.355592943409
 30
0.0
  0
SPLINE
  5
11E
330
1F
100
AcDbEntity
  8
0
  6
Continuous
 62
     8
370
    18
100
AcDbSpline
210
0.0
220
0.0
230
1.0
 70
     8
 71
     3
 72
    25
 73
    21
 74
     0
 42
0.000000001
 43
0.00000001
 40
0.0
 40
0.0
 40
0.0
 40
0.0
 40
0.040916202226242
 40
0.0973089953760713
 40
0.1544652000522938
 40
0.1973832657255068
 40
0.2441954265902647
 40
0.2949096121502708
 40
0.3399771860623332
 40
0.3809161412639722
 40
0.436238809876548
 40
0.4913744398594145
 40
0.5382154067548155
 40
0.5767615757008003
 40
0.6265431645778471
 40
0.6736169670000779
 40
0.7179881775768653
 40
0.8128158659045212
 40
0.9062093083863078
 40
0.9999999999999999
 40
0.9999999999999999
 40
0.9999999999999999
 40
0.9999999999999999
 10
208.3400180028187
 20
136.1531325502696
 30
0.0
 10
208.2786428055912
 20
136.1075783466898
 30
0.0
 10
208.1326771866368
 20
135.9992390203514
 30
0.0
 10
207.766397813506
 20
135.7770976090776
 30
0.0
 10
207.3035386362635
 20
135.5178702123883
 30
0.0
 10
206.7815890826216
 20
135.2423665884679
 30
0.0
 10
206.2129285752962
 20
134.9590978810602
 30
0.0
 10
205.5599872900092
 20
134.6538955685406
 30
0.0
 10
204.8654840747855
 20
134.3488707156512
 30
0.0
 10
204.0857887029259
 20
134.0267511712588
 30
0.0
 10
203.17835334382
 20
133.6776637970906
 30
0.0
 10
202.1528891387727
 20
133.3170265663622
 30
0.0
 10
201.1717891198358
 20
132.9997036230247
 30
0.0
 10
200.1779825740436
 20
132.7009023628589
 30
0.0
 10
199.1319272872891
 20
132.4128883866486
 30
0.0
 10
197.9866225714512
 20
132.1263276310386
 30
0.0
 10
196.4128162018717
 20
131.7693047440847
 30
0.0
 10
194.3312363613128
 20
131.3720142591378
 30
0.0
 10
191.6585442852225
 20
130.974868452191
 30
0.0
 10
189.7905321529141
 20
130.8029305582758
 30
0.0
 10
188.8545439043449
 20
130.7167791648212
 30
0.0
  0
SPLINE
  5
11F
330
1F
100
AcDbEntity
  8
0
  6
Continuous
 62
     8
370
    18
100
AcDbSpline
210
0.0
220
0.0
230
1.0
 70
     8
 71
     3
 72
    25
 73
    21
 74
     0
 42
0.000000001
 43
0.00000001
 40
0.0
 40
0.0
 40
0.0
 40
0.0
 40
0.0409162114129171
 40
0.0973089907909479
 40
0.1544651950947385
 40
0.1973832604882957
 40
0.2441954210480239
 40
0.2949096062775746
 40
0.339977179895975
 40
0.3809161348308542
 40
0.4362388030829454
 40
0.4913744327065461
 40
0.5382153992967297
 40
0.5767615679915463
 40
0.6265431790426526
 40
0.6736169575396185
 40
0.7179881678272815
 40
0.8128158815413181
 40
0.9062093234145495
 40
0.9999999999999999
 40
0.9999999999999999
 40
0.9999999999999999
 40
0.9999999999999999
 10
158.7181956903444
 20
136.1531325502696
 30
0.0
 10
158.7795717678273
 20
136.1075783541011
 30
0.0
 10
158.9255394405987
 20
135.9992390748185
 30
0.0
 10
159.2918150200998
 20
135.7770975625337
 30
0.0
 10
159.7546752324188
 20
135.5178702171389
 30
0.0
 10
160.2766245651558
 20
135.2423665872383
 30
0.0
 10
160.8452851317114
 20
134.9590978814405
 30
0.0
 10
161.4982263997202
 20
134.6538955684257
 30
0.0
 10
162.1927296193446
 20
134.3488707157461
 30
0.0
 10
162.9724249891712
 20
134.0267511709645
 30
0.0
 10
163.8798603535696
 20
133.6776637985938
 30
0.0
 10
164.9053245400847
 20
133.317026561187
 30
0.0
 10
165.8864246145083
 20
132.9997036379388
 30
0.0
 10
166.8802311452323
 20
132.7009022626704
 30
0.0
 10
167.9262872559497
 20
132.4128885886242
 30
0.0
 10
169.0715911715168
 20
132.1263275288339
 30
0.0
 10
170.6453977706753
 20
131.7693047110407
 30
0.0
 10
172.7269780787215
 20
131.3720143350172
 30
0.0
 10
175.3996701947056
 20
130.9748684716849
 30
0.0
 10
177.2676821609193
 20
130.8029305603811
 30
0.0
 10
178.2036702544795
 20
130.7167791648212
 30
0.0
  0
SPLINE
  5
120
330
1F
100
AcDbEntity
  8
0
  6
Continuous
 62
     8
370
    18
100
AcDbSpline
210
0.0
220
0.0
230
1.0
 70
     8
 71
     3
 72
    34
 73
    30
 74
     0
 42
0.000000001
 43
0.00000001
 40
0.0
 40
0.0
 40
0.0
 40
0.0
 40
0.0463410832316868
 40
0.1659610323906873
 40
0.2058741308699035
 40
0.2331315195857579
 40
0.2739637533486555
 40
0.2875568646623925
 40
0.3389345122729281
 40
0.4114464503587248
 40
0.4558154510997439
 40
0.500141151393561
 40
0.5888498184729816
 40
0.6149005065171514
 40
0.6539642109080085
 40
0.6734844562553389
 40
0.6799908337759066
 40
0.6930172277536506
 40
0.7126150897929399
 40
0.732184668616625
 40
0.7515899741563195
 40
0.7711070143695373
 40
0.8101980768520985
 40
0.8297543104141392
 40
0.861678007554822
 40
0.874039207843124
 40
0.8863485816281177
 40
0.948248521363731
 40
1.0
 40
1.0
 40
1.0
 40
1.0
 10
208.3848138187529
 20
106.1018864528218
 30
0.0
 10
208.3904409322504
 20
106.1440427267922
 30
0.0
 10
208.4105932787279
 20
106.2950167278718
 30
0.0
 10
208.4351511673781
 20
106.4788471413586
 30
0.0
 10
208.4569248036756
 20
106.6414589343487
 30
0.0
 10
208.4693817598412
 20
106.7345497807756
 30
0.0
 10
208.478697887636
 20
106.8042612431366
 30
0.0
 10
208.4906451193649
 20
106.8938941113437
 30
0.0
 10
208.5059807208636
 20
107.0093525617095
 30
0.0
 10
208.5242730892341
 20
107.1484615890737
 30
0.0
 10
208.541316660653
 20
107.2793015311883
 30
0.0
 10
208.5596669174404
 20
107.4210985148654
 30
0.0
 10
208.5754205546457
 20
107.5454307400701
 30
0.0
 10
208.590028442648
 20
107.6633505494621
 30
0.0
 10
208.597876472874
 20
107.7275168972059
 30
0.0
 10
208.6037833334822
 20
107.7763724402877
 30
0.0
 10
208.6072941649521
 20
107.805553378975
 30
0.0
 10
208.6107854021418
 20
107.834693028658
 30
0.0
 10
208.6154062233123
 20
107.8733433657447
 30
0.0
 10
208.6205271924591
 20
107.9164202316639
 30
0.0
 10
208.6254756746152
 20
107.9591207682638
 30
0.0
 10
208.6320934091845
 20
108.0156935305433
 30
0.0
 10
208.6385180257166
 20
108.0717532188688
 30
0.0
 10
208.6458348171478
 20
108.1359939835755
 30
0.0
 10
208.6508800940021
 20
108.1808181318455
 30
0.0
 10
208.6552927393863
 20
108.2202032632087
 30
0.0
 10
208.6619316056633
 20
108.2801237874652
 30
0.0
 10
208.6714186114195
 20
108.3661372207066
 30
0.0
 10
208.679480069819
 20
108.4411835212407
 30
0.0
 10
208.6831508765551
 20
108.4753560557718
 30
0.0
  0
SPLINE
  5
121
330
1F
100
AcDbEntity
  8
0
  6
Continuous
 62
     8
370
    18
100
AcDbSpline
210
0.0
220
0.0
230
1.0
 70
     8
 71
     3
 72
   119
 73
   115
 74
     0
 42
0.000000001
 43
0.00000001
 40
0.0
 40
0.0
 40
0.0
 40
0.0
 40
0.0018058253898764
 40
0.0048078934169196
 40
0.0063090317458588
 40
0.0123141587386867
 40
0.0187563710482971
 40
0.0219780402244597
 40
0.0252000383850651
 40
0.0284220557797604
 40
0.0316444694563823
 40
0.0416717666190854
 40
0.0470454437393952
 40
0.0488365501817183
 40
0.0524192220947932
 40
0.0577942286893538
 40
0.0595861017242837
 40
0.0631698882978112
 40
0.0688130527812443
 40
0.0708723302948829
 40
0.0749912901674851
 40
0.0832299407428737
 40
0.0873496844200939
 40
0.0914696908492042
 40
0.0955892142787313
 40
0.0997098449167554
 40
0.1045659652760443
 40
0.1094221800105942
 40
0.1142784529971919
 40
0.1191345058260842
 40
0.12884771458939
 40
0.133704945158928
 40
0.1385624495075122
 40
0.1440357582228877
 40
0.1495091976366029
 40
0.1577192892401491
 40
0.1631898830855522
 40
0.1659268269764754
 40
0.1768754172336385
 40
0.1850856380797758
 40
0.1878210457228188
 40
0.1932920329778031
 40
0.2014987055251365
 40
0.2042343276264527
 40
0.2097054577711716
 40
0.215176717546814
 40
0.2206482051904995
 40
0.226119867112778
 40
0.229766281996226
 40
0.2315893332679954
 40
0.2407050478289459
 40
0.247997932418316
 40
0.2516444684465065
 40
0.2552909210132755
 40
0.2650137220763966
 40
0.26744444825024
 40
0.2723059233977596
 40
0.2747366777313988
 40
0.2759514917577884
 40
0.2783815579433206
 40
0.2844574932995796
 40
0.2893185270204178
 40
0.2978259320695131
 40
0.3087644482051868
 40
0.316056467641176
 40
0.3197021211059093
 40
0.3233478468910245
 40
0.3342863708620471
 40
0.3452255425609515
 40
0.3561646975908633
 40
0.361634031306598
 40
0.3671028448943894
 40
0.3753068826620109
 40
0.3835115855318095
 40
0.4081271283762712
 40
0.4245379393021904
 40
0.4327431793297128
 40
0.4512035228103799
 40
0.4696620717893514
 40
0.4819694199214307
 40
0.4942771546099287
 40
0.5065848909063109
 40
0.5127385896347953
 40
0.5250459087731494
 40
0.5400684629318471
 40
0.5489350056837144
 40
0.5666720846303688
 40
0.5844111058636207
 40
0.5932807776873776
 40
0.6110189718785698
 40
0.6287566268497133
 40
0.6376251563766121
 40
0.6553624332134794
 40
0.6731006050482258
 40
0.6836191353782293
 40
0.7046564972577922
 40
0.7256917542660918
 40
0.7362099455453213
 40
0.757247275079084
 40
0.7993197487401484
 40
0.8098370797958182
 40
0.8308725152398182
 40
0.8487527048351208
 40
0.8561137621121715
 40
0.8855566169100507
 40
0.9002768708611271
 40
0.907636299573018
 40
0.9223582863223125
 40
0.944440922534446
 40
0.9518012336314565
 40
0.9693714119746147
 40
0.9795817138741353
 40
0.9897915072819008
 40
1.0
 40
1.0
 40
1.0
 40
1.0
 10
202.200743325244
 20
95.01311975642793
 30
0.0
 10
202.2186022627798
 20
95.01809954957777
 30
0.0
 10
202.2661505300113
 20
95.03135792706924
 30
0.0
 10
202.3276686360738
 20
95.0489691862934
 30
0.0
 10
202.4290793681937
 20
95.07855087186037
 30
0.0
 10
202.5611580905013
 20
95.11841141526789
 30
0.0
 10
202.7048158096996
 20
95.16423178286604
 30
0.0
 10
202.8199337365204
 20
95.20254401369304
 30
0.0
 10
202.9047757477001
 20
95.23158840424118
 30
0.0
 10
202.9881282141939
 20
95.26093252556223
 30
0.0
 10
203.127629369057
 20
95.31142560804354
 30
0.0
 10
203.2794969174549
 20
95.36962520713918
 30
0.0
 10
203.4135163791102
 20
95.4244042379179
 30
0.0
 10
203.4955402440614
 20
95.45893782869447
 30
0.0
 10
203.5762731757436
 20
95.49368867076971
 30
0.0
 10
203.654853847311
 20
95.52878085963084
 30
0.0
 10
203.7317583165793
 20
95.56412899468816
 30
0.0
 10
203.80929527149
 20
95.60054911162494
 30
0.0
 10
203.8864885414472
 20
95.63817232173687
 30
0.0
 10
203.965449171888
 20
95.67783696322662
 30
0.0
 10
204.0599205424506
 20
95.72645673538909
 30
0.0
 10
204.1638193517794
 20
95.78255965598021
 30
0.0
 10
204.2638366064254
 20
95.83913871086212
 30
0.0
 10
204.3369617226188
 20
95.88179952119951
 30
0.0
 10
204.4082717449707
 20
95.92467741199465
 30
0.0
 10
204.4819670493663
 20
95.97032478133727
 30
0.0
 10
204.557689937863
 20
96.01877097863436
 30
0.0
 10
204.6351099630943
 20
96.07003957537316
 30
0.0
 10
204.7102710840856
 20
96.12153693162634
 30
0.0
 10
204.8075713547256
 20
96.19048638004254
 30
0.0
 10
204.900643695543
 20
96.25983692036189
 30
0.0
 10
204.9898062413248
 20
96.3295382636499
 30
0.0
 10
205.0575453797445
 20
96.38419836951539
 30
0.0
 10
205.1259459785458
 20
96.44125307016554
 30
0.0
 10
205.2062743583883
 20
96.51062045784045
 30
0.0
 10
205.2835068844509
 20
96.5802235063242
 30
0.0
 10
205.3471839204455
 20
96.64006623277574
 30
0.0
 10
205.419741542724
 20
96.7100049430952
 30
0.0
 10
205.4995681978939
 20
96.79017639767062
 30
0.0
 10
205.5753382298595
 20
96.87061641056657
 30
0.0
 10
205.6305393883414
 20
96.93104100408587
 30
0.0
 10
205.6845437587748
 20
96.99153216148915
 30
0.0
 10
205.7366454094906
 20
97.05214739862598
 30
0.0
 10
205.7873120187807
 20
97.11285160805924
 30
0.0
 10
205.8286597731825
 20
97.16349359438495
 30
0.0
 10
205.8768434619782
 20
97.22433309442799
 30
0.0
 10
205.9236746821832
 20
97.28524148907871
 30
0.0
 10
205.9641435917124
 20
97.33943394721031
 30
0.0
 10
205.9938014661131
 20
97.38010711945074
 30
0.0
 10
206.0327948252431
 20
97.43435119481447
 30
0.0
 10
206.0801966391084
 20
97.50221617325255
 30
0.0
 10
206.1302680967405
 20
97.57695464441352
 30
0.0
 10
206.1657332845964
 20
97.63134930379397
 30
0.0
 10
206.2063911619805
 20
97.69483497193664
 30
0.0
 10
206.2429665907946
 20
97.75383359458503
 30
0.0
 10
206.2812784078659
 20
97.81741125594357
 30
0.0
 10
206.302809419264
 20
97.85375605964103
 30
0.0
 10
206.3213402035301
 20
97.88556720483602
 30
0.0
 10
206.3344741773364
 20
97.908291564614
 30
0.0
 10
206.3553370128749
 20
97.9446593451258
 30
0.0
 10
206.383512205186
 20
97.99469254622828
 30
0.0
 10
206.4235542358398
 20
98.06751180766496
 30
0.0
 10
206.4722104028428
 20
98.15859632177174
 30
0.0
 10
206.523595862905
 20
98.25886643868664
 30
0.0
 10
206.5641105853001
 20
98.34095563149842
 30
0.0
 10
206.5905351034432
 20
98.39569780753857
 30
0.0
 10
206.6230818856342
 20
98.4641414382004
 30
0.0
 10
206.6673530952855
 20
98.56000960639588
 30
0.0
 10
206.7219472054498
 20
98.683344390888
 30
0.0
 10
206.7656605875632
 20
98.7861834667934
 30
0.0
 10
206.7996461389707
 20
98.86848619501451
 30
0.0
 10
206.8288404019912
 20
98.94052077420157
 30
0.0
 10
206.8614738950066
 20
99.02288090212377
 30
0.0
 10
206.9210340755433
 20
99.17737599670004
 30
0.0
 10
206.9887386403703
 20
99.36289240492219
 30
0.0
 10
207.0523544098355
 20
99.54849534185281
 30
0.0
 10
207.1060564784083
 20
99.71091273460017
 30
0.0
 10
207.1601563210517
 20
99.88106470570149
 30
0.0
 10
207.2164712110905
 20
100.0667373820185
 30
0.0
 10
207.2639842506755
 20
100.2292420929145
 30
0.0
 10
207.3035216472327
 20
100.3685573201211
 30
0.0
 10
207.3355579564041
 20
100.4846711542225
 30
0.0
 10
207.36693206454
 20
100.6007934768532
 30
0.0
 10
207.4003684936899
 20
100.7271717555417
 30
0.0
 10
207.4354346784556
 20
100.8638042400844
 30
0.0
 10
207.4747441618958
 20
101.0209485054404
 30
0.0
 10
207.5154538768121
 20
101.1883664004725
 30
0.0
 10
207.5547793963993
 20
101.3558310596085
 30
0.0
 10
207.5931205725454
 20
101.5233213066433
 30
0.0
 10
207.6305415689698
 20
101.6908323606429
 30
0.0
 10
207.6668507508968
 20
101.8583741114376
 30
0.0
 10
207.7024211500272
 20
102.0259402750937
 30
0.0
 10
207.7372702433281
 20
102.1935313512221
 30
0.0
 10
207.77242545275
 20
102.3673693714756
 30
0.0
 10
207.809313081415
 20
102.5536816951663
 30
0.0
 10
207.8477521013161
 20
102.7524497281144
 30
0.0
 10
207.885075152943
 20
102.9511988712627
 30
0.0
 10
207.9216100190766
 20
103.1499283477214
 30
0.0
 10
207.9717118957699
 20
103.4281310742184
 30
0.0
 10
208.0198710554936
 20
103.706303498582
 30
0.0
 10
208.0668060609657
 20
103.9846226542611
 30
0.0
 10
208.0978087680463
 20
104.1716078031343
 30
0.0
 10
208.1262808997707
 20
104.3466799672801
 30
0.0
 10
208.1594728387667
 20
104.5534940071196
 30
0.0
 10
208.1901047303043
 20
104.7482524359797
 30
0.0
 10
208.2199283967407
 20
104.9429475745519
 30
0.0
 10
208.2409549113881
 20
105.0820308510222
 30
0.0
 10
208.2658327692204
 20
105.2489687213988
 30
0.0
 10
208.2901162012536
 20
105.4160158263165
 30
0.0
 10
208.3155010479164
 20
105.5939293907842
 30
0.0
 10
208.3340873825009
 20
105.7269397546088
 30
0.0
 10
208.3538124947052
 20
105.8706573201376
 30
0.0
 10
208.3694759469793
 20
105.9864261514065
 30
0.0
 10
208.3796994574702
 20
106.063387908234
 30
0.0
 10
208.3848108870856
 20
106.1018663353313
 30
0.0
  0
SPLINE
  5
122
330
1F
100
AcDbEntity
  8
0
  6
Continuous
 62
     8
370
    18
100
AcDbSpline
210
0.0
220
0.0
230
1.0
 70
     8
 71
     3
 72
    33
 73
    29
 74
     0
 42
0.000000001
 43
0.00000001
 40
0.0
 40
0.0
 40
0.0
 40
0.0
 40
0.0223992352213291
 40
0.0447360366580633
 40
0.0559812281384819
 40
0.0673655832112006
 40
0.0901376548248405
 40
0.1130338825926235
 40
0.1357325802317038
 40
0.1588177232942999
 40
0.1812079574218692
 40
0.2040008798301265
 40
0.2268019490823399
 40
0.2499911256483707
 40
0.2727946429284493
 40
0.2956685356718144
 40
0.3186228551831802
 40
0.3641563636696716
 40
0.4100826681788808
 40
0.4555746257540904
 40
0.5009042380572036
 40
0.5462210822586349
 40
0.5919954159074967
 40
0.6377606871014398
 40
0.728076193358389
 40
0.8178804999216771
 40
0.9081349897026942
 40
0.9999999999999999
 40
0.9999999999999999
 40
0.9999999999999999
 40
0.9999999999999999
 10
164.8481720523344
 20
95.01597367957262
 30
0.0
 10
164.6331036307838
 20
95.07933418087896
 30
0.0
 10
164.2035662516989
 20
95.20587857764548
 30
0.0
 10
163.7439784078092
 20
95.38069577480285
 30
0.0
 10
163.4061133782295
 20
95.52596346479875
 30
0.0
 10
163.0881926034087
 20
95.67624951276629
 30
0.0
 10
162.7292092722613
 20
95.87066072472966
 30
0.0
 10
162.3554787367805
 20
96.11020405171803
 30
0.0
 10
162.0287058557006
 20
96.35556154020827
 30
0.0
 10
161.7449203332798
 20
96.60258037895778
 30
0.0
 10
161.4952325129391
 20
96.85238450519698
 30
0.0
 10
161.2747736264778
 20
97.10310674833423
 30
0.0
 10
161.0766235880952
 20
97.35820451639931
 30
0.0
 10
160.9004382499548
 20
97.61430686448028
 30
0.0
 10
160.7425937369998
 20
97.87142306748153
 30
0.0
 10
160.6001211616254
 20
98.12830637321818
 30
0.0
 10
160.4277287869483
 20
98.47093291766423
 30
0.0
 10
160.2401193266802
 20
98.90082715629723
 30
0.0
 10
160.0471598870788
 20
99.41665822418497
 30
0.0
 10
159.8798277077512
 20
99.93209851941023
 30
0.0
 10
159.731060128095
 20
100.4455426083889
 30
0.0
 10
159.5966019512729
 20
100.960281750669
 30
0.0
 10
159.4741313117293
 20
101.4768529046443
 30
0.0
 10
159.3243335774228
 20
102.1636808035069
 30
0.0
 10
159.1571757015559
 20
103.0172405072084
 30
0.0
 10
158.9802874222777
 20
104.0384184303938
 30
0.0
 10
158.8157908367833
 20
105.0663612537658
 30
0.0
 10
158.7211444712725
 20
105.7546674152609
 30
0.0
 10
158.6734027997957
 20
106.1018639130893
 30
0.0
  0
SPLINE
  5
123
330
1F
100
AcDbEntity
  8
0
  6
Continuous
 62
     8
370
    18
100
AcDbSpline
210
0.0
220
0.0
230
1.0
 70
     8
 71
     3
 72
    19
 73
    15
 74
     0
 42
0.000000001
 43
0.00000001
 40
0.0
 40
0.0
 40
0.0
 40
0.0
 40
0.25
 40
0.25
 40
0.5000000000000004
 40
0.5000000000000004
 40
0.7500000000000009
 40
0.7500000000000009
 40
0.8750000000000004
 40
0.8750000000000004
 40
0.9375000000000004
 40
0.9687500000000002
 40
0.9687500000000002
 40
1.0
 40
1.0
 40
1.0
 40
1.0
 10
158.375071031799
 20
108.4753934890281
 30
0.0
 10
158.3933602265798
 20
108.3110714593975
 30
0.0
 10
158.4117025070525
 20
108.1381610180615
 30
0.0
 10
158.4543561890679
 20
107.7741104052561
 30
0.0
 10
158.4785904232483
 20
107.5838780325858
 30
0.0
 10
158.5295542776482
 20
107.1871111151709
 30
0.0
 10
158.5567283788813
 20
106.9806781511233
 30
0.0
 10
158.5993133465569
 20
106.6595856305806
 30
0.0
 10
158.6138199085422
 20
106.5506474526593
 30
0.0
 10
158.635948807167
 20
106.3844624021641
 30
0.0
 10
158.6471046713218
 20
106.3006755224106
 30
0.0
 10
158.6583610964548
 20
106.2158637803987
 30
0.0
 10
158.6658814883642
 20
106.1590968161563
 30
0.0
 10
158.6696421360443
 20
106.1309610782195
 30
0.0
 10
158.6734226059989
 20
106.1019920806434
 30
0.0
  0
ENDSEC
  0
SECTION
  2
OBJECTS
  0
DICTIONARY
  5
C
330
0
100
AcDbDictionary
281
     1
  3
ACAD_GROUP
350
D
  3
ACAD_LAYOUT
350
1A
  3
ACAD_MLINESTYLE
350
17
  3
ACAD_PLOTSETTINGS
350
19
  3
ACAD_PLOTSTYLENAME
350
E
  3
ACAD_SCALELIST
350
47
  0
DICTIONARY
  5
D
102
{ACAD_REACTORS
330
C
102
}
330
C
100
AcDbDictionary
281
     1
  0
DICTIONARY
  5
1A
102
{ACAD_REACTORS
330
C
102
}
330
C
100
AcDbDictionary
281
     1
  3
Layout1
350
1E
  3
Layout2
350
26
  3
Model
350
22
  0
DICTIONARY
  5
17
102
{ACAD_REACTORS
330
C
102
}
330
C
100
AcDbDictionary
281
     1
  3
Standard
350
18
  0
DICTIONARY
  5
19
102
{ACAD_REACTORS
330
C
102
}
330
C
100
AcDbDictionary
281
     1
  0
ACDBDICTIONARYWDFLT
  5
E
102
{ACAD_REACTORS
330
C
102
}
330
C
100
AcDbDictionary
281
     1
  3
Normal
350
F
100
AcDbDictionaryWithDefault
340
F
  0
DICTIONARY
  5
47
102
{ACAD_REACTORS
330
C
102
}
330
C
100
AcDbDictionary
281
     1
  3
A0
350
48
  3
A1
350
49
  3
A2
350
4A
  3
A3
350
4B
  3
A4
350
4C
  3
A5
350
4D
  3
A6
350
4E
  3
A7
350
4F
  3
A8
350
50
  3
A9
350
51
  3
B0
350
52
  3
B1
350
53
  3
B2
350
54
  3
B3
350
55
  3
B4
350
56
  3
B5
350
57
  3
B6
350
58
  3
B7
350
59
  3
B8
350
5A
  3
B9
350
5B
  3
C0
350
5C
  3
C1
350
5D
  3
C2
350
5E
  3
C3
350
5F
  3
C4
350
60
  3
C5
350
61
  3
C6
350
62
  3
C7
350
63
  3
C8
350
64
  3
C9
350
65
  3
D0
350
66
  3
D1
350
67
  3
D2
350
68
  0
LAYOUT
  5
1E
102
{ACAD_REACTORS
330
1A
102
}
330
1A
100
AcDbPlotSettings
  1

  2
none_device
  4

  6

 40
0.0
 41
0.0
 42
0.0
 43
0.0
 44
0.0
 45
0.0
 46
0.0
 47
0.0
 48
0.0
 49
0.0
140
0.0
141
0.0
142
1.0
143
1.0
 70
   688
 72
     1
 73
     0
 74
     5
  7

 75
    16
147
1.0
148
0.0
149
0.0
100
AcDbLayout
  1
Layout1
 70
     1
 71
     1
 10
0.0
 20
0.0
 11
420.0
 21
297.0
 12
0.0
 22
0.0
 32
0.0
 14
1.0000000000E+20
 24
1.0000000000E+20
 34
1.0000000000E+20
 15
-1.0000000000E+20
 25
-1.0000000000E+20
 35
-1.0000000000E+20
146
0.0
 13
0.0
 23
0.0
 33
0.0
 16
1.0
 26
0.0
 36
0.0
 17
0.0
 27
1.0
 37
0.0
 76
     0
330
1B
  0
LAYOUT
  5
26
102
{ACAD_REACTORS
330
1A
102
}
330
1A
100
AcDbPlotSettings
  1

  2
none_device
  4

  6

 40
0.0
 41
0.0
 42
0.0
 43
0.0
 44
0.0
 45
0.0
 46
0.0
 47
0.0
 48
0.0
 49
0.0
140
0.0
141
0.0
142
1.0
143
1.0
 70
   688
 72
     1
 73
     0
 74
     5
  7

 75
    16
147
1.0
148
0.0
149
0.0
100
AcDbLayout
  1
Layout2
 70
     1
 71
     2
 10
0.0
 20
0.0
 11
0.0
 21
0.0
 12
0.0
 22
0.0
 32
0.0
 14
0.0
 24
0.0
 34
0.0
 15
0.0
 25
0.0
 35
0.0
146
0.0
 13
0.0
 23
0.0
 33
0.0
 16
1.0
 26
0.0
 36
0.0
 17
0.0
 27
1.0
 37
0.0
 76
     0
330
23
  0
LAYOUT
  5
22
102
{ACAD_REACTORS
330
1A
102
}
330
1A
100
AcDbPlotSettings
  1

  2
none_device
  4
Letter_(8.50_x_11.00_Inches)
  6

 40
6.35
 41
6.35
 42
6.35000508
 43
6.35000508
 44
215.9
 45
279.4
 46
0.0
 47
0.0
 48
0.0
 49
0.0
140
0.0
141
0.0
142
1.0
143
1.0
 70
  1712
 72
     1
 73
     0
 74
     0
  7

 75
     0
147
1.0
148
0.0
149
0.0
100
AcDbLayout
  1
Model
 70
     1
 71
     0
 10
0.0
 20
0.0
 11
594.0
 21
841.0
 12
0.0
 22
0.0
 32
0.0
 14
0.0
 24
0.0
 34
0.0
 15
594.0
 25
841.0
 35
0.0
146
0.0
 13
0.0
 23
0.0
 33
0.0
 16
1.0
 26
0.0
 36
0.0
 17
0.0
 27
1.0
 37
0.0
 76
     0
330
1F
331
29
  0
MLINESTYLE
  5
18
102
{ACAD_REACTORS
330
17
102
}
330
17
100
AcDbMlineStyle
  2
Standard
 70
     0
  3

 62
   256
 51
90.0
 52
90.0
 71
     2
 49
0.5
 62
   256
  6
BYLAYER
 49
-0.5
 62
   256
  6
BYLAYER
  0
ACDBPLACEHOLDER
  5
F
102
{ACAD_REACTORS
330
E
102
}
330
E
  0
SCALE
  5
48
102
{ACAD_REACTORS
330
47
102
}
330
47
100
AcDbScale
 70
     0
300
1:1
140
1.0
141
1.0
290
     1
  0
SCALE
  5
49
102
{ACAD_REACTORS
330
47
102
}
330
47
100
AcDbScale
 70
     0
300
1:2
140
1.0
141
2.0
290
     0
  0
SCALE
  5
4A
102
{ACAD_REACTORS
330
47
102
}
330
47
100
AcDbScale
 70
     0
300
1:4
140
1.0
141
4.0
290
     0
  0
SCALE
  5
4B
102
{ACAD_REACTORS
330
47
102
}
330
47
100
AcDbScale
 70
     0
300
1:5
140
1.0
141
5.0
290
     0
  0
SCALE
  5
4C
102
{ACAD_REACTORS
330
47
102
}
330
47
100
AcDbScale
 70
     0
300
1:8
140
1.0
141
8.0
290
     0
  0
SCALE
  5
4D
102
{ACAD_REACTORS
330
47
102
}
330
47
100
AcDbScale
 70
     0
300
1:10
140
1.0
141
10.0
290
     0
  0
SCALE
  5
4E
102
{ACAD_REACTORS
330
47
102
}
330
47
100
AcDbScale
 70
     0
300
1:16
140
1.0
141
16.0
290
     0
  0
SCALE
  5
4F
102
{ACAD_REACTORS
330
47
102
}
330
47
100
AcDbScale
 70
     0
300
1:20
140
1.0
141
20.0
290
     0
  0
SCALE
  5
50
102
{ACAD_REACTORS
330
47
102
}
330
47
100
AcDbScale
 70
     0
300
1:30
140
1.0
141
30.0
290
     0
  0
SCALE
  5
51
102
{ACAD_REACTORS
330
47
102
}
330
47
100
AcDbScale
 70
     0
300
1:40
140
1.0
141
40.0
290
     0
  0
SCALE
  5
52
102
{ACAD_REACTORS
330
47
102
}
330
47
100
AcDbScale
 70
     0
300
1:50
140
1.0
141
50.0
290
     0
  0
SCALE
  5
53
102
{ACAD_REACTORS
330
47
102
}
330
47
100
AcDbScale
 70
     0
300
1:100
140
1.0
141
100.0
290
     0
  0
SCALE
  5
54
102
{ACAD_REACTORS
330
47
102
}
330
47
100
AcDbScale
 70
     0
300
2:1
140
2.0
141
1.0
290
     0
  0
SCALE
  5
55
102
{ACAD_REACTORS
330
47
102
}
330
47
100
AcDbScale
 70
     0
300
4:1
140
4.0
141
1.0
290
     0
  0
SCALE
  5
56
102
{ACAD_REACTORS
330
47
102
}
330
47
100
AcDbScale
 70
     0
300
8:1
140
8.0
141
1.0
290
     0
  0
SCALE
  5
57
102
{ACAD_REACTORS
330
47
102
}
330
47
100
AcDbScale
 70
     0
300
10:1
140
10.0
141
1.0
290
     0
  0
SCALE
  5
58
102
{ACAD_REACTORS
330
47
102
}
330
47
100
AcDbScale
 70
     0
300
100:1
140
100.0
141
1.0
290
     0
  0
SCALE
  5
59
102
{ACAD_REACTORS
330
47
102
}
330
47
100
AcDbScale
 70
     0
300
1/128" = 1'-0"
140
0.0078125
141
12.0
290
     0
  0
SCALE
  5
5A
102
{ACAD_REACTORS
330
47
102
}
330
47
100
AcDbScale
 70
     0
300
1/64" = 1'-0"
140
0.015625
141
12.0
290
     0
  0
SCALE
  5
5B
102
{ACAD_REACTORS
330
47
102
}
330
47
100
AcDbScale
 70
     0
300
1/32" = 1'-0"
140
0.03125
141
12.0
290
     0
  0
SCALE
  5
5C
102
{ACAD_REACTORS
330
47
102
}
330
47
100
AcDbScale
 70
     0
300
1/16" = 1'-0"
140
0.0625
141
12.0
290
     0
  0
SCALE
  5
5D
102
{ACAD_REACTORS
330
47
102
}
330
47
100
AcDbScale
 70
     0
300
3/32" = 1'-0"
140
0.09375
141
12.0
290
     0
  0
SCALE
  5
5E
102
{ACAD_REACTORS
330
47
102
}
330
47
100
AcDbScale
 70
     0
300
1/8" = 1'-0"
140
0.125
141
12.0
290
     0
  0
SCALE
  5
5F
102
{ACAD_REACTORS
330
47
102
}
330
47
100
AcDbScale
 70
     0
300
3/16" = 1'-0"
140
0.1875
141
12.0
290
     0
  0
SCALE
  5
60
102
{ACAD_REACTORS
330
47
102
}
330
47
100
AcDbScale
 70
     0
300
1/4" = 1'-0"
140
0.25
141
12.0
290
     0
  0
SCALE
  5
61
102
{ACAD_REACTORS
330
47
102
}
330
47
100
AcDbScale
 70
     0
300
3/8" = 1'-0"
140
0.375
141
12.0
290
     0
  0
SCALE
  5
62
102
{ACAD_REACTORS
330
47
102
}
330
47
100
AcDbScale
 70
     0
300
1/2" = 1'-0"
140
0.5
141
12.0
290
     0
  0
SCALE
  5
63
102
{ACAD_REACTORS
330
47
102
}
330
47
100
AcDbScale
 70
     0
300
3/4" = 1'-0"
140
0.75
141
12.0
290
     0
  0
SCALE
  5
64
102
{ACAD_REACTORS
330
47
102
}
330
47
100
AcDbScale
 70
     0
300
1" = 1'-0"
140
1.0
141
12.0
290
     0
  0
SCALE
  5
65
102
{ACAD_REACTORS
330
47
102
}
330
47
100
AcDbScale
 70
     0
300
1-1/2" = 1'-0"
140
1.5
141
12.0
290
     0
  0
SCALE
  5
66
102
{ACAD_REACTORS
330
47
102
}
330
47
100
AcDbScale
 70
     0
300
3" = 1'-0"
140
3.0
141
12.0
290
     0
  0
SCALE
  5
67
102
{ACAD_REACTORS
330
47
102
}
330
47
100
AcDbScale
 70
     0
300
6" = 1'-0"
140
6.0
141
12.0
290
     0
  0
SCALE
  5
68
102
{ACAD_REACTORS
330
47
102
}
330
47
100
AcDbScale
 70
     0
300
1'-0" = 1'-0"
140
12.0
141
12.0
290
     0
  0
ENDSEC
  0
EOF
